  0
SECTION
  2
HEADER
  9
$ACADVER
  1
AC1015
  9
$ACADMAINTVER
 70
    18
  9
$DWGCODEPAGE
  3
ANSI_1250
  9
$INSBASE
 10
0.0
 20
0.0
 30
0.0
  9
$EXTMIN
 10
1.000000000000000E+20
 20
1.000000000000000E+20
 30
1.000000000000000E+20
  9
$EXTMAX
 10
0.0
 20
0.0
 30
0.0
  9
$LIMMIN
 10
0.0
 20
0.0
  9
$LIMMAX
 10
420.0
 20
297.0
  9
$ORTHOMODE
 70
     1
  9
$REGENMODE
 70
     1
  9
$FILLMODE
 70
     1
  9
$QTEXTMODE
 70
     0
  9
$MIRRTEXT
 70
     0
  9
$LTSCALE
 40
75.0
  9
$ATTMODE
 70
     1
  9
$TEXTSIZE
 40
20.0
  9
$TRACEWID
 40
1.0
  9
$TEXTSTYLE
  7
ROMANS
  9
$CLAYER
  8
WYMIARY
  9
$CELTYPE
  6
ByLayer
  9
$CECOLOR
 62
   256
  9
$CELTSCALE
 40
1.0
  9
$DISPSILH
 70
     0
  9
$DIMSCALE
 40
1.0
  9
$DIMASZ
 40
30.0
  9
$DIMEXO
 40
43.0
  9
$DIMDLI
 40
0.0
  9
$DIMRND
 40
0.5
  9
$DIMDLE
 40
12.0
  9
$DIMEXE
 40
13.0
  9
$DIMTP
 40
0.0
  9
$DIMTM
 40
0.0
  9
$DIMTXT
 40
80.0
  9
$DIMCEN
 40
0.0
  9
$DIMTSZ
 40
0.0
  9
$DIMTOL
 70
     0
  9
$DIMLIM
 70
     0
  9
$DIMTIH
 70
     0
  9
$DIMTOH
 70
     0
  9
$DIMSE1
 70
     1
  9
$DIMSE2
 70
     1
  9
$DIMTAD
 70
     0
  9
$DIMZIN
 70
    12
  9
$DIMBLK
  1
B-DIM
  9
$DIMASO
 70
     1
  9
$DIMSHO
 70
     1
  9
$DIMPOST
  1

  9
$DIMAPOST
  1

  9
$DIMALT
 70
     0
  9
$DIMALTD
 70
     2
  9
$DIMALTF
 40
25.4
  9
$DIMLFAC
 40
1.0
  9
$DIMTOFL
 70
     1
  9
$DIMTVP
 40
1.0
  9
$DIMTIX
 70
     1
  9
$DIMSOXD
 70
     0
  9
$DIMSAH
 70
     0
  9
$DIMBLK1
  1

  9
$DIMBLK2
  1

  9
$DIMSTYLE
  2
500
  9
$DIMCLRD
 70
     1
  9
$DIMCLRE
 70
     1
  9
$DIMCLRT
 70
    10
  9
$DIMTFAC
 40
1.0
  9
$DIMGAP
 40
0.0
  9
$DIMJUST
 70
     0
  9
$DIMSD1
 70
     0
  9
$DIMSD2
 70
     0
  9
$DIMTOLJ
 70
     1
  9
$DIMTZIN
 70
     0
  9
$DIMALTZ
 70
     0
  9
$DIMALTTZ
 70
     0
  9
$DIMUPT
 70
     0
  9
$DIMDEC
 70
     1
  9
$DIMTDEC
 70
     1
  9
$DIMALTU
 70
     2
  9
$DIMALTTD
 70
     2
  9
$DIMTXSTY
  7
ROMANS
  9
$DIMAUNIT
 70
     0
  9
$DIMADEC
 70
     0
  9
$DIMALTRND
 40
0.0
  9
$DIMAZIN
 70
     0
  9
$DIMDSEP
 70
    46
  9
$DIMATFIT
 70
     3
  9
$DIMFRAC
 70
     0
  9
$DIMLDRBLK
  1
B-DIM
  9
$DIMLUNIT
 70
     2
  9
$DIMLWD
 70
    -2
  9
$DIMLWE
 70
    -2
  9
$DIMTMOVE
 70
     2
  9
$LUNITS
 70
     2
  9
$LUPREC
 70
     1
  9
$SKETCHINC
 40
1.0
  9
$FILLETRAD
 40
0.0
  9
$AUNITS
 70
     0
  9
$AUPREC
 70
     0
  9
$MENU
  1
.
  9
$ELEVATION
 40
0.0
  9
$PELEVATION
 40
0.0
  9
$THICKNESS
 40
0.0
  9
$LIMCHECK
 70
     0
  9
$CHAMFERA
 40
0.0
  9
$CHAMFERB
 40
0.0
  9
$CHAMFERC
 40
20.0
  9
$CHAMFERD
 40
0.0
  9
$SKPOLY
 70
     0
  9
$TDCREATE
 40
2452027.670547454
  9
$TDUCREATE
 40
2452027.587214121
  9
$TDUPDATE
 40
2454985.601471887
  9
$TDUUPDATE
 40
2454985.518138553
  9
$TDINDWG
 40
8.4647920255
  9
$TDUSRTIMER
 40
8.4647920255
  9
$USRTIMER
 70
     1
  9
$ANGBASE
 50
0.0
  9
$ANGDIR
 70
     0
  9
$PDMODE
 70
     0
  9
$PDSIZE
 40
0.0
  9
$PLINEWID
 40
0.0
  9
$SPLFRAME
 70
     0
  9
$SPLINETYPE
 70
     6
  9
$SPLINESEGS
 70
     8
  9
$HANDSEED
  5
277
  9
$SURFTAB1
 70
     6
  9
$SURFTAB2
 70
     6
  9
$SURFTYPE
 70
     6
  9
$SURFU
 70
     6
  9
$SURFV
 70
     6
  9
$UCSBASE
  2

  9
$UCSNAME
  2

  9
$UCSORG
 10
0.0
 20
0.0
 30
0.0
  9
$UCSXDIR
 10
1.0
 20
0.0
 30
0.0
  9
$UCSYDIR
 10
0.0
 20
1.0
 30
0.0
  9
$UCSORTHOREF
  2

  9
$UCSORTHOVIEW
 70
     0
  9
$UCSORGTOP
 10
0.0
 20
0.0
 30
0.0
  9
$UCSORGBOTTOM
 10
0.0
 20
0.0
 30
0.0
  9
$UCSORGLEFT
 10
0.0
 20
0.0
 30
0.0
  9
$UCSORGRIGHT
 10
0.0
 20
0.0
 30
0.0
  9
$UCSORGFRONT
 10
0.0
 20
0.0
 30
0.0
  9
$UCSORGBACK
 10
0.0
 20
0.0
 30
0.0
  9
$PUCSBASE
  2

  9
$PUCSNAME
  2

  9
$PUCSORG
 10
0.0
 20
0.0
 30
0.0
  9
$PUCSXDIR
 10
1.0
 20
0.0
 30
0.0
  9
$PUCSYDIR
 10
0.0
 20
1.0
 30
0.0
  9
$PUCSORTHOREF
  2

  9
$PUCSORTHOVIEW
 70
     0
  9
$PUCSORGTOP
 10
0.0
 20
0.0
 30
0.0
  9
$PUCSORGBOTTOM
 10
0.0
 20
0.0
 30
0.0
  9
$PUCSORGLEFT
 10
0.0
 20
0.0
 30
0.0
  9
$PUCSORGRIGHT
 10
0.0
 20
0.0
 30
0.0
  9
$PUCSORGFRONT
 10
0.0
 20
0.0
 30
0.0
  9
$PUCSORGBACK
 10
0.0
 20
0.0
 30
0.0
  9
$USERI1
 70
     0
  9
$USERI2
 70
     0
  9
$USERI3
 70
     0
  9
$USERI4
 70
     0
  9
$USERI5
 70
     0
  9
$USERR1
 40
0.0
  9
$USERR2
 40
0.0
  9
$USERR3
 40
0.0
  9
$USERR4
 40
0.0
  9
$USERR5
 40
0.0
  9
$WORLDVIEW
 70
     1
  9
$SHADEDGE
 70
     3
  9
$SHADEDIF
 70
    70
  9
$TILEMODE
 70
     1
  9
$MAXACTVP
 70
    64
  9
$PINSBASE
 10
0.0
 20
0.0
 30
0.0
  9
$PLIMCHECK
 70
     0
  9
$PEXTMIN
 10
1.000000000000000E+20
 20
1.000000000000000E+20
 30
1.000000000000000E+20
  9
$PEXTMAX
 10
-1.000000000000000E+20
 20
-1.000000000000000E+20
 30
-1.000000000000000E+20
  9
$PLIMMIN
 10
0.0
 20
0.0
  9
$PLIMMAX
 10
420.0
 20
297.0
  9
$UNITMODE
 70
     0
  9
$VISRETAIN
 70
     1
  9
$PLINEGEN
 70
     0
  9
$PSLTSCALE
 70
     1
  9
$TREEDEPTH
 70
  3020
  9
$CMLSTYLE
  2
Standard
  9
$CMLJUST
 70
     0
  9
$CMLSCALE
 40
20.0
  9
$PROXYGRAPHICS
 70
     1
  9
$MEASUREMENT
 70
     0
  9
$CELWEIGHT
370
    -1
  9
$ENDCAPS
280
     0
  9
$JOINSTYLE
280
     0
  9
$LWDISPLAY
290
     0
  9
$INSUNITS
 70
     1
  9
$HYPERLINKBASE
  1

  9
$STYLESHEET
  1

  9
$XEDIT
290
     1
  9
$CEPSNTYPE
380
     0
  9
$PSTYLEMODE
290
     1
  9
$FINGERPRINTGUID
  2
{543CB98D-062E-4740-BEA9-8BB6A10E4B9E}
  9
$VERSIONGUID
  2
{2B5C7629-F722-4EB7-9E7A-719D3505BC19}
  9
$EXTNAMES
290
     1
  9
$PSVPSCALE
 40
0.0
  9
$OLESTARTUP
290
     0
  0
ENDSEC
  0
SECTION
  2
CLASSES
  0
CLASS
  1
ACDBDICTIONARYWDFLT
  2
AcDbDictionaryWithDefault
  3
ObjectDBX Classes
 90
        0
280
     0
281
     0
  0
CLASS
  1
ACDBPLACEHOLDER
  2
AcDbPlaceHolder
  3
ObjectDBX Classes
 90
        0
280
     0
281
     0
  0
CLASS
  1
LAYOUT
  2
AcDbLayout
  3
ObjectDBX Classes
 90
        0
280
     0
281
     0
  0
CLASS
  1
DICTIONARYVAR
  2
AcDbDictionaryVar
  3
ObjectDBX Classes
 90
        0
280
     0
281
     0
  0
CLASS
  1
SORTENTSTABLE
  2
AcDbSortentsTable
  3
ObjectDBX Classes
 90
        0
280
     0
281
     0
  0
CLASS
  1
AEC_VARS_DWG_SETUP
  2
AecDbVarsDwgSetup
  3
AecBase50|Product Desc: Autodesk Architectural Desktop 2007 |Company: Autodesk,Inc. |WEB Address: www.autodesk.com
 90
    32897
280
     0
281
     0
  0
CLASS
  1
AEC_DISP_REP_CONFIG
  2
AecDbDispRepConfig
  3
AecBase50|Product Desc: Autodesk Architectural Desktop 2007 |Company: Autodesk,Inc. |WEB Address: www.autodesk.com
 90
    32897
280
     0
281
     0
  0
CLASS
  1
AEC_DISP_REP_SET
  2
AecDbDispRepSet
  3
AecBase50|Product Desc: Autodesk Architectural Desktop 2007 |Company: Autodesk,Inc. |WEB Address: www.autodesk.com
 90
    32897
280
     0
281
     0
  0
CLASS
  1
AEC_DISP_REP_2D_SECTION
  2
AecDbDispRep2dSection
  3
AecBase50|Product Desc: Autodesk Architectural Desktop 2007 |Company: Autodesk,Inc. |WEB Address: www.autodesk.com
 90
    32897
280
     0
281
     0
  0
CLASS
  1
AEC_DISP_REP_ANCHOR_BUB_TO_GRID
  2
AecDbDispRepAnchorBubToGrid
  3
AecStructureBase50|Product Desc: Autodesk Architectural Desktop 2007 |Company: Autodesk,Inc. |WEB Address: www.autodesk.com
 90
    32897
280
     0
281
     0
  0
CLASS
  1
AEC_DISP_REP_ANCHOR_BUB_TO_GRID_MODEL
  2
AecDbDispRepAnchorBubToGridMdl
  3
AecStructureBase50|Product Desc: Autodesk Architectural Desktop 2007 |Company: Autodesk,Inc. |WEB Address: www.autodesk.com
 90
    32897
280
     0
281
     0
  0
CLASS
  1
AEC_DISP_REP_ANCHOR_ENT_TO_NODE
  2
AecDbDispRepAnchorEntToNode
  3
AecBaseEx50|Product Desc: Autodesk Architectural Desktop 2007 |Company: Autodesk,Inc. |WEB Address: www.autodesk.com
 90
    32897
280
     0
281
     0
  0
CLASS
  1
AEC_DISP_REP_ANCHOR_TAG_TO_ENT
  2
AecDbDispRepAnchorTagToEnt
  3
AecScheduleData50|Product Desc: Autodesk Architectural Desktop 2007 |Company: Autodesk,Inc. |WEB Address: www.autodesk.com
 90
    32897
280
     0
281
     0
  0
CLASS
  1
AEC_DISP_REP_AREA
  2
AecDbDispRepArea
  3
AecAreaCalculationBase50|Product Desc: Autodesk Architectural Desktop 2007 |Company: Autodesk,Inc. |WEB Address: www.autodesk.com
 90
    32897
280
     0
281
     0
  0
CLASS
  1
AEC_DISP_REP_AREA_DECOMPOSED
  2
AecDbDispRepAreaDecomposed
  3
AecAreaCalculationBase50|Product Desc: Autodesk Architectural Desktop 2007 |Company: Autodesk,Inc. |WEB Address: www.autodesk.com
 90
    32897
280
     0
281
     0
  0
CLASS
  1
AEC_DISP_REP_AREAGROUP
  2
AecDbDispRepAreaGroup
  3
AecAreaCalculationBase50|Product Desc: Autodesk Architectural Desktop 2007 |Company: Autodesk,Inc. |WEB Address: www.autodesk.com
 90
    32897
280
     0
281
     0
  0
CLASS
  1
AEC_DISP_REP_BDG_ELEVLINE_MODEL
  2
AecDbDispRepBdgElevLineModel
  3
AecArchBase50|Product Desc: Autodesk Architectural Desktop 2007 |Company: Autodesk,Inc. |WEB Address: www.autodesk.com
 90
    32897
280
     0
281
     0
  0
CLASS
  1
AEC_DISP_REP_BDG_SECTIONLINE_PLAN
  2
AecDbDispRepBdgElevLinePlan
  3
AecArchBase50|Product Desc: Autodesk Architectural Desktop 2007 |Company: Autodesk,Inc. |WEB Address: www.autodesk.com
 90
    32897
280
     0
281
     0
  0
CLASS
  1
AEC_DISP_REP_BDG_SECTIONLINE_MODEL
  2
AecDbDispRepBdgSectionLineModel
  3
AecArchBase50|Product Desc: Autodesk Architectural Desktop 2007 |Company: Autodesk,Inc. |WEB Address: www.autodesk.com
 90
    32897
280
     0
281
     0
  0
CLASS
  1
AEC_DISP_REP_BDG_SECTIONLINE_PLAN
  2
AecDbDispRepBdgSectionLinePlan
  3
AecArchBase50|Product Desc: Autodesk Architectural Desktop 2007 |Company: Autodesk,Inc. |WEB Address: www.autodesk.com
 90
    32897
280
     0
281
     0
  0
CLASS
  1
AEC_DISP_REP_BDG_SECTION_SUBDIV
  2
AecDbDispRepBdgSectionSubDiv
  3
AecArchBase50|Product Desc: Autodesk Architectural Desktop 2007 |Company: Autodesk,Inc. |WEB Address: www.autodesk.com
 90
    32897
280
     0
281
     0
  0
CLASS
  1
AEC_DISP_REP_CAMERA
  2
AecDbDispRepCamera
  3
AecBase50|Product Desc: Autodesk Architectural Desktop 2007 |Company: Autodesk,Inc. |WEB Address: www.autodesk.com
 90
    32897
280
     0
281
     0
  0
CLASS
  1
AEC_DISP_REP_CEILING_GRID
  2
AecDbDispRepCeilingGrid
  3
AecArchBase50|Product Desc: Autodesk Architectural Desktop 2007 |Company: Autodesk,Inc. |WEB Address: www.autodesk.com
 90
    33661
280
     0
281
     0
  0
CLASS
  1
AEC_DISP_REP_CEILING_GRID_MODEL
  2
AecDbDispRepCeilingGridModel
  3
AecArchBase50|Product Desc: Autodesk Architectural Desktop 2007 |Company: Autodesk,Inc. |WEB Address: www.autodesk.com
 90
    32897
280
     0
281
     0
  0
CLASS
  1
AEC_DISP_REP_CEILING_GRID_RCP
  2
AecDbDispRepCeilingGridRcp
  3
AecArchBase50|Product Desc: Autodesk Architectural Desktop 2007 |Company: Autodesk,Inc. |WEB Address: www.autodesk.com
 90
    32897
280
     0
281
     0
  0
CLASS
  1
AEC_DISP_REP_CLIP_VOLUME_MODEL
  2
AecDbDispRepClipVolModel
  3
AecBase50|Product Desc: Autodesk Architectural Desktop 2007 |Company: Autodesk,Inc. |WEB Address: www.autodesk.com
 90
    32897
280
     0
281
     0
  0
CLASS
  1
AEC_DISP_REP_CLIP_VOLUME_PLAN
  2
AecDbDispRepClipVolPlan
  3
AecBase50|Product Desc: Autodesk Architectural Desktop 2007 |Company: Autodesk,Inc. |WEB Address: www.autodesk.com
 90
    32897
280
     0
281
     0
  0
CLASS
  1
AEC_DISP_REP_CLIP_VOLUME_RESULT_SUBDIV
  2
AecDbDispRepClipVolResSubDiv
  3
AecBase50|Product Desc: Autodesk Architectural Desktop 2007 |Company: Autodesk,Inc. |WEB Address: www.autodesk.com
 90
    32897
280
     0
281
     0
  0
CLASS
  1
AEC_DISP_REP_CLIP_VOLUME_RESULT
  2
AecDbDispRepClipVolResult
  3
AecBase50|Product Desc: Autodesk Architectural Desktop 2007 |Company: Autodesk,Inc. |WEB Address: www.autodesk.com
 90
    32897
280
     0
281
     0
  0
CLASS
  1
AEC_DISP_REP_COLUMN_GRID
  2
AecDbDispRepColumnGrid
  3
AecStructureBase50|Product Desc: Autodesk Architectural Desktop 2007 |Company: Autodesk,Inc. |WEB Address: www.autodesk.com
 90
    32897
280
     0
281
     0
  0
CLASS
  1
AEC_DISP_REP_COLUMN_GRID_MODEL
  2
AecDbDispRepColumnGridModel
  3
AecStructureBase50|Product Desc: Autodesk Architectural Desktop 2007 |Company: Autodesk,Inc. |WEB Address: www.autodesk.com
 90
    32897
280
     0
281
     0
  0
CLASS
  1
AEC_DISP_REP_CURTAIN_WALL_LAYOUT_MODEL
  2
AecDbDispRepCurtainWallLayoutModel
  3
AecArchBase50|Product Desc: Autodesk Architectural Desktop 2007 |Company: Autodesk,Inc. |WEB Address: www.autodesk.com
 90
    32897
280
     0
281
     0
  0
CLASS
  1
AEC_DISP_REP_CURTAIN_WALL_LAYOUT_PLAN
  2
AecDbDispRepCurtainWallLayoutPlan
  3
AecArchBase50|Product Desc: Autodesk Architectural Desktop 2007 |Company: Autodesk,Inc. |WEB Address: www.autodesk.com
 90
    32897
280
     0
281
     0
  0
CLASS
  1
AEC_DISP_REP_CURTAIN_WALL_UNIT_MODEL
  2
AecDbDispRepCurtainWallUnitModel
  3
AecArchBase50|Product Desc: Autodesk Architectural Desktop 2007 |Company: Autodesk,Inc. |WEB Address: www.autodesk.com
 90
    32897
280
     0
281
     0
  0
CLASS
  1
AEC_DISP_REP_CURTAIN_WALL_UNIT_PLAN
  2
AecDbDispRepCurtainWallUnitPlan
  3
AecArchBase50|Product Desc: Autodesk Architectural Desktop 2007 |Company: Autodesk,Inc. |WEB Address: www.autodesk.com
 90
    32897
280
     0
281
     0
  0
CLASS
  1
AEC_DB_DISP_REP_DIM_GROUP_PLAN
  2
AecDbDispRepDimGroupPlan
  3
AecArchDACHBase50|Product Desc: Autodesk Architectural Desktop 2007 |Company: Autodesk,Inc. |WEB Address: www.autodesk.com
 90
    32897
280
     0
281
     0
  0
CLASS
  1
AEC_DISP_REP_DOOR_MODEL
  2
AecDbDispRepDoorModel
  3
AecArchBase50|Product Desc: Autodesk Architectural Desktop 2007 |Company: Autodesk,Inc. |WEB Address: www.autodesk.com
 90
    32897
280
     0
281
     0
  0
CLASS
  1
AEC_DISP_REP_DOOR_NOMINAL
  2
AecDbDispRepDoorNominal
  3
AecArchBase50|Product Desc: Autodesk Architectural Desktop 2007 |Company: Autodesk,Inc. |WEB Address: www.autodesk.com
 90
    32897
280
     0
281
     0
  0
CLASS
  1
AEC_DISP_REP_DOOR_PLAN
  2
AecDbDispRepDoorPlan
  3
AecArchBase50|Product Desc: Autodesk Architectural Desktop 2007 |Company: Autodesk,Inc. |WEB Address: www.autodesk.com
 90
    32897
280
     0
281
     0
  0
CLASS
  1
AEC_DISP_REP_EDITINPLACEPROFILE
  2
AecDbDispRepEditInPlaceProfile
  3
AecBase50|Product Desc: Autodesk Architectural Desktop 2007 |Company: Autodesk,Inc. |WEB Address: www.autodesk.com
 90
    32897
280
     0
281
     0
  0
CLASS
  1
AEC_DISP_REP_ENT_REF
  2
AecDbDispRepEntRef
  3
AecBase50|Product Desc: Autodesk Architectural Desktop 2007 |Company: Autodesk,Inc. |WEB Address: www.autodesk.com
 90
    32897
280
     0
281
     0
  0
CLASS
  1
AEC_DISP_REP_LAYOUT_CURVE
  2
AecDbDispRepLayoutCurve
  3
AecBase50|Product Desc: Autodesk Architectural Desktop 2007 |Company: Autodesk,Inc. |WEB Address: www.autodesk.com
 90
    32897
280
     0
281
     0
  0
CLASS
  1
AEC_DISP_REP_LAYOUT_GRID2D
  2
AecDbDispRepLayoutGrid2d
  3
AecBase50|Product Desc: Autodesk Architectural Desktop 2007 |Company: Autodesk,Inc. |WEB Address: www.autodesk.com
 90
    32897
280
     0
281
     0
  0
CLASS
  1
AEC_DISP_REP_LAYOUT_GRID3D
  2
AecDbDispRepLayoutGrid3d
  3
AecBase50|Product Desc: Autodesk Architectural Desktop 2007 |Company: Autodesk,Inc. |WEB Address: www.autodesk.com
 90
    32897
280
     0
281
     0
  0
CLASS
  1
AEC_DISP_REP_MASKBLOCK_REF
  2
AecDbDispRepMaskBlockRef
  3
AecBase50|Product Desc: Autodesk Architectural Desktop 2007 |Company: Autodesk,Inc. |WEB Address: www.autodesk.com
 90
    32897
280
     0
281
     0
  0
CLASS
  1
AEC_DISP_REP_MASKBLOCK_REF_RCP
  2
AecDbDispRepMaskBlockRefRcp
  3
AecArchBase50|Product Desc: Autodesk Architectural Desktop 2007 |Company: Autodesk,Inc. |WEB Address: www.autodesk.com
 90
    32897
280
     0
281
     0
  0
CLASS
  1
AEC_DISP_REP_MASS_ELEM_MODEL
  2
AecDbDispRepMassElemModel
  3
AecBaseEx50|Product Desc: Autodesk Architectural Desktop 2007 |Company: Autodesk,Inc. |WEB Address: www.autodesk.com
 90
    32897
280
     0
281
     0
  0
CLASS
  1
AEC_DISP_REP_MASS_ELEM_SCHEM
  2
AecDbDispRepMassElemSchem
  3
AecBaseEx50|Product Desc: Autodesk Architectural Desktop 2007 |Company: Autodesk,Inc. |WEB Address: www.autodesk.com
 90
    32897
280
     0
281
     0
  0
CLASS
  1
AEC_DISP_REP_MASS_GROUP_MODEL
  2
AecDbDispRepMassGroupModel
  3
AecBaseEx50|Product Desc: Autodesk Architectural Desktop 2007 |Company: Autodesk,Inc. |WEB Address: www.autodesk.com
 90
    32897
280
     0
281
     0
  0
CLASS
  1
AEC_DISP_REP_MASS_GROUP_PLAN
  2
AecDbDispRepMassGroupPlan
  3
AecBaseEx50|Product Desc: Autodesk Architectural Desktop 2007 |Company: Autodesk,Inc. |WEB Address: www.autodesk.com
 90
    32897
280
     0
281
     0
  0
CLASS
  1
AEC_DISP_REP_MATERIAL
  2
AecDbDispRepMaterial
  3
AecBase50|Product Desc: Autodesk Architectural Desktop 2007 |Company: Autodesk,Inc. |WEB Address: www.autodesk.com
 90
    32897
280
     0
281
     0
  0
CLASS
  1
AEC_DISP_REP_MVBLOCK_REF
  2
AecDbDispRepMvBlockRef
  3
AecBase50|Product Desc: Autodesk Architectural Desktop 2007 |Company: Autodesk,Inc. |WEB Address: www.autodesk.com
 90
    32897
280
     0
281
     0
  0
CLASS
  1
AEC_DISP_REP_MVBLOCK_REF_MODEL
  2
AecDbDispRepMvBlockRefModel
  3
AecBase50|Product Desc: Autodesk Architectural Desktop 2007 |Company: Autodesk,Inc. |WEB Address: www.autodesk.com
 90
    32897
280
     0
281
     0
  0
CLASS
  1
AEC_DISP_REP_OPENING
  2
AecDbDispRepOpening
  3
AecArchBase50|Product Desc: Autodesk Architectural Desktop 2007 |Company: Autodesk,Inc. |WEB Address: www.autodesk.com
 90
    32897
280
     0
281
     0
  0
CLASS
  1
AEC_DISP_REP_OPENING_MODEL
  2
AecDbDispRepOpeningModel
  3
AecArchBase50|Product Desc: Autodesk Architectural Desktop 2007 |Company: Autodesk,Inc. |WEB Address: www.autodesk.com
 90
    32897
280
     0
281
     0
  0
CLASS
  1
AEC_DISP_REP_POLYGON_MODEL
  2
AecDbDispRepPolygonModel
  3
AecBaseEx50|Product Desc: Autodesk Architectural Desktop 2007 |Company: Autodesk,Inc. |WEB Address: www.autodesk.com
 90
    32897
280
     0
281
     0
  0
CLASS
  1
AEC_DISP_REP_RAILING_MODEL
  2
AecDbDispRepRailingModel
  3
AecArchBase50|Product Desc: Autodesk Architectural Desktop 2007 |Company: Autodesk,Inc. |WEB Address: www.autodesk.com
 90
    32897
280
     0
281
     0
  0
CLASS
  1
AEC_DISP_REP_RAILING_PLAN
  2
AecDbDispRepRailingPlan
  3
AecArchBase50|Product Desc: Autodesk Architectural Desktop 2007 |Company: Autodesk,Inc. |WEB Address: www.autodesk.com
 90
    32897
280
     0
281
     0
  0
CLASS
  1
AEC_DISP_REP_ROOF_MODEL
  2
AecDbDispRepRoofModel
  3
AecArchBase50|Product Desc: Autodesk Architectural Desktop 2007 |Company: Autodesk,Inc. |WEB Address: www.autodesk.com
 90
    32897
280
     0
281
     0
  0
CLASS
  1
AEC_DISP_REP_ROOF_PLAN
  2
AecDbDispRepRoofPlan
  3
AecArchBase50|Product Desc: Autodesk Architectural Desktop 2007 |Company: Autodesk,Inc. |WEB Address: www.autodesk.com
 90
    32897
280
     0
281
     0
  0
CLASS
  1
AEC_DISP_REP_ROOFSLAB_MODEL
  2
AecDbDispRepRoofSlabModel
  3
AecArchBase50|Product Desc: Autodesk Architectural Desktop 2007 |Company: Autodesk,Inc. |WEB Address: www.autodesk.com
 90
    32897
280
     0
281
     0
  0
CLASS
  1
AEC_DISP_REP_ROOFSLAB_PLAN
  2
AecDbDispRepRoofSlabPlan
  3
AecArchBase50|Product Desc: Autodesk Architectural Desktop 2007 |Company: Autodesk,Inc. |WEB Address: www.autodesk.com
 90
    32897
280
     0
281
     0
  0
CLASS
  1
AEC_DISP_REP_SCHEDULE_TABLE
  2
AecDbDispRepScheduleTable
  3
AecSchedule50|Product Desc: Autodesk Architectural Desktop 2007 |Company: Autodesk,Inc. |WEB Address: www.autodesk.com
 90
    32897
280
     0
281
     0
  0
CLASS
  1
AEC_DISP_REP_SLAB_MODEL
  2
AecDbDispRepSlabModel
  3
AecArchBase50|Product Desc: Autodesk Architectural Desktop 2007 |Company: Autodesk,Inc. |WEB Address: www.autodesk.com
 90
    32897
280
     0
281
     0
  0
CLASS
  1
AEC_DISP_REP_SLAB_PLAN
  2
AecDbDispRepSlabPlan
  3
AecArchBase50|Product Desc: Autodesk Architectural Desktop 2007 |Company: Autodesk,Inc. |WEB Address: www.autodesk.com
 90
    32897
280
     0
281
     0
  0
CLASS
  1
AEC_DISP_REP_SLICE
  2
AecDbDispRepSlice
  3
AecBase50|Product Desc: Autodesk Architectural Desktop 2007 |Company: Autodesk,Inc. |WEB Address: www.autodesk.com
 90
    32897
280
     0
281
     0
  0
CLASS
  1
AEC_DISP_REP_SPACE_BOUNDARY_MODEL
  2
AecDbDispRepSpaceBoundaryModel
  3
AecArchBase50|Product Desc: Autodesk Architectural Desktop 2007 |Company: Autodesk,Inc. |WEB Address: www.autodesk.com
 90
    32897
280
     0
281
     0
  0
CLASS
  1
AEC_DISP_REP_SPACE_BOUNDARY_PLAN
  2
AecDbDispRepSpaceBoundaryPlan
  3
AecArchBase50|Product Desc: Autodesk Architectural Desktop 2007 |Company: Autodesk,Inc. |WEB Address: www.autodesk.com
 90
    32897
280
     0
281
     0
  0
CLASS
  1
AEC_DISP_REP_SPACE_BOUNDARY_SCHEM
  2
AecDbDispRepSpaceBoundarySketch
  3
AecArchBase50|Product Desc: Autodesk Architectural Desktop 2007 |Company: Autodesk,Inc. |WEB Address: www.autodesk.com
 90
    32897
280
     0
281
     0
  0
CLASS
  1
AEC_DISP_REP_SPACE_MODEL
  2
AecDbDispRepSpaceModel
  3
AecArchBase50|Product Desc: Autodesk Architectural Desktop 2007 |Company: Autodesk,Inc. |WEB Address: www.autodesk.com
 90
    32897
280
     0
281
     0
  0
CLASS
  1
AEC_DISP_REP_SPACE_PLAN
  2
AecDbDispRepSpacePlan
  3
AecArchBase50|Product Desc: Autodesk Architectural Desktop 2007 |Company: Autodesk,Inc. |WEB Address: www.autodesk.com
 90
    32897
280
     0
281
     0
  0
CLASS
  1
AEC_DISP_REP_STAIR_MODEL
  2
AecDbDispRepStairModel
  3
AecArchBase50|Product Desc: Autodesk Architectural Desktop 2007 |Company: Autodesk,Inc. |WEB Address: www.autodesk.com
 90
    32897
280
     0
281
     0
  0
CLASS
  1
AEC_DISP_REP_STAIR_PLAN
  2
AecDbDispRepStairPlan
  3
AecArchBase50|Product Desc: Autodesk Architectural Desktop 2007 |Company: Autodesk,Inc. |WEB Address: www.autodesk.com
 90
    32897
280
     0
281
     0
  0
CLASS
  1
AEC_DISP_REP_WALL_GRAPH
  2
AecDbDispRepWallGraph
  3
AecArchBase50|Product Desc: Autodesk Architectural Desktop 2007 |Company: Autodesk,Inc. |WEB Address: www.autodesk.com
 90
    32897
280
     0
281
     0
  0
CLASS
  1
AEC_DISP_REP_WALL_MODEL
  2
AecDbDispRepWallModel
  3
AecArchBase50|Product Desc: Autodesk Architectural Desktop 2007 |Company: Autodesk,Inc. |WEB Address: www.autodesk.com
 90
    32897
280
     0
281
     0
  0
CLASS
  1
AEC_DISP_REP_WALL_PLAN
  2
AecDbDispRepWallPlan
  3
AecArchBase50|Product Desc: Autodesk Architectural Desktop 2007 |Company: Autodesk,Inc. |WEB Address: www.autodesk.com
 90
    32897
280
     0
281
     0
  0
CLASS
  1
AEC_DISP_REP_WALL_SCHEM
  2
AecDbDispRepWallSchem
  3
AecArchBase50|Product Desc: Autodesk Architectural Desktop 2007 |Company: Autodesk,Inc. |WEB Address: www.autodesk.com
 90
    32897
280
     0
281
     0
  0
CLASS
  1
AEC_DISP_REP_WINDOW_ASSEMBLY_MODEL
  2
AecDbDispRepWindowAssemblyModel
  3
AecArchBase50|Product Desc: Autodesk Architectural Desktop 2007 |Company: Autodesk,Inc. |WEB Address: www.autodesk.com
 90
    32897
280
     0
281
     0
  0
CLASS
  1
AEC_DISP_REP_WINDOW_ASSEMBLY_PLAN
  2
AecDbDispRepWindowAssemblyPlan
  3
AecArchBase50|Product Desc: Autodesk Architectural Desktop 2007 |Company: Autodesk,Inc. |WEB Address: www.autodesk.com
 90
    32897
280
     0
281
     0
  0
CLASS
  1
AEC_AECDBDISPREPWINDOWASSEMBLYPLAN100
  2
AecDbDispRepWindowAssemblyPlan100
  3
AecArchDACHBase50|Product Desc: Autodesk Architectural Desktop 2007 |Company: Autodesk,Inc. |WEB Address: www.autodesk.com
 90
    32897
280
     0
281
     0
  0
CLASS
  1
AEC_DISP_REP_WINDOW_MODEL
  2
AecDbDispRepWindowModel
  3
AecArchBase50|Product Desc: Autodesk Architectural Desktop 2007 |Company: Autodesk,Inc. |WEB Address: www.autodesk.com
 90
    32897
280
     0
281
     0
  0
CLASS
  1
AEC_DISP_REP_WINDOW_NOMINAL
  2
AecDbDispRepWindowNominal
  3
AecArchBase50|Product Desc: Autodesk Architectural Desktop 2007 |Company: Autodesk,Inc. |WEB Address: www.autodesk.com
 90
    32897
280
     0
281
     0
  0
CLASS
  1
AEC_DISP_REP_WINDOW_PLAN
  2
AecDbDispRepWindowPlan
  3
AecArchBase50|Product Desc: Autodesk Architectural Desktop 2007 |Company: Autodesk,Inc. |WEB Address: www.autodesk.com
 90
    32897
280
     0
281
     0
  0
CLASS
  1
AECS_DISP_REP_MEMBER_LOGICAL
  2
AecsDbDispRepMemberLogical
  3
AecStructureBase50|Product Desc: Autodesk Architectural Desktop 2007 |Company: Autodesk,Inc. |WEB Address: www.autodesk.com
 90
    32897
280
     0
281
     0
  0
CLASS
  1
AECS_DISP_REP_MEMBER_MODEL_DESIGN
  2
AecsDbDispRepMemberModelDesign
  3
AecStructureBase50|Product Desc: Autodesk Architectural Desktop 2007 |Company: Autodesk,Inc. |WEB Address: www.autodesk.com
 90
    32897
280
     0
281
     0
  0
CLASS
  1
AECS_DISP_REP_MEMBER_PLAN_DESIGN
  2
AecsDbDispRepMemberPlanDesign
  3
AecStructureBase50|Product Desc: Autodesk Architectural Desktop 2007 |Company: Autodesk,Inc. |WEB Address: www.autodesk.com
 90
    32897
280
     0
281
     0
  0
CLASS
  1
AEC_DISP_PROPS_ENT
  2
AecDbDispPropsEnt
  3
AecBase50|Product Desc: Autodesk Architectural Desktop 2007 |Company: Autodesk,Inc. |WEB Address: www.autodesk.com
 90
    32897
280
     0
281
     0
  0
CLASS
  1
AEC_DISP_PROPS_CLIP_VOLUME
  2
AecDbDispPropsClipVol
  3
AecBase50|Product Desc: Autodesk Architectural Desktop 2007 |Company: Autodesk,Inc. |WEB Address: www.autodesk.com
 90
    32897
280
     0
281
     0
  0
CLASS
  1
AEC_DISP_PROPS_SLICE
  2
AecDbDispPropsSlice
  3
AecBase50|Product Desc: Autodesk Architectural Desktop 2007 |Company: Autodesk,Inc. |WEB Address: www.autodesk.com
 90
    32897
280
     0
281
     0
  0
CLASS
  1
AEC_DISP_PROPS_ROOFSLAB_PLAN
  2
AecDbDispPropsRoofSlabPlan
  3
AecArchBase50|Product Desc: Autodesk Architectural Desktop 2007 |Company: Autodesk,Inc. |WEB Address: www.autodesk.com
 90
    32897
280
     0
281
     0
  0
CLASS
  1
AEC_DISP_PROPS_GRID_ASSEMBLY_MODEL
  2
AecDbDispPropsGridAssemblyModel
  3
AecArchBase50|Product Desc: Autodesk Architectural Desktop 2007 |Company: Autodesk,Inc. |WEB Address: www.autodesk.com
 90
    32897
280
     0
281
     0
  0
CLASS
  1
AEC_DISP_PROPS_ROOF
  2
AecDbDispPropsRoof
  3
AecArchBase50|Product Desc: Autodesk Architectural Desktop 2007 |Company: Autodesk,Inc. |WEB Address: www.autodesk.com
 90
    32897
280
     0
281
     0
  0
CLASS
  1
AEC_DISP_PROPS_SPACE_MODEL
  2
AecDbDispPropsSpaceModel
  3
AecArchBase50|Product Desc: Autodesk Architectural Desktop 2007 |Company: Autodesk,Inc. |WEB Address: www.autodesk.com
 90
    32897
280
     0
281
     0
  0
CLASS
  1
AEC_DISP_PROPS_EDITINPLACEPROFILE_MODEL
  2
AecDbDispPropsEditInPlaceProfile
  3
AecBase50|Product Desc: Autodesk Architectural Desktop 2007 |Company: Autodesk,Inc. |WEB Address: www.autodesk.com
 90
    32897
280
     0
281
     0
  0
CLASS
  1
AEC_DISP_PROPS_DOOR
  2
AecDbDispPropsDoor
  3
AecArchBase50|Product Desc: Autodesk Architectural Desktop 2007 |Company: Autodesk,Inc. |WEB Address: www.autodesk.com
 90
    32897
280
     0
281
     0
  0
CLASS
  1
AEC_DISP_PROPS_MASKBLOCK
  2
AecDbDispPropsMaskBlock
  3
AecBase50|Product Desc: Autodesk Architectural Desktop 2007 |Company: Autodesk,Inc. |WEB Address: www.autodesk.com
 90
    32897
280
     0
281
     0
  0
CLASS
  1
AEC_DISP_PROPS_SPACE_PLAN
  2
AecDbDispPropsSpacePlan
  3
AecArchBase50|Product Desc: Autodesk Architectural Desktop 2007 |Company: Autodesk,Inc. |WEB Address: www.autodesk.com
 90
    32897
280
     0
281
     0
  0
CLASS
  1
AEC_DISP_PROPS_RAILING_PLAN
  2
AecDbDispPropsRailingPlan
  3
AecArchBase50|Product Desc: Autodesk Architectural Desktop 2007 |Company: Autodesk,Inc. |WEB Address: www.autodesk.com
 90
    32897
280
     0
281
     0
  0
CLASS
  1
AEC_DISP_PROPS_LAYOUT_GRID2D
  2
AecDbDispPropsLayoutGrid2d
  3
AecBase50|Product Desc: Autodesk Architectural Desktop 2007 |Company: Autodesk,Inc. |WEB Address: www.autodesk.com
 90
    32897
280
     0
281
     0
  0
CLASS
  1
AEC_DISP_PROPS_CLIP_VOLUME_RESULT
  2
AecDbDispPropsClipVolResSubDiv
  3
AecBase50|Product Desc: Autodesk Architectural Desktop 2007 |Company: Autodesk,Inc. |WEB Address: www.autodesk.com
 90
    32897
280
     0
281
     0
  0
CLASS
  1
AEC_DISP_PROPS_STAIR_MODEL
  2
AecDbDispPropsStairModel
  3
AecArchBase50|Product Desc: Autodesk Architectural Desktop 2007 |Company: Autodesk,Inc. |WEB Address: www.autodesk.com
 90
    32897
280
     0
281
     0
  0
CLASS
  1
AEC_DISP_PROPS_LAYOUT_CURVE
  2
AecDbDispPropsLayoutCurve
  3
AecBase50|Product Desc: Autodesk Architectural Desktop 2007 |Company: Autodesk,Inc. |WEB Address: www.autodesk.com
 90
    32897
280
     0
281
     0
  0
CLASS
  1
AEC_DISP_PROPS_POLYGON_MODEL
  2
AecDbDispPropsPolygonModel
  3
AecBaseEx50|Product Desc: Autodesk Architectural Desktop 2007 |Company: Autodesk,Inc. |WEB Address: www.autodesk.com
 90
    32897
280
     0
281
     0
  0
CLASS
  1
AEC_DISP_PROPS_MASS_GROUP
  2
AecDbDispPropsMassGroup
  3
AecBaseEx50|Product Desc: Autodesk Architectural Desktop 2007 |Company: Autodesk,Inc. |WEB Address: www.autodesk.com
 90
    32897
280
     0
281
     0
  0
CLASS
  1
AEC_DISP_PROPS_STAIR_PLAN
  2
AecDbDispPropsStairPlan
  3
AecArchBase50|Product Desc: Autodesk Architectural Desktop 2007 |Company: Autodesk,Inc. |WEB Address: www.autodesk.com
 90
    32897
280
     0
281
     0
  0
CLASS
  1
AEC_DISP_PROPS_OPENING
  2
AecDbDispPropsOpening
  3
AecArchBase50|Product Desc: Autodesk Architectural Desktop 2007 |Company: Autodesk,Inc. |WEB Address: www.autodesk.com
 90
    32897
280
     0
281
     0
  0
CLASS
  1
AEC_DISP_PROPS_WALL_GRAPH
  2
AecDbDispPropsWallGraph
  3
AecArchBase50|Product Desc: Autodesk Architectural Desktop 2007 |Company: Autodesk,Inc. |WEB Address: www.autodesk.com
 90
    32897
280
     0
281
     0
  0
CLASS
  1
AEC_DISP_PROPS_DOOR_NOMINAL
  2
AecDbDispPropsDoorNominal
  3
AecArchBase50|Product Desc: Autodesk Architectural Desktop 2007 |Company: Autodesk,Inc. |WEB Address: www.autodesk.com
 90
    32897
280
     0
281
     0
  0
CLASS
  1
AEC_DISP_PROPS_SLAB
  2
AecDbDispPropsSlab
  3
AecArchBase50|Product Desc: Autodesk Architectural Desktop 2007 |Company: Autodesk,Inc. |WEB Address: www.autodesk.com
 90
    32897
280
     0
281
     0
  0
CLASS
  1
AEC_DISP_PROPS_WALL_MODEL
  2
AecDbDispPropsWallModel
  3
AecArchBase50|Product Desc: Autodesk Architectural Desktop 2007 |Company: Autodesk,Inc. |WEB Address: www.autodesk.com
 90
    32897
280
     0
281
     0
  0
CLASS
  1
AEC_DISP_PROPS_MATERIAL
  2
AecDbDispPropsMaterial
  3
AecBase50|Product Desc: Autodesk Architectural Desktop 2007 |Company: Autodesk,Inc. |WEB Address: www.autodesk.com
 90
    32897
280
     0
281
     0
  0
CLASS
  1
AEC_DISP_PROPS_WINDOW
  2
AecDbDispPropsWindow
  3
AecArchBase50|Product Desc: Autodesk Architectural Desktop 2007 |Company: Autodesk,Inc. |WEB Address: www.autodesk.com
 90
    32897
280
     0
281
     0
  0
CLASS
  1
AEC_DISP_PROPS_LAYOUT_GRID3D
  2
AecDbDispPropsLayoutGrid3d
  3
AecBase50|Product Desc: Autodesk Architectural Desktop 2007 |Company: Autodesk,Inc. |WEB Address: www.autodesk.com
 90
    32897
280
     0
281
     0
  0
CLASS
  1
AEC_DISP_PROPS_GRID_ASSEMBLY_PLAN
  2
AecDbDispPropsGridAssemblyPlan
  3
AecArchBase50|Product Desc: Autodesk Architectural Desktop 2007 |Company: Autodesk,Inc. |WEB Address: www.autodesk.com
 90
    32897
280
     0
281
     0
  0
CLASS
  1
AEC_DISP_PROPS_WALL_SCHEM
  2
AecDbDispPropsWallSchem
  3
AecArchBase50|Product Desc: Autodesk Architectural Desktop 2007 |Company: Autodesk,Inc. |WEB Address: www.autodesk.com
 90
    32897
280
     0
281
     0
  0
CLASS
  1
AEC_DISP_PROPS_WALL_PLAN
  2
AecDbDispPropsWallPlan
  3
AecArchBase50|Product Desc: Autodesk Architectural Desktop 2007 |Company: Autodesk,Inc. |WEB Address: www.autodesk.com
 90
    32897
280
     0
281
     0
  0
CLASS
  1
AEC_DISP_PROPS_SPACE_BOUNDARY
  2
AecDbDispPropsSpaceBoundary
  3
AecArchBase50|Product Desc: Autodesk Architectural Desktop 2007 |Company: Autodesk,Inc. |WEB Address: www.autodesk.com
 90
    32897
280
     0
281
     0
  0
CLASS
  1
AEC_DISP_PROPS_SLAB_PLAN
  2
AecDbDispPropsSlabPlan
  3
AecArchBase50|Product Desc: Autodesk Architectural Desktop 2007 |Company: Autodesk,Inc. |WEB Address: www.autodesk.com
 90
    32897
280
     0
281
     0
  0
CLASS
  1
AEC_DISP_PROPS_RAILING_MODEL
  2
AecDbDispPropsRailingModel
  3
AecArchBase50|Product Desc: Autodesk Architectural Desktop 2007 |Company: Autodesk,Inc. |WEB Address: www.autodesk.com
 90
    32897
280
     0
281
     0
  0
CLASS
  1
AEC_DISP_PROPS_MASS_ELEM_MODEL
  2
AecDbDispPropsMassElem
  3
AecBaseEx50|Product Desc: Autodesk Architectural Desktop 2007 |Company: Autodesk,Inc. |WEB Address: www.autodesk.com
 90
    32897
280
     0
281
     0
  0
CLASS
  1
AEC_DISP_PROPS_DIM
  2
AecDbDispPropsDimGroup
  3
AecArchDACHBase50|Product Desc: Autodesk Architectural Desktop 2007 |Company: Autodesk,Inc. |WEB Address: www.autodesk.com
 90
    32897
280
     0
281
     0
  0
CLASS
  1
AEC_DISP_PROPS_ROOFSLAB
  2
AecDbDispPropsRoofSlab
  3
AecArchBase50|Product Desc: Autodesk Architectural Desktop 2007 |Company: Autodesk,Inc. |WEB Address: www.autodesk.com
 90
    32897
280
     0
281
     0
  0
CLASS
  1
AEC_DISP_PROPS_ENT_REF
  2
AecDbDispPropsEntRef
  3
AecBase50|Product Desc: Autodesk Architectural Desktop 2007 |Company: Autodesk,Inc. |WEB Address: www.autodesk.com
 90
    32897
280
     0
281
     0
  0
CLASS
  1
AEC_DISP_PROPS_2D_SECTION
  2
AecDbDispProps2dSection
  3
AecBase50|Product Desc: Autodesk Architectural Desktop 2007 |Company: Autodesk,Inc. |WEB Address: www.autodesk.com
 90
    32897
280
     0
281
     0
  0
CLASS
  1
AECS_DISP_PROPS_MEMBER_LOGICAL
  2
AecsDbDispPropsMemberLogical
  3
AecStructureBase50|Product Desc: Autodesk Architectural Desktop 2007 |Company: Autodesk,Inc. |WEB Address: www.autodesk.com
 90
    32897
280
     0
281
     0
  0
CLASS
  1
AEC_DISP_PROPS_AREA_DECOMPOSED
  2
AecDbDispPropsAreaDecomposed
  3
AecAreaCalculationBase50|Product Desc: Autodesk Architectural Desktop 2007 |Company: Autodesk,Inc. |WEB Address: www.autodesk.com
 90
    32897
280
     0
281
     0
  0
CLASS
  1
AEC_DISP_PROPS_CAMERA
  2
AecDbDispPropsCamera
  3
AecBase50|Product Desc: Autodesk Architectural Desktop 2007 |Company: Autodesk,Inc. |WEB Address: www.autodesk.com
 90
    32897
280
     0
281
     0
  0
CLASS
  1
AECS_DISP_PROPS_MEMBER
  2
AecsDbDispPropsMember
  3
AecStructureBase50|Product Desc: Autodesk Architectural Desktop 2007 |Company: Autodesk,Inc. |WEB Address: www.autodesk.com
 90
    32897
280
     0
281
     0
  0
CLASS
  1
AECS_DISP_PROPS_MEMBER_PLAN
  2
AecsDbDispPropsMemberPlan
  3
AecStructureBase50|Product Desc: Autodesk Architectural Desktop 2007 |Company: Autodesk,Inc. |WEB Address: www.autodesk.com
 90
    32897
280
     0
281
     0
  0
CLASS
  1
AEC_DISP_PROPS_AREAGROUP
  2
AecDbDispPropsAreaGroup
  3
AecAreaCalculationBase50|Product Desc: Autodesk Architectural Desktop 2007 |Company: Autodesk,Inc. |WEB Address: www.autodesk.com
 90
    32897
280
     0
281
     0
  0
CLASS
  1
AEC_DISP_PROPS_WINDOW_NOMINAL
  2
AecDbDispPropsWindowNominal
  3
AecArchBase50|Product Desc: Autodesk Architectural Desktop 2007 |Company: Autodesk,Inc. |WEB Address: www.autodesk.com
 90
    32897
280
     0
281
     0
  0
CLASS
  1
AEC_DISP_PROPS_AREA
  2
AecDbDispPropsArea
  3
AecAreaCalculationBase50|Product Desc: Autodesk Architectural Desktop 2007 |Company: Autodesk,Inc. |WEB Address: www.autodesk.com
 90
    32897
280
     0
281
     0
  0
CLASS
  1
AEC_DISP_PROPS_SCHEDULE_TABLE
  2
AecDbDispPropsScheduleTable
  3
AecSchedule50|Product Desc: Autodesk Architectural Desktop 2007 |Company: Autodesk,Inc. |WEB Address: www.autodesk.com
 90
    32897
280
     0
281
     0
  0
CLASS
  1
AEC_LAYERKEY_STYLE
  2
AecDbLayerKeyStyle
  3
AecBase50|Product Desc: Autodesk Architectural Desktop 2007 |Company: Autodesk,Inc. |WEB Address: www.autodesk.com
 90
    32897
280
     0
281
     0
  0
CLASS
  1
AEC_VARS_ARCHBASE
  2
AecDbVarsArchBase
  3
AecArchBase50|Product Desc: Autodesk Architectural Desktop 2007 |Company: Autodesk,Inc. |WEB Address: www.autodesk.com
 90
    32897
280
     0
281
     0
  0
CLASS
  1
AEC_VARS_MUNICH
  2
AecDbVarsMunich
  3
AecArchDACHBase50|Product Desc: Autodesk Architectural Desktop 2007 |Company: Autodesk,Inc. |WEB Address: www.autodesk.com
 90
    32897
280
     0
281
     0
  0
CLASS
  1
AEC_NOTIFICATION_TRACKER
  2
AecDbNotificationTracker
  3
AecBase50|Product Desc: Autodesk Architectural Desktop 2007 |Company: Autodesk,Inc. |WEB Address: www.autodesk.com
 90
    32897
280
     0
281
     0
  0
CLASS
  1
AEC_DISP_REP_ANCHOR
  2
AecDbDispRepAnchor
  3
AecBase50|Product Desc: Autodesk Architectural Desktop 2007 |Company: Autodesk,Inc. |WEB Address: www.autodesk.com
 90
    32897
280
     0
281
     0
  0
CLASS
  1
AEC_DISP_REP_POLYGON_TRUECOLOUR
  2
AecDbDispRepPolygonTrueColour
  3
AecBaseEx50|Product Desc: Autodesk Architectural Desktop 2007 |Company: Autodesk,Inc. |WEB Address: www.autodesk.com
 90
    32897
280
     0
281
     0
  0
CLASS
  1
AEC_DISP_PROPS_POLYGON_TRUECOLOUR
  2
AecDbDispPropsPolygonTrueColour
  3
AecBaseEx50|Product Desc: Autodesk Architectural Desktop 2007 |Company: Autodesk,Inc. |WEB Address: www.autodesk.com
 90
    32897
280
     0
281
     0
  0
CLASS
  1
AEC_DISP_REP_BDG_ELEVLINE_RCP
  2
AecDbDispRepBdgElevLineRcp
  3
AecArchBase50|Product Desc: Autodesk Architectural Desktop 2007 |Company: Autodesk,Inc. |WEB Address: www.autodesk.com
 90
    32897
280
     0
281
     0
  0
CLASS
  1
AEC_DISP_REP_BDG_SECTIONLINE_RCP
  2
AecDbDispRepBdgSectionLineRcp
  3
AecArchBase50|Product Desc: Autodesk Architectural Desktop 2007 |Company: Autodesk,Inc. |WEB Address: www.autodesk.com
 90
    32897
280
     0
281
     0
  0
CLASS
  1
AEC_DISP_REP_BDG_SECTION_MODEL
  2
AecDbDispRepBdgSectionModel
  3
AecArchBase50|Product Desc: Autodesk Architectural Desktop 2007 |Company: Autodesk,Inc. |WEB Address: www.autodesk.com
 90
    32897
280
     0
281
     0
  0
CLASS
  1
AEC_DISP_REP_DOOR_ELEV
  2
AecDbDispRepDoorElev
  3
AecArchBase50|Product Desc: Autodesk Architectural Desktop 2007 |Company: Autodesk,Inc. |WEB Address: www.autodesk.com
 90
    32897
280
     0
281
     0
  0
CLASS
  1
AEC_DISP_REP_DOOR_RCP
  2
AecDbDispRepDoorRcp
  3
AecArchBase50|Product Desc: Autodesk Architectural Desktop 2007 |Company: Autodesk,Inc. |WEB Address: www.autodesk.com
 90
    32897
280
     0
281
     0
  0
CLASS
  1
AEC_DISP_REP_DOOR_THRESHOLD_PLAN
  2
AecDbDispRepDoorThresholdPlan
  3
AecArchBase50|Product Desc: Autodesk Architectural Desktop 2007 |Company: Autodesk,Inc. |WEB Address: www.autodesk.com
 90
    32897
280
     0
281
     0
  0
CLASS
  1
AEC_DISP_PROPS_DOOR_THRESHOLD_PLAN
  2
AecDbDispPropsDoorThresholdPlan
  3
AecArchBase50|Product Desc: Autodesk Architectural Desktop 2007 |Company: Autodesk,Inc. |WEB Address: www.autodesk.com
 90
    32897
280
     0
281
     0
  0
CLASS
  1
AEC_DISP_REP_MASS_ELEM_RCP
  2
AecDbDispRepMassElemRcp
  3
AecArchBase50|Product Desc: Autodesk Architectural Desktop 2007 |Company: Autodesk,Inc. |WEB Address: www.autodesk.com
 90
    32897
280
     0
281
     0
  0
CLASS
  1
AEC_DISP_REP_MASS_GROUP_RCP
  2
AecDbDispRepMassGroupRcp
  3
AecArchBase50|Product Desc: Autodesk Architectural Desktop 2007 |Company: Autodesk,Inc. |WEB Address: www.autodesk.com
 90
    32897
280
     0
281
     0
  0
CLASS
  1
AEC_DISP_REP_MVBLOCK_REF_RCP
  2
AecDbDispRepMvBlockRefRcp
  3
AecArchBase50|Product Desc: Autodesk Architectural Desktop 2007 |Company: Autodesk,Inc. |WEB Address: www.autodesk.com
 90
    32897
280
     0
281
     0
  0
CLASS
  1
AEC_DISP_REP_ROOF_RCP
  2
AecDbDispRepRoofRcp
  3
AecArchBase50|Product Desc: Autodesk Architectural Desktop 2007 |Company: Autodesk,Inc. |WEB Address: www.autodesk.com
 90
    32897
280
     0
281
     0
  0
CLASS
  1
AEC_DISP_REP_SPACE_BOUNDARY_DIAGRAM
  2
AecDbDispRepSpaceBoundaryDgrm
  3
AecArchBase50|Product Desc: Autodesk Architectural Desktop 2007 |Company: Autodesk,Inc. |WEB Address: www.autodesk.com
 90
    32897
280
     0
281
     0
  0
CLASS
  1
AEC_DISP_REP_SPACE_RCP
  2
AecDbDispRepSpaceRcp
  3
AecArchBase50|Product Desc: Autodesk Architectural Desktop 2007 |Company: Autodesk,Inc. |WEB Address: www.autodesk.com
 90
    32897
280
     0
281
     0
  0
CLASS
  1
AEC_DISP_REP_SPACE_VOLUME
  2
AecDbDispRepSpaceVolume
  3
AecArchBase50|Product Desc: Autodesk Architectural Desktop 2007 |Company: Autodesk,Inc. |WEB Address: www.autodesk.com
 90
    32897
280
     0
281
     0
  0
CLASS
  1
AEC_DISP_REP_STAIR_PLAN_OVERLAPPING
  2
AecDbDispRepStairPlanOverlapping
  3
AecArchBase50|Product Desc: Autodesk Architectural Desktop 2007 |Company: Autodesk,Inc. |WEB Address: www.autodesk.com
 90
    32897
280
     0
281
     0
  0
CLASS
  1
AEC_DISP_PROPS_STAIR_PLAN_OVERLAPPING
  2
AecDbDispPropsStairPlanOverlapping
  3
AecArchBase50|Product Desc: Autodesk Architectural Desktop 2007 |Company: Autodesk,Inc. |WEB Address: www.autodesk.com
 90
    32897
280
     0
281
     0
  0
CLASS
  1
AEC_DISP_REP_STAIR_RCP
  2
AecDbDispRepStairRcp
  3
AecArchBase50|Product Desc: Autodesk Architectural Desktop 2007 |Company: Autodesk,Inc. |WEB Address: www.autodesk.com
 90
    32897
280
     0
281
     0
  0
CLASS
  1
AEC_DISP_REP_WALL_RCP
  2
AecDbDispRepWallRcp
  3
AecArchBase50|Product Desc: Autodesk Architectural Desktop 2007 |Company: Autodesk,Inc. |WEB Address: www.autodesk.com
 90
    32897
280
     0
281
     0
  0
CLASS
  1
AEC_DISP_REP_WINDOWASSEMBLY_SILL_PLAN
  2
AecDbDispRepWindowAssemblySillPlan
  3
AecArchBase50|Product Desc: Autodesk Architectural Desktop 2007 |Company: Autodesk,Inc. |WEB Address: www.autodesk.com
 90
    32897
280
     0
281
     0
  0
CLASS
  1
AEC_DISP_PROPS_WINDOW_ASSEMBLY_SILL_PLAN
  2
AecDbDispPropsWindowAssemblySillPlan
  3
AecArchBase50|Product Desc: Autodesk Architectural Desktop 2007 |Company: Autodesk,Inc. |WEB Address: www.autodesk.com
 90
    32897
280
     0
281
     0
  0
CLASS
  1
AEC_DISP_REP_WINDOW_ELEV
  2
AecDbDispRepWindowElev
  3
AecArchBase50|Product Desc: Autodesk Architectural Desktop 2007 |Company: Autodesk,Inc. |WEB Address: www.autodesk.com
 90
    32897
280
     0
281
     0
  0
CLASS
  1
AEC_DISP_REP_WINDOW_RCP
  2
AecDbDispRepWindowRcp
  3
AecArchBase50|Product Desc: Autodesk Architectural Desktop 2007 |Company: Autodesk,Inc. |WEB Address: www.autodesk.com
 90
    32897
280
     0
281
     0
  0
CLASS
  1
AEC_DISP_REP_WINDOW_SILL_PLAN
  2
AecDbDispRepWindowSillPlan
  3
AecArchBase50|Product Desc: Autodesk Architectural Desktop 2007 |Company: Autodesk,Inc. |WEB Address: www.autodesk.com
 90
    32897
280
     0
281
     0
  0
CLASS
  1
AEC_DISP_PROPS_WINDOW_SILL_PLAN
  2
AecDbDispPropsWindowSillPlan
  3
AecArchBase50|Product Desc: Autodesk Architectural Desktop 2007 |Company: Autodesk,Inc. |WEB Address: www.autodesk.com
 90
    32897
280
     0
281
     0
  0
CLASS
  1
AEC_DISP_REP_ANCHOR_BUB_TO_GRID_RCP
  2
AecDbDispRepAnchorBubToGridRcp
  3
AecStructureBase50|Product Desc: Autodesk Architectural Desktop 2007 |Company: Autodesk,Inc. |WEB Address: www.autodesk.com
 90
    32897
280
     0
281
     0
  0
CLASS
  1
AEC_DISP_REP_COLUMN_GRID_RCP
  2
AecDbDispRepColumnGridRcp
  3
AecStructureBase50|Product Desc: Autodesk Architectural Desktop 2007 |Company: Autodesk,Inc. |WEB Address: www.autodesk.com
 90
    32897
280
     0
281
     0
  0
CLASS
  1
AECS_DISP_REP_MEMBER_ELEVATION_DESIGN
  2
AecsDbDispRepMemberElevationDesign
  3
AecStructureBase50|Product Desc: Autodesk Architectural Desktop 2007 |Company: Autodesk,Inc. |WEB Address: www.autodesk.com
 90
    32897
280
     0
281
     0
  0
CLASS
  1
AECS_DISP_PROPS_MEMBER_PROJECTED
  2
AecsDbDispPropsMemberProjected
  3
AecStructureBase50|Product Desc: Autodesk Architectural Desktop 2007 |Company: Autodesk,Inc. |WEB Address: www.autodesk.com
 90
    32897
280
     0
281
     0
  0
CLASS
  1
AECS_DISP_REP_MEMBER_ELEVATION_DETAIL
  2
AecsDbDispRepMemberElevationDetail
  3
AecStructureBase50|Product Desc: Autodesk Architectural Desktop 2007 |Company: Autodesk,Inc. |WEB Address: www.autodesk.com
 90
    32897
280
     0
281
     0
  0
CLASS
  1
AECS_DISP_REP_MEMBER_MODEL_DETAIL
  2
AecsDbDispRepMemberModelDetail
  3
AecStructureBase50|Product Desc: Autodesk Architectural Desktop 2007 |Company: Autodesk,Inc. |WEB Address: www.autodesk.com
 90
    32897
280
     0
281
     0
  0
CLASS
  1
AECS_DISP_REP_MEMBER_PLAN_DETAIL
  2
AecsDbDispRepMemberPlanDetail
  3
AecStructureBase50|Product Desc: Autodesk Architectural Desktop 2007 |Company: Autodesk,Inc. |WEB Address: www.autodesk.com
 90
    32897
280
     0
281
     0
  0
CLASS
  1
AECS_DISP_REP_MEMBER_PLAN_SKETCH
  2
AecsDbDispRepMemberPlanSketch
  3
AecStructureBase50|Product Desc: Autodesk Architectural Desktop 2007 |Company: Autodesk,Inc. |WEB Address: www.autodesk.com
 90
    32897
280
     0
281
     0
  0
CLASS
  1
AECS_DISP_PROPS_MEMBER_PLAN_SKETCH
  2
AecsDbDispPropsMemberPlanSketch
  3
AecStructureBase50|Product Desc: Autodesk Architectural Desktop 2007 |Company: Autodesk,Inc. |WEB Address: www.autodesk.com
 90
    32897
280
     0
281
     0
  0
CLASS
  1
AEC_AECDBDISPREPAREA100
  2
AecDbDispRepArea100
  3
AecArchDACHBase50|Product Desc: Autodesk Architectural Desktop 2007 |Company: Autodesk,Inc. |WEB Address: www.autodesk.com
 90
    32897
280
     0
281
     0
  0
CLASS
  1
AEC_AECDBDISPREPAREAGROUP100
  2
AecDbDispRepAreaGroup100
  3
AecArchDACHBase50|Product Desc: Autodesk Architectural Desktop 2007 |Company: Autodesk,Inc. |WEB Address: www.autodesk.com
 90
    32897
280
     0
281
     0
  0
CLASS
  1
AEC_AECDBDISPREPBDGELEVLINEPLAN100
  2
AecDbDispRepBdgElevLinePlan100
  3
AecArchDACHBase50|Product Desc: Autodesk Architectural Desktop 2007 |Company: Autodesk,Inc. |WEB Address: www.autodesk.com
 90
    32897
280
     0
281
     0
  0
CLASS
  1
AEC_AECDBDISPREPBDGSECTIONLINEPLAN100
  2
AecDbDispRepBdgSectionLinePlan100
  3
AecArchDACHBase50|Product Desc: Autodesk Architectural Desktop 2007 |Company: Autodesk,Inc. |WEB Address: www.autodesk.com
 90
    32897
280
     0
281
     0
  0
CLASS
  1
AEC_AECDBDISPREPCEILINGGRIDPLAN100
  2
AecDbDispRepCeilingGridPlan100
  3
AecArchDACHBase50|Product Desc: Autodesk Architectural Desktop 2007 |Company: Autodesk,Inc. |WEB Address: www.autodesk.com
 90
    32897
280
     0
281
     0
  0
CLASS
  1
AEC_AECDBDISPREPCOLUMNGRIDPLAN100
  2
AecDbDispRepColumnGridPlan100
  3
AecArchDACHBase50|Product Desc: Autodesk Architectural Desktop 2007 |Company: Autodesk,Inc. |WEB Address: www.autodesk.com
 90
    32897
280
     0
281
     0
  0
CLASS
  1
AEC_AECDBDISPREPCURTAINWALLLAYOUTPLAN100
  2
AecDbDispRepCurtainWallLayoutPlan100
  3
AecArchDACHBase50|Product Desc: Autodesk Architectural Desktop 2007 |Company: Autodesk,Inc. |WEB Address: www.autodesk.com
 90
    32897
280
     0
281
     0
  0
CLASS
  1
AEC_AECDBDISPREPCURTAINWALLUNITPLAN100
  2
AecDbDispRepCurtainWallUnitPlan100
  3
AecArchDACHBase50|Product Desc: Autodesk Architectural Desktop 2007 |Company: Autodesk,Inc. |WEB Address: www.autodesk.com
 90
    32897
280
     0
281
     0
  0
CLASS
  1
AEC_AECDBDISPREPMVBLOCKREFPLAN100
  2
AecDbDispRepMvBlockRefPlan100
  3
AecArchDACHBase50|Product Desc: Autodesk Architectural Desktop 2007 |Company: Autodesk,Inc. |WEB Address: www.autodesk.com
 90
    32897
280
     0
281
     0
  0
CLASS
  1
AEC_AECDBDISPREPROOFPLAN100
  2
AecDbDispRepRoofPlan100
  3
AecArchDACHBase50|Product Desc: Autodesk Architectural Desktop 2007 |Company: Autodesk,Inc. |WEB Address: www.autodesk.com
 90
    32897
280
     0
281
     0
  0
CLASS
  1
AEC_AECDBDISPREPROOFSLABPLAN100
  2
AecDbDispRepRoofSlabPlan100
  3
AecArchDACHBase50|Product Desc: Autodesk Architectural Desktop 2007 |Company: Autodesk,Inc. |WEB Address: www.autodesk.com
 90
    32897
280
     0
281
     0
  0
CLASS
  1
AEC_AECDBDISPREPSLABPLAN100
  2
AecDbDispRepSlabPlan100
  3
AecArchDACHBase50|Product Desc: Autodesk Architectural Desktop 2007 |Company: Autodesk,Inc. |WEB Address: www.autodesk.com
 90
    32897
280
     0
281
     0
  0
CLASS
  1
AEC_AECDBDISPREPSPACEBOUNDARYPLAN100
  2
AecDbDispRepSpaceBoundaryPlan100
  3
AecArchDACHBase50|Product Desc: Autodesk Architectural Desktop 2007 |Company: Autodesk,Inc. |WEB Address: www.autodesk.com
 90
    32897
280
     0
281
     0
  0
CLASS
  1
AEC_AECDBDISPREPSPACEPLAN100
  2
AecDbDispRepSpacePlan100
  3
AecArchDACHBase50|Product Desc: Autodesk Architectural Desktop 2007 |Company: Autodesk,Inc. |WEB Address: www.autodesk.com
 90
    32897
280
     0
281
     0
  0
CLASS
  1
AEC_AECDBDISPREPWALLPLAN100
  2
AecDbDispRepWallPlan100
  3
AecArchDACHBase50|Product Desc: Autodesk Architectural Desktop 2007 |Company: Autodesk,Inc. |WEB Address: www.autodesk.com
 90
    32897
280
     0
281
     0
  0
CLASS
  1
AEC_AECDBDISPREPAREA50
  2
AecDbDispRepArea50
  3
AecArchDACHBase50|Product Desc: Autodesk Architectural Desktop 2007 |Company: Autodesk,Inc. |WEB Address: www.autodesk.com
 90
    32897
280
     0
281
     0
  0
CLASS
  1
AEC_AECDBDISPREPAREAGROUP50
  2
AecDbDispRepAreaGroup50
  3
AecArchDACHBase50|Product Desc: Autodesk Architectural Desktop 2007 |Company: Autodesk,Inc. |WEB Address: www.autodesk.com
 90
    32897
280
     0
281
     0
  0
CLASS
  1
AEC_AECDBDISPREPBDGELEVLINEPLAN50
  2
AecDbDispRepBdgElevLinePlan50
  3
AecArchDACHBase50|Product Desc: Autodesk Architectural Desktop 2007 |Company: Autodesk,Inc. |WEB Address: www.autodesk.com
 90
    32897
280
     0
281
     0
  0
CLASS
  1
AEC_AECDBDISPREPBDGSECTIONLINEPLAN50
  2
AecDbDispRepBdgSectionLinePlan50
  3
AecArchDACHBase50|Product Desc: Autodesk Architectural Desktop 2007 |Company: Autodesk,Inc. |WEB Address: www.autodesk.com
 90
    32897
280
     0
281
     0
  0
CLASS
  1
AEC_AECDBDISPREPCEILINGGRIDPLAN50
  2
AecDbDispRepCeilingGridPlan50
  3
AecArchDACHBase50|Product Desc: Autodesk Architectural Desktop 2007 |Company: Autodesk,Inc. |WEB Address: www.autodesk.com
 90
    32897
280
     0
281
     0
  0
CLASS
  1
AEC_AECDBDISPREPCOLUMNGRIDPLAN50
  2
AecDbDispRepColumnGridPlan50
  3
AecArchDACHBase50|Product Desc: Autodesk Architectural Desktop 2007 |Company: Autodesk,Inc. |WEB Address: www.autodesk.com
 90
    32897
280
     0
281
     0
  0
CLASS
  1
AEC_AECDBDISPREPCURTAINWALLLAYOUTPLAN50
  2
AecDbDispRepCurtainWallLayoutPlan50
  3
AecArchDACHBase50|Product Desc: Autodesk Architectural Desktop 2007 |Company: Autodesk,Inc. |WEB Address: www.autodesk.com
 90
    32897
280
     0
281
     0
  0
CLASS
  1
AEC_AECDBDISPREPCURTAINWALLUNITPLAN50
  2
AecDbDispRepCurtainWallUnitPlan50
  3
AecArchDACHBase50|Product Desc: Autodesk Architectural Desktop 2007 |Company: Autodesk,Inc. |WEB Address: www.autodesk.com
 90
    32897
280
     0
281
     0
  0
CLASS
  1
AEC_AECDBDISPREPMVBLOCKREFPLAN50
  2
AecDbDispRepMvBlockRefPlan50
  3
AecArchDACHBase50|Product Desc: Autodesk Architectural Desktop 2007 |Company: Autodesk,Inc. |WEB Address: www.autodesk.com
 90
    32897
280
     0
281
     0
  0
CLASS
  1
AEC_AECDBDISPREPROOFPLAN50
  2
AecDbDispRepRoofPlan50
  3
AecArchDACHBase50|Product Desc: Autodesk Architectural Desktop 2007 |Company: Autodesk,Inc. |WEB Address: www.autodesk.com
 90
    32897
280
     0
281
     0
  0
CLASS
  1
AEC_AECDBDISPREPROOFSLABPLAN50
  2
AecDbDispRepRoofSlabPlan50
  3
AecArchDACHBase50|Product Desc: Autodesk Architectural Desktop 2007 |Company: Autodesk,Inc. |WEB Address: www.autodesk.com
 90
    32897
280
     0
281
     0
  0
CLASS
  1
AEC_AECDBDISPREPSLABPLAN50
  2
AecDbDispRepSlabPlan50
  3
AecArchDACHBase50|Product Desc: Autodesk Architectural Desktop 2007 |Company: Autodesk,Inc. |WEB Address: www.autodesk.com
 90
    32897
280
     0
281
     0
  0
CLASS
  1
AEC_AECDBDISPREPSPACEBOUNDARYPLAN50
  2
AecDbDispRepSpaceBoundaryPlan50
  3
AecArchDACHBase50|Product Desc: Autodesk Architectural Desktop 2007 |Company: Autodesk,Inc. |WEB Address: www.autodesk.com
 90
    32897
280
     0
281
     0
  0
CLASS
  1
AEC_AECDBDISPREPSPACEPLAN50
  2
AecDbDispRepSpacePlan50
  3
AecArchDACHBase50|Product Desc: Autodesk Architectural Desktop 2007 |Company: Autodesk,Inc. |WEB Address: www.autodesk.com
 90
    32897
280
     0
281
     0
  0
CLASS
  1
AEC_AECDBDISPREPWALLPLAN50
  2
AecDbDispRepWallPlan50
  3
AecArchDACHBase50|Product Desc: Autodesk Architectural Desktop 2007 |Company: Autodesk,Inc. |WEB Address: www.autodesk.com
 90
    32897
280
     0
281
     0
  0
CLASS
  1
AEC_AECDBDISPREPWINDOWASSEMBLYPLAN50
  2
AecDbDispRepWindowAssemblyPlan50
  3
AecArchDACHBase50|Product Desc: Autodesk Architectural Desktop 2007 |Company: Autodesk,Inc. |WEB Address: www.autodesk.com
 90
    32897
280
     0
281
     0
  0
CLASS
  1
AEC_DB_DISP_REP_DIM_GROUP_PLAN100
  2
AecDbDispRepDimGroupPlan100
  3
AecArchDACHBase50|Product Desc: Autodesk Architectural Desktop 2007 |Company: Autodesk,Inc. |WEB Address: www.autodesk.com
 90
    32897
280
     0
281
     0
  0
CLASS
  1
AEC_DB_DISP_REP_DIM_GROUP_PLAN50
  2
AecDbDispRepDimGroupPlan50
  3
AecArchDACHBase50|Product Desc: Autodesk Architectural Desktop 2007 |Company: Autodesk,Inc. |WEB Address: www.autodesk.com
 90
    32897
280
     0
281
     0
  0
CLASS
  1
AEC_DISP_REP_DOOR_PLAN_50
  2
AecDbDispRepDoorPlan50
  3
AecArchDACHBase50|Product Desc: Autodesk Architectural Desktop 2007 |Company: Autodesk,Inc. |WEB Address: www.autodesk.com
 90
    32897
280
     0
281
     0
  0
CLASS
  1
AEC_DISP_PROPS_DOOR_PLAN_50
  2
AecDbDispPropsDoorPlan50
  3
AecArchDACHBase50|Product Desc: Autodesk Architectural Desktop 2007 |Company: Autodesk,Inc. |WEB Address: www.autodesk.com
 90
    32897
280
     0
281
     0
  0
CLASS
  1
AEC_DISP_REP_DOOR_PLAN_HEKTO
  2
AecDbDispRepDoorPlanHekto
  3
AecArchDACHBase50|Product Desc: Autodesk Architectural Desktop 2007 |Company: Autodesk,Inc. |WEB Address: www.autodesk.com
 90
    32897
280
     0
281
     0
  0
CLASS
  1
AEC_DISP_PROPS_DOOR_PLAN_100
  2
AecDbDispPropsDoorPlan100
  3
AecArchDACHBase50|Product Desc: Autodesk Architectural Desktop 2007 |Company: Autodesk,Inc. |WEB Address: www.autodesk.com
 90
    32897
280
     0
281
     0
  0
CLASS
  1
AEC_DISP_REP_DOOR_THRESHOLD_SYMBOL_PLAN
  2
AecDbDispRepDoorThresholdSymbolPlan
  3
AecArchDACHBase50|Product Desc: Autodesk Architectural Desktop 2007 |Company: Autodesk,Inc. |WEB Address: www.autodesk.com
 90
    32897
280
     0
281
     0
  0
CLASS
  1
AEC_DISP_PROPS_DOOR_THRESHOLD_SYMBOL_PLAN
  2
AecDbDispPropsDoorThresholdSymbolPlan
  3
AecArchDACHBase50|Product Desc: Autodesk Architectural Desktop 2007 |Company: Autodesk,Inc. |WEB Address: www.autodesk.com
 90
    32897
280
     0
281
     0
  0
CLASS
  1
AEC_DISPREPAECDBDISPREPMASSELEMPLAN100
  2
AecDbDispRepMassElemPlan100
  3
AecArchDACHBase50|Product Desc: Autodesk Architectural Desktop 2007 |Company: Autodesk,Inc. |WEB Address: www.autodesk.com
 90
    32897
280
     0
281
     0
  0
CLASS
  1
AEC_DISPROPSMASSELEMPLANCOMMON
  2
AecDbDispPropsMassElemPlanCommon
  3
AecArchDACHBase50|Product Desc: Autodesk Architectural Desktop 2007 |Company: Autodesk,Inc. |WEB Address: www.autodesk.com
 90
    32897
280
     0
281
     0
  0
CLASS
  1
AEC_DISPREPAECDBDISPREPMASSELEMPLAN50
  2
AecDbDispRepMassElemPlan50
  3
AecArchDACHBase50|Product Desc: Autodesk Architectural Desktop 2007 |Company: Autodesk,Inc. |WEB Address: www.autodesk.com
 90
    32897
280
     0
281
     0
  0
CLASS
  1
AEC_DISPREPAECDBDISPREPMASSGROUPPLAN100
  2
AecDbDispRepMassGroupPlan100
  3
AecArchDACHBase50|Product Desc: Autodesk Architectural Desktop 2007 |Company: Autodesk,Inc. |WEB Address: www.autodesk.com
 90
    32897
280
     0
281
     0
  0
CLASS
  1
AEC_DISPROPSMASSGROUPPLANCOMMON
  2
AecDbDispPropsMassGroupPlanCommon
  3
AecArchDACHBase50|Product Desc: Autodesk Architectural Desktop 2007 |Company: Autodesk,Inc. |WEB Address: www.autodesk.com
 90
    32897
280
     0
281
     0
  0
CLASS
  1
AEC_DISPREPAECDBDISPREPMASSGROUPPLAN50
  2
AecDbDispRepMassGroupPlan50
  3
AecArchDACHBase50|Product Desc: Autodesk Architectural Desktop 2007 |Company: Autodesk,Inc. |WEB Address: www.autodesk.com
 90
    32897
280
     0
281
     0
  0
CLASS
  1
AEC_DISPREPAECDBDISPREPOPENINGPLAN100
  2
AecDbDispRepOpeningPlan100
  3
AecArchDACHBase50|Product Desc: Autodesk Architectural Desktop 2007 |Company: Autodesk,Inc. |WEB Address: www.autodesk.com
 90
    32897
280
     0
281
     0
  0
CLASS
  1
AEC_DISPROPSOPENINGPLANCOMMONHATCHED
  2
AecDbDispPropsOpeningPlanCommonHatched
  3
AecArchDACHBase50|Product Desc: Autodesk Architectural Desktop 2007 |Company: Autodesk,Inc. |WEB Address: www.autodesk.com
 90
    32897
280
     0
281
     0
  0
CLASS
  1
AEC_DISPREPAECDBDISPREPOPENINGPLAN50
  2
AecDbDispRepOpeningPlan50
  3
AecArchDACHBase50|Product Desc: Autodesk Architectural Desktop 2007 |Company: Autodesk,Inc. |WEB Address: www.autodesk.com
 90
    32897
280
     0
281
     0
  0
CLASS
  1
AEC_DISPREPAECDBDISPREPOPENINGPLANREFLECTED
  2
AecDbDispRepOpeningPlanReflected
  3
AecArchDACHBase50|Product Desc: Autodesk Architectural Desktop 2007 |Company: Autodesk,Inc. |WEB Address: www.autodesk.com
 90
    32897
280
     0
281
     0
  0
CLASS
  1
AEC_DISPROPSOPENINGPLANCOMMON
  2
AecDbDispPropsOpeningPlanCommon
  3
AecArchDACHBase50|Product Desc: Autodesk Architectural Desktop 2007 |Company: Autodesk,Inc. |WEB Address: www.autodesk.com
 90
    32897
280
     0
281
     0
  0
CLASS
  1
AEC_DISPREPAECDBDISPREPOPENINGSILLPLAN
  2
AecDbDispRepOpeningSillPlan
  3
AecArchDACHBase50|Product Desc: Autodesk Architectural Desktop 2007 |Company: Autodesk,Inc. |WEB Address: www.autodesk.com
 90
    32897
280
     0
281
     0
  0
CLASS
  1
AEC_DISPROPSOPENINGSILLPLAN
  2
AecDbDispPropsOpeningSillPlan
  3
AecArchDACHBase50|Product Desc: Autodesk Architectural Desktop 2007 |Company: Autodesk,Inc. |WEB Address: www.autodesk.com
 90
    32897
280
     0
281
     0
  0
CLASS
  1
AEC_DISP_REP_RAILING_PLAN_100
  2
AecDbDispRepRailingPlan100
  3
AecArchDACHBase50|Product Desc: Autodesk Architectural Desktop 2007 |Company: Autodesk,Inc. |WEB Address: www.autodesk.com
 90
    32897
280
     0
281
     0
  0
CLASS
  1
AEC_DISP_ROPS_RAILING_PLAN_100
  2
AecDbDispPropsRailingPlan100
  3
AecArchDACHBase50|Product Desc: Autodesk Architectural Desktop 2007 |Company: Autodesk,Inc. |WEB Address: www.autodesk.com
 90
    32897
280
     0
281
     0
  0
CLASS
  1
AEC_DISP_REP_RAILING_PLAN_50
  2
AecDbDispRepRailingPlan50
  3
AecArchDACHBase50|Product Desc: Autodesk Architectural Desktop 2007 |Company: Autodesk,Inc. |WEB Address: www.autodesk.com
 90
    32897
280
     0
281
     0
  0
CLASS
  1
AEC_DISP_ROPS_RAILING_PLAN_50
  2
AecDbDispPropsRailingPlan50
  3
AecArchDACHBase50|Product Desc: Autodesk Architectural Desktop 2007 |Company: Autodesk,Inc. |WEB Address: www.autodesk.com
 90
    32897
280
     0
281
     0
  0
CLASS
  1
AEC_DISP_REP_STAIR_PLAN_100
  2
AecDbDispRepStairPlan100
  3
AecArchDACHBase50|Product Desc: Autodesk Architectural Desktop 2007 |Company: Autodesk,Inc. |WEB Address: www.autodesk.com
 90
    32897
280
     0
281
     0
  0
CLASS
  1
AEC_DISP_ROPS_STAIR_PLAN_100
  2
AecDbDispPropsStairPlan100
  3
AecArchDACHBase50|Product Desc: Autodesk Architectural Desktop 2007 |Company: Autodesk,Inc. |WEB Address: www.autodesk.com
 90
    32897
280
     0
281
     0
  0
CLASS
  1
AEC_DISP_REP_STAIR_PLAN_50
  2
AecDbDispRepStairPlan50
  3
AecArchDACHBase50|Product Desc: Autodesk Architectural Desktop 2007 |Company: Autodesk,Inc. |WEB Address: www.autodesk.com
 90
    32897
280
     0
281
     0
  0
CLASS
  1
AEC_DISP_ROPS_STAIR_PLAN_50
  2
AecDbDispPropsStairPlan50
  3
AecArchDACHBase50|Product Desc: Autodesk Architectural Desktop 2007 |Company: Autodesk,Inc. |WEB Address: www.autodesk.com
 90
    32897
280
     0
281
     0
  0
CLASS
  1
AEC_DISP_REP_WINDOW_PLAN_100
  2
AecDbDispRepWindowPlan100
  3
AecArchDACHBase50|Product Desc: Autodesk Architectural Desktop 2007 |Company: Autodesk,Inc. |WEB Address: www.autodesk.com
 90
    32897
280
     0
281
     0
  0
CLASS
  1
AEC_DISP_PROPS_WINDOW_PLAN_100
  2
AecDbDispPropsWindowPlan100
  3
AecArchDACHBase50|Product Desc: Autodesk Architectural Desktop 2007 |Company: Autodesk,Inc. |WEB Address: www.autodesk.com
 90
    32897
280
     0
281
     0
  0
CLASS
  1
AEC_DISP_REP_WINDOW_PLAN_50
  2
AecDbDispRepWindowPlan50
  3
AecArchDACHBase50|Product Desc: Autodesk Architectural Desktop 2007 |Company: Autodesk,Inc. |WEB Address: www.autodesk.com
 90
    32897
280
     0
281
     0
  0
CLASS
  1
AEC_DISP_PROPS_WINDOW_PLAN_50
  2
AecDbDispPropsWindowPlan50
  3
AecArchDACHBase50|Product Desc: Autodesk Architectural Desktop 2007 |Company: Autodesk,Inc. |WEB Address: www.autodesk.com
 90
    32897
280
     0
281
     0
  0
CLASS
  1
BINRECORD
  2
AcAecBinRecord
  3
AecBase50|Product Desc: Autodesk Architectural Desktop 2007 |Company: Autodesk,Inc. |WEB Address: www.autodesk.com
 90
    32897
280
     0
281
     0
  0
CLASS
  1
SPATIAL_FILTER
  2
AcDbSpatialFilter
  3
ObjectDBX Classes
 90
    32768
280
     0
281
     0
  0
CLASS
  1
AEC_VARS_STRUCTUREBASE
  2
AecsDbVarsStructureBase
  3
AecStructureBase50|Product Desc: Autodesk Architectural Desktop 2007 |Company: Autodesk,Inc. |WEB Address: www.autodesk.com
 90
    32897
280
     0
281
     0
  0
CLASS
  1
DIMASSOC
  2
AcDbDimAssoc
  3
"AcDbDimAssoc|Product Desc:     AcDim ARX App For Dimension|Company:          Autodesk, Inc.|WEB Address:      www.autodesk.com"
 90
    32768
280
     0
281
     0
  0
CLASS
  1
TABLESTYLE
  2
AcDbTableStyle
  3
ObjectDBX Classes
 90
     4095
280
     0
281
     0
  0
CLASS
  1
AEC_DISP_REP_DISPLAYTHEME
  2
AecDbDispRepDisplayTheme
  3
AecBase50|Product Desc: Autodesk Architectural Desktop 2007 |Company: Autodesk,Inc. |WEB Address: www.autodesk.com
 90
    32897
280
     0
281
     0
  0
CLASS
  1
AEC_DISP_PROPS_DISPLAYTHEME
  2
AecDbDispPropsDisplayTheme
  3
AecBase50|Product Desc: Autodesk Architectural Desktop 2007 |Company: Autodesk,Inc. |WEB Address: www.autodesk.com
 90
    32897
280
     0
281
     0
  0
CLASS
  1
AEC_DISP_REP_ANCHOR_EXT_TAG_TO_ENT
  2
AecDbDispRepAnchorExtendedTagToEnt
  3
AecScheduleData50|Product Desc: Autodesk Architectural Desktop 2007 |Company: Autodesk,Inc. |WEB Address: www.autodesk.com
 90
    32897
280
     0
281
     0
  0
CLASS
  1
MATERIAL
  2
AcDbMaterial
  3
ObjectDBX Classes
 90
     1153
280
     0
281
     0
  0
CLASS
  1
VISUALSTYLE
  2
AcDbVisualStyle
  3
ObjectDBX Classes
 90
     4095
280
     0
281
     0
  0
CLASS
  1
AEC_AECDBDISPREPZONE100
  2
AecDbDispRepZonePlan100
  3
AecArchDACHBase50|Product Desc: Autodesk Architectural Desktop 2007 |Company: Autodesk,Inc. |WEB Address: www.autodesk.com
 90
    32897
280
     0
281
     0
  0
CLASS
  1
AEC_DISP_PROPS_ZONE
  2
AecDbDispPropsZone
  3
AecArchBase50|Product Desc: Autodesk Architectural Desktop 2007 |Company: Autodesk,Inc. |WEB Address: www.autodesk.com
 90
    32897
280
     0
281
     0
  0
CLASS
  1
AEC_AECDBDISPREPZONE50
  2
AecDbDispRepZonePlan50
  3
AecArchDACHBase50|Product Desc: Autodesk Architectural Desktop 2007 |Company: Autodesk,Inc. |WEB Address: www.autodesk.com
 90
    32897
280
     0
281
     0
  0
CLASS
  1
AEC_DISP_REP_SPACE_DECOMPOSED
  2
AecDbDispRepSpaceDecomposed
  3
AecArchBase50|Product Desc: Autodesk Architectural Desktop 2007 |Company: Autodesk,Inc. |WEB Address: www.autodesk.com
 90
    32897
280
     0
281
     0
  0
CLASS
  1
AEC_DISP_PROPS_SPACE_DECOMPOSED
  2
AecDbDispPropsSpaceDecomposed
  3
AecArchBase50|Product Desc: Autodesk Architectural Desktop 2007 |Company: Autodesk,Inc. |WEB Address: www.autodesk.com
 90
    32897
280
     0
281
     0
  0
CLASS
  1
AEC_DISP_REP_ZONE
  2
AecDbDispRepZone
  3
AecArchBase50|Product Desc: Autodesk Architectural Desktop 2007 |Company: Autodesk,Inc. |WEB Address: www.autodesk.com
 90
    32897
280
     0
281
     0
  0
CLASS
  1
EXACXREFPANELOBJECT
  2
ExAcXREFPanelObject
  3
EXAC_ESW
 90
    33793
280
     1
281
     0
  0
CLASS
  1
NPOCOLLECTION
  2
AcDbImpNonPersistentObjectsCollection
  3
ObjectDBX Classes
 90
    33921
280
     0
281
     0
  0
CLASS
  1
SCALE
  2
AcDbScale
  3
ObjectDBX Classes
 90
     1153
280
     0
281
     0
  0
CLASS
  1
MLEADERSTYLE
  2
AcDbMLeaderStyle
  3
ACDB_MLEADERSTYLE_CLASS
 90
    36863
280
     0
281
     0
  0
CLASS
  1
CELLSTYLEMAP
  2
AcDbCellStyleMap
  3
ObjectDBX Classes
 90
     1152
280
     0
281
     0
  0
CLASS
  1
SOLID_BACKGROUND
  2
AcDbSolidBackground
  3
SCENEOE
 90
    36863
280
     0
281
     0
  0
CLASS
  1
AEC_REFEDIT_STATUS_TRACKER
  2
AecDbRefEditStatusTracker
  3
AecArchBase50|Product Desc: Autodesk Architectural Desktop 2007 |Company: Autodesk,Inc. |WEB Address: www.autodesk.com
 90
    32897
280
     0
281
     0
  0
ENDSEC
  0
SECTION
  2
TABLES
  0
TABLE
  2
VPORT
  5
229
330
0
100
AcDbSymbolTable
 70
     1
  0
VPORT
  5
22A
330
229
100
AcDbSymbolTableRecord
100
AcDbViewportTableRecord
  2
*Active
 70
     0
 10
0.0
 20
0.0
 11
1.0
 21
1.0
 12
118749.8726081456
 22
36507.72995933631
 13
0.0
 23
0.0
 14
10.0
 24
10.0
 15
10.0
 25
10.0
 16
0.0
 26
0.0
 36
1.0
 17
0.0
 27
0.0
 37
0.0
 40
10017.65744726262
 41
2.297668038408779
 42
50.0
 43
0.0
 44
0.0
 50
0.0
 51
0.0
 71
     0
 72
  1000
 73
     1
 74
     1
 75
     0
 76
     0
 77
     0
 78
     0
281
     0
 65
     1
110
0.0
120
0.0
130
0.0
111
1.0
121
0.0
131
0.0
112
0.0
122
1.0
132
0.0
 79
     0
146
0.0
  0
ENDTAB
  0
TABLE
  2
LTYPE
  5
224
330
0
100
AcDbSymbolTable
 70
     2
  0
LTYPE
  5
225
330
224
100
AcDbSymbolTableRecord
100
AcDbLinetypeTableRecord
  2
ByBlock
 70
     0
  3

 72
    65
 73
     0
 40
0.0
  0
LTYPE
  5
226
330
224
100
AcDbSymbolTableRecord
100
AcDbLinetypeTableRecord
  2
ByLayer
 70
     0
  3

 72
    65
 73
     0
 40
0.0
  0
LTYPE
  5
E
330
224
100
AcDbSymbolTableRecord
100
AcDbLinetypeTableRecord
  2
Continuous
 70
     0
  3
Solid line
 72
    65
 73
     0
 40
0.0
  0
LTYPE
  5
13
330
224
100
AcDbSymbolTableRecord
100
AcDbLinetypeTableRecord
  2
HIDDEN
 70
     0
  3
Hidden __ __ __ __ __ __ __ __ __ __ __ __ __ _
 72
    65
 73
     2
 40
0.375
 49
0.25
 74
     0
 49
-0.125
 74
     0
  0
ENDTAB
  0
TABLE
  2
LAYER
  5
21E
102
{ACAD_XDICTIONARY
360
21F
102
}
330
0
100
AcDbSymbolTable
 70
     8
  0
LAYER
  5
6
102
{ACAD_XDICTIONARY
360
7
102
}
330
21E
100
AcDbSymbolTableRecord
100
AcDbLayerTableRecord
  2
0
 70
     0
 62
     7
  6
Continuous
370
    -3
390
9
  0
LAYER
  5
52
102
{ACAD_XDICTIONARY
360
53
102
}
330
21E
100
AcDbSymbolTableRecord
100
AcDbLayerTableRecord
  2
WIDOK
 70
     0
 62
   114
  6
Continuous
370
    -3
390
9
  0
LAYER
  5
1A
102
{ACAD_XDICTIONARY
360
1B
102
}
330
21E
100
AcDbSymbolTableRecord
100
AcDbLayerTableRecord
  2
SCIANY
 70
     0
 62
   140
  6
Continuous
370
    -3
390
9
  0
LAYER
  5
1E
102
{ACAD_XDICTIONARY
360
1F
102
}
330
21E
100
AcDbSymbolTableRecord
100
AcDbLayerTableRecord
  2
WYMIARY
 70
     0
 62
     1
  6
Continuous
370
    -3
390
9
  0
LAYER
  5
33
330
21E
100
AcDbSymbolTableRecord
100
AcDbLayerTableRecord
  2
DEFPOINTS
 70
     0
 62
     7
  6
Continuous
290
     0
370
    -3
390
9
  0
LAYER
  5
10
102
{ACAD_XDICTIONARY
360
11
102
}
330
21E
100
AcDbSymbolTableRecord
100
AcDbLayerTableRecord
  2
TABLICZKA
 70
     0
 62
     1
  6
Continuous
370
    -3
390
9
  0
LAYER
  5
119
102
{ACAD_XDICTIONARY
360
11A
102
}
330
21E
100
AcDbSymbolTableRecord
100
AcDbLayerTableRecord
  2
RAMKI-A4
 70
     0
 62
     2
  6
Continuous
290
     0
370
    -3
390
9
  0
LAYER
  5
11D
330
21E
100
AcDbSymbolTableRecord
100
AcDbLayerTableRecord
  2
0Hatch
 70
     0
 62
   122
  6
Continuous
370
     5
390
9
  0
ENDTAB
  0
TABLE
  2
STYLE
  5
221
330
0
100
AcDbSymbolTable
 70
     3
  0
STYLE
  5
222
330
221
100
AcDbSymbolTableRecord
100
AcDbTextStyleTableRecord
  2
Standard
 70
     0
 40
0.0
 41
1.0
 50
0.0
 71
     0
 42
2.5
  3
txt
  4

  0
STYLE
  5
31
330
221
100
AcDbSymbolTableRecord
100
AcDbTextStyleTableRecord
  2
ROMANS
 70
     0
 40
0.0
 41
0.9
 50
0.0
 71
     0
 42
20.0
  3
romans.shx
  4

  0
STYLE
  5
15
330
221
100
AcDbSymbolTableRecord
100
AcDbTextStyleTableRecord
  2
AVA
 70
     0
 40
0.0
 41
1.0
 50
0.0
 71
     0
 42
158.5644099714409
  3
ARIAL.TTF
  4

1001
ACAD
1000
Arial CE
1071
    60962
  0
ENDTAB
  0
TABLE
  2
VIEW
  5
227
330
0
100
AcDbSymbolTable
 70
     1
  0
VIEW
  5
216
330
227
100
AcDbSymbolTableRecord
100
AcDbViewTableRecord
  2
DALIE_aneks
 70
     0
 40
14020.0
 10
230487.1523167869
 20
176727.5135321109
 41
10200.00000000003
 11
0.0
 21
0.0
 31
1.0
 12
0.0
 22
0.0
 32
0.0
 42
50.0
 43
0.0
 44
0.0
 50
0.0
 71
     0
281
     0
 72
     1
110
0.0
120
0.0
130
0.0
111
1.0
121
0.0
131
0.0
112
0.0
122
1.0
132
0.0
 79
     0
146
0.0
  0
ENDTAB
  0
TABLE
  2
UCS
  5
228
330
0
100
AcDbSymbolTable
 70
     0
  0
ENDTAB
  0
TABLE
  2
APPID
  5
22B
330
0
100
AcDbSymbolTable
 70
     2
  0
APPID
  5
16
330
22B
100
AcDbSymbolTableRecord
100
AcDbRegAppTableRecord
  2
ACAD
 70
     0
  0
APPID
  5
219
330
22B
100
AcDbSymbolTableRecord
100
AcDbRegAppTableRecord
  2
ACAD_PSEXT
 70
     0
  0
ENDTAB
  0
TABLE
  2
DIMSTYLE
  5
22C
330
0
100
AcDbSymbolTable
 70
     2
100
AcDbDimStyleTable
 71
     2
340
37
340
22D
  0
DIMSTYLE
105
37
102
{ACAD_REACTORS
330
F2
330
A0
330
71
330
1D
330
D3
330
63
330
38
330
FD
330
B7
330
C5
330
7C
330
58
330
43
330
95
330
AC
330
125
330
132
330
13D
330
14F
330
15A
330
168
330
173
330
18D
330
198
330
1A4
330
1AF
330
1BD
330
1CC
330
1EE
330
1F9
102
}
330
22C
100
AcDbSymbolTableRecord
100
AcDbDimStyleTableRecord
  2
500
 70
     0
 41
30.0
 42
43.0
 43
0.0
 44
13.0
 45
0.5
 46
12.0
 73
     0
 74
     0
 75
     1
 76
     1
 78
    12
140
80.0
141
0.0
145
1.0
147
0.0
172
     1
174
     1
176
     1
177
     1
178
    10
271
     1
272
     1
279
     2
340
31
341
27
342
27
  0
DIMSTYLE
105
22D
330
22C
100
AcDbSymbolTableRecord
100
AcDbDimStyleTableRecord
  2
Standard
 70
     0
340
222
  0
ENDTAB
  0
TABLE
  2
BLOCK_RECORD
  5
1
330
0
100
AcDbSymbolTable
 70
    31
  0
BLOCK_RECORD
  5
2
102
{ACAD_XDICTIONARY
360
3
102
}
330
1
100
AcDbSymbolTableRecord
100
AcDbBlockTableRecord
  2
*Model_Space
340
214
  0
BLOCK_RECORD
  5
21A
330
1
100
AcDbSymbolTableRecord
100
AcDbBlockTableRecord
  2
*Paper_Space
340
21D
  0
BLOCK_RECORD
  5
27
102
{ACAD_XDICTIONARY
360
28
102
}
330
1
100
AcDbSymbolTableRecord
100
AcDbBlockTableRecord
  2
B-DIM
340
0
102
{BLKREFS
331
26
331
2F
331
3C
331
3D
331
47
331
48
331
5C
331
5D
331
67
331
68
331
75
331
76
331
80
331
81
331
99
331
9A
331
A4
331
A5
331
B0
331
B1
331
BB
331
BC
331
C9
331
CA
331
D7
331
D8
331
F6
331
F7
331
103
331
104
331
12B
331
12C
331
136
331
137
331
141
331
142
331
153
331
154
331
15E
331
15F
331
16C
331
16D
331
177
331
178
331
191
331
192
331
19C
331
19D
331
1A8
331
1A9
331
1B3
331
1B4
331
1C1
331
1C2
331
1D0
331
1D1
331
1F2
331
1F3
331
1FF
331
200
102
}
  0
BLOCK_RECORD
  5
21
330
1
100
AcDbSymbolTableRecord
100
AcDbBlockTableRecord
  2
*D1
340
0
  0
BLOCK_RECORD
  5
39
330
1
100
AcDbSymbolTableRecord
100
AcDbBlockTableRecord
  2
*D2
340
0
  0
BLOCK_RECORD
  5
44
330
1
100
AcDbSymbolTableRecord
100
AcDbBlockTableRecord
  2
*D3
340
0
  0
BLOCK_RECORD
  5
59
330
1
100
AcDbSymbolTableRecord
100
AcDbBlockTableRecord
  2
*D4
340
0
  0
BLOCK_RECORD
  5
64
330
1
100
AcDbSymbolTableRecord
100
AcDbBlockTableRecord
  2
*D5
340
0
  0
BLOCK_RECORD
  5
72
330
1
100
AcDbSymbolTableRecord
100
AcDbBlockTableRecord
  2
*D6
340
0
  0
BLOCK_RECORD
  5
7D
330
1
100
AcDbSymbolTableRecord
100
AcDbBlockTableRecord
  2
*D7
340
0
  0
BLOCK_RECORD
  5
96
330
1
100
AcDbSymbolTableRecord
100
AcDbBlockTableRecord
  2
*D8
340
0
  0
BLOCK_RECORD
  5
A1
330
1
100
AcDbSymbolTableRecord
100
AcDbBlockTableRecord
  2
*D9
340
0
  0
BLOCK_RECORD
  5
AD
330
1
100
AcDbSymbolTableRecord
100
AcDbBlockTableRecord
  2
*D10
340
0
  0
BLOCK_RECORD
  5
B8
330
1
100
AcDbSymbolTableRecord
100
AcDbBlockTableRecord
  2
*D11
340
0
  0
BLOCK_RECORD
  5
C6
330
1
100
AcDbSymbolTableRecord
100
AcDbBlockTableRecord
  2
*D12
340
0
  0
BLOCK_RECORD
  5
D4
330
1
100
AcDbSymbolTableRecord
100
AcDbBlockTableRecord
  2
*D13
340
0
  0
BLOCK_RECORD
  5
F3
330
1
100
AcDbSymbolTableRecord
100
AcDbBlockTableRecord
  2
*D14
340
0
  0
BLOCK_RECORD
  5
FE
330
1
100
AcDbSymbolTableRecord
100
AcDbBlockTableRecord
  2
*D15
340
0
  0
BLOCK_RECORD
  5
126
330
1
100
AcDbSymbolTableRecord
100
AcDbBlockTableRecord
  2
*D16
340
0
  0
BLOCK_RECORD
  5
133
330
1
100
AcDbSymbolTableRecord
100
AcDbBlockTableRecord
  2
*D17
340
0
  0
BLOCK_RECORD
  5
13E
330
1
100
AcDbSymbolTableRecord
100
AcDbBlockTableRecord
  2
*D18
340
0
  0
BLOCK_RECORD
  5
150
330
1
100
AcDbSymbolTableRecord
100
AcDbBlockTableRecord
  2
*D19
340
0
  0
BLOCK_RECORD
  5
15B
330
1
100
AcDbSymbolTableRecord
100
AcDbBlockTableRecord
  2
*D20
340
0
  0
BLOCK_RECORD
  5
169
330
1
100
AcDbSymbolTableRecord
100
AcDbBlockTableRecord
  2
*D21
340
0
  0
BLOCK_RECORD
  5
174
330
1
100
AcDbSymbolTableRecord
100
AcDbBlockTableRecord
  2
*D22
340
0
  0
BLOCK_RECORD
  5
18E
330
1
100
AcDbSymbolTableRecord
100
AcDbBlockTableRecord
  2
*D23
340
0
  0
BLOCK_RECORD
  5
199
330
1
100
AcDbSymbolTableRecord
100
AcDbBlockTableRecord
  2
*D24
340
0
  0
BLOCK_RECORD
  5
1A5
330
1
100
AcDbSymbolTableRecord
100
AcDbBlockTableRecord
  2
*D25
340
0
  0
BLOCK_RECORD
  5
1B0
330
1
100
AcDbSymbolTableRecord
100
AcDbBlockTableRecord
  2
*D26
340
0
  0
BLOCK_RECORD
  5
1BE
330
1
100
AcDbSymbolTableRecord
100
AcDbBlockTableRecord
  2
*D27
340
0
  0
BLOCK_RECORD
  5
1CD
330
1
100
AcDbSymbolTableRecord
100
AcDbBlockTableRecord
  2
*D28
340
0
  0
BLOCK_RECORD
  5
1EF
330
1
100
AcDbSymbolTableRecord
100
AcDbBlockTableRecord
  2
*D29
340
0
  0
BLOCK_RECORD
  5
1FA
330
1
100
AcDbSymbolTableRecord
100
AcDbBlockTableRecord
  2
*D30
340
0
  0
ENDTAB
  0
ENDSEC
  0
SECTION
  2
BLOCKS
  0
BLOCK
  5
5
330
2
100
AcDbEntity
  8
0
100
AcDbBlockBegin
  2
*Model_Space
 70
     0
 10
0.0
 20
0.0
 30
0.0
  3
*Model_Space
  1

  0
ENDBLK
  5
213
330
2
100
AcDbEntity
  8
0
100
AcDbBlockEnd
  0
BLOCK
  5
21B
330
21A
100
AcDbEntity
 67
     1
  8
0
100
AcDbBlockBegin
  2
*Paper_Space
 70
     0
 10
0.0
 20
0.0
 30
0.0
  3
*Paper_Space
  1

  0
ENDBLK
  5
21C
330
21A
100
AcDbEntity
 67
     1
  8
0
100
AcDbBlockEnd
  0
BLOCK
  5
2A
330
27
100
AcDbEntity
  8
0
100
AcDbBlockBegin
  2
B-DIM
 70
     0
 10
0.0
 20
0.0
 30
0.0
  3
B-DIM
  1

  0
LINE
  5
2B
330
27
100
AcDbEntity
  8
0
 62
     1
100
AcDbLine
 10
0.000000000000091
 20
-1.1
 30
0.0
 11
0.000000000000091
 21
1.1
 31
0.0
  0
LWPOLYLINE
  5
2C
330
27
100
AcDbEntity
  8
0
 62
     1
100
AcDbPolyline
 90
        2
 70
     0
 43
0.3
 10
-0.7071067811864851
 20
-0.7071067811864851
 10
0.707106781186576
 20
0.707106781186576
  0
LINE
  5
2D
330
27
100
AcDbEntity
  8
0
 62
     1
100
AcDbLine
 10
1.20000000000009
 20
0.0
 30
0.0
 11
-1.199999999999909
 21
0.0
 31
0.0
  0
ENDBLK
  5
2E
330
27
100
AcDbEntity
  8
0
100
AcDbBlockEnd
  0
BLOCK
  5
22
330
21
100
AcDbEntity
  8
0
100
AcDbBlockBegin
  2
*D1
 70
     1
 10
0.0
 20
0.0
 30
0.0
  3
*D1
  1

  0
LINE
  5
23
330
21
100
AcDbEntity
  8
WYMIARY
 62
     1
370
    -2
100
AcDbLine
 10
115367.1450028381
 20
35983.69383550056
 30
0.0
 11
115367.1450028381
 21
36013.69383550056
 31
0.0
  0
LINE
  5
24
330
21
100
AcDbEntity
  8
WYMIARY
 62
     1
370
    -2
100
AcDbLine
 10
115367.1450028381
 20
35823.6938355005
 30
0.0
 11
115367.1450028381
 21
35793.6938355005
 31
0.0
  0
LINE
  5
25
330
21
100
AcDbEntity
  8
WYMIARY
 62
     1
370
    -2
100
AcDbLine
 10
115367.1450028381
 20
35953.69383550055
 30
0.0
 11
115367.1450028381
 21
35853.6938355005
 31
0.0
  0
INSERT
  5
26
330
21
100
AcDbEntity
  8
WYMIARY
 62
     1
370
    -2
100
AcDbBlockReference
  2
B-DIM
 10
115367.1450028381
 20
35953.69383550055
 30
0.0
 41
30.0
 42
30.0
 43
30.0
 50
270.0
  0
INSERT
  5
2F
330
21
100
AcDbEntity
  8
WYMIARY
 62
     1
370
    -2
100
AcDbBlockReference
  2
B-DIM
 10
115367.1450028381
 20
35853.6938355005
 30
0.0
 41
30.0
 42
30.0
 43
30.0
 50
90.0
  0
MTEXT
  5
30
330
21
100
AcDbEntity
  8
WYMIARY
 62
    10
100
AcDbMText
 10
115287.1450028381
 20
35903.69383550055
 30
0.0
 40
80.0
 41
0.0
 71
     5
 72
     1
  1
\A1;100
  7
ROMANS
 11
0.0000000000000001
 21
1.0
 31
0.0
 73
     1
 44
1.0
1001
ACAD
1000
MTEXTBEGIN
1070
    73
1070
     1
1070
    44
1040
1.0
1070
    74
1070
     0
1000
MTEXTEND
  0
POINT
  5
32
330
21
100
AcDbEntity
  8
DEFPOINTS
 62
     0
100
AcDbPoint
 10
115665.4673056835
 20
35953.69383550055
 30
0.0
  0
POINT
  5
34
330
21
100
AcDbEntity
  8
DEFPOINTS
 62
     0
100
AcDbPoint
 10
116048.4673056835
 20
35853.6938355005
 30
0.0
  0
POINT
  5
35
330
21
100
AcDbEntity
  8
DEFPOINTS
 62
     0
100
AcDbPoint
 10
115367.1450028381
 20
35853.6938355005
 30
0.0
  0
ENDBLK
  5
36
330
21
100
AcDbEntity
  8
0
100
AcDbBlockEnd
  0
BLOCK
  5
3A
330
39
100
AcDbEntity
  8
0
100
AcDbBlockBegin
  2
*D2
 70
     1
 10
0.0
 20
0.0
 30
0.0
  3
*D2
  1

  0
LINE
  5
3B
330
39
100
AcDbEntity
  8
WYMIARY
 62
     1
370
    -2
100
AcDbLine
 10
115967.4673056835
 20
37440.17733657932
 30
0.0
 11
115595.4673056835
 21
37440.17733657932
 31
0.0
  0
INSERT
  5
3C
330
39
100
AcDbEntity
  8
WYMIARY
 62
     1
370
    -2
100
AcDbBlockReference
  2
B-DIM
 10
115997.4673056835
 20
37440.17733657932
 30
0.0
 41
30.0
 42
30.0
 43
30.0
  0
INSERT
  5
3D
330
39
100
AcDbEntity
  8
WYMIARY
 62
     1
370
    -2
100
AcDbBlockReference
  2
B-DIM
 10
115565.4673056835
 20
37440.17733657932
 30
0.0
 41
30.0
 42
30.0
 43
30.0
 50
180.0
  0
MTEXT
  5
3E
330
39
100
AcDbEntity
  8
WYMIARY
 62
    10
100
AcDbMText
 10
115781.4673056835
 20
37520.17733657932
 30
0.0
 40
80.0
 41
0.0
 71
     5
 72
     1
  1
\A1;432
  7
ROMANS
 73
     1
 44
1.0
1001
ACAD
1000
MTEXTBEGIN
1070
    73
1070
     1
1070
    44
1040
1.0
1070
    74
1070
     0
1000
MTEXTEND
  0
POINT
  5
3F
330
39
100
AcDbEntity
  8
DEFPOINTS
 62
     0
100
AcDbPoint
 10
115997.4673056835
 20
37003.6938355005
 30
0.0
  0
POINT
  5
40
330
39
100
AcDbEntity
  8
DEFPOINTS
 62
     0
100
AcDbPoint
 10
115565.4673056835
 20
36574.69383550057
 30
0.0
  0
POINT
  5
41
330
39
100
AcDbEntity
  8
DEFPOINTS
 62
     0
100
AcDbPoint
 10
115565.4673056835
 20
37440.17733657932
 30
0.0
  0
ENDBLK
  5
42
330
39
100
AcDbEntity
  8
0
100
AcDbBlockEnd
  0
BLOCK
  5
45
330
44
100
AcDbEntity
  8
0
100
AcDbBlockBegin
  2
*D3
 70
     1
 10
0.0
 20
0.0
 30
0.0
  3
*D3
  1

  0
LINE
  5
46
330
44
100
AcDbEntity
  8
WYMIARY
 62
     1
370
    -2
100
AcDbLine
 10
117169.4673056835
 20
37641.79615752179
 30
0.0
 11
115595.4673056835
 21
37641.79615752179
 31
0.0
  0
INSERT
  5
47
330
44
100
AcDbEntity
  8
WYMIARY
 62
     1
370
    -2
100
AcDbBlockReference
  2
B-DIM
 10
117199.4673056835
 20
37641.79615752179
 30
0.0
 41
30.0
 42
30.0
 43
30.0
  0
INSERT
  5
48
330
44
100
AcDbEntity
  8
WYMIARY
 62
     1
370
    -2
100
AcDbBlockReference
  2
B-DIM
 10
115565.4673056835
 20
37641.79615752179
 30
0.0
 41
30.0
 42
30.0
 43
30.0
 50
180.0
  0
MTEXT
  5
49
330
44
100
AcDbEntity
  8
WYMIARY
 62
    10
100
AcDbMText
 10
116382.4673056836
 20
37721.79615752179
 30
0.0
 40
80.0
 41
0.0
 71
     5
 72
     1
  1
\A1;1634
  7
ROMANS
 73
     1
 44
1.0
1001
ACAD
1000
MTEXTBEGIN
1070
    73
1070
     1
1070
    44
1040
1.0
1070
    74
1070
     0
1000
MTEXTEND
  0
POINT
  5
4A
330
44
100
AcDbEntity
  8
DEFPOINTS
 62
     0
100
AcDbPoint
 10
117199.4673056835
 20
37484.17733657932
 30
0.0
  0
POINT
  5
4B
330
44
100
AcDbEntity
  8
DEFPOINTS
 62
     0
100
AcDbPoint
 10
115565.4673056835
 20
37484.17733657932
 30
0.0
  0
POINT
  5
4C
330
44
100
AcDbEntity
  8
DEFPOINTS
 62
     0
100
AcDbPoint
 10
115565.4673056835
 20
37641.79615752179
 30
0.0
  0
ENDBLK
  5
4D
330
44
100
AcDbEntity
  8
0
100
AcDbBlockEnd
  0
BLOCK
  5
5A
330
59
100
AcDbEntity
  8
0
100
AcDbBlockBegin
  2
*D4
 70
     1
 10
0.0
 20
0.0
 30
0.0
  3
*D4
  1

  0
LINE
  5
5B
330
59
100
AcDbEntity
  8
WYMIARY
 62
     1
370
    -2
100
AcDbLine
 10
115695.4673056835
 20
35536.76049999999
 30
0.0
 11
116772.4673056835
 21
35536.76049999999
 31
0.0
  0
INSERT
  5
5C
330
59
100
AcDbEntity
  8
WYMIARY
 62
     1
370
    -2
100
AcDbBlockReference
  2
B-DIM
 10
115665.4673056835
 20
35536.76049999999
 30
0.0
 41
30.0
 42
30.0
 43
30.0
 50
180.0
  0
INSERT
  5
5D
330
59
100
AcDbEntity
  8
WYMIARY
 62
     1
370
    -2
100
AcDbBlockReference
  2
B-DIM
 10
116802.4673056835
 20
35536.76049999999
 30
0.0
 41
30.0
 42
30.0
 43
30.0
  0
MTEXT
  5
5E
330
59
100
AcDbEntity
  8
WYMIARY
 62
    10
100
AcDbMText
 10
116233.9673056835
 20
35616.76049999999
 30
0.0
 40
80.0
 41
0.0
 71
     5
 72
     1
  1
\A1;1137
  7
ROMANS
 73
     1
 44
1.0
1001
ACAD
1000
MTEXTBEGIN
1070
    73
1070
     1
1070
    44
1040
1.0
1070
    74
1070
     0
1000
MTEXTEND
  0
POINT
  5
5F
330
59
100
AcDbEntity
  8
DEFPOINTS
 62
     0
100
AcDbPoint
 10
115665.4673056835
 20
35953.69383550055
 30
0.0
  0
POINT
  5
60
330
59
100
AcDbEntity
  8
DEFPOINTS
 62
     0
100
AcDbPoint
 10
116802.4673056835
 20
35953.6938355005
 30
0.0
  0
POINT
  5
61
330
59
100
AcDbEntity
  8
DEFPOINTS
 62
     0
100
AcDbPoint
 10
116802.4673056835
 20
35536.76049999999
 30
0.0
  0
ENDBLK
  5
62
330
59
100
AcDbEntity
  8
0
100
AcDbBlockEnd
  0
BLOCK
  5
65
330
64
100
AcDbEntity
  8
0
100
AcDbBlockBegin
  2
*D5
 70
     1
 10
0.0
 20
0.0
 30
0.0
  3
*D5
  1

  0
LINE
  5
66
330
64
100
AcDbEntity
  8
WYMIARY
 62
     1
370
    -2
100
AcDbLine
 10
116489.4673056835
 20
37440.17733657932
 30
0.0
 11
116027.4673056835
 21
37440.17733657932
 31
0.0
  0
INSERT
  5
67
330
64
100
AcDbEntity
  8
WYMIARY
 62
     1
370
    -2
100
AcDbBlockReference
  2
B-DIM
 10
116519.4673056835
 20
37440.17733657932
 30
0.0
 41
30.0
 42
30.0
 43
30.0
  0
INSERT
  5
68
330
64
100
AcDbEntity
  8
WYMIARY
 62
     1
370
    -2
100
AcDbBlockReference
  2
B-DIM
 10
115997.4673056835
 20
37440.17733657932
 30
0.0
 41
30.0
 42
30.0
 43
30.0
 50
180.0
  0
MTEXT
  5
69
330
64
100
AcDbEntity
  8
WYMIARY
 62
    10
100
AcDbMText
 10
116258.4673056835
 20
37520.17733657932
 30
0.0
 40
80.0
 41
0.0
 71
     5
 72
     1
  1
\A1;522
  7
ROMANS
 73
     1
 44
1.0
1001
ACAD
1000
MTEXTBEGIN
1070
    73
1070
     1
1070
    44
1040
1.0
1070
    74
1070
     0
1000
MTEXTEND
  0
POINT
  5
6A
330
64
100
AcDbEntity
  8
DEFPOINTS
 62
     0
100
AcDbPoint
 10
116519.4673056835
 20
37003.6938355005
 30
0.0
  0
POINT
  5
6B
330
64
100
AcDbEntity
  8
DEFPOINTS
 62
     0
100
AcDbPoint
 10
115997.4673056835
 20
37003.6938355005
 30
0.0
  0
POINT
  5
6C
330
64
100
AcDbEntity
  8
DEFPOINTS
 62
     0
100
AcDbPoint
 10
115997.4673056835
 20
37440.17733657932
 30
0.0
  0
ENDBLK
  5
6D
330
64
100
AcDbEntity
  8
0
100
AcDbBlockEnd
  0
BLOCK
  5
73
330
72
100
AcDbEntity
  8
0
100
AcDbBlockBegin
  2
*D6
 70
     1
 10
0.0
 20
0.0
 30
0.0
  3
*D6
  1

  0
LINE
  5
74
330
72
100
AcDbEntity
  8
WYMIARY
 62
     1
370
    -2
100
AcDbLine
 10
115367.1450028381
 20
36374.36793369267
 30
0.0
 11
115367.1450028381
 21
35983.69383550056
 31
0.0
  0
INSERT
  5
75
330
72
100
AcDbEntity
  8
WYMIARY
 62
     1
370
    -2
100
AcDbBlockReference
  2
B-DIM
 10
115367.1450028381
 20
36404.36793369267
 30
0.0
 41
30.0
 42
30.0
 43
30.0
 50
90.0
  0
INSERT
  5
76
330
72
100
AcDbEntity
  8
WYMIARY
 62
     1
370
    -2
100
AcDbBlockReference
  2
B-DIM
 10
115367.1450028381
 20
35953.69383550055
 30
0.0
 41
30.0
 42
30.0
 43
30.0
 50
270.0
  0
MTEXT
  5
77
330
72
100
AcDbEntity
  8
WYMIARY
 62
    10
100
AcDbMText
 10
115287.1450028381
 20
36179.03088459664
 30
0.0
 40
80.0
 41
0.0
 71
     5
 72
     1
  1
\A1;450.5
  7
ROMANS
 11
0.0000000000000001
 21
1.0
 31
0.0
 73
     1
 44
1.0
1001
ACAD
1000
MTEXTBEGIN
1070
    73
1070
     1
1070
    44
1040
1.0
1070
    74
1070
     0
1000
MTEXTEND
  0
POINT
  5
78
330
72
100
AcDbEntity
  8
DEFPOINTS
 62
     0
100
AcDbPoint
 10
115665.4673056835
 20
36404.36793369267
 30
0.0
  0
POINT
  5
79
330
72
100
AcDbEntity
  8
DEFPOINTS
 62
     0
100
AcDbPoint
 10
115665.4673056835
 20
35953.69383550055
 30
0.0
  0
POINT
  5
7A
330
72
100
AcDbEntity
  8
DEFPOINTS
 62
     0
100
AcDbPoint
 10
115367.1450028381
 20
35953.69383550055
 30
0.0
  0
ENDBLK
  5
7B
330
72
100
AcDbEntity
  8
0
100
AcDbBlockEnd
  0
BLOCK
  5
7E
330
7D
100
AcDbEntity
  8
0
100
AcDbBlockBegin
  2
*D7
 70
     1
 10
0.0
 20
0.0
 30
0.0
  3
*D7
  1

  0
LINE
  5
7F
330
7D
100
AcDbEntity
  8
WYMIARY
 62
     1
370
    -2
100
AcDbLine
 10
115184.8891071597
 20
35883.6938355005
 30
0.0
 11
115184.8891071597
 21
36973.6938355005
 31
0.0
  0
INSERT
  5
80
330
7D
100
AcDbEntity
  8
WYMIARY
 62
     1
370
    -2
100
AcDbBlockReference
  2
B-DIM
 10
115184.8891071597
 20
35853.6938355005
 30
0.0
 41
30.0
 42
30.0
 43
30.0
 50
270.0
  0
INSERT
  5
81
330
7D
100
AcDbEntity
  8
WYMIARY
 62
     1
370
    -2
100
AcDbBlockReference
  2
B-DIM
 10
115184.8891071597
 20
37003.6938355005
 30
0.0
 41
30.0
 42
30.0
 43
30.0
 50
90.0
  0
MTEXT
  5
82
330
7D
100
AcDbEntity
  8
WYMIARY
 62
    10
100
AcDbMText
 10
115104.8891071597
 20
36428.69383550052
 30
0.0
 40
80.0
 41
0.0
 71
     5
 72
     1
  1
\A1;1150
  7
ROMANS
 11
0.0000000000000001
 21
1.0
 31
0.0
 73
     1
 44
1.0
1001
ACAD
1000
MTEXTBEGIN
1070
    73
1070
     1
1070
    44
1040
1.0
1070
    74
1070
     0
1000
MTEXTEND
  0
POINT
  5
83
330
7D
100
AcDbEntity
  8
DEFPOINTS
 62
     0
100
AcDbPoint
 10
115323.1450028381
 20
35853.6938355005
 30
0.0
  0
POINT
  5
84
330
7D
100
AcDbEntity
  8
DEFPOINTS
 62
     0
100
AcDbPoint
 10
115323.1450028381
 20
37003.6938355005
 30
0.0
  0
POINT
  5
85
330
7D
100
AcDbEntity
  8
DEFPOINTS
 62
     0
100
AcDbPoint
 10
115184.8891071597
 20
37003.6938355005
 30
0.0
  0
ENDBLK
  5
86
330
7D
100
AcDbEntity
  8
0
100
AcDbBlockEnd
  0
BLOCK
  5
97
330
96
100
AcDbEntity
  8
0
100
AcDbBlockBegin
  2
*D8
 70
     1
 10
0.0
 20
0.0
 30
0.0
  3
*D8
  1

  0
LINE
  5
98
330
96
100
AcDbEntity
  8
WYMIARY
 62
     1
370
    -2
100
AcDbLine
 10
115367.1450028381
 20
36973.6938355005
 30
0.0
 11
115367.1450028381
 21
36791.6938355005
 31
0.0
  0
INSERT
  5
99
330
96
100
AcDbEntity
  8
WYMIARY
 62
     1
370
    -2
100
AcDbBlockReference
  2
B-DIM
 10
115367.1450028381
 20
37003.6938355005
 30
0.0
 41
30.0
 42
30.0
 43
30.0
 50
90.0
  0
INSERT
  5
9A
330
96
100
AcDbEntity
  8
WYMIARY
 62
     1
370
    -2
100
AcDbBlockReference
  2
B-DIM
 10
115367.1450028381
 20
36761.6938355005
 30
0.0
 41
30.0
 42
30.0
 43
30.0
 50
270.0
  0
MTEXT
  5
9B
330
96
100
AcDbEntity
  8
WYMIARY
 62
    10
100
AcDbMText
 10
115287.1450028381
 20
36882.69383550052
 30
0.0
 40
80.0
 41
0.0
 71
     5
 72
     1
  1
\A1;242
  7
ROMANS
 11
0.0000000000000001
 21
1.0
 31
0.0
 73
     1
 44
1.0
1001
ACAD
1000
MTEXTBEGIN
1070
    73
1070
     1
1070
    44
1040
1.0
1070
    74
1070
     0
1000
MTEXTEND
  0
POINT
  5
9C
330
96
100
AcDbEntity
  8
DEFPOINTS
 62
     0
100
AcDbPoint
 10
115997.4673056835
 20
37003.6938355005
 30
0.0
  0
POINT
  5
9D
330
96
100
AcDbEntity
  8
DEFPOINTS
 62
     0
100
AcDbPoint
 10
115997.4673056835
 20
36761.6938355005
 30
0.0
  0
POINT
  5
9E
330
96
100
AcDbEntity
  8
DEFPOINTS
 62
     0
100
AcDbPoint
 10
115367.1450028381
 20
36761.6938355005
 30
0.0
  0
ENDBLK
  5
9F
330
96
100
AcDbEntity
  8
0
100
AcDbBlockEnd
  0
BLOCK
  5
A2
330
A1
100
AcDbEntity
  8
0
100
AcDbBlockBegin
  2
*D9
 70
     1
 10
0.0
 20
0.0
 30
0.0
  3
*D9
  1

  0
LINE
  5
A3
330
A1
100
AcDbEntity
  8
WYMIARY
 62
     1
370
    -2
100
AcDbLine
 10
115367.1450028381
 20
36731.6938355005
 30
0.0
 11
115367.1450028381
 21
36434.36793369267
 31
0.0
  0
INSERT
  5
A4
330
A1
100
AcDbEntity
  8
WYMIARY
 62
     1
370
    -2
100
AcDbBlockReference
  2
B-DIM
 10
115367.1450028381
 20
36761.6938355005
 30
0.0
 41
30.0
 42
30.0
 43
30.0
 50
90.0
  0
INSERT
  5
A5
330
A1
100
AcDbEntity
  8
WYMIARY
 62
     1
370
    -2
100
AcDbBlockReference
  2
B-DIM
 10
115367.1450028381
 20
36404.36793369267
 30
0.0
 41
30.0
 42
30.0
 43
30.0
 50
270.0
  0
MTEXT
  5
A6
330
A1
100
AcDbEntity
  8
WYMIARY
 62
    10
100
AcDbMText
 10
115287.1450028381
 20
36583.03088459661
 30
0.0
 40
80.0
 41
0.0
 71
     5
 72
     1
  1
\A1;357.5
  7
ROMANS
 11
0.0000000000000001
 21
1.0
 31
0.0
 73
     1
 44
1.0
1001
ACAD
1000
MTEXTBEGIN
1070
    73
1070
     1
1070
    44
1040
1.0
1070
    74
1070
     0
1000
MTEXTEND
  0
POINT
  5
A7
330
A1
100
AcDbEntity
  8
DEFPOINTS
 62
     0
100
AcDbPoint
 10
115997.4673056835
 20
36761.6938355005
 30
0.0
  0
POINT
  5
A8
330
A1
100
AcDbEntity
  8
DEFPOINTS
 62
     0
100
AcDbPoint
 10
115665.4673056835
 20
36404.36793369267
 30
0.0
  0
POINT
  5
A9
330
A1
100
AcDbEntity
  8
DEFPOINTS
 62
     0
100
AcDbPoint
 10
115367.1450028381
 20
36404.36793369267
 30
0.0
  0
ENDBLK
  5
AA
330
A1
100
AcDbEntity
  8
0
100
AcDbBlockEnd
  0
BLOCK
  5
AE
330
AD
100
AcDbEntity
  8
0
100
AcDbBlockBegin
  2
*D10
 70
     1
 10
0.0
 20
0.0
 30
0.0
  3
*D10
  1

  0
LINE
  5
AF
330
AD
100
AcDbEntity
  8
WYMIARY
 62
     1
370
    -2
100
AcDbLine
 10
117169.4673056835
 20
37440.17733657932
 30
0.0
 11
116881.4673056835
 21
37440.17733657932
 31
0.0
  0
INSERT
  5
B0
330
AD
100
AcDbEntity
  8
WYMIARY
 62
     1
370
    -2
100
AcDbBlockReference
  2
B-DIM
 10
117199.4673056835
 20
37440.17733657932
 30
0.0
 41
30.0
 42
30.0
 43
30.0
  0
INSERT
  5
B1
330
AD
100
AcDbEntity
  8
WYMIARY
 62
     1
370
    -2
100
AcDbBlockReference
  2
B-DIM
 10
116851.4673056835
 20
37440.17733657932
 30
0.0
 41
30.0
 42
30.0
 43
30.0
 50
180.0
  0
MTEXT
  5
B2
330
AD
100
AcDbEntity
  8
WYMIARY
 62
    10
100
AcDbMText
 10
117025.4673056835
 20
37520.17733657932
 30
0.0
 40
80.0
 41
0.0
 71
     5
 72
     1
  1
\A1;348
  7
ROMANS
 73
     1
 44
1.0
1001
ACAD
1000
MTEXTBEGIN
1070
    73
1070
     1
1070
    44
1040
1.0
1070
    74
1070
     0
1000
MTEXTEND
  0
POINT
  5
B3
330
AD
100
AcDbEntity
  8
DEFPOINTS
 62
     0
100
AcDbPoint
 10
117199.4673056835
 20
36543.71722825269
 30
0.0
  0
POINT
  5
B4
330
AD
100
AcDbEntity
  8
DEFPOINTS
 62
     0
100
AcDbPoint
 10
116851.4673056835
 20
36543.71722825269
 30
0.0
  0
POINT
  5
B5
330
AD
100
AcDbEntity
  8
DEFPOINTS
 62
     0
100
AcDbPoint
 10
116851.4673056835
 20
37440.17733657932
 30
0.0
  0
ENDBLK
  5
B6
330
AD
100
AcDbEntity
  8
0
100
AcDbBlockEnd
  0
BLOCK
  5
B9
330
B8
100
AcDbEntity
  8
0
100
AcDbBlockBegin
  2
*D11
 70
     1
 10
0.0
 20
0.0
 30
0.0
  3
*D11
  1

  0
LINE
  5
BA
330
B8
100
AcDbEntity
  8
WYMIARY
 62
     1
370
    -2
100
AcDbLine
 10
116821.4673056835
 20
37440.17733657932
 30
0.0
 11
116549.4673056835
 21
37440.17733657932
 31
0.0
  0
INSERT
  5
BB
330
B8
100
AcDbEntity
  8
WYMIARY
 62
     1
370
    -2
100
AcDbBlockReference
  2
B-DIM
 10
116851.4673056835
 20
37440.17733657932
 30
0.0
 41
30.0
 42
30.0
 43
30.0
  0
INSERT
  5
BC
330
B8
100
AcDbEntity
  8
WYMIARY
 62
     1
370
    -2
100
AcDbBlockReference
  2
B-DIM
 10
116519.4673056835
 20
37440.17733657932
 30
0.0
 41
30.0
 42
30.0
 43
30.0
 50
180.0
  0
MTEXT
  5
BD
330
B8
100
AcDbEntity
  8
WYMIARY
 62
    10
100
AcDbMText
 10
116685.4673056835
 20
37520.17733657932
 30
0.0
 40
80.0
 41
0.0
 71
     5
 72
     1
  1
\A1;332
  7
ROMANS
 73
     1
 44
1.0
1001
ACAD
1000
MTEXTBEGIN
1070
    73
1070
     1
1070
    44
1040
1.0
1070
    74
1070
     0
1000
MTEXTEND
  0
POINT
  5
BE
330
B8
100
AcDbEntity
  8
DEFPOINTS
 62
     0
100
AcDbPoint
 10
116851.4673056835
 20
36543.71722825269
 30
0.0
  0
POINT
  5
BF
330
B8
100
AcDbEntity
  8
DEFPOINTS
 62
     0
100
AcDbPoint
 10
116519.4673056835
 20
37003.6938355005
 30
0.0
  0
POINT
  5
C0
330
B8
100
AcDbEntity
  8
DEFPOINTS
 62
     0
100
AcDbPoint
 10
116519.4673056835
 20
37440.17733657932
 30
0.0
  0
ENDBLK
  5
C1
330
B8
100
AcDbEntity
  8
0
100
AcDbBlockEnd
  0
BLOCK
  5
C7
330
C6
100
AcDbEntity
  8
0
100
AcDbBlockBegin
  2
*D12
 70
     1
 10
0.0
 20
0.0
 30
0.0
  3
*D12
  1

  0
LINE
  5
C8
330
C6
100
AcDbEntity
  8
WYMIARY
 62
     1
370
    -2
100
AcDbLine
 10
117351.2980740926
 20
35898.71722825269
 30
0.0
 11
117351.2980740926
 21
36513.71722825269
 31
0.0
  0
INSERT
  5
C9
330
C6
100
AcDbEntity
  8
WYMIARY
 62
     1
370
    -2
100
AcDbBlockReference
  2
B-DIM
 10
117351.2980740926
 20
35868.71722825269
 30
0.0
 41
30.0
 42
30.0
 43
30.0
 50
270.0
  0
INSERT
  5
CA
330
C6
100
AcDbEntity
  8
WYMIARY
 62
     1
370
    -2
100
AcDbBlockReference
  2
B-DIM
 10
117351.2980740926
 20
36543.71722825269
 30
0.0
 41
30.0
 42
30.0
 43
30.0
 50
90.0
  0
MTEXT
  5
CB
330
C6
100
AcDbEntity
  8
WYMIARY
 62
    10
100
AcDbMText
 10
117271.2980740926
 20
36206.21722825271
 30
0.0
 40
80.0
 41
0.0
 71
     5
 72
     1
  1
\A1;675
  7
ROMANS
 11
0.0000000000000001
 21
1.0
 31
0.0
 73
     1
 44
1.0
1001
ACAD
1000
MTEXTBEGIN
1070
    73
1070
     1
1070
    44
1040
1.0
1070
    74
1070
     0
1000
MTEXTEND
  0
POINT
  5
CC
330
C6
100
AcDbEntity
  8
DEFPOINTS
 62
     0
100
AcDbPoint
 10
117238.5328161581
 20
35868.71722825269
 30
0.0
  0
POINT
  5
CD
330
C6
100
AcDbEntity
  8
DEFPOINTS
 62
     0
100
AcDbPoint
 10
117238.5328161581
 20
36543.71722825269
 30
0.0
  0
POINT
  5
CE
330
C6
100
AcDbEntity
  8
DEFPOINTS
 62
     0
100
AcDbPoint
 10
117351.2980740926
 20
36543.71722825269
 30
0.0
  0
ENDBLK
  5
CF
330
C6
100
AcDbEntity
  8
0
100
AcDbBlockEnd
  0
BLOCK
  5
D5
330
D4
100
AcDbEntity
  8
0
100
AcDbBlockBegin
  2
*D13
 70
     1
 10
0.0
 20
0.0
 30
0.0
  3
*D13
  1

  0
LINE
  5
D6
330
D4
100
AcDbEntity
  8
WYMIARY
 62
     1
370
    -2
100
AcDbLine
 10
116832.4673056835
 20
35536.76049999999
 30
0.0
 11
117169.4673056835
 21
35536.76049999999
 31
0.0
  0
INSERT
  5
D7
330
D4
100
AcDbEntity
  8
WYMIARY
 62
     1
370
    -2
100
AcDbBlockReference
  2
B-DIM
 10
116802.4673056835
 20
35536.76049999999
 30
0.0
 41
30.0
 42
30.0
 43
30.0
 50
180.0
  0
INSERT
  5
D8
330
D4
100
AcDbEntity
  8
WYMIARY
 62
     1
370
    -2
100
AcDbBlockReference
  2
B-DIM
 10
117199.4673056835
 20
35536.76049999999
 30
0.0
 41
30.0
 42
30.0
 43
30.0
  0
MTEXT
  5
D9
330
D4
100
AcDbEntity
  8
WYMIARY
 62
    10
100
AcDbMText
 10
117000.9673056835
 20
35616.76049999999
 30
0.0
 40
80.0
 41
0.0
 71
     5
 72
     1
  1
\A1;397
  7
ROMANS
 73
     1
 44
1.0
1001
ACAD
1000
MTEXTBEGIN
1070
    73
1070
     1
1070
    44
1040
1.0
1070
    74
1070
     0
1000
MTEXTEND
  0
POINT
  5
DA
330
D4
100
AcDbEntity
  8
DEFPOINTS
 62
     0
100
AcDbPoint
 10
116802.4673056835
 20
35953.6938355005
 30
0.0
  0
POINT
  5
DB
330
D4
100
AcDbEntity
  8
DEFPOINTS
 62
     0
100
AcDbPoint
 10
117199.4673056835
 20
35868.71722825269
 30
0.0
  0
POINT
  5
DC
330
D4
100
AcDbEntity
  8
DEFPOINTS
 62
     0
100
AcDbPoint
 10
117199.4673056835
 20
35536.76049999999
 30
0.0
  0
ENDBLK
  5
DD
330
D4
100
AcDbEntity
  8
0
100
AcDbBlockEnd
  0
BLOCK
  5
F4
330
F3
100
AcDbEntity
  8
0
100
AcDbBlockBegin
  2
*D14
 70
     1
 10
0.0
 20
0.0
 30
0.0
  3
*D14
  1

  0
LINE
  5
F5
330
F3
100
AcDbEntity
  8
WYMIARY
 62
     1
370
    -2
100
AcDbLine
 10
117351.2980740926
 20
36573.71722825269
 30
0.0
 11
117351.2980740926
 21
36873.6938355005
 31
0.0
  0
INSERT
  5
F6
330
F3
100
AcDbEntity
  8
WYMIARY
 62
     1
370
    -2
100
AcDbBlockReference
  2
B-DIM
 10
117351.2980740926
 20
36543.71722825269
 30
0.0
 41
30.0
 42
30.0
 43
30.0
 50
270.0
  0
INSERT
  5
F7
330
F3
100
AcDbEntity
  8
WYMIARY
 62
     1
370
    -2
100
AcDbBlockReference
  2
B-DIM
 10
117351.2980740926
 20
36903.6938355005
 30
0.0
 41
30.0
 42
30.0
 43
30.0
 50
90.0
  0
MTEXT
  5
F8
330
F3
100
AcDbEntity
  8
WYMIARY
 62
    10
100
AcDbMText
 10
117271.2980740926
 20
36723.70553187662
 30
0.0
 40
80.0
 41
0.0
 71
     5
 72
     1
  1
\A1;360
  7
ROMANS
 11
0.0000000000000001
 21
1.0
 31
0.0
 73
     1
 44
1.0
1001
ACAD
1000
MTEXTBEGIN
1070
    73
1070
     1
1070
    44
1040
1.0
1070
    74
1070
     0
1000
MTEXTEND
  0
POINT
  5
F9
330
F3
100
AcDbEntity
  8
DEFPOINTS
 62
     0
100
AcDbPoint
 10
117238.5328161581
 20
36543.71722825269
 30
0.0
  0
POINT
  5
FA
330
F3
100
AcDbEntity
  8
DEFPOINTS
 62
     0
100
AcDbPoint
 10
116890.5328161581
 20
36903.6938355005
 30
0.0
  0
POINT
  5
FB
330
F3
100
AcDbEntity
  8
DEFPOINTS
 62
     0
100
AcDbPoint
 10
117351.2980740926
 20
36903.6938355005
 30
0.0
  0
ENDBLK
  5
FC
330
F3
100
AcDbEntity
  8
0
100
AcDbBlockEnd
  0
BLOCK
  5
FF
330
FE
100
AcDbEntity
  8
0
100
AcDbBlockBegin
  2
*D15
 70
     1
 10
0.0
 20
0.0
 30
0.0
  3
*D15
  1

  0
LINE
  5
100
330
FE
100
AcDbEntity
  8
WYMIARY
 62
     1
370
    -2
100
AcDbLine
 10
117351.2980740926
 20
36873.6938355005
 30
0.0
 11
117351.2980740926
 21
36843.6938355005
 31
0.0
  0
LINE
  5
101
330
FE
100
AcDbEntity
  8
WYMIARY
 62
     1
370
    -2
100
AcDbLine
 10
117351.2980740926
 20
37033.6938355005
 30
0.0
 11
117351.2980740926
 21
37063.6938355005
 31
0.0
  0
LINE
  5
102
330
FE
100
AcDbEntity
  8
WYMIARY
 62
     1
370
    -2
100
AcDbLine
 10
117351.2980740926
 20
36903.6938355005
 30
0.0
 11
117351.2980740926
 21
37003.6938355005
 31
0.0
  0
INSERT
  5
103
330
FE
100
AcDbEntity
  8
WYMIARY
 62
     1
370
    -2
100
AcDbBlockReference
  2
B-DIM
 10
117351.2980740926
 20
36903.6938355005
 30
0.0
 41
30.0
 42
30.0
 43
30.0
 50
90.0
  0
INSERT
  5
104
330
FE
100
AcDbEntity
  8
WYMIARY
 62
     1
370
    -2
100
AcDbBlockReference
  2
B-DIM
 10
117351.2980740926
 20
37003.6938355005
 30
0.0
 41
30.0
 42
30.0
 43
30.0
 50
270.0
  0
MTEXT
  5
105
330
FE
100
AcDbEntity
  8
WYMIARY
 62
    10
100
AcDbMText
 10
117271.2980740926
 20
36953.69383550052
 30
0.0
 40
80.0
 41
0.0
 71
     5
 72
     1
  1
\A1;100
  7
ROMANS
 11
0.0000000000000001
 21
1.0
 31
0.0
 73
     1
 44
1.0
1001
ACAD
1000
MTEXTBEGIN
1070
    73
1070
     1
1070
    44
1040
1.0
1070
    74
1070
     0
1000
MTEXTEND
  0
POINT
  5
106
330
FE
100
AcDbEntity
  8
DEFPOINTS
 62
     0
100
AcDbPoint
 10
116890.5328161581
 20
36903.6938355005
 30
0.0
  0
POINT
  5
107
330
FE
100
AcDbEntity
  8
DEFPOINTS
 62
     0
100
AcDbPoint
 10
116558.5328161581
 20
37003.6938355005
 30
0.0
  0
POINT
  5
108
330
FE
100
AcDbEntity
  8
DEFPOINTS
 62
     0
100
AcDbPoint
 10
117351.2980740926
 20
37003.6938355005
 30
0.0
  0
ENDBLK
  5
109
330
FE
100
AcDbEntity
  8
0
100
AcDbBlockEnd
  0
BLOCK
  5
127
330
126
100
AcDbEntity
  8
0
100
AcDbBlockBegin
  2
*D16
 70
     1
 10
0.0
 20
0.0
 30
0.0
  3
*D16
  1

  0
LINE
  5
128
330
126
100
AcDbEntity
  8
WYMIARY
 62
     1
370
    -2
100
AcDbLine
 10
121416.5612748604
 20
35983.69383550056
 30
0.0
 11
121416.5612748604
 21
36013.69383550056
 31
0.0
  0
LINE
  5
129
330
126
100
AcDbEntity
  8
WYMIARY
 62
     1
370
    -2
100
AcDbLine
 10
121416.5612748604
 20
35823.6938355005
 30
0.0
 11
121416.5612748604
 21
35793.6938355005
 31
0.0
  0
LINE
  5
12A
330
126
100
AcDbEntity
  8
WYMIARY
 62
     1
370
    -2
100
AcDbLine
 10
121416.5612748604
 20
35953.69383550055
 30
0.0
 11
121416.5612748604
 21
35853.6938355005
 31
0.0
  0
INSERT
  5
12B
330
126
100
AcDbEntity
  8
WYMIARY
 62
     1
370
    -2
100
AcDbBlockReference
  2
B-DIM
 10
121416.5612748604
 20
35953.69383550055
 30
0.0
 41
30.0
 42
30.0
 43
30.0
 50
270.0
  0
INSERT
  5
12C
330
126
100
AcDbEntity
  8
WYMIARY
 62
     1
370
    -2
100
AcDbBlockReference
  2
B-DIM
 10
121416.5612748604
 20
35853.6938355005
 30
0.0
 41
30.0
 42
30.0
 43
30.0
 50
90.0
  0
MTEXT
  5
12D
330
126
100
AcDbEntity
  8
WYMIARY
 62
    10
100
AcDbMText
 10
121336.5612748604
 20
35903.69383550055
 30
0.0
 40
80.0
 41
0.0
 71
     5
 72
     1
  1
\A1;100
  7
ROMANS
 11
0.0000000000000001
 21
1.0
 31
0.0
 73
     1
 44
1.0
1001
ACAD
1000
MTEXTBEGIN
1070
    73
1070
     1
1070
    44
1040
1.0
1070
    74
1070
     0
1000
MTEXTEND
  0
POINT
  5
12E
330
126
100
AcDbEntity
  8
DEFPOINTS
 62
     0
100
AcDbPoint
 10
121118.2389720151
 20
35953.69383550055
 30
0.0
  0
POINT
  5
12F
330
126
100
AcDbEntity
  8
DEFPOINTS
 62
     0
100
AcDbPoint
 10
120735.238972015
 20
35853.6938355005
 30
0.0
  0
POINT
  5
130
330
126
100
AcDbEntity
  8
DEFPOINTS
 62
     0
100
AcDbPoint
 10
121416.5612748604
 20
35853.6938355005
 30
0.0
  0
ENDBLK
  5
131
330
126
100
AcDbEntity
  8
0
100
AcDbBlockEnd
  0
BLOCK
  5
134
330
133
100
AcDbEntity
  8
0
100
AcDbBlockBegin
  2
*D17
 70
     1
 10
0.0
 20
0.0
 30
0.0
  3
*D17
  1

  0
LINE
  5
135
330
133
100
AcDbEntity
  8
WYMIARY
 62
     1
370
    -2
100
AcDbLine
 10
120816.238972015
 20
37440.17733657932
 30
0.0
 11
121188.238972015
 21
37440.17733657932
 31
0.0
  0
INSERT
  5
136
330
133
100
AcDbEntity
  8
WYMIARY
 62
     1
370
    -2
100
AcDbBlockReference
  2
B-DIM
 10
120786.2389720151
 20
37440.17733657932
 30
0.0
 41
30.0
 42
30.0
 43
30.0
 50
180.0
  0
INSERT
  5
137
330
133
100
AcDbEntity
  8
WYMIARY
 62
     1
370
    -2
100
AcDbBlockReference
  2
B-DIM
 10
121218.238972015
 20
37440.17733657932
 30
0.0
 41
30.0
 42
30.0
 43
30.0
  0
MTEXT
  5
138
330
133
100
AcDbEntity
  8
WYMIARY
 62
    10
100
AcDbMText
 10
121002.238972015
 20
37520.17733657932
 30
0.0
 40
80.0
 41
0.0
 71
     5
 72
     1
  1
\A1;432
  7
ROMANS
 73
     1
 44
1.0
1001
ACAD
1000
MTEXTBEGIN
1070
    73
1070
     1
1070
    44
1040
1.0
1070
    74
1070
     0
1000
MTEXTEND
  0
POINT
  5
139
330
133
100
AcDbEntity
  8
DEFPOINTS
 62
     0
100
AcDbPoint
 10
120786.2389720151
 20
37003.6938355005
 30
0.0
  0
POINT
  5
13A
330
133
100
AcDbEntity
  8
DEFPOINTS
 62
     0
100
AcDbPoint
 10
121218.238972015
 20
36574.69383550057
 30
0.0
  0
POINT
  5
13B
330
133
100
AcDbEntity
  8
DEFPOINTS
 62
     0
100
AcDbPoint
 10
121218.238972015
 20
37440.17733657932
 30
0.0
  0
ENDBLK
  5
13C
330
133
100
AcDbEntity
  8
0
100
AcDbBlockEnd
  0
BLOCK
  5
13F
330
13E
100
AcDbEntity
  8
0
100
AcDbBlockBegin
  2
*D18
 70
     1
 10
0.0
 20
0.0
 30
0.0
  3
*D18
  1

  0
LINE
  5
140
330
13E
100
AcDbEntity
  8
WYMIARY
 62
     1
370
    -2
100
AcDbLine
 10
119614.238972015
 20
37641.79615752179
 30
0.0
 11
121188.238972015
 21
37641.79615752179
 31
0.0
  0
INSERT
  5
141
330
13E
100
AcDbEntity
  8
WYMIARY
 62
     1
370
    -2
100
AcDbBlockReference
  2
B-DIM
 10
119584.238972015
 20
37641.79615752179
 30
0.0
 41
30.0
 42
30.0
 43
30.0
 50
180.0
  0
INSERT
  5
142
330
13E
100
AcDbEntity
  8
WYMIARY
 62
     1
370
    -2
100
AcDbBlockReference
  2
B-DIM
 10
121218.238972015
 20
37641.79615752179
 30
0.0
 41
30.0
 42
30.0
 43
30.0
  0
MTEXT
  5
143
330
13E
100
AcDbEntity
  8
WYMIARY
 62
    10
100
AcDbMText
 10
120401.238972015
 20
37721.79615752179
 30
0.0
 40
80.0
 41
0.0
 71
     5
 72
     1
  1
\A1;1634
  7
ROMANS
 73
     1
 44
1.0
1001
ACAD
1000
MTEXTBEGIN
1070
    73
1070
     1
1070
    44
1040
1.0
1070
    74
1070
     0
1000
MTEXTEND
  0
POINT
  5
144
330
13E
100
AcDbEntity
  8
DEFPOINTS
 62
     0
100
AcDbPoint
 10
119584.238972015
 20
37484.17733657932
 30
0.0
  0
POINT
  5
145
330
13E
100
AcDbEntity
  8
DEFPOINTS
 62
     0
100
AcDbPoint
 10
121218.238972015
 20
37484.17733657932
 30
0.0
  0
POINT
  5
146
330
13E
100
AcDbEntity
  8
DEFPOINTS
 62
     0
100
AcDbPoint
 10
121218.238972015
 20
37641.79615752179
 30
0.0
  0
ENDBLK
  5
147
330
13E
100
AcDbEntity
  8
0
100
AcDbBlockEnd
  0
BLOCK
  5
151
330
150
100
AcDbEntity
  8
0
100
AcDbBlockBegin
  2
*D19
 70
     1
 10
0.0
 20
0.0
 30
0.0
  3
*D19
  1

  0
LINE
  5
152
330
150
100
AcDbEntity
  8
WYMIARY
 62
     1
370
    -2
100
AcDbLine
 10
121088.2389720151
 20
35536.76050000005
 30
0.0
 11
120011.2389720151
 21
35536.76049999999
 31
0.0
  0
INSERT
  5
153
330
150
100
AcDbEntity
  8
WYMIARY
 62
     1
370
    -2
100
AcDbBlockReference
  2
B-DIM
 10
121118.2389720151
 20
35536.76050000005
 30
0.0
 41
30.0
 42
30.0
 43
30.0
 50
0.0000000000028777
  0
INSERT
  5
154
330
150
100
AcDbEntity
  8
WYMIARY
 62
     1
370
    -2
100
AcDbBlockReference
  2
B-DIM
 10
119981.238972015
 20
35536.76049999999
 30
0.0
 41
30.0
 42
30.0
 43
30.0
 50
180.0000000000029
  0
MTEXT
  5
155
330
150
100
AcDbEntity
  8
WYMIARY
 62
    10
100
AcDbMText
 10
120549.7389720151
 20
35616.76050000002
 30
0.0
 40
80.0
 41
0.0
 71
     5
 72
     1
  1
\A1;1137
  7
ROMANS
 73
     1
 44
1.0
1001
ACAD
1000
MTEXTBEGIN
1070
    73
1070
     1
1070
    44
1040
1.0
1070
    74
1070
     0
1000
MTEXTEND
  0
POINT
  5
156
330
150
100
AcDbEntity
  8
DEFPOINTS
 62
     0
100
AcDbPoint
 10
121118.238972015
 20
35953.69383550055
 30
0.0
  0
POINT
  5
157
330
150
100
AcDbEntity
  8
DEFPOINTS
 62
     0
100
AcDbPoint
 10
119981.238972015
 20
35953.6938355005
 30
0.0
  0
POINT
  5
158
330
150
100
AcDbEntity
  8
DEFPOINTS
 62
     0
100
AcDbPoint
 10
119981.238972015
 20
35536.76049999999
 30
0.0
  0
ENDBLK
  5
159
330
150
100
AcDbEntity
  8
0
100
AcDbBlockEnd
  0
BLOCK
  5
15C
330
15B
100
AcDbEntity
  8
0
100
AcDbBlockBegin
  2
*D20
 70
     1
 10
0.0
 20
0.0
 30
0.0
  3
*D20
  1

  0
LINE
  5
15D
330
15B
100
AcDbEntity
  8
WYMIARY
 62
     1
370
    -2
100
AcDbLine
 10
120294.238972015
 20
37440.17733657932
 30
0.0
 11
120756.238972015
 21
37440.17733657932
 31
0.0
  0
INSERT
  5
15E
330
15B
100
AcDbEntity
  8
WYMIARY
 62
     1
370
    -2
100
AcDbBlockReference
  2
B-DIM
 10
120264.238972015
 20
37440.17733657932
 30
0.0
 41
30.0
 42
30.0
 43
30.0
 50
180.0
  0
INSERT
  5
15F
330
15B
100
AcDbEntity
  8
WYMIARY
 62
     1
370
    -2
100
AcDbBlockReference
  2
B-DIM
 10
120786.2389720151
 20
37440.17733657932
 30
0.0
 41
30.0
 42
30.0
 43
30.0
  0
MTEXT
  5
160
330
15B
100
AcDbEntity
  8
WYMIARY
 62
    10
100
AcDbMText
 10
120525.2389720151
 20
37520.17733657932
 30
0.0
 40
80.0
 41
0.0
 71
     5
 72
     1
  1
\A1;522
  7
ROMANS
 73
     1
 44
1.0
1001
ACAD
1000
MTEXTBEGIN
1070
    73
1070
     1
1070
    44
1040
1.0
1070
    74
1070
     0
1000
MTEXTEND
  0
POINT
  5
161
330
15B
100
AcDbEntity
  8
DEFPOINTS
 62
     0
100
AcDbPoint
 10
120264.238972015
 20
37003.6938355005
 30
0.0
  0
POINT
  5
162
330
15B
100
AcDbEntity
  8
DEFPOINTS
 62
     0
100
AcDbPoint
 10
120786.2389720151
 20
37003.6938355005
 30
0.0
  0
POINT
  5
163
330
15B
100
AcDbEntity
  8
DEFPOINTS
 62
     0
100
AcDbPoint
 10
120786.2389720151
 20
37440.17733657932
 30
0.0
  0
ENDBLK
  5
164
330
15B
100
AcDbEntity
  8
0
100
AcDbBlockEnd
  0
BLOCK
  5
16A
330
169
100
AcDbEntity
  8
0
100
AcDbBlockBegin
  2
*D21
 70
     1
 10
0.0
 20
0.0
 30
0.0
  3
*D21
  1

  0
LINE
  5
16B
330
169
100
AcDbEntity
  8
WYMIARY
 62
     1
370
    -2
100
AcDbLine
 10
121416.5612748604
 20
36374.36793369267
 30
0.0
 11
121416.5612748604
 21
35983.69383550056
 31
0.0
  0
INSERT
  5
16C
330
169
100
AcDbEntity
  8
WYMIARY
 62
     1
370
    -2
100
AcDbBlockReference
  2
B-DIM
 10
121416.5612748604
 20
36404.36793369267
 30
0.0
 41
30.0
 42
30.0
 43
30.0
 50
90.0
  0
INSERT
  5
16D
330
169
100
AcDbEntity
  8
WYMIARY
 62
     1
370
    -2
100
AcDbBlockReference
  2
B-DIM
 10
121416.5612748604
 20
35953.69383550055
 30
0.0
 41
30.0
 42
30.0
 43
30.0
 50
270.0
  0
MTEXT
  5
16E
330
169
100
AcDbEntity
  8
WYMIARY
 62
    10
100
AcDbMText
 10
121336.5612748604
 20
36179.03088459664
 30
0.0
 40
80.0
 41
0.0
 71
     5
 72
     1
  1
\A1;450.5
  7
ROMANS
 11
0.0000000000000001
 21
1.0
 31
0.0
 73
     1
 44
1.0
1001
ACAD
1000
MTEXTBEGIN
1070
    73
1070
     1
1070
    44
1040
1.0
1070
    74
1070
     0
1000
MTEXTEND
  0
POINT
  5
16F
330
169
100
AcDbEntity
  8
DEFPOINTS
 62
     0
100
AcDbPoint
 10
121118.238972015
 20
36404.36793369267
 30
0.0
  0
POINT
  5
170
330
169
100
AcDbEntity
  8
DEFPOINTS
 62
     0
100
AcDbPoint
 10
121118.2389720151
 20
35953.69383550055
 30
0.0
  0
POINT
  5
171
330
169
100
AcDbEntity
  8
DEFPOINTS
 62
     0
100
AcDbPoint
 10
121416.5612748604
 20
35953.69383550055
 30
0.0
  0
ENDBLK
  5
172
330
169
100
AcDbEntity
  8
0
100
AcDbBlockEnd
  0
BLOCK
  5
175
330
174
100
AcDbEntity
  8
0
100
AcDbBlockBegin
  2
*D22
 70
     1
 10
0.0
 20
0.0
 30
0.0
  3
*D22
  1

  0
LINE
  5
176
330
174
100
AcDbEntity
  8
WYMIARY
 62
     1
370
    -2
100
AcDbLine
 10
121598.8171705389
 20
35883.6938355005
 30
0.0
 11
121598.8171705389
 21
36973.6938355005
 31
0.0
  0
INSERT
  5
177
330
174
100
AcDbEntity
  8
WYMIARY
 62
     1
370
    -2
100
AcDbBlockReference
  2
B-DIM
 10
121598.8171705389
 20
35853.6938355005
 30
0.0
 41
30.0
 42
30.0
 43
30.0
 50
270.0
  0
INSERT
  5
178
330
174
100
AcDbEntity
  8
WYMIARY
 62
     1
370
    -2
100
AcDbBlockReference
  2
B-DIM
 10
121598.8171705389
 20
37003.6938355005
 30
0.0
 41
30.0
 42
30.0
 43
30.0
 50
90.0
  0
MTEXT
  5
179
330
174
100
AcDbEntity
  8
WYMIARY
 62
    10
100
AcDbMText
 10
121518.8171705388
 20
36428.69383550052
 30
0.0
 40
80.0
 41
0.0
 71
     5
 72
     1
  1
\A1;1150
  7
ROMANS
 11
0.0000000000000001
 21
1.0
 31
0.0
 73
     1
 44
1.0
1001
ACAD
1000
MTEXTBEGIN
1070
    73
1070
     1
1070
    44
1040
1.0
1070
    74
1070
     0
1000
MTEXTEND
  0
POINT
  5
17A
330
174
100
AcDbEntity
  8
DEFPOINTS
 62
     0
100
AcDbPoint
 10
121460.5612748604
 20
35853.6938355005
 30
0.0
  0
POINT
  5
17B
330
174
100
AcDbEntity
  8
DEFPOINTS
 62
     0
100
AcDbPoint
 10
121460.5612748604
 20
37003.6938355005
 30
0.0
  0
POINT
  5
17C
330
174
100
AcDbEntity
  8
DEFPOINTS
 62
     0
100
AcDbPoint
 10
121598.8171705389
 20
37003.6938355005
 30
0.0
  0
ENDBLK
  5
17D
330
174
100
AcDbEntity
  8
0
100
AcDbBlockEnd
  0
BLOCK
  5
18F
330
18E
100
AcDbEntity
  8
0
100
AcDbBlockBegin
  2
*D23
 70
     1
 10
0.0
 20
0.0
 30
0.0
  3
*D23
  1

  0
LINE
  5
190
330
18E
100
AcDbEntity
  8
WYMIARY
 62
     1
370
    -2
100
AcDbLine
 10
121416.5612748604
 20
36973.6938355005
 30
0.0
 11
121416.5612748604
 21
36791.6938355005
 31
0.0
  0
INSERT
  5
191
330
18E
100
AcDbEntity
  8
WYMIARY
 62
     1
370
    -2
100
AcDbBlockReference
  2
B-DIM
 10
121416.5612748604
 20
37003.6938355005
 30
0.0
 41
30.0
 42
30.0
 43
30.0
 50
90.0
  0
INSERT
  5
192
330
18E
100
AcDbEntity
  8
WYMIARY
 62
     1
370
    -2
100
AcDbBlockReference
  2
B-DIM
 10
121416.5612748604
 20
36761.6938355005
 30
0.0
 41
30.0
 42
30.0
 43
30.0
 50
270.0
  0
MTEXT
  5
193
330
18E
100
AcDbEntity
  8
WYMIARY
 62
    10
100
AcDbMText
 10
121336.5612748604
 20
36882.69383550052
 30
0.0
 40
80.0
 41
0.0
 71
     5
 72
     1
  1
\A1;242
  7
ROMANS
 11
0.0000000000000001
 21
1.0
 31
0.0
 73
     1
 44
1.0
1001
ACAD
1000
MTEXTBEGIN
1070
    73
1070
     1
1070
    44
1040
1.0
1070
    74
1070
     0
1000
MTEXTEND
  0
POINT
  5
194
330
18E
100
AcDbEntity
  8
DEFPOINTS
 62
     0
100
AcDbPoint
 10
120786.2389720151
 20
37003.6938355005
 30
0.0
  0
POINT
  5
195
330
18E
100
AcDbEntity
  8
DEFPOINTS
 62
     0
100
AcDbPoint
 10
120786.2389720151
 20
36761.6938355005
 30
0.0
  0
POINT
  5
196
330
18E
100
AcDbEntity
  8
DEFPOINTS
 62
     0
100
AcDbPoint
 10
121416.5612748604
 20
36761.6938355005
 30
0.0
  0
ENDBLK
  5
197
330
18E
100
AcDbEntity
  8
0
100
AcDbBlockEnd
  0
BLOCK
  5
19A
330
199
100
AcDbEntity
  8
0
100
AcDbBlockBegin
  2
*D24
 70
     1
 10
0.0
 20
0.0
 30
0.0
  3
*D24
  1

  0
LINE
  5
19B
330
199
100
AcDbEntity
  8
WYMIARY
 62
     1
370
    -2
100
AcDbLine
 10
121416.5612748604
 20
36731.6938355005
 30
0.0
 11
121416.5612748604
 21
36434.36793369267
 31
0.0
  0
INSERT
  5
19C
330
199
100
AcDbEntity
  8
WYMIARY
 62
     1
370
    -2
100
AcDbBlockReference
  2
B-DIM
 10
121416.5612748604
 20
36761.6938355005
 30
0.0
 41
30.0
 42
30.0
 43
30.0
 50
90.0
  0
INSERT
  5
19D
330
199
100
AcDbEntity
  8
WYMIARY
 62
     1
370
    -2
100
AcDbBlockReference
  2
B-DIM
 10
121416.5612748604
 20
36404.36793369267
 30
0.0
 41
30.0
 42
30.0
 43
30.0
 50
270.0
  0
MTEXT
  5
19E
330
199
100
AcDbEntity
  8
WYMIARY
 62
    10
100
AcDbMText
 10
121336.5612748604
 20
36583.03088459661
 30
0.0
 40
80.0
 41
0.0
 71
     5
 72
     1
  1
\A1;357.5
  7
ROMANS
 11
0.0000000000000001
 21
1.0
 31
0.0
 73
     1
 44
1.0
1001
ACAD
1000
MTEXTBEGIN
1070
    73
1070
     1
1070
    44
1040
1.0
1070
    74
1070
     0
1000
MTEXTEND
  0
POINT
  5
19F
330
199
100
AcDbEntity
  8
DEFPOINTS
 62
     0
100
AcDbPoint
 10
120786.2389720151
 20
36761.6938355005
 30
0.0
  0
POINT
  5
1A0
330
199
100
AcDbEntity
  8
DEFPOINTS
 62
     0
100
AcDbPoint
 10
121118.238972015
 20
36404.36793369267
 30
0.0
  0
POINT
  5
1A1
330
199
100
AcDbEntity
  8
DEFPOINTS
 62
     0
100
AcDbPoint
 10
121416.5612748604
 20
36404.36793369267
 30
0.0
  0
ENDBLK
  5
1A2
330
199
100
AcDbEntity
  8
0
100
AcDbBlockEnd
  0
BLOCK
  5
1A6
330
1A5
100
AcDbEntity
  8
0
100
AcDbBlockBegin
  2
*D25
 70
     1
 10
0.0
 20
0.0
 30
0.0
  3
*D25
  1

  0
LINE
  5
1A7
330
1A5
100
AcDbEntity
  8
WYMIARY
 62
     1
370
    -2
100
AcDbLine
 10
119614.238972015
 20
37440.17733657932
 30
0.0
 11
119902.238972015
 21
37440.17733657932
 31
0.0
  0
INSERT
  5
1A8
330
1A5
100
AcDbEntity
  8
WYMIARY
 62
     1
370
    -2
100
AcDbBlockReference
  2
B-DIM
 10
119584.238972015
 20
37440.17733657932
 30
0.0
 41
30.0
 42
30.0
 43
30.0
 50
180.0
  0
INSERT
  5
1A9
330
1A5
100
AcDbEntity
  8
WYMIARY
 62
     1
370
    -2
100
AcDbBlockReference
  2
B-DIM
 10
119932.238972015
 20
37440.17733657932
 30
0.0
 41
30.0
 42
30.0
 43
30.0
  0
MTEXT
  5
1AA
330
1A5
100
AcDbEntity
  8
WYMIARY
 62
    10
100
AcDbMText
 10
119758.238972015
 20
37520.17733657932
 30
0.0
 40
80.0
 41
0.0
 71
     5
 72
     1
  1
\A1;348
  7
ROMANS
 73
     1
 44
1.0
1001
ACAD
1000
MTEXTBEGIN
1070
    73
1070
     1
1070
    44
1040
1.0
1070
    74
1070
     0
1000
MTEXTEND
  0
POINT
  5
1AB
330
1A5
100
AcDbEntity
  8
DEFPOINTS
 62
     0
100
AcDbPoint
 10
119584.238972015
 20
36543.71722825269
 30
0.0
  0
POINT
  5
1AC
330
1A5
100
AcDbEntity
  8
DEFPOINTS
 62
     0
100
AcDbPoint
 10
119932.238972015
 20
36543.71722825269
 30
0.0
  0
POINT
  5
1AD
330
1A5
100
AcDbEntity
  8
DEFPOINTS
 62
     0
100
AcDbPoint
 10
119932.238972015
 20
37440.17733657932
 30
0.0
  0
ENDBLK
  5
1AE
330
1A5
100
AcDbEntity
  8
0
100
AcDbBlockEnd
  0
BLOCK
  5
1B1
330
1B0
100
AcDbEntity
  8
0
100
AcDbBlockBegin
  2
*D26
 70
     1
 10
0.0
 20
0.0
 30
0.0
  3
*D26
  1

  0
LINE
  5
1B2
330
1B0
100
AcDbEntity
  8
WYMIARY
 62
     1
370
    -2
100
AcDbLine
 10
119962.2389720151
 20
37440.17733657932
 30
0.0
 11
120234.238972015
 21
37440.17733657932
 31
0.0
  0
INSERT
  5
1B3
330
1B0
100
AcDbEntity
  8
WYMIARY
 62
     1
370
    -2
100
AcDbBlockReference
  2
B-DIM
 10
119932.238972015
 20
37440.17733657932
 30
0.0
 41
30.0
 42
30.0
 43
30.0
 50
180.0
  0
INSERT
  5
1B4
330
1B0
100
AcDbEntity
  8
WYMIARY
 62
     1
370
    -2
100
AcDbBlockReference
  2
B-DIM
 10
120264.238972015
 20
37440.17733657932
 30
0.0
 41
30.0
 42
30.0
 43
30.0
  0
MTEXT
  5
1B5
330
1B0
100
AcDbEntity
  8
WYMIARY
 62
    10
100
AcDbMText
 10
120098.238972015
 20
37520.17733657932
 30
0.0
 40
80.0
 41
0.0
 71
     5
 72
     1
  1
\A1;332
  7
ROMANS
 73
     1
 44
1.0
1001
ACAD
1000
MTEXTBEGIN
1070
    73
1070
     1
1070
    44
1040
1.0
1070
    74
1070
     0
1000
MTEXTEND
  0
POINT
  5
1B6
330
1B0
100
AcDbEntity
  8
DEFPOINTS
 62
     0
100
AcDbPoint
 10
119932.238972015
 20
36543.71722825269
 30
0.0
  0
POINT
  5
1B7
330
1B0
100
AcDbEntity
  8
DEFPOINTS
 62
     0
100
AcDbPoint
 10
120264.238972015
 20
37003.6938355005
 30
0.0
  0
POINT
  5
1B8
330
1B0
100
AcDbEntity
  8
DEFPOINTS
 62
     0
100
AcDbPoint
 10
120264.238972015
 20
37440.17733657932
 30
0.0
  0
ENDBLK
  5
1B9
330
1B0
100
AcDbEntity
  8
0
100
AcDbBlockEnd
  0
BLOCK
  5
1BF
330
1BE
100
AcDbEntity
  8
0
100
AcDbBlockBegin
  2
*D27
 70
     1
 10
0.0
 20
0.0
 30
0.0
  3
*D27
  1

  0
LINE
  5
1C0
330
1BE
100
AcDbEntity
  8
WYMIARY
 62
     1
370
    -2
100
AcDbLine
 10
119432.4082036059
 20
35898.71722825269
 30
0.0
 11
119432.4082036059
 21
36513.71722825269
 31
0.0
  0
INSERT
  5
1C1
330
1BE
100
AcDbEntity
  8
WYMIARY
 62
     1
370
    -2
100
AcDbBlockReference
  2
B-DIM
 10
119432.4082036059
 20
35868.71722825269
 30
0.0
 41
30.0
 42
30.0
 43
30.0
 50
270.0
  0
INSERT
  5
1C2
330
1BE
100
AcDbEntity
  8
WYMIARY
 62
     1
370
    -2
100
AcDbBlockReference
  2
B-DIM
 10
119432.4082036059
 20
36543.71722825269
 30
0.0
 41
30.0
 42
30.0
 43
30.0
 50
90.0
  0
MTEXT
  5
1C3
330
1BE
100
AcDbEntity
  8
WYMIARY
 62
    10
100
AcDbMText
 10
119352.4082036059
 20
36206.21722825271
 30
0.0
 40
80.0
 41
0.0
 71
     5
 72
     1
  1
\A1;675
  7
ROMANS
 11
0.0000000000000001
 21
1.0
 31
0.0
 73
     1
 44
1.0
1001
ACAD
1000
MTEXTBEGIN
1070
    73
1070
     1
1070
    44
1040
1.0
1070
    74
1070
     0
1000
MTEXTEND
  0
POINT
  5
1C4
330
1BE
100
AcDbEntity
  8
DEFPOINTS
 62
     0
100
AcDbPoint
 10
119545.1734615404
 20
35868.71722825269
 30
0.0
  0
POINT
  5
1C5
330
1BE
100
AcDbEntity
  8
DEFPOINTS
 62
     0
100
AcDbPoint
 10
119545.1734615404
 20
36543.71722825269
 30
0.0
  0
POINT
  5
1C6
330
1BE
100
AcDbEntity
  8
DEFPOINTS
 62
     0
100
AcDbPoint
 10
119432.4082036059
 20
36543.71722825269
 30
0.0
  0
ENDBLK
  5
1C7
330
1BE
100
AcDbEntity
  8
0
100
AcDbBlockEnd
  0
BLOCK
  5
1CE
330
1CD
100
AcDbEntity
  8
0
100
AcDbBlockBegin
  2
*D28
 70
     1
 10
0.0
 20
0.0
 30
0.0
  3
*D28
  1

  0
LINE
  5
1CF
330
1CD
100
AcDbEntity
  8
WYMIARY
 62
     1
370
    -2
100
AcDbLine
 10
119951.238972015
 20
35536.76049999999
 30
0.0
 11
119614.238972015
 21
35536.76049999999
 31
0.0
  0
INSERT
  5
1D0
330
1CD
100
AcDbEntity
  8
WYMIARY
 62
     1
370
    -2
100
AcDbBlockReference
  2
B-DIM
 10
119981.238972015
 20
35536.76049999999
 30
0.0
 41
30.0
 42
30.0
 43
30.0
  0
INSERT
  5
1D1
330
1CD
100
AcDbEntity
  8
WYMIARY
 62
     1
370
    -2
100
AcDbBlockReference
  2
B-DIM
 10
119584.238972015
 20
35536.76049999999
 30
0.0
 41
30.0
 42
30.0
 43
30.0
 50
180.0
  0
MTEXT
  5
1D2
330
1CD
100
AcDbEntity
  8
WYMIARY
 62
    10
100
AcDbMText
 10
119782.738972015
 20
35616.76049999999
 30
0.0
 40
80.0
 41
0.0
 71
     5
 72
     1
  1
\A1;397
  7
ROMANS
 73
     1
 44
1.0
1001
ACAD
1000
MTEXTBEGIN
1070
    73
1070
     1
1070
    44
1040
1.0
1070
    74
1070
     0
1000
MTEXTEND
  0
POINT
  5
1D3
330
1CD
100
AcDbEntity
  8
DEFPOINTS
 62
     0
100
AcDbPoint
 10
119981.238972015
 20
35953.6938355005
 30
0.0
  0
POINT
  5
1D4
330
1CD
100
AcDbEntity
  8
DEFPOINTS
 62
     0
100
AcDbPoint
 10
119584.238972015
 20
35868.71722825269
 30
0.0
  0
POINT
  5
1D5
330
1CD
100
AcDbEntity
  8
DEFPOINTS
 62
     0
100
AcDbPoint
 10
119584.238972015
 20
35536.76049999999
 30
0.0
  0
ENDBLK
  5
1D6
330
1CD
100
AcDbEntity
  8
0
100
AcDbBlockEnd
  0
BLOCK
  5
1F0
330
1EF
100
AcDbEntity
  8
0
100
AcDbBlockBegin
  2
*D29
 70
     1
 10
0.0
 20
0.0
 30
0.0
  3
*D29
  1

  0
LINE
  5
1F1
330
1EF
100
AcDbEntity
  8
WYMIARY
 62
     1
370
    -2
100
AcDbLine
 10
119432.4082036059
 20
36573.71722825269
 30
0.0
 11
119432.4082036059
 21
36873.6938355005
 31
0.0
  0
INSERT
  5
1F2
330
1EF
100
AcDbEntity
  8
WYMIARY
 62
     1
370
    -2
100
AcDbBlockReference
  2
B-DIM
 10
119432.4082036059
 20
36543.71722825269
 30
0.0
 41
30.0
 42
30.0
 43
30.0
 50
270.0
  0
INSERT
  5
1F3
330
1EF
100
AcDbEntity
  8
WYMIARY
 62
     1
370
    -2
100
AcDbBlockReference
  2
B-DIM
 10
119432.4082036059
 20
36903.6938355005
 30
0.0
 41
30.0
 42
30.0
 43
30.0
 50
90.0
  0
MTEXT
  5
1F4
330
1EF
100
AcDbEntity
  8
WYMIARY
 62
    10
100
AcDbMText
 10
119352.4082036059
 20
36723.70553187662
 30
0.0
 40
80.0
 41
0.0
 71
     5
 72
     1
  1
\A1;360
  7
ROMANS
 11
0.0000000000000001
 21
1.0
 31
0.0
 73
     1
 44
1.0
1001
ACAD
1000
MTEXTBEGIN
1070
    73
1070
     1
1070
    44
1040
1.0
1070
    74
1070
     0
1000
MTEXTEND
  0
POINT
  5
1F5
330
1EF
100
AcDbEntity
  8
DEFPOINTS
 62
     0
100
AcDbPoint
 10
119545.1734615404
 20
36543.71722825269
 30
0.0
  0
POINT
  5
1F6
330
1EF
100
AcDbEntity
  8
DEFPOINTS
 62
     0
100
AcDbPoint
 10
119893.1734615404
 20
36903.6938355005
 30
0.0
  0
POINT
  5
1F7
330
1EF
100
AcDbEntity
  8
DEFPOINTS
 62
     0
100
AcDbPoint
 10
119432.4082036059
 20
36903.6938355005
 30
0.0
  0
ENDBLK
  5
1F8
330
1EF
100
AcDbEntity
  8
0
100
AcDbBlockEnd
  0
BLOCK
  5
1FB
330
1FA
100
AcDbEntity
  8
0
100
AcDbBlockBegin
  2
*D30
 70
     1
 10
0.0
 20
0.0
 30
0.0
  3
*D30
  1

  0
LINE
  5
1FC
330
1FA
100
AcDbEntity
  8
WYMIARY
 62
     1
370
    -2
100
AcDbLine
 10
119432.4082036059
 20
36873.6938355005
 30
0.0
 11
119432.4082036059
 21
36843.6938355005
 31
0.0
  0
LINE
  5
1FD
330
1FA
100
AcDbEntity
  8
WYMIARY
 62
     1
370
    -2
100
AcDbLine
 10
119432.4082036059
 20
37033.6938355005
 30
0.0
 11
119432.4082036059
 21
37063.6938355005
 31
0.0
  0
LINE
  5
1FE
330
1FA
100
AcDbEntity
  8
WYMIARY
 62
     1
370
    -2
100
AcDbLine
 10
119432.4082036059
 20
36903.6938355005
 30
0.0
 11
119432.4082036059
 21
37003.6938355005
 31
0.0
  0
INSERT
  5
1FF
330
1FA
100
AcDbEntity
  8
WYMIARY
 62
     1
370
    -2
100
AcDbBlockReference
  2
B-DIM
 10
119432.4082036059
 20
36903.6938355005
 30
0.0
 41
30.0
 42
30.0
 43
30.0
 50
90.0
  0
INSERT
  5
200
330
1FA
100
AcDbEntity
  8
WYMIARY
 62
     1
370
    -2
100
AcDbBlockReference
  2
B-DIM
 10
119432.4082036059
 20
37003.6938355005
 30
0.0
 41
30.0
 42
30.0
 43
30.0
 50
270.0
  0
MTEXT
  5
201
330
1FA
100
AcDbEntity
  8
WYMIARY
 62
    10
100
AcDbMText
 10
119352.4082036059
 20
36953.69383550052
 30
0.0
 40
80.0
 41
0.0
 71
     5
 72
     1
  1
\A1;100
  7
ROMANS
 11
0.0000000000000001
 21
1.0
 31
0.0
 73
     1
 44
1.0
1001
ACAD
1000
MTEXTBEGIN
1070
    73
1070
     1
1070
    44
1040
1.0
1070
    74
1070
     0
1000
MTEXTEND
  0
POINT
  5
202
330
1FA
100
AcDbEntity
  8
DEFPOINTS
 62
     0
100
AcDbPoint
 10
119893.1734615404
 20
36903.6938355005
 30
0.0
  0
POINT
  5
203
330
1FA
100
AcDbEntity
  8
DEFPOINTS
 62
     0
100
AcDbPoint
 10
120225.1734615404
 20
37003.6938355005
 30
0.0
  0
POINT
  5
204
330
1FA
100
AcDbEntity
  8
DEFPOINTS
 62
     0
100
AcDbPoint
 10
119432.4082036059
 20
37003.6938355005
 30
0.0
  0
ENDBLK
  5
205
330
1FA
100
AcDbEntity
  8
0
100
AcDbBlockEnd
  0
ENDSEC
  0
SECTION
  2
ENTITIES
  0
LWPOLYLINE
  5
F
330
2
100
AcDbEntity
  8
TABLICZKA
  6
HIDDEN
 48
0.1
100
AcDbPolyline
 90
        2
 70
     0
 43
0.0
 10
118391.8531388493
 20
32876.97663458009
 10
118391.8531388493
 20
38824.33888579687
  0
TEXT
  5
14
330
2
100
AcDbEntity
  8
TABLICZKA
 62
     4
100
AcDbText
 10
118215.0089616279
 20
33231.78567614188
 30
0.0
 40
100.0
  1
OŚ ODBICIA LUSTRZANEGO
 50
90.0
  7
AVA
100
AcDbText
  0
TEXT
  5
17
330
2
100
AcDbEntity
  8
TABLICZKA
 62
     4
100
AcDbText
 10
114617.5749869165
 20
30091.07949165328
 30
0.0
 40
100.0
  1
   O B R Y S   B U D Y N K U           S K A L A   1 : 5 0 0 
  7
AVA
100
AcDbText
  0
TEXT
  5
18
330
2
100
AcDbEntity
  8
TABLICZKA
 62
     4
100
AcDbText
 10
114712.378154617
 20
42491.31636148697
 30
0.0
 40
150.0
  1
MOŻNA WKLEIĆ DO PROJEKTU ZAGOSPODAROWANIA TERENU
  7
AVA
100
AcDbText
  0
LINE
  5
19
102
{ACAD_REACTORS
330
11C
102
}
330
2
100
AcDbEntity
  8
SCIANY
 62
   140
100
AcDbLine
 10
115706.9942176182
 20
36701.69383550051
 30
0.0
 11
116057.4673056835
 21
36701.6938355005
 31
0.0
  0
DIMENSION
  5
1D
330
2
100
AcDbEntity
  8
WYMIARY
100
AcDbDimension
  2
*D1
 10
115367.1450028381
 20
35853.6938355005
 30
0.0
 11
115287.1450028381
 21
35903.69383550055
 31
0.0
 71
     5
 42
100.0000000000582
  3
500
100
AcDbAlignedDimension
 13
115665.4673056835
 23
35953.69383550055
 33
0.0
 14
116048.4673056835
 24
35853.6938355005
 34
0.0
 50
90.0
100
AcDbRotatedDimension
  0
DIMENSION
  5
38
330
2
100
AcDbEntity
  8
WYMIARY
100
AcDbDimension
  2
*D2
 10
115565.4673056835
 20
37440.17733657932
 30
0.0
 11
115781.4673056835
 21
37520.17733657932
 31
0.0
 71
     5
 42
432.0
  3
500
100
AcDbAlignedDimension
 13
115997.4673056835
 23
37003.6938355005
 33
0.0
 14
115565.4673056835
 24
36574.69383550057
 34
0.0
100
AcDbRotatedDimension
  0
DIMENSION
  5
43
330
2
100
AcDbEntity
  8
WYMIARY
100
AcDbDimension
  2
*D3
 10
115565.4673056835
 20
37641.79615752179
 30
0.0
 11
116382.4673056836
 21
37721.79615752179
 31
0.0
 70
     1
 71
     5
 42
1634.000000000014
  3
500
100
AcDbAlignedDimension
 13
117199.4673056835
 23
37484.17733657932
 33
0.0
 14
115565.4673056835
 24
37484.17733657932
 34
0.0
  0
LINE
  5
4E
102
{ACAD_REACTORS
330
11C
102
}
330
2
100
AcDbEntity
  8
SCIANY
 62
   140
100
AcDbLine
 10
116519.4673056835
 20
37003.6938355005
 30
0.0
 11
115997.4673056835
 21
37003.6938355005
 31
0.0
  0
LINE
  5
4F
102
{ACAD_REACTORS
330
11C
102
}
330
2
100
AcDbEntity
  8
SCIANY
 62
   140
100
AcDbLine
 10
116183.4673056835
 20
36013.69383550048
 30
0.0
 11
115725.4673056835
 21
36013.69383550054
 31
0.0
  0
LINE
  5
50
102
{ACAD_REACTORS
330
11C
102
}
330
2
100
AcDbEntity
  8
SCIANY
 62
   140
100
AcDbLine
 10
116183.4673056835
 20
35953.6938355005
 30
0.0
 11
115665.4673056835
 21
35953.69383550055
 31
0.0
  0
LINE
  5
51
330
2
100
AcDbEntity
  8
WIDOK
100
AcDbLine
 10
116539.4673056835
 20
37273.6938355005
 30
0.0
 11
115877.4673056835
 21
37273.6938355005
 31
0.0
  0
LINE
  5
55
330
2
100
AcDbEntity
  8
WIDOK
100
AcDbLine
 10
116539.4673056835
 20
37303.6938355005
 30
0.0
 11
115877.4673056835
 21
37303.6938355005
 31
0.0
  0
LINE
  5
56
330
2
100
AcDbEntity
  8
WIDOK
100
AcDbLine
 10
116544.4673056835
 20
35723.6938355005
 30
0.0
 11
115972.4673056835
 21
35723.6938355005
 31
0.0
  0
LINE
  5
57
330
2
100
AcDbEntity
  8
WIDOK
100
AcDbLine
 10
116514.4673056835
 20
35753.6938355005
 30
0.0
 11
116002.4673056835
 21
35753.6938355005
 31
0.0
  0
DIMENSION
  5
58
330
2
100
AcDbEntity
  8
WYMIARY
100
AcDbDimension
  2
*D4
 10
116802.4673056835
 20
35536.76049999999
 30
0.0
 11
116233.9673056835
 21
35616.76049999999
 31
0.0
 70
     1
 71
     5
 42
1137.0
  3
500
100
AcDbAlignedDimension
 13
115665.4673056835
 23
35953.69383550055
 33
0.0
 14
116802.4673056835
 24
35953.6938355005
 34
0.0
  0
DIMENSION
  5
63
330
2
100
AcDbEntity
  8
WYMIARY
100
AcDbDimension
  2
*D5
 10
115997.4673056835
 20
37440.17733657932
 30
0.0
 11
116258.4673056835
 21
37520.17733657932
 31
0.0
 71
     5
 42
522.0
  3
500
100
AcDbAlignedDimension
 13
116519.4673056835
 23
37003.6938355005
 33
0.0
 14
115997.4673056835
 24
37003.6938355005
 34
0.0
100
AcDbRotatedDimension
  0
ARC
  5
6E
330
2
100
AcDbEntity
  8
WIDOK
100
AcDbCircle
 10
115877.4673056835
 20
37003.6938355005
 30
0.0
 40
270.0
100
AcDbArc
 50
90.0
 51
180.0
  0
ARC
  5
6F
330
2
100
AcDbEntity
  8
WIDOK
100
AcDbCircle
 10
115877.4673056835
 20
37003.6938355005
 30
0.0
 40
300.0
100
AcDbArc
 50
90.0
 51
180.0
  0
LINE
  5
70
102
{ACAD_REACTORS
330
11C
102
}
330
2
100
AcDbEntity
  8
SCIANY
 62
   140
100
AcDbLine
 10
115665.4673056835
 20
36404.36793369267
 30
0.0
 11
115665.4673056835
 21
35953.69383550055
 31
0.0
  0
DIMENSION
  5
71
330
2
100
AcDbEntity
  8
WYMIARY
100
AcDbDimension
  2
*D6
 10
115367.1450028381
 20
35953.69383550055
 30
0.0
 11
115287.1450028381
 21
36179.03088459664
 31
0.0
 71
     5
 42
450.6740981921175
  3
500
100
AcDbAlignedDimension
 13
115665.4673056835
 23
36404.36793369267
 33
0.0
 14
115665.4673056835
 24
35953.69383550055
 34
0.0
 50
90.0
100
AcDbRotatedDimension
  0
DIMENSION
  5
7C
330
2
100
AcDbEntity
  8
WYMIARY
100
AcDbDimension
  2
*D7
 10
115184.8891071597
 20
37003.6938355005
 30
0.0
 11
115104.8891071597
 21
36428.69383550052
 31
0.0
 70
     1
 71
     5
 42
1150.0
  3
500
100
AcDbAlignedDimension
 13
115323.1450028381
 23
35853.6938355005
 33
0.0
 14
115323.1450028381
 24
37003.6938355005
 34
0.0
  0
LINE
  5
87
330
2
100
AcDbEntity
  8
WIDOK
100
AcDbLine
 10
116002.4673056835
 20
35753.6938355005
 30
0.0
 11
116002.4673056835
 21
35953.6938355005
 31
0.0
  0
LINE
  5
88
330
2
100
AcDbEntity
  8
WIDOK
100
AcDbLine
 10
115972.4673056835
 20
35723.6938355005
 30
0.0
 11
115972.4673056835
 21
35953.6938355005
 31
0.0
  0
LINE
  5
89
102
{ACAD_REACTORS
330
11C
102
}
330
2
100
AcDbEntity
  8
SCIANY
 62
   140
100
AcDbLine
 10
115706.9942176182
 20
36701.69383550051
 30
0.0
 11
115625.4673056835
 21
36620.16692356592
 31
0.0
  0
LINE
  5
8A
102
{ACAD_REACTORS
330
11C
102
}
330
2
100
AcDbEntity
  8
SCIANY
 62
   140
100
AcDbLine
 10
115625.4673056835
 20
36620.16692356592
 30
0.0
 11
115625.4673056835
 21
36529.22074743518
 31
0.0
  0
LINE
  5
8B
102
{ACAD_REACTORS
330
11C
102
}
330
2
100
AcDbEntity
  8
SCIANY
 62
   140
100
AcDbLine
 10
115725.4673056835
 20
36429.22074743503
 30
0.0
 11
115625.4673056835
 21
36529.22074743518
 31
0.0
  0
LINE
  5
8C
102
{ACAD_REACTORS
330
11C
102
}
330
2
100
AcDbEntity
  8
SCIANY
 62
   140
100
AcDbLine
 10
115725.4673056835
 20
36429.22074743503
 30
0.0
 11
115725.4673056835
 21
36013.69383550054
 31
0.0
  0
LINE
  5
8D
102
{ACAD_REACTORS
330
11C
102
}
330
2
100
AcDbEntity
  8
SCIANY
 62
   140
100
AcDbLine
 10
115665.4673056835
 20
36404.36793369267
 30
0.0
 11
115565.4673056835
 21
36504.36793369284
 31
0.0
  0
LINE
  5
8E
102
{ACAD_REACTORS
330
11C
102
}
330
2
100
AcDbEntity
  8
SCIANY
 62
   140
100
AcDbLine
 10
115565.4673056835
 20
36645.01973730831
 30
0.0
 11
115565.4673056835
 21
36504.36793369284
 31
0.0
  0
LINE
  5
8F
102
{ACAD_REACTORS
330
11C
102
}
330
2
100
AcDbEntity
  8
SCIANY
 62
   140
100
AcDbLine
 10
115682.1414038757
 20
36761.69383550051
 30
0.0
 11
115565.4673056835
 21
36645.01973730831
 31
0.0
  0
LINE
  5
90
102
{ACAD_REACTORS
330
11C
102
}
330
2
100
AcDbEntity
  8
SCIANY
 62
   140
100
AcDbLine
 10
115682.1414038757
 20
36761.69383550051
 30
0.0
 11
115997.4673056835
 21
36761.6938355005
 31
0.0
  0
LINE
  5
91
102
{ACAD_REACTORS
330
11C
102
}
330
2
100
AcDbEntity
  8
SCIANY
 62
   140
100
AcDbLine
 10
115997.4673056835
 20
37003.6938355005
 30
0.0
 11
115997.4673056835
 21
36761.6938355005
 31
0.0
  0
LWPOLYLINE
  5
92
102
{ACAD_REACTORS
330
120
102
}
330
2
100
AcDbEntity
  8
SCIANY
 62
   140
100
AcDbPolyline
 90
        4
 70
     1
 43
0.0
 10
115730.1451790227
 20
36841.6938355005
 10
115680.1451790227
 20
36841.6938355005
 10
115680.1451790227
 20
36891.6938355005
 10
115730.1451790227
 20
36891.6938355005
  0
LINE
  5
93
330
2
100
AcDbEntity
  8
WIDOK
100
AcDbLine
 10
115607.4673056835
 20
36687.01973730831
 30
0.0
 11
115607.4673056835
 21
37003.6938355005
 31
0.0
  0
LINE
  5
94
330
2
100
AcDbEntity
  8
WIDOK
100
AcDbLine
 10
115577.4673056835
 20
36657.01973730831
 30
0.0
 11
115577.4673056835
 21
37003.6938355005
 31
0.0
  0
DIMENSION
  5
95
330
2
100
AcDbEntity
  8
WYMIARY
100
AcDbDimension
  2
*D8
 10
115367.1450028381
 20
36761.6938355005
 30
0.0
 11
115287.1450028381
 21
36882.69383550052
 31
0.0
 70
     1
 71
     5
 42
242.0
  3
500
100
AcDbAlignedDimension
 13
115997.4673056835
 23
37003.6938355005
 33
0.0
 14
115997.4673056835
 24
36761.6938355005
 34
0.0
  0
DIMENSION
  5
A0
330
2
100
AcDbEntity
  8
WYMIARY
100
AcDbDimension
  2
*D9
 10
115367.1450028381
 20
36404.36793369267
 30
0.0
 11
115287.1450028381
 21
36583.03088459661
 31
0.0
 71
     5
 42
357.3259018078243
  3
500
100
AcDbAlignedDimension
 13
115997.4673056835
 23
36761.6938355005
 33
0.0
 14
115665.4673056835
 24
36404.36793369267
 34
0.0
 50
90.0
100
AcDbRotatedDimension
  0
ARC
  5
AB
330
2
100
AcDbEntity
  8
WIDOK
100
AcDbCircle
 10
116539.4673056835
 20
37003.6938355005
 30
0.0
 40
300.0
100
AcDbArc
 50
0.0
 51
90.0
  0
DIMENSION
  5
AC
330
2
100
AcDbEntity
  8
WYMIARY
100
AcDbDimension
  2
*D10
 10
116851.4673056835
 20
37440.17733657932
 30
0.0
 11
117025.4673056835
 21
37520.17733657932
 31
0.0
 70
     1
 71
     5
 42
348.0
  3
500
100
AcDbAlignedDimension
 13
117199.4673056835
 23
36543.71722825269
 33
0.0
 14
116851.4673056835
 24
36543.71722825269
 34
0.0
  0
DIMENSION
  5
B7
330
2
100
AcDbEntity
  8
WYMIARY
100
AcDbDimension
  2
*D11
 10
116519.4673056835
 20
37440.17733657932
 30
0.0
 11
116685.4673056835
 21
37520.17733657932
 31
0.0
 71
     5
 42
332.0
  3
500
100
AcDbAlignedDimension
 13
116851.4673056835
 23
36543.71722825269
 33
0.0
 14
116519.4673056835
 24
37003.6938355005
 34
0.0
100
AcDbRotatedDimension
  0
ARC
  5
C2
330
2
100
AcDbEntity
  8
WIDOK
100
AcDbCircle
 10
116539.4673056835
 20
37003.6938355005
 30
0.0
 40
270.0
100
AcDbArc
 50
0.0
 51
90.0
  0
LINE
  5
C3
102
{ACAD_REACTORS
330
11C
102
}
330
2
100
AcDbEntity
  8
SCIANY
 62
   140
100
AcDbLine
 10
117199.4673056835
 20
36543.71722825269
 30
0.0
 11
117199.4673056835
 21
35868.71722825269
 31
0.0
  0
LINE
  5
C4
102
{ACAD_REACTORS
330
11C
102
}
330
2
100
AcDbEntity
  8
SCIANY
 62
   140
100
AcDbLine
 10
117139.4673056835
 20
36483.71722825269
 30
0.0
 11
117139.4673056835
 21
35868.71722825269
 31
0.0
  0
DIMENSION
  5
C5
330
2
100
AcDbEntity
  8
WYMIARY
100
AcDbDimension
  2
*D12
 10
117351.2980740926
 20
36543.71722825269
 30
0.0
 11
117271.2980740926
 21
36206.21722825271
 31
0.0
 70
     1
 71
     5
 42
675.0
  3
500
100
AcDbAlignedDimension
 13
117238.5328161581
 23
35868.71722825269
 33
0.0
 14
117238.5328161581
 24
36543.71722825269
 34
0.0
  0
LINE
  5
D0
102
{ACAD_REACTORS
330
11C
102
}
330
2
100
AcDbEntity
  8
SCIANY
 62
   140
100
AcDbLine
 10
116183.4673056835
 20
36013.69383550048
 30
0.0
 11
116183.4673056835
 21
35953.6938355005
 31
0.0
  0
LINE
  5
D1
102
{ACAD_REACTORS
330
122
102
}
330
2
100
AcDbEntity
  8
SCIANY
 62
   140
100
AcDbLine
 10
116333.4673056835
 20
36013.6938355005
 30
0.0
 11
116333.4673056835
 21
35953.6938355005
 31
0.0
  0
LINE
  5
D2
330
2
100
AcDbEntity
  8
WIDOK
100
AcDbLine
 10
116887.4673056835
 20
35868.71722825269
 30
0.0
 11
117139.4673056835
 21
35868.71722825269
 31
0.0
  0
DIMENSION
  5
D3
330
2
100
AcDbEntity
  8
WYMIARY
100
AcDbDimension
  2
*D13
 10
117199.4673056835
 20
35536.76049999999
 30
0.0
 11
117000.9673056835
 21
35616.76049999999
 31
0.0
 71
     5
 42
397.0
  3
500
100
AcDbAlignedDimension
 13
116802.4673056835
 23
35953.6938355005
 33
0.0
 14
117199.4673056835
 24
35868.71722825269
 34
0.0
 50
180.0
100
AcDbRotatedDimension
  0
LINE
  5
DE
330
2
100
AcDbEntity
  8
WIDOK
100
AcDbLine
 10
116887.4673056835
 20
35928.71722825269
 30
0.0
 11
117139.4673056835
 21
35928.71722825269
 31
0.0
  0
LINE
  5
DF
102
{ACAD_REACTORS
330
122
102
}
330
2
100
AcDbEntity
  8
SCIANY
 62
   140
100
AcDbLine
 10
116887.4673056835
 20
35928.71722825269
 30
0.0
 11
116862.4673056835
 21
35928.71722825269
 31
0.0
  0
LINE
  5
E0
102
{ACAD_REACTORS
330
122
102
}
330
2
100
AcDbEntity
  8
SCIANY
 62
   140
100
AcDbLine
 10
116887.4673056835
 20
35868.71722825269
 30
0.0
 11
116887.4673056835
 21
35928.71722825269
 31
0.0
  0
LINE
  5
E1
102
{ACAD_REACTORS
330
122
102
}
330
2
100
AcDbEntity
  8
SCIANY
 62
   140
100
AcDbLine
 10
116887.4673056835
 20
35868.71722825269
 30
0.0
 11
116802.4673056835
 21
35868.71722825269
 31
0.0
  0
LINE
  5
E2
102
{ACAD_REACTORS
330
122
102
}
330
2
100
AcDbEntity
  8
SCIANY
 62
   140
100
AcDbLine
 10
116802.4673056835
 20
35953.6938355005
 30
0.0
 11
116802.4673056835
 21
35868.71722825269
 31
0.0
  0
LINE
  5
E3
102
{ACAD_REACTORS
330
122
102
}
330
2
100
AcDbEntity
  8
SCIANY
 62
   140
100
AcDbLine
 10
116802.4673056835
 20
35953.6938355005
 30
0.0
 11
116333.4673056835
 21
35953.6938355005
 31
0.0
  0
LINE
  5
E4
102
{ACAD_REACTORS
330
11E
102
}
330
2
100
AcDbEntity
  8
SCIANY
 62
   140
100
AcDbLine
 10
116468.4673056835
 20
35890.6938355005
 30
0.0
 11
116408.4673056835
 21
35890.6938355005
 31
0.0
  0
LINE
  5
E5
102
{ACAD_REACTORS
330
11E
102
}
330
2
100
AcDbEntity
  8
SCIANY
 62
   140
100
AcDbLine
 10
116468.4673056835
 20
35853.6938355005
 30
0.0
 11
116468.4673056835
 21
35890.6938355005
 31
0.0
  0
LINE
  5
E6
102
{ACAD_REACTORS
330
11E
102
}
330
2
100
AcDbEntity
  8
SCIANY
 62
   140
100
AcDbLine
 10
116468.4673056835
 20
35853.6938355005
 30
0.0
 11
116408.4673056835
 21
35853.6938355005
 31
0.0
  0
LINE
  5
E7
102
{ACAD_REACTORS
330
11E
102
}
330
2
100
AcDbEntity
  8
SCIANY
 62
   140
100
AcDbLine
 10
116408.4673056835
 20
35853.6938355005
 30
0.0
 11
116408.4673056835
 21
35890.6938355005
 31
0.0
  0
LINE
  5
E8
102
{ACAD_REACTORS
330
11F
102
}
330
2
100
AcDbEntity
  8
SCIANY
 62
   140
100
AcDbLine
 10
116108.4673056835
 20
35853.6938355005
 30
0.0
 11
116108.4673056835
 21
35890.6938355005
 31
0.0
  0
LINE
  5
E9
330
2
100
AcDbEntity
  8
WIDOK
100
AcDbLine
 10
116544.4673056835
 20
35723.6938355005
 30
0.0
 11
116544.4673056835
 21
35953.6938355005
 31
0.0
  0
LINE
  5
EA
330
2
100
AcDbEntity
  8
WIDOK
100
AcDbLine
 10
116514.4673056835
 20
35753.6938355005
 30
0.0
 11
116514.4673056835
 21
35953.6938355005
 31
0.0
  0
LINE
  5
EB
330
2
100
AcDbEntity
  8
WIDOK
100
AcDbLine
 10
116183.4673056835
 20
35953.6938355005
 30
0.0
 11
116333.4673056835
 21
35953.6938355005
 31
0.0
  0
LINE
  5
EC
102
{ACAD_REACTORS
330
11F
102
}
330
2
100
AcDbEntity
  8
SCIANY
 62
   140
100
AcDbLine
 10
116048.4673056835
 20
35853.6938355005
 30
0.0
 11
116048.4673056835
 21
35890.6938355005
 31
0.0
  0
LINE
  5
ED
102
{ACAD_REACTORS
330
11F
102
}
330
2
100
AcDbEntity
  8
SCIANY
 62
   140
100
AcDbLine
 10
116108.4673056835
 20
35890.6938355005
 30
0.0
 11
116048.4673056835
 21
35890.6938355005
 31
0.0
  0
LINE
  5
EE
102
{ACAD_REACTORS
330
11F
102
}
330
2
100
AcDbEntity
  8
SCIANY
 62
   140
100
AcDbLine
 10
116108.4673056835
 20
35853.6938355005
 30
0.0
 11
116048.4673056835
 21
35853.6938355005
 31
0.0
  0
LINE
  5
EF
102
{ACAD_REACTORS
330
11C
102
}
330
2
100
AcDbEntity
  8
SCIANY
 62
   140
100
AcDbLine
 10
117199.4673056835
 20
35868.71722825269
 30
0.0
 11
117137.4673056835
 21
35868.71722825269
 31
0.0
  0
LINE
  5
F0
102
{ACAD_REACTORS
330
11C
102
}
330
2
100
AcDbEntity
  8
SCIANY
 62
   140
100
AcDbLine
 10
117199.4673056835
 20
36543.71722825269
 30
0.0
 11
116851.4673056835
 21
36543.71722825269
 31
0.0
  0
LINE
  5
F1
102
{ACAD_REACTORS
330
11C
102
}
330
2
100
AcDbEntity
  8
SCIANY
 62
   140
100
AcDbLine
 10
117139.4673056835
 20
36483.71722825269
 30
0.0
 11
116791.4673056835
 21
36483.71722825269
 31
0.0
  0
DIMENSION
  5
F2
330
2
100
AcDbEntity
  8
WYMIARY
100
AcDbDimension
  2
*D14
 10
117351.2980740926
 20
36903.6938355005
 30
0.0
 11
117271.2980740926
 21
36723.70553187662
 31
0.0
 71
     5
 42
359.9766072478087
  3
500
100
AcDbAlignedDimension
 13
117238.5328161581
 23
36543.71722825269
 33
0.0
 14
116890.5328161581
 24
36903.6938355005
 34
0.0
 50
270.0
100
AcDbRotatedDimension
  0
DIMENSION
  5
FD
330
2
100
AcDbEntity
  8
WYMIARY
100
AcDbDimension
  2
*D15
 10
117351.2980740926
 20
37003.6938355005
 30
0.0
 11
117271.2980740926
 21
36953.69383550052
 31
0.0
 71
     5
 42
100.0
  3
500
100
AcDbAlignedDimension
 13
116890.5328161581
 23
36903.6938355005
 33
0.0
 14
116558.5328161581
 24
37003.6938355005
 34
0.0
 50
270.0
100
AcDbRotatedDimension
  0
LINE
  5
10A
102
{ACAD_REACTORS
330
11C
102
}
330
2
100
AcDbEntity
  8
SCIANY
 62
   140
100
AcDbLine
 10
116519.4673056835
 20
37003.6938355005
 30
0.0
 11
116519.4673056835
 21
36903.6938355005
 31
0.0
  0
LINE
  5
10B
102
{ACAD_REACTORS
330
11C
102
}
330
2
100
AcDbEntity
  8
SCIANY
 62
   140
100
AcDbLine
 10
116851.4673056835
 20
36903.6938355005
 30
0.0
 11
116519.4673056835
 21
36903.6938355005
 31
0.0
  0
LINE
  5
10C
102
{ACAD_REACTORS
330
11C
102
}
330
2
100
AcDbEntity
  8
SCIANY
 62
   140
100
AcDbLine
 10
116851.4673056835
 20
36903.6938355005
 30
0.0
 11
116851.4673056835
 21
36543.71722825269
 31
0.0
  0
LINE
  5
10D
102
{ACAD_REACTORS
330
11C
102
}
330
2
100
AcDbEntity
  8
SCIANY
 62
   140
100
AcDbLine
 10
116791.4673056835
 20
36843.6938355005
 30
0.0
 11
116791.4673056835
 21
36483.71722825269
 31
0.0
  0
LINE
  5
10E
102
{ACAD_REACTORS
330
11C
102
}
330
2
100
AcDbEntity
  8
SCIANY
 62
   140
100
AcDbLine
 10
116791.4673056835
 20
36843.6938355005
 30
0.0
 11
116459.4673056835
 21
36843.6938355005
 31
0.0
  0
LINE
  5
10F
102
{ACAD_REACTORS
330
11C
102
}
330
2
100
AcDbEntity
  8
SCIANY
 62
   140
100
AcDbLine
 10
116459.4673056835
 20
36943.6938355005
 30
0.0
 11
116459.4673056835
 21
36843.6938355005
 31
0.0
  0
LINE
  5
110
102
{ACAD_REACTORS
330
122
102
}
330
2
100
AcDbEntity
  8
SCIANY
 62
   140
100
AcDbLine
 10
116862.4673056835
 20
36013.69383550049
 30
0.0
 11
116333.4673056835
 21
36013.6938355005
 31
0.0
  0
LINE
  5
111
330
2
100
AcDbEntity
  8
SCIANY
 62
   140
100
AcDbLine
 10
116519.4673056835
 20
36903.6938355005
 30
0.0
 11
116519.4673056835
 21
36903.6938355005
 31
0.0
  0
LINE
  5
112
330
2
100
AcDbEntity
  8
WIDOK
100
AcDbLine
 10
116809.4673056835
 20
36903.6938355005
 30
0.0
 11
116809.4673056835
 21
37003.6938355005
 31
0.0
  0
LINE
  5
113
330
2
100
AcDbEntity
  8
WIDOK
100
AcDbLine
 10
116839.4673056835
 20
36903.6938355005
 30
0.0
 11
116839.4673056835
 21
37003.6938355005
 31
0.0
  0
LINE
  5
114
330
2
100
AcDbEntity
  8
WIDOK
100
AcDbLine
 10
116183.4673056835
 20
36013.6938355005
 30
0.0
 11
116333.4673056835
 21
36013.6938355005
 31
0.0
  0
LINE
  5
115
102
{ACAD_REACTORS
330
11C
102
}
330
2
100
AcDbEntity
  8
SCIANY
 62
   140
100
AcDbLine
 10
116057.4673056835
 20
36943.69383550048
 30
0.0
 11
116057.4673056835
 21
36701.6938355005
 31
0.0
  0
LINE
  5
116
102
{ACAD_REACTORS
330
11C
102
}
330
2
100
AcDbEntity
  8
SCIANY
 62
   140
100
AcDbLine
 10
116459.4673056835
 20
36943.6938355005
 30
0.0
 11
116057.4673056835
 21
36943.69383550048
 31
0.0
  0
TEXT
  5
117
330
2
100
AcDbEntity
  8
TABLICZKA
 62
     4
100
AcDbText
 10
114736.8663816748
 20
42787.69932206486
 30
0.0
 40
150.0
  1
D O M   " P O D  W I Ś N I Ą"          
  7
AVA
100
AcDbText
  0
LWPOLYLINE
  5
118
330
2
100
AcDbEntity
  8
RAMKI-A4
100
AcDbPolyline
 90
        4
 70
     1
 43
0.0
 10
113187.2022170536
 20
43537.51642521247
 10
113187.2022170536
 20
29517.51642521248
 10
123387.2022170537
 20
29517.51642521248
 10
123387.2022170537
 20
43537.51642521247
  0
HATCH
  5
11C
330
2
100
AcDbEntity
  8
0Hatch
100
AcDbHatch
 10
0.0
 20
0.0
 30
0.0
210
0.0
220
0.0
230
1.0
  2
SOLID
 70
     1
 71
     1
 91
        1
 92
        7
 72
     0
 73
     1
 93
       28
 10
116057.4673056835
 20
36943.69383550048
 10
116459.4673056835
 20
36943.6938355005
 10
116459.4673056835
 20
36843.6938355005
 10
116791.4673056835
 20
36843.6938355005
 10
116791.4673056835
 20
36483.71722825268
 10
117139.4673056835
 20
36483.7172282527
 10
117139.4673056835
 20
35868.71722825269
 10
117199.4673056835
 20
35868.71722825269
 10
117199.4673056835
 20
36543.71722825269
 10
116851.4673056835
 20
36543.71722825269
 10
116851.4673056835
 20
36903.6938355005
 10
116519.4673056835
 20
36903.6938355005
 10
116519.4673056835
 20
37003.69383550051
 10
115997.4673056835
 20
37003.6938355005
 10
115997.4673056835
 20
36761.6938355005
 10
115682.1414038758
 20
36761.69383550051
 10
115565.4673056835
 20
36645.01973730833
 10
115565.4673056835
 20
36504.36793369284
 10
115665.4673056835
 20
36404.36793369266
 10
115665.4673056835
 20
35953.69383550055
 10
116183.4673056835
 20
35953.69383550049
 10
116183.4673056835
 20
36013.69383550048
 10
115725.4673056835
 20
36013.69383550054
 10
115725.4673056835
 20
36429.22074743503
 10
115625.4673056835
 20
36529.22074743518
 10
115625.4673056835
 20
36620.16692356591
 10
115706.9942176182
 20
36701.69383550052
 10
116057.4673056835
 20
36701.6938355005
 97
       28
330
116
330
10F
330
10E
330
10D
330
F1
330
C4
330
EF
330
C3
330
F0
330
10C
330
10B
330
10A
330
4E
330
91
330
90
330
8F
330
8E
330
8D
330
70
330
50
330
D0
330
4F
330
8C
330
8B
330
8A
330
89
330
19
330
115
 75
     0
 76
     1
 47
3.301570935613253
 98
        1
 10
116021.7005755041
 20
36811.48563931303
1001
ACAD
1010
0.0
1020
0.0
1030
0.0
  0
HATCH
  5
11E
330
2
100
AcDbEntity
  8
0Hatch
100
AcDbHatch
 10
0.0
 20
0.0
 30
0.0
210
0.0
220
0.0
230
1.0
  2
SOLID
 70
     1
 71
     1
 91
        1
 92
        7
 72
     0
 73
     1
 93
        4
 10
116468.4673056835
 20
35890.6938355005
 10
116408.4673056835
 20
35890.6938355005
 10
116408.4673056835
 20
35853.6938355005
 10
116468.4673056835
 20
35853.6938355005
 97
        4
330
E4
330
E7
330
E6
330
E5
 75
     0
 76
     1
 47
1.622211171513581
 98
        1
 10
116441.4481172784
 20
35877.85197352909
1001
ACAD
1010
0.0
1020
0.0
1030
0.0
  0
HATCH
  5
11F
330
2
100
AcDbEntity
  8
0Hatch
100
AcDbHatch
 10
0.0
 20
0.0
 30
0.0
210
0.0
220
0.0
230
1.0
  2
SOLID
 70
     1
 71
     1
 91
        1
 92
        7
 72
     0
 73
     1
 93
        4
 10
116108.4673056835
 20
35890.6938355005
 10
116048.4673056835
 20
35890.6938355005
 10
116048.4673056835
 20
35853.6938355005
 10
116108.4673056835
 20
35853.6938355005
 97
        4
330
ED
330
EC
330
EE
330
E8
 75
     0
 76
     1
 47
1.622211171513581
 98
        1
 10
116077.7913328867
 20
35868.11871119813
1001
ACAD
1010
0.0
1020
0.0
1030
0.0
  0
HATCH
  5
120
330
2
100
AcDbEntity
  8
0Hatch
100
AcDbHatch
 10
0.0
 20
0.0
 30
0.0
210
0.0
220
0.0
230
1.0
  2
SOLID
 70
     1
 71
     1
 91
        1
 92
        7
 72
     0
 73
     1
 93
        4
 10
115730.1451790227
 20
36891.6938355005
 10
115680.1451790227
 20
36891.6938355005
 10
115680.1451790227
 20
36841.6938355005
 10
115730.1451790227
 20
36841.6938355005
 97
        1
330
92
 75
     0
 76
     1
 47
1.429233955803178
 98
        1
 10
115694.2020908265
 20
36856.65859691953
1001
ACAD
1010
0.0
1020
0.0
1030
0.0
  0
LINE
  5
121
102
{ACAD_REACTORS
330
122
102
}
330
2
100
AcDbEntity
  8
SCIANY
 62
   140
100
AcDbLine
 10
116862.4673056835
 20
36013.69383550049
 30
0.0
 11
116862.4673056835
 21
35928.71722825269
 31
0.0
  0
HATCH
  5
122
330
2
100
AcDbEntity
  8
0Hatch
100
AcDbHatch
 10
0.0
 20
0.0
 30
0.0
210
0.0
220
0.0
230
1.0
  2
SOLID
 70
     1
 71
     1
 91
        1
 92
        7
 72
     0
 73
     1
 93
        8
 10
116862.4673056835
 20
36013.69383550048
 10
116333.4673056835
 20
36013.69383550049
 10
116333.4673056835
 20
35953.6938355005
 10
116802.4673056835
 20
35953.69383550051
 10
116802.4673056835
 20
35868.71722825269
 10
116887.4673056835
 20
35868.71722825269
 10
116887.4673056835
 20
35928.71722825269
 10
116862.4673056835
 20
35928.71722825269
 97
        8
330
110
330
D1
330
E3
330
E2
330
E1
330
E0
330
DF
330
121
 75
     0
 76
     1
 47
2.380212845851699
 98
        1
 10
116569.3898898077
 20
35979.83501902635
1001
ACAD
1010
0.0
1020
0.0
1030
0.0
  0
HATCH
  5
123
330
2
100
AcDbEntity
  8
0Hatch
100
AcDbHatch
 10
0.0
 20
0.0
 30
0.0
210
0.0
220
0.0
230
1.0
  2
SOLID
 70
     1
 71
     1
 91
        1
 92
        7
 72
     0
 73
     1
 93
       28
 10
120786.2389720151
 20
37003.6938355005
 10
120264.238972015
 20
37003.69383550051
 10
120264.238972015
 20
36903.6938355005
 10
119932.2389720151
 20
36903.69383550049
 10
119932.238972015
 20
36543.71722825269
 10
119584.2389720151
 20
36543.71722825269
 10
119584.2389720151
 20
35868.71722825269
 10
119644.238972015
 20
35868.71722825269
 10
119644.2389720151
 20
36483.71722825269
 10
119992.238972015
 20
36483.71722825269
 10
119992.238972015
 20
36843.6938355005
 10
120324.238972015
 20
36843.6938355005
 10
120324.238972015
 20
36943.6938355005
 10
120726.2389720151
 20
36943.69383550048
 10
120726.238972015
 20
36701.6938355005
 10
121076.7120600804
 20
36701.69383550051
 10
121158.238972015
 20
36620.16692356591
 10
121158.238972015
 20
36529.22074743516
 10
121058.238972015
 20
36429.22074743503
 10
121058.238972015
 20
36013.69383550053
 10
120600.238972015
 20
36013.69383550049
 10
120600.2389720151
 20
35953.69383550051
 10
121118.238972015
 20
35953.69383550055
 10
121118.2389720151
 20
36404.36793369266
 10
121218.238972015
 20
36504.36793369281
 10
121218.2389720151
 20
36645.01973730828
 10
121101.5648738228
 20
36761.69383550051
 10
120786.2389720151
 20
36761.6938355005
 97
       28
330
212
330
20B
330
20A
330
209
330
1ED
330
1BC
330
1EB
330
1BB
330
1EC
330
208
330
207
330
206
330
148
330
188
330
187
330
186
330
185
330
184
330
167
330
14A
330
1C8
330
149
330
183
330
182
330
181
330
180
330
124
330
211
 75
     0
 76
     1
 47
3.301570935613253
 98
        1
 10
120762.0057021945
 20
36811.48563931303
1001
ACAD
1010
0.0
1020
0.0
1030
0.0
  0
LINE
  5
124
102
{ACAD_REACTORS
330
123
102
}
330
2
100
AcDbEntity
  8
SCIANY
 62
   140
100
AcDbLine
 10
121076.7120600804
 20
36701.69383550051
 30
0.0
 11
120726.238972015
 21
36701.6938355005
 31
0.0
  0
DIMENSION
  5
125
330
2
100
AcDbEntity
  8
WYMIARY
100
AcDbDimension
  2
*D16
 10
121416.5612748604
 20
35853.6938355005
 30
0.0
 11
121336.5612748604
 21
35903.69383550055
 31
0.0
 71
     5
 42
100.0000000000582
  3
500
100
AcDbAlignedDimension
 13
121118.2389720151
 23
35953.69383550055
 33
0.0
 14
120735.238972015
 24
35853.6938355005
 34
0.0
 50
90.0
100
AcDbRotatedDimension
  0
DIMENSION
  5
132
330
2
100
AcDbEntity
  8
WYMIARY
100
AcDbDimension
  2
*D17
 10
121218.238972015
 20
37440.17733657932
 30
0.0
 11
121002.238972015
 21
37520.17733657932
 31
0.0
 71
     5
 42
432.0
  3
500
100
AcDbAlignedDimension
 13
120786.2389720151
 23
37003.6938355005
 33
0.0
 14
121218.238972015
 24
36574.69383550057
 34
0.0
 50
180.0
100
AcDbRotatedDimension
  0
DIMENSION
  5
13D
330
2
100
AcDbEntity
  8
WYMIARY
100
AcDbDimension
  2
*D18
 10
121218.238972015
 20
37641.79615752179
 30
0.0
 11
120401.238972015
 21
37721.79615752179
 31
0.0
 70
     1
 71
     5
 42
1634.000000000014
  3
500
100
AcDbAlignedDimension
 13
119584.238972015
 23
37484.17733657932
 33
0.0
 14
121218.238972015
 24
37484.17733657932
 34
0.0
  0
LINE
  5
148
102
{ACAD_REACTORS
330
123
102
}
330
2
100
AcDbEntity
  8
SCIANY
 62
   140
100
AcDbLine
 10
120264.238972015
 20
37003.6938355005
 30
0.0
 11
120786.2389720151
 21
37003.6938355005
 31
0.0
  0
LINE
  5
149
102
{ACAD_REACTORS
330
123
102
}
330
2
100
AcDbEntity
  8
SCIANY
 62
   140
100
AcDbLine
 10
120600.238972015
 20
36013.69383550048
 30
0.0
 11
121058.238972015
 21
36013.69383550054
 31
0.0
  0
LINE
  5
14A
102
{ACAD_REACTORS
330
123
102
}
330
2
100
AcDbEntity
  8
SCIANY
 62
   140
100
AcDbLine
 10
120600.238972015
 20
35953.6938355005
 30
0.0
 11
121118.238972015
 21
35953.69383550055
 31
0.0
  0
LINE
  5
14B
330
2
100
AcDbEntity
  8
WIDOK
100
AcDbLine
 10
120244.2389720151
 20
37273.6938355005
 30
0.0
 11
120906.238972015
 21
37273.6938355005
 31
0.0
  0
LINE
  5
14C
330
2
100
AcDbEntity
  8
WIDOK
100
AcDbLine
 10
120244.2389720151
 20
37303.6938355005
 30
0.0
 11
120906.238972015
 21
37303.6938355005
 31
0.0
  0
LINE
  5
14D
330
2
100
AcDbEntity
  8
WIDOK
100
AcDbLine
 10
120239.238972015
 20
35723.6938355005
 30
0.0
 11
120811.238972015
 21
35723.6938355005
 31
0.0
  0
LINE
  5
14E
330
2
100
AcDbEntity
  8
WIDOK
100
AcDbLine
 10
120269.238972015
 20
35753.6938355005
 30
0.0
 11
120781.238972015
 21
35753.6938355005
 31
0.0
  0
DIMENSION
  5
14F
330
2
100
AcDbEntity
  8
WYMIARY
100
AcDbDimension
  2
*D19
 10
119981.238972015
 20
35536.76049999999
 30
0.0
 11
120549.7389720151
 21
35616.76050000002
 31
0.0
 70
     1
 71
     5
 42
1137.0
  3
500
100
AcDbAlignedDimension
 13
121118.238972015
 23
35953.69383550055
 33
0.0
 14
119981.238972015
 24
35953.6938355005
 34
0.0
  0
DIMENSION
  5
15A
330
2
100
AcDbEntity
  8
WYMIARY
100
AcDbDimension
  2
*D20
 10
120786.2389720151
 20
37440.17733657932
 30
0.0
 11
120525.2389720151
 21
37520.17733657932
 31
0.0
 71
     5
 42
522.0
  3
500
100
AcDbAlignedDimension
 13
120264.238972015
 23
37003.6938355005
 33
0.0
 14
120786.2389720151
 24
37003.6938355005
 34
0.0
 50
180.0
100
AcDbRotatedDimension
  0
ARC
  5
165
330
2
100
AcDbEntity
  8
WIDOK
100
AcDbCircle
 10
120906.238972015
 20
37003.6938355005
 30
0.0
 40
270.0
100
AcDbArc
 50
0.000000000000007
 51
90.0
  0
ARC
  5
166
330
2
100
AcDbEntity
  8
WIDOK
100
AcDbCircle
 10
120906.238972015
 20
37003.6938355005
 30
0.0
 40
300.0
100
AcDbArc
 50
0.000000000000007
 51
90.0
  0
LINE
  5
167
102
{ACAD_REACTORS
330
123
102
}
330
2
100
AcDbEntity
  8
SCIANY
 62
   140
100
AcDbLine
 10
121118.238972015
 20
36404.36793369267
 30
0.0
 11
121118.238972015
 21
35953.69383550055
 31
0.0
  0
DIMENSION
  5
168
330
2
100
AcDbEntity
  8
WYMIARY
100
AcDbDimension
  2
*D21
 10
121416.5612748604
 20
35953.69383550055
 30
0.0
 11
121336.5612748604
 21
36179.03088459664
 31
0.0
 71
     5
 42
450.6740981921175
  3
500
100
AcDbAlignedDimension
 13
121118.238972015
 23
36404.36793369267
 33
0.0
 14
121118.2389720151
 24
35953.69383550055
 34
0.0
 50
90.0
100
AcDbRotatedDimension
  0
DIMENSION
  5
173
330
2
100
AcDbEntity
  8
WYMIARY
100
AcDbDimension
  2
*D22
 10
121598.8171705389
 20
37003.6938355005
 30
0.0
 11
121518.8171705388
 21
36428.69383550052
 31
0.0
 70
     1
 71
     5
 42
1150.0
  3
500
100
AcDbAlignedDimension
 13
121460.5612748604
 23
35853.6938355005
 33
0.0
 14
121460.5612748604
 24
37003.6938355005
 34
0.0
  0
LINE
  5
17E
330
2
100
AcDbEntity
  8
WIDOK
100
AcDbLine
 10
120781.238972015
 20
35753.6938355005
 30
0.0
 11
120781.238972015
 21
35953.6938355005
 31
0.0
  0
LINE
  5
17F
330
2
100
AcDbEntity
  8
WIDOK
100
AcDbLine
 10
120811.238972015
 20
35723.6938355005
 30
0.0
 11
120811.238972015
 21
35953.6938355005
 31
0.0
  0
LINE
  5
180
102
{ACAD_REACTORS
330
123
102
}
330
2
100
AcDbEntity
  8
SCIANY
 62
   140
100
AcDbLine
 10
121076.7120600804
 20
36701.69383550051
 30
0.0
 11
121158.238972015
 21
36620.16692356592
 31
0.0
  0
LINE
  5
181
102
{ACAD_REACTORS
330
123
102
}
330
2
100
AcDbEntity
  8
SCIANY
 62
   140
100
AcDbLine
 10
121158.238972015
 20
36620.16692356592
 30
0.0
 11
121158.238972015
 21
36529.22074743518
 31
0.0
  0
LINE
  5
182
102
{ACAD_REACTORS
330
123
102
}
330
2
100
AcDbEntity
  8
SCIANY
 62
   140
100
AcDbLine
 10
121058.238972015
 20
36429.22074743503
 30
0.0
 11
121158.238972015
 21
36529.22074743518
 31
0.0
  0
LINE
  5
183
102
{ACAD_REACTORS
330
123
102
}
330
2
100
AcDbEntity
  8
SCIANY
 62
   140
100
AcDbLine
 10
121058.238972015
 20
36429.22074743503
 30
0.0
 11
121058.238972015
 21
36013.69383550054
 31
0.0
  0
LINE
  5
184
102
{ACAD_REACTORS
330
123
102
}
330
2
100
AcDbEntity
  8
SCIANY
 62
   140
100
AcDbLine
 10
121118.238972015
 20
36404.36793369267
 30
0.0
 11
121218.238972015
 21
36504.36793369284
 31
0.0
  0
LINE
  5
185
102
{ACAD_REACTORS
330
123
102
}
330
2
100
AcDbEntity
  8
SCIANY
 62
   140
100
AcDbLine
 10
121218.238972015
 20
36645.01973730831
 30
0.0
 11
121218.238972015
 21
36504.36793369284
 31
0.0
  0
LINE
  5
186
102
{ACAD_REACTORS
330
123
102
}
330
2
100
AcDbEntity
  8
SCIANY
 62
   140
100
AcDbLine
 10
121101.5648738228
 20
36761.69383550051
 30
0.0
 11
121218.238972015
 21
36645.01973730831
 31
0.0
  0
LINE
  5
187
102
{ACAD_REACTORS
330
123
102
}
330
2
100
AcDbEntity
  8
SCIANY
 62
   140
100
AcDbLine
 10
121101.5648738228
 20
36761.69383550051
 30
0.0
 11
120786.2389720151
 21
36761.6938355005
 31
0.0
  0
LINE
  5
188
102
{ACAD_REACTORS
330
123
102
}
330
2
100
AcDbEntity
  8
SCIANY
 62
   140
100
AcDbLine
 10
120786.2389720151
 20
37003.6938355005
 30
0.0
 11
120786.2389720151
 21
36761.6938355005
 31
0.0
  0
HATCH
  5
189
330
2
100
AcDbEntity
  8
0Hatch
100
AcDbHatch
 10
0.0
 20
0.0
 30
0.0
210
0.0
220
0.0
230
1.0
  2
SOLID
 70
     1
 71
     1
 91
        1
 92
        7
 72
     0
 73
     1
 93
        4
 10
121103.5610986759
 20
36891.6938355005
 10
121053.5610986759
 20
36891.6938355005
 10
121053.5610986759
 20
36841.6938355005
 10
121103.5610986759
 20
36841.6938355005
 97
        1
330
18A
 75
     0
 76
     1
 47
1.429233955803178
 98
        1
 10
121089.5041868721
 20
36856.65859691953
1001
ACAD
1010
0.0
1020
0.0
1030
0.0
  0
LWPOLYLINE
  5
18A
102
{ACAD_REACTORS
330
189
102
}
330
2
100
AcDbEntity
  8
SCIANY
 62
   140
100
AcDbPolyline
 90
        4
 70
     1
 43
0.0
 10
121053.5610986759
 20
36841.6938355005
 10
121103.5610986759
 20
36841.6938355005
 10
121103.5610986759
 20
36891.6938355005
 10
121053.5610986759
 20
36891.6938355005
  0
LINE
  5
18B
330
2
100
AcDbEntity
  8
WIDOK
100
AcDbLine
 10
121176.238972015
 20
36687.01973730831
 30
0.0
 11
121176.238972015
 21
37003.6938355005
 31
0.0
  0
LINE
  5
18C
330
2
100
AcDbEntity
  8
WIDOK
100
AcDbLine
 10
121206.2389720151
 20
36657.01973730831
 30
0.0
 11
121206.2389720151
 21
37003.6938355005
 31
0.0
  0
DIMENSION
  5
18D
330
2
100
AcDbEntity
  8
WYMIARY
100
AcDbDimension
  2
*D23
 10
121416.5612748604
 20
36761.6938355005
 30
0.0
 11
121336.5612748604
 21
36882.69383550052
 31
0.0
 70
     1
 71
     5
 42
242.0
  3
500
100
AcDbAlignedDimension
 13
120786.2389720151
 23
37003.6938355005
 33
0.0
 14
120786.2389720151
 24
36761.6938355005
 34
0.0
  0
DIMENSION
  5
198
330
2
100
AcDbEntity
  8
WYMIARY
100
AcDbDimension
  2
*D24
 10
121416.5612748604
 20
36404.36793369267
 30
0.0
 11
121336.5612748604
 21
36583.03088459661
 31
0.0
 71
     5
 42
357.3259018078243
  3
500
100
AcDbAlignedDimension
 13
120786.2389720151
 23
36761.6938355005
 33
0.0
 14
121118.238972015
 24
36404.36793369267
 34
0.0
 50
90.0
100
AcDbRotatedDimension
  0
ARC
  5
1A3
330
2
100
AcDbEntity
  8
WIDOK
100
AcDbCircle
 10
120244.2389720151
 20
37003.6938355005
 30
0.0
 40
300.0
100
AcDbArc
 50
90.0
 51
180.0
  0
DIMENSION
  5
1A4
330
2
100
AcDbEntity
  8
WYMIARY
100
AcDbDimension
  2
*D25
 10
119932.238972015
 20
37440.17733657932
 30
0.0
 11
119758.238972015
 21
37520.17733657932
 31
0.0
 70
     1
 71
     5
 42
348.0
  3
500
100
AcDbAlignedDimension
 13
119584.238972015
 23
36543.71722825269
 33
0.0
 14
119932.238972015
 24
36543.71722825269
 34
0.0
  0
DIMENSION
  5
1AF
330
2
100
AcDbEntity
  8
WYMIARY
100
AcDbDimension
  2
*D26
 10
120264.238972015
 20
37440.17733657932
 30
0.0
 11
120098.238972015
 21
37520.17733657932
 31
0.0
 71
     5
 42
332.0
  3
500
100
AcDbAlignedDimension
 13
119932.238972015
 23
36543.71722825269
 33
0.0
 14
120264.238972015
 24
37003.6938355005
 34
0.0
 50
180.0
100
AcDbRotatedDimension
  0
ARC
  5
1BA
330
2
100
AcDbEntity
  8
WIDOK
100
AcDbCircle
 10
120244.2389720151
 20
37003.6938355005
 30
0.0
 40
270.0
100
AcDbArc
 50
90.0
 51
180.0
  0
LINE
  5
1BB
102
{ACAD_REACTORS
330
123
102
}
330
2
100
AcDbEntity
  8
SCIANY
 62
   140
100
AcDbLine
 10
119584.238972015
 20
36543.71722825269
 30
0.0
 11
119584.238972015
 21
35868.71722825269
 31
0.0
  0
LINE
  5
1BC
102
{ACAD_REACTORS
330
123
102
}
330
2
100
AcDbEntity
  8
SCIANY
 62
   140
100
AcDbLine
 10
119644.238972015
 20
36483.71722825269
 30
0.0
 11
119644.238972015
 21
35868.71722825269
 31
0.0
  0
DIMENSION
  5
1BD
330
2
100
AcDbEntity
  8
WYMIARY
100
AcDbDimension
  2
*D27
 10
119432.4082036059
 20
36543.71722825269
 30
0.0
 11
119352.4082036059
 21
36206.21722825271
 31
0.0
 70
     1
 71
     5
 42
675.0
  3
500
100
AcDbAlignedDimension
 13
119545.1734615404
 23
35868.71722825269
 33
0.0
 14
119545.1734615404
 24
36543.71722825269
 34
0.0
  0
LINE
  5
1C8
102
{ACAD_REACTORS
330
123
102
}
330
2
100
AcDbEntity
  8
SCIANY
 62
   140
100
AcDbLine
 10
120600.238972015
 20
36013.69383550048
 30
0.0
 11
120600.238972015
 21
35953.6938355005
 31
0.0
  0
HATCH
  5
1C9
330
2
100
AcDbEntity
  8
0Hatch
100
AcDbHatch
 10
0.0
 20
0.0
 30
0.0
210
0.0
220
0.0
230
1.0
  2
SOLID
 70
     1
 71
     1
 91
        1
 92
        7
 72
     0
 73
     1
 93
        8
 10
120450.2389720151
 20
35953.6938355005
 10
120450.2389720151
 20
36013.6938355005
 10
119921.238972015
 20
36013.69383550048
 10
119921.238972015
 20
35928.71722825269
 10
119896.238972015
 20
35928.71722825269
 10
119896.238972015
 20
35868.71722825269
 10
119981.238972015
 20
35868.71722825269
 10
119981.238972015
 20
35953.69383550051
 97
        8
330
20C
330
1CA
330
1DD
330
1DB
330
1DA
330
1D9
330
1D8
330
1DC
 75
     0
 76
     1
 47
2.380212845851699
 98
        1
 10
120214.3163878909
 20
35979.83501902635
1001
ACAD
1010
0.0
1020
0.0
1030
0.0
  0
LINE
  5
1CA
102
{ACAD_REACTORS
330
1C9
102
}
330
2
100
AcDbEntity
  8
SCIANY
 62
   140
100
AcDbLine
 10
120450.2389720151
 20
36013.6938355005
 30
0.0
 11
120450.2389720151
 21
35953.6938355005
 31
0.0
  0
LINE
  5
1CB
330
2
100
AcDbEntity
  8
WIDOK
100
AcDbLine
 10
119896.238972015
 20
35868.71722825269
 30
0.0
 11
119644.238972015
 21
35868.71722825269
 31
0.0
  0
DIMENSION
  5
1CC
330
2
100
AcDbEntity
  8
WYMIARY
100
AcDbDimension
  2
*D28
 10
119584.238972015
 20
35536.76049999999
 30
0.0
 11
119782.738972015
 21
35616.76049999999
 31
0.0
 71
     5
 42
397.0
  3
500
100
AcDbAlignedDimension
 13
119981.238972015
 23
35953.6938355005
 33
0.0
 14
119584.238972015
 24
35868.71722825269
 34
0.0
 50
0.000000000000007
100
AcDbRotatedDimension
  0
LINE
  5
1D7
330
2
100
AcDbEntity
  8
WIDOK
100
AcDbLine
 10
119896.238972015
 20
35928.71722825269
 30
0.0
 11
119644.238972015
 21
35928.71722825269
 31
0.0
  0
LINE
  5
1D8
102
{ACAD_REACTORS
330
1C9
102
}
330
2
100
AcDbEntity
  8
SCIANY
 62
   140
100
AcDbLine
 10
119896.238972015
 20
35928.71722825269
 30
0.0
 11
119921.238972015
 21
35928.71722825269
 31
0.0
  0
LINE
  5
1D9
102
{ACAD_REACTORS
330
1C9
102
}
330
2
100
AcDbEntity
  8
SCIANY
 62
   140
100
AcDbLine
 10
119896.238972015
 20
35868.71722825269
 30
0.0
 11
119896.238972015
 21
35928.71722825269
 31
0.0
  0
LINE
  5
1DA
102
{ACAD_REACTORS
330
1C9
102
}
330
2
100
AcDbEntity
  8
SCIANY
 62
   140
100
AcDbLine
 10
119896.238972015
 20
35868.71722825269
 30
0.0
 11
119981.238972015
 21
35868.71722825269
 31
0.0
  0
LINE
  5
1DB
102
{ACAD_REACTORS
330
1C9
102
}
330
2
100
AcDbEntity
  8
SCIANY
 62
   140
100
AcDbLine
 10
119981.238972015
 20
35953.6938355005
 30
0.0
 11
119981.238972015
 21
35868.71722825269
 31
0.0
  0
LINE
  5
1DC
102
{ACAD_REACTORS
330
1C9
102
}
330
2
100
AcDbEntity
  8
SCIANY
 62
   140
100
AcDbLine
 10
119921.238972015
 20
36013.69383550049
 30
0.0
 11
119921.238972015
 21
35928.71722825269
 31
0.0
  0
LINE
  5
1DD
102
{ACAD_REACTORS
330
1C9
102
}
330
2
100
AcDbEntity
  8
SCIANY
 62
   140
100
AcDbLine
 10
119981.238972015
 20
35953.6938355005
 30
0.0
 11
120450.2389720151
 21
35953.6938355005
 31
0.0
  0
HATCH
  5
1DE
330
2
100
AcDbEntity
  8
0Hatch
100
AcDbHatch
 10
0.0
 20
0.0
 30
0.0
210
0.0
220
0.0
230
1.0
  2
SOLID
 70
     1
 71
     1
 91
        1
 92
        7
 72
     0
 73
     1
 93
        4
 10
120315.238972015
 20
35890.6938355005
 10
120315.238972015
 20
35853.6938355005
 10
120375.238972015
 20
35853.6938355005
 10
120375.238972015
 20
35890.6938355005
 97
        4
330
1DF
330
1E2
330
1E1
330
1E0
 75
     0
 76
     1
 47
1.622211171513581
 98
        1
 10
120342.2581604202
 20
35877.85197352909
1001
ACAD
1010
0.0
1020
0.0
1030
0.0
  0
LINE
  5
1DF
102
{ACAD_REACTORS
330
1DE
102
}
330
2
100
AcDbEntity
  8
SCIANY
 62
   140
100
AcDbLine
 10
120315.238972015
 20
35890.6938355005
 30
0.0
 11
120375.238972015
 21
35890.6938355005
 31
0.0
  0
LINE
  5
1E0
102
{ACAD_REACTORS
330
1DE
102
}
330
2
100
AcDbEntity
  8
SCIANY
 62
   140
100
AcDbLine
 10
120315.238972015
 20
35853.6938355005
 30
0.0
 11
120315.238972015
 21
35890.6938355005
 31
0.0
  0
LINE
  5
1E1
102
{ACAD_REACTORS
330
1DE
102
}
330
2
100
AcDbEntity
  8
SCIANY
 62
   140
100
AcDbLine
 10
120315.238972015
 20
35853.6938355005
 30
0.0
 11
120375.238972015
 21
35853.6938355005
 31
0.0
  0
LINE
  5
1E2
102
{ACAD_REACTORS
330
1DE
102
}
330
2
100
AcDbEntity
  8
SCIANY
 62
   140
100
AcDbLine
 10
120375.238972015
 20
35853.6938355005
 30
0.0
 11
120375.238972015
 21
35890.6938355005
 31
0.0
  0
HATCH
  5
1E3
330
2
100
AcDbEntity
  8
0Hatch
100
AcDbHatch
 10
0.0
 20
0.0
 30
0.0
210
0.0
220
0.0
230
1.0
  2
SOLID
 70
     1
 71
     1
 91
        1
 92
        7
 72
     0
 73
     1
 93
        4
 10
120735.238972015
 20
35853.6938355005
 10
120735.238972015
 20
35890.6938355005
 10
120675.238972015
 20
35890.6938355005
 10
120675.238972015
 20
35853.6938355005
 97
        4
330
1E9
330
1E8
330
1EA
330
1E4
 75
     0
 76
     1
 47
1.622211171513581
 98
        1
 10
120705.9149448119
 20
35868.11871119813
1001
ACAD
1010
0.0
1020
0.0
1030
0.0
  0
LINE
  5
1E4
102
{ACAD_REACTORS
330
1E3
102
}
330
2
100
AcDbEntity
  8
SCIANY
 62
   140
100
AcDbLine
 10
120675.238972015
 20
35853.6938355005
 30
0.0
 11
120675.238972015
 21
35890.6938355005
 31
0.0
  0
LINE
  5
1E5
330
2
100
AcDbEntity
  8
WIDOK
100
AcDbLine
 10
120239.238972015
 20
35723.6938355005
 30
0.0
 11
120239.238972015
 21
35953.6938355005
 31
0.0
  0
LINE
  5
1E6
330
2
100
AcDbEntity
  8
WIDOK
100
AcDbLine
 10
120269.238972015
 20
35753.6938355005
 30
0.0
 11
120269.238972015
 21
35953.6938355005
 31
0.0
  0
LINE
  5
1E7
330
2
100
AcDbEntity
  8
WIDOK
100
AcDbLine
 10
120600.238972015
 20
35953.6938355005
 30
0.0
 11
120450.2389720151
 21
35953.6938355005
 31
0.0
  0
LINE
  5
1E8
102
{ACAD_REACTORS
330
1E3
102
}
330
2
100
AcDbEntity
  8
SCIANY
 62
   140
100
AcDbLine
 10
120735.238972015
 20
35853.6938355005
 30
0.0
 11
120735.238972015
 21
35890.6938355005
 31
0.0
  0
LINE
  5
1E9
102
{ACAD_REACTORS
330
1E3
102
}
330
2
100
AcDbEntity
  8
SCIANY
 62
   140
100
AcDbLine
 10
120675.238972015
 20
35890.6938355005
 30
0.0
 11
120735.238972015
 21
35890.6938355005
 31
0.0
  0
LINE
  5
1EA
102
{ACAD_REACTORS
330
1E3
102
}
330
2
100
AcDbEntity
  8
SCIANY
 62
   140
100
AcDbLine
 10
120675.238972015
 20
35853.6938355005
 30
0.0
 11
120735.238972015
 21
35853.6938355005
 31
0.0
  0
LINE
  5
1EB
102
{ACAD_REACTORS
330
123
102
}
330
2
100
AcDbEntity
  8
SCIANY
 62
   140
100
AcDbLine
 10
119584.238972015
 20
35868.71722825269
 30
0.0
 11
119646.238972015
 21
35868.71722825269
 31
0.0
  0
LINE
  5
1EC
102
{ACAD_REACTORS
330
123
102
}
330
2
100
AcDbEntity
  8
SCIANY
 62
   140
100
AcDbLine
 10
119584.238972015
 20
36543.71722825269
 30
0.0
 11
119932.238972015
 21
36543.71722825269
 31
0.0
  0
LINE
  5
1ED
102
{ACAD_REACTORS
330
123
102
}
330
2
100
AcDbEntity
  8
SCIANY
 62
   140
100
AcDbLine
 10
119644.238972015
 20
36483.71722825269
 30
0.0
 11
119992.238972015
 21
36483.71722825269
 31
0.0
  0
DIMENSION
  5
1EE
330
2
100
AcDbEntity
  8
WYMIARY
100
AcDbDimension
  2
*D29
 10
119432.4082036059
 20
36903.6938355005
 30
0.0
 11
119352.4082036059
 21
36723.70553187662
 31
0.0
 71
     5
 42
359.9766072478087
  3
500
100
AcDbAlignedDimension
 13
119545.1734615404
 23
36543.71722825269
 33
0.0
 14
119893.1734615404
 24
36903.6938355005
 34
0.0
 50
270.0
100
AcDbRotatedDimension
  0
DIMENSION
  5
1F9
330
2
100
AcDbEntity
  8
WYMIARY
100
AcDbDimension
  2
*D30
 10
119432.4082036059
 20
37003.6938355005
 30
0.0
 11
119352.4082036059
 21
36953.69383550052
 31
0.0
 71
     5
 42
100.0
  3
500
100
AcDbAlignedDimension
 13
119893.1734615404
 23
36903.6938355005
 33
0.0
 14
120225.1734615404
 24
37003.6938355005
 34
0.0
 50
270.0
100
AcDbRotatedDimension
  0
LINE
  5
206
102
{ACAD_REACTORS
330
123
102
}
330
2
100
AcDbEntity
  8
SCIANY
 62
   140
100
AcDbLine
 10
120264.238972015
 20
37003.6938355005
 30
0.0
 11
120264.238972015
 21
36903.6938355005
 31
0.0
  0
LINE
  5
207
102
{ACAD_REACTORS
330
123
102
}
330
2
100
AcDbEntity
  8
SCIANY
 62
   140
100
AcDbLine
 10
119932.238972015
 20
36903.6938355005
 30
0.0
 11
120264.238972015
 21
36903.6938355005
 31
0.0
  0
LINE
  5
208
102
{ACAD_REACTORS
330
123
102
}
330
2
100
AcDbEntity
  8
SCIANY
 62
   140
100
AcDbLine
 10
119932.238972015
 20
36903.6938355005
 30
0.0
 11
119932.238972015
 21
36543.71722825269
 31
0.0
  0
LINE
  5
209
102
{ACAD_REACTORS
330
123
102
}
330
2
100
AcDbEntity
  8
SCIANY
 62
   140
100
AcDbLine
 10
119992.238972015
 20
36843.6938355005
 30
0.0
 11
119992.238972015
 21
36483.71722825269
 31
0.0
  0
LINE
  5
20A
102
{ACAD_REACTORS
330
123
102
}
330
2
100
AcDbEntity
  8
SCIANY
 62
   140
100
AcDbLine
 10
119992.238972015
 20
36843.6938355005
 30
0.0
 11
120324.238972015
 21
36843.6938355005
 31
0.0
  0
LINE
  5
20B
102
{ACAD_REACTORS
330
123
102
}
330
2
100
AcDbEntity
  8
SCIANY
 62
   140
100
AcDbLine
 10
120324.238972015
 20
36943.6938355005
 30
0.0
 11
120324.238972015
 21
36843.6938355005
 31
0.0
  0
LINE
  5
20C
102
{ACAD_REACTORS
330
1C9
102
}
330
2
100
AcDbEntity
  8
SCIANY
 62
   140
100
AcDbLine
 10
119921.238972015
 20
36013.69383550049
 30
0.0
 11
120450.2389720151
 21
36013.6938355005
 31
0.0
  0
LINE
  5
20D
330
2
100
AcDbEntity
  8
SCIANY
 62
   140
100
AcDbLine
 10
120264.238972015
 20
36903.6938355005
 30
0.0
 11
120264.238972015
 21
36903.6938355005
 31
0.0
  0
LINE
  5
20E
330
2
100
AcDbEntity
  8
WIDOK
100
AcDbLine
 10
119974.238972015
 20
36903.6938355005
 30
0.0
 11
119974.238972015
 21
37003.6938355005
 31
0.0
  0
LINE
  5
20F
330
2
100
AcDbEntity
  8
WIDOK
100
AcDbLine
 10
119944.238972015
 20
36903.6938355005
 30
0.0
 11
119944.238972015
 21
37003.6938355005
 31
0.0
  0
LINE
  5
210
330
2
100
AcDbEntity
  8
WIDOK
100
AcDbLine
 10
120600.238972015
 20
36013.6938355005
 30
0.0
 11
120450.2389720151
 21
36013.6938355005
 31
0.0
  0
LINE
  5
211
102
{ACAD_REACTORS
330
123
102
}
330
2
100
AcDbEntity
  8
SCIANY
 62
   140
100
AcDbLine
 10
120726.238972015
 20
36943.69383550048
 30
0.0
 11
120726.238972015
 21
36701.6938355005
 31
0.0
  0
LINE
  5
212
102
{ACAD_REACTORS
330
123
102
}
330
2
100
AcDbEntity
  8
SCIANY
 62
   140
100
AcDbLine
 10
120324.238972015
 20
36943.6938355005
 30
0.0
 11
120726.238972015
 21
36943.69383550048
 31
0.0
  0
ENDSEC
  0
SECTION
  2
OBJECTS
  0
DICTIONARY
  5
B
330
0
100
AcDbDictionary
281
     1
  3
ACAD_COLOR
350
234
  3
ACAD_GROUP
350
22F
  3
ACAD_LAYOUT
350
215
  3
ACAD_MATERIAL
350
D
  3
ACAD_MLINESTYLE
350
230
  3
ACAD_PLOTSETTINGS
350
231
  3
ACAD_PLOTSTYLENAME
350
A
  3
ACAD_SCALELIST
350
235
  3
ACAD_TABLESTYLE
350
236
  3
ACAD_VISUALSTYLE
350
218
  3
ACDB_RECOMPOSE_DATA
350
26A
  3
AcDbVariableDictionary
350
25F
  3
DWGPROPS
350
26B
  0
DICTIONARY
  5
21F
330
21E
100
AcDbDictionary
280
     1
281
     1
  3
ACAD_LAYERSTATES
360
220
  0
DICTIONARY
  5
7
330
6
100
AcDbDictionary
280
     1
281
     1
  3
ADSK_XREC_LAYER_RECONCILED
360
8
  0
DICTIONARY
  5
53
330
52
100
AcDbDictionary
280
     1
281
     1
  3
ADSK_XREC_LAYER_RECONCILED
360
54
  0
DICTIONARY
  5
1B
330
1A
100
AcDbDictionary
280
     1
281
     1
  3
ADSK_XREC_LAYER_RECONCILED
360
1C
  0
DICTIONARY
  5
1F
330
1E
100
AcDbDictionary
280
     1
281
     1
  3
ADSK_XREC_LAYER_RECONCILED
360
20
  0
DICTIONARY
  5
11
330
10
100
AcDbDictionary
280
     1
281
     1
  3
ADSK_XREC_LAYER_RECONCILED
360
12
  0
DICTIONARY
  5
11A
330
119
100
AcDbDictionary
280
     1
281
     1
  3
ADSK_XREC_LAYER_RECONCILED
360
11B
  0
DICTIONARY
  5
3
330
2
100
AcDbDictionary
280
     1
281
     1
  3
ACAD_SORTENTS
360
25E
  0
DICTIONARY
  5
28
330
27
100
AcDbDictionary
280
     1
281
     1
  3
ACAD_SORTENTS
360
25D
  0
DICTIONARY
  5
234
102
{ACAD_REACTORS
330
B
102
}
330
B
100
AcDbDictionary
281
     1
  0
DICTIONARY
  5
22F
102
{ACAD_REACTORS
330
B
102
}
330
B
100
AcDbDictionary
281
     1
  0
DICTIONARY
  5
215
102
{ACAD_REACTORS
330
B
102
}
330
B
100
AcDbDictionary
281
     1
  3
Layout1
350
21D
  3
Model
350
214
  0
DICTIONARY
  5
D
102
{ACAD_REACTORS
330
B
102
}
330
B
100
AcDbDictionary
281
     1
  3
ByBlock
350
233
  3
ByLayer
350
232
  3
Global
350
C
  0
DICTIONARY
  5
230
102
{ACAD_REACTORS
330
B
102
}
330
B
100
AcDbDictionary
281
     1
  3
Standard
350
237
  0
DICTIONARY
  5
231
102
{ACAD_REACTORS
330
B
102
}
330
B
100
AcDbDictionary
281
     1
  0
ACDBDICTIONARYWDFLT
  5
A
102
{ACAD_REACTORS
330
B
102
}
330
B
100
AcDbDictionary
281
     1
  3
Normal
350
9
100
AcDbDictionaryWithDefault
340
9
  0
DICTIONARY
  5
235
102
{ACAD_REACTORS
330
B
102
}
330
B
100
AcDbDictionary
281
     1
  3
A0
350
23C
  3
A1
350
23D
  3
A2
350
23E
  3
A3
350
23F
  3
A4
350
240
  3
A5
350
241
  3
A6
350
242
  3
A7
350
243
  3
A8
350
244
  3
A9
350
245
  3
B0
350
246
  3
B1
350
247
  3
B2
350
248
  3
B3
350
249
  3
B4
350
24A
  3
B5
350
24B
  3
B6
350
24C
  3
B7
350
24D
  3
B8
350
24E
  3
B9
350
24F
  3
C0
350
250
  3
C1
350
251
  3
C2
350
252
  3
C3
350
253
  3
C4
350
254
  3
C5
350
255
  3
C6
350
256
  3
C7
350
257
  3
C8
350
258
  3
C9
350
259
  3
D0
350
25A
  3
D1
350
25B
  3
D2
350
25C
  0
DICTIONARY
  5
236
102
{ACAD_REACTORS
330
B
102
}
330
B
100
AcDbDictionary
281
     1
  3
Standard
350
238
  0
DICTIONARY
  5
218
102
{ACAD_REACTORS
330
B
102
}
330
B
100
AcDbDictionary
281
     1
  3
2dWireframe
350
217
  3
3dWireframe
350
23B
  3
Realistic
350
23A
  0
XRECORD
  5
26A
102
{ACAD_REACTORS
330
B
102
}
330
B
100
AcDbXrecord
280
     1
 90
        1
330
238
  0
DICTIONARY
  5
25F
102
{ACAD_REACTORS
330
B
102
}
330
B
100
AcDbDictionary
281
     1
  3
CANNOSCALE
350
263
  3
CMLEADERSTYLE
350
261
  3
CTABLESTYLE
350
260
  3
DIMASSOC
350
267
  3
HIDETEXT
350
266
  3
INDEXCTL
350
265
  3
MSLTSCALE
350
262
  3
SORTENTS
350
264
  0
XRECORD
  5
26B
102
{ACAD_REACTORS
330
B
102
}
330
B
100
AcDbXrecord
280
     1
  1
DWGPROPS COOKIE
  2

  3

  4

  6

  7

  8
magdalena.jozwik
  9

300
=
301
=
302
=
303
=
304
=
305
=
306
=
307
=
308
=
309
=
 40
8.464792025462962
 41
2452027.670547454
 42
2454985.601471887
  1

 90
        0
  0
DICTIONARY
  5
220
102
{ACAD_REACTORS
330
21F
102
}
330
21F
100
AcDbDictionary
281
     1
  0
XRECORD
  5
8
102
{ACAD_REACTORS
330
7
102
}
330
7
100
AcDbXrecord
280
     1
290
     1
  0
XRECORD
  5
54
102
{ACAD_REACTORS
330
53
102
}
330
53
100
AcDbXrecord
280
     1
290
     1
  0
XRECORD
  5
1C
102
{ACAD_REACTORS
330
1B
102
}
330
1B
100
AcDbXrecord
280
     1
290
     1
  0
XRECORD
  5
20
102
{ACAD_REACTORS
330
1F
102
}
330
1F
100
AcDbXrecord
280
     1
290
     1
  0
XRECORD
  5
12
102
{ACAD_REACTORS
330
11
102
}
330
11
100
AcDbXrecord
280
     1
290
     1
  0
XRECORD
  5
11B
102
{ACAD_REACTORS
330
11A
102
}
330
11A
100
AcDbXrecord
280
     1
290
     1
  0
SORTENTSTABLE
  5
25E
102
{ACAD_REACTORS
330
3
102
}
330
3
100
AcDbSortentsTable
330
2
331
110
  5
116
331
6F
  5
70
331
8B
  5
8C
331
10C
  5
112
331
EF
  5
10B
331
55
  5
56
331
E4
  5
E9
331
10A
  5
110
331
ED
  5
FD
331
89
  5
8A
331
E2
  5
E5
331
94
  5
A0
331
D3
  5
E0
331
F2
  5
10E
331
7C
  5
87
331
FD
  5
10F
331
87
  5
88
331
51
  5
55
331
E0
  5
E3
331
AC
  5
C2
331
EB
  5
F1
331
92
  5
94
331
D1
  5
DE
331
122
  5
D3
331
117
  5
121
331
B7
  5
C3
331
1D
  5
38
331
F0
  5
10C
331
DE
  5
E1
331
4F
  5
50
331
90
  5
91
331
E9
  5
EF
331
120
  5
93
331
C4
  5
D0
331
115
  5
11F
331
8E
  5
8F
331
58
  5
63
331
E7
  5
EC
331
11E
  5
E8
331
C2
  5
C4
331
113
  5
11C
331
10F
  5
115
331
19
  5
1D
331
E5
  5
EA
331
11C
  5
19
331
111
  5
117
331
8C
  5
8D
331
56
  5
57
331
10D
  5
113
331
70
  5
71
331
63
  5
6E
331
E3
  5
E7
331
8A
  5
8B
331
6E
  5
6F
331
10B
  5
111
331
95
  5
AB
331
EE
  5
10A
331
E1
  5
E4
331
118
  5
122
331
D2
  5
DF
331
38
  5
43
331
93
  5
95
331
EC
  5
F2
331
88
  5
89
331
DF
  5
E2
331
116
  5
120
331
C5
  5
D1
331
A0
  5
AC
331
F1
  5
10D
331
121
  5
E6
331
D0
  5
D2
331
AB
  5
B7
331
91
  5
92
331
EA
  5
F0
331
50
  5
51
331
43
  5
4E
331
C3
  5
C5
331
114
  5
11E
331
11F
  5
ED
331
8F
  5
90
331
E8
  5
EE
331
4E
  5
4F
331
112
  5
118
331
71
  5
7C
331
8D
  5
8E
331
10E
  5
114
331
57
  5
58
331
E6
  5
EB
  0
SORTENTSTABLE
  5
25D
102
{ACAD_REACTORS
330
28
102
}
330
28
100
AcDbSortentsTable
330
27
  0
LAYOUT
  5
21D
102
{ACAD_XDICTIONARY
360
270
102
}
102
{ACAD_REACTORS
330
215
102
}
330
215
100
AcDbPlotSettings
  1

  2
C:\PROGRAM FILES\AUTOCAD LT 2000\plotters\DWF ePlot.pc3
  4

  6

 40
0.0
 41
0.0
 42
0.0
 43
0.0
 44
0.0
 45
0.0
 46
0.0
 47
0.0
 48
0.0
 49
0.0
140
0.0
141
0.0
142
1.0
143
1.0
 70
   688
 72
     0
 73
     0
 74
     5
  7
100.ctb
 75
    16
147
1.0
148
0.0
149
0.0
100
AcDbLayout
  1
Layout1
 70
     1
 71
     1
 10
0.0
 20
0.0
 11
420.0
 21
297.0
 12
0.0
 22
0.0
 32
0.0
 14
1.000000000000000E+20
 24
1.000000000000000E+20
 34
1.000000000000000E+20
 15
-1.000000000000000E+20
 25
-1.000000000000000E+20
 35
-1.000000000000000E+20
146
0.0
 13
0.0
 23
0.0
 33
0.0
 16
1.0
 26
0.0
 36
0.0
 17
0.0
 27
1.0
 37
0.0
 76
     0
330
21A
  0
LAYOUT
  5
214
102
{ACAD_XDICTIONARY
360
26E
102
}
102
{ACAD_REACTORS
330
215
102
}
330
215
100
AcDbPlotSettings
  1

  2
PDFCreator
  4
A4
  6
DALIE_aneks
 40
3.174999952316284
 41
3.174999952316284
 42
3.175003051757812
 43
3.17498779296875
 44
209.8886566162109
 45
297.0530090332031
 46
0.0
 47
4.0
 48
113187.2022170536
 49
29517.51642521248
140
123387.2022170537
141
43537.51642521247
142
1.0
143
50.0
 70
 11952
 72
     1
 73
     0
 74
     4
  7
100.ctb
 75
    25
147
0.02
148
-113187.2022170536
149
-29517.51642521248
100
AcDbLayout
  1
Model
 70
     1
 71
     0
 10
0.0
 20
0.0
 11
12.0
 21
9.0
 12
0.0
 22
0.0
 32
0.0
 14
0.0
 24
0.0
 34
0.0
 15
0.0
 25
0.0
 35
0.0
146
0.0
 13
0.0
 23
0.0
 33
0.0
 16
1.0
 26
0.0
 36
0.0
 17
0.0
 27
1.0
 37
0.0
 76
     0
330
2
331
22A
1001
ACAD_PSEXT
1000
PDFCreator
1000
PDFCreator
1000
PDFCreator:
1000
eDoc Printer
1070
     0
  0
MATERIAL
  5
233
102
{ACAD_XDICTIONARY
360
274
102
}
102
{ACAD_REACTORS
330
D
102
}
330
D
100
AcDbMaterial
  1
ByBlock
 73
     1
 78
     1
172
     1
176
     1
270
     1
274
     1
  0
MATERIAL
  5
232
102
{ACAD_XDICTIONARY
360
272
102
}
102
{ACAD_REACTORS
330
D
102
}
330
D
100
AcDbMaterial
  1
ByLayer
 73
     1
 78
     1
172
     1
176
     1
270
     1
274
     1
  0
MATERIAL
  5
C
102
{ACAD_XDICTIONARY
360
26C
102
}
102
{ACAD_REACTORS
330
D
102
}
330
D
100
AcDbMaterial
  1
Global
 73
     1
 78
     1
172
     1
176
     1
270
     1
274
     1
  0
MLINESTYLE
  5
237
102
{ACAD_REACTORS
330
230
102
}
330
230
100
AcDbMlineStyle
  2
STANDARD
 70
     0
  3

 62
   256
 51
90.0
 52
90.0
 71
     2
 49
0.5
 62
   256
  6
BYLAYER
 49
-0.5
 62
   256
  6
BYLAYER
  0
ACDBPLACEHOLDER
  5
9
102
{ACAD_REACTORS
330
A
102
}
330
A
  0
SCALE
  5
23C
102
{ACAD_REACTORS
330
235
102
}
330
235
100
AcDbScale
 70
     0
300
1:1
140
1.0
141
1.0
290
     0
  0
SCALE
  5
23D
102
{ACAD_REACTORS
330
235
102
}
330
235
100
AcDbScale
 70
     0
300
1:2
140
1.0
141
2.0
290
     0
  0
SCALE
  5
23E
102
{ACAD_REACTORS
330
235
102
}
330
235
100
AcDbScale
 70
     0
300
1:4
140
1.0
141
4.0
290
     0
  0
SCALE
  5
23F
102
{ACAD_REACTORS
330
235
102
}
330
235
100
AcDbScale
 70
     0
300
1:5
140
1.0
141
5.0
290
     0
  0
SCALE
  5
240
102
{ACAD_REACTORS
330
235
102
}
330
235
100
AcDbScale
 70
     0
300
1:8
140
1.0
141
8.0
290
     0
  0
SCALE
  5
241
102
{ACAD_REACTORS
330
235
102
}
330
235
100
AcDbScale
 70
     0
300
1:10
140
1.0
141
10.0
290
     0
  0
SCALE
  5
242
102
{ACAD_REACTORS
330
235
102
}
330
235
100
AcDbScale
 70
     0
300
1:16
140
1.0
141
16.0
290
     0
  0
SCALE
  5
243
102
{ACAD_REACTORS
330
235
102
}
330
235
100
AcDbScale
 70
     0
300
1:20
140
1.0
141
20.0
290
     0
  0
SCALE
  5
244
102
{ACAD_REACTORS
330
235
102
}
330
235
100
AcDbScale
 70
     0
300
1:30
140
1.0
141
30.0
290
     0
  0
SCALE
  5
245
102
{ACAD_REACTORS
330
235
102
}
330
235
100
AcDbScale
 70
     0
300
1:40
140
1.0
141
40.0
290
     0
  0
SCALE
  5
246
102
{ACAD_REACTORS
330
235
102
}
330
235
100
AcDbScale
 70
     0
300
1:50
140
1.0
141
50.0
290
     0
  0
SCALE
  5
247
102
{ACAD_REACTORS
330
235
102
}
330
235
100
AcDbScale
 70
     0
300
1:100
140
1.0
141
100.0
290
     0
  0
SCALE
  5
248
102
{ACAD_REACTORS
330
235
102
}
330
235
100
AcDbScale
 70
     0
300
2:1
140
2.0
141
1.0
290
     0
  0
SCALE
  5
249
102
{ACAD_REACTORS
330
235
102
}
330
235
100
AcDbScale
 70
     0
300
4:1
140
4.0
141
1.0
290
     0
  0
SCALE
  5
24A
102
{ACAD_REACTORS
330
235
102
}
330
235
100
AcDbScale
 70
     0
300
8:1
140
8.0
141
1.0
290
     0
  0
SCALE
  5
24B
102
{ACAD_REACTORS
330
235
102
}
330
235
100
AcDbScale
 70
     0
300
10:1
140
10.0
141
1.0
290
     0
  0
SCALE
  5
24C
102
{ACAD_REACTORS
330
235
102
}
330
235
100
AcDbScale
 70
     0
300
100:1
140
100.0
141
1.0
290
     0
  0
SCALE
  5
24D
102
{ACAD_REACTORS
330
235
102
}
330
235
100
AcDbScale
 70
     0
300
1/128" = 1'-0"
140
0.0078125
141
12.0
290
     0
  0
SCALE
  5
24E
102
{ACAD_REACTORS
330
235
102
}
330
235
100
AcDbScale
 70
     0
300
1/64" = 1'-0"
140
0.015625
141
12.0
290
     0
  0
SCALE
  5
24F
102
{ACAD_REACTORS
330
235
102
}
330
235
100
AcDbScale
 70
     0
300
1/32" = 1'-0"
140
0.03125
141
12.0
290
     0
  0
SCALE
  5
250
102
{ACAD_REACTORS
330
235
102
}
330
235
100
AcDbScale
 70
     0
300
1/16" = 1'-0"
140
0.0625
141
12.0
290
     0
  0
SCALE
  5
251
102
{ACAD_REACTORS
330
235
102
}
330
235
100
AcDbScale
 70
     0
300
3/32" = 1'-0"
140
0.09375
141
12.0
290
     0
  0
SCALE
  5
252
102
{ACAD_REACTORS
330
235
102
}
330
235
100
AcDbScale
 70
     0
300
1/8" = 1'-0"
140
0.125
141
12.0
290
     0
  0
SCALE
  5
253
102
{ACAD_REACTORS
330
235
102
}
330
235
100
AcDbScale
 70
     0
300
3/16" = 1'-0"
140
0.1875
141
12.0
290
     0
  0
SCALE
  5
254
102
{ACAD_REACTORS
330
235
102
}
330
235
100
AcDbScale
 70
     0
300
1/4" = 1'-0"
140
0.25
141
12.0
290
     0
  0
SCALE
  5
255
102
{ACAD_REACTORS
330
235
102
}
330
235
100
AcDbScale
 70
     0
300
3/8" = 1'-0"
140
0.375
141
12.0
290
     0
  0
SCALE
  5
256
102
{ACAD_REACTORS
330
235
102
}
330
235
100
AcDbScale
 70
     0
300
1/2" = 1'-0"
140
0.5
141
12.0
290
     0
  0
SCALE
  5
257
102
{ACAD_REACTORS
330
235
102
}
330
235
100
AcDbScale
 70
     0
300
3/4" = 1'-0"
140
0.75
141
12.0
290
     0
  0
SCALE
  5
258
102
{ACAD_REACTORS
330
235
102
}
330
235
100
AcDbScale
 70
     0
300
1" = 1'-0"
140
1.0
141
12.0
290
     0
  0
SCALE
  5
259
102
{ACAD_REACTORS
330
235
102
}
330
235
100
AcDbScale
 70
     0
300
1-1/2" = 1'-0"
140
1.5
141
12.0
290
     0
  0
SCALE
  5
25A
102
{ACAD_REACTORS
330
235
102
}
330
235
100
AcDbScale
 70
     0
300
3" = 1'-0"
140
3.0
141
12.0
290
     0
  0
SCALE
  5
25B
102
{ACAD_REACTORS
330
235
102
}
330
235
100
AcDbScale
 70
     0
300
6" = 1'-0"
140
6.0
141
12.0
290
     0
  0
SCALE
  5
25C
102
{ACAD_REACTORS
330
235
102
}
330
235
100
AcDbScale
 70
     0
300
1'-0" = 1'-0"
140
12.0
141
12.0
290
     1
  0
TABLESTYLE
  5
238
102
{ACAD_XDICTIONARY
360
239
102
}
102
{ACAD_REACTORS
330
236
102
}
330
236
100
AcDbTableStyle
  3
Standard
 70
     0
 71
     0
 40
0.06
 41
0.06
280
     0
281
     0
  7
Standard
140
0.18
170
     2
 62
     0
 63
     7
283
     0
274
    -2
284
     1
 64
     0
275
    -2
285
     1
 65
     0
276
    -2
286
     1
 66
     0
277
    -2
287
     1
 67
     0
278
    -2
288
     1
 68
     0
279
    -2
289
     1
 69
     0
  7
Standard
140
0.25
170
     5
 62
     0
 63
     7
283
     0
274
    -2
284
     1
 64
     0
275
    -2
285
     1
 65
     0
276
    -2
286
     1
 66
     0
277
    -2
287
     1
 67
     0
278
    -2
288
     1
 68
     0
279
    -2
289
     1
 69
     0
  7
Standard
140
0.18
170
     5
 62
     0
 63
     7
283
     0
274
    -2
284
     1
 64
     0
275
    -2
285
     1
 65
     0
276
    -2
286
     1
 66
     0
277
    -2
287
     1
 67
     0
278
    -2
288
     1
 68
     0
279
    -2
289
     1
 69
     0
  0
VISUALSTYLE
  5
217
102
{ACAD_REACTORS
330
218
102
}
330
218
100
AcDbVisualStyle
  2
2dWireframe
 70
     4
 71
     0
 72
     2
 73
     0
 90
        0
 40
-0.6
 41
-30.0
 62
     5
 63
     7
 74
     1
 91
        4
 64
     7
 65
   257
 75
     1
175
     1
 42
1.0
 92
        0
 66
   257
 43
1.0
 76
     1
 77
     6
 78
     2
 67
     7
 79
     5
170
     0
171
     0
290
     0
174
     0
 93
        1
 44
0.0
173
     0
291
     0
 45
0.0
1001
ACAD
1000
AcDbSavedByObjectVersion
1070
     0
  0
VISUALSTYLE
  5
23B
102
{ACAD_REACTORS
330
218
102
}
330
218
100
AcDbVisualStyle
  2
3dWireframe
 70
     5
 71
     0
 72
     2
 73
     0
 90
        0
 40
-0.6
 41
-30.0
 62
     5
 63
     7
 74
     1
 91
        4
 64
     7
 65
   257
 75
     1
175
     1
 42
1.0
 92
        0
 66
   257
 43
1.0
 76
     1
 77
     6
 78
     2
 67
     7
 79
     5
170
     0
171
     0
290
     0
174
     0
 93
        1
 44
0.0
173
     0
291
     0
 45
0.0
1001
ACAD
1000
AcDbSavedByObjectVersion
1070
     0
  0
VISUALSTYLE
  5
23A
102
{ACAD_REACTORS
330
218
102
}
330
218
100
AcDbVisualStyle
  2
Realistic
 70
     8
 71
     2
 72
     2
 73
     0
 90
        0
 40
-0.6
 41
-30.0
 62
     5
 63
     7
 74
     1
 91
        0
 64
     7
 65
   257
 75
     1
175
     1
 42
1.0
 92
        8
 66
     8
 43
1.0
 76
     1
 77
     6
 78
     2
 67
     7
 79
     5
170
     0
171
     0
290
     0
174
     0
 93
       13
 44
0.0
173
     0
291
     0
 45
0.0
1001
ACAD
1000
AcDbSavedByObjectVersion
1070
     0
  0
DICTIONARYVAR
  5
263
102
{ACAD_REACTORS
330
25F
102
}
330
25F
100
DictionaryVariables
280
     0
  1
1/8" = 1'-0"
  0
DICTIONARYVAR
  5
261
102
{ACAD_REACTORS
330
25F
102
}
330
25F
100
DictionaryVariables
280
     0
  1
STANDARD
  0
DICTIONARYVAR
  5
260
102
{ACAD_REACTORS
330
25F
102
}
330
25F
100
DictionaryVariables
280
     0
  1
STANDARD
  0
DICTIONARYVAR
  5
267
102
{ACAD_REACTORS
330
25F
102
}
330
25F
100
DictionaryVariables
280
     0
  1
1
  0
DICTIONARYVAR
  5
266
102
{ACAD_REACTORS
330
25F
102
}
330
25F
100
DictionaryVariables
280
     0
  1
1
  0
DICTIONARYVAR
  5
265
102
{ACAD_REACTORS
330
25F
102
}
330
25F
100
DictionaryVariables
280
     0
  1
0
  0
DICTIONARYVAR
  5
262
102
{ACAD_REACTORS
330
25F
102
}
330
25F
100
DictionaryVariables
280
     0
  1
1
  0
DICTIONARYVAR
  5
264
102
{ACAD_REACTORS
330
25F
102
}
330
25F
100
DictionaryVariables
280
     0
  1
127
  0
DICTIONARY
  5
270
330
21D
100
AcDbDictionary
280
     1
281
     1
  3
ACAD_XREC_ROUNDTRIP
360
271
  0
DICTIONARY
  5
26E
330
214
100
AcDbDictionary
280
     1
281
     1
  3
ACAD_XREC_ROUNDTRIP
360
26F
  0
DICTIONARY
  5
274
330
233
100
AcDbDictionary
280
     1
281
     1
  3
ACAD_XREC_ROUNDTRIP
360
275
  0
DICTIONARY
  5
272
330
232
100
AcDbDictionary
280
     1
281
     1
  3
ACAD_XREC_ROUNDTRIP
360
273
  0
DICTIONARY
  5
26C
330
C
100
AcDbDictionary
280
     1
281
     1
  3
ACAD_XREC_ROUNDTRIP
360
26D
  0
DICTIONARY
  5
239
330
238
100
AcDbDictionary
280
     1
281
     1
  3
ACAD_ROUNDTRIP_2008_TABLESTYLE_CELLSTYLEMAP
360
269
  3
ACAD_XREC_ROUNDTRIP
360
276
  0
XRECORD
  5
271
102
{ACAD_REACTORS
330
270
102
}
330
270
100
AcDbXrecord
280
     1
102
SHADEPLOT
 70
     0
102
SHADEPLOTRESLEVEL
 70
     2
102
SHADEPLOTCUSTOMDPI
 70
   300
  0
XRECORD
  5
26F
102
{ACAD_REACTORS
330
26E
102
}
330
26E
100
AcDbXrecord
280
     1
102
SHADEPLOT
 70
     1
102
SHADEPLOTRESLEVEL
 70
     2
102
SHADEPLOTCUSTOMDPI
 70
   300
  0
XRECORD
  5
275
102
{ACAD_REACTORS
330
274
102
}
330
274
100
AcDbXrecord
280
     1
102
MATERIAL
148
0.0
149
0.0
149
0.0
 93
        0
 94
       63
282
     0
 72
     1
 77
     1
171
     1
175
     1
179
     1
273
     0
  0
XRECORD
  5
273
102
{ACAD_REACTORS
330
272
102
}
330
272
100
AcDbXrecord
280
     1
102
MATERIAL
148
0.0
149
0.0
149
0.0
 93
        0
 94
       63
282
     0
 72
     1
 77
     1
171
     1
175
     1
179
     1
273
     0
  0
XRECORD
  5
26D
102
{ACAD_REACTORS
330
26C
102
}
330
26C
100
AcDbXrecord
280
     1
102
MATERIAL
148
0.0
149
0.0
149
0.0
 93
        0
 94
       63
282
     0
 72
     1
 77
     1
171
     1
175
     1
179
     1
273
     0
  0
CELLSTYLEMAP
  5
269
102
{ACAD_REACTORS
330
239
102
}
330
239
100
AcDbCellStyleMap
 90
        3
300
CELLSTYLE
  1
TABLEFORMAT_BEGIN
 90
        5
170
     1
 91
        0
 92
    32768
 62
   257
 93
        1
300
CONTENTFORMAT
  1
CONTENTFORMAT_BEGIN
 90
        0
 91
        0
 92
        4
 93
        0
300

 40
0.0
140
1.0
 94
        5
 62
     0
340
222
144
0.25
309
CONTENTFORMAT_END
171
     0
 94
        6
 95
        1
302
GRIDFORMAT
  1
GRIDFORMAT_BEGIN
 90
        0
 91
        1
 62
     0
 92
       -2
340
0
 93
        0
 40
0.045
309
GRIDFORMAT_END
 95
        2
302
GRIDFORMAT
  1
GRIDFORMAT_BEGIN
 90
        0
 91
        1
 62
     0
 92
       -2
340
0
 93
        0
 40
0.045
309
GRIDFORMAT_END
 95
        4
302
GRIDFORMAT
  1
GRIDFORMAT_BEGIN
 90
        0
 91
        1
 62
     0
 92
       -2
340
0
 93
        0
 40
0.045
309
GRIDFORMAT_END
 95
        8
302
GRIDFORMAT
  1
GRIDFORMAT_BEGIN
 90
        0
 91
        1
 62
     0
 92
       -2
340
0
 93
        0
 40
0.045
309
GRIDFORMAT_END
 95
       16
302
GRIDFORMAT
  1
GRIDFORMAT_BEGIN
 90
        0
 91
        1
 62
     0
 92
       -2
340
0
 93
        0
 40
0.045
309
GRIDFORMAT_END
 95
       32
302
GRIDFORMAT
  1
GRIDFORMAT_BEGIN
 90
        0
 91
        1
 62
     0
 92
       -2
340
0
 93
        0
 40
0.045
309
GRIDFORMAT_END
309
TABLEFORMAT_END
  1
CELLSTYLE_BEGIN
 90
        1
 91
        1
300
_TITLE
309
CELLSTYLE_END
300
CELLSTYLE
  1
TABLEFORMAT_BEGIN
 90
        5
170
     1
 91
        0
 92
        0
 62
   257
 93
        1
300
CONTENTFORMAT
  1
CONTENTFORMAT_BEGIN
 90
        0
 91
        0
 92
        4
 93
        0
300

 40
0.0
140
1.0
 94
        5
 62
     0
340
222
144
0.18
309
CONTENTFORMAT_END
171
     0
 94
        6
 95
        1
302
GRIDFORMAT
  1
GRIDFORMAT_BEGIN
 90
        0
 91
        1
 62
     0
 92
       -2
340
0
 93
        0
 40
0.045
309
GRIDFORMAT_END
 95
        2
302
GRIDFORMAT
  1
GRIDFORMAT_BEGIN
 90
        0
 91
        1
 62
     0
 92
       -2
340
0
 93
        0
 40
0.045
309
GRIDFORMAT_END
 95
        4
302
GRIDFORMAT
  1
GRIDFORMAT_BEGIN
 90
        0
 91
        1
 62
     0
 92
       -2
340
0
 93
        0
 40
0.045
309
GRIDFORMAT_END
 95
        8
302
GRIDFORMAT
  1
GRIDFORMAT_BEGIN
 90
        0
 91
        1
 62
     0
 92
       -2
340
0
 93
        0
 40
0.045
309
GRIDFORMAT_END
 95
       16
302
GRIDFORMAT
  1
GRIDFORMAT_BEGIN
 90
        0
 91
        1
 62
     0
 92
       -2
340
0
 93
        0
 40
0.045
309
GRIDFORMAT_END
 95
       32
302
GRIDFORMAT
  1
GRIDFORMAT_BEGIN
 90
        0
 91
        1
 62
     0
 92
       -2
340
0
 93
        0
 40
0.045
309
GRIDFORMAT_END
309
TABLEFORMAT_END
  1
CELLSTYLE_BEGIN
 90
        2
 91
        1
300
_HEADER
309
CELLSTYLE_END
300
CELLSTYLE
  1
TABLEFORMAT_BEGIN
 90
        5
170
     1
 91
        0
 92
        0
 62
   257
 93
        1
300
CONTENTFORMAT
  1
CONTENTFORMAT_BEGIN
 90
        0
 91
        0
 92
        4
 93
        0
300

 40
0.0
140
1.0
 94
        2
 62
     0
340
222
144
0.18
309
CONTENTFORMAT_END
171
     0
 94
        6
 95
        1
302
GRIDFORMAT
  1
GRIDFORMAT_BEGIN
 90
        0
 91
        1
 62
     0
 92
       -2
340
0
 93
        0
 40
0.045
309
GRIDFORMAT_END
 95
        2
302
GRIDFORMAT
  1
GRIDFORMAT_BEGIN
 90
        0
 91
        1
 62
     0
 92
       -2
340
0
 93
        0
 40
0.045
309
GRIDFORMAT_END
 95
        4
302
GRIDFORMAT
  1
GRIDFORMAT_BEGIN
 90
        0
 91
        1
 62
     0
 92
       -2
340
0
 93
        0
 40
0.045
309
GRIDFORMAT_END
 95
        8
302
GRIDFORMAT
  1
GRIDFORMAT_BEGIN
 90
        0
 91
        1
 62
     0
 92
       -2
340
0
 93
        0
 40
0.045
309
GRIDFORMAT_END
 95
       16
302
GRIDFORMAT
  1
GRIDFORMAT_BEGIN
 90
        0
 91
        1
 62
     0
 92
       -2
340
0
 93
        0
 40
0.045
309
GRIDFORMAT_END
 95
       32
302
GRIDFORMAT
  1
GRIDFORMAT_BEGIN
 90
        0
 91
        1
 62
     0
 92
       -2
340
0
 93
        0
 40
0.045
309
GRIDFORMAT_END
309
TABLEFORMAT_END
  1
CELLSTYLE_BEGIN
 90
        3
 91
        2
300
_DATA
309
CELLSTYLE_END
  0
XRECORD
  5
276
102
{ACAD_REACTORS
330
239
102
}
330
239
100
AcDbXrecord
280
     1
102
ACAD_ROUNDTRIP_PRE2007_TABLESTYLE
 90
        4
 91
        0
  1

 92
        4
 93
        0
  2

 94
        4
 95
        0
  3

  0
ENDSEC
  0
EOF
