  0
SECTION
  2
HEADER
  9
$ACADVER
  1
AC1015
  9
$ACADMAINTVER
 70
    20
  9
$DWGCODEPAGE
  3
ANSI_1250
  9
$INSBASE
 10
0.0
 20
0.0
 30
0.0
  9
$EXTMIN
 10
245130.5030339641
 20
134237.5266395671
 30
-47.0
  9
$EXTMAX
 10
255330.5030339642
 20
148257.5266395671
 30
47.0
  9
$LIMMIN
 10
0.0
 20
0.0
  9
$LIMMAX
 10
420.0
 20
297.0
  9
$ORTHOMODE
 70
     0
  9
$REGENMODE
 70
     1
  9
$FILLMODE
 70
     1
  9
$QTEXTMODE
 70
     0
  9
$MIRRTEXT
 70
     0
  9
$LTSCALE
 40
75.0
  9
$ATTMODE
 70
     1
  9
$TEXTSIZE
 40
20.0
  9
$TRACEWID
 40
1.0
  9
$TEXTSTYLE
  7
ROMANS
  9
$CLAYER
  8
0
  9
$CELTYPE
  6
ByLayer
  9
$CECOLOR
 62
   256
  9
$CELTSCALE
 40
1.0
  9
$DISPSILH
 70
     0
  9
$DIMSCALE
 40
1.0
  9
$DIMASZ
 40
8.0
  9
$DIMEXO
 40
43.0
  9
$DIMDLI
 40
40.0
  9
$DIMRND
 40
0.5
  9
$DIMDLE
 40
12.0
  9
$DIMEXE
 40
13.0
  9
$DIMTP
 40
0.0
  9
$DIMTM
 40
0.0
  9
$DIMTXT
 40
16.0
  9
$DIMCEN
 40
15.0
  9
$DIMTSZ
 40
0.0
  9
$DIMTOL
 70
     0
  9
$DIMLIM
 70
     0
  9
$DIMTIH
 70
     0
  9
$DIMTOH
 70
     0
  9
$DIMSE1
 70
     1
  9
$DIMSE2
 70
     1
  9
$DIMTAD
 70
     0
  9
$DIMZIN
 70
     8
  9
$DIMBLK
  1
B-DIM
  9
$DIMASO
 70
     1
  9
$DIMSHO
 70
     1
  9
$DIMPOST
  1

  9
$DIMAPOST
  1

  9
$DIMALT
 70
     0
  9
$DIMALTD
 70
     2
  9
$DIMALTF
 40
25.4
  9
$DIMLFAC
 40
1.0
  9
$DIMTOFL
 70
     1
  9
$DIMTVP
 40
1.0
  9
$DIMTIX
 70
     1
  9
$DIMSOXD
 70
     0
  9
$DIMSAH
 70
     0
  9
$DIMBLK1
  1

  9
$DIMBLK2
  1

  9
$DIMSTYLE
  2
100-archon
  9
$DIMCLRD
 70
     1
  9
$DIMCLRE
 70
     1
  9
$DIMCLRT
 70
   140
  9
$DIMTFAC
 40
1.0
  9
$DIMGAP
 40
4.0
  9
$DIMJUST
 70
     0
  9
$DIMSD1
 70
     0
  9
$DIMSD2
 70
     0
  9
$DIMTOLJ
 70
     1
  9
$DIMTZIN
 70
     0
  9
$DIMALTZ
 70
     0
  9
$DIMALTTZ
 70
     0
  9
$DIMUPT
 70
     0
  9
$DIMDEC
 70
     1
  9
$DIMTDEC
 70
     1
  9
$DIMALTU
 70
     2
  9
$DIMALTTD
 70
     2
  9
$DIMTXSTY
  7
romansDIM
  9
$DIMAUNIT
 70
     0
  9
$DIMADEC
 70
     0
  9
$DIMALTRND
 40
0.0
  9
$DIMAZIN
 70
     0
  9
$DIMDSEP
 70
    46
  9
$DIMATFIT
 70
     3
  9
$DIMFRAC
 70
     0
  9
$DIMLDRBLK
  1
Dot
  9
$DIMLUNIT
 70
     2
  9
$DIMLWD
 70
     5
  9
$DIMLWE
 70
    -2
  9
$DIMTMOVE
 70
     2
  9
$LUNITS
 70
     2
  9
$LUPREC
 70
     1
  9
$SKETCHINC
 40
1.0
  9
$FILLETRAD
 40
0.0
  9
$AUNITS
 70
     0
  9
$AUPREC
 70
     0
  9
$MENU
  1
.
  9
$ELEVATION
 40
0.0
  9
$PELEVATION
 40
0.0
  9
$THICKNESS
 40
0.0
  9
$LIMCHECK
 70
     0
  9
$CHAMFERA
 40
0.0
  9
$CHAMFERB
 40
0.0
  9
$CHAMFERC
 40
20.0
  9
$CHAMFERD
 40
0.0
  9
$SKPOLY
 70
     0
  9
$TDCREATE
 40
2452027.670547454
  9
$TDUCREATE
 40
2452027.587214121
  9
$TDUPDATE
 40
2455040.701520359
  9
$TDUUPDATE
 40
2455040.618187026
  9
$TDINDWG
 40
9.5535195486
  9
$TDUSRTIMER
 40
9.5535195486
  9
$USRTIMER
 70
     1
  9
$ANGBASE
 50
0.0
  9
$ANGDIR
 70
     0
  9
$PDMODE
 70
     0
  9
$PDSIZE
 40
0.0
  9
$PLINEWID
 40
0.0
  9
$SPLFRAME
 70
     0
  9
$SPLINETYPE
 70
     6
  9
$SPLINESEGS
 70
     8
  9
$HANDSEED
  5
3BB
  9
$SURFTAB1
 70
     6
  9
$SURFTAB2
 70
     6
  9
$SURFTYPE
 70
     6
  9
$SURFU
 70
     6
  9
$SURFV
 70
     6
  9
$UCSBASE
  2

  9
$UCSNAME
  2

  9
$UCSORG
 10
0.0
 20
0.0
 30
0.0
  9
$UCSXDIR
 10
1.0
 20
0.0
 30
0.0
  9
$UCSYDIR
 10
0.0
 20
1.0
 30
0.0
  9
$UCSORTHOREF
  2

  9
$UCSORTHOVIEW
 70
     0
  9
$UCSORGTOP
 10
0.0
 20
0.0
 30
0.0
  9
$UCSORGBOTTOM
 10
0.0
 20
0.0
 30
0.0
  9
$UCSORGLEFT
 10
0.0
 20
0.0
 30
0.0
  9
$UCSORGRIGHT
 10
0.0
 20
0.0
 30
0.0
  9
$UCSORGFRONT
 10
0.0
 20
0.0
 30
0.0
  9
$UCSORGBACK
 10
0.0
 20
0.0
 30
0.0
  9
$PUCSBASE
  2

  9
$PUCSNAME
  2

  9
$PUCSORG
 10
0.0
 20
0.0
 30
0.0
  9
$PUCSXDIR
 10
1.0
 20
0.0
 30
0.0
  9
$PUCSYDIR
 10
0.0
 20
1.0
 30
0.0
  9
$PUCSORTHOREF
  2

  9
$PUCSORTHOVIEW
 70
     0
  9
$PUCSORGTOP
 10
0.0
 20
0.0
 30
0.0
  9
$PUCSORGBOTTOM
 10
0.0
 20
0.0
 30
0.0
  9
$PUCSORGLEFT
 10
0.0
 20
0.0
 30
0.0
  9
$PUCSORGRIGHT
 10
0.0
 20
0.0
 30
0.0
  9
$PUCSORGFRONT
 10
0.0
 20
0.0
 30
0.0
  9
$PUCSORGBACK
 10
0.0
 20
0.0
 30
0.0
  9
$USERI1
 70
     0
  9
$USERI2
 70
     0
  9
$USERI3
 70
     0
  9
$USERI4
 70
     0
  9
$USERI5
 70
     0
  9
$USERR1
 40
0.0
  9
$USERR2
 40
0.0
  9
$USERR3
 40
0.0
  9
$USERR4
 40
0.0
  9
$USERR5
 40
0.0
  9
$WORLDVIEW
 70
     1
  9
$SHADEDGE
 70
     3
  9
$SHADEDIF
 70
    70
  9
$TILEMODE
 70
     1
  9
$MAXACTVP
 70
    64
  9
$PINSBASE
 10
0.0
 20
0.0
 30
0.0
  9
$PLIMCHECK
 70
     0
  9
$PEXTMIN
 10
1.049999952316284
 20
0.7999999523162842
 30
0.0
  9
$PEXTMAX
 10
9.449999570846559
 20
7.199999570846558
 30
0.0
  9
$PLIMMIN
 10
-0.2500002402958907
 20
-0.2499999962453767
  9
$PLIMMAX
 10
10.74999951940822
 20
8.249999763458733
  9
$UNITMODE
 70
     0
  9
$VISRETAIN
 70
     1
  9
$PLINEGEN
 70
     0
  9
$PSLTSCALE
 70
     1
  9
$TREEDEPTH
 70
  3020
  9
$CMLSTYLE
  2
Standard
  9
$CMLJUST
 70
     0
  9
$CMLSCALE
 40
20.0
  9
$PROXYGRAPHICS
 70
     1
  9
$MEASUREMENT
 70
     0
  9
$CELWEIGHT
370
    -1
  9
$ENDCAPS
280
     0
  9
$JOINSTYLE
280
     0
  9
$LWDISPLAY
290
     0
  9
$INSUNITS
 70
     5
  9
$HYPERLINKBASE
  1

  9
$STYLESHEET
  1
monochrome_140.ctb
  9
$XEDIT
290
     1
  9
$CEPSNTYPE
380
     0
  9
$PSTYLEMODE
290
     1
  9
$FINGERPRINTGUID
  2
{7528F4A6-985F-4F03-8922-192613E35490}
  9
$VERSIONGUID
  2
{C2AD7B53-FC45-41D9-8CD2-C1425CF6FCD8}
  9
$EXTNAMES
290
     1
  9
$PSVPSCALE
 40
0.0
  9
$OLESTARTUP
290
     0
  0
ENDSEC
  0
SECTION
  2
CLASSES
  0
CLASS
  1
ACDBDICTIONARYWDFLT
  2
AcDbDictionaryWithDefault
  3
ObjectDBX Classes
 90
        0
280
     0
281
     0
  0
CLASS
  1
ACDBPLACEHOLDER
  2
AcDbPlaceHolder
  3
ObjectDBX Classes
 90
        0
280
     0
281
     0
  0
CLASS
  1
LAYOUT
  2
AcDbLayout
  3
ObjectDBX Classes
 90
        0
280
     0
281
     0
  0
CLASS
  1
DICTIONARYVAR
  2
AcDbDictionaryVar
  3
ObjectDBX Classes
 90
        0
280
     0
281
     0
  0
CLASS
  1
SORTENTSTABLE
  2
AcDbSortentsTable
  3
ObjectDBX Classes
 90
        0
280
     0
281
     0
  0
CLASS
  1
AEC_VARS_DWG_SETUP
  2
AecDbVarsDwgSetup
  3
AecBase50|Product Desc: Autodesk Architectural Desktop 2007 |Company: Autodesk,Inc. |WEB Address: www.autodesk.com
 90
    32897
280
     0
281
     0
  0
CLASS
  1
AEC_DISP_REP_CONFIG
  2
AecDbDispRepConfig
  3
AecBase50|Product Desc: Autodesk Architectural Desktop 2007 |Company: Autodesk,Inc. |WEB Address: www.autodesk.com
 90
    32897
280
     0
281
     0
  0
CLASS
  1
AEC_DISP_REP_SET
  2
AecDbDispRepSet
  3
AecBase50|Product Desc: Autodesk Architectural Desktop 2007 |Company: Autodesk,Inc. |WEB Address: www.autodesk.com
 90
    32897
280
     0
281
     0
  0
CLASS
  1
AEC_DISP_REP_2D_SECTION
  2
AecDbDispRep2dSection
  3
AecBase50|Product Desc: Autodesk Architectural Desktop 2007 |Company: Autodesk,Inc. |WEB Address: www.autodesk.com
 90
    32897
280
     0
281
     0
  0
CLASS
  1
AEC_DISP_REP_ANCHOR_BUB_TO_GRID
  2
AecDbDispRepAnchorBubToGrid
  3
AecStructureBase50|Product Desc: Autodesk Architectural Desktop 2007 |Company: Autodesk,Inc. |WEB Address: www.autodesk.com
 90
    32897
280
     0
281
     0
  0
CLASS
  1
AEC_DISP_REP_ANCHOR_BUB_TO_GRID_MODEL
  2
AecDbDispRepAnchorBubToGridMdl
  3
AecStructureBase50|Product Desc: Autodesk Architectural Desktop 2007 |Company: Autodesk,Inc. |WEB Address: www.autodesk.com
 90
    32897
280
     0
281
     0
  0
CLASS
  1
AEC_DISP_REP_ANCHOR_ENT_TO_NODE
  2
AecDbDispRepAnchorEntToNode
  3
AecBase50|Product Desc: Autodesk Architectural Desktop 2007 |Company: Autodesk,Inc. |WEB Address: www.autodesk.com
 90
    32897
280
     0
281
     0
  0
CLASS
  1
AEC_DISP_REP_ANCHOR_TAG_TO_ENT
  2
AecDbDispRepAnchorTagToEnt
  3
AecScheduleData50|Product Desc: Autodesk Architectural Desktop 2007 |Company: Autodesk,Inc. |WEB Address: www.autodesk.com
 90
    32897
280
     0
281
     0
  0
CLASS
  1
AEC_DISP_REP_AREA
  2
AecDbDispRepArea
  3
AecAreaCalculationBase50|Product Desc: Autodesk Architectural Desktop 2007 |Company: Autodesk,Inc. |WEB Address: www.autodesk.com
 90
    32897
280
     0
281
     0
  0
CLASS
  1
AEC_DISP_REP_AREA_DECOMPOSED
  2
AecDbDispRepAreaDecomposed
  3
AecAreaCalculationBase50|Product Desc: Autodesk Architectural Desktop 2007 |Company: Autodesk,Inc. |WEB Address: www.autodesk.com
 90
    32897
280
     0
281
     0
  0
CLASS
  1
AEC_DISP_REP_AREAGROUP
  2
AecDbDispRepAreaGroup
  3
AecAreaCalculationBase50|Product Desc: Autodesk Architectural Desktop 2007 |Company: Autodesk,Inc. |WEB Address: www.autodesk.com
 90
    32897
280
     0
281
     0
  0
CLASS
  1
AEC_DISP_REP_BDG_ELEVLINE_MODEL
  2
AecDbDispRepBdgElevLineModel
  3
AecArchBase50|Product Desc: Autodesk Architectural Desktop 2007 |Company: Autodesk,Inc. |WEB Address: www.autodesk.com
 90
    32897
280
     0
281
     0
  0
CLASS
  1
AEC_DISP_REP_BDG_SECTIONLINE_PLAN
  2
AecDbDispRepBdgElevLinePlan
  3
AecArchBase50|Product Desc: Autodesk Architectural Desktop 2007 |Company: Autodesk,Inc. |WEB Address: www.autodesk.com
 90
    32897
280
     0
281
     0
  0
CLASS
  1
AEC_DISP_REP_BDG_SECTIONLINE_MODEL
  2
AecDbDispRepBdgSectionLineModel
  3
AecArchBase50|Product Desc: Autodesk Architectural Desktop 2007 |Company: Autodesk,Inc. |WEB Address: www.autodesk.com
 90
    32897
280
     0
281
     0
  0
CLASS
  1
AEC_DISP_REP_BDG_SECTIONLINE_PLAN
  2
AecDbDispRepBdgSectionLinePlan
  3
AecArchBase50|Product Desc: Autodesk Architectural Desktop 2007 |Company: Autodesk,Inc. |WEB Address: www.autodesk.com
 90
    32897
280
     0
281
     0
  0
CLASS
  1
AEC_DISP_REP_BDG_SECTION_SUBDIV
  2
AecDbDispRepBdgSectionSubDiv
  3
AecArchBase50|Product Desc: Autodesk Architectural Desktop 2007 |Company: Autodesk,Inc. |WEB Address: www.autodesk.com
 90
    32897
280
     0
281
     0
  0
CLASS
  1
AEC_DISP_REP_CAMERA
  2
AecDbDispRepCamera
  3
AecBase50|Product Desc: Autodesk Architectural Desktop 2007 |Company: Autodesk,Inc. |WEB Address: www.autodesk.com
 90
    32897
280
     0
281
     0
  0
CLASS
  1
AEC_DISP_REP_CEILING_GRID
  2
AecDbDispRepCeilingGrid
  3
AecArchBase50|Product Desc: Autodesk Architectural Desktop 2007 |Company: Autodesk,Inc. |WEB Address: www.autodesk.com
 90
    33661
280
     0
281
     0
  0
CLASS
  1
AEC_DISP_REP_CEILING_GRID_MODEL
  2
AecDbDispRepCeilingGridModel
  3
AecArchBase50|Product Desc: Autodesk Architectural Desktop 2007 |Company: Autodesk,Inc. |WEB Address: www.autodesk.com
 90
    32897
280
     0
281
     0
  0
CLASS
  1
AEC_DISP_REP_CEILING_GRID_RCP
  2
AecDbDispRepCeilingGridRcp
  3
AecArchBase50|Product Desc: Autodesk Architectural Desktop 2007 |Company: Autodesk,Inc. |WEB Address: www.autodesk.com
 90
    32897
280
     0
281
     0
  0
CLASS
  1
AEC_DISP_REP_CLIP_VOLUME_MODEL
  2
AecDbDispRepClipVolModel
  3
AecBase50|Product Desc: Autodesk Architectural Desktop 2007 |Company: Autodesk,Inc. |WEB Address: www.autodesk.com
 90
    32897
280
     0
281
     0
  0
CLASS
  1
AEC_DISP_REP_CLIP_VOLUME_PLAN
  2
AecDbDispRepClipVolPlan
  3
AecBase50|Product Desc: Autodesk Architectural Desktop 2007 |Company: Autodesk,Inc. |WEB Address: www.autodesk.com
 90
    32897
280
     0
281
     0
  0
CLASS
  1
AEC_DISP_REP_CLIP_VOLUME_RESULT_SUBDIV
  2
AecDbDispRepClipVolResSubDiv
  3
AecBase50|Product Desc: Autodesk Architectural Desktop 2007 |Company: Autodesk,Inc. |WEB Address: www.autodesk.com
 90
    32897
280
     0
281
     0
  0
CLASS
  1
AEC_DISP_REP_CLIP_VOLUME_RESULT
  2
AecDbDispRepClipVolResult
  3
AecBase50|Product Desc: Autodesk Architectural Desktop 2007 |Company: Autodesk,Inc. |WEB Address: www.autodesk.com
 90
    32897
280
     0
281
     0
  0
CLASS
  1
AEC_DISP_REP_COLUMN_GRID
  2
AecDbDispRepColumnGrid
  3
AecStructureBase50|Product Desc: Autodesk Architectural Desktop 2007 |Company: Autodesk,Inc. |WEB Address: www.autodesk.com
 90
    32897
280
     0
281
     0
  0
CLASS
  1
AEC_DISP_REP_COLUMN_GRID_MODEL
  2
AecDbDispRepColumnGridModel
  3
AecStructureBase50|Product Desc: Autodesk Architectural Desktop 2007 |Company: Autodesk,Inc. |WEB Address: www.autodesk.com
 90
    32897
280
     0
281
     0
  0
CLASS
  1
AEC_DISP_REP_CURTAIN_WALL_LAYOUT_MODEL
  2
AecDbDispRepCurtainWallLayoutModel
  3
AecArchBase50|Product Desc: Autodesk Architectural Desktop 2007 |Company: Autodesk,Inc. |WEB Address: www.autodesk.com
 90
    32897
280
     0
281
     0
  0
CLASS
  1
AEC_DISP_REP_CURTAIN_WALL_LAYOUT_PLAN
  2
AecDbDispRepCurtainWallLayoutPlan
  3
AecArchBase50|Product Desc: Autodesk Architectural Desktop 2007 |Company: Autodesk,Inc. |WEB Address: www.autodesk.com
 90
    32897
280
     0
281
     0
  0
CLASS
  1
AEC_DISP_REP_CURTAIN_WALL_UNIT_MODEL
  2
AecDbDispRepCurtainWallUnitModel
  3
AecArchBase50|Product Desc: Autodesk Architectural Desktop 2007 |Company: Autodesk,Inc. |WEB Address: www.autodesk.com
 90
    32897
280
     0
281
     0
  0
CLASS
  1
AEC_DISP_REP_CURTAIN_WALL_UNIT_PLAN
  2
AecDbDispRepCurtainWallUnitPlan
  3
AecArchBase50|Product Desc: Autodesk Architectural Desktop 2007 |Company: Autodesk,Inc. |WEB Address: www.autodesk.com
 90
    32897
280
     0
281
     0
  0
CLASS
  1
AEC_DB_DISP_REP_DIM_GROUP_PLAN
  2
AecDbDispRepDimGroupPlan
  3
AecArchDACHBase50|Product Desc: Autodesk Architectural Desktop 2007 |Company: Autodesk,Inc. |WEB Address: www.autodesk.com
 90
    32897
280
     0
281
     0
  0
CLASS
  1
AEC_DISP_REP_DOOR_MODEL
  2
AecDbDispRepDoorModel
  3
AecArchBase50|Product Desc: Autodesk Architectural Desktop 2007 |Company: Autodesk,Inc. |WEB Address: www.autodesk.com
 90
    32897
280
     0
281
     0
  0
CLASS
  1
AEC_DISP_REP_DOOR_NOMINAL
  2
AecDbDispRepDoorNominal
  3
AecArchBase50|Product Desc: Autodesk Architectural Desktop 2007 |Company: Autodesk,Inc. |WEB Address: www.autodesk.com
 90
    32897
280
     0
281
     0
  0
CLASS
  1
AEC_DISP_REP_DOOR_PLAN
  2
AecDbDispRepDoorPlan
  3
AecArchBase50|Product Desc: Autodesk Architectural Desktop 2007 |Company: Autodesk,Inc. |WEB Address: www.autodesk.com
 90
    32897
280
     0
281
     0
  0
CLASS
  1
AEC_DISP_REP_EDITINPLACEPROFILE
  2
AecDbDispRepEditInPlaceProfile
  3
AecBase50|Product Desc: Autodesk Architectural Desktop 2007 |Company: Autodesk,Inc. |WEB Address: www.autodesk.com
 90
    32897
280
     0
281
     0
  0
CLASS
  1
AEC_DISP_REP_ENT_REF
  2
AecDbDispRepEntRef
  3
AecBase50|Product Desc: Autodesk Architectural Desktop 2007 |Company: Autodesk,Inc. |WEB Address: www.autodesk.com
 90
    32897
280
     0
281
     0
  0
CLASS
  1
AEC_DISP_REP_LAYOUT_CURVE
  2
AecDbDispRepLayoutCurve
  3
AecBase50|Product Desc: Autodesk Architectural Desktop 2007 |Company: Autodesk,Inc. |WEB Address: www.autodesk.com
 90
    32897
280
     0
281
     0
  0
CLASS
  1
AEC_DISP_REP_LAYOUT_GRID2D
  2
AecDbDispRepLayoutGrid2d
  3
AecBase50|Product Desc: Autodesk Architectural Desktop 2007 |Company: Autodesk,Inc. |WEB Address: www.autodesk.com
 90
    32897
280
     0
281
     0
  0
CLASS
  1
AEC_DISP_REP_LAYOUT_GRID3D
  2
AecDbDispRepLayoutGrid3d
  3
AecBase50|Product Desc: Autodesk Architectural Desktop 2007 |Company: Autodesk,Inc. |WEB Address: www.autodesk.com
 90
    32897
280
     0
281
     0
  0
CLASS
  1
AEC_DISP_REP_MASKBLOCK_REF
  2
AecDbDispRepMaskBlockRef
  3
AecBase50|Product Desc: Autodesk Architectural Desktop 2007 |Company: Autodesk,Inc. |WEB Address: www.autodesk.com
 90
    32897
280
     0
281
     0
  0
CLASS
  1
AEC_DISP_REP_MASKBLOCK_REF_RCP
  2
AecDbDispRepMaskBlockRefRcp
  3
AecArchBase50|Product Desc: Autodesk Architectural Desktop 2007 |Company: Autodesk,Inc. |WEB Address: www.autodesk.com
 90
    32897
280
     0
281
     0
  0
CLASS
  1
AEC_DISP_REP_MASS_ELEM_MODEL
  2
AecDbDispRepMassElemModel
  3
AecBaseEx50|Product Desc: Autodesk Architectural Desktop 2007 |Company: Autodesk,Inc. |WEB Address: www.autodesk.com
 90
    32897
280
     0
281
     0
  0
CLASS
  1
AEC_DISP_REP_MASS_ELEM_SCHEM
  2
AecDbDispRepMassElemSchem
  3
AecBaseEx50|Product Desc: Autodesk Architectural Desktop 2007 |Company: Autodesk,Inc. |WEB Address: www.autodesk.com
 90
    32897
280
     0
281
     0
  0
CLASS
  1
AEC_DISP_REP_MASS_GROUP_MODEL
  2
AecDbDispRepMassGroupModel
  3
AecBaseEx50|Product Desc: Autodesk Architectural Desktop 2007 |Company: Autodesk,Inc. |WEB Address: www.autodesk.com
 90
    32897
280
     0
281
     0
  0
CLASS
  1
AEC_DISP_REP_MASS_GROUP_PLAN
  2
AecDbDispRepMassGroupPlan
  3
AecBaseEx50|Product Desc: Autodesk Architectural Desktop 2007 |Company: Autodesk,Inc. |WEB Address: www.autodesk.com
 90
    32897
280
     0
281
     0
  0
CLASS
  1
AEC_DISP_REP_MATERIAL
  2
AecDbDispRepMaterial
  3
AecBase50|Product Desc: Autodesk Architectural Desktop 2007 |Company: Autodesk,Inc. |WEB Address: www.autodesk.com
 90
    32897
280
     0
281
     0
  0
CLASS
  1
AEC_DISP_REP_MVBLOCK_REF
  2
AecDbDispRepMvBlockRef
  3
AecBase50|Product Desc: Autodesk Architectural Desktop 2007 |Company: Autodesk,Inc. |WEB Address: www.autodesk.com
 90
    32897
280
     0
281
     0
  0
CLASS
  1
AEC_DISP_REP_MVBLOCK_REF_MODEL
  2
AecDbDispRepMvBlockRefModel
  3
AecBase50|Product Desc: Autodesk Architectural Desktop 2007 |Company: Autodesk,Inc. |WEB Address: www.autodesk.com
 90
    32897
280
     0
281
     0
  0
CLASS
  1
AEC_DISP_REP_OPENING
  2
AecDbDispRepOpening
  3
AecArchBase50|Product Desc: Autodesk Architectural Desktop 2007 |Company: Autodesk,Inc. |WEB Address: www.autodesk.com
 90
    32897
280
     0
281
     0
  0
CLASS
  1
AEC_DISP_REP_OPENING_MODEL
  2
AecDbDispRepOpeningModel
  3
AecArchBase50|Product Desc: Autodesk Architectural Desktop 2007 |Company: Autodesk,Inc. |WEB Address: www.autodesk.com
 90
    32897
280
     0
281
     0
  0
CLASS
  1
AEC_DISP_REP_POLYGON_MODEL
  2
AecDbDispRepPolygonModel
  3
AecBase50|Product Desc: Autodesk Architectural Desktop 2007 |Company: Autodesk,Inc. |WEB Address: www.autodesk.com
 90
    32897
280
     0
281
     0
  0
CLASS
  1
AEC_DISP_REP_RAILING_MODEL
  2
AecDbDispRepRailingModel
  3
AecArchBase50|Product Desc: Autodesk Architectural Desktop 2007 |Company: Autodesk,Inc. |WEB Address: www.autodesk.com
 90
    32897
280
     0
281
     0
  0
CLASS
  1
AEC_DISP_REP_RAILING_PLAN
  2
AecDbDispRepRailingPlan
  3
AecArchBase50|Product Desc: Autodesk Architectural Desktop 2007 |Company: Autodesk,Inc. |WEB Address: www.autodesk.com
 90
    32897
280
     0
281
     0
  0
CLASS
  1
AEC_DISP_REP_ROOF_MODEL
  2
AecDbDispRepRoofModel
  3
AecArchBase50|Product Desc: Autodesk Architectural Desktop 2007 |Company: Autodesk,Inc. |WEB Address: www.autodesk.com
 90
    32897
280
     0
281
     0
  0
CLASS
  1
AEC_DISP_REP_ROOF_PLAN
  2
AecDbDispRepRoofPlan
  3
AecArchBase50|Product Desc: Autodesk Architectural Desktop 2007 |Company: Autodesk,Inc. |WEB Address: www.autodesk.com
 90
    32897
280
     0
281
     0
  0
CLASS
  1
AEC_DISP_REP_ROOFSLAB_MODEL
  2
AecDbDispRepRoofSlabModel
  3
AecArchBase50|Product Desc: Autodesk Architectural Desktop 2007 |Company: Autodesk,Inc. |WEB Address: www.autodesk.com
 90
    32897
280
     0
281
     0
  0
CLASS
  1
AEC_DISP_REP_ROOFSLAB_PLAN
  2
AecDbDispRepRoofSlabPlan
  3
AecArchBase50|Product Desc: Autodesk Architectural Desktop 2007 |Company: Autodesk,Inc. |WEB Address: www.autodesk.com
 90
    32897
280
     0
281
     0
  0
CLASS
  1
AEC_DISP_REP_SCHEDULE_TABLE
  2
AecDbDispRepScheduleTable
  3
AecSchedule50|Product Desc: Autodesk Architectural Desktop 2007 |Company: Autodesk,Inc. |WEB Address: www.autodesk.com
 90
    32897
280
     0
281
     0
  0
CLASS
  1
AEC_DISP_REP_SLAB_MODEL
  2
AecDbDispRepSlabModel
  3
AecArchBase50|Product Desc: Autodesk Architectural Desktop 2007 |Company: Autodesk,Inc. |WEB Address: www.autodesk.com
 90
    32897
280
     0
281
     0
  0
CLASS
  1
AEC_DISP_REP_SLAB_PLAN
  2
AecDbDispRepSlabPlan
  3
AecArchBase50|Product Desc: Autodesk Architectural Desktop 2007 |Company: Autodesk,Inc. |WEB Address: www.autodesk.com
 90
    32897
280
     0
281
     0
  0
CLASS
  1
AEC_DISP_REP_SLICE
  2
AecDbDispRepSlice
  3
AecBase50|Product Desc: Autodesk Architectural Desktop 2007 |Company: Autodesk,Inc. |WEB Address: www.autodesk.com
 90
    32897
280
     0
281
     0
  0
CLASS
  1
AEC_DISP_REP_SPACE_BOUNDARY_MODEL
  2
AecDbDispRepSpaceBoundaryModel
  3
AecArchBase50|Product Desc: Autodesk Architectural Desktop 2007 |Company: Autodesk,Inc. |WEB Address: www.autodesk.com
 90
    32897
280
     0
281
     0
  0
CLASS
  1
AEC_DISP_REP_SPACE_BOUNDARY_PLAN
  2
AecDbDispRepSpaceBoundaryPlan
  3
AecArchBase50|Product Desc: Autodesk Architectural Desktop 2007 |Company: Autodesk,Inc. |WEB Address: www.autodesk.com
 90
    32897
280
     0
281
     0
  0
CLASS
  1
AEC_DISP_REP_SPACE_BOUNDARY_SCHEM
  2
AecDbDispRepSpaceBoundarySketch
  3
AecArchBase50|Product Desc: Autodesk Architectural Desktop 2007 |Company: Autodesk,Inc. |WEB Address: www.autodesk.com
 90
    32897
280
     0
281
     0
  0
CLASS
  1
AEC_DISP_REP_SPACE_MODEL
  2
AecDbDispRepSpaceModel
  3
AecArchBase50|Product Desc: Autodesk Architectural Desktop 2007 |Company: Autodesk,Inc. |WEB Address: www.autodesk.com
 90
    32897
280
     0
281
     0
  0
CLASS
  1
AEC_DISP_REP_SPACE_PLAN
  2
AecDbDispRepSpacePlan
  3
AecArchBase50|Product Desc: Autodesk Architectural Desktop 2007 |Company: Autodesk,Inc. |WEB Address: www.autodesk.com
 90
    32897
280
     0
281
     0
  0
CLASS
  1
AEC_DISP_REP_STAIR_MODEL
  2
AecDbDispRepStairModel
  3
AecArchBase50|Product Desc: Autodesk Architectural Desktop 2007 |Company: Autodesk,Inc. |WEB Address: www.autodesk.com
 90
    32897
280
     0
281
     0
  0
CLASS
  1
AEC_DISP_REP_STAIR_PLAN
  2
AecDbDispRepStairPlan
  3
AecArchBase50|Product Desc: Autodesk Architectural Desktop 2007 |Company: Autodesk,Inc. |WEB Address: www.autodesk.com
 90
    32897
280
     0
281
     0
  0
CLASS
  1
AEC_DISP_REP_WALL_GRAPH
  2
AecDbDispRepWallGraph
  3
AecArchBase50|Product Desc: Autodesk Architectural Desktop 2007 |Company: Autodesk,Inc. |WEB Address: www.autodesk.com
 90
    32897
280
     0
281
     0
  0
CLASS
  1
AEC_DISP_REP_WALL_MODEL
  2
AecDbDispRepWallModel
  3
AecArchBase50|Product Desc: Autodesk Architectural Desktop 2007 |Company: Autodesk,Inc. |WEB Address: www.autodesk.com
 90
    32897
280
     0
281
     0
  0
CLASS
  1
AEC_DISP_REP_WALL_PLAN
  2
AecDbDispRepWallPlan
  3
AecArchBase50|Product Desc: Autodesk Architectural Desktop 2007 |Company: Autodesk,Inc. |WEB Address: www.autodesk.com
 90
    32897
280
     0
281
     0
  0
CLASS
  1
AEC_DISP_REP_WALL_SCHEM
  2
AecDbDispRepWallSchem
  3
AecArchBase50|Product Desc: Autodesk Architectural Desktop 2007 |Company: Autodesk,Inc. |WEB Address: www.autodesk.com
 90
    32897
280
     0
281
     0
  0
CLASS
  1
AEC_DISP_REP_WINDOW_ASSEMBLY_MODEL
  2
AecDbDispRepWindowAssemblyModel
  3
AecArchBase50|Product Desc: Autodesk Architectural Desktop 2007 |Company: Autodesk,Inc. |WEB Address: www.autodesk.com
 90
    32897
280
     0
281
     0
  0
CLASS
  1
AEC_DISP_REP_WINDOW_ASSEMBLY_PLAN
  2
AecDbDispRepWindowAssemblyPlan
  3
AecArchBase50|Product Desc: Autodesk Architectural Desktop 2007 |Company: Autodesk,Inc. |WEB Address: www.autodesk.com
 90
    32897
280
     0
281
     0
  0
CLASS
  1
AEC_AECDBDISPREPWINDOWASSEMBLYPLAN100
  2
AecDbDispRepWindowAssemblyPlan100
  3
AecArchDACHBase50|Product Desc: Autodesk Architectural Desktop 2007 |Company: Autodesk,Inc. |WEB Address: www.autodesk.com
 90
    32897
280
     0
281
     0
  0
CLASS
  1
AEC_DISP_REP_WINDOW_MODEL
  2
AecDbDispRepWindowModel
  3
AecArchBase50|Product Desc: Autodesk Architectural Desktop 2007 |Company: Autodesk,Inc. |WEB Address: www.autodesk.com
 90
    32897
280
     0
281
     0
  0
CLASS
  1
AEC_DISP_REP_WINDOW_NOMINAL
  2
AecDbDispRepWindowNominal
  3
AecArchBase50|Product Desc: Autodesk Architectural Desktop 2007 |Company: Autodesk,Inc. |WEB Address: www.autodesk.com
 90
    32897
280
     0
281
     0
  0
CLASS
  1
AEC_DISP_REP_WINDOW_PLAN
  2
AecDbDispRepWindowPlan
  3
AecArchBase50|Product Desc: Autodesk Architectural Desktop 2007 |Company: Autodesk,Inc. |WEB Address: www.autodesk.com
 90
    32897
280
     0
281
     0
  0
CLASS
  1
AECS_DISP_REP_MEMBER_LOGICAL
  2
AecsDbDispRepMemberLogical
  3
AecStructureBase50|Product Desc: Autodesk Architectural Desktop 2007 |Company: Autodesk,Inc. |WEB Address: www.autodesk.com
 90
    32897
280
     0
281
     0
  0
CLASS
  1
AECS_DISP_REP_MEMBER_MODEL_DESIGN
  2
AecsDbDispRepMemberModelDesign
  3
AecStructureBase50|Product Desc: Autodesk Architectural Desktop 2007 |Company: Autodesk,Inc. |WEB Address: www.autodesk.com
 90
    32897
280
     0
281
     0
  0
CLASS
  1
AECS_DISP_REP_MEMBER_PLAN_DESIGN
  2
AecsDbDispRepMemberPlanDesign
  3
AecStructureBase50|Product Desc: Autodesk Architectural Desktop 2007 |Company: Autodesk,Inc. |WEB Address: www.autodesk.com
 90
    32897
280
     0
281
     0
  0
CLASS
  1
AEC_DISP_PROPS_ENT
  2
AecDbDispPropsEnt
  3
AecBase50|Product Desc: Autodesk Architectural Desktop 2007 |Company: Autodesk,Inc. |WEB Address: www.autodesk.com
 90
    32897
280
     0
281
     0
  0
CLASS
  1
AEC_DISP_PROPS_CLIP_VOLUME
  2
AecDbDispPropsClipVol
  3
AecBase50|Product Desc: Autodesk Architectural Desktop 2007 |Company: Autodesk,Inc. |WEB Address: www.autodesk.com
 90
    32897
280
     0
281
     0
  0
CLASS
  1
AEC_DISP_PROPS_SLICE
  2
AecDbDispPropsSlice
  3
AecBase50|Product Desc: Autodesk Architectural Desktop 2007 |Company: Autodesk,Inc. |WEB Address: www.autodesk.com
 90
    32897
280
     0
281
     0
  0
CLASS
  1
AEC_DISP_PROPS_ROOFSLAB_PLAN
  2
AecDbDispPropsRoofSlabPlan
  3
AecArchBase50|Product Desc: Autodesk Architectural Desktop 2007 |Company: Autodesk,Inc. |WEB Address: www.autodesk.com
 90
    32897
280
     0
281
     0
  0
CLASS
  1
AEC_DISP_PROPS_GRID_ASSEMBLY_MODEL
  2
AecDbDispPropsGridAssemblyModel
  3
AecArchBase50|Product Desc: Autodesk Architectural Desktop 2007 |Company: Autodesk,Inc. |WEB Address: www.autodesk.com
 90
    32897
280
     0
281
     0
  0
CLASS
  1
AEC_DISP_PROPS_ROOF
  2
AecDbDispPropsRoof
  3
AecArchBase50|Product Desc: Autodesk Architectural Desktop 2007 |Company: Autodesk,Inc. |WEB Address: www.autodesk.com
 90
    32897
280
     0
281
     0
  0
CLASS
  1
AEC_DISP_PROPS_SPACE_MODEL
  2
AecDbDispPropsSpaceModel
  3
AecArchBase50|Product Desc: Autodesk Architectural Desktop 2007 |Company: Autodesk,Inc. |WEB Address: www.autodesk.com
 90
    32897
280
     0
281
     0
  0
CLASS
  1
AEC_DISP_PROPS_EDITINPLACEPROFILE_MODEL
  2
AecDbDispPropsEditInPlaceProfile
  3
AecBase50|Product Desc: Autodesk Architectural Desktop 2007 |Company: Autodesk,Inc. |WEB Address: www.autodesk.com
 90
    32897
280
     0
281
     0
  0
CLASS
  1
AEC_DISP_PROPS_DOOR
  2
AecDbDispPropsDoor
  3
AecArchBase50|Product Desc: Autodesk Architectural Desktop 2007 |Company: Autodesk,Inc. |WEB Address: www.autodesk.com
 90
    32897
280
     0
281
     0
  0
CLASS
  1
AEC_DISP_PROPS_MASKBLOCK
  2
AecDbDispPropsMaskBlock
  3
AecBase50|Product Desc: Autodesk Architectural Desktop 2007 |Company: Autodesk,Inc. |WEB Address: www.autodesk.com
 90
    32897
280
     0
281
     0
  0
CLASS
  1
AEC_DISP_PROPS_SPACE_PLAN
  2
AecDbDispPropsSpacePlan
  3
AecArchBase50|Product Desc: Autodesk Architectural Desktop 2007 |Company: Autodesk,Inc. |WEB Address: www.autodesk.com
 90
    32897
280
     0
281
     0
  0
CLASS
  1
AEC_DISP_PROPS_RAILING_PLAN
  2
AecDbDispPropsRailingPlan
  3
AecArchBase50|Product Desc: Autodesk Architectural Desktop 2007 |Company: Autodesk,Inc. |WEB Address: www.autodesk.com
 90
    32897
280
     0
281
     0
  0
CLASS
  1
AEC_DISP_PROPS_LAYOUT_GRID2D
  2
AecDbDispPropsLayoutGrid2d
  3
AecBase50|Product Desc: Autodesk Architectural Desktop 2007 |Company: Autodesk,Inc. |WEB Address: www.autodesk.com
 90
    32897
280
     0
281
     0
  0
CLASS
  1
AEC_DISP_PROPS_CLIP_VOLUME_RESULT
  2
AecDbDispPropsClipVolResSubDiv
  3
AecBase50|Product Desc: Autodesk Architectural Desktop 2007 |Company: Autodesk,Inc. |WEB Address: www.autodesk.com
 90
    32897
280
     0
281
     0
  0
CLASS
  1
AEC_DISP_PROPS_STAIR_MODEL
  2
AecDbDispPropsStairModel
  3
AecArchBase50|Product Desc: Autodesk Architectural Desktop 2007 |Company: Autodesk,Inc. |WEB Address: www.autodesk.com
 90
    32897
280
     0
281
     0
  0
CLASS
  1
AEC_DISP_PROPS_LAYOUT_CURVE
  2
AecDbDispPropsLayoutCurve
  3
AecBase50|Product Desc: Autodesk Architectural Desktop 2007 |Company: Autodesk,Inc. |WEB Address: www.autodesk.com
 90
    32897
280
     0
281
     0
  0
CLASS
  1
AEC_DISP_PROPS_POLYGON_MODEL
  2
AecDbDispPropsPolygonModel
  3
AecBase50|Product Desc: Autodesk Architectural Desktop 2007 |Company: Autodesk,Inc. |WEB Address: www.autodesk.com
 90
    32897
280
     0
281
     0
  0
CLASS
  1
AEC_DISP_PROPS_MASS_GROUP
  2
AecDbDispPropsMassGroup
  3
AecBaseEx50|Product Desc: Autodesk Architectural Desktop 2007 |Company: Autodesk,Inc. |WEB Address: www.autodesk.com
 90
    32897
280
     0
281
     0
  0
CLASS
  1
AEC_DISP_PROPS_STAIR_PLAN
  2
AecDbDispPropsStairPlan
  3
AecArchBase50|Product Desc: Autodesk Architectural Desktop 2007 |Company: Autodesk,Inc. |WEB Address: www.autodesk.com
 90
    32897
280
     0
281
     0
  0
CLASS
  1
AEC_DISP_PROPS_OPENING
  2
AecDbDispPropsOpening
  3
AecArchBase50|Product Desc: Autodesk Architectural Desktop 2007 |Company: Autodesk,Inc. |WEB Address: www.autodesk.com
 90
    32897
280
     0
281
     0
  0
CLASS
  1
AEC_DISP_PROPS_WALL_GRAPH
  2
AecDbDispPropsWallGraph
  3
AecArchBase50|Product Desc: Autodesk Architectural Desktop 2007 |Company: Autodesk,Inc. |WEB Address: www.autodesk.com
 90
    32897
280
     0
281
     0
  0
CLASS
  1
AEC_DISP_PROPS_DOOR_NOMINAL
  2
AecDbDispPropsDoorNominal
  3
AecArchBase50|Product Desc: Autodesk Architectural Desktop 2007 |Company: Autodesk,Inc. |WEB Address: www.autodesk.com
 90
    32897
280
     0
281
     0
  0
CLASS
  1
AEC_DISP_PROPS_SLAB
  2
AecDbDispPropsSlab
  3
AecArchBase50|Product Desc: Autodesk Architectural Desktop 2007 |Company: Autodesk,Inc. |WEB Address: www.autodesk.com
 90
    32897
280
     0
281
     0
  0
CLASS
  1
AEC_DISP_PROPS_WALL_MODEL
  2
AecDbDispPropsWallModel
  3
AecArchBase50|Product Desc: Autodesk Architectural Desktop 2007 |Company: Autodesk,Inc. |WEB Address: www.autodesk.com
 90
    32897
280
     0
281
     0
  0
CLASS
  1
AEC_DISP_PROPS_MATERIAL
  2
AecDbDispPropsMaterial
  3
AecBase50|Product Desc: Autodesk Architectural Desktop 2007 |Company: Autodesk,Inc. |WEB Address: www.autodesk.com
 90
    32897
280
     0
281
     0
  0
CLASS
  1
AEC_DISP_PROPS_WINDOW
  2
AecDbDispPropsWindow
  3
AecArchBase50|Product Desc: Autodesk Architectural Desktop 2007 |Company: Autodesk,Inc. |WEB Address: www.autodesk.com
 90
    32897
280
     0
281
     0
  0
CLASS
  1
AEC_DISP_PROPS_LAYOUT_GRID3D
  2
AecDbDispPropsLayoutGrid3d
  3
AecBase50|Product Desc: Autodesk Architectural Desktop 2007 |Company: Autodesk,Inc. |WEB Address: www.autodesk.com
 90
    32897
280
     0
281
     0
  0
CLASS
  1
AEC_DISP_PROPS_GRID_ASSEMBLY_PLAN
  2
AecDbDispPropsGridAssemblyPlan
  3
AecArchBase50|Product Desc: Autodesk Architectural Desktop 2007 |Company: Autodesk,Inc. |WEB Address: www.autodesk.com
 90
    32897
280
     0
281
     0
  0
CLASS
  1
AEC_DISP_PROPS_WALL_SCHEM
  2
AecDbDispPropsWallSchem
  3
AecArchBase50|Product Desc: Autodesk Architectural Desktop 2007 |Company: Autodesk,Inc. |WEB Address: www.autodesk.com
 90
    32897
280
     0
281
     0
  0
CLASS
  1
AEC_DISP_PROPS_WALL_PLAN
  2
AecDbDispPropsWallPlan
  3
AecArchBase50|Product Desc: Autodesk Architectural Desktop 2007 |Company: Autodesk,Inc. |WEB Address: www.autodesk.com
 90
    32897
280
     0
281
     0
  0
CLASS
  1
AEC_DISP_PROPS_SPACE_BOUNDARY
  2
AecDbDispPropsSpaceBoundary
  3
AecArchBase50|Product Desc: Autodesk Architectural Desktop 2007 |Company: Autodesk,Inc. |WEB Address: www.autodesk.com
 90
    32897
280
     0
281
     0
  0
CLASS
  1
AEC_DISP_PROPS_SLAB_PLAN
  2
AecDbDispPropsSlabPlan
  3
AecArchBase50|Product Desc: Autodesk Architectural Desktop 2007 |Company: Autodesk,Inc. |WEB Address: www.autodesk.com
 90
    32897
280
     0
281
     0
  0
CLASS
  1
AEC_DISP_PROPS_RAILING_MODEL
  2
AecDbDispPropsRailingModel
  3
AecArchBase50|Product Desc: Autodesk Architectural Desktop 2007 |Company: Autodesk,Inc. |WEB Address: www.autodesk.com
 90
    32897
280
     0
281
     0
  0
CLASS
  1
AEC_DISP_PROPS_MASS_ELEM_MODEL
  2
AecDbDispPropsMassElem
  3
AecBaseEx50|Product Desc: Autodesk Architectural Desktop 2007 |Company: Autodesk,Inc. |WEB Address: www.autodesk.com
 90
    32897
280
     0
281
     0
  0
CLASS
  1
AEC_DISP_PROPS_DIM
  2
AecDbDispPropsDimGroup
  3
AecArchDACHBase50|Product Desc: Autodesk Architectural Desktop 2007 |Company: Autodesk,Inc. |WEB Address: www.autodesk.com
 90
    32897
280
     0
281
     0
  0
CLASS
  1
AEC_DISP_PROPS_ROOFSLAB
  2
AecDbDispPropsRoofSlab
  3
AecArchBase50|Product Desc: Autodesk Architectural Desktop 2007 |Company: Autodesk,Inc. |WEB Address: www.autodesk.com
 90
    32897
280
     0
281
     0
  0
CLASS
  1
AEC_DISP_PROPS_ENT_REF
  2
AecDbDispPropsEntRef
  3
AecBase50|Product Desc: Autodesk Architectural Desktop 2007 |Company: Autodesk,Inc. |WEB Address: www.autodesk.com
 90
    32897
280
     0
281
     0
  0
CLASS
  1
AEC_DISP_PROPS_2D_SECTION
  2
AecDbDispProps2dSection
  3
AecBase50|Product Desc: Autodesk Architectural Desktop 2007 |Company: Autodesk,Inc. |WEB Address: www.autodesk.com
 90
    32897
280
     0
281
     0
  0
CLASS
  1
AECS_DISP_PROPS_MEMBER_LOGICAL
  2
AecsDbDispPropsMemberLogical
  3
AecStructureBase50|Product Desc: Autodesk Architectural Desktop 2007 |Company: Autodesk,Inc. |WEB Address: www.autodesk.com
 90
    32897
280
     0
281
     0
  0
CLASS
  1
AEC_DISP_PROPS_AREA_DECOMPOSED
  2
AecDbDispPropsAreaDecomposed
  3
AecAreaCalculationBase50|Product Desc: Autodesk Architectural Desktop 2007 |Company: Autodesk,Inc. |WEB Address: www.autodesk.com
 90
    32897
280
     0
281
     0
  0
CLASS
  1
AEC_DISP_PROPS_CAMERA
  2
AecDbDispPropsCamera
  3
AecBase50|Product Desc: Autodesk Architectural Desktop 2007 |Company: Autodesk,Inc. |WEB Address: www.autodesk.com
 90
    32897
280
     0
281
     0
  0
CLASS
  1
AECS_DISP_PROPS_MEMBER
  2
AecsDbDispPropsMember
  3
AecStructureBase50|Product Desc: Autodesk Architectural Desktop 2007 |Company: Autodesk,Inc. |WEB Address: www.autodesk.com
 90
    32897
280
     0
281
     0
  0
CLASS
  1
AECS_DISP_PROPS_MEMBER_PLAN
  2
AecsDbDispPropsMemberPlan
  3
AecStructureBase50|Product Desc: Autodesk Architectural Desktop 2007 |Company: Autodesk,Inc. |WEB Address: www.autodesk.com
 90
    32897
280
     0
281
     0
  0
CLASS
  1
AEC_DISP_PROPS_AREAGROUP
  2
AecDbDispPropsAreaGroup
  3
AecAreaCalculationBase50|Product Desc: Autodesk Architectural Desktop 2007 |Company: Autodesk,Inc. |WEB Address: www.autodesk.com
 90
    32897
280
     0
281
     0
  0
CLASS
  1
AEC_DISP_PROPS_WINDOW_NOMINAL
  2
AecDbDispPropsWindowNominal
  3
AecArchBase50|Product Desc: Autodesk Architectural Desktop 2007 |Company: Autodesk,Inc. |WEB Address: www.autodesk.com
 90
    32897
280
     0
281
     0
  0
CLASS
  1
AEC_DISP_PROPS_AREA
  2
AecDbDispPropsArea
  3
AecAreaCalculationBase50|Product Desc: Autodesk Architectural Desktop 2007 |Company: Autodesk,Inc. |WEB Address: www.autodesk.com
 90
    32897
280
     0
281
     0
  0
CLASS
  1
AEC_DISP_PROPS_SCHEDULE_TABLE
  2
AecDbDispPropsScheduleTable
  3
AecSchedule50|Product Desc: Autodesk Architectural Desktop 2007 |Company: Autodesk,Inc. |WEB Address: www.autodesk.com
 90
    32897
280
     0
281
     0
  0
CLASS
  1
AEC_LAYERKEY_STYLE
  2
AecDbLayerKeyStyle
  3
AecBase50|Product Desc: Autodesk Architectural Desktop 2007 |Company: Autodesk,Inc. |WEB Address: www.autodesk.com
 90
    32897
280
     0
281
     0
  0
CLASS
  1
AEC_VARS_ARCHBASE
  2
AecDbVarsArchBase
  3
AecArchBase50|Product Desc: Autodesk Architectural Desktop 2007 |Company: Autodesk,Inc. |WEB Address: www.autodesk.com
 90
    32897
280
     0
281
     0
  0
CLASS
  1
AEC_VARS_MUNICH
  2
AecDbVarsMunich
  3
AecArchDACHBase50|Product Desc: Autodesk Architectural Desktop 2007 |Company: Autodesk,Inc. |WEB Address: www.autodesk.com
 90
    32897
280
     0
281
     0
  0
CLASS
  1
AEC_NOTIFICATION_TRACKER
  2
AecDbNotificationTracker
  3
AecBase50|Product Desc: Autodesk Architectural Desktop 2007 |Company: Autodesk,Inc. |WEB Address: www.autodesk.com
 90
    32897
280
     0
281
     0
  0
CLASS
  1
AEC_DISP_REP_ANCHOR
  2
AecDbDispRepAnchor
  3
AecBase50|Product Desc: Autodesk Architectural Desktop 2007 |Company: Autodesk,Inc. |WEB Address: www.autodesk.com
 90
    32897
280
     0
281
     0
  0
CLASS
  1
AEC_DISP_REP_POLYGON_TRUECOLOUR
  2
AecDbDispRepPolygonTrueColour
  3
AecBase50|Product Desc: Autodesk Architectural Desktop 2007 |Company: Autodesk,Inc. |WEB Address: www.autodesk.com
 90
    32897
280
     0
281
     0
  0
CLASS
  1
AEC_DISP_PROPS_POLYGON_TRUECOLOUR
  2
AecDbDispPropsPolygonTrueColour
  3
AecBase50|Product Desc: Autodesk Architectural Desktop 2007 |Company: Autodesk,Inc. |WEB Address: www.autodesk.com
 90
    32897
280
     0
281
     0
  0
CLASS
  1
AEC_DISP_REP_BDG_ELEVLINE_RCP
  2
AecDbDispRepBdgElevLineRcp
  3
AecArchBase50|Product Desc: Autodesk Architectural Desktop 2007 |Company: Autodesk,Inc. |WEB Address: www.autodesk.com
 90
    32897
280
     0
281
     0
  0
CLASS
  1
AEC_DISP_REP_BDG_SECTIONLINE_RCP
  2
AecDbDispRepBdgSectionLineRcp
  3
AecArchBase50|Product Desc: Autodesk Architectural Desktop 2007 |Company: Autodesk,Inc. |WEB Address: www.autodesk.com
 90
    32897
280
     0
281
     0
  0
CLASS
  1
AEC_DISP_REP_BDG_SECTION_MODEL
  2
AecDbDispRepBdgSectionModel
  3
AecArchBase50|Product Desc: Autodesk Architectural Desktop 2007 |Company: Autodesk,Inc. |WEB Address: www.autodesk.com
 90
    32897
280
     0
281
     0
  0
CLASS
  1
AEC_DISP_REP_DOOR_ELEV
  2
AecDbDispRepDoorElev
  3
AecArchBase50|Product Desc: Autodesk Architectural Desktop 2007 |Company: Autodesk,Inc. |WEB Address: www.autodesk.com
 90
    32897
280
     0
281
     0
  0
CLASS
  1
AEC_DISP_REP_DOOR_RCP
  2
AecDbDispRepDoorRcp
  3
AecArchBase50|Product Desc: Autodesk Architectural Desktop 2007 |Company: Autodesk,Inc. |WEB Address: www.autodesk.com
 90
    32897
280
     0
281
     0
  0
CLASS
  1
AEC_DISP_REP_DOOR_THRESHOLD_PLAN
  2
AecDbDispRepDoorThresholdPlan
  3
AecArchBase50|Product Desc: Autodesk Architectural Desktop 2007 |Company: Autodesk,Inc. |WEB Address: www.autodesk.com
 90
    32897
280
     0
281
     0
  0
CLASS
  1
AEC_DISP_PROPS_DOOR_THRESHOLD_PLAN
  2
AecDbDispPropsDoorThresholdPlan
  3
AecArchBase50|Product Desc: Autodesk Architectural Desktop 2007 |Company: Autodesk,Inc. |WEB Address: www.autodesk.com
 90
    32897
280
     0
281
     0
  0
CLASS
  1
AEC_DISP_REP_MASS_ELEM_RCP
  2
AecDbDispRepMassElemRcp
  3
AecArchBase50|Product Desc: Autodesk Architectural Desktop 2007 |Company: Autodesk,Inc. |WEB Address: www.autodesk.com
 90
    32897
280
     0
281
     0
  0
CLASS
  1
AEC_DISP_REP_MASS_GROUP_RCP
  2
AecDbDispRepMassGroupRcp
  3
AecArchBase50|Product Desc: Autodesk Architectural Desktop 2007 |Company: Autodesk,Inc. |WEB Address: www.autodesk.com
 90
    32897
280
     0
281
     0
  0
CLASS
  1
AEC_DISP_REP_MVBLOCK_REF_RCP
  2
AecDbDispRepMvBlockRefRcp
  3
AecArchBase50|Product Desc: Autodesk Architectural Desktop 2007 |Company: Autodesk,Inc. |WEB Address: www.autodesk.com
 90
    32897
280
     0
281
     0
  0
CLASS
  1
AEC_DISP_REP_ROOF_RCP
  2
AecDbDispRepRoofRcp
  3
AecArchBase50|Product Desc: Autodesk Architectural Desktop 2007 |Company: Autodesk,Inc. |WEB Address: www.autodesk.com
 90
    32897
280
     0
281
     0
  0
CLASS
  1
AEC_DISP_REP_SPACE_BOUNDARY_DIAGRAM
  2
AecDbDispRepSpaceBoundaryDgrm
  3
AecArchBase50|Product Desc: Autodesk Architectural Desktop 2007 |Company: Autodesk,Inc. |WEB Address: www.autodesk.com
 90
    32897
280
     0
281
     0
  0
CLASS
  1
AEC_DISP_REP_SPACE_RCP
  2
AecDbDispRepSpaceRcp
  3
AecArchBase50|Product Desc: Autodesk Architectural Desktop 2007 |Company: Autodesk,Inc. |WEB Address: www.autodesk.com
 90
    32897
280
     0
281
     0
  0
CLASS
  1
AEC_DISP_REP_SPACE_VOLUME
  2
AecDbDispRepSpaceVolume
  3
AecArchBase50|Product Desc: Autodesk Architectural Desktop 2007 |Company: Autodesk,Inc. |WEB Address: www.autodesk.com
 90
    32897
280
     0
281
     0
  0
CLASS
  1
AEC_DISP_REP_STAIR_PLAN_OVERLAPPING
  2
AecDbDispRepStairPlanOverlapping
  3
AecArchBase50|Product Desc: Autodesk Architectural Desktop 2007 |Company: Autodesk,Inc. |WEB Address: www.autodesk.com
 90
    32897
280
     0
281
     0
  0
CLASS
  1
AEC_DISP_PROPS_STAIR_PLAN_OVERLAPPING
  2
AecDbDispPropsStairPlanOverlapping
  3
AecArchBase50|Product Desc: Autodesk Architectural Desktop 2007 |Company: Autodesk,Inc. |WEB Address: www.autodesk.com
 90
    32897
280
     0
281
     0
  0
CLASS
  1
AEC_DISP_REP_STAIR_RCP
  2
AecDbDispRepStairRcp
  3
AecArchBase50|Product Desc: Autodesk Architectural Desktop 2007 |Company: Autodesk,Inc. |WEB Address: www.autodesk.com
 90
    32897
280
     0
281
     0
  0
CLASS
  1
AEC_DISP_REP_WALL_RCP
  2
AecDbDispRepWallRcp
  3
AecArchBase50|Product Desc: Autodesk Architectural Desktop 2007 |Company: Autodesk,Inc. |WEB Address: www.autodesk.com
 90
    32897
280
     0
281
     0
  0
CLASS
  1
AEC_DISP_REP_WINDOWASSEMBLY_SILL_PLAN
  2
AecDbDispRepWindowAssemblySillPlan
  3
AecArchBase50|Product Desc: Autodesk Architectural Desktop 2007 |Company: Autodesk,Inc. |WEB Address: www.autodesk.com
 90
    32897
280
     0
281
     0
  0
CLASS
  1
AEC_DISP_PROPS_WINDOW_ASSEMBLY_SILL_PLAN
  2
AecDbDispPropsWindowAssemblySillPlan
  3
AecArchBase50|Product Desc: Autodesk Architectural Desktop 2007 |Company: Autodesk,Inc. |WEB Address: www.autodesk.com
 90
    32897
280
     0
281
     0
  0
CLASS
  1
AEC_DISP_REP_WINDOW_ELEV
  2
AecDbDispRepWindowElev
  3
AecArchBase50|Product Desc: Autodesk Architectural Desktop 2007 |Company: Autodesk,Inc. |WEB Address: www.autodesk.com
 90
    32897
280
     0
281
     0
  0
CLASS
  1
AEC_DISP_REP_WINDOW_RCP
  2
AecDbDispRepWindowRcp
  3
AecArchBase50|Product Desc: Autodesk Architectural Desktop 2007 |Company: Autodesk,Inc. |WEB Address: www.autodesk.com
 90
    32897
280
     0
281
     0
  0
CLASS
  1
AEC_DISP_REP_WINDOW_SILL_PLAN
  2
AecDbDispRepWindowSillPlan
  3
AecArchBase50|Product Desc: Autodesk Architectural Desktop 2007 |Company: Autodesk,Inc. |WEB Address: www.autodesk.com
 90
    32897
280
     0
281
     0
  0
CLASS
  1
AEC_DISP_PROPS_WINDOW_SILL_PLAN
  2
AecDbDispPropsWindowSillPlan
  3
AecArchBase50|Product Desc: Autodesk Architectural Desktop 2007 |Company: Autodesk,Inc. |WEB Address: www.autodesk.com
 90
    32897
280
     0
281
     0
  0
CLASS
  1
AEC_DISP_REP_ANCHOR_BUB_TO_GRID_RCP
  2
AecDbDispRepAnchorBubToGridRcp
  3
AecStructureBase50|Product Desc: Autodesk Architectural Desktop 2007 |Company: Autodesk,Inc. |WEB Address: www.autodesk.com
 90
    32897
280
     0
281
     0
  0
CLASS
  1
AEC_DISP_REP_COLUMN_GRID_RCP
  2
AecDbDispRepColumnGridRcp
  3
AecStructureBase50|Product Desc: Autodesk Architectural Desktop 2007 |Company: Autodesk,Inc. |WEB Address: www.autodesk.com
 90
    32897
280
     0
281
     0
  0
CLASS
  1
AECS_DISP_REP_MEMBER_ELEVATION_DESIGN
  2
AecsDbDispRepMemberElevationDesign
  3
AecStructureBase50|Product Desc: Autodesk Architectural Desktop 2007 |Company: Autodesk,Inc. |WEB Address: www.autodesk.com
 90
    32897
280
     0
281
     0
  0
CLASS
  1
AECS_DISP_PROPS_MEMBER_PROJECTED
  2
AecsDbDispPropsMemberProjected
  3
AecStructureBase50|Product Desc: Autodesk Architectural Desktop 2007 |Company: Autodesk,Inc. |WEB Address: www.autodesk.com
 90
    32897
280
     0
281
     0
  0
CLASS
  1
AECS_DISP_REP_MEMBER_ELEVATION_DETAIL
  2
AecsDbDispRepMemberElevationDetail
  3
AecStructureBase50|Product Desc: Autodesk Architectural Desktop 2007 |Company: Autodesk,Inc. |WEB Address: www.autodesk.com
 90
    32897
280
     0
281
     0
  0
CLASS
  1
AECS_DISP_REP_MEMBER_MODEL_DETAIL
  2
AecsDbDispRepMemberModelDetail
  3
AecStructureBase50|Product Desc: Autodesk Architectural Desktop 2007 |Company: Autodesk,Inc. |WEB Address: www.autodesk.com
 90
    32897
280
     0
281
     0
  0
CLASS
  1
AECS_DISP_REP_MEMBER_PLAN_DETAIL
  2
AecsDbDispRepMemberPlanDetail
  3
AecStructureBase50|Product Desc: Autodesk Architectural Desktop 2007 |Company: Autodesk,Inc. |WEB Address: www.autodesk.com
 90
    32897
280
     0
281
     0
  0
CLASS
  1
AECS_DISP_REP_MEMBER_PLAN_SKETCH
  2
AecsDbDispRepMemberPlanSketch
  3
AecStructureBase50|Product Desc: Autodesk Architectural Desktop 2007 |Company: Autodesk,Inc. |WEB Address: www.autodesk.com
 90
    32897
280
     0
281
     0
  0
CLASS
  1
AECS_DISP_PROPS_MEMBER_PLAN_SKETCH
  2
AecsDbDispPropsMemberPlanSketch
  3
AecStructureBase50|Product Desc: Autodesk Architectural Desktop 2007 |Company: Autodesk,Inc. |WEB Address: www.autodesk.com
 90
    32897
280
     0
281
     0
  0
CLASS
  1
AEC_AECDBDISPREPAREA100
  2
AecDbDispRepArea100
  3
AecArchDACHBase50|Product Desc: Autodesk Architectural Desktop 2007 |Company: Autodesk,Inc. |WEB Address: www.autodesk.com
 90
    32897
280
     0
281
     0
  0
CLASS
  1
AEC_AECDBDISPREPAREAGROUP100
  2
AecDbDispRepAreaGroup100
  3
AecArchDACHBase50|Product Desc: Autodesk Architectural Desktop 2007 |Company: Autodesk,Inc. |WEB Address: www.autodesk.com
 90
    32897
280
     0
281
     0
  0
CLASS
  1
AEC_AECDBDISPREPBDGELEVLINEPLAN100
  2
AecDbDispRepBdgElevLinePlan100
  3
AecArchDACHBase50|Product Desc: Autodesk Architectural Desktop 2007 |Company: Autodesk,Inc. |WEB Address: www.autodesk.com
 90
    32897
280
     0
281
     0
  0
CLASS
  1
AEC_AECDBDISPREPBDGSECTIONLINEPLAN100
  2
AecDbDispRepBdgSectionLinePlan100
  3
AecArchDACHBase50|Product Desc: Autodesk Architectural Desktop 2007 |Company: Autodesk,Inc. |WEB Address: www.autodesk.com
 90
    32897
280
     0
281
     0
  0
CLASS
  1
AEC_AECDBDISPREPCEILINGGRIDPLAN100
  2
AecDbDispRepCeilingGridPlan100
  3
AecArchDACHBase50|Product Desc: Autodesk Architectural Desktop 2007 |Company: Autodesk,Inc. |WEB Address: www.autodesk.com
 90
    32897
280
     0
281
     0
  0
CLASS
  1
AEC_AECDBDISPREPCOLUMNGRIDPLAN100
  2
AecDbDispRepColumnGridPlan100
  3
AecArchDACHBase50|Product Desc: Autodesk Architectural Desktop 2007 |Company: Autodesk,Inc. |WEB Address: www.autodesk.com
 90
    32897
280
     0
281
     0
  0
CLASS
  1
AEC_AECDBDISPREPCURTAINWALLLAYOUTPLAN100
  2
AecDbDispRepCurtainWallLayoutPlan100
  3
AecArchDACHBase50|Product Desc: Autodesk Architectural Desktop 2007 |Company: Autodesk,Inc. |WEB Address: www.autodesk.com
 90
    32897
280
     0
281
     0
  0
CLASS
  1
AEC_AECDBDISPREPCURTAINWALLUNITPLAN100
  2
AecDbDispRepCurtainWallUnitPlan100
  3
AecArchDACHBase50|Product Desc: Autodesk Architectural Desktop 2007 |Company: Autodesk,Inc. |WEB Address: www.autodesk.com
 90
    32897
280
     0
281
     0
  0
CLASS
  1
AEC_AECDBDISPREPMVBLOCKREFPLAN100
  2
AecDbDispRepMvBlockRefPlan100
  3
AecArchDACHBase50|Product Desc: Autodesk Architectural Desktop 2007 |Company: Autodesk,Inc. |WEB Address: www.autodesk.com
 90
    32897
280
     0
281
     0
  0
CLASS
  1
AEC_AECDBDISPREPROOFPLAN100
  2
AecDbDispRepRoofPlan100
  3
AecArchDACHBase50|Product Desc: Autodesk Architectural Desktop 2007 |Company: Autodesk,Inc. |WEB Address: www.autodesk.com
 90
    32897
280
     0
281
     0
  0
CLASS
  1
AEC_AECDBDISPREPROOFSLABPLAN100
  2
AecDbDispRepRoofSlabPlan100
  3
AecArchDACHBase50|Product Desc: Autodesk Architectural Desktop 2007 |Company: Autodesk,Inc. |WEB Address: www.autodesk.com
 90
    32897
280
     0
281
     0
  0
CLASS
  1
AEC_AECDBDISPREPSLABPLAN100
  2
AecDbDispRepSlabPlan100
  3
AecArchDACHBase50|Product Desc: Autodesk Architectural Desktop 2007 |Company: Autodesk,Inc. |WEB Address: www.autodesk.com
 90
    32897
280
     0
281
     0
  0
CLASS
  1
AEC_AECDBDISPREPSPACEBOUNDARYPLAN100
  2
AecDbDispRepSpaceBoundaryPlan100
  3
AecArchDACHBase50|Product Desc: Autodesk Architectural Desktop 2007 |Company: Autodesk,Inc. |WEB Address: www.autodesk.com
 90
    32897
280
     0
281
     0
  0
CLASS
  1
AEC_AECDBDISPREPSPACEPLAN100
  2
AecDbDispRepSpacePlan100
  3
AecArchDACHBase50|Product Desc: Autodesk Architectural Desktop 2007 |Company: Autodesk,Inc. |WEB Address: www.autodesk.com
 90
    32897
280
     0
281
     0
  0
CLASS
  1
AEC_AECDBDISPREPWALLPLAN100
  2
AecDbDispRepWallPlan100
  3
AecArchDACHBase50|Product Desc: Autodesk Architectural Desktop 2007 |Company: Autodesk,Inc. |WEB Address: www.autodesk.com
 90
    32897
280
     0
281
     0
  0
CLASS
  1
AEC_AECDBDISPREPAREA50
  2
AecDbDispRepArea50
  3
AecArchDACHBase50|Product Desc: Autodesk Architectural Desktop 2007 |Company: Autodesk,Inc. |WEB Address: www.autodesk.com
 90
    32897
280
     0
281
     0
  0
CLASS
  1
AEC_AECDBDISPREPAREAGROUP50
  2
AecDbDispRepAreaGroup50
  3
AecArchDACHBase50|Product Desc: Autodesk Architectural Desktop 2007 |Company: Autodesk,Inc. |WEB Address: www.autodesk.com
 90
    32897
280
     0
281
     0
  0
CLASS
  1
AEC_AECDBDISPREPBDGELEVLINEPLAN50
  2
AecDbDispRepBdgElevLinePlan50
  3
AecArchDACHBase50|Product Desc: Autodesk Architectural Desktop 2007 |Company: Autodesk,Inc. |WEB Address: www.autodesk.com
 90
    32897
280
     0
281
     0
  0
CLASS
  1
AEC_AECDBDISPREPBDGSECTIONLINEPLAN50
  2
AecDbDispRepBdgSectionLinePlan50
  3
AecArchDACHBase50|Product Desc: Autodesk Architectural Desktop 2007 |Company: Autodesk,Inc. |WEB Address: www.autodesk.com
 90
    32897
280
     0
281
     0
  0
CLASS
  1
AEC_AECDBDISPREPCEILINGGRIDPLAN50
  2
AecDbDispRepCeilingGridPlan50
  3
AecArchDACHBase50|Product Desc: Autodesk Architectural Desktop 2007 |Company: Autodesk,Inc. |WEB Address: www.autodesk.com
 90
    32897
280
     0
281
     0
  0
CLASS
  1
AEC_AECDBDISPREPCOLUMNGRIDPLAN50
  2
AecDbDispRepColumnGridPlan50
  3
AecArchDACHBase50|Product Desc: Autodesk Architectural Desktop 2007 |Company: Autodesk,Inc. |WEB Address: www.autodesk.com
 90
    32897
280
     0
281
     0
  0
CLASS
  1
AEC_AECDBDISPREPCURTAINWALLLAYOUTPLAN50
  2
AecDbDispRepCurtainWallLayoutPlan50
  3
AecArchDACHBase50|Product Desc: Autodesk Architectural Desktop 2007 |Company: Autodesk,Inc. |WEB Address: www.autodesk.com
 90
    32897
280
     0
281
     0
  0
CLASS
  1
AEC_AECDBDISPREPCURTAINWALLUNITPLAN50
  2
AecDbDispRepCurtainWallUnitPlan50
  3
AecArchDACHBase50|Product Desc: Autodesk Architectural Desktop 2007 |Company: Autodesk,Inc. |WEB Address: www.autodesk.com
 90
    32897
280
     0
281
     0
  0
CLASS
  1
AEC_AECDBDISPREPMVBLOCKREFPLAN50
  2
AecDbDispRepMvBlockRefPlan50
  3
AecArchDACHBase50|Product Desc: Autodesk Architectural Desktop 2007 |Company: Autodesk,Inc. |WEB Address: www.autodesk.com
 90
    32897
280
     0
281
     0
  0
CLASS
  1
AEC_AECDBDISPREPROOFPLAN50
  2
AecDbDispRepRoofPlan50
  3
AecArchDACHBase50|Product Desc: Autodesk Architectural Desktop 2007 |Company: Autodesk,Inc. |WEB Address: www.autodesk.com
 90
    32897
280
     0
281
     0
  0
CLASS
  1
AEC_AECDBDISPREPROOFSLABPLAN50
  2
AecDbDispRepRoofSlabPlan50
  3
AecArchDACHBase50|Product Desc: Autodesk Architectural Desktop 2007 |Company: Autodesk,Inc. |WEB Address: www.autodesk.com
 90
    32897
280
     0
281
     0
  0
CLASS
  1
AEC_AECDBDISPREPSLABPLAN50
  2
AecDbDispRepSlabPlan50
  3
AecArchDACHBase50|Product Desc: Autodesk Architectural Desktop 2007 |Company: Autodesk,Inc. |WEB Address: www.autodesk.com
 90
    32897
280
     0
281
     0
  0
CLASS
  1
AEC_AECDBDISPREPSPACEBOUNDARYPLAN50
  2
AecDbDispRepSpaceBoundaryPlan50
  3
AecArchDACHBase50|Product Desc: Autodesk Architectural Desktop 2007 |Company: Autodesk,Inc. |WEB Address: www.autodesk.com
 90
    32897
280
     0
281
     0
  0
CLASS
  1
AEC_AECDBDISPREPSPACEPLAN50
  2
AecDbDispRepSpacePlan50
  3
AecArchDACHBase50|Product Desc: Autodesk Architectural Desktop 2007 |Company: Autodesk,Inc. |WEB Address: www.autodesk.com
 90
    32897
280
     0
281
     0
  0
CLASS
  1
AEC_AECDBDISPREPWALLPLAN50
  2
AecDbDispRepWallPlan50
  3
AecArchDACHBase50|Product Desc: Autodesk Architectural Desktop 2007 |Company: Autodesk,Inc. |WEB Address: www.autodesk.com
 90
    32897
280
     0
281
     0
  0
CLASS
  1
AEC_AECDBDISPREPWINDOWASSEMBLYPLAN50
  2
AecDbDispRepWindowAssemblyPlan50
  3
AecArchDACHBase50|Product Desc: Autodesk Architectural Desktop 2007 |Company: Autodesk,Inc. |WEB Address: www.autodesk.com
 90
    32897
280
     0
281
     0
  0
CLASS
  1
AEC_DB_DISP_REP_DIM_GROUP_PLAN100
  2
AecDbDispRepDimGroupPlan100
  3
AecArchDACHBase50|Product Desc: Autodesk Architectural Desktop 2007 |Company: Autodesk,Inc. |WEB Address: www.autodesk.com
 90
    32897
280
     0
281
     0
  0
CLASS
  1
AEC_DB_DISP_REP_DIM_GROUP_PLAN50
  2
AecDbDispRepDimGroupPlan50
  3
AecArchDACHBase50|Product Desc: Autodesk Architectural Desktop 2007 |Company: Autodesk,Inc. |WEB Address: www.autodesk.com
 90
    32897
280
     0
281
     0
  0
CLASS
  1
AEC_DISP_REP_DOOR_PLAN_50
  2
AecDbDispRepDoorPlan50
  3
AecArchDACHBase50|Product Desc: Autodesk Architectural Desktop 2007 |Company: Autodesk,Inc. |WEB Address: www.autodesk.com
 90
    32897
280
     0
281
     0
  0
CLASS
  1
AEC_DISP_PROPS_DOOR_PLAN_50
  2
AecDbDispPropsDoorPlan50
  3
AecArchDACHBase50|Product Desc: Autodesk Architectural Desktop 2007 |Company: Autodesk,Inc. |WEB Address: www.autodesk.com
 90
    32897
280
     0
281
     0
  0
CLASS
  1
AEC_DISP_REP_DOOR_PLAN_HEKTO
  2
AecDbDispRepDoorPlanHekto
  3
AecArchDACHBase50|Product Desc: Autodesk Architectural Desktop 2007 |Company: Autodesk,Inc. |WEB Address: www.autodesk.com
 90
    32897
280
     0
281
     0
  0
CLASS
  1
AEC_DISP_PROPS_DOOR_PLAN_100
  2
AecDbDispPropsDoorPlan100
  3
AecArchDACHBase50|Product Desc: Autodesk Architectural Desktop 2007 |Company: Autodesk,Inc. |WEB Address: www.autodesk.com
 90
    32897
280
     0
281
     0
  0
CLASS
  1
AEC_DISP_REP_DOOR_THRESHOLD_SYMBOL_PLAN
  2
AecDbDispRepDoorThresholdSymbolPlan
  3
AecArchDACHBase50|Product Desc: Autodesk Architectural Desktop 2007 |Company: Autodesk,Inc. |WEB Address: www.autodesk.com
 90
    32897
280
     0
281
     0
  0
CLASS
  1
AEC_DISP_PROPS_DOOR_THRESHOLD_SYMBOL_PLAN
  2
AecDbDispPropsDoorThresholdSymbolPlan
  3
AecArchDACHBase50|Product Desc: Autodesk Architectural Desktop 2007 |Company: Autodesk,Inc. |WEB Address: www.autodesk.com
 90
    32897
280
     0
281
     0
  0
CLASS
  1
AEC_DISPREPAECDBDISPREPMASSELEMPLAN100
  2
AecDbDispRepMassElemPlan100
  3
AecArchDACHBase50|Product Desc: Autodesk Architectural Desktop 2007 |Company: Autodesk,Inc. |WEB Address: www.autodesk.com
 90
    32897
280
     0
281
     0
  0
CLASS
  1
AEC_DISPROPSMASSELEMPLANCOMMON
  2
AecDbDispPropsMassElemPlanCommon
  3
AecArchDACHBase50|Product Desc: Autodesk Architectural Desktop 2007 |Company: Autodesk,Inc. |WEB Address: www.autodesk.com
 90
    32897
280
     0
281
     0
  0
CLASS
  1
AEC_DISPREPAECDBDISPREPMASSELEMPLAN50
  2
AecDbDispRepMassElemPlan50
  3
AecArchDACHBase50|Product Desc: Autodesk Architectural Desktop 2007 |Company: Autodesk,Inc. |WEB Address: www.autodesk.com
 90
    32897
280
     0
281
     0
  0
CLASS
  1
AEC_DISPREPAECDBDISPREPMASSGROUPPLAN100
  2
AecDbDispRepMassGroupPlan100
  3
AecArchDACHBase50|Product Desc: Autodesk Architectural Desktop 2007 |Company: Autodesk,Inc. |WEB Address: www.autodesk.com
 90
    32897
280
     0
281
     0
  0
CLASS
  1
AEC_DISPROPSMASSGROUPPLANCOMMON
  2
AecDbDispPropsMassGroupPlanCommon
  3
AecArchDACHBase50|Product Desc: Autodesk Architectural Desktop 2007 |Company: Autodesk,Inc. |WEB Address: www.autodesk.com
 90
    32897
280
     0
281
     0
  0
CLASS
  1
AEC_DISPREPAECDBDISPREPMASSGROUPPLAN50
  2
AecDbDispRepMassGroupPlan50
  3
AecArchDACHBase50|Product Desc: Autodesk Architectural Desktop 2007 |Company: Autodesk,Inc. |WEB Address: www.autodesk.com
 90
    32897
280
     0
281
     0
  0
CLASS
  1
AEC_DISPREPAECDBDISPREPOPENINGPLAN100
  2
AecDbDispRepOpeningPlan100
  3
AecArchDACHBase50|Product Desc: Autodesk Architectural Desktop 2007 |Company: Autodesk,Inc. |WEB Address: www.autodesk.com
 90
    32897
280
     0
281
     0
  0
CLASS
  1
AEC_DISPROPSOPENINGPLANCOMMONHATCHED
  2
AecDbDispPropsOpeningPlanCommonHatched
  3
AecArchDACHBase50|Product Desc: Autodesk Architectural Desktop 2007 |Company: Autodesk,Inc. |WEB Address: www.autodesk.com
 90
    32897
280
     0
281
     0
  0
CLASS
  1
AEC_DISPREPAECDBDISPREPOPENINGPLAN50
  2
AecDbDispRepOpeningPlan50
  3
AecArchDACHBase50|Product Desc: Autodesk Architectural Desktop 2007 |Company: Autodesk,Inc. |WEB Address: www.autodesk.com
 90
    32897
280
     0
281
     0
  0
CLASS
  1
AEC_DISPREPAECDBDISPREPOPENINGPLANREFLECTED
  2
AecDbDispRepOpeningPlanReflected
  3
AecArchDACHBase50|Product Desc: Autodesk Architectural Desktop 2007 |Company: Autodesk,Inc. |WEB Address: www.autodesk.com
 90
    32897
280
     0
281
     0
  0
CLASS
  1
AEC_DISPROPSOPENINGPLANCOMMON
  2
AecDbDispPropsOpeningPlanCommon
  3
AecArchDACHBase50|Product Desc: Autodesk Architectural Desktop 2007 |Company: Autodesk,Inc. |WEB Address: www.autodesk.com
 90
    32897
280
     0
281
     0
  0
CLASS
  1
AEC_DISPREPAECDBDISPREPOPENINGSILLPLAN
  2
AecDbDispRepOpeningSillPlan
  3
AecArchDACHBase50|Product Desc: Autodesk Architectural Desktop 2007 |Company: Autodesk,Inc. |WEB Address: www.autodesk.com
 90
    32897
280
     0
281
     0
  0
CLASS
  1
AEC_DISPROPSOPENINGSILLPLAN
  2
AecDbDispPropsOpeningSillPlan
  3
AecArchDACHBase50|Product Desc: Autodesk Architectural Desktop 2007 |Company: Autodesk,Inc. |WEB Address: www.autodesk.com
 90
    32897
280
     0
281
     0
  0
CLASS
  1
AEC_DISP_REP_RAILING_PLAN_100
  2
AecDbDispRepRailingPlan100
  3
AecArchDACHBase50|Product Desc: Autodesk Architectural Desktop 2007 |Company: Autodesk,Inc. |WEB Address: www.autodesk.com
 90
    32897
280
     0
281
     0
  0
CLASS
  1
AEC_DISP_ROPS_RAILING_PLAN_100
  2
AecDbDispPropsRailingPlan100
  3
AecArchDACHBase50|Product Desc: Autodesk Architectural Desktop 2007 |Company: Autodesk,Inc. |WEB Address: www.autodesk.com
 90
    32897
280
     0
281
     0
  0
CLASS
  1
AEC_DISP_REP_RAILING_PLAN_50
  2
AecDbDispRepRailingPlan50
  3
AecArchDACHBase50|Product Desc: Autodesk Architectural Desktop 2007 |Company: Autodesk,Inc. |WEB Address: www.autodesk.com
 90
    32897
280
     0
281
     0
  0
CLASS
  1
AEC_DISP_ROPS_RAILING_PLAN_50
  2
AecDbDispPropsRailingPlan50
  3
AecArchDACHBase50|Product Desc: Autodesk Architectural Desktop 2007 |Company: Autodesk,Inc. |WEB Address: www.autodesk.com
 90
    32897
280
     0
281
     0
  0
CLASS
  1
AEC_DISP_REP_STAIR_PLAN_100
  2
AecDbDispRepStairPlan100
  3
AecArchDACHBase50|Product Desc: Autodesk Architectural Desktop 2007 |Company: Autodesk,Inc. |WEB Address: www.autodesk.com
 90
    32897
280
     0
281
     0
  0
CLASS
  1
AEC_DISP_ROPS_STAIR_PLAN_100
  2
AecDbDispPropsStairPlan100
  3
AecArchDACHBase50|Product Desc: Autodesk Architectural Desktop 2007 |Company: Autodesk,Inc. |WEB Address: www.autodesk.com
 90
    32897
280
     0
281
     0
  0
CLASS
  1
AEC_DISP_REP_STAIR_PLAN_50
  2
AecDbDispRepStairPlan50
  3
AecArchDACHBase50|Product Desc: Autodesk Architectural Desktop 2007 |Company: Autodesk,Inc. |WEB Address: www.autodesk.com
 90
    32897
280
     0
281
     0
  0
CLASS
  1
AEC_DISP_ROPS_STAIR_PLAN_50
  2
AecDbDispPropsStairPlan50
  3
AecArchDACHBase50|Product Desc: Autodesk Architectural Desktop 2007 |Company: Autodesk,Inc. |WEB Address: www.autodesk.com
 90
    32897
280
     0
281
     0
  0
CLASS
  1
AEC_DISP_REP_WINDOW_PLAN_100
  2
AecDbDispRepWindowPlan100
  3
AecArchDACHBase50|Product Desc: Autodesk Architectural Desktop 2007 |Company: Autodesk,Inc. |WEB Address: www.autodesk.com
 90
    32897
280
     0
281
     0
  0
CLASS
  1
AEC_DISP_PROPS_WINDOW_PLAN_100
  2
AecDbDispPropsWindowPlan100
  3
AecArchDACHBase50|Product Desc: Autodesk Architectural Desktop 2007 |Company: Autodesk,Inc. |WEB Address: www.autodesk.com
 90
    32897
280
     0
281
     0
  0
CLASS
  1
AEC_DISP_REP_WINDOW_PLAN_50
  2
AecDbDispRepWindowPlan50
  3
AecArchDACHBase50|Product Desc: Autodesk Architectural Desktop 2007 |Company: Autodesk,Inc. |WEB Address: www.autodesk.com
 90
    32897
280
     0
281
     0
  0
CLASS
  1
AEC_DISP_PROPS_WINDOW_PLAN_50
  2
AecDbDispPropsWindowPlan50
  3
AecArchDACHBase50|Product Desc: Autodesk Architectural Desktop 2007 |Company: Autodesk,Inc. |WEB Address: www.autodesk.com
 90
    32897
280
     0
281
     0
  0
CLASS
  1
BINRECORD
  2
AcAecBinRecord
  3
AecBase50|Product Desc: Autodesk Architectural Desktop 2007 |Company: Autodesk,Inc. |WEB Address: www.autodesk.com
 90
    32897
280
     0
281
     0
  0
CLASS
  1
SPATIAL_FILTER
  2
AcDbSpatialFilter
  3
ObjectDBX Classes
 90
    32768
280
     0
281
     0
  0
CLASS
  1
AEC_VARS_STRUCTUREBASE
  2
AecsDbVarsStructureBase
  3
AecStructureBase50|Product Desc: Autodesk Architectural Desktop 2007 |Company: Autodesk,Inc. |WEB Address: www.autodesk.com
 90
    32897
280
     0
281
     0
  0
CLASS
  1
DIMASSOC
  2
AcDbDimAssoc
  3
"AcDbDimAssoc|Product Desc:     AcDim ARX App For Dimension|Company:          Autodesk, Inc.|WEB Address:      www.autodesk.com"
 90
    32768
280
     0
281
     0
  0
CLASS
  1
TABLESTYLE
  2
AcDbTableStyle
  3
ObjectDBX Classes
 90
     4095
280
     0
281
     0
  0
CLASS
  1
MATERIAL
  2
AcDbMaterial
  3
ObjectDBX Classes
 90
     1153
280
     0
281
     0
  0
CLASS
  1
VISUALSTYLE
  2
AcDbVisualStyle
  3
ObjectDBX Classes
 90
     4095
280
     0
281
     0
  0
CLASS
  1
EXACXREFPANELOBJECT
  2
ExAcXREFPanelObject
  3
EXAC_ESW
 90
     1025
280
     0
281
     0
  0
CLASS
  1
NPOCOLLECTION
  2
AcDbImpNonPersistentObjectsCollection
  3
ObjectDBX Classes
 90
     1153
280
     0
281
     0
  0
CLASS
  1
AEC_AECDBDISPREPZONE100
  2
AecDbDispRepZonePlan100
  3
AecArchDACHBase50|Product Desc: Autodesk Architectural Desktop 2007 |Company: Autodesk,Inc. |WEB Address: www.autodesk.com
 90
    32897
280
     0
281
     0
  0
CLASS
  1
AEC_DISP_PROPS_ZONE
  2
AecDbDispPropsZone
  3
AecArchBase50|Product Desc: Autodesk Architectural Desktop 2007 |Company: Autodesk,Inc. |WEB Address: www.autodesk.com
 90
    32897
280
     0
281
     0
  0
CLASS
  1
AEC_AECDBDISPREPZONE50
  2
AecDbDispRepZonePlan50
  3
AecArchDACHBase50|Product Desc: Autodesk Architectural Desktop 2007 |Company: Autodesk,Inc. |WEB Address: www.autodesk.com
 90
    32897
280
     0
281
     0
  0
CLASS
  1
AEC_DISP_REP_DISPLAYTHEME
  2
AecDbDispRepDisplayTheme
  3
AecBase50|Product Desc: Autodesk Architectural Desktop 2007 |Company: Autodesk,Inc. |WEB Address: www.autodesk.com
 90
    32897
280
     0
281
     0
  0
CLASS
  1
AEC_DISP_PROPS_DISPLAYTHEME
  2
AecDbDispPropsDisplayTheme
  3
AecBase50|Product Desc: Autodesk Architectural Desktop 2007 |Company: Autodesk,Inc. |WEB Address: www.autodesk.com
 90
    32897
280
     0
281
     0
  0
CLASS
  1
AEC_DISP_REP_ANCHOR_EXT_TAG_TO_ENT
  2
AecDbDispRepAnchorExtendedTagToEnt
  3
AecScheduleData50|Product Desc: Autodesk Architectural Desktop 2007 |Company: Autodesk,Inc. |WEB Address: www.autodesk.com
 90
    32897
280
     0
281
     0
  0
CLASS
  1
AEC_DISP_REP_SPACE_DECOMPOSED
  2
AecDbDispRepSpaceDecomposed
  3
AecArchBase50|Product Desc: Autodesk Architectural Desktop 2007 |Company: Autodesk,Inc. |WEB Address: www.autodesk.com
 90
    32897
280
     0
281
     0
  0
CLASS
  1
AEC_DISP_PROPS_SPACE_DECOMPOSED
  2
AecDbDispPropsSpaceDecomposed
  3
AecArchBase50|Product Desc: Autodesk Architectural Desktop 2007 |Company: Autodesk,Inc. |WEB Address: www.autodesk.com
 90
    32897
280
     0
281
     0
  0
CLASS
  1
AEC_DISP_REP_ZONE
  2
AecDbDispRepZone
  3
AecArchBase50|Product Desc: Autodesk Architectural Desktop 2007 |Company: Autodesk,Inc. |WEB Address: www.autodesk.com
 90
    32897
280
     0
281
     0
  0
CLASS
  1
ACAD_EVALUATION_GRAPH
  2
AcDbEvalGraph
  3
ObjectDBX Classes
 90
    33921
280
     0
281
     0
  0
CLASS
  1
BLOCKFLIPPARAMETER
  2
AcDbBlockFlipParameter
  3
ObjectDBX Classes
 90
    33921
280
     0
281
     0
  0
CLASS
  1
BLOCKFLIPGRIP
  2
AcDbBlockFlipGrip
  3
ObjectDBX Classes
 90
    33921
280
     0
281
     0
  0
CLASS
  1
BLOCKGRIPLOCATIONCOMPONENT
  2
AcDbBlockGripExpr
  3
ObjectDBX Classes
 90
    33921
280
     0
281
     0
  0
CLASS
  1
BLOCKFLIPACTION
  2
AcDbBlockFlipAction
  3
ObjectDBX Classes
 90
    33921
280
     0
281
     0
  0
CLASS
  1
BLOCKROTATIONPARAMETER
  2
AcDbBlockRotationParameter
  3
ObjectDBX Classes
 90
    33921
280
     0
281
     0
  0
CLASS
  1
BLOCKROTATIONGRIP
  2
AcDbBlockRotationGrip
  3
ObjectDBX Classes
 90
    33921
280
     0
281
     0
  0
CLASS
  1
BLOCKROTATEACTION
  2
AcDbBlockRotateAction
  3
ObjectDBX Classes
 90
    33921
280
     0
281
     0
  0
CLASS
  1
BLOCKBASEPOINTPARAMETER
  2
AcDbBlockBasepointParameter
  3
ObjectDBX Classes
 90
    33921
280
     0
281
     0
  0
CLASS
  1
ACDB_DYNAMICBLOCKPURGEPREVENTER_VERSION
  2
AcDbDynamicBlockPurgePreventer
  3
ObjectDBX Classes
 90
    33921
280
     0
281
     0
  0
CLASS
  1
ACDB_BLOCKREPRESENTATION_DATA
  2
AcDbBlockRepresentationData
  3
ObjectDBX Classes
 90
    33921
280
     0
281
     0
  0
CLASS
  1
BLOCKVISIBILITYPARAMETER
  2
AcDbBlockVisibilityParameter
  3
ObjectDBX Classes
 90
    33921
280
     0
281
     0
  0
CLASS
  1
BLOCKVISIBILITYGRIP
  2
AcDbBlockVisibilityGrip
  3
ObjectDBX Classes
 90
    33921
280
     0
281
     0
  0
CLASS
  1
BLOCKLINEARPARAMETER
  2
AcDbBlockLinearParameter
  3
ObjectDBX Classes
 90
    33921
280
     0
281
     0
  0
CLASS
  1
BLOCKSTRETCHACTION
  2
AcDbBlockStretchAction
  3
ObjectDBX Classes
 90
    33921
280
     0
281
     0
  0
CLASS
  1
BLOCKLOOKUPPARAMETER
  2
AcDbBlockLookupParameter
  3
ObjectDBX Classes
 90
    33921
280
     0
281
     0
  0
CLASS
  1
BLOCKLOOKUPGRIP
  2
AcDbBlockLookupGrip
  3
ObjectDBX Classes
 90
    33921
280
     0
281
     0
  0
CLASS
  1
BLOCKLOOKUPACTION
  2
AcDbBlockLookupAction
  3
ObjectDBX Classes
 90
    33921
280
     0
281
     0
  0
CLASS
  1
BLOCKMOVEACTION
  2
AcDbBlockMoveAction
  3
ObjectDBX Classes
 90
    33921
280
     0
281
     0
  0
CLASS
  1
BLOCKLINEARGRIP
  2
AcDbBlockLinearGrip
  3
ObjectDBX Classes
 90
    33921
280
     0
281
     0
  0
CLASS
  1
OBJECT_PTR
  2
CAseDLPNTableRecord
  3
ASE-LPNTableRecord
 90
    32769
280
     1
281
     0
  0
CLASS
  1
SCALE
  2
AcDbScale
  3
ObjectDBX Classes
 90
    33921
280
     1
281
     0
  0
CLASS
  1
MLEADERSTYLE
  2
AcDbMLeaderStyle
  3
ACDB_MLEADERSTYLE_CLASS
 90
    36863
280
     1
281
     0
  0
CLASS
  1
CELLSTYLEMAP
  2
AcDbCellStyleMap
  3
ObjectDBX Classes
 90
     1152
280
     1
281
     0
  0
CLASS
  1
AEC_REFEDIT_STATUS_TRACKER
  2
AecDbRefEditStatusTracker
  3
AecArchBase50|Product Desc: Autodesk Architectural Desktop 2007 |Company: Autodesk,Inc. |WEB Address: www.autodesk.com
 90
    32897
280
     1
281
     0
  0
CLASS
  1
AEC_MVBLOCK_REF
  2
AecDbMvBlockRef
  3
AecBase50|Product Desc: Autodesk Architectural Desktop 2007 |Company: Autodesk,Inc. |WEB Address: www.autodesk.com
 90
    33661
280
     0
281
     1
  0
CLASS
  1
AEC_ANCHOR_MVB_TO_UCS
  2
AecDbAnchorMVBToUCS
  3
AecBase50|Product Desc: Autodesk Architectural Desktop 2007 |Company: Autodesk,Inc. |WEB Address: www.autodesk.com
 90
    32897
280
     0
281
     0
  0
CLASS
  1
AEC_CLASSIFICATION_SYSTEM_DEF
  2
AecDbClassificationSystemDef
  3
AecBase50|Product Desc: Autodesk Architectural Desktop 2007 |Company: Autodesk,Inc. |WEB Address: www.autodesk.com
 90
    32897
280
     0
281
     0
  0
CLASS
  1
AEC_CLASSIFICATION_DEF
  2
AecDbClassificationDef
  3
AecBase50|Product Desc: Autodesk Architectural Desktop 2007 |Company: Autodesk,Inc. |WEB Address: www.autodesk.com
 90
    32897
280
     0
281
     0
  0
CLASS
  1
AEC_MVBLOCK_DEF
  2
AecDbMvBlockDef
  3
AecBase50|Product Desc: Autodesk Architectural Desktop 2007 |Company: Autodesk,Inc. |WEB Address: www.autodesk.com
 90
    32897
280
     0
281
     0
  0
CLASS
  1
AEC_SPACE
  2
AecDbSpace
  3
AecArchBase50|Product Desc: Autodesk Architectural Desktop 2007 |Company: Autodesk,Inc. |WEB Address: www.autodesk.com
 90
    33661
280
     0
281
     1
  0
CLASS
  1
AecDbPropertySet
  2
AecDbPropertySet
  3
AecScheduleData50|Product Desc: Autodesk Architectural Desktop 2007 |Company: Autodesk,Inc. |WEB Address: www.autodesk.com
 90
    32897
280
     0
281
     0
  0
CLASS
  1
AEC_CLEANUP_GROUP_DEF
  2
AecDbCleanupGroupDef
  3
AecArchBase50|Product Desc: Autodesk Architectural Desktop 2007 |Company: Autodesk,Inc. |WEB Address: www.autodesk.com
 90
    32897
280
     0
281
     0
  0
CLASS
  1
AEC_ENDCAP_STYLE
  2
AecDbEndcapStyle
  3
AecArchBase50|Product Desc: Autodesk Architectural Desktop 2007 |Company: Autodesk,Inc. |WEB Address: www.autodesk.com
 90
    32897
280
     0
281
     0
  0
CLASS
  1
AEC_LIST_DEF
  2
AecDbListDefinition
  3
AecBase50|Product Desc: Autodesk Architectural Desktop 2007 |Company: Autodesk,Inc. |WEB Address: www.autodesk.com
 90
    32897
280
     0
281
     0
  0
CLASS
  1
AEC_LIST_DEF
  2
AecDbListItem
  3
AecBase50|Product Desc: Autodesk Architectural Desktop 2007 |Company: Autodesk,Inc. |WEB Address: www.autodesk.com
 90
    32897
280
     0
281
     0
  0
CLASS
  1
AEC_MATERIAL_DEF
  2
AecDbMaterialDef
  3
AecBase50|Product Desc: Autodesk Architectural Desktop 2007 |Company: Autodesk,Inc. |WEB Address: www.autodesk.com
 90
    32897
280
     0
281
     0
  0
CLASS
  1
AEC_FRAME_DEF
  2
AecDbOpeningEndcapStyle
  3
AecArchBase50|Product Desc: Autodesk Architectural Desktop 2007 |Company: Autodesk,Inc. |WEB Address: www.autodesk.com
 90
    32897
280
     0
281
     0
  0
CLASS
  1
AEC_SCHEDULE_DATA_FORMAT
  2
AecDbScheduleDataFormat
  3
AecScheduleData50|Product Desc: Autodesk Architectural Desktop 2007 |Company: Autodesk,Inc. |WEB Address: www.autodesk.com
 90
    32897
280
     0
281
     0
  0
CLASS
  1
AEC_PROPERTY_SET_DEF
  2
AecDbPropertySetDef
  3
AecScheduleData50|Product Desc: Autodesk Architectural Desktop 2007 |Company: Autodesk,Inc. |WEB Address: www.autodesk.com
 90
    32897
280
     0
281
     0
  0
CLASS
  1
AEC_ROOFSLAB_STYLE
  2
AecDbRoofSlabStyle
  3
AecArchBase50|Product Desc: Autodesk Architectural Desktop 2007 |Company: Autodesk,Inc. |WEB Address: www.autodesk.com
 90
    32897
280
     0
281
     0
  0
CLASS
  1
AEC_ROOFSLABEDGE_STYLE
  2
AecDbRoofSlabEdgeStyle
  3
AecArchBase50|Product Desc: Autodesk Architectural Desktop 2007 |Company: Autodesk,Inc. |WEB Address: www.autodesk.com
 90
    32897
280
     0
281
     0
  0
CLASS
  1
AEC_SLAB_STYLE
  2
AecDbSlabStyle
  3
AecArchBase50|Product Desc: Autodesk Architectural Desktop 2007 |Company: Autodesk,Inc. |WEB Address: www.autodesk.com
 90
    32897
280
     0
281
     0
  0
CLASS
  1
AEC_SLABEDGE_STYLE
  2
AecDbSlabEdgeStyle
  3
AecArchBase50|Product Desc: Autodesk Architectural Desktop 2007 |Company: Autodesk,Inc. |WEB Address: www.autodesk.com
 90
    32897
280
     0
281
     0
  0
CLASS
  1
AEC_SPACE_STYLES
  2
AecDbSpaceStyle
  3
AecArchBase50|Product Desc: Autodesk Architectural Desktop 2007 |Company: Autodesk,Inc. |WEB Address: www.autodesk.com
 90
    32897
280
     0
281
     0
  0
CLASS
  1
AEC_WALL_STYLE
  2
AecDbWallStyle
  3
AecArchBase50|Product Desc: Autodesk Architectural Desktop 2007 |Company: Autodesk,Inc. |WEB Address: www.autodesk.com
 90
    32897
280
     0
281
     0
  0
CLASS
  1
AEC_SCHEDULE_TABLE_STYLE
  2
AecDbScheduleTableStyle
  3
AecSchedule50|Product Desc: Autodesk Architectural Desktop 2007 |Company: Autodesk,Inc. |WEB Address: www.autodesk.com
 90
    32897
280
     0
281
     0
  0
CLASS
  1
AEC_SCHEDULE_TABLE
  2
AecDbScheduleTable
  3
AecSchedule50|Product Desc: Autodesk Architectural Desktop 2007 |Company: Autodesk,Inc. |WEB Address: www.autodesk.com
 90
    33661
280
     0
281
     1
  0
CLASS
  1
SOLID_BACKGROUND
  2
AcDbSolidBackground
  3
SCENEOE
 90
    36863
280
     0
281
     0
  0
ENDSEC
  0
SECTION
  2
TABLES
  0
TABLE
  2
VPORT
  5
2C
330
0
100
AcDbSymbolTable
 70
     1
  0
VPORT
  5
2D
330
2C
100
AcDbSymbolTableRecord
100
AcDbViewportTableRecord
  2
*Active
 70
     0
 10
0.0
 20
0.0
 11
1.0
 21
1.0
 12
262953.7609936903
 22
141716.0178311539
 13
0.0
 23
0.0
 14
10.0
 24
10.0
 15
10.0
 25
10.0
 16
0.0
 26
0.0
 36
1.0
 17
0.0
 27
0.0
 37
0.0
 40
55442.77444892679
 41
1.68199233716475
 42
50.0
 43
0.0
 44
0.0
 50
0.0
 51
0.0
 71
     0
 72
  1000
 73
     1
 74
     1
 75
     0
 76
     0
 77
     0
 78
     0
281
     0
 65
     1
110
0.0
120
0.0
130
0.0
111
1.0
121
0.0
131
0.0
112
0.0
122
1.0
132
0.0
 79
     0
146
0.0
  0
ENDTAB
  0
TABLE
  2
LTYPE
  5
27
330
0
100
AcDbSymbolTable
 70
     2
  0
LTYPE
  5
28
330
27
100
AcDbSymbolTableRecord
100
AcDbLinetypeTableRecord
  2
ByBlock
 70
     0
  3

 72
    65
 73
     0
 40
0.0
  0
LTYPE
  5
29
330
27
100
AcDbSymbolTableRecord
100
AcDbLinetypeTableRecord
  2
ByLayer
 70
     0
  3

 72
    65
 73
     0
 40
0.0
  0
LTYPE
  5
E
330
27
100
AcDbSymbolTableRecord
100
AcDbLinetypeTableRecord
  2
Continuous
 70
     0
  3
Solid line
 72
    65
 73
     0
 40
0.0
  0
LTYPE
  5
64
330
27
100
AcDbSymbolTableRecord
100
AcDbLinetypeTableRecord
  2
HIDDEN
 70
     0
  3
__ __ __ __ __ __ __ __ __ __ __ __ __ __ __ __
 72
    65
 73
     2
 40
0.375
 49
0.25
 74
     0
 49
-0.125
 74
     0
  0
ENDTAB
  0
TABLE
  2
LAYER
  5
1D
102
{ACAD_XDICTIONARY
360
1E
102
}
330
0
100
AcDbSymbolTable
 70
    10
  0
LAYER
  5
6
102
{ACAD_XDICTIONARY
360
7
102
}
330
1D
100
AcDbSymbolTableRecord
100
AcDbLayerTableRecord
  2
0
 70
     0
 62
     7
  6
Continuous
370
    -3
390
9
1001
RAK
1000
{ACET-LAYISO
1070
     0
1070
     7
1000
Continuous
1071
       -3
1071
        1
1005
9
1000
ACET-LAYISO}
  0
LAYER
  5
1AD
330
1D
100
AcDbSymbolTableRecord
100
AcDbLayerTableRecord
  2
DEFPOINTS
 70
     0
 62
     7
  6
Continuous
290
     0
370
    -3
390
9
1001
RAK
1000
{ACET-LAYISO
1070
     0
1070
     7
1000
Continuous
1071
       -3
1071
        0
1005
9
1000
ACET-LAYISO}
  0
LAYER
  5
57
102
{ACAD_XDICTIONARY
360
58
102
}
330
1D
100
AcDbSymbolTableRecord
100
AcDbLayerTableRecord
  2
0Wymiary-PL
 70
     0
 62
     1
  6
Continuous
370
     5
390
9
  0
LAYER
  5
61
102
{ACAD_XDICTIONARY
360
62
102
}
330
1D
100
AcDbSymbolTableRecord
100
AcDbLayerTableRecord
  2
0Napisy
 70
     0
 62
   150
  6
Continuous
370
    15
390
9
1001
RAK
1000
{ACET-LAYISO
1070
     0
1070
   150
1000
Continuous
1071
       15
1071
        1
1005
9
1000
ACET-LAYISO}
  0
LAYER
  5
79
102
{ACAD_XDICTIONARY
360
7A
102
}
330
1D
100
AcDbSymbolTableRecord
100
AcDbLayerTableRecord
  2
A-Wall-G
 70
     0
 62
     7
  6
Continuous
370
    50
390
9
1001
AcAecLayerStandard
1000
1m1_ARCHON
1000
Architects, Walls, Graphics
1001
RAK
1000
{DRUK
1070
     0
1070
    50
1000
Continuous
1071
       35
1071
        1
1005
9
1000
DRUK}
1000
{ACET-LAYISO
1070
     0
1070
     7
1000
Continuous
1071
       50
1071
        1
1005
9
1000
ACET-LAYISO}
  0
LAYER
  5
77
330
1D
100
AcDbSymbolTableRecord
100
AcDbLayerTableRecord
  2
0Hatch
 70
     0
 62
   122
  6
Continuous
370
     5
390
9
  0
LAYER
  5
A7
102
{ACAD_XDICTIONARY
360
A8
102
}
330
1D
100
AcDbSymbolTableRecord
100
AcDbLayerTableRecord
  2
TEREN$0$A-WallBelow-G
 70
     0
 62
     8
  6
Continuous
370
     5
390
A9
1001
RAK
1000
{KONDYGNACJA POWTARZALNA
1070
     0
1070
    30
1000
CONTINUOUS
1071
       -3
1071
        1
1005
9
1000
KONDYGNACJA POWTARZALNA}
1001
AcAecLayerStandard
1000

1000
Architects, Wall (below cut plane), Graphics
  0
LAYER
  5
6B
102
{ACAD_XDICTIONARY
360
6C
102
}
330
1D
100
AcDbSymbolTableRecord
100
AcDbLayerTableRecord
  2
RAMKI-A4
 70
     0
 62
     2
  6
Continuous
290
     0
370
    -3
390
9
1001
RAK
1000
{ACET-LAYISO
1070
     0
1070
     2
1000
Continuous
1071
       -3
1071
        0
1005
9
1000
ACET-LAYISO}
  0
LAYER
  5
66
102
{ACAD_XDICTIONARY
360
67
102
}
330
1D
100
AcDbSymbolTableRecord
100
AcDbLayerTableRecord
  2
0Napisy-PL
 70
     0
 62
   140
  6
Continuous
370
    15
390
9
1001
RAK
1000
{ACET-LAYISO
1070
     0
1070
   140
1000
Continuous
1071
       15
1071
        1
1005
9
1000
ACET-LAYISO}
  0
ENDTAB
  0
TABLE
  2
STYLE
  5
24
330
0
100
AcDbSymbolTable
 70
     6
  0
STYLE
  5
25
330
24
100
AcDbSymbolTableRecord
100
AcDbTextStyleTableRecord
  2
Standard
 70
     0
 40
0.0
 41
1.0
 50
0.0
 71
     0
 42
2.5
  3
txt
  4

  0
STYLE
  5
40
330
24
100
AcDbSymbolTableRecord
100
AcDbTextStyleTableRecord
  2
ROMANS
 70
     0
 40
0.0
 41
0.9
 50
0.0
 71
     0
 42
20.0
  3
romans.shx
  4

  0
STYLE
  5
6F
330
24
100
AcDbSymbolTableRecord
100
AcDbTextStyleTableRecord
  2
ARIAL
 70
     0
 40
0.0
 41
1.0
 50
0.0
 71
     0
 42
20.0
  3
ARIAL.TTF
  4

1001
ACAD
1000
Arial CE
1071
    60962
  0
STYLE
  5
31
330
24
100
AcDbSymbolTableRecord
100
AcDbTextStyleTableRecord
  2
romansDIM
 70
     0
 40
0.0
 41
0.8
 50
0.0
 71
     0
 42
18.0
  3
romans.shx
  4

  0
STYLE
  5
69
330
24
100
AcDbSymbolTableRecord
100
AcDbTextStyleTableRecord
  2
AVA
 70
     0
 40
0.0
 41
1.0
 50
0.0
 71
     0
 42
158.5644099714409
  3
ARIAL.TTF
  4

1001
ACAD
1000
Arial CE
1071
    60962
  0
ENDTAB
  0
TABLE
  2
VIEW
  5
2A
330
0
100
AcDbSymbolTable
 70
     1
  0
VIEW
  5
13
330
2A
100
AcDbSymbolTableRecord
100
AcDbViewTableRecord
  2
RODODENDRON 5
 70
     0
 40
14020.0
 10
220287.1664355166
 20
148687.514558954
 41
10200.00000000003
 11
0.0
 21
0.0
 31
1.0
 12
0.0
 22
0.0
 32
0.0
 42
50.0
 43
0.0
 44
0.0
 50
0.0
 71
     0
281
     0
 72
     1
110
0.0
120
0.0
130
0.0
111
1.0
121
0.0
131
0.0
112
0.0
122
1.0
132
0.0
 79
     0
146
0.0
  0
ENDTAB
  0
TABLE
  2
UCS
  5
2B
330
0
100
AcDbSymbolTable
 70
     0
  0
ENDTAB
  0
TABLE
  2
APPID
  5
2E
330
0
100
AcDbSymbolTable
 70
     7
  0
APPID
  5
23
330
2E
100
AcDbSymbolTableRecord
100
AcDbRegAppTableRecord
  2
ACAD
 70
     0
  0
APPID
  5
F
330
2E
100
AcDbSymbolTableRecord
100
AcDbRegAppTableRecord
  2
RAK
 70
     0
  0
APPID
  5
7C
330
2E
100
AcDbSymbolTableRecord
100
AcDbRegAppTableRecord
  2
AcAecLayerStandard
 70
     0
  0
APPID
  5
16
330
2E
100
AcDbSymbolTableRecord
100
AcDbRegAppTableRecord
  2
ACAD_PSEXT
 70
     0
  0
APPID
  5
70
330
2E
100
AcDbSymbolTableRecord
100
AcDbRegAppTableRecord
  2
AcDbBlockRepETag
 70
     0
  0
APPID
  5
71
330
2E
100
AcDbSymbolTableRecord
100
AcDbRegAppTableRecord
  2
DCO15
 70
     0
  0
APPID
  5
21
330
2E
100
AcDbSymbolTableRecord
100
AcDbRegAppTableRecord
  2
AcLayerTools
 70
     0
  0
ENDTAB
  0
TABLE
  2
DIMSTYLE
  5
2F
330
0
100
AcDbSymbolTable
 70
     6
100
AcDbDimStyleTable
 71
     3
340
30
340
3F
340
4E
  0
DIMSTYLE
105
4E
330
2F
100
AcDbSymbolTableRecord
100
AcDbDimStyleTableRecord
  2
Standard
 70
     0
340
25
  0
DIMSTYLE
105
30
330
2F
100
AcDbSymbolTableRecord
100
AcDbDimStyleTableRecord
  2
100-archon
 70
     0
 41
8.0
 42
43.0
 43
40.0
 44
13.0
 45
0.5
 46
12.0
 73
     0
 74
     0
 75
     1
 76
     1
 78
     8
140
16.0
141
15.0
145
1.0
147
4.0
172
     1
174
     1
176
     1
177
     1
178
   140
271
     1
272
     1
279
     2
340
31
341
32
342
37
371
     5
  0
DIMSTYLE
105
3F
102
{ACAD_REACTORS
330
1B1
330
1A5
330
1D2
330
1C7
330
1BC
330
1DD
330
30E
330
319
330
324
330
32F
330
33A
330
345
330
350
330
366
330
35B
330
373
102
}
330
2F
100
AcDbSymbolTableRecord
100
AcDbDimStyleTableRecord
  2
500
 70
     0
 41
30.0
 42
43.0
 43
0.0
 44
13.0
 45
0.5
 46
12.0
 73
     0
 74
     0
 75
     1
 76
     1
 78
    12
140
80.0
141
0.0
145
1.0
147
0.0
172
     1
174
     1
176
     1
177
     1
178
   140
271
     1
272
     1
279
     2
340
40
341
37
342
37
  0
ENDTAB
  0
TABLE
  2
BLOCK_RECORD
  5
1
330
0
100
AcDbSymbolTable
 70
    21
  0
BLOCK_RECORD
  5
2
102
{ACAD_XDICTIONARY
360
3
102
}
330
1
100
AcDbSymbolTableRecord
100
AcDbBlockTableRecord
  2
*Model_Space
340
11
  0
BLOCK_RECORD
  5
17
330
1
100
AcDbSymbolTableRecord
100
AcDbBlockTableRecord
  2
*Paper_Space
340
1A
  0
BLOCK_RECORD
  5
32
330
1
100
AcDbSymbolTableRecord
100
AcDbBlockTableRecord
  2
_Dot
340
0
  0
BLOCK_RECORD
  5
37
102
{ACAD_XDICTIONARY
360
38
102
}
330
1
100
AcDbSymbolTableRecord
100
AcDbBlockTableRecord
  2
B-DIM
340
0
102
{BLKREFS
331
1A9
331
1AA
331
1D6
331
1D7
331
1CB
331
1CC
331
1C0
331
1C1
331
1E1
331
1E2
331
312
331
313
331
333
331
334
331
33E
331
33F
331
349
331
34A
331
354
331
355
331
1B5
331
1B6
331
328
331
329
331
36C
331
36D
331
35F
331
360
331
31D
331
31E
331
379
331
37A
102
}
  0
BLOCK_RECORD
  5
1A6
330
1
100
AcDbSymbolTableRecord
100
AcDbBlockTableRecord
  2
*D4
340
0
  0
BLOCK_RECORD
  5
1B2
330
1
100
AcDbSymbolTableRecord
100
AcDbBlockTableRecord
  2
*D5
340
0
  0
BLOCK_RECORD
  5
1BD
330
1
100
AcDbSymbolTableRecord
100
AcDbBlockTableRecord
  2
*D6
340
0
  0
BLOCK_RECORD
  5
1C8
330
1
100
AcDbSymbolTableRecord
100
AcDbBlockTableRecord
  2
*D7
340
0
  0
BLOCK_RECORD
  5
1D3
330
1
100
AcDbSymbolTableRecord
100
AcDbBlockTableRecord
  2
*D8
340
0
  0
BLOCK_RECORD
  5
1DE
330
1
100
AcDbSymbolTableRecord
100
AcDbBlockTableRecord
  2
*D9
340
0
  0
BLOCK_RECORD
  5
30F
330
1
100
AcDbSymbolTableRecord
100
AcDbBlockTableRecord
  2
*D10
340
0
  0
BLOCK_RECORD
  5
31A
330
1
100
AcDbSymbolTableRecord
100
AcDbBlockTableRecord
  2
*D11
340
0
  0
BLOCK_RECORD
  5
325
330
1
100
AcDbSymbolTableRecord
100
AcDbBlockTableRecord
  2
*D12
340
0
  0
BLOCK_RECORD
  5
330
330
1
100
AcDbSymbolTableRecord
100
AcDbBlockTableRecord
  2
*D13
340
0
  0
BLOCK_RECORD
  5
33B
330
1
100
AcDbSymbolTableRecord
100
AcDbBlockTableRecord
  2
*D14
340
0
  0
BLOCK_RECORD
  5
346
330
1
100
AcDbSymbolTableRecord
100
AcDbBlockTableRecord
  2
*D15
340
0
  0
BLOCK_RECORD
  5
351
330
1
100
AcDbSymbolTableRecord
100
AcDbBlockTableRecord
  2
*D16
340
0
  0
BLOCK_RECORD
  5
35C
330
1
100
AcDbSymbolTableRecord
100
AcDbBlockTableRecord
  2
*D17
340
0
  0
BLOCK_RECORD
  5
367
330
1
100
AcDbSymbolTableRecord
100
AcDbBlockTableRecord
  2
*D18
340
0
  0
BLOCK_RECORD
  5
374
330
1
100
AcDbSymbolTableRecord
100
AcDbBlockTableRecord
  2
*D19
340
0
  0
ENDTAB
  0
ENDSEC
  0
SECTION
  2
BLOCKS
  0
BLOCK
  5
5
330
2
100
AcDbEntity
  8
0
100
AcDbBlockBegin
  2
*Model_Space
 70
     0
 10
0.0
 20
0.0
 30
0.0
  3
*Model_Space
  1

  0
ENDBLK
  5
10
330
2
100
AcDbEntity
  8
0
100
AcDbBlockEnd
  0
BLOCK
  5
18
330
17
100
AcDbEntity
 67
     1
  8
0
100
AcDbBlockBegin
  2
*Paper_Space
 70
     0
 10
0.0
 20
0.0
 30
0.0
  3
*Paper_Space
  1

  0
ENDBLK
  5
19
330
17
100
AcDbEntity
 67
     1
  8
0
100
AcDbBlockEnd
  0
BLOCK
  5
33
330
32
100
AcDbEntity
  8
0
100
AcDbBlockBegin
  2
_Dot
 70
     0
 10
0.0
 20
0.0
 30
0.0
  3
_Dot
  1

  0
LWPOLYLINE
  5
34
330
32
100
AcDbEntity
  8
0
  6
ByBlock
 62
     0
100
AcDbPolyline
 90
        2
 70
     1
 43
0.5
 10
-0.25
 20
0.0
 42
1.0
 10
0.25
 20
0.0
 42
1.0
  0
LINE
  5
35
330
32
100
AcDbEntity
  8
0
  6
ByBlock
 62
     0
370
    -2
100
AcDbLine
 10
-0.5
 20
0.0
 30
0.0
 11
-1.0
 21
0.0
 31
0.0
  0
ENDBLK
  5
36
330
32
100
AcDbEntity
  8
0
100
AcDbBlockEnd
  0
BLOCK
  5
3A
330
37
100
AcDbEntity
  8
0
100
AcDbBlockBegin
  2
B-DIM
 70
     0
 10
0.0
 20
0.0
 30
0.0
  3
B-DIM
  1

  0
LINE
  5
3B
330
37
100
AcDbEntity
  8
0
 62
     1
100
AcDbLine
 10
0.000000000000091
 20
-1.1
 30
0.0
 11
0.000000000000091
 21
1.1
 31
0.0
  0
LWPOLYLINE
  5
3C
330
37
100
AcDbEntity
  8
0
 62
     1
100
AcDbPolyline
 90
        2
 70
     0
 43
0.3
 10
-0.7071067811864851
 20
-0.7071067811864851
 10
0.707106781186576
 20
0.707106781186576
  0
LINE
  5
3D
330
37
100
AcDbEntity
  8
0
 62
     1
100
AcDbLine
 10
1.20000000000009
 20
0.0
 30
0.0
 11
-1.199999999999909
 21
0.0
 31
0.0
  0
ENDBLK
  5
3E
330
37
100
AcDbEntity
  8
0
100
AcDbBlockEnd
  0
BLOCK
  5
1A7
330
1A6
100
AcDbEntity
  8
0
100
AcDbBlockBegin
  2
*D4
 70
     1
 10
0.0
 20
0.0
 30
0.0
  3
*D4
  1

  0
LINE
  5
1A8
330
1A6
100
AcDbEntity
  8
0Wymiary-PL
 62
     1
370
    -2
100
AcDbLine
 10
247247.0446067616
 20
141874.3702783322
 30
0.0
 11
247817.0446067616
 21
141874.3702783322
 31
0.0
  0
INSERT
  5
1A9
330
1A6
100
AcDbEntity
  8
0Wymiary-PL
 62
     1
370
    -2
100
AcDbBlockReference
  2
B-DIM
 10
247217.0446067616
 20
141874.3702783322
 30
0.0
 41
30.0
 42
30.0
 43
30.0
 50
180.0
  0
INSERT
  5
1AA
330
1A6
100
AcDbEntity
  8
0Wymiary-PL
 62
     1
370
    -2
100
AcDbBlockReference
  2
B-DIM
 10
247847.0446067616
 20
141874.3702783322
 30
0.0
 41
30.0
 42
30.0
 43
30.0
  0
MTEXT
  5
1AB
330
1A6
100
AcDbEntity
  8
0Wymiary-PL
 62
   140
100
AcDbMText
 10
247532.0446067617
 20
141954.3702783322
 30
0.0
 40
80.0
 41
0.0
 71
     5
 72
     1
  1
\A1;630
  7
ROMANS
 73
     1
 44
1.0
1001
ACAD
1000
MTEXTBEGIN
1070
    73
1070
     1
1070
    44
1040
1.0
1070
    74
1070
     0
1000
MTEXTEND
  0
POINT
  5
1AC
330
1A6
100
AcDbEntity
  8
DEFPOINTS
 62
     0
100
AcDbPoint
 10
247217.0446067616
 20
142416.8156187407
 30
0.0
  0
POINT
  5
1AE
330
1A6
100
AcDbEntity
  8
DEFPOINTS
 62
     0
100
AcDbPoint
 10
247847.0446067616
 20
142416.8156187436
 30
0.0
  0
POINT
  5
1AF
330
1A6
100
AcDbEntity
  8
DEFPOINTS
 62
     0
100
AcDbPoint
 10
247847.0446067616
 20
141874.3702783322
 30
0.0
  0
ENDBLK
  5
1B0
330
1A6
100
AcDbEntity
  8
0
100
AcDbBlockEnd
  0
BLOCK
  5
1B3
330
1B2
100
AcDbEntity
  8
0
100
AcDbBlockBegin
  2
*D5
 70
     1
 10
0.0
 20
0.0
 30
0.0
  3
*D5
  1

  0
LINE
  5
1B4
330
1B2
100
AcDbEntity
  8
0Wymiary-PL
 62
     1
370
    -2
100
AcDbLine
 10
247247.0446067616
 20
141681.4384348913
 30
0.0
 11
249007.0446067616
 21
141681.4384348913
 31
0.0
  0
INSERT
  5
1B5
330
1B2
100
AcDbEntity
  8
0Wymiary-PL
 62
     1
370
    -2
100
AcDbBlockReference
  2
B-DIM
 10
247217.0446067616
 20
141681.4384348913
 30
0.0
 41
30.0
 42
30.0
 43
30.0
 50
180.0
  0
INSERT
  5
1B6
330
1B2
100
AcDbEntity
  8
0Wymiary-PL
 62
     1
370
    -2
100
AcDbBlockReference
  2
B-DIM
 10
249037.0446067616
 20
141681.4384348913
 30
0.0
 41
30.0
 42
30.0
 43
30.0
  0
MTEXT
  5
1B7
330
1B2
100
AcDbEntity
  8
0Wymiary-PL
 62
   140
100
AcDbMText
 10
248127.0446067616
 20
141761.4384348913
 30
0.0
 40
80.0
 41
0.0
 71
     5
 72
     1
  1
\A1;1820
  7
ROMANS
 73
     1
 44
1.0
1001
ACAD
1000
MTEXTBEGIN
1070
    73
1070
     1
1070
    44
1040
1.0
1070
    74
1070
     0
1000
MTEXTEND
  0
POINT
  5
1B8
330
1B2
100
AcDbEntity
  8
DEFPOINTS
 62
     0
100
AcDbPoint
 10
247217.0446067616
 20
142416.8156187407
 30
0.0
  0
POINT
  5
1B9
330
1B2
100
AcDbEntity
  8
DEFPOINTS
 62
     0
100
AcDbPoint
 10
249037.0446067616
 20
142642.718895909
 30
0.0
  0
POINT
  5
1BA
330
1B2
100
AcDbEntity
  8
DEFPOINTS
 62
     0
100
AcDbPoint
 10
249037.0446067616
 20
141681.4384348913
 30
0.0
  0
ENDBLK
  5
1BB
330
1B2
100
AcDbEntity
  8
0
100
AcDbBlockEnd
  0
BLOCK
  5
1BE
330
1BD
100
AcDbEntity
  8
0
100
AcDbBlockBegin
  2
*D6
 70
     1
 10
0.0
 20
0.0
 30
0.0
  3
*D6
  1

  0
LINE
  5
1BF
330
1BD
100
AcDbEntity
  8
0Wymiary-PL
 62
     1
370
    -2
100
AcDbLine
 10
249604.7609536525
 20
143241.8156187407
 30
0.0
 11
249604.7609536525
 21
143050.7290778374
 31
0.0
  0
INSERT
  5
1C0
330
1BD
100
AcDbEntity
  8
0Wymiary-PL
 62
     1
370
    -2
100
AcDbBlockReference
  2
B-DIM
 10
249604.7609536525
 20
143271.8156187407
 30
0.0
 41
30.0
 42
30.0
 43
30.0
 50
90.0
  0
INSERT
  5
1C1
330
1BD
100
AcDbEntity
  8
0Wymiary-PL
 62
     1
370
    -2
100
AcDbBlockReference
  2
B-DIM
 10
249604.7609536525
 20
143020.7290778374
 30
0.0
 41
30.0
 42
30.0
 43
30.0
 50
270.0
  0
MTEXT
  5
1C2
330
1BD
100
AcDbEntity
  8
0Wymiary-PL
 62
   140
100
AcDbMText
 10
249524.7609536524
 20
143146.2723482891
 30
0.0
 40
80.0
 41
0.0
 71
     5
 72
     1
  1
\A1;251
  7
ROMANS
 11
0.0000000000000001
 21
1.0
 31
0.0
 73
     1
 44
1.0
1001
ACAD
1000
MTEXTBEGIN
1070
    73
1070
     1
1070
    44
1040
1.0
1070
    74
1070
     0
1000
MTEXTEND
  0
POINT
  5
1C3
330
1BD
100
AcDbEntity
  8
DEFPOINTS
 62
     0
100
AcDbPoint
 10
248947.0446067616
 20
143271.8156187407
 30
0.0
  0
POINT
  5
1C4
330
1BD
100
AcDbEntity
  8
DEFPOINTS
 62
     0
100
AcDbPoint
 10
249037.0446067616
 20
143020.7290778374
 30
0.0
  0
POINT
  5
1C5
330
1BD
100
AcDbEntity
  8
DEFPOINTS
 62
     0
100
AcDbPoint
 10
249604.7609536525
 20
143020.7290778374
 30
0.0
  0
ENDBLK
  5
1C6
330
1BD
100
AcDbEntity
  8
0
100
AcDbBlockEnd
  0
BLOCK
  5
1C9
330
1C8
100
AcDbEntity
  8
0
100
AcDbBlockBegin
  2
*D7
 70
     1
 10
0.0
 20
0.0
 30
0.0
  3
*D7
  1

  0
LINE
  5
1CA
330
1C8
100
AcDbEntity
  8
0Wymiary-PL
 62
     1
370
    -2
100
AcDbLine
 10
249604.7609536525
 20
142990.7290778374
 30
0.0
 11
249604.7609536525
 21
142672.718895909
 31
0.0
  0
INSERT
  5
1CB
330
1C8
100
AcDbEntity
  8
0Wymiary-PL
 62
     1
370
    -2
100
AcDbBlockReference
  2
B-DIM
 10
249604.7609536525
 20
143020.7290778374
 30
0.0
 41
30.0
 42
30.0
 43
30.0
 50
90.0
  0
INSERT
  5
1CC
330
1C8
100
AcDbEntity
  8
0Wymiary-PL
 62
     1
370
    -2
100
AcDbBlockReference
  2
B-DIM
 10
249604.7609536525
 20
142642.718895909
 30
0.0
 41
30.0
 42
30.0
 43
30.0
 50
270.0
  0
MTEXT
  5
1CD
330
1C8
100
AcDbEntity
  8
0Wymiary-PL
 62
   140
100
AcDbMText
 10
249524.7609536524
 20
142831.7239868732
 30
0.0
 40
80.0
 41
0.0
 71
     5
 72
     1
  1
\A1;378
  7
ROMANS
 11
0.0000000000000001
 21
1.0
 31
0.0
 73
     1
 44
1.0
1001
ACAD
1000
MTEXTBEGIN
1070
    73
1070
     1
1070
    44
1040
1.0
1070
    74
1070
     0
1000
MTEXTEND
  0
POINT
  5
1CE
330
1C8
100
AcDbEntity
  8
DEFPOINTS
 62
     0
100
AcDbPoint
 10
249037.0446067616
 20
143020.7290778374
 30
0.0
  0
POINT
  5
1CF
330
1C8
100
AcDbEntity
  8
DEFPOINTS
 62
     0
100
AcDbPoint
 10
249037.0446067616
 20
142642.718895909
 30
0.0
  0
POINT
  5
1D0
330
1C8
100
AcDbEntity
  8
DEFPOINTS
 62
     0
100
AcDbPoint
 10
249604.7609536525
 20
142642.718895909
 30
0.0
  0
ENDBLK
  5
1D1
330
1C8
100
AcDbEntity
  8
0
100
AcDbBlockEnd
  0
BLOCK
  5
1D4
330
1D3
100
AcDbEntity
  8
0
100
AcDbBlockBegin
  2
*D8
 70
     1
 10
0.0
 20
0.0
 30
0.0
  3
*D8
  1

  0
LINE
  5
1D5
330
1D3
100
AcDbEntity
  8
0Wymiary-PL
 62
     1
370
    -2
100
AcDbLine
 10
249604.7609536525
 20
142612.718895909
 30
0.0
 11
249604.7609536525
 21
142421.8156187407
 31
0.0
  0
INSERT
  5
1D6
330
1D3
100
AcDbEntity
  8
0Wymiary-PL
 62
     1
370
    -2
100
AcDbBlockReference
  2
B-DIM
 10
249604.7609536525
 20
142642.718895909
 30
0.0
 41
30.0
 42
30.0
 43
30.0
 50
90.0
  0
INSERT
  5
1D7
330
1D3
100
AcDbEntity
  8
0Wymiary-PL
 62
     1
370
    -2
100
AcDbBlockReference
  2
B-DIM
 10
249604.7609536525
 20
142391.8156187407
 30
0.0
 41
30.0
 42
30.0
 43
30.0
 50
270.0
  0
MTEXT
  5
1D8
330
1D3
100
AcDbEntity
  8
0Wymiary-PL
 62
   140
100
AcDbMText
 10
249524.7609536524
 20
142517.2672573249
 30
0.0
 40
80.0
 41
0.0
 71
     5
 72
     1
  1
\A1;251
  7
ROMANS
 11
0.0000000000000001
 21
1.0
 31
0.0
 73
     1
 44
1.0
1001
ACAD
1000
MTEXTBEGIN
1070
    73
1070
     1
1070
    44
1040
1.0
1070
    74
1070
     0
1000
MTEXTEND
  0
POINT
  5
1D9
330
1D3
100
AcDbEntity
  8
DEFPOINTS
 62
     0
100
AcDbPoint
 10
249037.0446067616
 20
142642.718895909
 30
0.0
  0
POINT
  5
1DA
330
1D3
100
AcDbEntity
  8
DEFPOINTS
 62
     0
100
AcDbPoint
 10
248947.0446067616
 20
142391.8156187407
 30
0.0
  0
POINT
  5
1DB
330
1D3
100
AcDbEntity
  8
DEFPOINTS
 62
     0
100
AcDbPoint
 10
249604.7609536525
 20
142391.8156187407
 30
0.0
  0
ENDBLK
  5
1DC
330
1D3
100
AcDbEntity
  8
0
100
AcDbBlockEnd
  0
BLOCK
  5
1DF
330
1DE
100
AcDbEntity
  8
0
100
AcDbBlockBegin
  2
*D9
 70
     1
 10
0.0
 20
0.0
 30
0.0
  3
*D9
  1

  0
LINE
  5
1E0
330
1DE
100
AcDbEntity
  8
0Wymiary-PL
 62
     1
370
    -2
100
AcDbLine
 10
249797.7609536525
 20
143241.8156187407
 30
0.0
 11
249797.7609536525
 21
142421.8156187407
 31
0.0
  0
INSERT
  5
1E1
330
1DE
100
AcDbEntity
  8
0Wymiary-PL
 62
     1
370
    -2
100
AcDbBlockReference
  2
B-DIM
 10
249797.7609536525
 20
143271.8156187407
 30
0.0
 41
30.0
 42
30.0
 43
30.0
 50
90.0
  0
INSERT
  5
1E2
330
1DE
100
AcDbEntity
  8
0Wymiary-PL
 62
     1
370
    -2
100
AcDbBlockReference
  2
B-DIM
 10
249797.7609536525
 20
142391.8156187407
 30
0.0
 41
30.0
 42
30.0
 43
30.0
 50
270.0
  0
MTEXT
  5
1E3
330
1DE
100
AcDbEntity
  8
0Wymiary-PL
 62
   140
100
AcDbMText
 10
249717.7609536525
 20
142831.8156187407
 30
0.0
 40
80.0
 41
0.0
 71
     5
 72
     1
  1
\A1;880
  7
ROMANS
 11
0.0000000000000001
 21
1.0
 31
0.0
 73
     1
 44
1.0
1001
ACAD
1000
MTEXTBEGIN
1070
    73
1070
     1
1070
    44
1040
1.0
1070
    74
1070
     0
1000
MTEXTEND
  0
POINT
  5
1E4
330
1DE
100
AcDbEntity
  8
DEFPOINTS
 62
     0
100
AcDbPoint
 10
248918.9014878186
 20
143271.8156187407
 30
0.0
  0
POINT
  5
1E5
330
1DE
100
AcDbEntity
  8
DEFPOINTS
 62
     0
100
AcDbPoint
 10
248918.9014878186
 20
142391.8156187407
 30
0.0
  0
POINT
  5
1E6
330
1DE
100
AcDbEntity
  8
DEFPOINTS
 62
     0
100
AcDbPoint
 10
249797.7609536525
 20
142391.8156187407
 30
0.0
  0
ENDBLK
  5
1E7
330
1DE
100
AcDbEntity
  8
0
100
AcDbBlockEnd
  0
BLOCK
  5
310
330
30F
100
AcDbEntity
  8
0
100
AcDbBlockBegin
  2
*D10
 70
     1
 10
0.0
 20
0.0
 30
0.0
  3
*D10
  1

  0
LINE
  5
311
330
30F
100
AcDbEntity
  8
0Wymiary-PL
 62
     1
370
    -2
100
AcDbLine
 10
253439.3398417221
 20
141874.3702783322
 30
0.0
 11
252869.3398417221
 21
141874.3702783322
 31
0.0
  0
INSERT
  5
312
330
30F
100
AcDbEntity
  8
0Wymiary-PL
 62
     1
370
    -2
100
AcDbBlockReference
  2
B-DIM
 10
253469.3398417222
 20
141874.3702783322
 30
0.0
 41
30.0
 42
30.0
 43
30.0
  0
INSERT
  5
313
330
30F
100
AcDbEntity
  8
0Wymiary-PL
 62
     1
370
    -2
100
AcDbBlockReference
  2
B-DIM
 10
252839.3398417221
 20
141874.3702783322
 30
0.0
 41
30.0
 42
30.0
 43
30.0
 50
180.0
  0
MTEXT
  5
314
330
30F
100
AcDbEntity
  8
0Wymiary-PL
 62
   140
100
AcDbMText
 10
253154.3398417221
 20
141954.3702783322
 30
0.0
 40
80.0
 41
0.0
 71
     5
 72
     1
  1
\A1;630
  7
ROMANS
 73
     1
 44
1.0
1001
ACAD
1000
MTEXTBEGIN
1070
    73
1070
     1
1070
    44
1040
1.0
1070
    74
1070
     0
1000
MTEXTEND
  0
POINT
  5
315
330
30F
100
AcDbEntity
  8
DEFPOINTS
 62
     0
100
AcDbPoint
 10
253469.3398417222
 20
142416.8156187407
 30
0.0
  0
POINT
  5
316
330
30F
100
AcDbEntity
  8
DEFPOINTS
 62
     0
100
AcDbPoint
 10
252839.3398417221
 20
142416.8156187436
 30
0.0
  0
POINT
  5
317
330
30F
100
AcDbEntity
  8
DEFPOINTS
 62
     0
100
AcDbPoint
 10
252839.3398417221
 20
141874.3702783322
 30
0.0
  0
ENDBLK
  5
318
330
30F
100
AcDbEntity
  8
0
100
AcDbBlockEnd
  0
BLOCK
  5
31B
330
31A
100
AcDbEntity
  8
0
100
AcDbBlockBegin
  2
*D11
 70
     1
 10
0.0
 20
0.0
 30
0.0
  3
*D11
  1

  0
LINE
  5
31C
330
31A
100
AcDbEntity
  8
0Wymiary-PL
 62
     1
370
    -2
100
AcDbLine
 10
252809.3398417221
 20
141874.3702783322
 30
0.0
 11
251769.3398417222
 21
141874.3702783322
 31
0.0
  0
INSERT
  5
31D
330
31A
100
AcDbEntity
  8
0Wymiary-PL
 62
     1
370
    -2
100
AcDbBlockReference
  2
B-DIM
 10
252839.3398417221
 20
141874.3702783322
 30
0.0
 41
30.0
 42
30.0
 43
30.0
  0
INSERT
  5
31E
330
31A
100
AcDbEntity
  8
0Wymiary-PL
 62
     1
370
    -2
100
AcDbBlockReference
  2
B-DIM
 10
251739.3398417222
 20
141874.3702783322
 30
0.0
 41
30.0
 42
30.0
 43
30.0
 50
180.0
  0
MTEXT
  5
31F
330
31A
100
AcDbEntity
  8
0Wymiary-PL
 62
   140
100
AcDbMText
 10
252289.3398417221
 20
141954.3702783322
 30
0.0
 40
80.0
 41
0.0
 71
     5
 72
     1
  1
\A1;1100
  7
ROMANS
 73
     1
 44
1.0
1001
ACAD
1000
MTEXTBEGIN
1070
    73
1070
     1
1070
    44
1040
1.0
1070
    74
1070
     0
1000
MTEXTEND
  0
POINT
  5
320
330
31A
100
AcDbEntity
  8
DEFPOINTS
 62
     0
100
AcDbPoint
 10
252839.3398417221
 20
142416.8156187436
 30
0.0
  0
POINT
  5
321
330
31A
100
AcDbEntity
  8
DEFPOINTS
 62
     0
100
AcDbPoint
 10
251739.3398417222
 20
142391.8156187407
 30
0.0
  0
POINT
  5
322
330
31A
100
AcDbEntity
  8
DEFPOINTS
 62
     0
100
AcDbPoint
 10
251739.3398417222
 20
141874.3702783322
 30
0.0
  0
ENDBLK
  5
323
330
31A
100
AcDbEntity
  8
0
100
AcDbBlockEnd
  0
BLOCK
  5
326
330
325
100
AcDbEntity
  8
0
100
AcDbBlockBegin
  2
*D12
 70
     1
 10
0.0
 20
0.0
 30
0.0
  3
*D12
  1

  0
LINE
  5
327
330
325
100
AcDbEntity
  8
0Wymiary-PL
 62
     1
370
    -2
100
AcDbLine
 10
253439.3398417221
 20
141681.4384348913
 30
0.0
 11
251679.3398417222
 21
141681.4384348913
 31
0.0
  0
INSERT
  5
328
330
325
100
AcDbEntity
  8
0Wymiary-PL
 62
     1
370
    -2
100
AcDbBlockReference
  2
B-DIM
 10
253469.3398417222
 20
141681.4384348913
 30
0.0
 41
30.0
 42
30.0
 43
30.0
  0
INSERT
  5
329
330
325
100
AcDbEntity
  8
0Wymiary-PL
 62
     1
370
    -2
100
AcDbBlockReference
  2
B-DIM
 10
251649.3398417221
 20
141681.4384348913
 30
0.0
 41
30.0
 42
30.0
 43
30.0
 50
180.0
  0
MTEXT
  5
32A
330
325
100
AcDbEntity
  8
0Wymiary-PL
 62
   140
100
AcDbMText
 10
252559.3398417222
 20
141761.4384348913
 30
0.0
 40
80.0
 41
0.0
 71
     5
 72
     1
  1
\A1;1820
  7
ROMANS
 73
     1
 44
1.0
1001
ACAD
1000
MTEXTBEGIN
1070
    73
1070
     1
1070
    44
1040
1.0
1070
    74
1070
     0
1000
MTEXTEND
  0
POINT
  5
32B
330
325
100
AcDbEntity
  8
DEFPOINTS
 62
     0
100
AcDbPoint
 10
253469.3398417222
 20
142416.8156187407
 30
0.0
  0
POINT
  5
32C
330
325
100
AcDbEntity
  8
DEFPOINTS
 62
     0
100
AcDbPoint
 10
251649.3398417221
 20
142642.718895909
 30
0.0
  0
POINT
  5
32D
330
325
100
AcDbEntity
  8
DEFPOINTS
 62
     0
100
AcDbPoint
 10
251649.3398417221
 20
141681.4384348913
 30
0.0
  0
ENDBLK
  5
32E
330
325
100
AcDbEntity
  8
0
100
AcDbBlockEnd
  0
BLOCK
  5
331
330
330
100
AcDbEntity
  8
0
100
AcDbBlockBegin
  2
*D13
 70
     1
 10
0.0
 20
0.0
 30
0.0
  3
*D13
  1

  0
LINE
  5
332
330
330
100
AcDbEntity
  8
0Wymiary-PL
 62
     1
370
    -2
100
AcDbLine
 10
251081.6234948313
 20
143241.8156187407
 30
0.0
 11
251081.6234948313
 21
143050.7290778374
 31
0.0
  0
INSERT
  5
333
330
330
100
AcDbEntity
  8
0Wymiary-PL
 62
     1
370
    -2
100
AcDbBlockReference
  2
B-DIM
 10
251081.6234948313
 20
143271.8156187407
 30
0.0
 41
30.0
 42
30.0
 43
30.0
 50
90.0
  0
INSERT
  5
334
330
330
100
AcDbEntity
  8
0Wymiary-PL
 62
     1
370
    -2
100
AcDbBlockReference
  2
B-DIM
 10
251081.6234948313
 20
143020.7290778374
 30
0.0
 41
30.0
 42
30.0
 43
30.0
 50
270.0
  0
MTEXT
  5
335
330
330
100
AcDbEntity
  8
0Wymiary-PL
 62
   140
100
AcDbMText
 10
251001.6234948313
 20
143146.2723482891
 30
0.0
 40
80.0
 41
0.0
 71
     5
 72
     1
  1
\A1;251
  7
ROMANS
 11
0.0000000000000001
 21
1.0
 31
0.0
 73
     1
 44
1.0
1001
ACAD
1000
MTEXTBEGIN
1070
    73
1070
     1
1070
    44
1040
1.0
1070
    74
1070
     0
1000
MTEXTEND
  0
POINT
  5
336
330
330
100
AcDbEntity
  8
DEFPOINTS
 62
     0
100
AcDbPoint
 10
251739.3398417222
 20
143271.8156187407
 30
0.0
  0
POINT
  5
337
330
330
100
AcDbEntity
  8
DEFPOINTS
 62
     0
100
AcDbPoint
 10
251649.3398417221
 20
143020.7290778374
 30
0.0
  0
POINT
  5
338
330
330
100
AcDbEntity
  8
DEFPOINTS
 62
     0
100
AcDbPoint
 10
251081.6234948313
 20
143020.7290778374
 30
0.0
  0
ENDBLK
  5
339
330
330
100
AcDbEntity
  8
0
100
AcDbBlockEnd
  0
BLOCK
  5
33C
330
33B
100
AcDbEntity
  8
0
100
AcDbBlockBegin
  2
*D14
 70
     1
 10
0.0
 20
0.0
 30
0.0
  3
*D14
  1

  0
LINE
  5
33D
330
33B
100
AcDbEntity
  8
0Wymiary-PL
 62
     1
370
    -2
100
AcDbLine
 10
251081.6234948313
 20
142990.7290778374
 30
0.0
 11
251081.6234948313
 21
142672.718895909
 31
0.0
  0
INSERT
  5
33E
330
33B
100
AcDbEntity
  8
0Wymiary-PL
 62
     1
370
    -2
100
AcDbBlockReference
  2
B-DIM
 10
251081.6234948313
 20
143020.7290778374
 30
0.0
 41
30.0
 42
30.0
 43
30.0
 50
90.0
  0
INSERT
  5
33F
330
33B
100
AcDbEntity
  8
0Wymiary-PL
 62
     1
370
    -2
100
AcDbBlockReference
  2
B-DIM
 10
251081.6234948313
 20
142642.718895909
 30
0.0
 41
30.0
 42
30.0
 43
30.0
 50
270.0
  0
MTEXT
  5
340
330
33B
100
AcDbEntity
  8
0Wymiary-PL
 62
   140
100
AcDbMText
 10
251001.6234948313
 20
142831.7239868732
 30
0.0
 40
80.0
 41
0.0
 71
     5
 72
     1
  1
\A1;378
  7
ROMANS
 11
0.0000000000000001
 21
1.0
 31
0.0
 73
     1
 44
1.0
1001
ACAD
1000
MTEXTBEGIN
1070
    73
1070
     1
1070
    44
1040
1.0
1070
    74
1070
     0
1000
MTEXTEND
  0
POINT
  5
341
330
33B
100
AcDbEntity
  8
DEFPOINTS
 62
     0
100
AcDbPoint
 10
251649.3398417221
 20
143020.7290778374
 30
0.0
  0
POINT
  5
342
330
33B
100
AcDbEntity
  8
DEFPOINTS
 62
     0
100
AcDbPoint
 10
251649.3398417221
 20
142642.718895909
 30
0.0
  0
POINT
  5
343
330
33B
100
AcDbEntity
  8
DEFPOINTS
 62
     0
100
AcDbPoint
 10
251081.6234948313
 20
142642.718895909
 30
0.0
  0
ENDBLK
  5
344
330
33B
100
AcDbEntity
  8
0
100
AcDbBlockEnd
  0
BLOCK
  5
347
330
346
100
AcDbEntity
  8
0
100
AcDbBlockBegin
  2
*D15
 70
     1
 10
0.0
 20
0.0
 30
0.0
  3
*D15
  1

  0
LINE
  5
348
330
346
100
AcDbEntity
  8
0Wymiary-PL
 62
     1
370
    -2
100
AcDbLine
 10
251081.6234948313
 20
142612.718895909
 30
0.0
 11
251081.6234948313
 21
142421.8156187407
 31
0.0
  0
INSERT
  5
349
330
346
100
AcDbEntity
  8
0Wymiary-PL
 62
     1
370
    -2
100
AcDbBlockReference
  2
B-DIM
 10
251081.6234948313
 20
142642.718895909
 30
0.0
 41
30.0
 42
30.0
 43
30.0
 50
90.0
  0
INSERT
  5
34A
330
346
100
AcDbEntity
  8
0Wymiary-PL
 62
     1
370
    -2
100
AcDbBlockReference
  2
B-DIM
 10
251081.6234948313
 20
142391.8156187407
 30
0.0
 41
30.0
 42
30.0
 43
30.0
 50
270.0
  0
MTEXT
  5
34B
330
346
100
AcDbEntity
  8
0Wymiary-PL
 62
   140
100
AcDbMText
 10
251001.6234948313
 20
142517.2672573249
 30
0.0
 40
80.0
 41
0.0
 71
     5
 72
     1
  1
\A1;251
  7
ROMANS
 11
0.0000000000000001
 21
1.0
 31
0.0
 73
     1
 44
1.0
1001
ACAD
1000
MTEXTBEGIN
1070
    73
1070
     1
1070
    44
1040
1.0
1070
    74
1070
     0
1000
MTEXTEND
  0
POINT
  5
34C
330
346
100
AcDbEntity
  8
DEFPOINTS
 62
     0
100
AcDbPoint
 10
251649.3398417221
 20
142642.718895909
 30
0.0
  0
POINT
  5
34D
330
346
100
AcDbEntity
  8
DEFPOINTS
 62
     0
100
AcDbPoint
 10
251739.3398417222
 20
142391.8156187407
 30
0.0
  0
POINT
  5
34E
330
346
100
AcDbEntity
  8
DEFPOINTS
 62
     0
100
AcDbPoint
 10
251081.6234948313
 20
142391.8156187407
 30
0.0
  0
ENDBLK
  5
34F
330
346
100
AcDbEntity
  8
0
100
AcDbBlockEnd
  0
BLOCK
  5
352
330
351
100
AcDbEntity
  8
0
100
AcDbBlockBegin
  2
*D16
 70
     1
 10
0.0
 20
0.0
 30
0.0
  3
*D16
  1

  0
LINE
  5
353
330
351
100
AcDbEntity
  8
0Wymiary-PL
 62
     1
370
    -2
100
AcDbLine
 10
250888.6234948313
 20
143241.8156187407
 30
0.0
 11
250888.6234948313
 21
142421.8156187407
 31
0.0
  0
INSERT
  5
354
330
351
100
AcDbEntity
  8
0Wymiary-PL
 62
     1
370
    -2
100
AcDbBlockReference
  2
B-DIM
 10
250888.6234948313
 20
143271.8156187407
 30
0.0
 41
30.0
 42
30.0
 43
30.0
 50
90.0
  0
INSERT
  5
355
330
351
100
AcDbEntity
  8
0Wymiary-PL
 62
     1
370
    -2
100
AcDbBlockReference
  2
B-DIM
 10
250888.6234948313
 20
142391.8156187407
 30
0.0
 41
30.0
 42
30.0
 43
30.0
 50
270.0
  0
MTEXT
  5
356
330
351
100
AcDbEntity
  8
0Wymiary-PL
 62
   140
100
AcDbMText
 10
250808.6234948312
 20
142831.8156187407
 30
0.0
 40
80.0
 41
0.0
 71
     5
 72
     1
  1
\A1;880
  7
ROMANS
 11
0.0000000000000001
 21
1.0
 31
0.0
 73
     1
 44
1.0
1001
ACAD
1000
MTEXTBEGIN
1070
    73
1070
     1
1070
    44
1040
1.0
1070
    74
1070
     0
1000
MTEXTEND
  0
POINT
  5
357
330
351
100
AcDbEntity
  8
DEFPOINTS
 62
     0
100
AcDbPoint
 10
251767.4829606651
 20
143271.8156187407
 30
0.0
  0
POINT
  5
358
330
351
100
AcDbEntity
  8
DEFPOINTS
 62
     0
100
AcDbPoint
 10
251767.4829606651
 20
142391.8156187407
 30
0.0
  0
POINT
  5
359
330
351
100
AcDbEntity
  8
DEFPOINTS
 62
     0
100
AcDbPoint
 10
250888.6234948313
 20
142391.8156187407
 30
0.0
  0
ENDBLK
  5
35A
330
351
100
AcDbEntity
  8
0
100
AcDbBlockEnd
  0
BLOCK
  5
35D
330
35C
100
AcDbEntity
  8
0
100
AcDbBlockBegin
  2
*D17
 70
     1
 10
0.0
 20
0.0
 30
0.0
  3
*D17
  1

  0
LINE
  5
35E
330
35C
100
AcDbEntity
  8
0Wymiary-PL
 62
     1
370
    -2
100
AcDbLine
 10
247877.0446067616
 20
141874.3702783322
 30
0.0
 11
248917.0446067616
 21
141874.3702783322
 31
0.0
  0
INSERT
  5
35F
330
35C
100
AcDbEntity
  8
0Wymiary-PL
 62
     1
370
    -2
100
AcDbBlockReference
  2
B-DIM
 10
247847.0446067616
 20
141874.3702783322
 30
0.0
 41
30.0
 42
30.0
 43
30.0
 50
180.0
  0
INSERT
  5
360
330
35C
100
AcDbEntity
  8
0Wymiary-PL
 62
     1
370
    -2
100
AcDbBlockReference
  2
B-DIM
 10
248947.0446067616
 20
141874.3702783322
 30
0.0
 41
30.0
 42
30.0
 43
30.0
  0
MTEXT
  5
361
330
35C
100
AcDbEntity
  8
0Wymiary-PL
 62
   140
100
AcDbMText
 10
248397.0446067616
 20
141954.3702783322
 30
0.0
 40
80.0
 41
0.0
 71
     5
 72
     1
  1
\A1;1100
  7
ROMANS
 73
     1
 44
1.0
1001
ACAD
1000
MTEXTBEGIN
1070
    73
1070
     1
1070
    44
1040
1.0
1070
    74
1070
     0
1000
MTEXTEND
  0
POINT
  5
362
330
35C
100
AcDbEntity
  8
DEFPOINTS
 62
     0
100
AcDbPoint
 10
247847.0446067616
 20
142416.8156187436
 30
0.0
  0
POINT
  5
363
330
35C
100
AcDbEntity
  8
DEFPOINTS
 62
     0
100
AcDbPoint
 10
248947.0446067616
 20
142391.8156187407
 30
0.0
  0
POINT
  5
364
330
35C
100
AcDbEntity
  8
DEFPOINTS
 62
     0
100
AcDbPoint
 10
248947.0446067616
 20
141874.3702783322
 30
0.0
  0
ENDBLK
  5
365
330
35C
100
AcDbEntity
  8
0
100
AcDbBlockEnd
  0
BLOCK
  5
368
330
367
100
AcDbEntity
  8
0
100
AcDbBlockBegin
  2
*D18
 70
     1
 10
0.0
 20
0.0
 30
0.0
  3
*D18
  1

  0
LINE
  5
369
330
367
100
AcDbEntity
  8
0Wymiary-PL
 62
     1
370
    -2
100
AcDbLine
 10
248917.0446067616
 20
141874.3702783322
 30
0.0
 11
248887.0446067616
 21
141874.3702783322
 31
0.0
  0
LINE
  5
36A
330
367
100
AcDbEntity
  8
0Wymiary-PL
 62
     1
370
    -2
100
AcDbLine
 10
249067.0446067616
 20
141874.3702783322
 30
0.0
 11
249097.0446067616
 21
141874.3702783322
 31
0.0
  0
LINE
  5
36B
330
367
100
AcDbEntity
  8
0Wymiary-PL
 62
     1
370
    -2
100
AcDbLine
 10
248947.0446067616
 20
141874.3702783322
 30
0.0
 11
249037.0446067616
 21
141874.3702783322
 31
0.0
  0
INSERT
  5
36C
330
367
100
AcDbEntity
  8
0Wymiary-PL
 62
     1
370
    -2
100
AcDbBlockReference
  2
B-DIM
 10
248947.0446067616
 20
141874.3702783322
 30
0.0
 41
30.0
 42
30.0
 43
30.0
  0
INSERT
  5
36D
330
367
100
AcDbEntity
  8
0Wymiary-PL
 62
     1
370
    -2
100
AcDbBlockReference
  2
B-DIM
 10
249037.0446067616
 20
141874.3702783322
 30
0.0
 41
30.0
 42
30.0
 43
30.0
 50
180.0
  0
MTEXT
  5
36E
330
367
100
AcDbEntity
  8
0Wymiary-PL
 62
   140
100
AcDbMText
 10
248992.0446067616
 20
141954.3702783322
 30
0.0
 40
80.0
 41
0.0
 71
     5
 72
     1
  1
\A1;90
  7
ROMANS
 73
     1
 44
1.0
1001
ACAD
1000
MTEXTBEGIN
1070
    73
1070
     1
1070
    44
1040
1.0
1070
    74
1070
     0
1000
MTEXTEND
  0
POINT
  5
36F
330
367
100
AcDbEntity
  8
DEFPOINTS
 62
     0
100
AcDbPoint
 10
248947.0446067616
 20
142391.8156187407
 30
0.0
  0
POINT
  5
370
330
367
100
AcDbEntity
  8
DEFPOINTS
 62
     0
100
AcDbPoint
 10
249037.0446067616
 20
142642.718895909
 30
0.0
  0
POINT
  5
371
330
367
100
AcDbEntity
  8
DEFPOINTS
 62
     0
100
AcDbPoint
 10
249037.0446067616
 20
141874.3702783322
 30
0.0
  0
ENDBLK
  5
372
330
367
100
AcDbEntity
  8
0
100
AcDbBlockEnd
  0
BLOCK
  5
375
330
374
100
AcDbEntity
  8
0
100
AcDbBlockBegin
  2
*D19
 70
     1
 10
0.0
 20
0.0
 30
0.0
  3
*D19
  1

  0
LINE
  5
376
330
374
100
AcDbEntity
  8
0Wymiary-PL
 62
     1
370
    -2
100
AcDbLine
 10
251619.3398417222
 20
141874.3702783322
 30
0.0
 11
251589.3398417222
 21
141874.3702783322
 31
0.0
  0
LINE
  5
377
330
374
100
AcDbEntity
  8
0Wymiary-PL
 62
     1
370
    -2
100
AcDbLine
 10
251769.3398417222
 20
141874.3702783322
 30
0.0
 11
251799.3398417222
 21
141874.3702783322
 31
0.0
  0
LINE
  5
378
330
374
100
AcDbEntity
  8
0Wymiary-PL
 62
     1
370
    -2
100
AcDbLine
 10
251649.3398417221
 20
141874.3702783322
 30
0.0
 11
251739.3398417222
 21
141874.3702783322
 31
0.0
  0
INSERT
  5
379
330
374
100
AcDbEntity
  8
0Wymiary-PL
 62
     1
370
    -2
100
AcDbBlockReference
  2
B-DIM
 10
251649.3398417221
 20
141874.3702783322
 30
0.0
 41
30.0
 42
30.0
 43
30.0
  0
INSERT
  5
37A
330
374
100
AcDbEntity
  8
0Wymiary-PL
 62
     1
370
    -2
100
AcDbBlockReference
  2
B-DIM
 10
251739.3398417222
 20
141874.3702783322
 30
0.0
 41
30.0
 42
30.0
 43
30.0
 50
180.0
  0
MTEXT
  5
37B
330
374
100
AcDbEntity
  8
0Wymiary-PL
 62
   140
100
AcDbMText
 10
251694.3398417222
 20
141954.3702783322
 30
0.0
 40
80.0
 41
0.0
 71
     5
 72
     1
  1
\A1;90
  7
ROMANS
 73
     1
 44
1.0
1001
ACAD
1000
MTEXTBEGIN
1070
    73
1070
     1
1070
    44
1040
1.0
1070
    74
1070
     0
1000
MTEXTEND
  0
POINT
  5
37C
330
374
100
AcDbEntity
  8
DEFPOINTS
 62
     0
100
AcDbPoint
 10
251649.3398417221
 20
142642.718895909
 30
0.0
  0
POINT
  5
37D
330
374
100
AcDbEntity
  8
DEFPOINTS
 62
     0
100
AcDbPoint
 10
251739.3398417222
 20
142391.8156187407
 30
0.0
  0
POINT
  5
37E
330
374
100
AcDbEntity
  8
DEFPOINTS
 62
     0
100
AcDbPoint
 10
251739.3398417222
 20
141874.3702783322
 30
0.0
  0
ENDBLK
  5
37F
330
374
100
AcDbEntity
  8
0
100
AcDbBlockEnd
  0
ENDSEC
  0
SECTION
  2
ENTITIES
  0
LINE
  5
60
330
2
100
AcDbEntity
  8
0Napisy
  6
HIDDEN
 62
     1
 48
8.0
370
     5
100
AcDbLine
 10
250343.1922242419
 20
138877.6121891888
 30
0.0
 11
250343.1922242419
 21
145053.1307495934
 31
0.0
  0
TEXT
  5
65
330
2
100
AcDbEntity
  8
0Napisy-PL
370
     5
100
AcDbText
 10
246609.7327611219
 20
147696.3164607142
 30
0.0
 40
150.0
  1
"DOM W WERBENACH 6 (G2)"
  7
AVA
100
AcDbText
  0
LWPOLYLINE
  5
6A
330
2
100
AcDbEntity
  8
RAMKI-A4
370
     5
100
AcDbPolyline
 90
        4
 70
     1
 43
0.0
 10
245130.5030339641
 20
134237.5266395671
 10
245130.5030339641
 20
148257.5266395671
 10
255330.5030339642
 20
148257.5266395671
 10
255330.5030339642
 20
134237.5266395671
  0
MTEXT
  5
6E
102
{ACAD_XDICTIONARY
360
3B7
102
}
330
2
100
AcDbEntity
  8
0Napisy
100
AcDbMText
 10
246708.6994720253
 20
147512.379888829
 30
0.0
 40
150.0
 41
0.0
 71
     1
 72
     5
  1
{\fArial|b0|i0|c238|p34;MO\U+017BNA WKLEI\U+0106 DO PROJEKTU ZAGOSPODAROWANIA TERENU}
  7
ARIAL
 73
     1
 44
1.0
1001
AcDbBlockRepETag
1070
     1
1071
      383
1005
6E
1001
DCO15
1071
        1
1071
        1
1000
_tabelka_-_inform_i_etykiety_Link1
1004
19000000
1000
_tabelka_Arial151
1001
ACAD
1000
MTEXTBEGIN
1070
    73
1070
     1
1070
    44
1040
1.0
1070
    74
1070
     0
1000
MTEXTEND
  0
MTEXT
  5
72
102
{ACAD_XDICTIONARY
360
3B9
102
}
330
2
100
AcDbEntity
  8
0Napisy
100
AcDbMText
 10
250155.9588762563
 20
138950.038390028
 30
0.0
 40
100.0
 41
0.0
 71
     1
 72
     5
  1
{\fArial|b0|i0|c238|p34;O\U+015A ODBICIA LUSTRZANEGO}
  7
ARIAL
 11
0.0000000000000001
 21
1.0
 31
0.0
 73
     1
 44
1.0
1001
AcDbBlockRepETag
1070
     1
1071
      383
1005
6E
1001
DCO15
1071
        1
1071
        1
1000
_tabelka_-_inform_i_etykiety_Link1
1004
1B000000
1000
_tabelka_Arial151
1001
ACAD
1000
MTEXTBEGIN
1070
    73
1070
     1
1070
    44
1040
1.0
1070
    74
1070
     0
1000
MTEXTEND
  0
MTEXT
  5
73
330
2
100
AcDbEntity
  8
0Napisy
100
AcDbMText
 10
246732.9794434555
 20
135201.0800315625
 30
0.0
 40
100.0
 41
0.0
 71
     1
 72
     5
  1
{\fArial|b0|i0|c238|p34;OBRYS  BUDYNKU}
  7
ARIAL
 73
     1
 44
1.0
1001
AcDbBlockRepETag
1070
     1
1071
      383
1005
6E
1001
DCO15
1071
        1
1071
        1
1000
_tabelka_-_inform_i_etykiety_Link1
1004
1A000000
1000
_tabelka_Arial151
1001
ACAD
1000
MTEXTBEGIN
1070
    73
1070
     1
1070
    44
1040
1.0
1070
    74
1070
     0
1000
MTEXTEND
  0
MTEXT
  5
74
330
2
100
AcDbEntity
  8
0Napisy
100
AcDbMText
 10
246732.9794434555
 20
134951.0800315625
 30
0.0
 40
100.0
 41
0.0
 71
     1
 72
     5
  1
{\fArial|b0|i0|c238|p34;Skala:}
  7
ARIAL
 73
     1
 44
1.0
1001
AcDbBlockRepETag
1070
     1
1071
      383
1005
6E
1001
DCO15
1071
        1
1071
        1
1000
_tabelka_-_inform_i_etykiety_Link1
1004
08000000
1000
_tabelka_Arial151
1001
ACAD
1000
MTEXTBEGIN
1070
    73
1070
     1
1070
    44
1040
1.0
1070
    74
1070
     0
1000
MTEXTEND
  0
TEXT
  5
75
330
2
100
AcDbEntity
  8
0Napisy
100
AcDbText
 10
247400.6705607382
 20
134849.3747109622
 30
0.0
 40
100.0
  1
1:500
  7
ARIAL
100
AcDbText
1001
AcDbBlockRepETag
1070
     1
1071
      383
1005
6E
1001
DCO15
1071
        1
1071
        1
1000
_tabelka_-_inform_i_etykiety_Link1
1004
08000000
1000
_tabelka_Arial151
  0
HATCH
  5
76
330
2
100
AcDbEntity
  8
0Hatch
370
     5
100
AcDbHatch
 10
0.0
 20
0.0
 30
0.0
210
0.0
220
0.0
230
1.0
  2
SOLID
 70
     1
 71
     1
 91
        3
 92
        7
 72
     0
 73
     1
 93
       24
 10
248947.0446067616
 20
142642.718895909
 10
249037.0446067616
 20
142642.718895909
 10
249037.0446067616
 20
143020.7290778374
 10
248947.0446067616
 20
143020.7290778374
 10
248947.0446067616
 20
143271.8156187406
 10
247847.0446067616
 20
143271.8156187407
 10
247847.0446067616
 20
143246.8156187407
 10
247217.0446067616
 20
143246.8156187407
 10
247217.0446067616
 20
142416.8156187407
 10
247287.0446067616
 20
142416.8156187407
 10
247287.0446067616
 20
142476.8156187407
 10
247277.0446067616
 20
142476.8156187407
 10
247277.0446067616
 20
143186.8156187407
 10
247907.0446067616
 20
143186.8156187407
 10
247907.0446067616
 20
143211.8156187407
 10
248887.0446067616
 20
143211.8156187407
 10
248887.0446067616
 20
142960.7290778374
 10
248977.0446067616
 20
142960.7290778374
 10
248977.0446067616
 20
142702.718895909
 10
248887.0446067616
 20
142702.718895909
 10
248887.0446067616
 20
142451.8156187407
 10
248447.0465529135
 20
142451.8156187407
 10
248447.0465529135
 20
142391.8156187407
 10
248947.0446067616
 20
142391.8156187407
 97
       24
330
92
330
94
330
96
330
98
330
9A
330
9C
330
9E
330
78
330
7E
330
80
330
7F
330
7D
330
9F
330
9D
330
9B
330
99
330
97
330
95
330
93
330
91
330
8F
330
8D
330
8E
330
90
 92
       23
 72
     0
 73
     1
 93
        4
 10
247577.0446067616
 20
142476.8156187407
 10
247527.0446067617
 20
142476.8156187407
 10
247527.0446067616
 20
142416.8156187407
 10
247577.0446067616
 20
142416.8156187407
 97
        4
330
83
330
81
330
82
330
84
 92
       23
 72
     0
 73
     1
 93
        8
 10
248347.0465529134
 20
142391.8156187407
 10
248347.0465529134
 20
142451.8156187407
 10
247877.0446067616
 20
142451.8156187407
 10
247877.0446067616
 20
142476.8156187407
 10
247817.0446067616
 20
142476.8156187407
 10
247817.0446067616
 20
142416.8156187407
 10
247847.0446067616
 20
142416.8156187407
 10
247847.0446067617
 20
142391.8156187407
 97
        8
330
8B
330
86
330
88
330
85
330
87
330
89
330
8A
330
8C
 75
     0
 76
     1
 47
4.192306624067952
 98
        3
 10
248920.8148790502
 20
142435.6051171679
 10
247561.8045472068
 20
142443.9898048206
 10
247909.9457403509
 20
142418.8357418628
1001
ACAD
1010
0.0
1020
0.0
1030
0.0
  0
LINE
  5
78
102
{ACAD_REACTORS
330
76
102
}
330
2
100
AcDbEntity
  8
A-Wall-G
  6
Continuous
 62
     7
370
     5
100
AcDbLine
 10
247217.0446067616
 20
143246.8156187407
 30
0.0
 11
247217.0446067616
 21
142416.8156187407
 31
0.0
  0
LINE
  5
7D
102
{ACAD_REACTORS
330
76
102
}
330
2
100
AcDbEntity
  8
A-Wall-G
  6
Continuous
 62
     7
370
     5
100
AcDbLine
 10
247277.0446067616
 20
143186.8156187407
 30
0.0
 11
247277.0446067616
 21
142476.8156187407
 31
0.0
  0
LINE
  5
7E
102
{ACAD_REACTORS
330
76
102
}
330
2
100
AcDbEntity
  8
A-Wall-G
  6
Continuous
 62
     7
370
     5
100
AcDbLine
 10
247217.0446067616
 20
142416.8156187407
 30
0.0
 11
247287.0446067616
 21
142416.8156187407
 31
0.0
  0
LINE
  5
7F
102
{ACAD_REACTORS
330
76
102
}
330
2
100
AcDbEntity
  8
A-Wall-G
  6
Continuous
 62
     7
370
     5
100
AcDbLine
 10
247277.0446067616
 20
142476.8156187407
 30
0.0
 11
247287.0446067616
 21
142476.8156187407
 31
0.0
  0
LINE
  5
80
102
{ACAD_REACTORS
330
76
102
}
330
2
100
AcDbEntity
  8
A-Wall-G
  6
Continuous
 62
     7
370
     5
100
AcDbLine
 10
247287.0446067616
 20
142416.8156187407
 30
0.0
 11
247287.0446067616
 21
142476.8156187407
 31
0.0
  0
LINE
  5
81
102
{ACAD_REACTORS
330
76
102
}
330
2
100
AcDbEntity
  8
A-Wall-G
  6
Continuous
 62
     7
370
     5
100
AcDbLine
 10
247527.0446067616
 20
142476.8156187407
 30
0.0
 11
247527.0446067616
 21
142416.8156187407
 31
0.0
  0
LINE
  5
82
102
{ACAD_REACTORS
330
76
102
}
330
2
100
AcDbEntity
  8
A-Wall-G
  6
Continuous
 62
     7
370
     5
100
AcDbLine
 10
247527.0446067616
 20
142416.8156187407
 30
0.0
 11
247577.0446067616
 21
142416.8156187407
 31
0.0
  0
LINE
  5
83
102
{ACAD_REACTORS
330
76
102
}
330
2
100
AcDbEntity
  8
A-Wall-G
  6
Continuous
 62
     7
370
     5
100
AcDbLine
 10
247527.0446067616
 20
142476.8156187407
 30
0.0
 11
247577.0446067616
 21
142476.8156187407
 31
0.0
  0
LINE
  5
84
102
{ACAD_REACTORS
330
76
102
}
330
2
100
AcDbEntity
  8
A-Wall-G
  6
Continuous
 62
     7
370
     5
100
AcDbLine
 10
247577.0446067616
 20
142416.8156187407
 30
0.0
 11
247577.0446067616
 21
142476.8156187407
 31
0.0
  0
LINE
  5
85
102
{ACAD_REACTORS
330
76
102
}
330
2
100
AcDbEntity
  8
A-Wall-G
  6
Continuous
 62
     7
370
     5
100
AcDbLine
 10
247817.0446067616
 20
142476.8156187407
 30
0.0
 11
247817.0446067616
 21
142416.8156187407
 31
0.0
  0
LINE
  5
86
102
{ACAD_REACTORS
330
76
102
}
330
2
100
AcDbEntity
  8
A-Wall-G
  6
Continuous
 62
     7
370
     5
100
AcDbLine
 10
247877.0446067616
 20
142476.8156187407
 30
0.0
 11
247877.0446067616
 21
142451.8156187407
 31
0.0
  0
LINE
  5
87
102
{ACAD_REACTORS
330
76
102
}
330
2
100
AcDbEntity
  8
A-Wall-G
  6
Continuous
 62
     7
370
     5
100
AcDbLine
 10
247817.0446067616
 20
142416.8156187407
 30
0.0
 11
247847.0446067616
 21
142416.8156187407
 31
0.0
  0
LINE
  5
88
102
{ACAD_REACTORS
330
76
102
}
330
2
100
AcDbEntity
  8
A-Wall-G
  6
Continuous
 62
     7
370
     5
100
AcDbLine
 10
247817.0446067616
 20
142476.8156187407
 30
0.0
 11
247877.0446067616
 21
142476.8156187407
 31
0.0
  0
LINE
  5
89
102
{ACAD_REACTORS
330
76
102
}
330
2
100
AcDbEntity
  8
A-Wall-G
  6
Continuous
 62
     7
370
     5
100
AcDbLine
 10
247847.0446067616
 20
142416.8156187407
 30
0.0
 11
247847.0446067617
 21
142391.8156187407
 31
0.0
  0
LINE
  5
8A
102
{ACAD_REACTORS
330
76
102
}
330
2
100
AcDbEntity
  8
A-Wall-G
  6
Continuous
 62
     7
370
     5
100
AcDbLine
 10
247847.0446067617
 20
142391.8156187407
 30
0.0
 11
248347.0465529134
 21
142391.8156187407
 31
0.0
  0
LINE
  5
8B
102
{ACAD_REACTORS
330
76
102
}
330
2
100
AcDbEntity
  8
A-Wall-G
  6
Continuous
 62
     7
370
     5
100
AcDbLine
 10
247877.0446067616
 20
142451.8156187407
 30
0.0
 11
248347.0465529134
 21
142451.8156187407
 31
0.0
  0
LINE
  5
8C
102
{ACAD_REACTORS
330
76
102
}
330
2
100
AcDbEntity
  8
A-Wall-G
  6
Continuous
 62
     7
370
     5
100
AcDbLine
 10
248347.0465529134
 20
142391.8156187407
 30
0.0
 11
248347.0465529134
 21
142451.8156187407
 31
0.0
  0
LINE
  5
8D
102
{ACAD_REACTORS
330
76
102
}
330
2
100
AcDbEntity
  8
A-Wall-G
  6
Continuous
 62
     7
370
     5
100
AcDbLine
 10
248447.0465529135
 20
142451.8156187407
 30
0.0
 11
248447.0465529135
 21
142391.8156187407
 31
0.0
  0
LINE
  5
8E
102
{ACAD_REACTORS
330
76
102
}
330
2
100
AcDbEntity
  8
A-Wall-G
  6
Continuous
 62
     7
370
     5
100
AcDbLine
 10
248447.0465529135
 20
142391.8156187407
 30
0.0
 11
248947.0446067616
 21
142391.8156187407
 31
0.0
  0
LINE
  5
8F
102
{ACAD_REACTORS
330
76
102
}
330
2
100
AcDbEntity
  8
A-Wall-G
  6
Continuous
 62
     7
370
     5
100
AcDbLine
 10
248447.0465529135
 20
142451.8156187407
 30
0.0
 11
248887.0446067616
 21
142451.8156187407
 31
0.0
  0
LINE
  5
90
102
{ACAD_REACTORS
330
76
102
}
330
2
100
AcDbEntity
  8
A-Wall-G
  6
Continuous
 62
     7
370
     5
100
AcDbLine
 10
248947.0446067616
 20
142391.8156187407
 30
0.0
 11
248947.0446067616
 21
142642.718895909
 31
0.0
  0
LINE
  5
91
102
{ACAD_REACTORS
330
76
102
}
330
2
100
AcDbEntity
  8
A-Wall-G
  6
Continuous
 62
     7
370
     5
100
AcDbLine
 10
248887.0446067616
 20
142451.8156187407
 30
0.0
 11
248887.0446067616
 21
142702.718895909
 31
0.0
  0
LINE
  5
92
102
{ACAD_REACTORS
330
76
102
}
330
2
100
AcDbEntity
  8
A-Wall-G
  6
Continuous
 62
     7
370
     5
100
AcDbLine
 10
248947.0446067616
 20
142642.718895909
 30
0.0
 11
249037.0446067616
 21
142642.718895909
 31
0.0
  0
LINE
  5
93
102
{ACAD_REACTORS
330
76
102
}
330
2
100
AcDbEntity
  8
A-Wall-G
  6
Continuous
 62
     7
370
     5
100
AcDbLine
 10
248887.0446067616
 20
142702.718895909
 30
0.0
 11
248977.0446067616
 21
142702.718895909
 31
0.0
  0
LINE
  5
94
102
{ACAD_REACTORS
330
76
102
}
330
2
100
AcDbEntity
  8
A-Wall-G
  6
Continuous
 62
     7
370
     5
100
AcDbLine
 10
249037.0446067616
 20
142642.718895909
 30
0.0
 11
249037.0446067616
 21
143020.7290778374
 31
0.0
  0
LINE
  5
95
102
{ACAD_REACTORS
330
76
102
}
330
2
100
AcDbEntity
  8
A-Wall-G
  6
Continuous
 62
     7
370
     5
100
AcDbLine
 10
248977.0446067616
 20
142702.718895909
 30
0.0
 11
248977.0446067616
 21
142960.7290778374
 31
0.0
  0
LINE
  5
96
102
{ACAD_REACTORS
330
76
102
}
330
2
100
AcDbEntity
  8
A-Wall-G
  6
Continuous
 62
     7
370
     5
100
AcDbLine
 10
249037.0446067616
 20
143020.7290778374
 30
0.0
 11
248947.0446067616
 21
143020.7290778374
 31
0.0
  0
LINE
  5
97
102
{ACAD_REACTORS
330
76
102
}
330
2
100
AcDbEntity
  8
A-Wall-G
  6
Continuous
 62
     7
370
     5
100
AcDbLine
 10
248977.0446067616
 20
142960.7290778374
 30
0.0
 11
248887.0446067616
 21
142960.7290778374
 31
0.0
  0
LINE
  5
98
102
{ACAD_REACTORS
330
76
102
}
330
2
100
AcDbEntity
  8
A-Wall-G
  6
Continuous
 62
     7
370
     5
100
AcDbLine
 10
248947.0446067616
 20
143020.7290778374
 30
0.0
 11
248947.0446067616
 21
143271.8156187407
 31
0.0
  0
LINE
  5
99
102
{ACAD_REACTORS
330
76
102
}
330
2
100
AcDbEntity
  8
A-Wall-G
  6
Continuous
 62
     7
370
     5
100
AcDbLine
 10
248887.0446067616
 20
142960.7290778374
 30
0.0
 11
248887.0446067616
 21
143211.8156187407
 31
0.0
  0
LINE
  5
9A
102
{ACAD_REACTORS
330
76
102
}
330
2
100
AcDbEntity
  8
A-Wall-G
  6
Continuous
 62
     7
370
     5
100
AcDbLine
 10
248947.0446067616
 20
143271.8156187407
 30
0.0
 11
247847.0446067616
 21
143271.8156187407
 31
0.0
  0
LINE
  5
9B
102
{ACAD_REACTORS
330
76
102
}
330
2
100
AcDbEntity
  8
A-Wall-G
  6
Continuous
 62
     7
370
     5
100
AcDbLine
 10
248887.0446067616
 20
143211.8156187407
 30
0.0
 11
247907.0446067616
 21
143211.8156187407
 31
0.0
  0
LINE
  5
9C
102
{ACAD_REACTORS
330
76
102
}
330
2
100
AcDbEntity
  8
A-Wall-G
  6
Continuous
 62
     7
370
     5
100
AcDbLine
 10
247847.0446067616
 20
143271.8156187407
 30
0.0
 11
247847.0446067616
 21
143246.8156187407
 31
0.0
  0
LINE
  5
9D
102
{ACAD_REACTORS
330
76
102
}
330
2
100
AcDbEntity
  8
A-Wall-G
  6
Continuous
 62
     7
370
     5
100
AcDbLine
 10
247907.0446067616
 20
143211.8156187407
 30
0.0
 11
247907.0446067616
 21
143186.8156187407
 31
0.0
  0
LINE
  5
9E
102
{ACAD_REACTORS
330
76
102
}
330
2
100
AcDbEntity
  8
A-Wall-G
  6
Continuous
 62
     7
370
     5
100
AcDbLine
 10
247847.0446067616
 20
143246.8156187407
 30
0.0
 11
247217.0446067616
 21
143246.8156187407
 31
0.0
  0
LINE
  5
9F
102
{ACAD_REACTORS
330
76
102
}
330
2
100
AcDbEntity
  8
A-Wall-G
  6
Continuous
 62
     7
370
     5
100
AcDbLine
 10
247907.0446067616
 20
143186.8156187407
 30
0.0
 11
247277.0446067616
 21
143186.8156187407
 31
0.0
  0
LINE
  5
A0
330
2
100
AcDbEntity
  8
0Wymiary-PL
370
     5
100
AcDbLine
 10
247287.0446067616
 20
142476.8156187407
 30
0.0
 11
247527.0446067616
 21
142476.8156187407
 31
0.0
  0
LINE
  5
A1
330
2
100
AcDbEntity
  8
0Wymiary-PL
370
     5
100
AcDbLine
 10
247287.0446067616
 20
142416.8156187407
 30
0.0
 11
247527.0446067616
 21
142416.8156187407
 31
0.0
  0
LINE
  5
A2
330
2
100
AcDbEntity
  8
0Wymiary-PL
370
     5
100
AcDbLine
 10
247577.0446067616
 20
142476.8156187407
 30
0.0
 11
247817.0446067616
 21
142476.8156187407
 31
0.0
  0
LINE
  5
A3
330
2
100
AcDbEntity
  8
0Wymiary-PL
370
     5
100
AcDbLine
 10
247577.0446067616
 20
142416.8156187407
 30
0.0
 11
247817.0446067616
 21
142416.8156187406
 31
0.0
  0
LINE
  5
A4
330
2
100
AcDbEntity
  8
0Wymiary-PL
370
     5
100
AcDbLine
 10
248347.0465529134
 20
142451.8156187407
 30
0.0
 11
248447.0465529135
 21
142451.8156187407
 31
0.0
  0
LINE
  5
A5
330
2
100
AcDbEntity
  8
0Wymiary-PL
370
     5
100
AcDbLine
 10
248347.0465529134
 20
142391.8156187407
 30
0.0
 11
248447.0465529135
 21
142391.8156187407
 31
0.0
  0
ARC
  5
A6
330
2
100
AcDbEntity
  8
TEREN$0$A-WallBelow-G
  6
Continuous
 62
     8
370
     5
100
AcDbCircle
 10
249031.4445548471
 20
142905.9101934351
 30
-47.0
 40
230.7137932321047
100
AcDbArc
 50
316.278890801671
 51
358.2589054900454
  0
ARC
  5
AA
330
2
100
AcDbEntity
  8
TEREN$0$A-WallBelow-G
  6
Continuous
 62
     8
370
     5
100
AcDbCircle
 10
249019.5918782803
 20
142923.1053672081
 30
-47.0
 40
251.1999989407748
100
AcDbArc
 50
273.9839726610914
 51
315.3128441704116
  0
LINE
  5
AB
330
2
100
AcDbEntity
  8
TEREN$0$A-WallBelow-G
  6
Continuous
 62
     8
370
     5
100
AcDbLine
 10
248197.0446067616
 20
142394.5123869863
 30
0.0
 11
248197.0446067616
 21
142239.1126496676
 31
0.0
  0
LINE
  5
AC
330
2
100
AcDbEntity
  8
TEREN$0$A-WallBelow-G
  6
Continuous
 62
     8
370
     5
100
AcDbLine
 10
248197.0446067616
 20
142239.1126496676
 30
0.0
 11
248597.0446067616
 21
142239.1126496676
 31
0.0
  0
LINE
  5
AD
330
2
100
AcDbEntity
  8
TEREN$0$A-WallBelow-G
  6
Continuous
 62
     8
370
     5
100
AcDbLine
 10
248176.2298855369
 20
142207.1062603211
 30
0.0000000000000032
 11
248617.772144793
 21
142207.1843432827
 31
0.0000000000000032
  0
LINE
  5
AE
330
2
100
AcDbEntity
  8
TEREN$0$A-WallBelow-G
  6
Continuous
 62
     8
370
     5
100
AcDbLine
 10
248134.8673791125
 20
142175.2679098012
 30
0.0000000000000064
 11
248659.539763525
 21
142175.1000687067
 31
0.0000000000000064
  0
LINE
  5
AF
330
2
100
AcDbEntity
  8
TEREN$0$A-WallBelow-G
  6
Continuous
 62
     8
370
     5
100
AcDbLine
 10
248494.5441505867
 20
142282.0193303217
 30
0.0
 11
248494.5441505867
 21
142247.0193303217
 31
0.0
  0
LINE
  5
B0
330
2
100
AcDbEntity
  8
TEREN$0$A-WallBelow-G
  6
Continuous
 62
     8
370
     5
100
AcDbLine
 10
248494.5441505867
 20
142247.0193303217
 30
0.0
 11
248529.5441505867
 21
142247.0193303217
 31
0.0
  0
LINE
  5
B1
330
2
100
AcDbEntity
  8
TEREN$0$A-WallBelow-G
  6
Continuous
 62
     8
370
     5
100
AcDbLine
 10
248529.5441505867
 20
142247.0193303217
 30
0.0
 11
248529.5441505867
 21
142282.0193303217
 31
0.0
  0
LINE
  5
B2
330
2
100
AcDbEntity
  8
TEREN$0$A-WallBelow-G
  6
Continuous
 62
     8
370
     5
100
AcDbLine
 10
248529.5441505867
 20
142282.0193303217
 30
0.0
 11
248494.5441505867
 21
142282.0193303217
 31
0.0
  0
LINE
  5
B3
330
2
100
AcDbEntity
  8
TEREN$0$A-WallBelow-G
  6
Continuous
 62
     8
370
     5
100
AcDbLine
 10
248555.5446067521
 20
142282.0117135627
 30
0.0
 11
248555.5446067521
 21
142247.0117265095
 31
0.0
  0
LINE
  5
B4
330
2
100
AcDbEntity
  8
TEREN$0$A-WallBelow-G
  6
Continuous
 62
     8
370
     5
100
AcDbLine
 10
248555.5446067521
 20
142247.0117265095
 30
0.0
 11
248590.5446067615
 21
142247.0117265095
 31
0.0
  0
LINE
  5
B5
330
2
100
AcDbEntity
  8
TEREN$0$A-WallBelow-G
  6
Continuous
 62
     8
370
     5
100
AcDbLine
 10
248590.5446067615
 20
142247.0117265095
 30
0.0
 11
248590.5446067615
 21
142282.0117135627
 31
0.0
  0
LINE
  5
B6
330
2
100
AcDbEntity
  8
TEREN$0$A-WallBelow-G
  6
Continuous
 62
     8
370
     5
100
AcDbLine
 10
248590.5446067615
 20
142282.0117135627
 30
0.0
 11
248555.5446067521
 21
142282.0117135627
 31
0.0
  0
HATCH
  5
B7
330
2
100
AcDbEntity
  8
0Hatch
370
     5
100
AcDbHatch
 10
0.0
 20
0.0
 30
0.0
210
0.0
220
0.0
230
1.0
  2
SOLID
 70
     1
 71
     1
 91
        1
 92
        7
 72
     1
 73
     1
 93
        2
 10
248294.5493937457
 20
142264.5193303217
 42
1.0
 10
248269.5493937457
 20
142264.5193303217
 42
1.0
 97
        1
330
B8
 75
     0
 76
     1
 47
0.5948641127466842
 98
        1
 10
248280.6278528461
 20
142259.6193561432
1001
ACAD
1010
0.0
1020
0.0
1030
0.0
  0
CIRCLE
  5
B8
102
{ACAD_REACTORS
330
B7
102
}
330
2
100
AcDbEntity
  8
A-Wall-G
  6
Continuous
 62
     7
370
     5
100
AcDbCircle
 10
-248282.0493937456
 20
142264.5193303217
 30
0.0
 40
12.5
210
0.0
220
0.0
230
-1.0
  0
HATCH
  5
B9
330
2
100
AcDbEntity
  8
0Hatch
370
     5
100
AcDbHatch
 10
0.0
 20
0.0
 30
0.0
210
0.0
220
0.0
230
1.0
  2
SOLID
 70
     1
 71
     1
 91
        1
 92
        7
 72
     1
 73
     1
 93
        2
 10
248233.5489375802
 20
142264.5117135627
 42
1.0
 10
248208.5489375803
 20
142264.5117135627
 42
1.0
 97
        1
330
BA
 75
     0
 76
     1
 47
0.5948641127466842
 98
        1
 10
248222.8970446048
 20
142265.5679975849
1001
ACAD
1010
0.0
1020
0.0
1030
0.0
  0
CIRCLE
  5
BA
102
{ACAD_REACTORS
330
B9
102
}
330
2
100
AcDbEntity
  8
A-Wall-G
  6
Continuous
 62
     7
370
     5
100
AcDbCircle
 10
-248221.0489375802
 20
142264.5117135627
 30
0.0
 40
12.5
210
0.0
220
0.0
230
-1.0
  0
LINE
  5
BB
330
2
100
AcDbEntity
  8
TEREN$0$A-WallBelow-G
  6
Continuous
 62
     8
370
     5
100
AcDbLine
 10
248299.5493937456
 20
142282.0193303217
 30
0.0
 11
248299.5493937456
 21
142247.0193303217
 31
0.0
  0
LINE
  5
BC
330
2
100
AcDbEntity
  8
TEREN$0$A-WallBelow-G
  6
Continuous
 62
     8
370
     5
100
AcDbLine
 10
248299.5493937456
 20
142247.0193303217
 30
0.0
 11
248264.5493937456
 21
142247.0193303217
 31
0.0
  0
LINE
  5
BD
330
2
100
AcDbEntity
  8
TEREN$0$A-WallBelow-G
  6
Continuous
 62
     8
370
     5
100
AcDbLine
 10
248264.5493937456
 20
142247.0193303217
 30
0.0
 11
248264.5493937456
 21
142282.0193303217
 31
0.0
  0
LINE
  5
BE
330
2
100
AcDbEntity
  8
TEREN$0$A-WallBelow-G
  6
Continuous
 62
     8
370
     5
100
AcDbLine
 10
248264.5493937456
 20
142282.0193303217
 30
0.0
 11
248299.5493937456
 21
142282.0193303217
 31
0.0
  0
LINE
  5
BF
330
2
100
AcDbEntity
  8
TEREN$0$A-WallBelow-G
  6
Continuous
 62
     8
370
     5
100
AcDbLine
 10
248238.5489375803
 20
142282.0117135627
 30
0.0
 11
248238.5489375803
 21
142247.0117265095
 31
0.0
  0
LINE
  5
C0
330
2
100
AcDbEntity
  8
TEREN$0$A-WallBelow-G
  6
Continuous
 62
     8
370
     5
100
AcDbLine
 10
248238.5489375803
 20
142247.0117265095
 30
0.0
 11
248203.5489375708
 21
142247.0117265095
 31
0.0
  0
LINE
  5
C1
330
2
100
AcDbEntity
  8
TEREN$0$A-WallBelow-G
  6
Continuous
 62
     8
370
     5
100
AcDbLine
 10
248203.5489375708
 20
142247.0117265095
 30
0.0
 11
248203.5489375708
 21
142282.0117135627
 31
0.0
  0
LINE
  5
C2
330
2
100
AcDbEntity
  8
TEREN$0$A-WallBelow-G
  6
Continuous
 62
     8
370
     5
100
AcDbLine
 10
248203.5489375708
 20
142282.0117135627
 30
0.0
 11
248238.5489375803
 21
142282.0117135627
 31
0.0
  0
LINE
  5
C3
330
2
100
AcDbEntity
  8
TEREN$0$A-WallBelow-G
  6
Continuous
 62
     8
370
     5
100
AcDbLine
 10
249262.0518333736
 20
143039.4123799197
 30
0.0
 11
249322.0518333736
 21
143039.4123799197
 31
0.0
  0
LINE
  5
C4
330
2
100
AcDbEntity
  8
TEREN$0$A-WallBelow-G
  6
Continuous
 62
     8
370
     5
100
AcDbLine
 10
249295.0518333736
 20
143039.4123799197
 30
0.0
 11
249295.0518333736
 21
143179.4123799197
 31
0.0
  0
LINE
  5
C5
330
2
100
AcDbEntity
  8
TEREN$0$A-WallBelow-G
  6
Continuous
 62
     8
370
     5
100
AcDbLine
 10
249262.0518333736
 20
143179.4123799197
 30
0.0
 11
249322.0518333736
 21
143179.4123799197
 31
0.0
  0
LINE
  5
C6
330
2
100
AcDbEntity
  8
TEREN$0$A-WallBelow-G
  6
Continuous
 62
     8
370
     5
100
AcDbLine
 10
248472.0446067616
 20
143529.5123869863
 30
0.0
 11
248472.0446067616
 21
143589.5123869863
 31
0.0
  0
LINE
  5
C7
330
2
100
AcDbEntity
  8
TEREN$0$A-WallBelow-G
  6
Continuous
 62
     8
370
     5
100
AcDbLine
 10
248472.0446067616
 20
143562.5123869863
 30
-0.0000000000000048
 11
248322.0446067616
 21
143562.5123869863
 31
-0.0000000000000048
  0
LINE
  5
C8
330
2
100
AcDbEntity
  8
TEREN$0$A-WallBelow-G
  6
Continuous
 62
     8
370
     5
100
AcDbLine
 10
248322.0446067616
 20
143529.5123869863
 30
0.0
 11
248322.0446067616
 21
143589.5123869863
 31
0.0
  0
LINE
  5
C9
330
2
100
AcDbEntity
  8
TEREN$0$A-WallBelow-G
  6
Continuous
 62
     8
370
     5
100
AcDbLine
 10
249328.0518333736
 20
143039.4123799197
 30
0.0
 11
249328.0518333736
 21
143179.4123799197
 31
0.0
  0
ARC
  5
CA
330
2
100
AcDbEntity
  8
TEREN$0$A-WallBelow-G
  6
Continuous
 62
     8
370
     5
100
AcDbCircle
 10
249025.5590318855
 20
143293.8970417248
 30
0.0
 40
236.4928742545993
100
AcDbArc
 50
0.0449463329149042
 51
85.06265221426096
  0
ARC
  5
CB
330
2
100
AcDbEntity
  8
TEREN$0$A-WallBelow-G
  6
Continuous
 62
     8
370
     5
100
AcDbCircle
 10
249025.5590318855
 20
143293.8970417248
 30
0.0
 40
256.4928742545993
100
AcDbArc
 50
0.0449463329149042
 51
85.25916748791789
  0
ARC
  5
CC
330
2
100
AcDbEntity
  8
TEREN$0$A-WallBelow-G
  6
Continuous
 62
     8
370
     5
100
AcDbCircle
 10
249025.5590318855
 20
143293.8970417248
 30
0.0
 40
316.4928742545993
100
AcDbArc
 50
0.0449463329149042
 51
85.73236962907575
  0
LINE
  5
CD
330
2
100
AcDbEntity
  8
TEREN$0$A-WallBelow-G
  6
Continuous
 62
     8
370
     5
100
AcDbLine
 10
248472.0446067616
 20
143595.5123869863
 30
-0.0000000000000096
 11
248322.0446067616
 21
143595.5123869863
 31
-0.0000000000000096
  0
LINE
  5
CE
330
2
100
AcDbEntity
  8
TEREN$0$A-WallBelow-G
  6
Continuous
 62
     8
370
     5
100
AcDbLine
 10
249282.1009099875
 20
142898.9085456695
 30
0.0
 11
249262.0518333736
 21
142898.9003804455
 31
0.0
  0
HATCH
  5
CF
330
2
100
AcDbEntity
  8
0Hatch
370
     5
100
AcDbHatch
 10
0.0
 20
0.0
 30
0.0
210
0.0
220
0.0
230
1.0
  2
SOLID
 70
     1
 71
     1
 91
        1
 92
        7
 72
     1
 73
     1
 93
        2
 10
248524.5441505867
 20
142264.5193303217
 42
1.0
 10
248499.5441505867
 20
142264.5193303217
 42
1.0
 97
        1
330
D0
 75
     0
 76
     1
 47
0.5948641127467213
 98
        1
 10
248521.7992439065
 20
142264.3790309677
1001
ACAD
1010
0.0
1020
0.0
1030
0.0
  0
CIRCLE
  5
D0
102
{ACAD_REACTORS
330
CF
102
}
330
2
100
AcDbEntity
  8
A-Wall-G
  6
Continuous
 62
     7
370
     5
100
AcDbCircle
 10
248512.0441505867
 20
142264.5193303217
 30
0.0
 40
12.5
  0
HATCH
  5
D1
330
2
100
AcDbEntity
  8
0Hatch
370
     5
100
AcDbHatch
 10
0.0
 20
0.0
 30
0.0
210
0.0
220
0.0
230
1.0
  2
SOLID
 70
     1
 71
     1
 91
        1
 92
        7
 72
     1
 73
     1
 93
        2
 10
248585.5446067521
 20
142264.5117135627
 42
1.0
 10
248560.5446067521
 20
142264.5117135627
 42
1.0
 97
        1
330
D2
 75
     0
 76
     1
 47
0.5948641127467213
 98
        1
 10
248572.3880842752
 20
142265.5687572031
1001
ACAD
1010
0.0
1020
0.0
1030
0.0
  0
CIRCLE
  5
D2
102
{ACAD_REACTORS
330
D1
102
}
330
2
100
AcDbEntity
  8
A-Wall-G
  6
Continuous
 62
     7
370
     5
100
AcDbCircle
 10
248573.0446067521
 20
142264.5117135627
 30
0.0
 40
12.5
  0
ARC
  5
D3
330
2
100
AcDbEntity
  8
TEREN$0$A-WallBelow-G
  6
Continuous
 62
     8
370
     5
390
D4
100
AcDbCircle
 10
-248095.8618258903
 20
142268.7286622559
 30
0.0
 40
76.27361666082667
210
0.0
220
0.0
230
-1.0
100
AcDbArc
 50
182.796546649207
 51
262.6330866861219
  0
LINE
  5
D5
330
2
100
AcDbEntity
  8
TEREN$0$A-WallBelow-G
  6
Continuous
 62
     8
370
     5
390
D4
100
AcDbLine
 10
248105.6418512191
 20
142193.0846558635
 30
0.0
 11
248108.8474240492
 21
142168.2910215428
 31
0.0
  0
ARC
  5
D6
330
2
100
AcDbEntity
  8
TEREN$0$A-WallBelow-G
  6
Continuous
 62
     8
370
     5
390
D4
100
AcDbCircle
 10
248095.8618258903
 20
142268.7286622559
 30
0.0
 40
101.2736166608267
100
AcDbArc
 50
277.3669133138781
 51
357.4078435488768
  0
LINE
  5
D7
330
2
100
AcDbEntity
  8
TEREN$0$A-WallBelow-G
  6
Continuous
 62
     8
370
     5
390
D4
100
AcDbLine
 10
248172.0446067616
 20
142394.5123869863
 30
0.0
 11
248172.0446067616
 21
142265.0073053474
 31
0.0
  0
LINE
  5
D8
330
2
100
AcDbEntity
  8
TEREN$0$A-WallBelow-G
  6
Continuous
 62
     8
370
     5
390
D4
100
AcDbLine
 10
248286.5076941003
 20
143274.5123869863
 30
0.0
 11
248286.5076941003
 21
143529.5123869863
 31
0.0
  0
LINE
  5
D9
330
2
100
AcDbEntity
  8
TEREN$0$A-WallBelow-G
  6
Continuous
 62
     8
370
     5
390
D4
100
AcDbLine
 10
248266.5076941004
 20
143274.5123869863
 30
0.0
 11
248266.5076941004
 21
143549.5123869863
 31
0.0
  0
LINE
  5
DA
330
2
100
AcDbEntity
  8
TEREN$0$A-WallBelow-G
  6
Continuous
 62
     8
370
     5
390
D4
100
AcDbLine
 10
248286.5076941003
 20
143529.5123869863
 30
0.0
 11
248322.0446067616
 21
143529.5123869863
 31
0.0
  0
LINE
  5
DB
330
2
100
AcDbEntity
  8
TEREN$0$A-WallBelow-G
  6
Continuous
 62
     8
370
     5
390
D4
100
AcDbLine
 10
248266.5076941004
 20
143549.5123869863
 30
0.0
 11
248302.0446067616
 21
143549.5123869863
 31
0.0
  0
LINE
  5
DC
330
2
100
AcDbEntity
  8
TEREN$0$A-WallBelow-G
  6
Continuous
 62
     8
370
     5
390
D4
100
AcDbLine
 10
249262.0518333736
 20
143294.0825612582
 30
0.0
 11
249262.0518333736
 21
143179.4123799197
 31
0.0
  0
LINE
  5
DD
330
2
100
AcDbEntity
  8
TEREN$0$A-WallBelow-G
  6
Continuous
 62
     8
370
     5
390
D4
100
AcDbLine
 10
249282.0518333736
 20
143294.0825612582
 30
0.0
 11
249282.0518333736
 21
143199.4123799197
 31
0.0
  0
LINE
  5
DE
330
2
100
AcDbEntity
  8
TEREN$0$A-WallBelow-G
  6
Continuous
 62
     8
370
     5
390
D4
100
AcDbLine
 10
249342.0518333736
 20
143294.0825612582
 30
0.0
 11
249342.0518333736
 21
143199.4123799197
 31
0.0
  0
LINE
  5
DF
330
2
100
AcDbEntity
  8
TEREN$0$A-WallBelow-G
  6
Continuous
 62
     8
370
     5
390
D4
100
AcDbLine
 10
248472.0446067616
 20
143529.5123869863
 30
0.0
 11
249045.9131137968
 21
143529.5123869863
 31
0.0
  0
LINE
  5
E0
330
2
100
AcDbEntity
  8
TEREN$0$A-WallBelow-G
  6
Continuous
 62
     8
370
     5
390
D4
100
AcDbLine
 10
248492.0446067616
 20
143549.5123869863
 30
0.0
 11
249046.7578481304
 21
143549.5123869863
 31
0.0
  0
LINE
  5
E1
330
2
100
AcDbEntity
  8
TEREN$0$A-WallBelow-G
  6
Continuous
 62
     8
370
     5
390
D4
100
AcDbLine
 10
248492.0446067616
 20
143609.5123869863
 30
0.0
 11
249049.1109593934
 21
143609.5123869863
 31
0.0
  0
LINE
  5
E2
330
2
100
AcDbEntity
  8
TEREN$0$A-WallBelow-G
  6
Continuous
 62
     8
370
     5
390
D4
100
AcDbLine
 10
248492.0446067616
 20
143549.5123869863
 30
0.0
 11
248492.0446067616
 21
143612.7354151809
 31
0.0
  0
LINE
  5
E3
330
2
100
AcDbEntity
  8
TEREN$0$A-WallBelow-G
  6
Continuous
 62
     8
370
     5
390
D4
100
AcDbLine
 10
248492.0446067616
 20
143612.7354151809
 30
0.0
 11
248472.0446067616
 21
143612.7354151809
 31
0.0
  0
LINE
  5
E4
330
2
100
AcDbEntity
  8
TEREN$0$A-WallBelow-G
  6
Continuous
 62
     8
370
     5
390
D4
100
AcDbLine
 10
248472.0446067616
 20
143612.7354151809
 30
0.0
 11
248472.0446067616
 21
143529.5123869863
 31
0.0
  0
LINE
  5
E5
330
2
100
AcDbEntity
  8
TEREN$0$A-WallBelow-G
  6
Continuous
 62
     8
370
     5
390
D4
100
AcDbLine
 10
248322.0446067616
 20
143612.7354151809
 30
0.0
 11
248302.0446067616
 21
143612.7354151809
 31
0.0
  0
LINE
  5
E6
330
2
100
AcDbEntity
  8
TEREN$0$A-WallBelow-G
  6
Continuous
 62
     8
370
     5
390
D4
100
AcDbLine
 10
248302.0446067616
 20
143612.7354151809
 30
0.0
 11
248302.0446067616
 21
143549.5123869863
 31
0.0
  0
LINE
  5
E7
330
2
100
AcDbEntity
  8
TEREN$0$A-WallBelow-G
  6
Continuous
 62
     8
370
     5
390
D4
100
AcDbLine
 10
248282.0446067615
 20
143589.5123869863
 30
0.0
 11
248282.0446067616
 21
143549.5123869863
 31
0.0
  0
LINE
  5
E8
330
2
100
AcDbEntity
  8
TEREN$0$A-WallBelow-G
  6
Continuous
 62
     8
370
     5
390
D4
100
AcDbLine
 10
248322.0446067616
 20
143529.5123869863
 30
0.0
 11
248322.0446067616
 21
143612.7354151809
 31
0.0
  0
LINE
  5
E9
330
2
100
AcDbEntity
  8
TEREN$0$A-WallBelow-G
  6
Continuous
 62
     8
370
     5
390
D4
100
AcDbLine
 10
249262.0518333736
 20
143179.4123799197
 30
0.0
 11
249346.8956705914
 21
143179.4123799197
 31
0.0
  0
LINE
  5
EA
330
2
100
AcDbEntity
  8
TEREN$0$A-WallBelow-G
  6
Continuous
 62
     8
370
     5
390
D4
100
AcDbLine
 10
249346.8956705914
 20
143179.4123799197
 30
0.0
 11
249346.8956705914
 21
143199.4123799197
 31
0.0
  0
LINE
  5
EB
330
2
100
AcDbEntity
  8
TEREN$0$A-WallBelow-G
  6
Continuous
 62
     8
370
     5
390
D4
100
AcDbLine
 10
249346.8956705914
 20
143199.4123799197
 30
0.0
 11
249282.0518333736
 21
143199.4123799197
 31
0.0
  0
LINE
  5
EC
330
2
100
AcDbEntity
  8
TEREN$0$A-WallBelow-G
  6
Continuous
 62
     8
370
     5
390
D4
100
AcDbLine
 10
249347.1009099875
 20
143019.4123799198
 30
0.0
 11
249347.1009099875
 21
143039.4123799198
 31
0.0
  0
LINE
  5
ED
330
2
100
AcDbEntity
  8
TEREN$0$A-WallBelow-G
  6
Continuous
 62
     8
370
     5
390
D4
100
AcDbLine
 10
249347.1009099875
 20
143039.4123799198
 30
0.0
 11
249262.0518333736
 21
143039.4123799197
 31
0.0
  0
LINE
  5
EE
330
2
100
AcDbEntity
  8
TEREN$0$A-WallBelow-G
  6
Continuous
 62
     8
370
     5
390
D4
100
AcDbLine
 10
249282.0518333736
 20
143019.4123799197
 30
0.0
 11
249347.1009099875
 21
143019.4123799198
 31
0.0
  0
LINE
  5
EF
330
2
100
AcDbEntity
  8
TEREN$0$A-WallBelow-G
  6
Continuous
 62
     8
370
     5
390
D4
100
AcDbLine
 10
249262.0518333736
 20
143039.4123799197
 30
0.0
 11
249262.0518333736
 21
142898.9003804455
 31
0.0
  0
LINE
  5
F0
330
2
100
AcDbEntity
  8
TEREN$0$A-WallBelow-G
  6
Continuous
 62
     8
370
     5
100
AcDbLine
 10
248266.5076941004
 20
143294.5123869863
 30
0.0
 11
248226.5076941003
 21
143294.5123869863
 31
0.0
  0
LINE
  5
F1
330
2
100
AcDbEntity
  8
TEREN$0$A-WallBelow-G
  6
Continuous
 62
     8
370
     5
100
AcDbLine
 10
248266.5076941004
 20
143314.5123869863
 30
0.0
 11
248246.5076941004
 21
143314.5123869863
 31
0.0
  0
LINE
  5
F2
330
2
100
AcDbEntity
  8
TEREN$0$A-WallBelow-G
  6
Continuous
 62
     8
370
     5
100
AcDbLine
 10
248266.5076941004
 20
143334.5123869863
 30
0.0
 11
248226.5076941003
 21
143334.5123869863
 31
0.0
  0
LINE
  5
F3
330
2
100
AcDbEntity
  8
TEREN$0$A-WallBelow-G
  6
Continuous
 62
     8
370
     5
100
AcDbLine
 10
248266.5076941004
 20
143354.5123869863
 30
0.0
 11
248246.5076941004
 21
143354.5123869863
 31
0.0
  0
LINE
  5
F4
330
2
100
AcDbEntity
  8
TEREN$0$A-WallBelow-G
  6
Continuous
 62
     8
370
     5
100
AcDbLine
 10
248266.5076941004
 20
143374.5123869863
 30
0.0
 11
248226.5076941003
 21
143374.5123869863
 31
0.0
  0
LINE
  5
F5
330
2
100
AcDbEntity
  8
TEREN$0$A-WallBelow-G
  6
Continuous
 62
     8
370
     5
100
AcDbLine
 10
248266.5076941004
 20
143394.5123869863
 30
0.0
 11
248246.5076941004
 21
143394.5123869863
 31
0.0
  0
LINE
  5
F6
330
2
100
AcDbEntity
  8
TEREN$0$A-WallBelow-G
  6
Continuous
 62
     8
370
     5
100
AcDbLine
 10
248266.5076941004
 20
143414.5123869863
 30
0.0
 11
248226.5076941003
 21
143414.5123869863
 31
0.0
  0
LINE
  5
F7
330
2
100
AcDbEntity
  8
TEREN$0$A-WallBelow-G
  6
Continuous
 62
     8
370
     5
100
AcDbLine
 10
248266.5076941004
 20
143434.5123869863
 30
0.0
 11
248246.5076941004
 21
143434.5123869864
 31
0.0
  0
LINE
  5
F8
330
2
100
AcDbEntity
  8
TEREN$0$A-WallBelow-G
  6
Continuous
 62
     8
370
     5
100
AcDbLine
 10
248266.5076941004
 20
143454.5123869863
 30
0.0
 11
248226.5076941003
 21
143454.5123869864
 31
0.0
  0
LINE
  5
F9
330
2
100
AcDbEntity
  8
TEREN$0$A-WallBelow-G
  6
Continuous
 62
     8
370
     5
100
AcDbLine
 10
248266.5076941004
 20
143474.5123869863
 30
0.0
 11
248246.5076941004
 21
143474.5123869863
 31
0.0
  0
LINE
  5
FA
330
2
100
AcDbEntity
  8
TEREN$0$A-WallBelow-G
  6
Continuous
 62
     8
370
     5
100
AcDbLine
 10
248266.5076941004
 20
143494.5123869863
 30
0.0
 11
248226.5076941003
 21
143494.5123869863
 31
0.0
  0
LINE
  5
FB
330
2
100
AcDbEntity
  8
TEREN$0$A-WallBelow-G
  6
Continuous
 62
     8
370
     5
100
AcDbLine
 10
248266.5076941004
 20
143514.5123869863
 30
0.0
 11
248246.5076941004
 21
143514.5123869863
 31
0.0
  0
LINE
  5
FC
330
2
100
AcDbEntity
  8
TEREN$0$A-WallBelow-G
  6
Continuous
 62
     8
370
     5
100
AcDbLine
 10
248266.5076941004
 20
143534.5123869863
 30
0.0
 11
248226.5076941003
 21
143534.5123869863
 31
0.0
  0
LINE
  5
FD
330
2
100
AcDbEntity
  8
TEREN$0$A-WallBelow-G
  6
Continuous
 62
     8
370
     5
100
AcDbLine
 10
248597.0484990652
 20
142394.5123869863
 30
0.0
 11
248597.0484990652
 21
142239.1126496676
 31
0.0
  0
ARC
  5
FE
330
2
100
AcDbEntity
  8
TEREN$0$A-WallBelow-G
  6
Continuous
 62
     8
370
     5
390
D4
100
AcDbCircle
 10
-248698.2312799365
 20
142268.7286622559
 30
0.0
 40
76.27361666082667
210
0.0
220
0.0
230
-1.0
100
AcDbArc
 50
277.3669133138781
 51
357.2034533507929
  0
LINE
  5
FF
330
2
100
AcDbEntity
  8
TEREN$0$A-WallBelow-G
  6
Continuous
 62
     8
370
     5
390
D4
100
AcDbLine
 10
248688.4512546077
 20
142193.0846558635
 30
0.0
 11
248685.2456817776
 21
142168.2910215428
 31
0.0
  0
ARC
  5
100
330
2
100
AcDbEntity
  8
TEREN$0$A-WallBelow-G
  6
Continuous
 62
     8
370
     5
390
D4
100
AcDbCircle
 10
248698.2312799365
 20
142268.7286622559
 30
0.0
 40
101.2736166608267
100
AcDbArc
 50
182.5921564511231
 51
262.6330866861219
  0
LINE
  5
101
330
2
100
AcDbEntity
  8
TEREN$0$A-WallBelow-G
  6
Continuous
 62
     8
370
     5
390
D4
100
AcDbLine
 10
248622.0484990652
 20
142394.5123869863
 30
0.0
 11
248622.0484990652
 21
142265.0073053474
 31
0.0
  0
LINE
  5
102
330
2
100
AcDbEntity
  8
TEREN$0$A-WallBelow-G
  6
Continuous
 62
     8
370
     5
100
AcDbLine
 10
249262.0518333736
 20
143039.4123799197
 30
0.0
 11
249262.0518333736
 21
143179.4123799197
 31
0.0
  0
LINE
  5
103
330
2
100
AcDbEntity
  8
TEREN$0$A-WallBelow-G
  6
Continuous
 62
     8
370
     5
100
AcDbLine
 10
248472.0446067616
 20
143529.5123869863
 30
0.0
 11
248322.0446067616
 21
143529.5123869863
 31
0.0
  0
LINE
  5
104
330
2
100
AcDbEntity
  8
TEREN$0$A-WallBelow-G
  6
Continuous
 62
     8
370
     5
100
AcDbLine
 10
248170.7751376726
 20
142254.8878004849
 30
0.0
 11
248030.2491533791
 21
142254.8878004849
 31
0.0
  0
LINE
  5
105
330
2
100
AcDbEntity
  8
TEREN$0$A-WallBelow-G
  6
Continuous
 62
     8
370
     5
100
AcDbLine
 10
248150.4885019863
 20
142254.8878004849
 30
0.0
 11
248150.4885019863
 21
142234.8878004848
 31
0.0
  0
LINE
  5
106
330
2
100
AcDbEntity
  8
TEREN$0$A-WallBelow-G
  6
Continuous
 62
     8
370
     5
100
AcDbLine
 10
248114.9718162471
 20
142194.8878004848
 30
0.0
 11
248028.4165365369
 21
142194.8878004848
 31
0.0
  0
ARC
  5
107
330
2
100
AcDbEntity
  8
TEREN$0$A-WallBelow-G
  6
Continuous
 62
     8
370
     5
100
AcDbCircle
 10
248039.5883860326
 20
142392.2934362259
 30
0.0
 40
197.721509309202
100
AcDbArc
 50
179.3569784953959
 51
266.7608940965304
  0
ARC
  5
108
330
2
100
AcDbEntity
  8
TEREN$0$A-WallBelow-G
  6
Continuous
 62
     8
370
     5
100
AcDbCircle
 10
248039.5883860326
 20
142392.2934362259
 30
0.0
 40
137.7215093092021
100
AcDbArc
 50
179.0801578157421
 51
266.1257361054738
  0
LINE
  5
109
330
2
100
AcDbEntity
  8
TEREN$0$A-WallBelow-G
  6
Continuous
 62
     8
370
     5
100
AcDbLine
 10
248130.4885019862
 20
142254.8878004849
 30
0.0
 11
248130.4885019863
 21
142214.8878004849
 31
0.0
  0
LINE
  5
10A
330
2
100
AcDbEntity
  8
TEREN$0$A-WallBelow-G
  6
Continuous
 62
     8
370
     5
100
AcDbLine
 10
248110.4885019862
 20
142254.8878004849
 30
0.0
 11
248110.4885019862
 21
142234.8878004848
 31
0.0
  0
LINE
  5
10B
330
2
100
AcDbEntity
  8
TEREN$0$A-WallBelow-G
  6
Continuous
 62
     8
370
     5
100
AcDbLine
 10
248010.4885019863
 20
142257.6813607093
 30
0.0
 11
248002.1428953367
 21
142218.5615448022
 31
0.0
  0
LINE
  5
10C
330
2
100
AcDbEntity
  8
TEREN$0$A-WallBelow-G
  6
Continuous
 62
     8
370
     5
100
AcDbLine
 10
248090.4885019862
 20
142254.8878004849
 30
0.0
 11
248090.4885019862
 21
142214.8878004849
 31
0.0
  0
LINE
  5
10D
330
2
100
AcDbEntity
  8
TEREN$0$A-WallBelow-G
  6
Continuous
 62
     8
370
     5
100
AcDbLine
 10
248070.4885019862
 20
142254.8878004849
 30
0.0
 11
248070.4885019862
 21
142234.8878004848
 31
0.0
  0
LINE
  5
10E
330
2
100
AcDbEntity
  8
TEREN$0$A-WallBelow-G
  6
Continuous
 62
     8
370
     5
100
AcDbLine
 10
248050.4885019862
 20
142254.8878004849
 30
0.0
 11
248050.4885019863
 21
142214.8878004849
 31
0.0
  0
LINE
  5
10F
330
2
100
AcDbEntity
  8
TEREN$0$A-WallBelow-G
  6
Continuous
 62
     8
370
     5
100
AcDbLine
 10
247956.2764144227
 20
142282.6288133393
 30
0.0
 11
247943.9103955556
 21
142266.9099845859
 31
0.0
  0
LINE
  5
110
330
2
100
AcDbEntity
  8
TEREN$0$A-WallBelow-G
  6
Continuous
 62
     8
370
     5
100
AcDbLine
 10
247991.2447107235
 20
142263.3356788633
 30
0.0
 11
247983.9593482505
 21
142244.7097965046
 31
0.0
  0
LINE
  5
111
330
2
100
AcDbEntity
  8
TEREN$0$A-WallBelow-G
  6
Continuous
 62
     8
370
     5
100
AcDbLine
 10
248030.4885019863
 20
142254.8878004849
 30
0.0
 11
248030.4885019863
 21
142234.8878004848
 31
0.0
  0
LINE
  5
112
330
2
100
AcDbEntity
  8
TEREN$0$A-WallBelow-G
  6
Continuous
 62
     8
370
     5
100
AcDbLine
 10
247973.0463722825
 20
142271.7141074317
 30
0.0
 11
247952.2305479103
 21
142237.5241143636
 31
0.0
  0
LINE
  5
113
330
2
100
AcDbEntity
  8
TEREN$0$A-WallBelow-G
  6
Continuous
 62
     8
370
     5
100
AcDbLine
 10
247928.2727243946
 20
142311.2006646585
 30
0.0
 11
247912.8046632375
 21
142298.5223728161
 31
0.0
  0
LINE
  5
114
330
2
100
AcDbEntity
  8
TEREN$0$A-WallBelow-G
  6
Continuous
 62
     8
370
     5
100
AcDbLine
 10
247941.2494170663
 20
142295.8742404761
 30
0.0
 11
247913.1794745871
 21
142267.3705721125
 31
0.0
  0
LINE
  5
115
330
2
100
AcDbEntity
  8
TEREN$0$A-WallBelow-G
  6
Continuous
 62
     8
370
     5
100
AcDbLine
 10
247909.5511081826
 20
142346.9335365815
 30
0.0
 11
247890.9087174312
 21
142339.6905215276
 31
0.0
  0
LINE
  5
116
330
2
100
AcDbEntity
  8
TEREN$0$A-WallBelow-G
  6
Continuous
 62
     8
370
     5
100
AcDbLine
 10
247917.6215086356
 20
142328.3302050347
 30
0.0
 11
247883.9477686436
 21
142306.4975558476
 31
0.0
  0
LINE
  5
117
330
2
100
AcDbEntity
  8
TEREN$0$A-WallBelow-G
  6
Continuous
 62
     8
370
     5
100
AcDbLine
 10
247901.9955002951
 20
142386.3426446135
 30
0.0
 11
247881.9955002951
 21
142386.3426446135
 31
0.0
  0
LINE
  5
118
330
2
100
AcDbEntity
  8
TEREN$0$A-WallBelow-G
  6
Continuous
 62
     8
370
     5
100
AcDbLine
 10
248902.2586412148
 20
142194.8878004849
 30
0.0
 11
248679.1212895798
 21
142194.8878004848
 31
0.0
  0
LINE
  5
119
330
2
100
AcDbEntity
  8
TEREN$0$A-WallBelow-G
  6
Continuous
 62
     8
370
     5
100
AcDbLine
 10
247904.3302851364
 20
142366.3615973335
 30
0.0
 11
247865.3132994183
 21
142357.4634339765
 31
0.0
  0
LINE
  5
11A
330
2
100
AcDbEntity
  8
TEREN$0$A-WallBelow-G
  6
Continuous
 62
     8
370
     5
100
AcDbLine
 10
248901.1287159129
 20
142254.8878004849
 30
0.0
 11
248623.2239793321
 21
142254.8878004849
 31
0.0
  0
LINE
  5
11B
330
2
100
AcDbEntity
  8
TEREN$0$A-WallBelow-G
  6
Continuous
 62
     8
370
     5
100
AcDbLine
 10
249282.1009099875
 20
142898.9085456695
 30
0.0
 11
249282.1009099875
 21
142627.5395551648
 31
0.0
  0
ARC
  5
11C
330
2
100
AcDbEntity
  8
TEREN$0$A-WallBelow-G
  6
Continuous
 62
     8
370
     5
100
AcDbCircle
 10
248885.6285868499
 20
142651.7990930846
 30
0.0
 40
397.2138318263475
100
AcDbArc
 50
272.2363710613611
 51
356.49852399299
  0
ARC
  5
11D
330
2
100
AcDbEntity
  8
TEREN$0$A-WallBelow-G
  6
Continuous
 62
     8
370
     5
100
AcDbCircle
 10
248885.6285868499
 20
142651.7990930846
 30
0.0
 40
457.2138318263474
100
AcDbArc
 50
272.0844560707969
 51
356.7364160971465
  0
LINE
  5
11E
330
2
100
AcDbEntity
  8
TEREN$0$A-WallBelow-G
  6
Continuous
 62
     8
370
     5
100
AcDbLine
 10
249342.1009099876
 20
143019.4123799198
 30
0.0
 11
249342.1009099874
 21
142625.7701433797
 31
0.0
  0
LINE
  5
11F
330
2
100
AcDbEntity
  8
TEREN$0$A-WallBelow-G
  6
Continuous
 62
     8
370
     5
100
AcDbLine
 10
248643.6007115369
 20
142254.8878004849
 30
0.0
 11
248643.6007115369
 21
142214.8878004849
 31
0.0
  0
LINE
  5
120
330
2
100
AcDbEntity
  8
TEREN$0$A-WallBelow-G
  6
Continuous
 62
     8
370
     5
100
AcDbLine
 10
249282.0518333736
 20
143019.4123799197
 30
0.0
 11
249282.0518333736
 21
142898.9085256825
 31
0.0
  0
LINE
  5
121
330
2
100
AcDbEntity
  8
0
100
AcDbLine
 10
247847.0446067616
 20
142394.5123869863
 30
0.0
 11
247841.8793283215
 21
142394.5123869863
 31
0.0
  0
LINE
  5
122
330
2
100
AcDbEntity
  8
TEREN$0$A-WallBelow-G
  6
Continuous
 62
     8
370
     5
100
AcDbLine
 10
248663.6007115369
 20
142254.8878004849
 30
0.0
 11
248663.6007115369
 21
142234.8878004848
 31
0.0
  0
LINE
  5
123
330
2
100
AcDbEntity
  8
TEREN$0$A-WallBelow-G
  6
Continuous
 62
     8
370
     5
100
AcDbLine
 10
248703.6007115369
 20
142254.8878004849
 30
0.0
 11
248703.6007115369
 21
142234.8878004848
 31
0.0
  0
LINE
  5
124
330
2
100
AcDbEntity
  8
TEREN$0$A-WallBelow-G
  6
Continuous
 62
     8
370
     5
100
AcDbLine
 10
248683.6007115369
 20
142254.8878004849
 30
0.0
 11
248683.6007115369
 21
142214.8878004849
 31
0.0
  0
LINE
  5
125
330
2
100
AcDbEntity
  8
TEREN$0$A-WallBelow-G
  6
Continuous
 62
     8
370
     5
100
AcDbLine
 10
248703.6007115369
 20
142254.8878004849
 30
0.0
 11
248703.6007115369
 21
142234.8878004848
 31
0.0
  0
LINE
  5
126
330
2
100
AcDbEntity
  8
TEREN$0$A-WallBelow-G
  6
Continuous
 62
     8
370
     5
100
AcDbLine
 10
248763.6007115369
 20
142254.8878004849
 30
0.0
 11
248763.6007115369
 21
142214.8878004849
 31
0.0
  0
LINE
  5
127
330
2
100
AcDbEntity
  8
TEREN$0$A-WallBelow-G
  6
Continuous
 62
     8
370
     5
100
AcDbLine
 10
248723.6007115369
 20
142254.8878004849
 30
0.0
 11
248723.6007115369
 21
142214.8878004849
 31
0.0
  0
LINE
  5
128
330
2
100
AcDbEntity
  8
TEREN$0$A-WallBelow-G
  6
Continuous
 62
     8
370
     5
100
AcDbLine
 10
248743.6007115369
 20
142254.8878004849
 30
0.0
 11
248743.6007115369
 21
142234.8878004848
 31
0.0
  0
LINE
  5
129
330
2
100
AcDbEntity
  8
TEREN$0$A-WallBelow-G
  6
Continuous
 62
     8
370
     5
100
AcDbLine
 10
248763.6007115369
 20
142254.8878004849
 30
0.0
 11
248763.6007115369
 21
142214.8878004849
 31
0.0
  0
LINE
  5
12A
330
2
100
AcDbEntity
  8
TEREN$0$A-WallBelow-G
  6
Continuous
 62
     8
370
     5
100
AcDbLine
 10
248803.6007115369
 20
142254.8878004849
 30
0.0
 11
248803.6007115369
 21
142214.8878004849
 31
0.0
  0
LINE
  5
12B
330
2
100
AcDbEntity
  8
TEREN$0$A-WallBelow-G
  6
Continuous
 62
     8
370
     5
100
AcDbLine
 10
248863.6007115369
 20
142254.8878004849
 30
0.0
 11
248863.6007115369
 21
142234.8878004848
 31
0.0
  0
LINE
  5
12C
330
2
100
AcDbEntity
  8
TEREN$0$A-WallBelow-G
  6
Continuous
 62
     8
370
     5
100
AcDbLine
 10
248783.6007115369
 20
142254.8878004849
 30
0.0
 11
248783.6007115369
 21
142234.8878004848
 31
0.0
  0
LINE
  5
12D
330
2
100
AcDbEntity
  8
TEREN$0$A-WallBelow-G
  6
Continuous
 62
     8
370
     5
100
AcDbLine
 10
248823.6007115369
 20
142254.8878004849
 30
0.0
 11
248823.6007115369
 21
142234.8878004848
 31
0.0
  0
LINE
  5
12E
330
2
100
AcDbEntity
  8
TEREN$0$A-WallBelow-G
  6
Continuous
 62
     8
370
     5
100
AcDbLine
 10
248823.6007115369
 20
142254.8878004849
 30
0.0
 11
248823.6007115369
 21
142234.8878004848
 31
0.0
  0
LINE
  5
12F
330
2
100
AcDbEntity
  8
TEREN$0$A-WallBelow-G
  6
Continuous
 62
     8
370
     5
100
AcDbLine
 10
248843.600711537
 20
142254.8878004849
 30
0.0
 11
248843.6007115369
 21
142214.8878004849
 31
0.0
  0
LINE
  5
130
330
2
100
AcDbEntity
  8
TEREN$0$A-WallBelow-G
  6
Continuous
 62
     8
370
     5
100
AcDbLine
 10
248883.6007115369
 20
142254.8878004849
 30
0.0
 11
248883.6007115369
 21
142214.8878004849
 31
0.0
  0
LINE
  5
131
330
2
100
AcDbEntity
  8
TEREN$0$A-WallBelow-G
  6
Continuous
 62
     8
370
     5
100
AcDbLine
 10
248883.6007115369
 20
142254.8878004849
 30
0.0
 11
248883.6007115369
 21
142234.8878004848
 31
0.0
  0
LINE
  5
132
330
2
100
AcDbEntity
  8
TEREN$0$A-WallBelow-G
  6
Continuous
 62
     8
370
     5
100
AcDbLine
 10
248903.600711537
 20
142254.8878004849
 30
0.0
 11
248903.6007115369
 21
142234.97252939
 31
0.0
  0
LINE
  5
133
330
2
100
AcDbEntity
  8
TEREN$0$A-WallBelow-G
  6
Continuous
 62
     8
370
     5
100
AcDbLine
 10
248923.600711537
 20
142256.4044219762
 30
0.0
 11
248925.7675706526
 21
142216.431665824
 31
0.0
  0
LINE
  5
134
330
2
100
AcDbEntity
  8
TEREN$0$A-WallBelow-G
  6
Continuous
 62
     8
370
     5
100
AcDbLine
 10
248943.4989434336
 20
142258.8234576782
 30
0.0
 11
248945.9916985787
 21
142238.9794114228
 31
0.0
  0
LINE
  5
135
330
2
100
AcDbEntity
  8
TEREN$0$A-WallBelow-G
  6
Continuous
 62
     8
370
     5
100
AcDbLine
 10
248963.2271089861
 20
142262.2387029569
 30
0.0
 11
248970.7225448106
 21
142222.9460261038
 31
0.0
  0
LINE
  5
136
330
2
100
AcDbEntity
  8
TEREN$0$A-WallBelow-G
  6
Continuous
 62
     8
370
     5
100
AcDbLine
 10
248982.7479452638
 20
142266.6411275491
 30
0.0
 11
248987.2082120087
 21
142247.144819679
 31
0.0
  0
LINE
  5
137
330
2
100
AcDbEntity
  8
TEREN$0$A-WallBelow-G
  6
Continuous
 62
     8
370
     5
100
AcDbLine
 10
249002.0330930442
 20
142272.0243978614
 30
0.0
 11
249013.5940231283
 21
142233.7311777187
 31
0.0
  0
LINE
  5
138
330
2
100
AcDbEntity
  8
TEREN$0$A-WallBelow-G
  6
Continuous
 62
     8
370
     5
100
AcDbLine
 10
249021.0095385766
 20
142278.3679399871
 30
0.0
 11
249028.1635712976
 21
142259.6912214362
 31
0.0
  0
LINE
  5
139
330
2
100
AcDbEntity
  8
TEREN$0$A-WallBelow-G
  6
Continuous
 62
     8
370
     5
100
AcDbLine
 10
249039.6349696506
 20
142285.6558666679
 30
0.0
 11
249054.6891316521
 21
142248.5938513882
 31
0.0
  0
LINE
  5
13A
330
2
100
AcDbEntity
  8
TEREN$0$A-WallBelow-G
  6
Continuous
 62
     8
370
     5
100
AcDbLine
 10
249057.8821771457
 20
142293.8779721314
 30
0.0
 11
249066.1337041442
 21
142275.6595116533
 31
0.0
  0
LINE
  5
13B
330
2
100
AcDbEntity
  8
TEREN$0$A-WallBelow-G
  6
Continuous
 62
     8
370
     5
100
AcDbLine
 10
249093.0365223009
 20
142313.0354933486
 30
0.0
 11
249103.3852390645
 21
142295.9210532073
 31
0.0
  0
LINE
  5
13C
330
2
100
AcDbEntity
  8
TEREN$0$A-WallBelow-G
  6
Continuous
 62
     8
370
     5
100
AcDbLine
 10
249075.700358653
 20
142303.0132708988
 30
0.0
 11
249093.9818831151
 21
142267.4231850522
 31
0.0
  0
LINE
  5
13D
330
2
100
AcDbEntity
  8
TEREN$0$A-WallBelow-G
  6
Continuous
 62
     8
370
     5
100
AcDbLine
 10
249109.8329892668
 20
142323.9100659259
 30
0.0
 11
249131.7360322942
 21
142290.4307767684
 31
0.0
  0
LINE
  5
13E
330
2
100
AcDbEntity
  8
TEREN$0$A-WallBelow-G
  6
Continuous
 62
     8
370
     5
100
AcDbLine
 10
249126.0695891319
 20
142335.6235838879
 30
0.0
 11
249137.6626298516
 21
142319.3263016951
 31
0.0
  0
LINE
  5
13F
330
2
100
AcDbEntity
  8
TEREN$0$A-WallBelow-G
  6
Continuous
 62
     8
370
     5
100
AcDbLine
 10
249141.7043764862
 20
142348.1479475964
 30
0.0
 11
249166.5635326044
 21
142316.7894051736
 31
0.0
  0
LINE
  5
140
330
2
100
AcDbEntity
  8
TEREN$0$A-WallBelow-G
  6
Continuous
 62
     8
370
     5
100
AcDbLine
 10
249170.96242775
 20
142375.4597592369
 30
0.0
 11
249199.8254347643
 21
142347.7657470501
 31
0.0
  0
LINE
  5
141
330
2
100
AcDbEntity
  8
TEREN$0$A-WallBelow-G
  6
Continuous
 62
     8
370
     5
100
AcDbLine
 10
249184.5129893927
 20
142390.1754280411
 30
0.0
 11
249199.6491887393
 21
142377.1027286511
 31
0.0
  0
LINE
  5
142
330
2
100
AcDbEntity
  8
TEREN$0$A-WallBelow-G
  6
Continuous
 62
     8
370
     5
100
AcDbLine
 10
249220.5007220813
 20
142438.1651041226
 30
0.0
 11
249253.9344563564
 21
142416.2004487181
 31
0.0
  0
LINE
  5
143
330
2
100
AcDbEntity
  8
TEREN$0$A-WallBelow-G
  6
Continuous
 62
     8
370
     5
100
AcDbLine
 10
249197.3050195832
 20
142405.5540332909
 30
0.0
 11
249228.621422689
 21
142380.6684063239
 31
0.0
  0
LINE
  5
144
330
2
100
AcDbEntity
  8
TEREN$0$A-WallBelow-G
  6
Continuous
 62
     8
370
     5
100
AcDbLine
 10
249209.3091730477
 20
142421.5607246208
 30
0.0
 11
249225.3280776437
 21
142409.5859721998
 31
0.0
  0
LINE
  5
145
330
2
100
AcDbEntity
  8
TEREN$0$A-WallBelow-G
  6
Continuous
 62
     8
370
     5
100
AcDbLine
 10
249248.8508836205
 20
142491.0247440021
 30
0.0
 11
249267.0385479395
 21
142482.7055573461
 31
0.0
  0
LINE
  5
146
330
2
100
AcDbEntity
  8
TEREN$0$A-WallBelow-G
  6
Continuous
 62
     8
370
     5
100
AcDbLine
 10
249230.8368265683
 20
142455.3045653626
 30
0.0
 11
249248.185491761
 21
142445.3534942629
 31
0.0
  0
LINE
  5
147
330
2
100
AcDbEntity
  8
TEREN$0$A-WallBelow-G
  6
Continuous
 62
     8
370
     5
100
AcDbLine
 10
249240.2934043566
 20
142472.9368684056
 30
0.0
 11
249275.8917198827
 21
142454.6934824702
 31
0.0
  0
LINE
  5
148
330
2
100
AcDbEntity
  8
TEREN$0$A-WallBelow-G
  6
Continuous
 62
     8
370
     5
100
AcDbLine
 10
249256.488038476
 20
142509.524375254
 30
0.0
 11
249293.6573743472
 21
142494.7371839095
 31
0.0
  0
LINE
  5
149
330
2
100
AcDbEntity
  8
TEREN$0$A-WallBelow-G
  6
Continuous
 62
     8
370
     5
100
AcDbLine
 10
249263.1836776141
 20
142528.3852298752
 30
0.0
 11
249282.1846908642
 21
142522.1433154681
 31
0.0
  0
LINE
  5
14A
330
2
100
AcDbEntity
  8
TEREN$0$A-WallBelow-G
  6
Continuous
 62
     8
370
     5
100
AcDbLine
 10
249273.6807697591
 20
142566.9796876778
 30
0.0
 11
249293.2482310102
 21
142562.8427250011
 31
0.0
  0
LINE
  5
14B
330
2
100
AcDbEntity
  8
TEREN$0$A-WallBelow-G
  6
Continuous
 62
     8
370
     5
100
AcDbLine
 10
249268.9189625576
 20
142547.5526730787
 30
0.0
 11
249307.6291438935
 21
142537.4685871155
 31
0.0
  0
LINE
  5
14C
330
2
100
AcDbEntity
  8
TEREN$0$A-WallBelow-G
  6
Continuous
 62
     8
370
     5
100
AcDbLine
 10
249277.4587921827
 20
142586.6230362609
 30
0.0
 11
249316.9270730199
 21
142580.1223844009
 31
0.0
  0
LINE
  5
14D
330
2
100
AcDbEntity
  8
TEREN$0$A-WallBelow-G
  6
Continuous
 62
     8
370
     5
100
AcDbLine
 10
249280.2433664925
 20
142606.4338654118
 30
0.0
 11
249300.1253274318
 21
142604.2641582405
 31
0.0
  0
LINE
  5
14E
330
2
100
AcDbEntity
  8
TEREN$0$A-WallBelow-G
  6
Continuous
 62
     8
370
     5
100
AcDbLine
 10
249282.1009099874
 20
142626.3498925968
 30
0.0
 11
249321.9539478544
 21
142623.9402689064
 31
0.0
  0
LINE
  5
14F
330
2
100
AcDbEntity
  8
TEREN$0$A-WallBelow-G
  6
Continuous
 62
     8
370
     5
100
AcDbLine
 10
249282.1009099875
 20
142646.3864166706
 30
0.0
 11
249302.1009099875
 21
142646.3864166706
 31
0.0
  0
LINE
  5
150
330
2
100
AcDbEntity
  8
TEREN$0$A-WallBelow-G
  6
Continuous
 62
     8
370
     5
100
AcDbLine
 10
249282.1009099875
 20
142666.3864166705
 30
0.0
 11
249322.1009099875
 21
142666.3864166705
 31
0.0
  0
LINE
  5
151
330
2
100
AcDbEntity
  8
TEREN$0$A-WallBelow-G
  6
Continuous
 62
     8
370
     5
100
AcDbLine
 10
249282.1009099875
 20
142686.3864166706
 30
0.0
 11
249302.1009099875
 21
142686.3864166706
 31
0.0
  0
LINE
  5
152
330
2
100
AcDbEntity
  8
TEREN$0$A-WallBelow-G
  6
Continuous
 62
     8
370
     5
100
AcDbLine
 10
249282.1009099875
 20
142706.3864166706
 30
0.0
 11
249322.1009099875
 21
142706.3864166706
 31
0.0
  0
LINE
  5
153
330
2
100
AcDbEntity
  8
TEREN$0$A-WallBelow-G
  6
Continuous
 62
     8
370
     5
100
AcDbLine
 10
249282.1009099875
 20
142726.3864166706
 30
0.0
 11
249302.1009099875
 21
142726.3864166706
 31
0.0
  0
LINE
  5
154
330
2
100
AcDbEntity
  8
TEREN$0$A-WallBelow-G
  6
Continuous
 62
     8
370
     5
100
AcDbLine
 10
249282.1009099875
 20
142746.3864166706
 30
0.0
 11
249322.1009099875
 21
142746.3864166706
 31
0.0
  0
LINE
  5
155
330
2
100
AcDbEntity
  8
TEREN$0$A-WallBelow-G
  6
Continuous
 62
     8
370
     5
100
AcDbLine
 10
249282.1009099875
 20
142766.3864166706
 30
0.0
 11
249302.1009099875
 21
142766.3864166706
 31
0.0
  0
LINE
  5
156
330
2
100
AcDbEntity
  8
TEREN$0$A-WallBelow-G
  6
Continuous
 62
     8
370
     5
100
AcDbLine
 10
249282.1009099875
 20
142786.3864166706
 30
0.0
 11
249322.1009099875
 21
142786.3864166706
 31
0.0
  0
LINE
  5
157
330
2
100
AcDbEntity
  8
TEREN$0$A-WallBelow-G
  6
Continuous
 62
     8
370
     5
100
AcDbLine
 10
249282.1009099875
 20
142806.3864166706
 30
0.0
 11
249302.1009099875
 21
142806.3864166706
 31
0.0
  0
LINE
  5
158
330
2
100
AcDbEntity
  8
TEREN$0$A-WallBelow-G
  6
Continuous
 62
     8
370
     5
100
AcDbLine
 10
249282.1009099875
 20
142826.3864166706
 30
0.0
 11
249322.1009099875
 21
142826.3864166706
 31
0.0
  0
LINE
  5
159
330
2
100
AcDbEntity
  8
TEREN$0$A-WallBelow-G
  6
Continuous
 62
     8
370
     5
100
AcDbLine
 10
249282.1009099875
 20
142846.3864166706
 30
0.0
 11
249302.1009099875
 21
142846.3864166706
 31
0.0
  0
LINE
  5
15A
330
2
100
AcDbEntity
  8
TEREN$0$A-WallBelow-G
  6
Continuous
 62
     8
370
     5
100
AcDbLine
 10
249282.1009099875
 20
142866.3864166706
 30
0.0
 11
249322.1009099875
 21
142866.3864166706
 31
0.0
  0
LINE
  5
15B
330
2
100
AcDbEntity
  8
TEREN$0$A-WallBelow-G
  6
Continuous
 62
     8
370
     5
100
AcDbLine
 10
249282.1009099875
 20
142886.3864166706
 30
0.0
 11
249302.1009099875
 21
142886.3864166706
 31
0.0
  0
LINE
  5
15C
330
2
100
AcDbEntity
  8
TEREN$0$A-WallBelow-G
  6
Continuous
 62
     8
370
     5
100
AcDbLine
 10
249282.1009099875
 20
142906.3864166706
 30
0.0
 11
249322.1009099875
 21
142906.3864166706
 31
0.0
  0
LINE
  5
15D
330
2
100
AcDbEntity
  8
TEREN$0$A-WallBelow-G
  6
Continuous
 62
     8
370
     5
100
AcDbLine
 10
249282.1009099875
 20
142926.3864166706
 30
0.0
 11
249302.1009099875
 21
142926.3864166706
 31
0.0
  0
LINE
  5
15E
330
2
100
AcDbEntity
  8
TEREN$0$A-WallBelow-G
  6
Continuous
 62
     8
370
     5
100
AcDbLine
 10
249282.1009099875
 20
142946.3864166706
 30
0.0
 11
249322.1009099875
 21
142946.3864166705
 31
0.0
  0
LINE
  5
15F
330
2
100
AcDbEntity
  8
TEREN$0$A-WallBelow-G
  6
Continuous
 62
     8
370
     5
100
AcDbLine
 10
249282.1009099875
 20
142966.3864166706
 30
0.0
 11
249302.1009099875
 21
142966.3864166706
 31
0.0
  0
LINE
  5
160
330
2
100
AcDbEntity
  8
TEREN$0$A-WallBelow-G
  6
Continuous
 62
     8
370
     5
100
AcDbLine
 10
249282.1009099875
 20
142986.3864166706
 30
0.0
 11
249322.1009099876
 21
142986.3864166706
 31
0.0
  0
LINE
  5
161
330
2
100
AcDbEntity
  8
TEREN$0$A-WallBelow-G
  6
Continuous
 62
     8
370
     5
100
AcDbLine
 10
249282.1009099875
 20
143006.3864166706
 30
0.0
 11
249302.1009099875
 21
143006.3864166706
 31
0.0
  0
LINE
  5
162
330
2
100
AcDbEntity
  8
TEREN$0$A-WallBelow-G
  6
Continuous
 62
     8
370
     5
100
AcDbLine
 10
248205.0043577097
 20
143274.5123869863
 30
-47.0
 11
248205.0043577097
 21
143565.2667493427
 31
-47.0
  0
ARC
  5
163
330
2
100
AcDbEntity
  8
TEREN$0$A-WallBelow-G
  6
Continuous
 62
     8
370
     5
100
AcDbCircle
 10
248254.7690772381
 20
143559.4529173633
 30
47.0
 40
50.10317307349825
100
AcDbArc
 50
92.3932851814515
 51
173.3365471637017
  0
LINE
  5
164
330
2
100
AcDbEntity
  8
TEREN$0$A-WallBelow-G
  6
Continuous
 62
     8
370
     5
100
AcDbLine
 10
248302.0446067616
 20
143609.5123869863
 30
0.0
 11
248252.6768408519
 21
143609.5123869863
 31
0.0
  0
LINE
  5
165
330
2
100
AcDbEntity
  8
TEREN$0$A-WallBelow-G
  6
Continuous
 62
     8
370
     5
100
AcDbLine
 10
248512.0446067616
 20
143549.5123869863
 30
0.0
 11
248512.0446067616
 21
143569.5123869863
 31
0.0
  0
LINE
  5
166
330
2
100
AcDbEntity
  8
TEREN$0$A-WallBelow-G
  6
Continuous
 62
     8
370
     5
100
AcDbLine
 10
248512.0446067616
 20
143549.5123869863
 30
0.0
 11
248512.0446067616
 21
143569.5123869863
 31
0.0
  0
LINE
  5
167
330
2
100
AcDbEntity
  8
TEREN$0$A-WallBelow-G
  6
Continuous
 62
     8
370
     5
100
AcDbLine
 10
248532.0446067616
 20
143549.5123869863
 30
0.0
 11
248532.0446067616
 21
143589.5123869863
 31
0.0
  0
LINE
  5
168
330
2
100
AcDbEntity
  8
TEREN$0$A-WallBelow-G
  6
Continuous
 62
     8
370
     5
100
AcDbLine
 10
248552.0446067616
 20
143549.5123869863
 30
0.0
 11
248552.0446067616
 21
143569.5123869863
 31
0.0
  0
LINE
  5
169
330
2
100
AcDbEntity
  8
TEREN$0$A-WallBelow-G
  6
Continuous
 62
     8
370
     5
100
AcDbLine
 10
248572.0446067616
 20
143549.5123869863
 30
0.0
 11
248572.0446067616
 21
143589.5123869863
 31
0.0
  0
LINE
  5
16A
330
2
100
AcDbEntity
  8
TEREN$0$A-WallBelow-G
  6
Continuous
 62
     8
370
     5
100
AcDbLine
 10
248572.0446067616
 20
143549.5123869863
 30
0.0
 11
248572.0446067616
 21
143589.5123869863
 31
0.0
  0
LINE
  5
16B
330
2
100
AcDbEntity
  8
TEREN$0$A-WallBelow-G
  6
Continuous
 62
     8
370
     5
100
AcDbLine
 10
248592.0446067616
 20
143549.5123869863
 30
0.0
 11
248592.0446067616
 21
143569.5123869863
 31
0.0
  0
LINE
  5
16C
330
2
100
AcDbEntity
  8
TEREN$0$A-WallBelow-G
  6
Continuous
 62
     8
370
     5
100
AcDbLine
 10
248612.0446067616
 20
143549.5123869863
 30
0.0
 11
248612.0446067616
 21
143589.5123869863
 31
0.0
  0
LINE
  5
16D
330
2
100
AcDbEntity
  8
TEREN$0$A-WallBelow-G
  6
Continuous
 62
     8
370
     5
100
AcDbLine
 10
248632.0446067616
 20
143549.5123869863
 30
0.0
 11
248632.0446067616
 21
143569.5123869863
 31
0.0
  0
LINE
  5
16E
330
2
100
AcDbEntity
  8
TEREN$0$A-WallBelow-G
  6
Continuous
 62
     8
370
     5
100
AcDbLine
 10
248632.0446067616
 20
143549.5123869863
 30
0.0
 11
248632.0446067616
 21
143569.5123869863
 31
0.0
  0
LINE
  5
16F
330
2
100
AcDbEntity
  8
TEREN$0$A-WallBelow-G
  6
Continuous
 62
     8
370
     5
100
AcDbLine
 10
248652.0446067616
 20
143549.5123869863
 30
0.0
 11
248652.0446067616
 21
143589.5123869863
 31
0.0
  0
LINE
  5
170
330
2
100
AcDbEntity
  8
TEREN$0$A-WallBelow-G
  6
Continuous
 62
     8
370
     5
100
AcDbLine
 10
248672.0446067616
 20
143549.5123869863
 30
0.0
 11
248672.0446067616
 21
143569.5123869863
 31
0.0
  0
LINE
  5
171
330
2
100
AcDbEntity
  8
TEREN$0$A-WallBelow-G
  6
Continuous
 62
     8
370
     5
100
AcDbLine
 10
248692.0446067616
 20
143549.5123869863
 30
0.0
 11
248692.0446067616
 21
143589.5123869863
 31
0.0
  0
LINE
  5
172
330
2
100
AcDbEntity
  8
TEREN$0$A-WallBelow-G
  6
Continuous
 62
     8
370
     5
100
AcDbLine
 10
248692.0446067616
 20
143549.5123869863
 30
0.0
 11
248692.0446067616
 21
143569.5123869863
 31
0.0
  0
LINE
  5
173
330
2
100
AcDbEntity
  8
TEREN$0$A-WallBelow-G
  6
Continuous
 62
     8
370
     5
100
AcDbLine
 10
248712.0446067616
 20
143549.5123869863
 30
0.0
 11
248712.0446067616
 21
143569.5123869863
 31
0.0
  0
LINE
  5
174
330
2
100
AcDbEntity
  8
TEREN$0$A-WallBelow-G
  6
Continuous
 62
     8
370
     5
100
AcDbLine
 10
248712.0446067616
 20
143549.5123869863
 30
0.0
 11
248712.0446067616
 21
143569.5123869863
 31
0.0
  0
LINE
  5
175
330
2
100
AcDbEntity
  8
TEREN$0$A-WallBelow-G
  6
Continuous
 62
     8
370
     5
100
AcDbLine
 10
248732.0446067616
 20
143549.5123869863
 30
0.0
 11
248732.0446067616
 21
143589.5123869863
 31
0.0
  0
LINE
  5
176
330
2
100
AcDbEntity
  8
TEREN$0$A-WallBelow-G
  6
Continuous
 62
     8
370
     5
100
AcDbLine
 10
248752.0446067617
 20
143549.5123869863
 30
0.0
 11
248752.0446067616
 21
143569.5123869863
 31
0.0
  0
LINE
  5
177
330
2
100
AcDbEntity
  8
TEREN$0$A-WallBelow-G
  6
Continuous
 62
     8
370
     5
100
AcDbLine
 10
248772.0446067616
 20
143549.5123869863
 30
0.0
 11
248772.0446067616
 21
143589.5123869863
 31
0.0
  0
LINE
  5
178
330
2
100
AcDbEntity
  8
TEREN$0$A-WallBelow-G
  6
Continuous
 62
     8
370
     5
100
AcDbLine
 10
248772.0446067616
 20
143549.5123869863
 30
0.0
 11
248772.0446067616
 21
143589.5123869863
 31
0.0
  0
LINE
  5
179
330
2
100
AcDbEntity
  8
TEREN$0$A-WallBelow-G
  6
Continuous
 62
     8
370
     5
100
AcDbLine
 10
248792.0446067616
 20
143549.5123869863
 30
0.0
 11
248792.0446067616
 21
143569.5123869863
 31
0.0
  0
LINE
  5
17A
330
2
100
AcDbEntity
  8
TEREN$0$A-WallBelow-G
  6
Continuous
 62
     8
370
     5
100
AcDbLine
 10
248812.0446067616
 20
143549.5123869863
 30
0.0
 11
248812.0446067616
 21
143589.5123869863
 31
0.0
  0
LINE
  5
17B
330
2
100
AcDbEntity
  8
TEREN$0$A-WallBelow-G
  6
Continuous
 62
     8
370
     5
100
AcDbLine
 10
248832.0446067616
 20
143549.5123869863
 30
0.0
 11
248832.0446067616
 21
143569.5123869863
 31
0.0
  0
LINE
  5
17C
330
2
100
AcDbEntity
  8
TEREN$0$A-WallBelow-G
  6
Continuous
 62
     8
370
     5
100
AcDbLine
 10
248832.0446067616
 20
143549.5123869863
 30
0.0
 11
248832.0446067616
 21
143569.5123869863
 31
0.0
  0
LINE
  5
17D
330
2
100
AcDbEntity
  8
TEREN$0$A-WallBelow-G
  6
Continuous
 62
     8
370
     5
100
AcDbLine
 10
248852.0446067616
 20
143549.5123869863
 30
0.0
 11
248852.0446067616
 21
143589.5123869863
 31
0.0
  0
LINE
  5
17E
330
2
100
AcDbEntity
  8
TEREN$0$A-WallBelow-G
  6
Continuous
 62
     8
370
     5
100
AcDbLine
 10
248872.0446067616
 20
143549.5123869863
 30
0.0
 11
248872.0446067616
 21
143569.5123869863
 31
0.0
  0
LINE
  5
17F
330
2
100
AcDbEntity
  8
TEREN$0$A-WallBelow-G
  6
Continuous
 62
     8
370
     5
100
AcDbLine
 10
248892.0446067616
 20
143549.5123869863
 30
0.0
 11
248892.0446067616
 21
143589.5123869863
 31
0.0
  0
LINE
  5
180
330
2
100
AcDbEntity
  8
TEREN$0$A-WallBelow-G
  6
Continuous
 62
     8
370
     5
100
AcDbLine
 10
248892.0446067616
 20
143549.5123869863
 30
0.0
 11
248892.0446067616
 21
143569.5123869863
 31
0.0
  0
LINE
  5
181
330
2
100
AcDbEntity
  8
TEREN$0$A-WallBelow-G
  6
Continuous
 62
     8
370
     5
100
AcDbLine
 10
248912.0446067616
 20
143549.5123869863
 30
0.0
 11
248912.0446067616
 21
143569.5123869863
 31
0.0
  0
LINE
  5
182
330
2
100
AcDbEntity
  8
TEREN$0$A-WallBelow-G
  6
Continuous
 62
     8
370
     5
100
AcDbLine
 10
248912.0446067616
 20
143549.5123869863
 30
0.0
 11
248912.0446067616
 21
143569.5123869863
 31
0.0
  0
LINE
  5
183
330
2
100
AcDbEntity
  8
TEREN$0$A-WallBelow-G
  6
Continuous
 62
     8
370
     5
100
AcDbLine
 10
248932.0446067616
 20
143549.5123869863
 30
0.0
 11
248932.0446067616
 21
143589.5123869863
 31
0.0
  0
LINE
  5
184
330
2
100
AcDbEntity
  8
TEREN$0$A-WallBelow-G
  6
Continuous
 62
     8
370
     5
100
AcDbLine
 10
248952.0446067616
 20
143549.5123869863
 30
0.0
 11
248952.0446067616
 21
143569.5123869863
 31
0.0
  0
LINE
  5
185
330
2
100
AcDbEntity
  8
TEREN$0$A-WallBelow-G
  6
Continuous
 62
     8
370
     5
100
AcDbLine
 10
248972.0446067616
 20
143549.5123869863
 30
0.0
 11
248972.0446067616
 21
143589.5123869863
 31
0.0
  0
LINE
  5
186
330
2
100
AcDbEntity
  8
TEREN$0$A-WallBelow-G
  6
Continuous
 62
     8
370
     5
100
AcDbLine
 10
248972.0446067616
 20
143549.5123869863
 30
0.0
 11
248972.0446067616
 21
143589.5123869863
 31
0.0
  0
LINE
  5
187
330
2
100
AcDbEntity
  8
TEREN$0$A-WallBelow-G
  6
Continuous
 62
     8
370
     5
100
AcDbLine
 10
248992.0446067616
 20
143549.5123869863
 30
0.0
 11
248992.0446067616
 21
143569.5123869863
 31
0.0
  0
LINE
  5
188
330
2
100
AcDbEntity
  8
TEREN$0$A-WallBelow-G
  6
Continuous
 62
     8
370
     5
100
AcDbLine
 10
249012.0446067616
 20
143549.5123869863
 30
0.0
 11
249012.0446067616
 21
143589.5123869863
 31
0.0
  0
LINE
  5
189
330
2
100
AcDbEntity
  8
TEREN$0$A-WallBelow-G
  6
Continuous
 62
     8
370
     5
100
AcDbLine
 10
249032.0446067616
 20
143549.5123869863
 30
0.0
 11
249032.0446067616
 21
143569.5123869863
 31
0.0
  0
LINE
  5
18A
330
2
100
AcDbEntity
  8
TEREN$0$A-WallBelow-G
  6
Continuous
 62
     8
370
     5
100
AcDbLine
 10
249032.0446067616
 20
143549.5123869863
 30
0.0
 11
249032.0446067616
 21
143569.5123869863
 31
0.0
  0
LINE
  5
18B
330
2
100
AcDbEntity
  8
TEREN$0$A-WallBelow-G
  6
Continuous
 62
     8
370
     5
100
AcDbLine
 10
249052.0446067616
 20
143549.0187947504
 30
0.0
 11
249053.349094706
 21
143588.9975179816
 31
0.0
  0
LINE
  5
18C
330
2
100
AcDbEntity
  8
TEREN$0$A-WallBelow-G
  6
Continuous
 62
     8
370
     5
100
AcDbLine
 10
249053.349094706
 20
143588.9975179816
 30
0.0
 11
249053.349094706
 21
143588.9975179816
 31
0.0
  0
LINE
  5
18D
330
2
100
AcDbEntity
  8
TEREN$0$A-WallBelow-G
  6
Continuous
 62
     8
370
     5
100
AcDbLine
 10
249071.9618900057
 20
143546.1575604384
 30
0.0
 11
249074.6570837419
 21
143565.9751266544
 31
0.0
  0
LINE
  5
18E
330
2
100
AcDbEntity
  8
TEREN$0$A-WallBelow-G
  6
Continuous
 62
     8
370
     5
100
AcDbLine
 10
249091.5474079328
 20
143541.7561322783
 30
0.0
 11
249100.9443963432
 21
143580.6461852445
 31
0.0
  0
LINE
  5
18F
330
2
100
AcDbEntity
  8
TEREN$0$A-WallBelow-G
  6
Continuous
 62
     8
370
     5
100
AcDbLine
 10
249110.6954539005
 20
143535.8482438087
 30
0.0
 11
249117.8747648688
 21
143554.5152600143
 31
0.0
  0
LINE
  5
190
330
2
100
AcDbEntity
  8
TEREN$0$A-WallBelow-G
  6
Continuous
 62
     8
370
     5
100
AcDbLine
 10
249129.2893559853
 20
143528.4788279008
 30
0.0
 11
249146.8463522306
 21
143564.4472411467
 31
0.0
  0
LINE
  5
191
330
2
100
AcDbEntity
  8
TEREN$0$A-WallBelow-G
  6
Continuous
 62
     8
370
     5
100
AcDbLine
 10
249147.2516037388
 20
143519.6834728917
 30
0.0
 11
249157.3341852524
 21
143536.9560392911
 31
0.0
  0
LINE
  5
192
330
2
100
AcDbEntity
  8
TEREN$0$A-WallBelow-G
  6
Continuous
 62
     8
370
     5
100
AcDbLine
 10
249164.474143822
 20
143509.5151908195
 30
0.0
 11
249186.9602353209
 21
143542.6090760402
 31
0.0
  0
LINE
  5
193
330
2
100
AcDbEntity
  8
TEREN$0$A-WallBelow-G
  6
Continuous
 62
     8
370
     5
100
AcDbLine
 10
249180.8535322447
 20
143498.0347714603
 30
0.0
 11
249193.0620270294
 21
143513.8762567155
 31
0.0
  0
LINE
  5
194
330
2
100
AcDbEntity
  8
TEREN$0$A-WallBelow-G
  6
Continuous
 62
     8
370
     5
100
AcDbLine
 10
249196.2949599939
 20
143485.3071704963
 30
0.0
 11
249222.6772955425
 21
143515.3748388436
 31
0.0
  0
LINE
  5
195
330
2
100
AcDbEntity
  8
TEREN$0$A-WallBelow-G
  6
Continuous
 62
     8
370
     5
100
AcDbLine
 10
249210.7051987217
 20
143471.4061723329
 30
0.0
 11
249225.0671300219
 21
143485.3250418749
 31
0.0
  0
LINE
  5
196
330
2
100
AcDbEntity
  8
TEREN$0$A-WallBelow-G
  6
Continuous
 62
     8
370
     5
100
AcDbLine
 10
249223.9856025636
 20
143456.4254718296
 30
0.0
 11
249254.5328317346
 21
143482.255804373
 31
0.0
  0
LINE
  5
197
330
2
100
AcDbEntity
  8
TEREN$0$A-WallBelow-G
  6
Continuous
 62
     8
370
     5
100
AcDbLine
 10
249236.0630149182
 20
143440.446240531
 30
0.0
 11
249252.2008019205
 21
143452.2602927853
 31
0.0
  0
LINE
  5
198
330
2
100
AcDbEntity
  8
TEREN$0$A-WallBelow-G
  6
Continuous
 62
     8
370
     5
100
AcDbLine
 10
249246.8615586104
 20
143423.5650262412
 30
0.0
 11
249281.0974243758
 21
143444.2571243506
 31
0.0
  0
LINE
  5
199
330
2
100
AcDbEntity
  8
TEREN$0$A-WallBelow-G
  6
Continuous
 62
     8
370
     5
100
AcDbLine
 10
249256.3040949157
 20
143405.9028917083
 30
0.0
 11
249274.1310562388
 21
143414.9692829412
 31
0.0
  0
LINE
  5
19A
330
2
100
AcDbEntity
  8
TEREN$0$A-WallBelow-G
  6
Continuous
 62
     8
370
     5
100
AcDbLine
 10
249264.3417824097
 20
143387.5527548205
 30
0.0
 11
249301.1146888005
 21
143403.3369998109
 31
0.0
  0
LINE
  5
19B
330
2
100
AcDbEntity
  8
TEREN$0$A-WallBelow-G
  6
Continuous
 62
     8
370
     5
100
AcDbLine
 10
249270.9277476252
 20
143368.6150976391
 30
0.0
 11
249290.3351353341
 21
143373.4476230989
 31
0.0
  0
LINE
  5
19C
330
2
100
AcDbEntity
  8
TEREN$0$A-WallBelow-G
  6
Continuous
 62
     8
370
     5
100
AcDbLine
 10
249276.0038586128
 20
143349.2683638051
 30
0.0
 11
249315.6813757228
 21
143355.0284582804
 31
0.0
  0
LINE
  5
19D
330
2
100
AcDbEntity
  8
TEREN$0$A-WallBelow-G
  6
Continuous
 62
     8
370
     5
100
AcDbLine
 10
249279.5584343764
 20
143329.5747389273
 30
0.0
 11
249299.4328268201
 21
143331.8127123389
 31
0.0
  0
LINE
  5
19E
330
2
100
AcDbEntity
  8
TEREN$0$A-WallBelow-G
  6
Continuous
 62
     8
370
     5
100
AcDbLine
 10
249281.5661973511
 20
143309.6744234351
 30
0.0
 11
249321.51708408
 21
143311.6974862411
 31
0.0
  0
LINE
  5
19F
330
2
100
AcDbEntity
  8
TEREN$0$A-WallBelow-G
  6
Continuous
 62
     8
370
     5
100
AcDbLine
 10
249282.0518333736
 20
143289.6733890261
 30
0.0
 11
249302.0518333736
 21
143289.6733890262
 31
0.0
  0
LINE
  5
1A0
330
2
100
AcDbEntity
  8
TEREN$0$A-WallBelow-G
  6
Continuous
 62
     8
370
     5
100
AcDbLine
 10
249282.0518333736
 20
143269.6733890261
 30
0.0
 11
249322.0518333736
 21
143269.6733890261
 31
0.0
  0
LINE
  5
1A1
330
2
100
AcDbEntity
  8
TEREN$0$A-WallBelow-G
  6
Continuous
 62
     8
370
     5
100
AcDbLine
 10
249282.0518333736
 20
143249.6733890261
 30
0.0
 11
249302.0518333736
 21
143249.6733890261
 31
0.0
  0
LINE
  5
1A2
330
2
100
AcDbEntity
  8
TEREN$0$A-WallBelow-G
  6
Continuous
 62
     8
370
     5
100
AcDbLine
 10
249282.0518333736
 20
143229.6733890261
 30
0.0
 11
249322.0518333736
 21
143229.6733890261
 31
0.0
  0
LINE
  5
1A3
330
2
100
AcDbEntity
  8
TEREN$0$A-WallBelow-G
  6
Continuous
 62
     8
370
     5
100
AcDbLine
 10
249282.0518333736
 20
143209.6733890261
 30
0.0
 11
249302.0518333736
 21
143209.6733890262
 31
0.0
  0
LINE
  5
1A4
330
2
100
AcDbEntity
  8
TEREN$0$A-WallBelow-G
  6
Continuous
 62
     8
370
     5
100
AcDbLine
 10
248266.5076941004
 20
143549.5123869863
 30
0.0
 11
248252.3655584766
 21
143563.6545226101
 31
0.0
  0
DIMENSION
  5
1A5
330
2
100
AcDbEntity
  8
0Wymiary-PL
100
AcDbDimension
  2
*D4
 10
247847.0446067616
 20
141874.3702783322
 30
0.0
 11
247532.0446067617
 21
141954.3702783322
 31
0.0
 71
     5
 42
630.0000000000291
  3
500
100
AcDbAlignedDimension
 13
247217.0446067616
 23
142416.8156187407
 33
0.0
 14
247847.0446067616
 24
142416.8156187436
 34
0.0
100
AcDbRotatedDimension
  0
DIMENSION
  5
1B1
330
2
100
AcDbEntity
  8
0Wymiary-PL
100
AcDbDimension
  2
*D5
 10
249037.0446067616
 20
141681.4384348913
 30
0.0
 11
248127.0446067616
 21
141761.4384348913
 31
0.0
 71
     5
 42
1820.0
  3
500
100
AcDbAlignedDimension
 13
247217.0446067616
 23
142416.8156187407
 33
0.0
 14
249037.0446067616
 24
142642.718895909
 34
0.0
100
AcDbRotatedDimension
  0
DIMENSION
  5
1BC
330
2
100
AcDbEntity
  8
0Wymiary-PL
100
AcDbDimension
  2
*D6
 10
249604.7609536525
 20
143020.7290778374
 30
0.0
 11
249524.7609536524
 21
143146.2723482891
 31
0.0
 71
     5
 42
251.0865409032558
  3
500
100
AcDbAlignedDimension
 13
248947.0446067616
 23
143271.8156187407
 33
0.0
 14
249037.0446067616
 24
143020.7290778374
 34
0.0
 50
90.0
100
AcDbRotatedDimension
  0
DIMENSION
  5
1C7
330
2
100
AcDbEntity
  8
0Wymiary-PL
100
AcDbDimension
  2
*D7
 10
249604.7609536525
 20
142642.718895909
 30
0.0
 11
249524.7609536524
 21
142831.7239868732
 31
0.0
 71
     5
 42
378.0101819284027
  3
500
100
AcDbAlignedDimension
 13
249037.0446067616
 23
143020.7290778374
 33
0.0
 14
249037.0446067616
 24
142642.718895909
 34
0.0
 50
90.0
100
AcDbRotatedDimension
  0
DIMENSION
  5
1D2
330
2
100
AcDbEntity
  8
0Wymiary-PL
100
AcDbDimension
  2
*D8
 10
249604.7609536525
 20
142391.8156187407
 30
0.0
 11
249524.7609536524
 21
142517.2672573249
 31
0.0
 71
     5
 42
250.9032771683414
  3
500
100
AcDbAlignedDimension
 13
249037.0446067616
 23
142642.718895909
 33
0.0
 14
248947.0446067616
 24
142391.8156187407
 34
0.0
 50
90.0
100
AcDbRotatedDimension
  0
DIMENSION
  5
1DD
330
2
100
AcDbEntity
  8
0Wymiary-PL
100
AcDbDimension
  2
*D9
 10
249797.7609536525
 20
142391.8156187407
 30
0.0
 11
249717.7609536525
 21
142831.8156187407
 31
0.0
 71
     5
 42
880.0
  3
500
100
AcDbAlignedDimension
 13
248918.9014878186
 23
143271.8156187407
 33
0.0
 14
248918.9014878186
 24
142391.8156187407
 34
0.0
 50
90.0
100
AcDbRotatedDimension
  0
HATCH
  5
1E8
330
2
100
AcDbEntity
  8
0Hatch
370
     5
100
AcDbHatch
 10
0.0
 20
0.0
 30
0.0
210
0.0
220
0.0
230
1.0
  2
SOLID
 70
     1
 71
     1
 91
        3
 92
        7
 72
     0
 73
     1
 93
       24
 10
251739.3398417222
 20
142391.8156187407
 10
252239.3378955702
 20
142391.8156187407
 10
252239.3378955702
 20
142451.8156187407
 10
251799.3398417222
 20
142451.8156187407
 10
251799.3398417222
 20
142702.718895909
 10
251709.3398417222
 20
142702.718895909
 10
251709.3398417221
 20
142960.7290778374
 10
251799.3398417222
 20
142960.7290778374
 10
251799.3398417222
 20
143211.8156187407
 10
252779.3398417221
 20
143211.8156187407
 10
252779.3398417221
 20
143186.8156187407
 10
253409.3398417221
 20
143186.8156187407
 10
253409.3398417221
 20
142476.8156187407
 10
253399.3398417222
 20
142476.8156187407
 10
253399.3398417222
 20
142416.8156187407
 10
253469.3398417222
 20
142416.8156187407
 10
253469.3398417222
 20
143246.8156187407
 10
252839.3398417222
 20
143246.8156187407
 10
252839.3398417222
 20
143271.8156187407
 10
251739.3398417221
 20
143271.8156187406
 10
251739.3398417222
 20
143020.7290778374
 10
251649.3398417221
 20
143020.7290778374
 10
251649.3398417221
 20
142642.718895909
 10
251739.3398417222
 20
142642.718895909
 97
       24
330
1FF
330
201
330
203
330
205
330
207
330
209
330
20B
330
1E9
330
1EB
330
1ED
330
1EC
330
1EA
330
20C
330
20A
330
208
330
206
330
204
330
202
330
200
330
1FE
330
1FC
330
1FA
330
1FB
330
1FD
 92
       23
 72
     0
 73
     1
 93
        4
 10
253109.3398417221
 20
142416.8156187407
 10
253159.3398417222
 20
142416.8156187407
 10
253159.3398417222
 20
142476.8156187407
 10
253109.3398417221
 20
142476.8156187407
 97
        4
330
1F0
330
1EE
330
1EF
330
1F1
 92
       23
 72
     0
 73
     1
 93
        8
 10
252839.339841722
 20
142391.8156187407
 10
252839.3398417222
 20
142416.8156187407
 10
252869.3398417222
 20
142416.8156187407
 10
252869.3398417221
 20
142476.8156187407
 10
252809.3398417221
 20
142476.8156187407
 10
252809.3398417222
 20
142451.8156187407
 10
252339.3378955703
 20
142451.8156187407
 10
252339.3378955703
 20
142391.8156187407
 97
        8
330
1F8
330
1F3
330
1F5
330
1F2
330
1F4
330
1F6
330
1F7
330
1F9
 75
     0
 76
     1
 47
4.192306624067952
 98
        3
 10
251765.5695694335
 20
142435.6051171679
 10
253124.5799012769
 20
142443.9898048206
 10
252776.4387081329
 20
142418.8357418628
1001
ACAD
1010
0.0
1020
0.0
1030
0.0
  0
LINE
  5
1E9
102
{ACAD_REACTORS
330
1E8
102
}
330
2
100
AcDbEntity
  8
A-Wall-G
  6
Continuous
 62
     7
370
     5
100
AcDbLine
 10
253469.3398417222
 20
143246.8156187407
 30
0.0
 11
253469.3398417222
 21
142416.8156187407
 31
0.0
  0
LINE
  5
1EA
102
{ACAD_REACTORS
330
1E8
102
}
330
2
100
AcDbEntity
  8
A-Wall-G
  6
Continuous
 62
     7
370
     5
100
AcDbLine
 10
253409.3398417221
 20
143186.8156187407
 30
0.0
 11
253409.3398417221
 21
142476.8156187407
 31
0.0
  0
LINE
  5
1EB
102
{ACAD_REACTORS
330
1E8
102
}
330
2
100
AcDbEntity
  8
A-Wall-G
  6
Continuous
 62
     7
370
     5
100
AcDbLine
 10
253469.3398417222
 20
142416.8156187407
 30
0.0
 11
253399.3398417222
 21
142416.8156187407
 31
0.0
  0
LINE
  5
1EC
102
{ACAD_REACTORS
330
1E8
102
}
330
2
100
AcDbEntity
  8
A-Wall-G
  6
Continuous
 62
     7
370
     5
100
AcDbLine
 10
253409.3398417221
 20
142476.8156187407
 30
0.0
 11
253399.3398417222
 21
142476.8156187407
 31
0.0
  0
LINE
  5
1ED
102
{ACAD_REACTORS
330
1E8
102
}
330
2
100
AcDbEntity
  8
A-Wall-G
  6
Continuous
 62
     7
370
     5
100
AcDbLine
 10
253399.3398417222
 20
142416.8156187407
 30
0.0
 11
253399.3398417222
 21
142476.8156187407
 31
0.0
  0
LINE
  5
1EE
102
{ACAD_REACTORS
330
1E8
102
}
330
2
100
AcDbEntity
  8
A-Wall-G
  6
Continuous
 62
     7
370
     5
100
AcDbLine
 10
253159.3398417221
 20
142476.8156187407
 30
0.0
 11
253159.3398417222
 21
142416.8156187407
 31
0.0
  0
LINE
  5
1EF
102
{ACAD_REACTORS
330
1E8
102
}
330
2
100
AcDbEntity
  8
A-Wall-G
  6
Continuous
 62
     7
370
     5
100
AcDbLine
 10
253159.3398417222
 20
142416.8156187407
 30
0.0
 11
253109.3398417222
 21
142416.8156187407
 31
0.0
  0
LINE
  5
1F0
102
{ACAD_REACTORS
330
1E8
102
}
330
2
100
AcDbEntity
  8
A-Wall-G
  6
Continuous
 62
     7
370
     5
100
AcDbLine
 10
253159.3398417222
 20
142476.8156187407
 30
0.0
 11
253109.3398417222
 21
142476.8156187407
 31
0.0
  0
LINE
  5
1F1
102
{ACAD_REACTORS
330
1E8
102
}
330
2
100
AcDbEntity
  8
A-Wall-G
  6
Continuous
 62
     7
370
     5
100
AcDbLine
 10
253109.3398417222
 20
142416.8156187407
 30
0.0
 11
253109.3398417221
 21
142476.8156187407
 31
0.0
  0
LINE
  5
1F2
102
{ACAD_REACTORS
330
1E8
102
}
330
2
100
AcDbEntity
  8
A-Wall-G
  6
Continuous
 62
     7
370
     5
100
AcDbLine
 10
252869.3398417221
 20
142476.8156187407
 30
0.0
 11
252869.3398417221
 21
142416.8156187407
 31
0.0
  0
LINE
  5
1F3
102
{ACAD_REACTORS
330
1E8
102
}
330
2
100
AcDbEntity
  8
A-Wall-G
  6
Continuous
 62
     7
370
     5
100
AcDbLine
 10
252809.3398417221
 20
142476.8156187407
 30
0.0
 11
252809.3398417222
 21
142451.8156187407
 31
0.0
  0
LINE
  5
1F4
102
{ACAD_REACTORS
330
1E8
102
}
330
2
100
AcDbEntity
  8
A-Wall-G
  6
Continuous
 62
     7
370
     5
100
AcDbLine
 10
252869.3398417221
 20
142416.8156187407
 30
0.0
 11
252839.3398417222
 21
142416.8156187407
 31
0.0
  0
LINE
  5
1F5
102
{ACAD_REACTORS
330
1E8
102
}
330
2
100
AcDbEntity
  8
A-Wall-G
  6
Continuous
 62
     7
370
     5
100
AcDbLine
 10
252869.3398417221
 20
142476.8156187407
 30
0.0
 11
252809.3398417221
 21
142476.8156187407
 31
0.0
  0
LINE
  5
1F6
102
{ACAD_REACTORS
330
1E8
102
}
330
2
100
AcDbEntity
  8
A-Wall-G
  6
Continuous
 62
     7
370
     5
100
AcDbLine
 10
252839.3398417222
 20
142416.8156187407
 30
0.0
 11
252839.339841722
 21
142391.8156187407
 31
0.0
  0
LINE
  5
1F7
102
{ACAD_REACTORS
330
1E8
102
}
330
2
100
AcDbEntity
  8
A-Wall-G
  6
Continuous
 62
     7
370
     5
100
AcDbLine
 10
252839.339841722
 20
142391.8156187407
 30
0.0
 11
252339.3378955703
 21
142391.8156187407
 31
0.0
  0
LINE
  5
1F8
102
{ACAD_REACTORS
330
1E8
102
}
330
2
100
AcDbEntity
  8
A-Wall-G
  6
Continuous
 62
     7
370
     5
100
AcDbLine
 10
252809.3398417222
 20
142451.8156187407
 30
0.0
 11
252339.3378955703
 21
142451.8156187407
 31
0.0
  0
LINE
  5
1F9
102
{ACAD_REACTORS
330
1E8
102
}
330
2
100
AcDbEntity
  8
A-Wall-G
  6
Continuous
 62
     7
370
     5
100
AcDbLine
 10
252339.3378955703
 20
142391.8156187407
 30
0.0
 11
252339.3378955703
 21
142451.8156187407
 31
0.0
  0
LINE
  5
1FA
102
{ACAD_REACTORS
330
1E8
102
}
330
2
100
AcDbEntity
  8
A-Wall-G
  6
Continuous
 62
     7
370
     5
100
AcDbLine
 10
252239.3378955702
 20
142451.8156187407
 30
0.0
 11
252239.3378955702
 21
142391.8156187407
 31
0.0
  0
LINE
  5
1FB
102
{ACAD_REACTORS
330
1E8
102
}
330
2
100
AcDbEntity
  8
A-Wall-G
  6
Continuous
 62
     7
370
     5
100
AcDbLine
 10
252239.3378955702
 20
142391.8156187407
 30
0.0
 11
251739.3398417222
 21
142391.8156187407
 31
0.0
  0
LINE
  5
1FC
102
{ACAD_REACTORS
330
1E8
102
}
330
2
100
AcDbEntity
  8
A-Wall-G
  6
Continuous
 62
     7
370
     5
100
AcDbLine
 10
252239.3378955702
 20
142451.8156187407
 30
0.0
 11
251799.3398417222
 21
142451.8156187407
 31
0.0
  0
LINE
  5
1FD
102
{ACAD_REACTORS
330
1E8
102
}
330
2
100
AcDbEntity
  8
A-Wall-G
  6
Continuous
 62
     7
370
     5
100
AcDbLine
 10
251739.3398417222
 20
142391.8156187407
 30
0.0
 11
251739.3398417222
 21
142642.718895909
 31
0.0
  0
LINE
  5
1FE
102
{ACAD_REACTORS
330
1E8
102
}
330
2
100
AcDbEntity
  8
A-Wall-G
  6
Continuous
 62
     7
370
     5
100
AcDbLine
 10
251799.3398417222
 20
142451.8156187407
 30
0.0
 11
251799.3398417222
 21
142702.718895909
 31
0.0
  0
LINE
  5
1FF
102
{ACAD_REACTORS
330
1E8
102
}
330
2
100
AcDbEntity
  8
A-Wall-G
  6
Continuous
 62
     7
370
     5
100
AcDbLine
 10
251739.3398417222
 20
142642.718895909
 30
0.0
 11
251649.3398417221
 21
142642.718895909
 31
0.0
  0
LINE
  5
200
102
{ACAD_REACTORS
330
1E8
102
}
330
2
100
AcDbEntity
  8
A-Wall-G
  6
Continuous
 62
     7
370
     5
100
AcDbLine
 10
251799.3398417222
 20
142702.718895909
 30
0.0
 11
251709.3398417222
 21
142702.718895909
 31
0.0
  0
LINE
  5
201
102
{ACAD_REACTORS
330
1E8
102
}
330
2
100
AcDbEntity
  8
A-Wall-G
  6
Continuous
 62
     7
370
     5
100
AcDbLine
 10
251649.3398417221
 20
142642.718895909
 30
0.0
 11
251649.3398417221
 21
143020.7290778374
 31
0.0
  0
LINE
  5
202
102
{ACAD_REACTORS
330
1E8
102
}
330
2
100
AcDbEntity
  8
A-Wall-G
  6
Continuous
 62
     7
370
     5
100
AcDbLine
 10
251709.3398417222
 20
142702.718895909
 30
0.0
 11
251709.3398417222
 21
142960.7290778374
 31
0.0
  0
LINE
  5
203
102
{ACAD_REACTORS
330
1E8
102
}
330
2
100
AcDbEntity
  8
A-Wall-G
  6
Continuous
 62
     7
370
     5
100
AcDbLine
 10
251649.3398417221
 20
143020.7290778374
 30
0.0
 11
251739.3398417222
 21
143020.7290778374
 31
0.0
  0
LINE
  5
204
102
{ACAD_REACTORS
330
1E8
102
}
330
2
100
AcDbEntity
  8
A-Wall-G
  6
Continuous
 62
     7
370
     5
100
AcDbLine
 10
251709.3398417222
 20
142960.7290778374
 30
0.0
 11
251799.3398417222
 21
142960.7290778374
 31
0.0
  0
LINE
  5
205
102
{ACAD_REACTORS
330
1E8
102
}
330
2
100
AcDbEntity
  8
A-Wall-G
  6
Continuous
 62
     7
370
     5
100
AcDbLine
 10
251739.3398417222
 20
143020.7290778374
 30
0.0
 11
251739.3398417222
 21
143271.8156187407
 31
0.0
  0
LINE
  5
206
102
{ACAD_REACTORS
330
1E8
102
}
330
2
100
AcDbEntity
  8
A-Wall-G
  6
Continuous
 62
     7
370
     5
100
AcDbLine
 10
251799.3398417222
 20
142960.7290778374
 30
0.0
 11
251799.3398417222
 21
143211.8156187407
 31
0.0
  0
LINE
  5
207
102
{ACAD_REACTORS
330
1E8
102
}
330
2
100
AcDbEntity
  8
A-Wall-G
  6
Continuous
 62
     7
370
     5
100
AcDbLine
 10
251739.3398417222
 20
143271.8156187407
 30
0.0
 11
252839.3398417222
 21
143271.8156187407
 31
0.0
  0
LINE
  5
208
102
{ACAD_REACTORS
330
1E8
102
}
330
2
100
AcDbEntity
  8
A-Wall-G
  6
Continuous
 62
     7
370
     5
100
AcDbLine
 10
251799.3398417222
 20
143211.8156187407
 30
0.0
 11
252779.3398417221
 21
143211.8156187407
 31
0.0
  0
LINE
  5
209
102
{ACAD_REACTORS
330
1E8
102
}
330
2
100
AcDbEntity
  8
A-Wall-G
  6
Continuous
 62
     7
370
     5
100
AcDbLine
 10
252839.3398417222
 20
143271.8156187407
 30
0.0
 11
252839.3398417222
 21
143246.8156187407
 31
0.0
  0
LINE
  5
20A
102
{ACAD_REACTORS
330
1E8
102
}
330
2
100
AcDbEntity
  8
A-Wall-G
  6
Continuous
 62
     7
370
     5
100
AcDbLine
 10
252779.3398417221
 20
143211.8156187407
 30
0.0
 11
252779.3398417221
 21
143186.8156187407
 31
0.0
  0
LINE
  5
20B
102
{ACAD_REACTORS
330
1E8
102
}
330
2
100
AcDbEntity
  8
A-Wall-G
  6
Continuous
 62
     7
370
     5
100
AcDbLine
 10
252839.3398417222
 20
143246.8156187407
 30
0.0
 11
253469.3398417222
 21
143246.8156187407
 31
0.0
  0
LINE
  5
20C
102
{ACAD_REACTORS
330
1E8
102
}
330
2
100
AcDbEntity
  8
A-Wall-G
  6
Continuous
 62
     7
370
     5
100
AcDbLine
 10
252779.3398417221
 20
143186.8156187407
 30
0.0
 11
253409.3398417221
 21
143186.8156187407
 31
0.0
  0
LINE
  5
20D
330
2
100
AcDbEntity
  8
0Wymiary-PL
370
     5
100
AcDbLine
 10
253399.3398417222
 20
142476.8156187407
 30
0.0
 11
253159.3398417222
 21
142476.8156187407
 31
0.0
  0
LINE
  5
20E
330
2
100
AcDbEntity
  8
0Wymiary-PL
370
     5
100
AcDbLine
 10
253399.3398417222
 20
142416.8156187407
 30
0.0
 11
253159.3398417222
 21
142416.8156187407
 31
0.0
  0
LINE
  5
20F
330
2
100
AcDbEntity
  8
0Wymiary-PL
370
     5
100
AcDbLine
 10
253109.3398417221
 20
142476.8156187407
 30
0.0
 11
252869.3398417221
 21
142476.8156187407
 31
0.0
  0
LINE
  5
210
330
2
100
AcDbEntity
  8
0Wymiary-PL
370
     5
100
AcDbLine
 10
253109.3398417222
 20
142416.8156187407
 30
0.0
 11
252869.3398417221
 21
142416.8156187406
 31
0.0
  0
LINE
  5
211
330
2
100
AcDbEntity
  8
0Wymiary-PL
370
     5
100
AcDbLine
 10
252339.3378955703
 20
142451.8156187407
 30
0.0
 11
252239.3378955702
 21
142451.8156187407
 31
0.0
  0
LINE
  5
212
330
2
100
AcDbEntity
  8
0Wymiary-PL
370
     5
100
AcDbLine
 10
252339.3378955703
 20
142391.8156187407
 30
0.0
 11
252239.3378955702
 21
142391.8156187407
 31
0.0
  0
ARC
  5
213
330
2
100
AcDbEntity
  8
TEREN$0$A-WallBelow-G
  6
Continuous
 62
     8
370
     5
100
AcDbCircle
 10
251654.9398936366
 20
142905.9101934351
 30
-47.0
 40
230.7137932321047
100
AcDbArc
 50
181.7410945099764
 51
223.7211091993504
  0
ARC
  5
214
330
2
100
AcDbEntity
  8
TEREN$0$A-WallBelow-G
  6
Continuous
 62
     8
370
     5
100
AcDbCircle
 10
251666.7925702035
 20
142923.1053672081
 30
-47.0
 40
251.1999989407748
100
AcDbArc
 50
224.6871558295082
 51
266.0160273401529
  0
LINE
  5
215
330
2
100
AcDbEntity
  8
TEREN$0$A-WallBelow-G
  6
Continuous
 62
     8
370
     5
100
AcDbLine
 10
252489.3398417221
 20
142394.5123869863
 30
0.0
 11
252489.3398417221
 21
142239.1126496676
 31
0.0
  0
LINE
  5
216
330
2
100
AcDbEntity
  8
TEREN$0$A-WallBelow-G
  6
Continuous
 62
     8
370
     5
100
AcDbLine
 10
252489.3398417221
 20
142239.1126496676
 30
0.0
 11
252089.3398417222
 21
142239.1126496676
 31
0.0
  0
LINE
  5
217
330
2
100
AcDbEntity
  8
TEREN$0$A-WallBelow-G
  6
Continuous
 62
     8
370
     5
100
AcDbLine
 10
252510.1545629468
 20
142207.1062603211
 30
0.0000000000000032
 11
252068.6123036908
 21
142207.1843432827
 31
0.0000000000000032
  0
LINE
  5
218
330
2
100
AcDbEntity
  8
TEREN$0$A-WallBelow-G
  6
Continuous
 62
     8
370
     5
100
AcDbLine
 10
252551.5170693712
 20
142175.2679098012
 30
0.0000000000000064
 11
252026.8446849588
 21
142175.1000687067
 31
0.0000000000000064
  0
LINE
  5
219
330
2
100
AcDbEntity
  8
TEREN$0$A-WallBelow-G
  6
Continuous
 62
     8
370
     5
100
AcDbLine
 10
252191.840297897
 20
142282.0193303217
 30
0.0
 11
252191.840297897
 21
142247.0193303217
 31
0.0
  0
LINE
  5
21A
330
2
100
AcDbEntity
  8
TEREN$0$A-WallBelow-G
  6
Continuous
 62
     8
370
     5
100
AcDbLine
 10
252191.840297897
 20
142247.0193303217
 30
0.0
 11
252156.8402978971
 21
142247.0193303217
 31
0.0
  0
LINE
  5
21B
330
2
100
AcDbEntity
  8
TEREN$0$A-WallBelow-G
  6
Continuous
 62
     8
370
     5
100
AcDbLine
 10
252156.8402978971
 20
142247.0193303217
 30
0.0
 11
252156.8402978971
 21
142282.0193303217
 31
0.0
  0
LINE
  5
21C
330
2
100
AcDbEntity
  8
TEREN$0$A-WallBelow-G
  6
Continuous
 62
     8
370
     5
100
AcDbLine
 10
252156.8402978971
 20
142282.0193303217
 30
0.0
 11
252191.840297897
 21
142282.0193303217
 31
0.0
  0
LINE
  5
21D
330
2
100
AcDbEntity
  8
TEREN$0$A-WallBelow-G
  6
Continuous
 62
     8
370
     5
100
AcDbLine
 10
252130.8398417317
 20
142282.0117135627
 30
0.0
 11
252130.8398417317
 21
142247.0117265095
 31
0.0
  0
LINE
  5
21E
330
2
100
AcDbEntity
  8
TEREN$0$A-WallBelow-G
  6
Continuous
 62
     8
370
     5
100
AcDbLine
 10
252130.8398417317
 20
142247.0117265095
 30
0.0
 11
252095.8398417222
 21
142247.0117265095
 31
0.0
  0
LINE
  5
21F
330
2
100
AcDbEntity
  8
TEREN$0$A-WallBelow-G
  6
Continuous
 62
     8
370
     5
100
AcDbLine
 10
252095.8398417222
 20
142247.0117265095
 30
0.0
 11
252095.8398417222
 21
142282.0117135627
 31
0.0
  0
LINE
  5
220
330
2
100
AcDbEntity
  8
TEREN$0$A-WallBelow-G
  6
Continuous
 62
     8
370
     5
100
AcDbLine
 10
252095.8398417222
 20
142282.0117135627
 30
0.0
 11
252130.8398417317
 21
142282.0117135627
 31
0.0
  0
HATCH
  5
221
330
2
100
AcDbEntity
  8
0Hatch
370
     5
100
AcDbHatch
 10
0.0
 20
0.0
 30
0.0
210
0.0
220
0.0
230
1.0
  2
SOLID
 70
     1
 71
     1
 91
        1
 92
        7
 72
     1
 73
     1
 93
        2
 10
252416.8350547381
 20
142264.5193303217
 42
1.0
 10
252391.8350547381
 20
142264.5193303217
 42
1.0
 97
        1
330
222
 75
     0
 76
     1
 47
0.5948641127466842
 98
        1
 10
252405.7565956377
 20
142259.6193561432
1001
ACAD
1010
0.0
1020
0.0
1030
0.0
  0
CIRCLE
  5
222
102
{ACAD_REACTORS
330
221
102
}
330
2
100
AcDbEntity
  8
A-Wall-G
  6
Continuous
 62
     7
370
     5
100
AcDbCircle
 10
-252404.3350547381
 20
142264.5193303217
 30
0.0
 40
12.5
210
0.0
220
0.0
230
-1.0
  0
HATCH
  5
223
330
2
100
AcDbEntity
  8
0Hatch
370
     5
100
AcDbHatch
 10
0.0
 20
0.0
 30
0.0
210
0.0
220
0.0
230
1.0
  2
SOLID
 70
     1
 71
     1
 91
        1
 92
        7
 72
     1
 73
     1
 93
        2
 10
252477.8355109035
 20
142264.5117135627
 42
1.0
 10
252452.8355109035
 20
142264.5117135627
 42
1.0
 97
        1
330
224
 75
     0
 76
     1
 47
0.5948641127466842
 98
        1
 10
252463.487403879
 20
142265.5679975849
1001
ACAD
1010
0.0
1020
0.0
1030
0.0
  0
CIRCLE
  5
224
102
{ACAD_REACTORS
330
223
102
}
330
2
100
AcDbEntity
  8
A-Wall-G
  6
Continuous
 62
     7
370
     5
100
AcDbCircle
 10
-252465.3355109035
 20
142264.5117135627
 30
0.0
 40
12.5
210
0.0
220
0.0
230
-1.0
  0
LINE
  5
225
330
2
100
AcDbEntity
  8
TEREN$0$A-WallBelow-G
  6
Continuous
 62
     8
370
     5
100
AcDbLine
 10
252386.8350547381
 20
142282.0193303217
 30
0.0
 11
252386.8350547381
 21
142247.0193303217
 31
0.0
  0
LINE
  5
226
330
2
100
AcDbEntity
  8
TEREN$0$A-WallBelow-G
  6
Continuous
 62
     8
370
     5
100
AcDbLine
 10
252386.8350547381
 20
142247.0193303217
 30
0.0
 11
252421.8350547381
 21
142247.0193303217
 31
0.0
  0
LINE
  5
227
330
2
100
AcDbEntity
  8
TEREN$0$A-WallBelow-G
  6
Continuous
 62
     8
370
     5
100
AcDbLine
 10
252421.8350547381
 20
142247.0193303217
 30
0.0
 11
252421.8350547381
 21
142282.0193303217
 31
0.0
  0
LINE
  5
228
330
2
100
AcDbEntity
  8
TEREN$0$A-WallBelow-G
  6
Continuous
 62
     8
370
     5
100
AcDbLine
 10
252421.8350547381
 20
142282.0193303217
 30
0.0
 11
252386.8350547381
 21
142282.0193303217
 31
0.0
  0
LINE
  5
229
330
2
100
AcDbEntity
  8
TEREN$0$A-WallBelow-G
  6
Continuous
 62
     8
370
     5
100
AcDbLine
 10
252447.8355109035
 20
142282.0117135627
 30
0.0
 11
252447.8355109035
 21
142247.0117265095
 31
0.0
  0
LINE
  5
22A
330
2
100
AcDbEntity
  8
TEREN$0$A-WallBelow-G
  6
Continuous
 62
     8
370
     5
100
AcDbLine
 10
252447.8355109035
 20
142247.0117265095
 30
0.0
 11
252482.835510913
 21
142247.0117265095
 31
0.0
  0
LINE
  5
22B
330
2
100
AcDbEntity
  8
TEREN$0$A-WallBelow-G
  6
Continuous
 62
     8
370
     5
100
AcDbLine
 10
252482.835510913
 20
142247.0117265095
 30
0.0
 11
252482.835510913
 21
142282.0117135627
 31
0.0
  0
LINE
  5
22C
330
2
100
AcDbEntity
  8
TEREN$0$A-WallBelow-G
  6
Continuous
 62
     8
370
     5
100
AcDbLine
 10
252482.835510913
 20
142282.0117135627
 30
0.0
 11
252447.8355109035
 21
142282.0117135627
 31
0.0
  0
LINE
  5
22D
330
2
100
AcDbEntity
  8
TEREN$0$A-WallBelow-G
  6
Continuous
 62
     8
370
     5
100
AcDbLine
 10
251424.3326151101
 20
143039.4123799197
 30
0.0
 11
251364.3326151101
 21
143039.4123799197
 31
0.0
  0
LINE
  5
22E
330
2
100
AcDbEntity
  8
TEREN$0$A-WallBelow-G
  6
Continuous
 62
     8
370
     5
100
AcDbLine
 10
251391.3326151101
 20
143039.4123799197
 30
0.0
 11
251391.3326151101
 21
143179.4123799197
 31
0.0
  0
LINE
  5
22F
330
2
100
AcDbEntity
  8
TEREN$0$A-WallBelow-G
  6
Continuous
 62
     8
370
     5
100
AcDbLine
 10
251424.3326151101
 20
143179.4123799197
 30
0.0
 11
251364.3326151101
 21
143179.4123799197
 31
0.0
  0
LINE
  5
230
330
2
100
AcDbEntity
  8
TEREN$0$A-WallBelow-G
  6
Continuous
 62
     8
370
     5
100
AcDbLine
 10
252214.3398417221
 20
143529.5123869863
 30
0.0
 11
252214.3398417221
 21
143589.5123869863
 31
0.0
  0
LINE
  5
231
330
2
100
AcDbEntity
  8
TEREN$0$A-WallBelow-G
  6
Continuous
 62
     8
370
     5
100
AcDbLine
 10
252214.3398417221
 20
143562.5123869863
 30
-0.0000000000000048
 11
252364.3398417222
 21
143562.5123869863
 31
-0.0000000000000048
  0
LINE
  5
232
330
2
100
AcDbEntity
  8
TEREN$0$A-WallBelow-G
  6
Continuous
 62
     8
370
     5
100
AcDbLine
 10
252364.3398417222
 20
143529.5123869863
 30
0.0
 11
252364.3398417222
 21
143589.5123869863
 31
0.0
  0
LINE
  5
233
330
2
100
AcDbEntity
  8
TEREN$0$A-WallBelow-G
  6
Continuous
 62
     8
370
     5
100
AcDbLine
 10
251358.3326151101
 20
143039.4123799197
 30
0.0
 11
251358.3326151101
 21
143179.4123799197
 31
0.0
  0
ARC
  5
234
330
2
100
AcDbEntity
  8
TEREN$0$A-WallBelow-G
  6
Continuous
 62
     8
370
     5
100
AcDbCircle
 10
251660.8254165983
 20
143293.8970417248
 30
0.0
 40
236.4928742545993
100
AcDbArc
 50
94.93734778573905
 51
179.9550536670853
  0
ARC
  5
235
330
2
100
AcDbEntity
  8
TEREN$0$A-WallBelow-G
  6
Continuous
 62
     8
370
     5
100
AcDbCircle
 10
251660.8254165983
 20
143293.8970417248
 30
0.0
 40
256.4928742545993
100
AcDbArc
 50
94.74083251187437
 51
179.9550536670853
  0
ARC
  5
236
330
2
100
AcDbEntity
  8
TEREN$0$A-WallBelow-G
  6
Continuous
 62
     8
370
     5
100
AcDbCircle
 10
251660.8254165983
 20
143293.8970417248
 30
0.0
 40
316.4928742545993
100
AcDbArc
 50
94.26763037227535
 51
179.9550536670853
  0
LINE
  5
237
330
2
100
AcDbEntity
  8
TEREN$0$A-WallBelow-G
  6
Continuous
 62
     8
370
     5
100
AcDbLine
 10
252214.3398417221
 20
143595.5123869863
 30
-0.0000000000000096
 11
252364.3398417222
 21
143595.5123869863
 31
-0.0000000000000096
  0
LINE
  5
238
330
2
100
AcDbEntity
  8
TEREN$0$A-WallBelow-G
  6
Continuous
 62
     8
370
     5
100
AcDbLine
 10
251404.2835384962
 20
142898.9085456695
 30
0.0
 11
251424.3326151101
 21
142898.9003804455
 31
0.0
  0
HATCH
  5
239
330
2
100
AcDbEntity
  8
0Hatch
370
     5
100
AcDbHatch
 10
0.0
 20
0.0
 30
0.0
210
0.0
220
0.0
230
1.0
  2
SOLID
 70
     1
 71
     1
 91
        1
 92
        7
 72
     1
 73
     1
 93
        2
 10
252186.8402978971
 20
142264.5193303217
 42
1.0
 10
252161.8402978971
 20
142264.5193303217
 42
1.0
 97
        1
330
23A
 75
     0
 76
     1
 47
0.5948641127467213
 98
        1
 10
252164.5852045772
 20
142264.3790309677
1001
ACAD
1010
0.0
1020
0.0
1030
0.0
  0
CIRCLE
  5
23A
102
{ACAD_REACTORS
330
239
102
}
330
2
100
AcDbEntity
  8
A-Wall-G
  6
Continuous
 62
     7
370
     5
100
AcDbCircle
 10
252174.3402978971
 20
142264.5193303217
 30
0.0
 40
12.5
  0
HATCH
  5
23B
330
2
100
AcDbEntity
  8
0Hatch
370
     5
100
AcDbHatch
 10
0.0
 20
0.0
 30
0.0
210
0.0
220
0.0
230
1.0
  2
SOLID
 70
     1
 71
     1
 91
        1
 92
        7
 72
     1
 73
     1
 93
        2
 10
252125.8398417316
 20
142264.5117135627
 42
1.0
 10
252100.8398417317
 20
142264.5117135627
 42
1.0
 97
        1
330
23C
 75
     0
 76
     1
 47
0.5948641127467213
 98
        1
 10
252113.9963642085
 20
142265.5687572031
1001
ACAD
1010
0.0
1020
0.0
1030
0.0
  0
CIRCLE
  5
23C
102
{ACAD_REACTORS
330
23B
102
}
330
2
100
AcDbEntity
  8
A-Wall-G
  6
Continuous
 62
     7
370
     5
100
AcDbCircle
 10
252113.3398417317
 20
142264.5117135627
 30
0.0
 40
12.5
  0
ARC
  5
23D
330
2
100
AcDbEntity
  8
TEREN$0$A-WallBelow-G
  6
Continuous
 62
     8
370
     5
390
D4
100
AcDbCircle
 10
-252590.5226225934
 20
142268.7286622559
 30
0.0
 40
76.27361666082667
210
0.0
220
0.0
230
-1.0
100
AcDbArc
 50
277.3669133138749
 51
357.2034533507846
  0
LINE
  5
23E
330
2
100
AcDbEntity
  8
TEREN$0$A-WallBelow-G
  6
Continuous
 62
     8
370
     5
390
D4
100
AcDbLine
 10
252580.7425972646
 20
142193.0846558635
 30
0.0
 11
252577.5370244345
 21
142168.2910215428
 31
0.0
  0
ARC
  5
23F
330
2
100
AcDbEntity
  8
TEREN$0$A-WallBelow-G
  6
Continuous
 62
     8
370
     5
390
D4
100
AcDbCircle
 10
252590.5226225934
 20
142268.7286622559
 30
0.0
 40
101.2736166608267
100
AcDbArc
 50
182.5921564511008
 51
262.6330866861251
  0
LINE
  5
240
330
2
100
AcDbEntity
  8
TEREN$0$A-WallBelow-G
  6
Continuous
 62
     8
370
     5
390
D4
100
AcDbLine
 10
252514.3398417222
 20
142394.5123869863
 30
0.0
 11
252514.3398417222
 21
142265.0073053474
 31
0.0
  0
LINE
  5
241
330
2
100
AcDbEntity
  8
TEREN$0$A-WallBelow-G
  6
Continuous
 62
     8
370
     5
390
D4
100
AcDbLine
 10
252399.8767543834
 20
143274.5123869863
 30
0.0
 11
252399.8767543834
 21
143529.5123869863
 31
0.0
  0
LINE
  5
242
330
2
100
AcDbEntity
  8
TEREN$0$A-WallBelow-G
  6
Continuous
 62
     8
370
     5
390
D4
100
AcDbLine
 10
252419.8767543834
 20
143274.5123869863
 30
0.0
 11
252419.8767543834
 21
143549.5123869863
 31
0.0
  0
LINE
  5
243
330
2
100
AcDbEntity
  8
TEREN$0$A-WallBelow-G
  6
Continuous
 62
     8
370
     5
390
D4
100
AcDbLine
 10
252399.8767543834
 20
143529.5123869863
 30
0.0
 11
252364.3398417222
 21
143529.5123869863
 31
0.0
  0
LINE
  5
244
330
2
100
AcDbEntity
  8
TEREN$0$A-WallBelow-G
  6
Continuous
 62
     8
370
     5
390
D4
100
AcDbLine
 10
252419.8767543834
 20
143549.5123869863
 30
0.0
 11
252384.3398417221
 21
143549.5123869863
 31
0.0
  0
LINE
  5
245
330
2
100
AcDbEntity
  8
TEREN$0$A-WallBelow-G
  6
Continuous
 62
     8
370
     5
390
D4
100
AcDbLine
 10
251424.3326151101
 20
143294.0825612582
 30
0.0
 11
251424.3326151101
 21
143179.4123799197
 31
0.0
  0
LINE
  5
246
330
2
100
AcDbEntity
  8
TEREN$0$A-WallBelow-G
  6
Continuous
 62
     8
370
     5
390
D4
100
AcDbLine
 10
251404.3326151102
 20
143294.0825612582
 30
0.0
 11
251404.3326151102
 21
143199.4123799197
 31
0.0
  0
LINE
  5
247
330
2
100
AcDbEntity
  8
TEREN$0$A-WallBelow-G
  6
Continuous
 62
     8
370
     5
390
D4
100
AcDbLine
 10
251344.3326151101
 20
143294.0825612582
 30
0.0
 11
251344.3326151102
 21
143199.4123799197
 31
0.0
  0
LINE
  5
248
330
2
100
AcDbEntity
  8
TEREN$0$A-WallBelow-G
  6
Continuous
 62
     8
370
     5
390
D4
100
AcDbLine
 10
252214.3398417221
 20
143529.5123869863
 30
0.0
 11
251640.4713346869
 21
143529.5123869863
 31
0.0
  0
LINE
  5
249
330
2
100
AcDbEntity
  8
TEREN$0$A-WallBelow-G
  6
Continuous
 62
     8
370
     5
390
D4
100
AcDbLine
 10
252194.3398417222
 20
143549.5123869863
 30
0.0
 11
251639.6266003533
 21
143549.5123869863
 31
0.0
  0
LINE
  5
24A
330
2
100
AcDbEntity
  8
TEREN$0$A-WallBelow-G
  6
Continuous
 62
     8
370
     5
390
D4
100
AcDbLine
 10
252194.3398417222
 20
143609.5123869863
 30
0.0
 11
251637.2734890903
 21
143609.5123869863
 31
0.0
  0
LINE
  5
24B
330
2
100
AcDbEntity
  8
TEREN$0$A-WallBelow-G
  6
Continuous
 62
     8
370
     5
390
D4
100
AcDbLine
 10
252194.3398417221
 20
143549.5123869863
 30
0.0
 11
252194.3398417221
 21
143612.7354151809
 31
0.0
  0
LINE
  5
24C
330
2
100
AcDbEntity
  8
TEREN$0$A-WallBelow-G
  6
Continuous
 62
     8
370
     5
390
D4
100
AcDbLine
 10
252194.3398417221
 20
143612.7354151809
 30
0.0
 11
252214.3398417221
 21
143612.7354151809
 31
0.0
  0
LINE
  5
24D
330
2
100
AcDbEntity
  8
TEREN$0$A-WallBelow-G
  6
Continuous
 62
     8
370
     5
390
D4
100
AcDbLine
 10
252214.3398417221
 20
143612.7354151809
 30
0.0
 11
252214.3398417221
 21
143529.5123869863
 31
0.0
  0
LINE
  5
24E
330
2
100
AcDbEntity
  8
TEREN$0$A-WallBelow-G
  6
Continuous
 62
     8
370
     5
390
D4
100
AcDbLine
 10
252364.3398417222
 20
143612.7354151809
 30
0.0
 11
252384.3398417222
 21
143612.7354151809
 31
0.0
  0
LINE
  5
24F
330
2
100
AcDbEntity
  8
TEREN$0$A-WallBelow-G
  6
Continuous
 62
     8
370
     5
390
D4
100
AcDbLine
 10
252384.3398417222
 20
143612.7354151809
 30
0.0
 11
252384.3398417221
 21
143549.5123869863
 31
0.0
  0
LINE
  5
250
330
2
100
AcDbEntity
  8
TEREN$0$A-WallBelow-G
  6
Continuous
 62
     8
370
     5
390
D4
100
AcDbLine
 10
252404.3398417222
 20
143589.5123869863
 30
0.0
 11
252404.3398417221
 21
143549.5123869863
 31
0.0
  0
LINE
  5
251
330
2
100
AcDbEntity
  8
TEREN$0$A-WallBelow-G
  6
Continuous
 62
     8
370
     5
390
D4
100
AcDbLine
 10
252364.3398417222
 20
143529.5123869863
 30
0.0
 11
252364.3398417222
 21
143612.7354151809
 31
0.0
  0
LINE
  5
252
330
2
100
AcDbEntity
  8
TEREN$0$A-WallBelow-G
  6
Continuous
 62
     8
370
     5
390
D4
100
AcDbLine
 10
251424.3326151101
 20
143179.4123799197
 30
0.0
 11
251339.4887778924
 21
143179.4123799197
 31
0.0
  0
LINE
  5
253
330
2
100
AcDbEntity
  8
TEREN$0$A-WallBelow-G
  6
Continuous
 62
     8
370
     5
390
D4
100
AcDbLine
 10
251339.4887778924
 20
143179.4123799197
 30
0.0
 11
251339.4887778924
 21
143199.4123799197
 31
0.0
  0
LINE
  5
254
330
2
100
AcDbEntity
  8
TEREN$0$A-WallBelow-G
  6
Continuous
 62
     8
370
     5
390
D4
100
AcDbLine
 10
251339.4887778924
 20
143199.4123799197
 30
0.0
 11
251404.3326151102
 21
143199.4123799197
 31
0.0
  0
LINE
  5
255
330
2
100
AcDbEntity
  8
TEREN$0$A-WallBelow-G
  6
Continuous
 62
     8
370
     5
390
D4
100
AcDbLine
 10
251339.2835384962
 20
143019.4123799198
 30
0.0
 11
251339.2835384962
 21
143039.4123799198
 31
0.0
  0
LINE
  5
256
330
2
100
AcDbEntity
  8
TEREN$0$A-WallBelow-G
  6
Continuous
 62
     8
370
     5
390
D4
100
AcDbLine
 10
251339.2835384962
 20
143039.4123799198
 30
0.0
 11
251424.3326151101
 21
143039.4123799197
 31
0.0
  0
LINE
  5
257
330
2
100
AcDbEntity
  8
TEREN$0$A-WallBelow-G
  6
Continuous
 62
     8
370
     5
390
D4
100
AcDbLine
 10
251404.3326151102
 20
143019.4123799197
 30
0.0
 11
251339.2835384962
 21
143019.4123799198
 31
0.0
  0
LINE
  5
258
330
2
100
AcDbEntity
  8
TEREN$0$A-WallBelow-G
  6
Continuous
 62
     8
370
     5
390
D4
100
AcDbLine
 10
251424.3326151101
 20
143039.4123799197
 30
0.0
 11
251424.3326151101
 21
142898.9003804455
 31
0.0
  0
LINE
  5
259
330
2
100
AcDbEntity
  8
TEREN$0$A-WallBelow-G
  6
Continuous
 62
     8
370
     5
100
AcDbLine
 10
252419.8767543834
 20
143294.5123869863
 30
0.0
 11
252459.8767543834
 21
143294.5123869863
 31
0.0
  0
LINE
  5
25A
330
2
100
AcDbEntity
  8
TEREN$0$A-WallBelow-G
  6
Continuous
 62
     8
370
     5
100
AcDbLine
 10
252419.8767543834
 20
143314.5123869863
 30
0.0
 11
252439.8767543834
 21
143314.5123869863
 31
0.0
  0
LINE
  5
25B
330
2
100
AcDbEntity
  8
TEREN$0$A-WallBelow-G
  6
Continuous
 62
     8
370
     5
100
AcDbLine
 10
252419.8767543834
 20
143334.5123869863
 30
0.0
 11
252459.8767543834
 21
143334.5123869863
 31
0.0
  0
LINE
  5
25C
330
2
100
AcDbEntity
  8
TEREN$0$A-WallBelow-G
  6
Continuous
 62
     8
370
     5
100
AcDbLine
 10
252419.8767543834
 20
143354.5123869863
 30
0.0
 11
252439.8767543834
 21
143354.5123869863
 31
0.0
  0
LINE
  5
25D
330
2
100
AcDbEntity
  8
TEREN$0$A-WallBelow-G
  6
Continuous
 62
     8
370
     5
100
AcDbLine
 10
252419.8767543834
 20
143374.5123869863
 30
0.0
 11
252459.8767543834
 21
143374.5123869863
 31
0.0
  0
LINE
  5
25E
330
2
100
AcDbEntity
  8
TEREN$0$A-WallBelow-G
  6
Continuous
 62
     8
370
     5
100
AcDbLine
 10
252419.8767543834
 20
143394.5123869863
 30
0.0
 11
252439.8767543834
 21
143394.5123869863
 31
0.0
  0
LINE
  5
25F
330
2
100
AcDbEntity
  8
TEREN$0$A-WallBelow-G
  6
Continuous
 62
     8
370
     5
100
AcDbLine
 10
252419.8767543834
 20
143414.5123869863
 30
0.0
 11
252459.8767543834
 21
143414.5123869863
 31
0.0
  0
LINE
  5
260
330
2
100
AcDbEntity
  8
TEREN$0$A-WallBelow-G
  6
Continuous
 62
     8
370
     5
100
AcDbLine
 10
252419.8767543834
 20
143434.5123869863
 30
0.0
 11
252439.8767543834
 21
143434.5123869864
 31
0.0
  0
LINE
  5
261
330
2
100
AcDbEntity
  8
TEREN$0$A-WallBelow-G
  6
Continuous
 62
     8
370
     5
100
AcDbLine
 10
252419.8767543834
 20
143454.5123869863
 30
0.0
 11
252459.8767543834
 21
143454.5123869864
 31
0.0
  0
LINE
  5
262
330
2
100
AcDbEntity
  8
TEREN$0$A-WallBelow-G
  6
Continuous
 62
     8
370
     5
100
AcDbLine
 10
252419.8767543834
 20
143474.5123869863
 30
0.0
 11
252439.8767543834
 21
143474.5123869863
 31
0.0
  0
LINE
  5
263
330
2
100
AcDbEntity
  8
TEREN$0$A-WallBelow-G
  6
Continuous
 62
     8
370
     5
100
AcDbLine
 10
252419.8767543834
 20
143494.5123869863
 30
0.0
 11
252459.8767543834
 21
143494.5123869863
 31
0.0
  0
LINE
  5
264
330
2
100
AcDbEntity
  8
TEREN$0$A-WallBelow-G
  6
Continuous
 62
     8
370
     5
100
AcDbLine
 10
252419.8767543834
 20
143514.5123869863
 30
0.0
 11
252439.8767543834
 21
143514.5123869863
 31
0.0
  0
LINE
  5
265
330
2
100
AcDbEntity
  8
TEREN$0$A-WallBelow-G
  6
Continuous
 62
     8
370
     5
100
AcDbLine
 10
252419.8767543834
 20
143534.5123869863
 30
0.0
 11
252459.8767543834
 21
143534.5123869863
 31
0.0
  0
LINE
  5
266
330
2
100
AcDbEntity
  8
TEREN$0$A-WallBelow-G
  6
Continuous
 62
     8
370
     5
100
AcDbLine
 10
252089.3359494185
 20
142394.5123869863
 30
0.0
 11
252089.3359494185
 21
142239.1126496676
 31
0.0
  0
ARC
  5
267
330
2
100
AcDbEntity
  8
TEREN$0$A-WallBelow-G
  6
Continuous
 62
     8
370
     5
390
D4
100
AcDbCircle
 10
-251988.1531685472
 20
142268.7286622559
 30
0.0
 40
76.27361666082667
210
0.0
220
0.0
230
-1.0
100
AcDbArc
 50
182.7965466492154
 51
262.6330866861251
  0
LINE
  5
268
330
2
100
AcDbEntity
  8
TEREN$0$A-WallBelow-G
  6
Continuous
 62
     8
370
     5
390
D4
100
AcDbLine
 10
251997.9331938761
 20
142193.0846558635
 30
0.0
 11
252001.1387667061
 21
142168.2910215428
 31
0.0
  0
ARC
  5
269
330
2
100
AcDbEntity
  8
TEREN$0$A-WallBelow-G
  6
Continuous
 62
     8
370
     5
390
D4
100
AcDbCircle
 10
251988.1531685472
 20
142268.7286622559
 30
0.0
 40
101.2736166608267
100
AcDbArc
 50
277.3669133138749
 51
357.4078435488993
  0
LINE
  5
26A
330
2
100
AcDbEntity
  8
TEREN$0$A-WallBelow-G
  6
Continuous
 62
     8
370
     5
390
D4
100
AcDbLine
 10
252064.3359494185
 20
142394.5123869863
 30
0.0
 11
252064.3359494185
 21
142265.0073053474
 31
0.0
  0
LINE
  5
26B
330
2
100
AcDbEntity
  8
TEREN$0$A-WallBelow-G
  6
Continuous
 62
     8
370
     5
100
AcDbLine
 10
251424.3326151101
 20
143039.4123799197
 30
0.0
 11
251424.3326151101
 21
143179.4123799197
 31
0.0
  0
LINE
  5
26C
330
2
100
AcDbEntity
  8
TEREN$0$A-WallBelow-G
  6
Continuous
 62
     8
370
     5
100
AcDbLine
 10
252214.3398417221
 20
143529.5123869863
 30
0.0
 11
252364.3398417222
 21
143529.5123869863
 31
0.0
  0
LINE
  5
26D
330
2
100
AcDbEntity
  8
TEREN$0$A-WallBelow-G
  6
Continuous
 62
     8
370
     5
100
AcDbLine
 10
252515.6093108112
 20
142254.8878004849
 30
0.0
 11
252656.1352951046
 21
142254.8878004849
 31
0.0
  0
LINE
  5
26E
330
2
100
AcDbEntity
  8
TEREN$0$A-WallBelow-G
  6
Continuous
 62
     8
370
     5
100
AcDbLine
 10
252535.8959464975
 20
142254.8878004849
 30
0.0
 11
252535.8959464975
 21
142234.8878004848
 31
0.0
  0
LINE
  5
26F
330
2
100
AcDbEntity
  8
TEREN$0$A-WallBelow-G
  6
Continuous
 62
     8
370
     5
100
AcDbLine
 10
252571.4126322367
 20
142194.8878004848
 30
0.0
 11
252657.9679119469
 21
142194.8878004848
 31
0.0
  0
ARC
  5
270
330
2
100
AcDbEntity
  8
TEREN$0$A-WallBelow-G
  6
Continuous
 62
     8
370
     5
100
AcDbCircle
 10
252646.7960624511
 20
142392.2934362259
 30
0.0
 40
197.721509309202
100
AcDbArc
 50
273.239105904611
 51
0.6430215046140811
  0
ARC
  5
271
330
2
100
AcDbEntity
  8
TEREN$0$A-WallBelow-G
  6
Continuous
 62
     8
370
     5
100
AcDbCircle
 10
252646.7960624511
 20
142392.2934362259
 30
0.0
 40
137.7215093092021
100
AcDbArc
 50
273.8742638952541
 51
0.9198421842618122
  0
LINE
  5
272
330
2
100
AcDbEntity
  8
TEREN$0$A-WallBelow-G
  6
Continuous
 62
     8
370
     5
100
AcDbLine
 10
252555.8959464975
 20
142254.8878004849
 30
0.0
 11
252555.8959464975
 21
142214.8878004849
 31
0.0
  0
LINE
  5
273
330
2
100
AcDbEntity
  8
TEREN$0$A-WallBelow-G
  6
Continuous
 62
     8
370
     5
100
AcDbLine
 10
252575.8959464975
 20
142254.8878004849
 30
0.0
 11
252575.8959464975
 21
142234.8878004848
 31
0.0
  0
LINE
  5
274
330
2
100
AcDbEntity
  8
TEREN$0$A-WallBelow-G
  6
Continuous
 62
     8
370
     5
100
AcDbLine
 10
252675.8959464975
 20
142257.6813607093
 30
0.0
 11
252684.2415531471
 21
142218.5615448022
 31
0.0
  0
LINE
  5
275
330
2
100
AcDbEntity
  8
TEREN$0$A-WallBelow-G
  6
Continuous
 62
     8
370
     5
100
AcDbLine
 10
252595.8959464975
 20
142254.8878004849
 30
0.0
 11
252595.8959464975
 21
142214.8878004849
 31
0.0
  0
LINE
  5
276
330
2
100
AcDbEntity
  8
TEREN$0$A-WallBelow-G
  6
Continuous
 62
     8
370
     5
100
AcDbLine
 10
252615.8959464975
 20
142254.8878004849
 30
0.0
 11
252615.8959464975
 21
142234.8878004848
 31
0.0
  0
LINE
  5
277
330
2
100
AcDbEntity
  8
TEREN$0$A-WallBelow-G
  6
Continuous
 62
     8
370
     5
100
AcDbLine
 10
252635.8959464975
 20
142254.8878004849
 30
0.0
 11
252635.8959464975
 21
142214.8878004849
 31
0.0
  0
LINE
  5
278
330
2
100
AcDbEntity
  8
TEREN$0$A-WallBelow-G
  6
Continuous
 62
     8
370
     5
100
AcDbLine
 10
252730.108034061
 20
142282.6288133393
 30
0.0
 11
252742.4740529281
 21
142266.9099845859
 31
0.0
  0
LINE
  5
279
330
2
100
AcDbEntity
  8
TEREN$0$A-WallBelow-G
  6
Continuous
 62
     8
370
     5
100
AcDbLine
 10
252695.1397377602
 20
142263.3356788633
 30
0.0
 11
252702.4251002333
 21
142244.7097965046
 31
0.0
  0
LINE
  5
27A
330
2
100
AcDbEntity
  8
TEREN$0$A-WallBelow-G
  6
Continuous
 62
     8
370
     5
100
AcDbLine
 10
252655.8959464975
 20
142254.8878004849
 30
0.0
 11
252655.8959464975
 21
142234.8878004848
 31
0.0
  0
LINE
  5
27B
330
2
100
AcDbEntity
  8
TEREN$0$A-WallBelow-G
  6
Continuous
 62
     8
370
     5
100
AcDbLine
 10
252713.3380762012
 20
142271.7141074317
 30
0.0
 11
252734.1539005735
 21
142237.5241143636
 31
0.0
  0
LINE
  5
27C
330
2
100
AcDbEntity
  8
TEREN$0$A-WallBelow-G
  6
Continuous
 62
     8
370
     5
100
AcDbLine
 10
252758.1117240891
 20
142311.2006646585
 30
0.0
 11
252773.5797852462
 21
142298.5223728161
 31
0.0
  0
LINE
  5
27D
330
2
100
AcDbEntity
  8
TEREN$0$A-WallBelow-G
  6
Continuous
 62
     8
370
     5
100
AcDbLine
 10
252745.1350314175
 20
142295.8742404761
 30
0.0
 11
252773.2049738967
 21
142267.3705721125
 31
0.0
  0
LINE
  5
27E
330
2
100
AcDbEntity
  8
TEREN$0$A-WallBelow-G
  6
Continuous
 62
     8
370
     5
100
AcDbLine
 10
252776.8333403012
 20
142346.9335365815
 30
0.0
 11
252795.4757310526
 21
142339.6905215276
 31
0.0
  0
LINE
  5
27F
330
2
100
AcDbEntity
  8
TEREN$0$A-WallBelow-G
  6
Continuous
 62
     8
370
     5
100
AcDbLine
 10
252768.7629398481
 20
142328.3302050347
 30
0.0
 11
252802.4366798402
 21
142306.4975558476
 31
0.0
  0
LINE
  5
280
330
2
100
AcDbEntity
  8
TEREN$0$A-WallBelow-G
  6
Continuous
 62
     8
370
     5
100
AcDbLine
 10
252784.3889481887
 20
142386.3426446135
 30
0.0
 11
252804.3889481887
 21
142386.3426446135
 31
0.0
  0
LINE
  5
281
330
2
100
AcDbEntity
  8
TEREN$0$A-WallBelow-G
  6
Continuous
 62
     8
370
     5
100
AcDbLine
 10
251784.1258072689
 20
142194.8878004849
 30
0.0
 11
252007.263158904
 21
142194.8878004848
 31
0.0
  0
LINE
  5
282
330
2
100
AcDbEntity
  8
TEREN$0$A-WallBelow-G
  6
Continuous
 62
     8
370
     5
100
AcDbLine
 10
252782.0541633474
 20
142366.3615973335
 30
0.0
 11
252821.0711490654
 21
142357.4634339765
 31
0.0
  0
LINE
  5
283
330
2
100
AcDbEntity
  8
TEREN$0$A-WallBelow-G
  6
Continuous
 62
     8
370
     5
100
AcDbLine
 10
251785.2557325709
 20
142254.8878004849
 30
0.0
 11
252063.1604691516
 21
142254.8878004849
 31
0.0
  0
LINE
  5
284
330
2
100
AcDbEntity
  8
TEREN$0$A-WallBelow-G
  6
Continuous
 62
     8
370
     5
100
AcDbLine
 10
251404.2835384962
 20
142898.9085456695
 30
0.0
 11
251404.2835384963
 21
142627.5395551648
 31
0.0
  0
ARC
  5
285
330
2
100
AcDbEntity
  8
TEREN$0$A-WallBelow-G
  6
Continuous
 62
     8
370
     5
100
AcDbCircle
 10
251800.7558616338
 20
142651.7990930846
 30
0.0
 40
397.2138318263475
100
AcDbArc
 50
183.5014760069521
 51
267.7636289370768
  0
ARC
  5
286
330
2
100
AcDbEntity
  8
TEREN$0$A-WallBelow-G
  6
Continuous
 62
     8
370
     5
100
AcDbCircle
 10
251800.7558616338
 20
142651.7990930846
 30
0.0
 40
457.2138318263474
100
AcDbArc
 50
183.2635839028296
 51
267.9155439300363
  0
LINE
  5
287
330
2
100
AcDbEntity
  8
TEREN$0$A-WallBelow-G
  6
Continuous
 62
     8
370
     5
100
AcDbLine
 10
251344.2835384962
 20
143019.4123799198
 30
0.0
 11
251344.2835384963
 21
142625.7701433797
 31
0.0
  0
LINE
  5
288
330
2
100
AcDbEntity
  8
TEREN$0$A-WallBelow-G
  6
Continuous
 62
     8
370
     5
100
AcDbLine
 10
252042.7837369468
 20
142254.8878004849
 30
0.0
 11
252042.7837369468
 21
142214.8878004849
 31
0.0
  0
LINE
  5
289
330
2
100
AcDbEntity
  8
TEREN$0$A-WallBelow-G
  6
Continuous
 62
     8
370
     5
100
AcDbLine
 10
251404.3326151102
 20
143019.4123799197
 30
0.0
 11
251404.3326151102
 21
142898.9085256825
 31
0.0
  0
LINE
  5
28A
330
2
100
AcDbEntity
  8
0
100
AcDbLine
 10
252839.3398417222
 20
142394.5123869863
 30
0.0
 11
252844.5051201622
 21
142394.5123869863
 31
0.0
  0
LINE
  5
28B
330
2
100
AcDbEntity
  8
TEREN$0$A-WallBelow-G
  6
Continuous
 62
     8
370
     5
100
AcDbLine
 10
252022.7837369468
 20
142254.8878004849
 30
0.0
 11
252022.7837369468
 21
142234.8878004848
 31
0.0
  0
LINE
  5
28C
330
2
100
AcDbEntity
  8
TEREN$0$A-WallBelow-G
  6
Continuous
 62
     8
370
     5
100
AcDbLine
 10
251982.7837369468
 20
142254.8878004849
 30
0.0
 11
251982.7837369468
 21
142234.8878004848
 31
0.0
  0
LINE
  5
28D
330
2
100
AcDbEntity
  8
TEREN$0$A-WallBelow-G
  6
Continuous
 62
     8
370
     5
100
AcDbLine
 10
252002.7837369468
 20
142254.8878004849
 30
0.0
 11
252002.7837369468
 21
142214.8878004849
 31
0.0
  0
LINE
  5
28E
330
2
100
AcDbEntity
  8
TEREN$0$A-WallBelow-G
  6
Continuous
 62
     8
370
     5
100
AcDbLine
 10
251982.7837369468
 20
142254.8878004849
 30
0.0
 11
251982.7837369468
 21
142234.8878004848
 31
0.0
  0
LINE
  5
28F
330
2
100
AcDbEntity
  8
TEREN$0$A-WallBelow-G
  6
Continuous
 62
     8
370
     5
100
AcDbLine
 10
251922.7837369468
 20
142254.8878004849
 30
0.0
 11
251922.7837369468
 21
142214.8878004849
 31
0.0
  0
LINE
  5
290
330
2
100
AcDbEntity
  8
TEREN$0$A-WallBelow-G
  6
Continuous
 62
     8
370
     5
100
AcDbLine
 10
251962.7837369468
 20
142254.8878004849
 30
0.0
 11
251962.7837369469
 21
142214.8878004849
 31
0.0
  0
LINE
  5
291
330
2
100
AcDbEntity
  8
TEREN$0$A-WallBelow-G
  6
Continuous
 62
     8
370
     5
100
AcDbLine
 10
251942.7837369468
 20
142254.8878004849
 30
0.0
 11
251942.7837369468
 21
142234.8878004848
 31
0.0
  0
LINE
  5
292
330
2
100
AcDbEntity
  8
TEREN$0$A-WallBelow-G
  6
Continuous
 62
     8
370
     5
100
AcDbLine
 10
251922.7837369468
 20
142254.8878004849
 30
0.0
 11
251922.7837369468
 21
142214.8878004849
 31
0.0
  0
LINE
  5
293
330
2
100
AcDbEntity
  8
TEREN$0$A-WallBelow-G
  6
Continuous
 62
     8
370
     5
100
AcDbLine
 10
251882.7837369468
 20
142254.8878004849
 30
0.0
 11
251882.7837369468
 21
142214.8878004849
 31
0.0
  0
LINE
  5
294
330
2
100
AcDbEntity
  8
TEREN$0$A-WallBelow-G
  6
Continuous
 62
     8
370
     5
100
AcDbLine
 10
251822.7837369468
 20
142254.8878004849
 30
0.0
 11
251822.7837369468
 21
142234.8878004848
 31
0.0
  0
LINE
  5
295
330
2
100
AcDbEntity
  8
TEREN$0$A-WallBelow-G
  6
Continuous
 62
     8
370
     5
100
AcDbLine
 10
251902.7837369468
 20
142254.8878004849
 30
0.0
 11
251902.7837369468
 21
142234.8878004848
 31
0.0
  0
LINE
  5
296
330
2
100
AcDbEntity
  8
TEREN$0$A-WallBelow-G
  6
Continuous
 62
     8
370
     5
100
AcDbLine
 10
251862.7837369468
 20
142254.8878004849
 30
0.0
 11
251862.7837369468
 21
142234.8878004848
 31
0.0
  0
LINE
  5
297
330
2
100
AcDbEntity
  8
TEREN$0$A-WallBelow-G
  6
Continuous
 62
     8
370
     5
100
AcDbLine
 10
251862.7837369468
 20
142254.8878004849
 30
0.0
 11
251862.7837369468
 21
142234.8878004848
 31
0.0
  0
LINE
  5
298
330
2
100
AcDbEntity
  8
TEREN$0$A-WallBelow-G
  6
Continuous
 62
     8
370
     5
100
AcDbLine
 10
251842.7837369468
 20
142254.8878004849
 30
0.0
 11
251842.7837369468
 21
142214.8878004849
 31
0.0
  0
LINE
  5
299
330
2
100
AcDbEntity
  8
TEREN$0$A-WallBelow-G
  6
Continuous
 62
     8
370
     5
100
AcDbLine
 10
251802.7837369468
 20
142254.8878004849
 30
0.0
 11
251802.7837369468
 21
142214.8878004849
 31
0.0
  0
LINE
  5
29A
330
2
100
AcDbEntity
  8
TEREN$0$A-WallBelow-G
  6
Continuous
 62
     8
370
     5
100
AcDbLine
 10
251802.7837369468
 20
142254.8878004849
 30
0.0
 11
251802.7837369468
 21
142234.8878004848
 31
0.0
  0
LINE
  5
29B
330
2
100
AcDbEntity
  8
TEREN$0$A-WallBelow-G
  6
Continuous
 62
     8
370
     5
100
AcDbLine
 10
251782.7837369468
 20
142254.8878004849
 30
0.0
 11
251782.7837369468
 21
142234.97252939
 31
0.0
  0
LINE
  5
29C
330
2
100
AcDbEntity
  8
TEREN$0$A-WallBelow-G
  6
Continuous
 62
     8
370
     5
100
AcDbLine
 10
251762.7837369468
 20
142256.4044219762
 30
0.0
 11
251760.6168778311
 21
142216.431665824
 31
0.0
  0
LINE
  5
29D
330
2
100
AcDbEntity
  8
TEREN$0$A-WallBelow-G
  6
Continuous
 62
     8
370
     5
100
AcDbLine
 10
251742.8855050502
 20
142258.8234576782
 30
0.0
 11
251740.392749905
 21
142238.9794114228
 31
0.0
  0
LINE
  5
29E
330
2
100
AcDbEntity
  8
TEREN$0$A-WallBelow-G
  6
Continuous
 62
     8
370
     5
100
AcDbLine
 10
251723.1573394977
 20
142262.2387029569
 30
0.0
 11
251715.6619036731
 21
142222.9460261038
 31
0.0
  0
LINE
  5
29F
330
2
100
AcDbEntity
  8
TEREN$0$A-WallBelow-G
  6
Continuous
 62
     8
370
     5
100
AcDbLine
 10
251703.63650322
 20
142266.6411275491
 30
0.0
 11
251699.176236475
 21
142247.144819679
 31
0.0
  0
LINE
  5
2A0
330
2
100
AcDbEntity
  8
TEREN$0$A-WallBelow-G
  6
Continuous
 62
     8
370
     5
100
AcDbLine
 10
251684.3513554396
 20
142272.0243978614
 30
0.0
 11
251672.7904253555
 21
142233.7311777187
 31
0.0
  0
LINE
  5
2A1
330
2
100
AcDbEntity
  8
TEREN$0$A-WallBelow-G
  6
Continuous
 62
     8
370
     5
100
AcDbLine
 10
251665.3749099071
 20
142278.3679399871
 30
0.0
 11
251658.2208771862
 21
142259.6912214362
 31
0.0
  0
LINE
  5
2A2
330
2
100
AcDbEntity
  8
TEREN$0$A-WallBelow-G
  6
Continuous
 62
     8
370
     5
100
AcDbLine
 10
251646.7494788332
 20
142285.6558666679
 30
0.0
 11
251631.6953168317
 21
142248.5938513882
 31
0.0
  0
LINE
  5
2A3
330
2
100
AcDbEntity
  8
TEREN$0$A-WallBelow-G
  6
Continuous
 62
     8
370
     5
100
AcDbLine
 10
251628.502271338
 20
142293.8779721314
 30
0.0
 11
251620.2507443396
 21
142275.6595116533
 31
0.0
  0
LINE
  5
2A4
330
2
100
AcDbEntity
  8
TEREN$0$A-WallBelow-G
  6
Continuous
 62
     8
370
     5
100
AcDbLine
 10
251593.3479261828
 20
142313.0354933486
 30
0.0
 11
251582.9992094194
 21
142295.9210532073
 31
0.0
  0
LINE
  5
2A5
330
2
100
AcDbEntity
  8
TEREN$0$A-WallBelow-G
  6
Continuous
 62
     8
370
     5
100
AcDbLine
 10
251610.6840898308
 20
142303.0132708988
 30
0.0
 11
251592.4025653687
 21
142267.4231850522
 31
0.0
  0
LINE
  5
2A6
330
2
100
AcDbEntity
  8
TEREN$0$A-WallBelow-G
  6
Continuous
 62
     8
370
     5
100
AcDbLine
 10
251576.551459217
 20
142323.9100659259
 30
0.0
 11
251554.6484161896
 21
142290.4307767684
 31
0.0
  0
LINE
  5
2A7
330
2
100
AcDbEntity
  8
TEREN$0$A-WallBelow-G
  6
Continuous
 62
     8
370
     5
100
AcDbLine
 10
251560.3148593518
 20
142335.6235838879
 30
0.0
 11
251548.7218186321
 21
142319.3263016951
 31
0.0
  0
LINE
  5
2A8
330
2
100
AcDbEntity
  8
TEREN$0$A-WallBelow-G
  6
Continuous
 62
     8
370
     5
100
AcDbLine
 10
251544.6800719975
 20
142348.1479475964
 30
0.0
 11
251519.8209158794
 21
142316.7894051736
 31
0.0
  0
LINE
  5
2A9
330
2
100
AcDbEntity
  8
TEREN$0$A-WallBelow-G
  6
Continuous
 62
     8
370
     5
100
AcDbLine
 10
251515.4220207338
 20
142375.4597592369
 30
0.0
 11
251486.5590137195
 21
142347.7657470501
 31
0.0
  0
LINE
  5
2AA
330
2
100
AcDbEntity
  8
TEREN$0$A-WallBelow-G
  6
Continuous
 62
     8
370
     5
100
AcDbLine
 10
251501.871459091
 20
142390.1754280411
 30
0.0
 11
251486.7352597445
 21
142377.1027286511
 31
0.0
  0
LINE
  5
2AB
330
2
100
AcDbEntity
  8
TEREN$0$A-WallBelow-G
  6
Continuous
 62
     8
370
     5
100
AcDbLine
 10
251465.8837264025
 20
142438.1651041226
 30
0.0
 11
251432.4499921273
 21
142416.2004487181
 31
0.0
  0
LINE
  5
2AC
330
2
100
AcDbEntity
  8
TEREN$0$A-WallBelow-G
  6
Continuous
 62
     8
370
     5
100
AcDbLine
 10
251489.0794289005
 20
142405.5540332909
 30
0.0
 11
251457.7630257947
 21
142380.6684063239
 31
0.0
  0
LINE
  5
2AD
330
2
100
AcDbEntity
  8
TEREN$0$A-WallBelow-G
  6
Continuous
 62
     8
370
     5
100
AcDbLine
 10
251477.0752754361
 20
142421.5607246208
 30
0.0
 11
251461.0563708401
 21
142409.5859721998
 31
0.0
  0
LINE
  5
2AE
330
2
100
AcDbEntity
  8
TEREN$0$A-WallBelow-G
  6
Continuous
 62
     8
370
     5
100
AcDbLine
 10
251437.5335648633
 20
142491.0247440021
 30
0.0
 11
251419.3459005443
 21
142482.7055573461
 31
0.0
  0
LINE
  5
2AF
330
2
100
AcDbEntity
  8
TEREN$0$A-WallBelow-G
  6
Continuous
 62
     8
370
     5
100
AcDbLine
 10
251455.5476219154
 20
142455.3045653626
 30
0.0
 11
251438.1989567227
 21
142445.3534942629
 31
0.0
  0
LINE
  5
2B0
330
2
100
AcDbEntity
  8
TEREN$0$A-WallBelow-G
  6
Continuous
 62
     8
370
     5
100
AcDbLine
 10
251446.0910441271
 20
142472.9368684056
 30
0.0
 11
251410.492728601
 21
142454.6934824702
 31
0.0
  0
LINE
  5
2B1
330
2
100
AcDbEntity
  8
TEREN$0$A-WallBelow-G
  6
Continuous
 62
     8
370
     5
100
AcDbLine
 10
251429.8964100078
 20
142509.524375254
 30
0.0
 11
251392.7270741365
 21
142494.7371839095
 31
0.0
  0
LINE
  5
2B2
330
2
100
AcDbEntity
  8
TEREN$0$A-WallBelow-G
  6
Continuous
 62
     8
370
     5
100
AcDbLine
 10
251423.2007708697
 20
142528.3852298752
 30
0.0
 11
251404.1997576195
 21
142522.1433154681
 31
0.0
  0
LINE
  5
2B3
330
2
100
AcDbEntity
  8
TEREN$0$A-WallBelow-G
  6
Continuous
 62
     8
370
     5
100
AcDbLine
 10
251412.7036787246
 20
142566.9796876778
 30
0.0
 11
251393.1362174736
 21
142562.8427250011
 31
0.0
  0
LINE
  5
2B4
330
2
100
AcDbEntity
  8
TEREN$0$A-WallBelow-G
  6
Continuous
 62
     8
370
     5
100
AcDbLine
 10
251417.4654859262
 20
142547.5526730787
 30
0.0
 11
251378.7553045902
 21
142537.4685871155
 31
0.0
  0
LINE
  5
2B5
330
2
100
AcDbEntity
  8
TEREN$0$A-WallBelow-G
  6
Continuous
 62
     8
370
     5
100
AcDbLine
 10
251408.9256563011
 20
142586.6230362609
 30
0.0
 11
251369.4573754638
 21
142580.1223844009
 31
0.0
  0
LINE
  5
2B6
330
2
100
AcDbEntity
  8
TEREN$0$A-WallBelow-G
  6
Continuous
 62
     8
370
     5
100
AcDbLine
 10
251406.1410819913
 20
142606.4338654118
 30
0.0
 11
251386.259121052
 21
142604.2641582405
 31
0.0
  0
LINE
  5
2B7
330
2
100
AcDbEntity
  8
TEREN$0$A-WallBelow-G
  6
Continuous
 62
     8
370
     5
100
AcDbLine
 10
251404.2835384963
 20
142626.3498925968
 30
0.0
 11
251364.4305006293
 21
142623.9402689064
 31
0.0
  0
LINE
  5
2B8
330
2
100
AcDbEntity
  8
TEREN$0$A-WallBelow-G
  6
Continuous
 62
     8
370
     5
100
AcDbLine
 10
251404.2835384963
 20
142646.3864166706
 30
0.0
 11
251384.2835384963
 21
142646.3864166706
 31
0.0
  0
LINE
  5
2B9
330
2
100
AcDbEntity
  8
TEREN$0$A-WallBelow-G
  6
Continuous
 62
     8
370
     5
100
AcDbLine
 10
251404.2835384963
 20
142666.3864166705
 30
0.0
 11
251364.2835384962
 21
142666.3864166705
 31
0.0
  0
LINE
  5
2BA
330
2
100
AcDbEntity
  8
TEREN$0$A-WallBelow-G
  6
Continuous
 62
     8
370
     5
100
AcDbLine
 10
251404.2835384963
 20
142686.3864166706
 30
0.0
 11
251384.2835384963
 21
142686.3864166706
 31
0.0
  0
LINE
  5
2BB
330
2
100
AcDbEntity
  8
TEREN$0$A-WallBelow-G
  6
Continuous
 62
     8
370
     5
100
AcDbLine
 10
251404.2835384963
 20
142706.3864166706
 30
0.0
 11
251364.2835384962
 21
142706.3864166706
 31
0.0
  0
LINE
  5
2BC
330
2
100
AcDbEntity
  8
TEREN$0$A-WallBelow-G
  6
Continuous
 62
     8
370
     5
100
AcDbLine
 10
251404.2835384963
 20
142726.3864166706
 30
0.0
 11
251384.2835384963
 21
142726.3864166706
 31
0.0
  0
LINE
  5
2BD
330
2
100
AcDbEntity
  8
TEREN$0$A-WallBelow-G
  6
Continuous
 62
     8
370
     5
100
AcDbLine
 10
251404.2835384963
 20
142746.3864166706
 30
0.0
 11
251364.2835384962
 21
142746.3864166706
 31
0.0
  0
LINE
  5
2BE
330
2
100
AcDbEntity
  8
TEREN$0$A-WallBelow-G
  6
Continuous
 62
     8
370
     5
100
AcDbLine
 10
251404.2835384963
 20
142766.3864166706
 30
0.0
 11
251384.2835384963
 21
142766.3864166706
 31
0.0
  0
LINE
  5
2BF
330
2
100
AcDbEntity
  8
TEREN$0$A-WallBelow-G
  6
Continuous
 62
     8
370
     5
100
AcDbLine
 10
251404.2835384963
 20
142786.3864166706
 30
0.0
 11
251364.2835384962
 21
142786.3864166706
 31
0.0
  0
LINE
  5
2C0
330
2
100
AcDbEntity
  8
TEREN$0$A-WallBelow-G
  6
Continuous
 62
     8
370
     5
100
AcDbLine
 10
251404.2835384963
 20
142806.3864166706
 30
0.0
 11
251384.2835384963
 21
142806.3864166706
 31
0.0
  0
LINE
  5
2C1
330
2
100
AcDbEntity
  8
TEREN$0$A-WallBelow-G
  6
Continuous
 62
     8
370
     5
100
AcDbLine
 10
251404.2835384963
 20
142826.3864166706
 30
0.0
 11
251364.2835384962
 21
142826.3864166706
 31
0.0
  0
LINE
  5
2C2
330
2
100
AcDbEntity
  8
TEREN$0$A-WallBelow-G
  6
Continuous
 62
     8
370
     5
100
AcDbLine
 10
251404.2835384963
 20
142846.3864166706
 30
0.0
 11
251384.2835384963
 21
142846.3864166706
 31
0.0
  0
LINE
  5
2C3
330
2
100
AcDbEntity
  8
TEREN$0$A-WallBelow-G
  6
Continuous
 62
     8
370
     5
100
AcDbLine
 10
251404.2835384963
 20
142866.3864166706
 30
0.0
 11
251364.2835384962
 21
142866.3864166706
 31
0.0
  0
LINE
  5
2C4
330
2
100
AcDbEntity
  8
TEREN$0$A-WallBelow-G
  6
Continuous
 62
     8
370
     5
100
AcDbLine
 10
251404.2835384963
 20
142886.3864166706
 30
0.0
 11
251384.2835384963
 21
142886.3864166706
 31
0.0
  0
LINE
  5
2C5
330
2
100
AcDbEntity
  8
TEREN$0$A-WallBelow-G
  6
Continuous
 62
     8
370
     5
100
AcDbLine
 10
251404.2835384963
 20
142906.3864166706
 30
0.0
 11
251364.2835384962
 21
142906.3864166706
 31
0.0
  0
LINE
  5
2C6
330
2
100
AcDbEntity
  8
TEREN$0$A-WallBelow-G
  6
Continuous
 62
     8
370
     5
100
AcDbLine
 10
251404.2835384963
 20
142926.3864166706
 30
0.0
 11
251384.2835384963
 21
142926.3864166706
 31
0.0
  0
LINE
  5
2C7
330
2
100
AcDbEntity
  8
TEREN$0$A-WallBelow-G
  6
Continuous
 62
     8
370
     5
100
AcDbLine
 10
251404.2835384963
 20
142946.3864166706
 30
0.0
 11
251364.2835384962
 21
142946.3864166705
 31
0.0
  0
LINE
  5
2C8
330
2
100
AcDbEntity
  8
TEREN$0$A-WallBelow-G
  6
Continuous
 62
     8
370
     5
100
AcDbLine
 10
251404.2835384963
 20
142966.3864166706
 30
0.0
 11
251384.2835384963
 21
142966.3864166706
 31
0.0
  0
LINE
  5
2C9
330
2
100
AcDbEntity
  8
TEREN$0$A-WallBelow-G
  6
Continuous
 62
     8
370
     5
100
AcDbLine
 10
251404.2835384963
 20
142986.3864166706
 30
0.0
 11
251364.2835384962
 21
142986.3864166706
 31
0.0
  0
LINE
  5
2CA
330
2
100
AcDbEntity
  8
TEREN$0$A-WallBelow-G
  6
Continuous
 62
     8
370
     5
100
AcDbLine
 10
251404.2835384963
 20
143006.3864166706
 30
0.0
 11
251384.2835384963
 21
143006.3864166706
 31
0.0
  0
LINE
  5
2CB
330
2
100
AcDbEntity
  8
TEREN$0$A-WallBelow-G
  6
Continuous
 62
     8
370
     5
100
AcDbLine
 10
252481.3800907741
 20
143274.5123869863
 30
-47.0
 11
252481.3800907741
 21
143565.2667493427
 31
-47.0
  0
ARC
  5
2CC
330
2
100
AcDbEntity
  8
TEREN$0$A-WallBelow-G
  6
Continuous
 62
     8
370
     5
100
AcDbCircle
 10
252431.6153712457
 20
143559.4529173633
 30
47.0
 40
50.10317307349825
100
AcDbArc
 50
6.663452836239488
 51
87.60671481709067
  0
LINE
  5
2CD
330
2
100
AcDbEntity
  8
TEREN$0$A-WallBelow-G
  6
Continuous
 62
     8
370
     5
100
AcDbLine
 10
252384.3398417221
 20
143609.5123869863
 30
0.0
 11
252433.7076076319
 21
143609.5123869863
 31
0.0
  0
LINE
  5
2CE
330
2
100
AcDbEntity
  8
TEREN$0$A-WallBelow-G
  6
Continuous
 62
     8
370
     5
100
AcDbLine
 10
252174.3398417221
 20
143549.5123869863
 30
0.0
 11
252174.3398417221
 21
143569.5123869863
 31
0.0
  0
LINE
  5
2CF
330
2
100
AcDbEntity
  8
TEREN$0$A-WallBelow-G
  6
Continuous
 62
     8
370
     5
100
AcDbLine
 10
252174.3398417221
 20
143549.5123869863
 30
0.0
 11
252174.3398417221
 21
143569.5123869863
 31
0.0
  0
LINE
  5
2D0
330
2
100
AcDbEntity
  8
TEREN$0$A-WallBelow-G
  6
Continuous
 62
     8
370
     5
100
AcDbLine
 10
252154.3398417221
 20
143549.5123869863
 30
0.0
 11
252154.3398417222
 21
143589.5123869863
 31
0.0
  0
LINE
  5
2D1
330
2
100
AcDbEntity
  8
TEREN$0$A-WallBelow-G
  6
Continuous
 62
     8
370
     5
100
AcDbLine
 10
252134.3398417221
 20
143549.5123869863
 30
0.0
 11
252134.3398417222
 21
143569.5123869863
 31
0.0
  0
LINE
  5
2D2
330
2
100
AcDbEntity
  8
TEREN$0$A-WallBelow-G
  6
Continuous
 62
     8
370
     5
100
AcDbLine
 10
252114.3398417221
 20
143549.5123869863
 30
0.0
 11
252114.3398417221
 21
143589.5123869863
 31
0.0
  0
LINE
  5
2D3
330
2
100
AcDbEntity
  8
TEREN$0$A-WallBelow-G
  6
Continuous
 62
     8
370
     5
100
AcDbLine
 10
252114.3398417221
 20
143549.5123869863
 30
0.0
 11
252114.3398417221
 21
143589.5123869863
 31
0.0
  0
LINE
  5
2D4
330
2
100
AcDbEntity
  8
TEREN$0$A-WallBelow-G
  6
Continuous
 62
     8
370
     5
100
AcDbLine
 10
252094.3398417221
 20
143549.5123869863
 30
0.0
 11
252094.3398417221
 21
143569.5123869863
 31
0.0
  0
LINE
  5
2D5
330
2
100
AcDbEntity
  8
TEREN$0$A-WallBelow-G
  6
Continuous
 62
     8
370
     5
100
AcDbLine
 10
252074.3398417221
 20
143549.5123869863
 30
0.0
 11
252074.3398417221
 21
143589.5123869863
 31
0.0
  0
LINE
  5
2D6
330
2
100
AcDbEntity
  8
TEREN$0$A-WallBelow-G
  6
Continuous
 62
     8
370
     5
100
AcDbLine
 10
252054.3398417221
 20
143549.5123869863
 30
0.0
 11
252054.3398417221
 21
143569.5123869863
 31
0.0
  0
LINE
  5
2D7
330
2
100
AcDbEntity
  8
TEREN$0$A-WallBelow-G
  6
Continuous
 62
     8
370
     5
100
AcDbLine
 10
252054.3398417221
 20
143549.5123869863
 30
0.0
 11
252054.3398417221
 21
143569.5123869863
 31
0.0
  0
LINE
  5
2D8
330
2
100
AcDbEntity
  8
TEREN$0$A-WallBelow-G
  6
Continuous
 62
     8
370
     5
100
AcDbLine
 10
252034.3398417221
 20
143549.5123869863
 30
0.0
 11
252034.3398417221
 21
143589.5123869863
 31
0.0
  0
LINE
  5
2D9
330
2
100
AcDbEntity
  8
TEREN$0$A-WallBelow-G
  6
Continuous
 62
     8
370
     5
100
AcDbLine
 10
252014.3398417221
 20
143549.5123869863
 30
0.0
 11
252014.3398417221
 21
143569.5123869863
 31
0.0
  0
LINE
  5
2DA
330
2
100
AcDbEntity
  8
TEREN$0$A-WallBelow-G
  6
Continuous
 62
     8
370
     5
100
AcDbLine
 10
251994.3398417221
 20
143549.5123869863
 30
0.0
 11
251994.3398417221
 21
143589.5123869863
 31
0.0
  0
LINE
  5
2DB
330
2
100
AcDbEntity
  8
TEREN$0$A-WallBelow-G
  6
Continuous
 62
     8
370
     5
100
AcDbLine
 10
251994.3398417221
 20
143549.5123869863
 30
0.0
 11
251994.3398417221
 21
143569.5123869863
 31
0.0
  0
LINE
  5
2DC
330
2
100
AcDbEntity
  8
TEREN$0$A-WallBelow-G
  6
Continuous
 62
     8
370
     5
100
AcDbLine
 10
251974.3398417221
 20
143549.5123869863
 30
0.0
 11
251974.3398417221
 21
143569.5123869863
 31
0.0
  0
LINE
  5
2DD
330
2
100
AcDbEntity
  8
TEREN$0$A-WallBelow-G
  6
Continuous
 62
     8
370
     5
100
AcDbLine
 10
251974.3398417221
 20
143549.5123869863
 30
0.0
 11
251974.3398417221
 21
143569.5123869863
 31
0.0
  0
LINE
  5
2DE
330
2
100
AcDbEntity
  8
TEREN$0$A-WallBelow-G
  6
Continuous
 62
     8
370
     5
100
AcDbLine
 10
251954.3398417221
 20
143549.5123869863
 30
0.0
 11
251954.3398417222
 21
143589.5123869863
 31
0.0
  0
LINE
  5
2DF
330
2
100
AcDbEntity
  8
TEREN$0$A-WallBelow-G
  6
Continuous
 62
     8
370
     5
100
AcDbLine
 10
251934.3398417221
 20
143549.5123869863
 30
0.0
 11
251934.3398417221
 21
143569.5123869863
 31
0.0
  0
LINE
  5
2E0
330
2
100
AcDbEntity
  8
TEREN$0$A-WallBelow-G
  6
Continuous
 62
     8
370
     5
100
AcDbLine
 10
251914.3398417221
 20
143549.5123869863
 30
0.0
 11
251914.3398417221
 21
143589.5123869863
 31
0.0
  0
LINE
  5
2E1
330
2
100
AcDbEntity
  8
TEREN$0$A-WallBelow-G
  6
Continuous
 62
     8
370
     5
100
AcDbLine
 10
251914.3398417221
 20
143549.5123869863
 30
0.0
 11
251914.3398417221
 21
143589.5123869863
 31
0.0
  0
LINE
  5
2E2
330
2
100
AcDbEntity
  8
TEREN$0$A-WallBelow-G
  6
Continuous
 62
     8
370
     5
100
AcDbLine
 10
251894.3398417221
 20
143549.5123869863
 30
0.0
 11
251894.3398417221
 21
143569.5123869863
 31
0.0
  0
LINE
  5
2E3
330
2
100
AcDbEntity
  8
TEREN$0$A-WallBelow-G
  6
Continuous
 62
     8
370
     5
100
AcDbLine
 10
251874.3398417222
 20
143549.5123869863
 30
0.0
 11
251874.3398417222
 21
143589.5123869863
 31
0.0
  0
LINE
  5
2E4
330
2
100
AcDbEntity
  8
TEREN$0$A-WallBelow-G
  6
Continuous
 62
     8
370
     5
100
AcDbLine
 10
251854.3398417221
 20
143549.5123869863
 30
0.0
 11
251854.3398417222
 21
143569.5123869863
 31
0.0
  0
LINE
  5
2E5
330
2
100
AcDbEntity
  8
TEREN$0$A-WallBelow-G
  6
Continuous
 62
     8
370
     5
100
AcDbLine
 10
251854.3398417221
 20
143549.5123869863
 30
0.0
 11
251854.3398417221
 21
143569.5123869863
 31
0.0
  0
LINE
  5
2E6
330
2
100
AcDbEntity
  8
TEREN$0$A-WallBelow-G
  6
Continuous
 62
     8
370
     5
100
AcDbLine
 10
251834.3398417221
 20
143549.5123869863
 30
0.0
 11
251834.3398417222
 21
143589.5123869863
 31
0.0
  0
LINE
  5
2E7
330
2
100
AcDbEntity
  8
TEREN$0$A-WallBelow-G
  6
Continuous
 62
     8
370
     5
100
AcDbLine
 10
251814.3398417221
 20
143549.5123869863
 30
0.0
 11
251814.3398417221
 21
143569.5123869863
 31
0.0
  0
LINE
  5
2E8
330
2
100
AcDbEntity
  8
TEREN$0$A-WallBelow-G
  6
Continuous
 62
     8
370
     5
100
AcDbLine
 10
251794.3398417221
 20
143549.5123869863
 30
0.0
 11
251794.3398417221
 21
143589.5123869863
 31
0.0
  0
LINE
  5
2E9
330
2
100
AcDbEntity
  8
TEREN$0$A-WallBelow-G
  6
Continuous
 62
     8
370
     5
100
AcDbLine
 10
251794.3398417221
 20
143549.5123869863
 30
0.0
 11
251794.3398417221
 21
143569.5123869863
 31
0.0
  0
LINE
  5
2EA
330
2
100
AcDbEntity
  8
TEREN$0$A-WallBelow-G
  6
Continuous
 62
     8
370
     5
100
AcDbLine
 10
251774.3398417221
 20
143549.5123869863
 30
0.0
 11
251774.3398417221
 21
143569.5123869863
 31
0.0
  0
LINE
  5
2EB
330
2
100
AcDbEntity
  8
TEREN$0$A-WallBelow-G
  6
Continuous
 62
     8
370
     5
100
AcDbLine
 10
251774.3398417221
 20
143549.5123869863
 30
0.0
 11
251774.3398417221
 21
143569.5123869863
 31
0.0
  0
LINE
  5
2EC
330
2
100
AcDbEntity
  8
TEREN$0$A-WallBelow-G
  6
Continuous
 62
     8
370
     5
100
AcDbLine
 10
251754.3398417221
 20
143549.5123869863
 30
0.0
 11
251754.3398417222
 21
143589.5123869863
 31
0.0
  0
LINE
  5
2ED
330
2
100
AcDbEntity
  8
TEREN$0$A-WallBelow-G
  6
Continuous
 62
     8
370
     5
100
AcDbLine
 10
251734.3398417221
 20
143549.5123869863
 30
0.0
 11
251734.3398417221
 21
143569.5123869863
 31
0.0
  0
LINE
  5
2EE
330
2
100
AcDbEntity
  8
TEREN$0$A-WallBelow-G
  6
Continuous
 62
     8
370
     5
100
AcDbLine
 10
251714.3398417221
 20
143549.5123869863
 30
0.0
 11
251714.3398417221
 21
143589.5123869863
 31
0.0
  0
LINE
  5
2EF
330
2
100
AcDbEntity
  8
TEREN$0$A-WallBelow-G
  6
Continuous
 62
     8
370
     5
100
AcDbLine
 10
251714.3398417221
 20
143549.5123869863
 30
0.0
 11
251714.3398417221
 21
143589.5123869863
 31
0.0
  0
LINE
  5
2F0
330
2
100
AcDbEntity
  8
TEREN$0$A-WallBelow-G
  6
Continuous
 62
     8
370
     5
100
AcDbLine
 10
251694.3398417221
 20
143549.5123869863
 30
0.0
 11
251694.3398417221
 21
143569.5123869863
 31
0.0
  0
LINE
  5
2F1
330
2
100
AcDbEntity
  8
TEREN$0$A-WallBelow-G
  6
Continuous
 62
     8
370
     5
100
AcDbLine
 10
251674.3398417221
 20
143549.5123869863
 30
0.0
 11
251674.3398417221
 21
143589.5123869863
 31
0.0
  0
LINE
  5
2F2
330
2
100
AcDbEntity
  8
TEREN$0$A-WallBelow-G
  6
Continuous
 62
     8
370
     5
100
AcDbLine
 10
251654.3398417221
 20
143549.5123869863
 30
0.0
 11
251654.3398417221
 21
143569.5123869863
 31
0.0
  0
LINE
  5
2F3
330
2
100
AcDbEntity
  8
TEREN$0$A-WallBelow-G
  6
Continuous
 62
     8
370
     5
100
AcDbLine
 10
251654.3398417221
 20
143549.5123869863
 30
0.0
 11
251654.3398417221
 21
143569.5123869863
 31
0.0
  0
LINE
  5
2F4
330
2
100
AcDbEntity
  8
TEREN$0$A-WallBelow-G
  6
Continuous
 62
     8
370
     5
100
AcDbLine
 10
251634.3398417222
 20
143549.0187947504
 30
0.0
 11
251633.0353537778
 21
143588.9975179816
 31
0.0
  0
LINE
  5
2F5
330
2
100
AcDbEntity
  8
TEREN$0$A-WallBelow-G
  6
Continuous
 62
     8
370
     5
100
AcDbLine
 10
251633.0353537778
 20
143588.9975179816
 30
0.0
 11
251633.0353537778
 21
143588.9975179816
 31
0.0
  0
LINE
  5
2F6
330
2
100
AcDbEntity
  8
TEREN$0$A-WallBelow-G
  6
Continuous
 62
     8
370
     5
100
AcDbLine
 10
251614.422558478
 20
143546.1575604384
 30
0.0
 11
251611.7273647419
 21
143565.9751266544
 31
0.0
  0
LINE
  5
2F7
330
2
100
AcDbEntity
  8
TEREN$0$A-WallBelow-G
  6
Continuous
 62
     8
370
     5
100
AcDbLine
 10
251594.837040551
 20
143541.7561322783
 30
0.0
 11
251585.4400521405
 21
143580.6461852445
 31
0.0
  0
LINE
  5
2F8
330
2
100
AcDbEntity
  8
TEREN$0$A-WallBelow-G
  6
Continuous
 62
     8
370
     5
100
AcDbLine
 10
251575.6889945833
 20
143535.8482438087
 30
0.0
 11
251568.5096836149
 21
143554.5152600143
 31
0.0
  0
LINE
  5
2F9
330
2
100
AcDbEntity
  8
TEREN$0$A-WallBelow-G
  6
Continuous
 62
     8
370
     5
100
AcDbLine
 10
251557.0950924984
 20
143528.4788279008
 30
0.0
 11
251539.5380962531
 21
143564.4472411467
 31
0.0
  0
LINE
  5
2FA
330
2
100
AcDbEntity
  8
TEREN$0$A-WallBelow-G
  6
Continuous
 62
     8
370
     5
100
AcDbLine
 10
251539.132844745
 20
143519.6834728917
 30
0.0
 11
251529.0502632313
 21
143536.9560392911
 31
0.0
  0
LINE
  5
2FB
330
2
100
AcDbEntity
  8
TEREN$0$A-WallBelow-G
  6
Continuous
 62
     8
370
     5
100
AcDbLine
 10
251521.9103046617
 20
143509.5151908195
 30
0.0
 11
251499.4242131628
 21
143542.6090760402
 31
0.0
  0
LINE
  5
2FC
330
2
100
AcDbEntity
  8
TEREN$0$A-WallBelow-G
  6
Continuous
 62
     8
370
     5
100
AcDbLine
 10
251505.5309162391
 20
143498.0347714603
 30
0.0
 11
251493.3224214544
 21
143513.8762567155
 31
0.0
  0
LINE
  5
2FD
330
2
100
AcDbEntity
  8
TEREN$0$A-WallBelow-G
  6
Continuous
 62
     8
370
     5
100
AcDbLine
 10
251490.0894884899
 20
143485.3071704963
 30
0.0
 11
251463.7071529413
 21
143515.3748388436
 31
0.0
  0
LINE
  5
2FE
330
2
100
AcDbEntity
  8
TEREN$0$A-WallBelow-G
  6
Continuous
 62
     8
370
     5
100
AcDbLine
 10
251475.6792497621
 20
143471.4061723329
 30
0.0
 11
251461.3173184619
 21
143485.3250418749
 31
0.0
  0
LINE
  5
2FF
330
2
100
AcDbEntity
  8
TEREN$0$A-WallBelow-G
  6
Continuous
 62
     8
370
     5
100
AcDbLine
 10
251462.3988459202
 20
143456.4254718296
 30
0.0
 11
251431.8516167491
 21
143482.255804373
 31
0.0
  0
LINE
  5
300
330
2
100
AcDbEntity
  8
TEREN$0$A-WallBelow-G
  6
Continuous
 62
     8
370
     5
100
AcDbLine
 10
251450.3214335656
 20
143440.446240531
 30
0.0
 11
251434.1836465633
 21
143452.2602927853
 31
0.0
  0
LINE
  5
301
330
2
100
AcDbEntity
  8
TEREN$0$A-WallBelow-G
  6
Continuous
 62
     8
370
     5
100
AcDbLine
 10
251439.5228898734
 20
143423.5650262412
 30
0.0
 11
251405.287024108
 21
143444.2571243506
 31
0.0
  0
LINE
  5
302
330
2
100
AcDbEntity
  8
TEREN$0$A-WallBelow-G
  6
Continuous
 62
     8
370
     5
100
AcDbLine
 10
251430.080353568
 20
143405.9028917083
 30
0.0
 11
251412.253392245
 21
143414.9692829412
 31
0.0
  0
LINE
  5
303
330
2
100
AcDbEntity
  8
TEREN$0$A-WallBelow-G
  6
Continuous
 62
     8
370
     5
100
AcDbLine
 10
251422.042666074
 20
143387.5527548205
 30
0.0
 11
251385.2697596833
 21
143403.3369998109
 31
0.0
  0
LINE
  5
304
330
2
100
AcDbEntity
  8
TEREN$0$A-WallBelow-G
  6
Continuous
 62
     8
370
     5
100
AcDbLine
 10
251415.4567008585
 20
143368.6150976391
 30
0.0
 11
251396.0493131497
 21
143373.4476230989
 31
0.0
  0
LINE
  5
305
330
2
100
AcDbEntity
  8
TEREN$0$A-WallBelow-G
  6
Continuous
 62
     8
370
     5
100
AcDbLine
 10
251410.380589871
 20
143349.2683638051
 30
0.0
 11
251370.7030727609
 21
143355.0284582804
 31
0.0
  0
LINE
  5
306
330
2
100
AcDbEntity
  8
TEREN$0$A-WallBelow-G
  6
Continuous
 62
     8
370
     5
100
AcDbLine
 10
251406.8260141074
 20
143329.5747389273
 30
0.0
 11
251386.9516216636
 21
143331.8127123389
 31
0.0
  0
LINE
  5
307
330
2
100
AcDbEntity
  8
TEREN$0$A-WallBelow-G
  6
Continuous
 62
     8
370
     5
100
AcDbLine
 10
251404.8182511326
 20
143309.6744234351
 30
0.0
 11
251364.8673644037
 21
143311.6974862411
 31
0.0
  0
LINE
  5
308
330
2
100
AcDbEntity
  8
TEREN$0$A-WallBelow-G
  6
Continuous
 62
     8
370
     5
100
AcDbLine
 10
251404.3326151102
 20
143289.6733890261
 30
0.0
 11
251384.3326151101
 21
143289.6733890262
 31
0.0
  0
LINE
  5
309
330
2
100
AcDbEntity
  8
TEREN$0$A-WallBelow-G
  6
Continuous
 62
     8
370
     5
100
AcDbLine
 10
251404.3326151102
 20
143269.6733890261
 30
0.0
 11
251364.3326151102
 21
143269.6733890261
 31
0.0
  0
LINE
  5
30A
330
2
100
AcDbEntity
  8
TEREN$0$A-WallBelow-G
  6
Continuous
 62
     8
370
     5
100
AcDbLine
 10
251404.3326151102
 20
143249.6733890261
 30
0.0
 11
251384.3326151101
 21
143249.6733890261
 31
0.0
  0
LINE
  5
30B
330
2
100
AcDbEntity
  8
TEREN$0$A-WallBelow-G
  6
Continuous
 62
     8
370
     5
100
AcDbLine
 10
251404.3326151102
 20
143229.6733890261
 30
0.0
 11
251364.3326151102
 21
143229.6733890261
 31
0.0
  0
LINE
  5
30C
330
2
100
AcDbEntity
  8
TEREN$0$A-WallBelow-G
  6
Continuous
 62
     8
370
     5
100
AcDbLine
 10
251404.3326151102
 20
143209.6733890261
 30
0.0
 11
251384.3326151102
 21
143209.6733890262
 31
0.0
  0
LINE
  5
30D
330
2
100
AcDbEntity
  8
TEREN$0$A-WallBelow-G
  6
Continuous
 62
     8
370
     5
100
AcDbLine
 10
252419.8767543834
 20
143549.5123869863
 30
0.0
 11
252434.0188900071
 21
143563.6545226101
 31
0.0
  0
DIMENSION
  5
30E
330
2
100
AcDbEntity
  8
0Wymiary-PL
100
AcDbDimension
  2
*D10
 10
252839.3398417221
 20
141874.3702783322
 30
0.0
 11
253154.3398417221
 21
141954.3702783322
 31
0.0
 71
     5
 42
630.0000000000291
  3
500
100
AcDbAlignedDimension
 13
253469.3398417222
 23
142416.8156187407
 33
0.0
 14
252839.3398417221
 24
142416.8156187436
 34
0.0
 50
180.0
100
AcDbRotatedDimension
  0
DIMENSION
  5
319
330
2
100
AcDbEntity
  8
0Wymiary-PL
100
AcDbDimension
  2
*D11
 10
251739.3398417222
 20
141874.3702783322
 30
0.0
 11
252289.3398417221
 21
141954.3702783322
 31
0.0
 71
     5
 42
1099.999999999971
  3
500
100
AcDbAlignedDimension
 13
252839.3398417221
 23
142416.8156187436
 33
0.0
 14
251739.3398417222
 24
142391.8156187407
 34
0.0
 50
180.0
100
AcDbRotatedDimension
  0
DIMENSION
  5
324
330
2
100
AcDbEntity
  8
0Wymiary-PL
100
AcDbDimension
  2
*D12
 10
251649.3398417221
 20
141681.4384348913
 30
0.0
 11
252559.3398417222
 21
141761.4384348913
 31
0.0
 71
     5
 42
1820.0
  3
500
100
AcDbAlignedDimension
 13
253469.3398417222
 23
142416.8156187407
 33
0.0
 14
251649.3398417221
 24
142642.718895909
 34
0.0
 50
180.0
100
AcDbRotatedDimension
  0
DIMENSION
  5
32F
330
2
100
AcDbEntity
  8
0Wymiary-PL
100
AcDbDimension
  2
*D13
 10
251081.6234948313
 20
143020.7290778374
 30
0.0
 11
251001.6234948313
 21
143146.2723482891
 31
0.0
 71
     5
 42
251.0865409032558
  3
500
100
AcDbAlignedDimension
 13
251739.3398417222
 23
143271.8156187407
 33
0.0
 14
251649.3398417221
 24
143020.7290778374
 34
0.0
 50
90.0
100
AcDbRotatedDimension
  0
DIMENSION
  5
33A
330
2
100
AcDbEntity
  8
0Wymiary-PL
100
AcDbDimension
  2
*D14
 10
251081.6234948313
 20
142642.718895909
 30
0.0
 11
251001.6234948313
 21
142831.7239868732
 31
0.0
 71
     5
 42
378.0101819284027
  3
500
100
AcDbAlignedDimension
 13
251649.3398417221
 23
143020.7290778374
 33
0.0
 14
251649.3398417221
 24
142642.718895909
 34
0.0
 50
90.0
100
AcDbRotatedDimension
  0
DIMENSION
  5
345
330
2
100
AcDbEntity
  8
0Wymiary-PL
100
AcDbDimension
  2
*D15
 10
251081.6234948313
 20
142391.8156187407
 30
0.0
 11
251001.6234948313
 21
142517.2672573249
 31
0.0
 71
     5
 42
250.9032771683414
  3
500
100
AcDbAlignedDimension
 13
251649.3398417221
 23
142642.718895909
 33
0.0
 14
251739.3398417222
 24
142391.8156187407
 34
0.0
 50
90.0
100
AcDbRotatedDimension
  0
DIMENSION
  5
350
330
2
100
AcDbEntity
  8
0Wymiary-PL
100
AcDbDimension
  2
*D16
 10
250888.6234948313
 20
142391.8156187407
 30
0.0
 11
250808.6234948312
 21
142831.8156187407
 31
0.0
 71
     5
 42
880.0
  3
500
100
AcDbAlignedDimension
 13
251767.4829606651
 23
143271.8156187407
 33
0.0
 14
251767.4829606651
 24
142391.8156187407
 34
0.0
 50
90.0
100
AcDbRotatedDimension
  0
DIMENSION
  5
35B
330
2
100
AcDbEntity
  8
0Wymiary-PL
100
AcDbDimension
  2
*D17
 10
248947.0446067616
 20
141874.3702783322
 30
0.0
 11
248397.0446067616
 21
141954.3702783322
 31
0.0
 71
     5
 42
1099.999999999971
  3
500
100
AcDbAlignedDimension
 13
247847.0446067616
 23
142416.8156187436
 33
0.0
 14
248947.0446067616
 24
142391.8156187407
 34
0.0
100
AcDbRotatedDimension
  0
DIMENSION
  5
366
330
2
100
AcDbEntity
  8
0Wymiary-PL
100
AcDbDimension
  2
*D18
 10
249037.0446067616
 20
141874.3702783322
 30
0.0
 11
248992.0446067616
 21
141954.3702783322
 31
0.0
 71
     5
 42
90.0
  3
500
100
AcDbAlignedDimension
 13
248947.0446067616
 23
142391.8156187407
 33
0.0
 14
249037.0446067616
 24
142642.718895909
 34
0.0
100
AcDbRotatedDimension
  0
DIMENSION
  5
373
330
2
100
AcDbEntity
  8
0Wymiary-PL
100
AcDbDimension
  2
*D19
 10
251739.3398417222
 20
141874.3702783322
 30
0.0
 11
251694.3398417222
 21
141954.3702783322
 31
0.0
 71
     5
 42
90.0
  3
500
100
AcDbAlignedDimension
 13
251649.3398417221
 23
142642.718895909
 33
0.0
 14
251739.3398417222
 24
142391.8156187407
 34
0.0
100
AcDbRotatedDimension
  0
ENDSEC
  0
SECTION
  2
OBJECTS
  0
DICTIONARY
  5
B
330
0
100
AcDbDictionary
281
     1
  3
ACAD_COLOR
350
55
  3
ACAD_GROUP
350
50
  3
ACAD_LAYOUT
350
12
  3
ACAD_MATERIAL
350
D
  3
ACAD_MLINESTYLE
350
51
  3
ACAD_PLOTSETTINGS
350
52
  3
ACAD_PLOTSTYLENAME
350
A
  3
ACAD_TABLESTYLE
350
56
  3
ACAD_VISUALSTYLE
350
15
  3
AcDbVariableDictionary
350
386
  3
DWGPROPS
350
3AC
  0
DICTIONARY
  5
1E
330
1D
100
AcDbDictionary
280
     1
281
     1
  3
ACAD_LAYERFILTERS
360
1F
  3
ACAD_LAYERSTATES
360
20
  3
ACLYDICTIONARY
360
22
  0
DICTIONARY
  5
7
330
6
100
AcDbDictionary
280
     1
281
     1
  3
ADSK_XREC_LAYER_RECONCILED
360
8
  0
DICTIONARY
  5
58
330
57
100
AcDbDictionary
280
     1
281
     1
  3
ADSK_XREC_LAYER_RECONCILED
360
59
  0
DICTIONARY
  5
62
330
61
100
AcDbDictionary
280
     1
281
     1
  3
ADSK_XREC_LAYER_RECONCILED
360
63
  0
DICTIONARY
  5
7A
330
79
100
AcDbDictionary
280
     1
281
     1
  3
ADSK_XREC_LAYER_RECONCILED
360
7B
  0
DICTIONARY
  5
A8
330
A7
100
AcDbDictionary
280
     1
281
     1
  0
DICTIONARY
  5
6C
330
6B
100
AcDbDictionary
280
     1
281
     1
  3
ADSK_XREC_LAYER_RECONCILED
360
6D
  0
DICTIONARY
  5
67
330
66
100
AcDbDictionary
280
     1
281
     1
  3
ADSK_XREC_LAYER_RECONCILED
360
68
  0
DICTIONARY
  5
3
330
2
100
AcDbDictionary
280
     1
281
     1
  3
ACAD_SORTENTS
360
381
  0
DICTIONARY
  5
38
330
37
100
AcDbDictionary
280
     1
281
     1
  3
ACAD_SORTENTS
360
380
  0
DICTIONARY
  5
3B7
330
6E
100
AcDbDictionary
280
     1
281
     1
  3
ACAD_MTEXT_RT
360
3B8
  0
DICTIONARY
  5
3B9
330
72
100
AcDbDictionary
280
     1
281
     1
  3
ACAD_MTEXT_RT
360
3BA
  0
DICTIONARY
  5
55
102
{ACAD_REACTORS
330
B
102
}
330
B
100
AcDbDictionary
281
     1
  0
DICTIONARY
  5
50
102
{ACAD_REACTORS
330
B
102
}
330
B
100
AcDbDictionary
281
     1
  0
DICTIONARY
  5
12
102
{ACAD_REACTORS
330
B
102
}
330
B
100
AcDbDictionary
281
     1
  3
Layout1
350
1A
  3
Model
350
11
  0
DICTIONARY
  5
D
102
{ACAD_REACTORS
330
B
102
}
330
B
100
AcDbDictionary
281
     1
  3
ByBlock
350
54
  3
ByLayer
350
53
  3
Global
350
C
  0
DICTIONARY
  5
51
102
{ACAD_REACTORS
330
B
102
}
330
B
100
AcDbDictionary
281
     1
  3
Standard
350
5A
  0
DICTIONARY
  5
52
102
{ACAD_REACTORS
330
B
102
}
330
B
100
AcDbDictionary
281
     1
  0
ACDBDICTIONARYWDFLT
  5
A
102
{ACAD_REACTORS
330
B
102
}
330
B
100
AcDbDictionary
281
     1
  3
Medium
350
D4
  3
Normal
350
9
  3
Style 1
350
A9
100
AcDbDictionaryWithDefault
340
9
  0
DICTIONARY
  5
56
102
{ACAD_REACTORS
330
B
102
}
330
B
100
AcDbDictionary
281
     1
  3
Standard
350
5B
  0
DICTIONARY
  5
15
102
{ACAD_REACTORS
330
B
102
}
330
B
100
AcDbDictionary
281
     1
  3
2dWireframe
350
14
  3
3D Hidden
350
38E
  3
3dWireframe
350
5F
  3
Basic
350
38D
  3
Brighten
350
391
  3
ColorChange
350
395
  3
Conceptual
350
38F
  3
Dim
350
390
  3
Facepattern
350
394
  3
Flat
350
389
  3
FlatWithEdges
350
38A
  3
Gouraud
350
38B
  3
GouraudWithEdges
350
38C
  3
Linepattern
350
393
  3
Phong
350
39E
  3
PhongWithEdges
350
39F
  3
Realistic
350
5E
  3
Thicken
350
392
  0
DICTIONARY
  5
386
102
{ACAD_REACTORS
330
B
102
}
330
B
100
AcDbDictionary
281
     1
  3
CTABLESTYLE
350
387
  3
DIMASSOC
350
3AB
  3
HIDETEXT
350
3AA
  3
INDEXCTL
350
3A9
  3
SORTENTS
350
3A8
  0
XRECORD
  5
3AC
102
{ACAD_REACTORS
330
B
102
}
330
B
100
AcDbXrecord
280
     1
  1
DWGPROPS COOKIE
  2

  3

  4

  6

  7

  8
joanna.jedrzejec
  9

300
=
301
=
302
=
303
=
304
=
305
=
306
=
307
=
308
=
309
=
 40
9.553519548611111
 41
2452027.670547454
 42
2455040.701520359
  1

 90
        0
  0
DICTIONARY
  5
1F
102
{ACAD_REACTORS
330
1E
102
}
330
1E
100
AcDbDictionary
281
     1
  0
DICTIONARY
  5
20
102
{ACAD_REACTORS
330
1E
102
}
330
1E
100
AcDbDictionary
281
     1
1001
AcLayerTools
1000
11
1000
0
  0
DICTIONARY
  5
22
102
{ACAD_REACTORS
330
1E
102
}
330
1E
100
AcDbDictionary
281
     1
1001
ACAD
1000
<All
  0
XRECORD
  5
8
102
{ACAD_REACTORS
330
7
102
}
330
7
100
AcDbXrecord
280
     1
290
     1
  0
XRECORD
  5
59
102
{ACAD_REACTORS
330
58
102
}
330
58
100
AcDbXrecord
280
     1
290
     1
  0
XRECORD
  5
63
102
{ACAD_REACTORS
330
62
102
}
330
62
100
AcDbXrecord
280
     1
290
     1
  0
XRECORD
  5
7B
102
{ACAD_REACTORS
330
7A
102
}
330
7A
100
AcDbXrecord
280
     1
290
     1
  0
XRECORD
  5
6D
102
{ACAD_REACTORS
330
6C
102
}
330
6C
100
AcDbXrecord
280
     1
290
     1
  0
XRECORD
  5
68
102
{ACAD_REACTORS
330
67
102
}
330
67
100
AcDbXrecord
280
     1
290
     1
  0
SORTENTSTABLE
  5
381
102
{ACAD_REACTORS
330
3
102
}
330
3
100
AcDbSortentsTable
330
2
  0
SORTENTSTABLE
  5
380
102
{ACAD_REACTORS
330
38
102
}
330
38
100
AcDbSortentsTable
330
37
  0
XRECORD
  5
3B8
102
{ACAD_REACTORS
330
3B7
102
}
330
3B7
100
AcDbXrecord
280
     1
 40
264312.0
  1
{\fArial|b0|i0|c238|p34;MOŻNA WKLEIĆ DO PROJEKTU ZAGOSPODAROWANIA TERENU}
  0
XRECORD
  5
3BA
102
{ACAD_REACTORS
330
3B9
102
}
330
3B9
100
AcDbXrecord
280
     1
 40
106589.0
  1
{\fArial|b0|i0|c238|p34;OŚ ODBICIA LUSTRZANEGO}
  0
LAYOUT
  5
1A
102
{ACAD_XDICTIONARY
360
1B
102
}
102
{ACAD_REACTORS
330
12
102
}
330
12
100
AcDbPlotSettings
  1

  2
none_device
  4
Letter_(8.50_x_11.00_Inches)
  6

 40
6.349999904632568
 41
6.349999904632568
 42
6.350006103515625
 43
6.350006103515625
 44
215.8999938964844
 45
279.3999938964844
 46
0.0
 47
0.0
 48
0.0
 49
0.0
140
0.0
141
0.0
142
1.0
143
1.0
 70
   688
 72
     0
 73
     1
 74
     5
  7
monochrome_140.ctb
 75
    16
147
1.0
148
0.0
149
0.0
100
AcDbLayout
  1
Layout1
 70
     1
 71
     1
 10
-0.2500002402958907
 20
-0.2499999962453767
 11
10.74999951940822
 21
8.249999763458733
 12
0.0
 22
0.0
 32
0.0
 14
1.049999952316284
 24
0.7999999523162842
 34
0.0
 15
9.449999570846559
 25
7.199999570846558
 35
0.0
146
0.0
 13
0.0
 23
0.0
 33
0.0
 16
1.0
 26
0.0
 36
0.0
 17
0.0
 27
1.0
 37
0.0
 76
     0
330
17
1001
ACAD_PSEXT
1000
None
1000
None
1000
Not applicable
1000
The layout will not be plotted unless a new plotter configuration name is selected.
1070
     0
  0
LAYOUT
  5
11
102
{ACAD_XDICTIONARY
360
3AF
102
}
102
{ACAD_REACTORS
330
12
102
}
330
12
100
AcDbPlotSettings
  1

  2
\\druk\RICOH Aficio AP610N PCL 6
  4
A4
  6
RODODENDRON 5
 40
5.027082920074462
 41
5.027085781097412
 42
5.027069091796875
 43
5.027069091796875
 44
209.9733276367187
 45
296.9259948730469
 46
0.0
 47
5.514622820668904
 48
257619.3992489536
 49
138400.1012663777
140
263112.6499317711
141
142381.3796130458
142
1.0
143
19.91443959402378
 70
 11956
 72
     1
 73
     1
 74
     4
  7
monochrome_140.ctb
 75
     0
147
0.0502148200193439
148
-257619.3992489536
149
-138400.1012663777
100
AcDbLayout
  1
Model
 70
     1
 71
     0
 10
0.0
 20
0.0
 11
12.0
 21
9.0
 12
0.0
 22
0.0
 32
0.0
 14
0.0
 24
0.0
 34
0.0
 15
0.0
 25
0.0
 35
0.0
146
0.0
 13
0.0
 23
0.0
 33
0.0
 16
1.0
 26
0.0
 36
0.0
 17
0.0
 27
1.0
 37
0.0
 76
     0
330
2
331
2D
1001
ACAD_PSEXT
1000
\\druk\RICOH Aficio AP610N PCL 6
1000
RICOH Aficio AP610N PCL 6
1000
Dział Techniczny
1000
Ricoh Afficio AP610N - Dział Techniczny
1070
     0
  0
MATERIAL
  5
54
102
{ACAD_XDICTIONARY
360
3B4
102
}
102
{ACAD_REACTORS
330
D
102
}
330
D
100
AcDbMaterial
  1
ByBlock
  0
MATERIAL
  5
53
102
{ACAD_XDICTIONARY
360
3B2
102
}
102
{ACAD_REACTORS
330
D
102
}
330
D
100
AcDbMaterial
  1
ByLayer
  0
MATERIAL
  5
C
102
{ACAD_XDICTIONARY
360
3AD
102
}
102
{ACAD_REACTORS
330
D
102
}
330
D
100
AcDbMaterial
  1
Global
  0
MLINESTYLE
  5
5A
102
{ACAD_REACTORS
330
51
102
}
330
51
100
AcDbMlineStyle
  2
STANDARD
 70
     0
  3

 62
   256
 51
90.0
 52
90.0
 71
     2
 49
0.5
 62
   256
  6
BYLAYER
 49
-0.5
 62
   256
  6
BYLAYER
  0
ACDBPLACEHOLDER
  5
D4
102
{ACAD_REACTORS
330
A
102
}
330
A
  0
ACDBPLACEHOLDER
  5
9
102
{ACAD_REACTORS
330
A
102
}
330
A
  0
ACDBPLACEHOLDER
  5
A9
102
{ACAD_REACTORS
330
A
102
}
330
A
  0
TABLESTYLE
  5
5B
102
{ACAD_XDICTIONARY
360
5C
102
}
102
{ACAD_REACTORS
330
56
102
}
330
56
100
AcDbTableStyle
  3
Standard
 70
     0
 71
     0
 40
0.06
 41
0.06
280
     0
281
     0
  7
Standard
140
0.18
170
     2
 62
     0
 63
     7
283
     0
274
    -2
284
     1
 64
     0
275
    -2
285
     1
 65
     0
276
    -2
286
     1
 66
     0
277
    -2
287
     1
 67
     0
278
    -2
288
     1
 68
     0
279
    -2
289
     1
 69
     0
  7
Standard
140
0.25
170
     5
 62
     0
 63
     7
283
     0
274
    -2
284
     1
 64
     0
275
    -2
285
     1
 65
     0
276
    -2
286
     1
 66
     0
277
    -2
287
     1
 67
     0
278
    -2
288
     1
 68
     0
279
    -2
289
     1
 69
     0
  7
Standard
140
0.18
170
     5
 62
     0
 63
     7
283
     0
274
    -2
284
     1
 64
     0
275
    -2
285
     1
 65
     0
276
    -2
286
     1
 66
     0
277
    -2
287
     1
 67
     0
278
    -2
288
     1
 68
     0
279
    -2
289
     1
 69
     0
  0
VISUALSTYLE
  5
14
102
{ACAD_REACTORS
330
15
102
}
330
15
100
AcDbVisualStyle
  2
2dWireframe
 70
     4
 71
     0
 72
     2
 73
     0
 90
        0
 40
-0.6
 41
-30.0
 62
     5
 63
     7
 74
     1
 91
        4
 64
     7
 65
   257
 75
     1
175
     1
 42
1.0
 92
        0
 66
   257
 43
1.0
 76
     1
 77
     6
 78
     2
 67
     7
 79
     5
170
     0
171
     0
290
     0
174
     0
 93
        1
 44
0.0
173
     0
291
     0
 45
0.0
1001
ACAD
1000
AcDbSavedByObjectVersion
1070
     0
  0
VISUALSTYLE
  5
38E
102
{ACAD_REACTORS
330
15
102
}
330
15
100
AcDbVisualStyle
  2
3D Hidden
 70
     6
 71
     1
 72
     2
 73
     2
 90
        0
 40
-0.6
 41
-30.0
 62
     5
 63
     7
 74
     2
 91
        2
 64
     7
 65
   257
 75
     2
175
     1
 42
40.0
 92
        0
 66
   257
 43
1.0
 76
     1
 77
     6
 78
     2
 67
     7
 79
     3
170
     0
171
     0
290
     0
174
     0
 93
        1
 44
0.0
173
     0
291
     0
 45
0.0
1001
ACAD
1000
AcDbSavedByObjectVersion
1070
     0
  0
VISUALSTYLE
  5
5F
102
{ACAD_REACTORS
330
15
102
}
330
15
100
AcDbVisualStyle
  2
3dWireframe
 70
     5
 71
     0
 72
     2
 73
     0
 90
        0
 40
-0.6
 41
-30.0
 62
     5
 63
     7
 74
     1
 91
        4
 64
     7
 65
   257
 75
     1
175
     1
 42
1.0
 92
        0
 66
   257
 43
1.0
 76
     1
 77
     6
 78
     2
 67
     7
 79
     5
170
     0
171
     0
290
     0
174
     0
 93
        1
 44
0.0
173
     0
291
     0
 45
0.0
1001
ACAD
1000
AcDbSavedByObjectVersion
1070
     0
  0
VISUALSTYLE
  5
38D
102
{ACAD_REACTORS
330
15
102
}
330
15
100
AcDbVisualStyle
  2
Basic
 70
     7
 71
     1
 72
     0
 73
     1
 90
        0
 40
-0.6
 41
-30.0
 62
     5
 63
     7
 74
     0
 91
        4
 64
     7
 65
   257
 75
     1
175
     1
 42
1.0
 92
        8
 66
     7
 43
1.0
 76
     1
 77
     6
 78
     2
 67
     7
 79
     5
170
     0
171
     0
290
     0
174
     0
 93
        1
 44
0.0
173
     0
291
     1
 45
0.0
1001
ACAD
1000
AcDbSavedByObjectVersion
1070
     0
  0
VISUALSTYLE
  5
391
102
{ACAD_REACTORS
330
15
102
}
330
15
100
AcDbVisualStyle
  2
Brighten
 70
    12
 71
     2
 72
     2
 73
     0
 90
        0
 40
-0.6
 41
-30.0
 62
     5
 63
     7
 74
     1
 91
        4
 64
     7
 65
   257
 75
     1
175
     1
 42
1.0
 92
        8
 66
     7
 43
1.0
 76
     1
 77
     6
 78
     2
 67
     7
 79
     5
170
     0
171
     0
290
     0
174
     0
 93
        1
 44
50.0
173
     0
291
     1
 45
0.0
1001
ACAD
1000
AcDbSavedByObjectVersion
1070
     0
  0
VISUALSTYLE
  5
395
102
{ACAD_REACTORS
330
15
102
}
330
15
100
AcDbVisualStyle
  2
ColorChange
 70
    16
 71
     2
 72
     2
 73
     3
 90
        0
 40
-0.6
 41
-30.0
 62
     5
 63
     8
 74
     1
 91
        4
 64
     7
 65
   257
 75
     1
175
     1
 42
1.0
 92
        8
 66
     8
 43
1.0
 76
     1
 77
     6
 78
     2
 67
     7
 79
     5
170
     0
171
     0
290
     0
174
     0
 93
        1
 44
0.0
173
     0
291
     1
 45
0.0
1001
ACAD
1000
AcDbSavedByObjectVersion
1070
     0
  0
VISUALSTYLE
  5
38F
102
{ACAD_REACTORS
330
15
102
}
330
15
100
AcDbVisualStyle
  2
Conceptual
 70
     9
 71
     3
 72
     2
 73
     0
 90
        0
 40
-0.6
 41
-30.0
 62
     5
 63
     7
 74
     2
 91
        2
 64
     7
 65
   257
 75
     1
175
     1
 42
40.0
 92
        8
 66
     7
 43
1.0
 76
     1
 77
     6
 78
     2
 67
     7
 79
     3
170
     0
171
     0
290
     0
174
     0
 93
        1
 44
0.0
173
     0
291
     0
 45
0.0
1001
ACAD
1000
AcDbSavedByObjectVersion
1070
     0
  0
VISUALSTYLE
  5
390
102
{ACAD_REACTORS
330
15
102
}
330
15
100
AcDbVisualStyle
  2
Dim
 70
    11
 71
     2
 72
     2
 73
     0
 90
        0
 40
-0.6
 41
-30.0
 62
     5
 63
     7
 74
     1
 91
        4
 64
     7
 65
   257
 75
     1
175
     1
 42
1.0
 92
        8
 66
     7
 43
1.0
 76
     1
 77
     6
 78
     2
 67
     7
 79
     5
170
     0
171
     0
290
     0
174
     0
 93
        1
 44
-50.0
173
     0
291
     1
 45
0.0
1001
ACAD
1000
AcDbSavedByObjectVersion
1070
     0
  0
VISUALSTYLE
  5
394
102
{ACAD_REACTORS
330
15
102
}
330
15
100
AcDbVisualStyle
  2
Facepattern
 70
    15
 71
     2
 72
     2
 73
     0
 90
        0
 40
-0.6
 41
-30.0
 62
     5
 63
     7
 74
     1
 91
        4
 64
     7
 65
   257
 75
     1
175
     1
 42
1.0
 92
        8
 66
     7
 43
1.0
 76
     1
 77
     6
 78
     2
 67
     7
 79
     5
170
     0
171
     0
290
     0
174
     0
 93
        1
 44
0.0
173
     0
291
     1
 45
0.0
1001
ACAD
1000
AcDbSavedByObjectVersion
1070
     0
  0
VISUALSTYLE
  5
389
102
{ACAD_REACTORS
330
15
102
}
330
15
100
AcDbVisualStyle
  2
Flat
 70
     0
 71
     2
 72
     1
 73
     1
 90
        2
 40
-0.6
 41
30.0
 62
     5
 63
     7
 74
     0
 91
        4
 64
     7
 65
   257
 75
     1
175
     1
 42
1.0
 92
        8
 66
     7
 43
1.0
 76
     1
 77
     6
 78
     2
 67
     7
 79
     5
170
     0
171
     0
290
     0
174
     0
 93
       13
 44
0.0
173
     0
291
     0
 45
0.0
1001
ACAD
1000
AcDbSavedByObjectVersion
1070
     0
  0
VISUALSTYLE
  5
38A
102
{ACAD_REACTORS
330
15
102
}
330
15
100
AcDbVisualStyle
  2
FlatWithEdges
 70
     1
 71
     2
 72
     1
 73
     1
 90
        2
 40
-0.6
 41
30.0
 62
     5
 63
     7
 74
     1
 91
        4
 64
     7
 65
   257
 75
     1
175
     1
 42
1.0
 92
        0
 66
   257
 43
1.0
 76
     1
 77
     6
 78
     2
 67
     7
 79
     5
170
     0
171
     0
290
     0
174
     0
 93
       13
 44
0.0
173
     0
291
     0
 45
0.0
1001
ACAD
1000
AcDbSavedByObjectVersion
1070
     0
  0
VISUALSTYLE
  5
38B
102
{ACAD_REACTORS
330
15
102
}
330
15
100
AcDbVisualStyle
  2
Gouraud
 70
     2
 71
     2
 72
     2
 73
     1
 90
        2
 40
-0.6
 41
30.0
 62
     5
 63
     7
 74
     0
 91
        4
 64
     7
 65
   257
 75
     1
175
     1
 42
1.0
 92
        0
 66
     7
 43
1.0
 76
     1
 77
     6
 78
     2
 67
     7
 79
     5
170
     0
171
     0
290
     0
174
     0
 93
       13
 44
0.0
173
     0
291
     0
 45
0.0
1001
ACAD
1000
AcDbSavedByObjectVersion
1070
     0
  0
VISUALSTYLE
  5
38C
102
{ACAD_REACTORS
330
15
102
}
330
15
100
AcDbVisualStyle
  2
GouraudWithEdges
 70
     3
 71
     2
 72
     2
 73
     1
 90
        2
 40
-0.6
 41
30.0
 62
     5
 63
     7
 74
     1
 91
        4
 64
     7
 65
   257
 75
     1
175
     1
 42
1.0
 92
        0
 66
   257
 43
1.0
 76
     1
 77
     6
 78
     2
 67
     7
 79
     5
170
     0
171
     0
290
     0
174
     0
 93
       13
 44
0.0
173
     0
291
     0
 45
0.0
1001
ACAD
1000
AcDbSavedByObjectVersion
1070
     0
  0
VISUALSTYLE
  5
393
102
{ACAD_REACTORS
330
15
102
}
330
15
100
AcDbVisualStyle
  2
Linepattern
 70
    14
 71
     2
 72
     2
 73
     0
 90
        0
 40
-0.6
 41
-30.0
 62
     5
 63
     7
 74
     1
 91
        4
 64
     7
 65
   257
 75
     7
175
     7
 42
1.0
 92
        8
 66
     7
 43
1.0
 76
     1
 77
     6
 78
     2
 67
     7
 79
     5
170
     0
171
     0
290
     0
174
     0
 93
        1
 44
0.0
173
     0
291
     1
 45
0.0
1001
ACAD
1000
AcDbSavedByObjectVersion
1070
     0
  0
VISUALSTYLE
  5
39E
102
{ACAD_REACTORS
330
15
102
}
330
15
100
AcDbVisualStyle
  2

 70
     8
 71
     2
 72
     2
 73
     0
 90
        0
 40
-0.6
 41
-30.0
 62
     5
 63
     7
 74
     0
 91
        0
 64
     7
 65
   257
 75
     1
175
     1
 42
1.0
 92
        8
 66
     8
 43
1.0
 76
     1
 77
     6
 78
     2
 67
     7
 79
     5
170
     0
171
     0
290
     0
174
     0
 93
       13
 44
0.0
173
     0
291
     0
 45
0.0
1001
ACAD
1000
AcDbSavedByObjectVersion
1070
     0
  0
VISUALSTYLE
  5
39F
102
{ACAD_REACTORS
330
15
102
}
330
15
100
AcDbVisualStyle
  2

 70
     8
 71
     2
 72
     2
 73
     0
 90
        0
 40
-0.6
 41
-30.0
 62
     5
 63
     7
 74
     1
 91
        0
 64
     7
 65
   257
 75
     1
175
     1
 42
1.0
 92
        8
 66
     8
 43
1.0
 76
     1
 77
     6
 78
     2
 67
     7
 79
     5
170
     0
171
     0
290
     0
174
     0
 93
       13
 44
0.0
173
     0
291
     0
 45
0.0
1001
ACAD
1000
AcDbSavedByObjectVersion
1070
     0
  0
VISUALSTYLE
  5
5E
102
{ACAD_REACTORS
330
15
102
}
330
15
100
AcDbVisualStyle
  2
Realistic
 70
     8
 71
     2
 72
     2
 73
     0
 90
        0
 40
-0.6
 41
-30.0
 62
     5
 63
     7
 74
     1
 91
        0
 64
     7
 65
   257
 75
     1
175
     1
 42
1.0
 92
        8
 66
     8
 43
1.0
 76
     1
 77
     6
 78
     2
 67
     7
 79
     5
170
     0
171
     0
290
     0
174
     0
 93
       13
 44
0.0
173
     0
291
     0
 45
0.0
1001
ACAD
1000
AcDbSavedByObjectVersion
1070
     0
  0
VISUALSTYLE
  5
392
102
{ACAD_REACTORS
330
15
102
}
330
15
100
AcDbVisualStyle
  2
Thicken
 70
    13
 71
     2
 72
     2
 73
     0
 90
        0
 40
-0.6
 41
-30.0
 62
     5
 63
     7
 74
     1
 91
        4
 64
     7
 65
   257
 75
     1
175
     1
 42
1.0
 92
       12
 66
     7
 43
1.0
 76
     1
 77
     6
 78
     2
 67
     7
 79
     5
170
     0
171
     0
290
     0
174
     0
 93
        1
 44
0.0
173
     0
291
     1
 45
0.0
1001
ACAD
1000
AcDbSavedByObjectVersion
1070
     0
  0
DICTIONARYVAR
  5
387
102
{ACAD_REACTORS
330
386
102
}
330
386
100
DictionaryVariables
280
     0
  1
STANDARD
  0
DICTIONARYVAR
  5
3AB
102
{ACAD_REACTORS
330
386
102
}
330
386
100
DictionaryVariables
280
     0
  1
1
  0
DICTIONARYVAR
  5
3AA
102
{ACAD_REACTORS
330
386
102
}
330
386
100
DictionaryVariables
280
     0
  1
1
  0
DICTIONARYVAR
  5
3A9
102
{ACAD_REACTORS
330
386
102
}
330
386
100
DictionaryVariables
280
     0
  1
0
  0
DICTIONARYVAR
  5
3A8
102
{ACAD_REACTORS
330
386
102
}
330
386
100
DictionaryVariables
280
     0
  1
127
  0
DICTIONARY
  5
1B
330
1A
100
AcDbDictionary
280
     1
281
     1
  3
ACAD_XREC_ROUNDTRIP
360
3B1
  3
ADSK_XREC_LAYOUTTHUMBNAIL
360
1C
  0
DICTIONARY
  5
3AF
330
11
100
AcDbDictionary
280
     1
281
     1
  3
ACAD_XREC_ROUNDTRIP
360
3B0
  0
DICTIONARY
  5
3B4
330
54
100
AcDbDictionary
280
     1
281
     1
  3
ACAD_XREC_ROUNDTRIP
360
3B5
  0
DICTIONARY
  5
3B2
330
53
100
AcDbDictionary
280
     1
281
     1
  3
ACAD_XREC_ROUNDTRIP
360
3B3
  0
DICTIONARY
  5
3AD
330
C
100
AcDbDictionary
280
     1
281
     1
  3
ACAD_XREC_ROUNDTRIP
360
3AE
  0
DICTIONARY
  5
5C
330
5B
100
AcDbDictionary
280
     1
281
     1
  3
ACAD_ROUNDTRIP_2008_TABLESTYLE_CELLSTYLEMAP
360
5D
  3
ACAD_XREC_ROUNDTRIP
360
3B6
  0
XRECORD
  5
3B1
102
{ACAD_REACTORS
330
1B
102
}
330
1B
100
AcDbXrecord
280
     1
102
SHADEPLOT
 70
     0
102
SHADEPLOTRESLEVEL
 70
     2
102
SHADEPLOTCUSTOMDPI
 70
   300
  0
XRECORD
  5
1C
102
{ACAD_REACTORS
330
1B
102
}
330
1B
100
AcDbXrecord
280
     1
310
28000000B40000008A000000010008000000000008610000000000000000000000010000000000000000000000000000FFFFFF000000000000000000000000000000000000000000000000000000000000000000330000006600000099000000CC000000FF00000000330000333300006633000099330000CC330000FF3300
310
0000660000336600006666000099660000CC660000FF66000000990000339900006699000099990000CC990000FF99000000CC000033CC000066CC000099CC0000CCCC0000FFCC000000FF000033FF000066FF000099FF0000CCFF0000FFFF000000003300330033006600330099003300CC003300FF003300003333003333
310
33006633330099333300CC333300FF33330000663300336633006666330099663300CC663300FF66330000993300339933006699330099993300CC993300FF99330000CC330033CC330066CC330099CC3300CCCC3300FFCC330000FF330033FF330066FF330099FF3300CCFF3300FFFF330000006600330066006600660099
310
006600CC006600FF00660000336600333366006633660099336600CC336600FF33660000666600336666006666660099666600CC666600FF66660000996600339966006699660099996600CC996600FF99660000CC660033CC660066CC660099CC6600CCCC6600FFCC660000FF660033FF660066FF660099FF6600CCFF6600
310
FFFF660000009900330099006600990099009900CC009900FF00990000339900333399006633990099339900CC339900FF33990000669900336699006666990099669900CC669900FF66990000999900339999006699990099999900CC999900FF99990000CC990033CC990066CC990099CC9900CCCC9900FFCC990000FF99
310
0033FF990066FF990099FF9900CCFF9900FFFF99000000CC003300CC006600CC009900CC00CC00CC00FF00CC000033CC003333CC006633CC009933CC00CC33CC00FF33CC000066CC003366CC006666CC009966CC00CC66CC00FF66CC000099CC003399CC006699CC009999CC00CC99CC00FF99CC0000CCCC0033CCCC0066CC
310
CC0099CCCC00CCCCCC00FFCCCC0000FFCC0033FFCC0066FFCC0099FFCC00CCFFCC00FFFFCC000000FF003300FF006600FF009900FF00CC00FF00FF00FF000033FF003333FF006633FF009933FF00CC33FF00FF33FF000066FF003366FF006666FF009966FF00CC66FF00FF66FF000099FF003399FF006699FF009999FF00CC
310
99FF00FF99FF0000CCFF0033CCFF0066CCFF0099CCFF00CCCCFF00FFCCFF0000FFFF0033FFFF0066FFFF0099FFFF00CCFFFF00FFFFFF00000000000D0D0D001A1A1A00282828003535350043434300505050005D5D5D006B6B6B00787878008686860093939300A1A1A100AEAEAE00BBBBBB00C9C9C900D6D6D600E4E4E400
310
F1F1F100FFFFFF0000000000000000000000000000000000000000000000000000000000000000000000000000000000F5F5F5F5F5F5F5F5F5F5F5F5F5F5F5F5F5F5F5F5F5F5F5F5F5F5F5F5F5F5F5F5F5F5F5F5F5F5F5F5F5F5F5F5F5F5F5F5F5F5F5F5F5F5F5F5F5F5F5F5F5F5F5F5F5F5F5F5F5F5F5F5F5F5F5F5F5F5F5
310
F5F5F5F5F5F5F5F5F5F5F5F5F5F5F5F5F5F5F5F5F5F5F5F5F5F5F5F5F5F5F5F5F5F5F5F5F5F5F5F5F5F5F5F5F5F5F5F5F5F5F5F5F5F5F5F5F5F5F5F5F5F5F5F5F5F5F5F5F5F5F5F5F5F5F5F5F5F5F5F5F5F5F5F5F5F5F5F5F5F5F5F5F5F5F5F5F5F5F5F5EFF5E2E2E2E2E2E2E2E2E2E2E2E2E2E2E2E2E2E2E2E2E2E2E2E2E2
310
E2E2E2E2E2E2E2E2E2E2E2E2E2E2E2E2E2E2E2E2E2E2E2E2E2E2E2E2E2E2E2E2E2E2E2E2E2E2E2E2E2E2E2E2E2E2E2E2E2E2E2E2E2E2E2E2E2E2E2E2E2E2E2E2E2E2E2E2E2E2E2E2E2E2E2E2E2E2E2E2E2E2E2E2E2E2E2E2E2E2E2E2E2E2E2E2E2E2E2E2E2E2E2E2E2E2E2E2E2E2E2E2E2E2E2E2E2E2E2E2E2E2E2E2E2E2E2
310
E2E2E2E2E2E2E2E2E2E2E2E2E2E2E2E2E2E2E2E2E2E2E2E2F5F5EFF5E2E2E2E2E2E2E2E2E2E2E2E2E2E2E2E2E2E2E2E2E2E2E2E2E2E2E2E2E2E2E2E2E2E2E2E2E2E2E2E2E2E2E2E2E2E2E2E2E2E2E2E2E2E2E2E2E2E2E2E2E2E2E2E2E2E2E2E2E2E2E2E2E2E2E2E2E2E2E2E2E2E2E2E2E2E2E2E2E2E2E2E2E2E2E2E2E2E2E2
310
E2E2E2E2E2E2E2E2E2E2E2E2E2E2E2E2E2E2E2E2E2E2E2E2E2E2E2E2E2E2E2E2E2E2E2E2E2E2E2E2E2E2E2E2E2E2E2E2E2E2E2E2E2E2E2E2E2E2E2E2E2E2E2E2E2E2E2E2E2E2E2E2E2E2E2E2E2F5F5EFF5E2E2E2E2E2E2E2E2E2E2E2E2E2E2E2E2E2E2E2E2E2E2E2E2E2E2E2E2E2E2E2E2E2E2E2E2E2E2E2E2E2E2E2E2E2E2
310
E2E2E2E2E2E2E2E2E2E2E2E2E2E2E2E2E2E2E2E2E2E2E2E2E2E2E2E2E2E2E2E2E2E2E2E2E2E2E2E2E2E2E2E2E2E2E2E2E2E2E2E2E2E2E2E2E2E2E2E2E2E2E2E2E2E2E2E2E2E2E2E2E2E2E2E2E2E2E2E2E2E2E2E2E2E2E2E2E2E2E2E2E2E2E2E2E2E2E2E2E2E2E2E2E2E2E2E2E2E2E2E2E2E2E2E2E2E2E2E2E2E2E2E2E2E2E2
310
E2E2E2F5F5EFF5E2E2E2F5F5F5F5F5F5F5F5E2E2E2E2E2E2E2E2E2F5F5F5F5F5F5F5F5F5F5F5F5F5F5F5E2E2E2E2E2E2E2E2E2F5F5F5F5F5F5F5F5F5F5F5F5F5F5F5F5E2E2E2E2E2E2E2E2F5F5F5F5F5F5F5F5F5F5F5F5F5F5F5F5E2E2E2E2E2E2E2E2F5F5F5F5F5F5F5F5F5F5F5F5F5F5F5F5E2E2E2E2E2E2E2E2F5F5F5F5
310
F5F5F5F5F5F5F5F5F5F5F5F5E2E2E2E2E2E2E2E2E2F5F5F5F5F5F5F5F5F5F5F5F5F5F5F5E2E2E2E2E2E2E2E2E2F5F5F5F5F5F5F5F5E2E2E2F5F5EFF5E2E2E2F5E2E2E2E2E2E2E2E2E2E2E2E2E2E2E2E2E2E2E2E2E2E2E2E2E2E2E2E2E2E2E2E2E2E2E2E2E2E2E2E2E2E2E2E2E2E2E2E2E2E2E2E2E2E2E2E2E2E2E2E2E2E2E2
310
E2E2E2E2E2E2E2E2E2E2E2E2E2E2E2E2E2E2E2E2E2E2E2E2E2E2E2E2E2E2E2E2E2E2E2E2E2E2E2E2E2E2E2E2E2E2E2E2E2E2E2E2E2E2E2E2E2E2E2E2E2E2E2E2E2E2E2E2E2E2E2E2E2E2E2E2E2E2E2E2E2E2E2E2E2E2E2E2E2E2E2E2E2E2E2E2E2E2E2E2E2E2E2E2E2F5E2E2E2F5F5EFF5E2E2E2F5E2E2E2E2E2E2E2E2E2E2
310
E2E2E2E2E2E2E2E2E2E2E2E2E2E2E2E2E2E2E2E2E2E2E2E2E2E2E2E2E2E2E2E2E2E2E2E2E2E2E2E2E2E2E2E2E2E2E2E2E2E2E2E2E2E2E2E2E2E2E2E2E2E2E2E2E2E2E2E2E2E2E2E2E2E2E2E2E2E2E2E2E2E2E2E2E2E2E2E2E2E2E2E2E2E2E2E2E2E2E2E2E2E2E2E2E2E2E2E2E2E2E2E2E2E2E2E2E2E2E2E2E2E2E2E2E2E2E2
310
E2E2E2E2E2E2E2E2E2E2E2E2E2E2E2E2E2E2E2E2E2E2E2E2E2E2E2E2E2E2E2F5E2E2E2F5F5EFF5E2E2E2F5E2E2E2E2E2E2E2E2E2E2E2E2E2E2E2E2E2E2E2E2E2E2E2E2E2E2E2E2E2E2E2E2E2E2E2E2E2E2E2E2E2E2E2E2E2E2E2E2E2E2E2E2E2E2E2E2E2E2E2E2E2E2E2E2E2E2E2E2E2E2E2E2E2E2E2E2E2E2E2E2E2E2E2E2
310
E2E2E2E2E2E2E2E2E2E2E2E2E2E2E2E2E2E2E2E2E2E2E2E2E2E2E2E2E2E2E2E2E2E2E2E2E2E2E2E2E2E2E2E2E2E2E2E2E2E2E2E2E2E2E2E2E2E2E2E2E2E2E2E2E2E2E2E2E2E2E2E2E2E2E2E2E2E2E2E2E2E2E2E2F5E2E2E2F5F5EFF5E2E2E2F5E2E2E2E2E2E2E2E2E2E2E2E2E2E2E2E2E2E2E2E2E2E2E2E2E2E2E2E2E2E2E2
310
E2E2E2E2E2E2E2E2E2E2E2E2E2E2E2E2E2E2E2E2E2E2E2E2E2E2E2E2E2E2E2E2E2E2E2E2E2E2E2E2E2E2E2E2E2E2E2E2E2E2E2E2E2E2E2E2E2E2E2E2E2E2E2E2E2E2E2E2E2E2E2E2E2E2E2E2E2E2E2E2E2E2E2E2E2E2E2E2E2E2E2E2E2E2E2E2E2E2E2E2E2E2E2E2E2E2E2E2E2E2E2E2E2E2E2E2E2E2E2E2E2E2E2E2E2E2E2
310
E2E2E2E2E2E2E2E2E2E2F5E2E2E2F5F5EFF5E2E2E2F5E2E2E2E2E2E2E2E2E2E2E2E2E2E2E2E2E2E2E2E2E2E2E2E2E2E2E2E2E2E2E2E2E2E2E2E2E2E2E2E2E2E2E2E2E2E2E2E2E2E2E2E2E2E2E2E2E2E2E2E2E2E2E2E2E2E2E2E2E2E2E2E2E2E2E2E2E2E2E2E2E2E2E2E2E2E2E2E2E2E2E2E2E2E2E2E2E2E2E2E2E2E2E2E2E2
310
E2E2E2E2E2E2E2E2E2E2E2E2E2E2E2E2E2E2E2E2E2E2E2E2E2E2E2E2E2E2E2E2E2E2E2E2E2E2E2E2E2E2E2E2E2E2E2E2E2E2E2E2E2E2E2E2E2E2E2E2E2E2E2F5E2E2E2F5F5EFF5E2E2E2F5E2E2E2E2E2E2E2E2E2E2E2E2E2E2E2E2E2E2E2E2E2E2E2E2E2E2E2E2E2E2E2E2E2E2E2E2E2E2E2E2E2E2E2E2E2E2E2E2E2E2E2E2
310
E2E2E2E2E2E2E2E2E2E2E2E2E2E2E2E2E2E2E2E2E2E2E2E2E2E2E2E2E2E2E2E2E2E2E2E2E2E2E2E2E2E2E2E2E2E2E2E2E2E2E2E2E2E2E2E2E2E2E2E2E2E2E2E2E2E2E2E2E2E2E2E2E2E2E2E2E2E2E2E2E2E2E2E2E2E2E2E2E2E2E2E2E2E2E2E2E2E2E2E2E2E2E2E2E2E2E2E2E2E2E2E2E2E2E2E2F5E2E2E2F5F5EFF5E2E2E2
310
F5E2E2E2E2E2E2E2E2E2E2E2E2E2E2E2E2E2E2E2E2E2E2E2E2E2E2E2E2E2E2E2E2E2E2E2E2E2E2E2E2E2E2E2E2E2E2E2E2E2E2E2E2E2E2E2E2E2E2E2E2E2E2E2E2E2E2E2E2E2E2E2E2E2E2E2E2E2E2E2E2E2E2E2E2E2E2E2E2E2E2E2E2E2E2E2E2E2E2E2E2E2E2E2E2E2E2E2E2E2E2E2E2E2E2E2E2E2E2E2E2E2E2E2E2E2E2
310
E2E2E2E2E2E2E2E2E2E2E2E2E2E2E2E2E2E2E2E2E2E2E2E2E2E2E2E2E2E2E2E2E2E2E2E2E2E2E2E2E2E2F5E2E2E2F5F5EFF5E2E2E2F5E2E2E2E2E2E2E2E2E2E2E2E2E2E2E2E2E2E2E2E2E2E2E2E2E2E2E2E2E2E2E2E2E2E2E2E2E2E2E2E2E2E2E2E2E2E2E2E2E2E2E2E2E2E2E2E2E2E2E2E2E2E2E2E2E2E2E2E2E2E2E2E2E2
310
E2E2E2E2E2E2E2E2E2E2E2E2E2E2E2E2E2E2E2E2E2E2E2E2E2E2E2E2E2E2E2E2E2E2E2E2E2E2E2E2E2E2E2E2E2E2E2E2E2E2E2E2E2E2E2E2E2E2E2E2E2E2E2E2E2E2E2E2E2E2E2E2E2E2E2E2E2E2E2E2E2E2E2E2E2E2E2E2E2E2E2E2E2E2E2F5E2E2E2F5F5EFF5E2E2E2E2E2E2E2E2E2E2E2E2E2E2E2E2E2E2E2E2E2E2E2E2
310
E2E2E2E2E2E2E2E2E2E2E2E2E2E2E2E2E2E2E2E2E2E2E2E2E2E2E2E2E2E2E2E2E2E2E2E2E2E2E2E2E2E2E2E2E2E2E2E2E2E2E2E2E2E2E2E2E2E2E2E2E2E2E2E2E2E2E2E2E2E2E2E2E2E2E2E2E2E2E2E2E2E2E2E2E2E2E2E2E2E2E2E2E2E2E2E2E2E2E2E2E2E2E2E2E2E2E2E2E2E2E2E2E2E2E2E2E2E2E2E2E2E2E2E2E2E2E2
310
E2E2E2E2E2E2E2E2E2E2E2E2E2E2E2E2E2E2E2E2E2E2E2E2E2F5F5EFF5E2E2E2E2E2E2E2E2E2E2E2E2E2E2E2E2E2E2E2E2E2E2E2E2E2E2E2E2E2E2E2E2E2E2E2E2E2E2E2E2E2E2E2E2E2E2E2E2E2E2E2E2E2E2E2E2E2E2E2E2E2E2E2E2E2E2E2E2E2E2E2E2E2E2E2E2E2E2E2E2E2E2E2E2E2E2E2E2E2E2E2E2E2E2E2E2E2E2
310
E2E2E2E2E2E2E2E2E2E2E2E2E2E2E2E2E2E2E2E2E2E2E2E2E2E2E2E2E2E2E2E2E2E2E2E2E2E2E2E2E2E2E2E2E2E2E2E2E2E2E2E2E2E2E2E2E2E2E2E2E2E2E2E2E2E2E2E2E2E2E2E2E2E2E2E2E2E2F5F5EFF5E2E2E2E2E2E2E2E2E2E2E2E2E2E2E2E2E2E2E2E2E2E2E2E2E2E2E2E2E2E2E2E2E2E2E2E2E2E2E2E2E2E2E2E2E2
310
E2E2E2E2E2E2E2E2E2E2E2E2E2E2E2E2E2E2E2E2E2E2E2E2E2E2E2E2E2E2E2E2E2E2E2E2E2E2E2E2E2E2E2E2E2E2E2E2E2E2E2E2E2E2E2E2E2E2E2E2E2E2E2E2E2E2E2E2E2E2E2E2E2E2E2E2E2E2E2E2E2E2E2E2E2E2E2E2E2E2E2E2E2E2E2E2E2E2E2E2E2E2E2E2E2E2E2E2E2E2E2E2E2E2E2E2E2E2E2E2E2E2E2E2E2E2E2
310
E2E2E2E2F5F5EFF5E2E2E2E2E2E2E2E2E2E2E2E2E2E2E2E2E2E2E2E2E2E2E2E2E2E2E2E2E2E2E2E2E2E2E2E2E2E2E2E2E2E2E2E2E2E2E2E2E2E2E2E2E2E2E2E2E2E2E2E2E2E2E2E2E2E2E2E2E2E2E2E2E2E2E2E2E2E2E2E2E2E2E2E2E2E2E2E2E2E2E2E2E2E2E2E2E2E2E2E2E2E2E2E2E2E2E2E2E2E2E2E2E2E2E2E2E2E2E2
310
E2E2E2E2E2E2E2E2E2E2E2E2E2E2E2E2E2E2E2E2E2E2E2E2E2E2E2E2E2E2E2E2E2E2E2E2E2E2E2E2E2E2E2E2E2E2E2E2E2E2E2E2E2E2E2E2E2F5F5EFF5E2E2E2E2E2E2E2E2E2E2E2E2E2E2E2E2E2E2E2E2F5F5F5F5F5F5F5F5F5F5F5F5F5F5F5F5F5F5F5F5F5F5F5F5F5F5F5F5F5F5F5F5F5F5F5F5F5F5F5F5F5F5F5F5F5F5
310
F5F5F5F5F5F5F5F5F5F5F5F5F5F5F5F5F5F5F5F5F5F5F5F5F5F5F5F5F5F5F5F5F5F5F5F5F5F5F5F5F5F5F5F5F5F5F5F5F5F5F5F5F5F5F5F5F5F5F5F5F5F5F5F5F5F5F5F5F5F5F5F5F5F5F5F5F5F5F5F5F5F5F5F5F5F5F5F5F5F5E2E2E2E2E2E2E2E2E2E2E2E2E2E2E2E2E2E2E2E2F5F5EFF5E2E2E2E2E2E2E2E2E2E2E2E2E2
310
E2E2E2E2E2E2E2F5E2E2E2E2E2E2E2E2E2E2E2E2E2E2E2E2E2E2E2E2E2E2E2E2E2E2E2E2E2DCE2E2E2E2E2E2E2E2E2E2E2E2E2E2E2E2E2E2E2E2E2E2E2E2E2E2E2E2E2E2E2E2E2E2E2E2E2E2E2E2E2E2E2E2E2E2E2E2E2E2E2E2E2E2E2E2E2E2E2E2E2E2E2E2E2E2E2E2E2E2E2E2E2E2DCE2E2E2E2E2E2E2E2E2E2E2E2E2E2
310
E2E2E2E2E2E2E2E2E2E2E2E2E2E2E2F5E2E2E2E2E2E2E2E2E2E2E2E2E2E2E2E2E2E2E2E2F5F5EFF5E2E2E2E2E2E2E2E2E2E2E2E2E2E2E2E2E2E2E2E2F5E2E2E2E2E2E2E2E2E2E2E2E2E2E2E2E2E2E2E2E2E2E2E2E2E2E2E2E2E2DCE2E2E2E2E2E2E2E2E2E2E2E2E2E2E2E2E2E2E2E2E2E2E2E2E2E2E2E2E2E2E2E2E2E2E2E2
310
E2E2E2E2E2E2E2E2E2E2E2E2E2E2E2E2E2E2E2E2E2E2E2E2E2E2E2E2E2E2E2E2E2E2E2E2E2E2DCE2E2E2E2E2E2E2E2E2E2E2E2E2E2E2E2E2E2E2E2E2E2E2E2E2E2E2E2E2F5E2E2E2E2E2E2E2E2E2E2E2E2E2E2E2E2E2E2E2E2F5F5EFF5E2E2E2E2E2E2E2E2E2E2E2E2E2E2E2E2E2E2E2E2F5E2E2E2E2E2E2E2E2E2E2E2E2E2
310
E2E2E2E2E2E2E2E2E2E2E2E2E2E2E2E2DCE2E2E2E2E2E2E2E2E2E2E2E2E2E2E2E2E2E2E2E2E2E2E2E2E2E2E2E2E2E2E2E2E2E2E2E2E2E2E2E2E2E2E2E2E2E2E2E2E2E2E2E2E2E2E2E2E2E2E2E2E2E2E2E2E2E2E2E2E2E2E2E2E2E2DCE2E2E2E2E2E2E2E2E2E2E2E2E2E2E2E2E2E2E2E2E2E2E2E2E2E2E2E2E2F5E2E2E2E2E2
310
E2E2E2E2E2E2E2E2E2E2E2E2E2E2E2F5F5EFF5E2E2E2E2E2E2E2E2E2E2E2E2E2E2E2E2E2E2E2E2F5E2E2E2E2E2E2E2E2E2E2E2E2E2E2E2E2E2E2E2E2E2E2E2E2E2E2E2E2E2DCE2E2E2E2E2E2E2E2E2E2E2E2E2E2E2E2E2E2E2E2E2E2E2E2E2E2E2E2E2E2E2E2E2E2E2E2E2E2E2E2E2E2E2E2E2E2E2E2E2E2E2E2E2E2E2E2E2
310
E2E2E2E2E2E2E2E2E2E2E2E2E2E2E2E2E2DCE2E2E2E2E2E2E2E2E2E2E2E2E2E2E2E2E2E2E2E2E2E2E2E2E2E2E2E2E2F5E2E2E2E2E2E2E2E2E2E2E2E2E2E2E2E2E2E2E2E2F5F5EFF5E2E2E2F5E2E2E2E2E2E2E2E2E2E2E2E2E2E2E2E2F5E2E2E2E2E2E2E2E2E2E2E2E2E2E2E2E2E2E2E2E2E2E2E2E2E2E2E2E2E2DCE2E2E2E2
310
E2E2E2E2E2E2E2272727E2E22727E2E2E2E2E2E2E2E2E2E2E2E2E2E2E2E2E2E2E2E2E2E2E2E2E2E2E2E2E2E2E2E2E2E2E2E2E2E2E2E2E2E2E2E2E2E2E2E2E2E2E2E2E2E2E2E2DCE2E2E2E2E2E2E2E2E2E2E2E2E2E2E2E2E2E2E2E2E2E2E2E2E2E2E2E2E2F5E2E2E2E2E2E2E2E2E2E2E2E2E2E2E2E2F5E2E2E2F5F5EFF5E2E2
310
E2F5E2E2E2E2E2E2E2E2E2E2E2E2E2E2E2E2F5E2E2E2E2E2E2E2E2E2E2E2E2E2E2E2E2E2E2E2E2E2E2E2E2E2E2E2E2E2DCE2E2E2E2E2E2E2E2E2E2E2272727272727272727E2E2E2E2E2E2E2E2E2E2E2E2E2E2E2E2E2E2E2E2E2E2E2E2E2E2E2E2E2E2E2E2E2E2E2E2E2E2E2E2E2E2E2E2E2E2E2E2E2E2E2E2E2E2DCE2E2E2
310
E2E2E2E2E2E2E2E2E2E2E2E2E2E2E2E2E2E2E2E2E2E2E2E2E2E2F5E2E2E2E2E2E2E2E2E2E2E2E2E2E2E2E2F5E2E2E2F5F5EFF5E2E2E2F5E2E2E2E2E2E2E2E2E2E2E2E2E2E2E2E2F5E2E2E2E2E2E2E2E2E2E2E2E2E2E2E2E2E2E2E2E2E2E2E2E2E2E2E2E2E2DCE2E2E2E2E2E2E2E2E2E2E2272727272727272727E2E2E2E2E2
310
E2E2E2E2E2E2E2E2E2E2E2E2E2E2E2E2E2E2E2E2E2E2E2E2E2E2E2E2E2E2E2E2E2E2E2E2E2E2E2E2E2E2E2E2E2E2E2E2E2DCE2E2E2E2E2E2E2E2E2E2E2E2E2E2E2E2E2E2E2E2E2E2E2E2E2E2E2E2E2F5E2E2E2E2E2E2E2E2E2E2E2E2E2E2E2E2F5E2E2E2F5F5EFF5E2E2E2F5E2E2E2E2E2E2E2E2E2E2E2E2E2E2E2E2F5E2E2
310
E2E2E2E2E2E2E2E2E2E2E2E2E2E2E2E2E2E2E2E2E2E2E2E2E2E2E2DCE2E2E2E2E2E2E2E2E2E2E2E2E2E2E2E2E2E2E2E2E2E2E2E2E2E2E2E2E2E2E2E2E2E2E2E2E2E2E2E2E2E2E2E2E2E2E2E2E2E2E2E2E2E2E2E2E2E2E2E2E2E2E2E2E2E2E2E2E2E2E2E2E2E2DCE2E2E2E2E2E2E2E2E2E2E2E2E2E2E2E2E2E2E2E2E2E2E2E2
310
E2E2E2E2E2F5E2E2E2E2E2E2E2E2E2E2E2E2E2E2E2E2F5E2E2E2F5F5EFF5E2E2E2F5E2E2E2E2E2E2E2E2E2E2E2E2E2E2E2E2F5E2E2E2E2E2E2E2E2E2E2E2E2E2E2E2E2E2E2E2E2E2E2E2E2E2E2E2E2E2DCE2E2E2E2E2E2E2E2E2E2E2E2E2E2E2E2E2E2E2E2E2E2E2E2E2E2E2E2E2E2E2E2E2E2E2E2E2E2E2E2E2E2E2E2E2E2
310
E2E2E2E2E2E2E2E2E2E2E2E2E2E2E2E2E2E2E2E2E2E2E2E2E2E2E2E2DCE2E2E2E2E2E2E2E2E2E2E2E2E2E2E2E2E2E2E2E2E2E2E2E2E2E2E2E2E2F5E2E2E2E2E2E2E2E2E2E2E2E2E2E2E2E2F5E2E2E2F5F5EFF5E2E2E2F5E2E2E2E2E2E2E2E2E2E2E2E2E2E2E2E2F5E2E2E2E2E2E2E2E2E2E2E2E2E2E2E2E2E2E2E2E2E2E2E2
310
E2E2E2E2E2E2DCE2E2E2E2E2E2E2E2E2E2E2E2E2E2E2E2E2E2E2E2E2E2E2E2E2E2E2E2E2E2E2E2E2E2E2E2E2E2E2E2E2E2E2E2E2E2E2E2E2E2E2E2E2E2E2E2E2E2E2E2E2E2E2E2E2E2E2E2E2E2E2E2E2E2DCE2E2E2E2E2E2E2E2E2E2E2E2E2E2E2E2E2E2E2E2E2E2E2E2E2E2E2E2E2F5E2E2E2E2E2E2E2E2E2E2E2E2E2E2E2
310
E2F5E2E2E2F5F5EFF5E2E2E2F5E2E2E2E2E2E2E2E2E2E2E2E2E2E2E2E2F5E2E2E2E2E2E2E2E2E2E2E2E2E2E2E2E2E2E2E2E2E2E2E2E2E2E2E2E2E2DCE2E2E2E2E2E2E2E2E2E2E2E2E2E2E2E2E2E2E2E2E2E2E2E2E2E2E2E2E2E2E2E2E2E2E2E2E2E2E2E2E2E2E2E2E2E2E2E2E2E2E2E2E2E2E2E2E2E2E2E2E2E2E2E2E2E2E2
310
E2E2E2E2E2E2E2DCE2E2E2E2E2E2E2E2E2E2E2E2E2E2E2E2E2E2E2E2E2E2E2E2E2E2E2E2E2F5E2E2E2E2E2E2E2E2E2E2E2E2E2E2E2E2F5E2E2E2F5F5EFF5E2E2E2F5E2E2E2E2E2E2E2E2E2E2E2E2E2E2E2E2F5E2E2E2E2E2E2E2E2E2E2E2E2E2E2E2E2E2E2E2E2E2E2E2E2E2E2E2E2E2DCE2E2E2E2E2E2E2E2E2E2E2E2E2E2
310
E2E2E2E2E2E2E2E2E2E2E2E2E2E2E2E2E2E2E2E2E2E2E2E2E2E2E2E2E2E2E2E2E2E2E2E2E2E2E2E2E2E2E2E2E2E2E2E2E2E2E2E2E2E2E2E2E2E2E2E2DCE2E2E2E2E2E2E2E2E2E2E2E2E2E2E2E2E2E2E2E2E2E2E2E2E2E2E2E2E2F5E2E2E2E2E2E2E2E2E2E2E2E2E2E2E2E2F5E2E2E2F5F5EFF5E2E2E2F5E2E2E2E2E2E2E2E2
310
E2E2E2E2E2E2E2E2F5E2E2E2E2E2E2E2E2E2E2E2E2E2E2E2E2E2E2E2E2E2E2E2E2E2E2E2E2E2DCE2E2E2E2E2E2E2E2E2E2E2E2E2E2E2E2E2E2E2E2E2E2E2E2E2E2E2E2E2E2E2E2E2E2E2E2E2E2E2E2E2E2E2E2E2E2E2E2E2E2E2E2E2E2E2E2E2E2E2E2E2E2E2E2E2E2E2E2E2E2E2E2E2E2DCE2E2E2E2E2E2E2E2E2E2E2E2E2
310
E2E2E2E2E2E2E2E2E2E2E2E2E2E2E2E2F5E2E2E2E2E2E2E2E2E2E2E2E2E2E2E2E2F5E2E2E2F5F5EFF5E2E2E2F5E2E2E2E2E2E2E2E2E2E2E2E2E2E2E2E2F5E2E2E2E2E2E2E2E2E2E2E2E2E2E2E2E2E2E2E2E2E2E2E2E2E2E2E2E2E2DCE2E2E2E2E2E2E2E2E2E2E2E2E2E2E2E2E2E2E2E2E2E2E2E2E2E2E2E2E2E2E2E2E2E2E2
310
E2E2E2E2E2E2E2E2E2E2E2E2E2E2E2E2E2E2E2E2E2E2E2E2E2E2E2E2E2E2E2E2E2E2E2E2E2E2E2DCE2E2E2E2E2E2E2E2E2E2E2E2E2E2E2E2E2E2E2E2E2E2E2E2E2E2E2E2E2F5E2E2E2E2E2E2E2E2E2E2E2E2E2E2E2E2F5E2E2E2F5F5EFF5E2E2E2F5E2E2E2E2E2E2E2E2E2E2E2E2E2E2E2E2F5E2E2E2E2E2E2E2E2E2E2E2E2
310
E2E2E2E2E2E2E2E2E2E2E2E2E2E2E2E2E2DCE2E2E2E2E2E2E2E2E2E2E2E2E2E2E2E2E2E2E2E2E2E2E2E2E2E2E2E2E2E2E2E2E2E2E2E2E2E2E2E2E2E2E2E2E2E2E2E2E2E2E2E2E2E2E2E2E2E2E2E2E2E2E2E2E2E2E2E2E2E2E2E2E2E2DCE2E2E2E2E2E2E2E2E2E2E2E2E2E2E2E2E2E2E2E2E2E2E2E2E2E2E2E2E2F5E2E2E2E2
310
E2E2E2E2E2E2E2E2E2E2E2E2F5E2E2E2F5F5EFF5E2E2E2F5E2E2E2E2E2E2E2E2E2E2E2E2E2E2E2E2F5E2E2E2E2E2E2E2E2E2E2E2E2E2E2E2E2E2E2E2E2E2E2E2E2E2E2E2E2E2DCE2E2E2E2E2E2E2E2E2E2E2E2E2E2E2E2E2E2E2E2E2E2E2E2E2E2E2E2E2E2E2E2E2E2E2E2E2E2E2E2E2E2E2E2E2E2E2E2E2E2E2E2E2E2E2E2
310
E2E2E2E2E2E2E2E2E2E2E2E2E2E2E2E2E2E2DCE2E2E2E2E2E2E2E2E2E2E2E2E2E2E2E2E2E2E2E2E2E2E2E2E2E2E2E2E2F5E2E2E2E2E2E2E2E2E2E2E2E2E2E2E2E2F5E2E2E2F5F5EFF5E2E2E2F5E2E2E2E2E2E2E2E2E2E2E2E2E2E2E2E2F5E2E2E2E2E2E2E2E2E2E2E2E2E2E2E2E2E2E2E2E2E2E2E2E2E2E2E2E2E2DCE2E2E2
310
E2E2E2E2E2E2E2E2E2E2E2E2E2E2E2E2E2E2E2E2E2E2E2E2E2E2E2E2E2E2E2E2E2E2E2E2E2E2E2E2E2E2E2E2E2E2E2E2E2E2E2E2E2E2E2E2E2E2E2E2E2E2E2E2E2E2E2E2E2E2E2DCE2E2E2E2E2E2E2E2E2E2E2E2E2E2E2E2E2E2E2E2E2E2E2E2E2E2E2E2E2F5E2E2E2E2E2E2E2E2E2E2E2E2E2E2E2E2F5E2E2E2F5F5EFF5E2
310
E2E2F5E2E2E2E2E2E2E2E2E2E2E2E2E2E2E2E2F5E2E2E2E2E2E2E2E2E2E2E2E2E2E2E2E2E2E2E2E2E2E2E2E2E2E2E2E2E2DCE2E2E2E2E2E2E2E2E2E2E2E2E2E2E2E2E2E2E2E2E2E2E2E2E2E2E2E2E2E2E2E2E2E2E2E2E2E2E2E2E2E2E2E2E2E2E2E2E2E2E2E2E2E2E2E2E2E2E2E2E2E2E2E2E2E2E2E2E2E2E2E2E2E2DCE2E2
310
E2E2E2E2E2E2E2E2E2E2E2E2E2E2E2E2E2E2E2E2E2E2E2E2E2E2E2F5E2E2E2E2E2E2E2E2E2E2E2E2E2E2E2E2F5E2E2E2F5F5EFF5E2E2E2F5E2E2E2E2E2E2E2E2E2E2E2E2E2E2E2E2F5E2E2E2E2E2E2E2E2E2E2E2E2E2E2E2E2E2E2E2E2E2E2E2E2E2E2E2E2E2DCE2E2E2E2E2E2E2E2E2E2E2E2E2E2E2E2E2E2E2E2E2E2E2E2
310
E2E2E2E2E2E2E2E2E2E2E2E2E2E2E2E2E2E2E2E2E2E2E2E2E2E2E2E2E2E2E2E2E2E2E2E2E2E2E2E2E2E2E2E2E2E2E2E2E2E2DCE2E2E2E2E2E2E2E2E2E2E2E2E2E2E2E2E2E2E2E2E2E2E2E2E2E2E2E2E2F5E2E2E2E2E2E2E2E2E2E2E2E2E2E2E2E2F5E2E2E2F5F5EFF5E2E2E2F5E2E2E2E2E2E2E2E2E2E2E2E2E2E2E2E2F5E2
310
E2E2E2E2E2E2E2E2E2E2E2E2E2E2E2E2E2E2E2E2E2E2E2E2E2E2E2E2DCE2E2E2E2E2E2E2E2E2E2E2E2E2E2E2E2E2E2E2E2E2E2E2E2E2E2E2E2E2E2E2E2E2E2E2E2E2E2E2E2E2E2E2E2E2E2E2E2E2E2E2E2E2E2E2E2E2E2E2E2E2E2E2E2E2E2E2E2E2E2E2E2E2E2DCE2E2E2E2E2E2E2E2E2E2E2E2E2E2E2E2E2E2E2E2E2E2E2
310
E2E2E2E2E2E2F5E2E2E2E2E2E2E2E2E2E2E2E2E2E2E2E2F5E2E2E2F5F5EFF5E2E2E2F5E2E2E2E2E2E2E2E2E2E2E2E2E2E2E2E2F5E2E2E2E2E2E2E2E2E2E2E2E2E2E2E2E2E2E2E2E2E2E2E2E2E2E2E2E2E2DCE2E2E2E2E2E2E2E2E2E2E2E2E2E2E2E2E2E2E2E2E2E2E2E2E2E2E2E2E2E2E2E2E2E2E2E2E2E2E2E2E2E2E2E2E2
310
E2E2E2E2E2E2E2E2E2E2E2E2E2E2E2E2E2E2E2E2E2E2E2E2E2E2E2E2E2DCE2E2E2E2E2E2E2E2E2E2E2E2E2E2E2E2E2E2E2E2E2E2E2E2E2E2E2E2E2F5E2E2E2E2E2E2E2E2E2E2E2E2E2E2E2E2F5E2E2E2F5F5EFF5E2E2E2E2E2E2E2E2E2E2E2E2E2E2E2E2E2E2E2E2F5E2E2E2E2E2E2E2E2E2E2E2E2E2E2E2E2E2E2E2E2E2E2
310
E2E2E2E2E2E2E2DCE2E2E2E2E2E2E2E2E2E2E2E2E2E2E2E2E2E2E2E2E2E2E2E2E2E2E2E2E2E2E2E2E2E2E2E2E2E2E2E2E2E2E2E2E2E2E2E2E2E2E2E2E2E2E2E2E2E2E2E2E2E2E2E2E2E2E2E2E2E2E2E2E2E2DCE2E2E2E2E2E2E2E2E2E2E2E2E2E2E2E2E2E2E2E2E2E2E2E2E2E2E2E2E2F5E2E2E2E2E2E2E2E2E2E2E2E2E2E2
310
E2E2E2E2E2E2F5F5EFF5E2E2E2E2E2E2E2E2E2E2E2E2E2E2E2E2E2E2E2E2F5E2E2E2E2E2E2E2E2E2E2E2E2E2E2E2E2E2E2E2E2E2E2E2E2E2E2E2E2E2DCE2E2E2E2E2E2E2E2E2E2E2E2E2E2E2E2E2E2E2E2E2E2E2E2E2E2E2E2E2E2E2E2E2E2E2E2E2E2E2E2E2E2E2E2E2E2E2E2E2E2E2E2E2E2E2E2E2E2E2E2E2E2E2E2E2E2
310
E2E2E2E2E2E2E2E2DCE2E2E2E2E2E2E2E2E2E2E2E2E2E2E2E2E2E2E2E2E2E2E2E2E2E2E2E2E2F5E2E2E2E2E2E2E2E2E2E2E2E2E2E2E2E2E2E2E2E2F5F5EFF5E2E2E2E2E2E2E2E2E2E2E2E2E2E2E2E2E2E2E2E2F5E2E2E2E2E2E2E2E2E2E2E2E2E2E2E2E2E2E2E2E2E2E2E2E2E2E2E2E2E2DCE2E2E2E2E2E2E2E2E2E2E2E2E2
310
E2E2E2E2E2E2E2E2E2E2E2E2E2E2E2E2E2E2E2E2E2E2E2E2E2E2E2E2E2E2E2E2E2E2E2E2E2E2E2E2E2E2E2E2E2E2E2E2E2E2E2E2E2E2E2E2E2E2E2E2E2DCE2E2E2E2E2E2E2E2E2E2E2E2E2E2E2E2E2E2E2E2E2E2E2E2E2E2E2E2E2F5E2E2E2E2E2E2E2E2E2E2E2E2E2E2E2E2E2E2E2E2F5F5EFF5E2E2E2E2E2E2E2E2E2E2E2
310
E2E2E2E2E2E2E2E2E2F5E2E2E2E2E2E2E2E2E2E2E2E2E2E2E2E2E2E2E2E2E2E2E2E2E2E2E2E2E2DCE2E2E2E2E2E2E2E2E2E2E2E2E2E2E2E2E2E2E2E2E2E2E2E2E2E2E2E2E2E2E2E2E2E2E2E2E2E2E2E2E2E2E2E2E2E2E2E2E2E2E2E2E2E2E2E2E2E2E2E2E2E2E2E2E2E2E2E2E2E2E2E2E2E2DCE2E2E2E2E2E2E2E2E2E2E2E2
310
E2E2E2E2E2E2E2E2E2E2E2E2E2E2E2E2E2F5E2E2E2E2E2E2E2E2E2E2E2E2E2E2E2E2E2E2E2E2F5F5EFF5E2E2E2E2E2E2E2E2E2E2E2E2E2E2E2E2E2E2E2E2F5E2E2E2E2E2E2E2E2E2E2E2E2E2E2E2E2E2E2E2E2E2E2E2E2E2E2E2E2E2DCE2E2E2E2E2E2E2E2E2E2E2E2E2E2E2E2E2E2E2E2E2E2E2E2E2E2E2E2E2E2E2E2E2E2
310
E2E2E2E2E2E2E2E2E2E2E2E2E2E2E2E2E2E2E2E2E2E2E2E2E2E2E2E2E2E2E2E2E2E2E2E2E2E2E2E2DCE2E2E2E2E2E2E2E2E2E2E2E2E2E2E2E2E2E2E2E2E2E2E2E2E2E2E2E2E2F5E2E2E2E2E2E2E2E2E2E2E2E2E2E2E2E2E2E2E2E2F5F5EFF5E2E2E2E2E2E2E2E2E2E2E2E2E2E2E2E2E2E2E2E2F5E2E2E2E2E2E2E2E2E2E2E2
310
E2E2E2E2E2E2E2E2E2E2E2E2E2E2E2E2E2E2DCE2E2E2E2E2E2E2E2E2E2E2E2E2E2E2E2E2E2E2E2E2E2E2E2E2E2E2E2E2E2E2E2E2E2E2E2E2E2E2E2E2E2E2E2E2E2E2E2E2E2E2E2E2E2E2E2E2E2E2E2E2E2E2E2E2E2E2E2E2E2E2E2E2E2DCE2E2E2E2E2E2E2E2E2E2E2E2E2E2E2E2E2E2E2E2E2E2E2E2E2E2E2E2E2F5E2E2E2
310
E2E2E2E2E2E2E2E2E2E2E2E2E2E2E2E2E2F5F5EFF5E2E2E2E2E2E2E2E2E2E2E2E2E2E2E2E2E2E2E2E2F5E2E2E2E2E2E2E2E2E2E2E2E2E2E2E2E2E2E2E2E2E2E2E2E2E2E2E2E2E2DCE2E2E2E2E2E2E2E2E2E2E2E2E2E2E2E2E2E2E2E2E2E2E2E2E2E2E2E2E2E2E2E2E2E2E2E2E2E2E2E2E2E2E2E2E2E2E2E2E2E2E2E2E2E2E2
310
E2E2E2E2E2E2E2E2E2E2E2E2E2E2E2E2E2E2E2DCE2E2E2E2E2E2E2E2E2E2E2E2E2E2E2E2E2E2E2E2E2E2E2E2E2E2E2E2E2F5E2E2E2E2E2E2E2E2E2E2E2E2E2E2E2E2E2E2E2E2F5F5EFF5E2E2E2E2E2E2E2E2E2E2E2E2E2E2E2E2E2E2E2E2F5E2E2E2E2E2E2E2E2E2E2E2E2E2E2E2E2E2E2E2E2E2E2E2E2E2E2E2E2E2DCE2E2
310
E2E2E2E2E2E2E2E2E2E2E2E2E2E2E2E2E2E2E2E2E2E2E2E2E2E2E2E2E2E2E2E2E2E2E2E2E2E2E2E2E2E2E2E2E2E2E2E2E2E2E2E2E2E2E2E2E2E2E2E2E2E2E2E2E2E2E2E2E2E2E2E2DCE2E2E2E2E2E2E2E2E2E2E2E2E2E2E2E2E2E2E2E2E2E2E2E2E2E2E2E2E2F5E2E2E2E2E2E2E2E2E2E2E2E2E2E2E2E2E2E2E2E2F5F5EFF5
310
E2E2E2E2E2E2E2E2E2E2E2E2E2E2E2E2E2E2E2E2F5E2E2E2E2E2E2E2E2E2E2E2E2E2E2E2E2E2E2E2E2E2E2E2E2E2E2E2E2E2DCE2E2E2E2E2E2E2E2E2E2E2E2E2E2E2E2E2E2E2E2E2E2E2E2E2E2E2E2E2E2E2E2E2E2E2E2E2E2E2E2E2E2E2E2E2E2E2E2E2E2E2E2E2E2E2E2E2E2E2E2E2E2E2E2E2E2E2E2E2E2E2E2E2E2DCE2
310
E2E2E2E2E2E2E2E2E2E2E2E2E2E2E2E2E2E2E2E2E2E2E2E2E2E2E2E2F5E2E2E2E2E2E2E2E2E2E2E2E2E2E2E2E2E2E2E2E2F5F5EFF5E2E2E2F5E2E2E2E2E2E2E2E2E2E2E2E2E2E2E2E2F5E2E2E2E2E2E2E2E2E2E2E2E2E2E2E2E2E2E2E2E2E2E2E2E2E2E2E2E2E2DCE2E2E2E2E2E2E2E2E2E2E2E2E2E2E2E2E2E2E2E2E2E2E2
310
E2E2E2E2E2E2E2E2E2E2E2E2E2E2E2E2E2E2E2E2E2E2E2E2E2E2E2E2E2E2E2E2E2E2E2E2E2E2E2E2E2E2E2E2E2E2E2E2E2E2E2DCE2E2E2E2E2E2E2E2E2E2E2E2E2E2E2E2E2E2E2E2E2E2E2E2E2E2E2E2E2F5E2E2E2E2E2E2E2E2E2E2E2E2E2E2E2E2F5E2E2E2F5F5EFF5E2E2E2F5E2E2E2E2E2E2E2E2E2E2E2E2E2E2E2E2F5
310
E2E2E2E2E2E2E2E2E2E2E2E2E2E2E2E2E2E2E2E2E2E2E2E2E2E2E2E2E2DCE2E2E2E2E2E2E2E2E2E2E2E2E2E2E2E2E2E2E2E2E2E2E2E2E2E2E2E2E2E2E2E2E2E2E2E2E2E2E2E2E2E2E2E2E2E2E2E2E2E2E2E2E2E2E2E2E2E2E2E2E2E2E2E2E2E2E2E2E2E2E2E2E2E2DCE2E2E2E2E2E2E2E2E2E2E2E2E2E2E2E2E2E2E2E2E2E2
310
E2E2E2E2E2E2E2F5E2E2E2E2E2E2E2E2E2E2E2E2E2E2E2E2F5E2E2E2F5F5EFF5E2E2E2F5E2E2E2E2E2E2E2E2E2E2E2E2E2E2E2E2F5E2E2E2E2E2E2E2E2E2E2E2E2E2E2E2E2E2E2E2E2E2E2E2E2E2E2E2E2E2DCE2E2E2E2E2E2E2E2E2E2E2E2E2E2E2E2E2E2E2E2E2E2E2E2E2E2E2E2E2E2E2E2E2E2E2E2E2E2E2E2E2E2E2E2
310
E2E2E2E2E2E2E2E2E2E2E2E2E2E2E2E2E2E2E2E2E2E2E2E2E2E2E2E2E2E2DCE2E2E2E2E2E2E2E2E2E2E2E2E2E2E2E2E2E2E2E2E2E2E2E2E2E2E2E2E2F5E2E2E2E2E2E2E2E2E2E2E2E2E2E2E2E2F5E2E2E2F5F5EFF5E2E2E2F5E2E2E2E2E2E2E2E2E2E2E2E2E2E2E2E2F5E2E2E2E2E2E2E2E2E2E2E2E2E2E2E2E2E2E2E2E2E2
310
E2E2E2E2E2E2E2E2DCE2E2E2E2E2E2E2E2E2E2E2E2E2E2E2E2E2E2E2E2E2E2E2E2E2E2E2E2E2E2E2E2E2E2E2E2E2BEE2E2E2E2E2E2E2E2E2E2E2E2E2E2E2E2E2E2E2E2E2E2E2E2E2E2E2E2E2E2E2E2E2E2E2E2DCE2E2E2E2E2E2E2E2E2E2E2E2E2E2E2E2E2E2E2E2E2E2E2E2E2E2E2E2E2F5E2E2E2E2E2E2E2E2E2E2E2E2E2
310
E2E2E2F5E2E2E2F5F5EFF5E2E2E2F5E2E2E2E2E2E2E2E2E2E2E2E2E2E2E2E2F5E2E2E2E2E2E2E2E2E2E2E2E2E2E2E2E2E2E2E2E2E2E2E2E2E2E2E2E2E2DCE2E2E2E2E2E2E2E2E2E2E2E2E2E2E2E2E2E2E2E2E2E2E2E2E2E2E2E2E2E2E2E2E2E2E2E227BEE2E2E2E2E2E2E2E2E2E2E2E2E2E2E2E2E2E2E2E2E2E2E2E2E2E2E2
310
E2E2E2E2E2E2E2E2E2DCE2E2E2E2E2E2E2E2E2E2E2E2E2E2E2E2E2E2E2E2E2E2E2E2E2E2E2E2E2F5E2E2E2E2E2E2E2E2E2E2E2E2E2E2E2E2F5E2E2E2F5F5EFF5E2E2E2F5E2E2E2E2E2E2E2E2E2E2E2E2E2E2E2E2F5E2E2E2E2E2E2E2E2E2E2E2E2E2E2E2E2E2E2E2E2E2E2E2E2E2E2E2E2E2DCE2E2E2E2E2E2E2E2E2E2E2E2
310
E2E2E2E2E2E2E2E2E2E2E2E2E2E2E2E2E2E2E2E2E2E2E2E227BEE2E2E2E2E2E2E2E2E2E2E2E2E2E2E2E2E2E2E2E2E2E2E2E2E2E2E2E2E2E2E2E2E2E2E2E2DCE2E2E2E2E2E2E2E2E2E2E2E2E2E2E2E2E2E2E2E2E2E2E2E2E2E2E2E2E2F5E2E2E2E2E2E2E2E2E2E2E2E2E2E2E2E2F5E2E2E2F5F5EFF5E2E2E2F5E2E2E2E2E2E2
310
E2E2E2E2E2E2E2E2E2E2F5E2E2E2E2E2E2E2E2E2E2E2E2E2E2E2E2E2E2E2E2E2E2E2E2E2E2E2E2E2DCE2E2E2E2E2E2E2E2E2E2E2E2E2E2E2E2E2E2E2E2E2E2E2E2E2E2E2E2E2E2E2E2E2E2E2E227BEE2E2E2E2E2E2E2E2E2E2E2E2E2E2E2E2E2E2E2E2E2E2E2E2E2E2E2E2E2E2E2E2E2E2E2E2DCE2E2E2E2E2E2E2E2E2E2E2
310
E2E2E2E2E2E2E2E2E2E2E2E2E2E2E2E2E2E2F5E2E2E2E2E2E2E2E2E2E2E2E2E2E2E2E2F5E2E2E2F5F5EFF5E2E2E2F5E2E2E2E2E2E2E2E2E2E2E2E2E2E2E2E2F5E2E2E2E2E2E2E2E2E2E2E2E2E2E2E2E2E2E2E2E2E2E2E2E2E2E2E2E2E2DCE2E2E2E2E2E2E2E2E2E2E2E2E2E2E2E2E2E2E2E2E2E2E2E2E2E2E2E2E2E2E2E2E2
310
E2E2E227BEE2E2E2E2E2E2E2E2E2E2E2E2E2E2E2E2E2E2E2E2E2E2E2E2E2E2E2E2E2E2E2E2E2E2E2E2DCE2E2E2E2E2E2E2E2E2E2E2E2E2E2E2E2E2E2E2E2E2E2E2E2E2E2E2E2E2F5E2E2E2E2E2E2E2E2E2E2E2E2E2E2E2E2F5E2E2E2F5F5EFF5E2E2E2F5E2E2E2E2E2E2E2E2E2E2E2E2E2E2E2E2F5E2E2E2E2E2E2E2E2E2E2
310
E2E2E2E2E2E2E2E2E2E2E2E2E2E2E2E2E2E2E2DCE2E2E2E2E2E2E2E2E2E2E2E2E2E2E2E2E2E2E2E2E2E2E2E2E2E2E2E2E2E2E2E2E2E2E2E227BEE2E2E2E2E2E2E2E2E2E2E2E2E2E2E2E2E2E2E2E2E2E2E2E2E2E2E2E2E2E2E2E2E2E2E2E2DCE2E2E2E2E2E2E2E2E2E2E2E2E2E2E2E2E2E2E2E2E2E2E2E2E2E2E2E2E2F5E2E2
310
E2E2E2E2E2E2E2E2E2E2E2E2E2E2F5E2E2E2F5F5EFF5E2E2E2F5E2E2E2E2E2E2E2E2E2E2E2E2E2E2E2E2F5E2E2E2E2E2E2E2E2E2E2E2E2E2E2E2E2E2E2E2E2E2E2E2E2E2E2E2E2E2DCE2E2E2E2E2E2E2E2E2E2E2E2E2E2E2E2E2E2E2E2E2E2E2E2E2E2E2E2E2E2E2E2E2E2E2E227BEE2E2E2E2E2E2E2E2E2E2E2E2E2E2E2E2
310
E2E2E2E2E2E2E2E2E2E2E2E2E2E2E2E2E2E2E2E2DCE2E2E2E2E2E2E2E2E2E2E2E2E2E2E2E2E2E2E2E2E2E2E2E2E2E2E2E2E2F5E2E2E2E2E2E2E2E2E2E2E2E2E2E2E2E2F5E2E2E2F5F5EFF5E2E2E2F5E2E2E2E2E2E2E2E2E2E2E2E2E2E2E2E2F5E2E2E2E2E2E2E2E2E2E2E2E2E2E2E2E2E2E2E2E2E2E2E2E2E2E2E2E2E2DCE2
310
E2E2E2E2E2E2E2E2E2E2E2E2E2E2E2E2E2E2E2E2E2E2E2E2E2E2E2E2E2E2E2E2E2E2E227BEE2E2E2E2E2E2E2E2E2E2E2E2E2E2E2E2E2E2E2E2E2E2E2E2E2E2E2E2E2E2E2E2E2E2E2E2DCE2E2E2E2E2E2E2E2E2E2E2E2E2E2E2E2E2E2E2E2E2E2E2E2E2E2E2E2E2F5E2E2E2E2E2E2E2E2E2E2E2E2E2E2E2E2F5E2E2E2F5F5EF
310
F5E2E2E2F5E2E2E2E2E2E2E2E2E2E2E2E2E2E2E2E2F5E2E2E2E2E2E2E2E2E2E2E2E2E2E2E2E2E2E2E2E2E2E2E2E2E2E2E2E2E2DCE2E2E2E2E2E2E2E2E2E2E2E2E2E2E2E2E2E2E2E2E2E2E2E2E2E2E2E2E2E2E2E2E2E2E2E227BEE2E2E2E2E2E2E2E2E2E2E2E2E2E2E2E2E2E2E2E2E2E2E2E2E2E2E2E2E2E2E2E2E2E2E2E2DC
310
E2E2E2E2E2E2E2E2E2E2E2E2E2E2E2E2E2E2E2E2E2E2E2E2E2E2E2E2E2F5E2E2E2E2E2E2E2E2E2E2E2E2E2E2E2E2F5E2E2E2F5F5EFF5E2E2E2F5E2E2E2E2E2E2E2E2E2E2E2E2E2E2E2E2F5E2E2E2E2E2E2E2E2E2E2E2E2E2E2E2E2E2E2E2E2E2E2E2E2E2E2E2E2E2DCE2E2E2E2E2E2E2E2E2E2E2E2E2E2E2E2E2E2E2E2E2E2
310
E2E2E2E2E2E2E2E2E2E2E2E2E2E227BEE2E2E2E2E2E2E2E2E2E2E2E2E2E2E2E2E2E2E2E2E2E2E2E2E2E2E2E2E2E2E2E2E2E2E2E2DCE2E2E2E2E2E2E2E2E2E2E2E2E2E2E2E2E2E2E2E2E2E2E2E2E2E2E2E2E2F5E2E2E2E2E2E2E2E2E2E2E2E2E2E2E2E2F5E2E2E2F5F5EFF5E2E2E2F5E2E2E2E2E2E2E2E2E2E2E2E2E2E2E2E2
310
F5E2E2E2E2E2E2E2E2E2E2E2E2E2E2E2E2E2E2E2E2E2E2E2E2E2E2E2E2E2DCE2E2E2E2E2E2E2E2E2E2E2E2E2E2E2E2E2E2E2E2E2E2E2E2E2E2E2E2E2E2E2E2E2E2E2E227BEE2E2E2E2E2E2E2E2E2E2E2E2E2E2E2E2E2E2E2E2E2E2E2E2E2E2E2E2E2E2E2E2E2E2E2E2DCE2E2E2E2E2E2E2E2E2E2E2E2E2E2E2E2E2E2E2E2E2
310
E2E2E2E2E2E2E2E2F5E2E2E2E2E2E2E2E2E2E2E2E2E2E2E2E2F5E2E2E2F5F5EFF5E2E2E2F5E2E2E2E2E2E2E2E2E2E2E2E2E2E2E2E2F5E2E2E2E2E2E2E2E2E2E2E2E2E2E2E2E2E2E2E2E2E2E2E2E2E2E2E2E2E2DCE2E2E2E2E2E2E2E2E2E2E2E2E2E2E2E2E2E2E2E2E2E2E2E2E2E2E2E2E2E2E2E2E2E2E2E227BEE2E2E2E2E2
310
E2E2E2E2E2E2E2E2E2E2E2E2E2E2E2E2E2E2E2E2E2E2E2E2E2E2E2E2E2E2E2DCE2E2E2E2E2E2E2E2E2E2E2E2E2E2E2E2E2E2E2E2E2E2E2E2E2E2E2E2E2F5E2E2E2E2E2E2E2E2E2E2E2E2E2E2E2E2F5E2E2E2F5F5EFF5E2E2E2F5E2E2E2E2E2E2E2E2E2E2E2E2E2E2E2E2F5E2E2E2E2E2E2E2E2E2E2E2E2E2E2E2E2E2E2E2E2
310
E2E2E2E2E2E2E2E2E2DCE2E2E2E2E2E2E2E2E2E2E2E2E2E2E2E2E2E2E2E2E2E2E2E2E2E2E2E2E2E2E2E2E2E2E2E227BEE2E2E2E2E2E2E2E2E2E2E2E2E2E2E2E2E2E2E2E2E2E2E2E2E2E2E2E2E2E2E2E2E2E2E2E2DCE2E2E2E2E2E2E2E2E2E2E2E2E2E2E2E2E2E2E2E2E2E2E2E2E2E2E2E2E2F5E2E2E2E2E2E2E2E2E2E2E2E2
310
E2E2E2E2F5E2E2E2F5F5EFF5E2E2E2E2E2E2E2E2E2E2E2E2E2E2E2E2E2E2E2E2F5E2E2E2E2E2E2E2E2E2E2E2E2E2E2E2E2E2E2E2E2E2E2E2E2E2E2E2E2E2DCE2E2E2E2E2E2E2E2E2E2E2E2E2E2E2E2E2E2E2E2E2E2E2E2E2E2E2E2E2E2E2E2E2E2E2E227BEE2E2E2E2E2E2E2E2E2E2E2E2E2E2E2E2E2E2E2E2E2E2E2E2E2E2
310
E2E2E2E2E2E2E2E2E2E2DCE2E2E2E2E2E2E2E2E2E2E2E2E2E2E2E2E2E2E2E2E2E2E2E2E2E2E2E2E2F5E2E2E2E2E2E2E2E2E2E2E2E2E2E2E2E2E2E2E2E2F5F5EFF5E2E2E2E2E2E2E2E2E2E2E2E2E2E2E2E2E2E2E2E2F5E2E2E2E2E2E2E2E2E2E2E2E2E2E2E2E2E2E2E2E2E2E2E2E2E2E2E2E2E2DCE2E2E2E2E2E2E2E2E2E2E2
310
E2E2E2E2E2E2E2E2E2E2E2E2E2E2E2E2E2E2E2E2E2E2E2E2E227BEE2E2E2E2E2E2E2E2E2E2E2E2E2E2E2E2E2E2E2E2E2E2E2E2E2E2E2E2E2E2E2E2E2E2E2E2DCE2E2E2E2E2E2E2E2E2E2E2E2E2E2E2E2E2E2E2E2E2E2E2E2E2E2E2E2E2F5E2E2E2E2E2E2E2E2E2E2E2E2E2E2E2E2E2E2E2E2F5F5EFF5E2E2E2E2E2E2E2E2E2
310
E2E2E2E2E2E2E2E2E2E2E2F5E2E2E2E2E2E2E2E2E2E2E2E2E2E2E2E2E2E2E2E2E2E2E2E2E2E2E2E2E2DCE2E2E2E2E2E2E2E2E2E2E2E2E2E2E2E2E2E2E2E2E2E2E2E2E2E2E2E2E2E2E2E2E2E2E2E2E2BEE2E2E2E2E2E2E2E2E2E2E2E2E2E2E2E2E2E2E2E2E2E2E2E2E2E2E2E2E2E2E2E2E2E2E2E2DCE2E2E2E2E2E2E2E2E2E2
310
E2E2E2E2E2E2E2E2E2E2E2E2E2E2E2E2E2E2E2F5E2E2E2E2E2E2E2E2E2E2E2E2E2E2E2E2E2E2E2E2F5F5EFF5E2E2E2E2E2E2E2E2E2E2E2E2E2E2E2E2E2E2E2E2F5E2E2E2E2E2E2E2E2E2E2E2E2E2E2E2E2E2E2E2E2E2E2E2E2E2E2E2E2E2DCE2E2E2E2E2E2E2E2E2E2E2E2E2E2E2E2E2E2E2E2E2E2E2E2E2E2E2E2E2E2E2E2
310
E2E2E2E2E2BEE2E2E2E2E2E2E2E2E2E2E2E2E2E2E2E2E2E2E2E2E2E2E2E2E2E2E2E2E2E2E2E2E2E2E2E2DCE2E2E2E2E2E2E2E2E2E2E2E2E2E2E2E2E2E2E2E2E2E2E2E2E2E2E2E2E2F5E2E2E2E2E2E2E2E2E2E2E2E2E2E2E2E2E2E2E2E2F5F5EFF5E2E2E2E2E2E2E2E2E2E2E2E2E2E2E2E2E2E2E2E2F5E2E2E2E2E2E2E2E2E2
310
E2E2E2E2E2E2E2E2E2E2E2E2E2E2E2E2E2E2E2E2DCE2E2E2E2E2E2E2E2E2E2E2E2E2E2E2E2E2E2E2E2E2E2E2E2E2E2E2E2E2E2E2E2E2E2E2E2E2BEE2E2E2E2E2E2E2E2E2E2E2E2E2E2E2E2E2E2E2E2E2E2E2E2E2E2E2E2E2E2E2E2E2E2E2E2DCE2E2E2E2E2E2E2E2E2E2E2E2E2E2E2E2E2E2E2E2E2E2E2E2E2E2E2E2E2F5E2
310
E2E2E2E2E2E2E2E2E2E2E2E2E2E2E2E2E2E2E2F5F5EFF5E2E2E2E2E2E2E2E2E2E2E2E2E2E2E2E2E2E2E2E2F5E2E2E2E2E2E2E2E2E2E2E2E2E2E2E2E2E2E2E2E2E2E2E2E2E2E2E2E2E2DCE2E2E2E2E2E2E2E2E2E2E2E2E2E2E2E2E2E2E2E2E2E2E2E2E2E2E2E2E2E2E2E2E2E2E2E2E2BEE2E2E2E2E2E2E2E2E2E2E2E2E2E2E2
310
E2E2E2E2E2E2E2E2E2E2E2E2E2E2E2E2E2E2E2E2E2DCE2E2E2E2E2E2E2E2E2E2E2E2E2E2E2E2E2E2E2E2E2E2E2E2E2E2E2E2E2F5E2E2E2E2E2E2E2E2E2E2E2E2E2E2E2E2E2E2E2E2F5F5EFF5E2E2E2E2E2E2E2E2E2E2E2E2E2E2E2E2E2E2E2E2F5E2E2E2E2E2E2E2E2E2E2E2E2E2E2E2E2E2E2E2E2E2E2E2E2E2E2E2E2E2DC
310
E2E2E2E2E2E2E2E2E2E2E2E2E2E2E2E2E2E2E2E2E2E2E2E2E2E2E2E2E2E2E2E2E2E2E2E2E2BEE2E2E2E2E2E2E2E2E2E2E2E2E2E2E2E2E2E2E2E2E2E2E2E2E2E2E2E2E2E2E2E2E2E2E2E2DCE2E2E2E2E2E2E2E2E2E2E2E2E2E2E2E2E2E2E2E2E2E2E2E2E2E2E2E2E2F5E2E2E2E2E2E2E2E2E2E2E2E2E2E2E2E2E2E2E2E2F5F5
310
EFF5E2E2E2E2E2E2E2E2E2E2E2E2E2E2E2E2E2E2E2E2F5E2E2E2E2E2E2E2E2E2E2E2E2E2E2E2E2E2E2E2E2E2E2E2E2E2E2E2E2E2DCE2E2E2E2E2E2E2E2E2E2E2E2E2E2E2E2E2E2E2E2E2E2E2E2E2E2E2E2E2E2E2E2E2E2E2E2E2BEE2E2E2E2E2E2E2E2E2E2E2E2E2E2E2E2E2E2E2E2E2E2E2E2E2E2E2E2E2E2E2E2E2E2E2E2
310
DCE2E2E2E2E2E2E2E2E2E2E2E2E2E2E2E2E2E2E2E2E2E2E2E2E2E2E2E2E2F5E2E2E2E2E2E2E2E2E2E2E2E2E2E2E2E2E2E2E2E2F5F5EFF5E2E2E2E2E2E2E2E2E2E2E2E2E2E2E2E2E2E2E2E2F5E2E2E2E2E2E2E2E2E2E2E2E2E2E2E2E2E2E2E2E2E2E2E2E2E2E2E2E2E2DCE2E2E2E2E2E2E2E2E2E2E2E2E2E2E2E2E2E2E2E2E2
310
E2E2E2E2E2E2E2E2E2E2E2E2E2E2E2E2BEE2E2E2E2E2E2E2E2E2E2E2E2E2E2E2E2E2E2E2E2E2E2E2E2E2E2E2E2E2E2E2E2E2E2E2E2DCE2E2E2E2E2E2E2E2E2E2E2E2E2E2E2E2E2E2E2E2E2E2E2E2E2E2E2E2E2F5E2E2E2E2E2E2E2E2E2E2E2E2E2E2E2E2E2E2E2E2F5F5EFF5E2E2E2E2E2E2E2E2E2E2E2E2E2E2E2E2E2E2E2
310
E2F5E2E2E2E2E2E2E2E2E2E2E2E2E2E2E2E2E2E2E2E2E2E2E2E2E2E2E2E2E2DCE2E2E2E2E2E2E2E2E2E2E2E2E2E2E2E2E2E2E2E2E2C3C3C3C3C3C3E2E2E2E2E2E2E2E2E2E2BEE2E2E2E2E2E2E2E2E2E2E2C3C3C3C3C3C3E2E2E2E2E2E2E2E2E2E2E2E2E2E2E2E2E2E2E2DCE2E2E2E2E2E2E2E2E2E2E2E2E2E2E2E2E2E2E2E2
310
E2E2E2E2E2E2E2E2E2F5E2E2E2E2E2E2E2E2E2E2E2E2E2E2E2E2E2E2E2E2F5F5EFF5E2E2E2F5E2E2E2E2E2E2E2E2E2E2E2E2E2E2E2E2F5E2E2E2E2E2E2E2E2E2E2E2E2E2E2E2E2E2E2E2E2E2E2E2E2E2E2E2E2E2DCE2E2E2E2E2E2E2E2E2E2E2BEE2BEE2E2E2E2E2E2E2C3C3C3C3C3C3E2E2E2E2E2E2E2E2E2E2BEE2E2E2E2
310
E2E2E2E2E2E2E2C3C3C3C3C3C3E2E2E2E2E2E2E2E2BEE2BEE2E2E2E2E2E2E2E2DCE2E2E2E2E2E2E2E2E2E2E2E2E2E2E2E2E2E2E2E2E2E2E2E2E2E2E2E2E2F5E2E2E2E2E2E2E2E2E2E2E2E2E2E2E2E2F5E2E2E2F5F5EFF5E2E2E2F5E2E2E2E2E2E2E2E2E2E2E2E2E2E2E2E2F5E2E2E2E2E2E2E2E2E2E2E2E2E2E2E2E2E2E2E2
310
E2E2E2E2E2E2E2E2E2E2DCE2E2E2E2E2E2E2E2E2E2E2BEBEBEE2E2E2E2E2E2E2F5BEF5F5F5BEE2E2E2E2E2E2E2E2E2E2BEE2E2E2E2E2E2E2E2E2E2E2F5F5F5F5F5F5E2E2E2E2E2E2E227BEBEBEE2E2E2E2E2E2E2E2DCE2E2E2E2E2E2E2E2E2E2E2E2E2E2E2E2E2E2E2E2E2E2E2E2E2E2E2E2E2F5E2E2E2E2E2E2E2E2E2E2E2
310
E2E2E2E2E2F5E2E2E2F5F5EFF5E2E2E2F5E2E2E2E2E2E2E2E2E2E2E2E2E2E2E2E2F5E2E2E2E2E2E2E2E2E2E2E2E2E2E2E2E2E2E2E2E2E2E2E2E2E2E2E2E2E2DCE2E2E2E2E2E2E2E2E2E2E2BE2727E2E2E2E2E2E2E2F5E2E2E2F5F5E2E2E2E2E2E2E2E2E2E2BEE2E2E2E2E2E2E2E2E2E2E2F5E2E2E2F5F5E2E2E2E2E2E2E227
310
27E2BEE2E2E2E2E2E2E2E2DCE2E2E2E2E2E2E2E2E2E2E2E2E2E2E2E2E2E2E2E2E2E2E2E2E2E2E2E2E2F5E2E2E2E2E2E2E2E2E2E2E2E2E2E2E2E2F5E2E2E2F5F5EFF5E2E2E2F5E2E2E2E2E2E2E2E2E2E2E2E2E2E2E2E2F5E2E2E2E2E2E2E2E2E2E2E2E2E2E2E2E2E2E2E2E2E2E2E2E2E2E2E2E2E2DCE2E2E2E2E2E2E2E2E2E2
310
E2BE2727E2E2E2E2E2C3C3F5E2E2E2F5F5E2E2E2E2E2E2E2E2E2E2BEE2E2E2E2E2E2E2E2E2E2E2F5E2E2E2F5F5C3E2E2E2E2E2E22727E2BEE2E2E2E2E2E2E2E2DCE2E2E2E2E2E2E2E2E2E2E2E2E2E2E2E2E2E2E2E2E2E2E2E2E2E2E2E2E2F5E2E2E2E2E2E2E2E2E2E2E2E2E2E2E2E2F5E2E2E2F5F5EFF5E2E2E2F5E2E2E2E2
310
E2E2E2E2E2E2E2E2E2E2E2E2F5E2E2E2E2E2E2E2E2E2E2E2E2E2E2E2E2E2E2E2E2E2E2E2E2E2E2E2E2E2DCE2E2E2E2E2E2E2E2E2E2E2BE27BEC3C3C3F5BEF5F5F5E2E2E2F5F5E2E2E2E2E2E2E2E2E2E2BEE2E2E2E2E2E2E2E2E2E2E2F5E2E2E2F5F5F5F5F5F5C3C3E227BEE2BEE2E2E2E2E2E2E2E2DCE2E2E2E2E2E2E2E2E2
310
E2E2E2E2E2E2E2E2E2E2E2E2E2E2E2E2E2E2E2E2F5E2E2E2E2E2E2E2E2E2E2E2E2E2E2E2E2F5E2E2E2F5F5EFF5E2E2E2F5E2E2E2E2E2E2E2E2E2E2E2E2E2E2E2E2F5E2E2E2E2E2E2E2E2E2E2E2E2E2E2E2E2E2E2E2E2E2E2E2E2E2E2E2E2E2DCE2E2E2E2E2E2E2E2E2E227272727C3E2E2F5E2E2E2E2E2E2F5F5BEE2E2E2E2
310
E2E2E2E2E2E2BEE2E2E2E2E2E2E2E2E2E2E2F5F5F5E2E2E2E2E2E2F5E2C3E2272727BEE2E2E2E2E2E2E2E2DCE2E2E2E2E2E2E2E2E2E2E2E2E2E2E2E2E2E2E2E2E2E2E2E2E2E2E2E2E2F5E2E2E2E2E2E2E2E2E2E2E2E2E2E2E2E2F5E2E2E2F5F5EFF5E2E2E2F5E2E2E2E2E2E2E2E2E2E2E2E2E2E2E2E2F5E2E2E2E2E2E2E2E2
310
E2E2E2E2E2E2E2E2E2E2E2E2E2E2E2E2E2E2E2E2E2DCE2E2E2E2E2E2E2E2E2E227272727C3F5F5BEE2E2E2E2E2E2F5E2E2E2E2E2E2E2E2E2E2E2E2BEE2E2E2E2E2E2E2E2E2E2E2E2E2F5E2E2E2E2E2E2F5F5C3E2272727BEE2E2E2E2E2E2E2E2DCE2E2E2E2E2E2E2E2E2E2E2E2E2E2E2E2E2E2E2E2E2E2E2E2E2E2E2E2E2F5
310
E2E2E2E2E2E2E2E2E2E2E2E2E2E2E2E2F5E2E2E2F5F5EFF5E2E2E2F5E2E2E2E2E2E2E2E2E2E2E2E2E2E2E2E2F5E2E2E2E2E2E2E2E2E2E2E2E2E2E2E2E2E2E2E2E2E2E2E2E2E2E2E2E2E2DCE2E2E2E2E2E2E2E2E2E22727E2BEE2C3F5E2E2E2E2E2E2E2F5E2E2E2E2E2E2E2E2E2E2E2E2BEE2E2E2E2E2E2E2E2E2E2E2E2E2F5
310
E2E2E2E2E2E2E2C3C3E2E2BE27BEE2E2E2E2E2E2E2E2DCE2E2E2E2E2E2E2E2E2E2E2E2E2E2E2E2E2E2E2E2E2E2E2E2E2E2E2E2E2F5E2E2E2E2E2E2E2E2E2E2E2E2E2E2E2E2F5E2E2E2F5F5EFF5E2E2E2F5E2E2E2E2E2E2E2E2E2E2E2E2E2E2E2E2F5E2E2E2E2E2E2E2E2E2E2E2E2E2E2E2E2E2E2E2E2E2E2E2E2E2E2E2E2E2
310
DCE2E2E2E2E2E2E2E2E2E2E2272727E2F5F5E2E2E2E2E2E2E2F5E2E2E2E2E2E2E2E2E2E2E2E2BEE2E2E2E2E2E2E2E2E2E2E2E2E2F5E2E2E2E2E2E2E2F5E2E2272727BEE2E2E2E2E2E2E2E2DCE2E2E2E2E2E2E2E2E2E2E2E2E2E2E2E2E2E2E2E2E2E2E2E2E2E2E2E2E2F5E2E2E2E2E2E2E2E2E2E2E2E2E2E2E2E2F5E2E2E2F5
310
F5EFF5E2E2E2F5E2E2E2E2E2E2E2E2E2E2E2E2E2E2E2E2F5E2E2E2E2E2E2E2E2E2E2E2E2E2E2E2E2E2E2E2E2E2E2E2E2E2E2E2E2E2DCE2E2E2E2E2E2E2E2E2E2E2BE2727E2F5F5E2E2E2E2E2E2E2F5E2E2E2E2E2E2E2E2E2E2E2E2BEE2E2E2E2E2E2E2E2E2E2E2E2E2F5E2E2E2E2E2E2E2F5E2E22727E2BEE2E2E2E2E2E2E2
310
E2DCE2E2E2E2E2E2E2E2E2E2E2E2E2E2E2E2E2E2E2E2E2E2E2E2E2E2E2E2E2F5E2E2E2E2E2E2E2E2E2E2E2E2E2E2E2E2F5E2E2E2F5F5EFF5E2E2E2F5E2E2E2E2E2E2E2E2E2E2E2E2E2E2E2E2F5E2E2E2E2E2E2E2E2E2E2E2E2E2E2E2E2E2E2E2E2E2E2E2E2E2E2E2E2E2DCE2E2E2E2E2E2E2E2E2E2E2BE2727E2F5F5E2E2E2
310
E2E2E2E2F5E2E2E2E2E2E2E2E2E2E2E2E2BEE2E2E2E2E2E2E2E2E2E2E2E2E2F5E2E2E2E2E2E2E2F5E2E22727E2BEE2E2E2E2E2E2E2E2DCE2E2E2E2E2E2E2E2E2E2E2E2E2E2E2E2E2E2E2E2E2E2E2E2E2E2E2E2E2F5E2E2E2E2E2E2E2E2E2E2E2E2E2E2E2E2F5E2E2E2F5F5EFF5E2E2E2F5E2E2E2E2E2E2E2E2E2E2E2E2E2E2
310
E2E2F5E2E2E2E2E2E2E2E2E2E2E2E2E2E2E2E2E2E2E2E2E2E2E2E2E2E2E2E2E2DCE2E2E2E2E2E2E2E2E2E2E2BEE2BEE2F5F5E2E2F5F5F5F5F5BEE2E2E2E2E2E2E2E2E2E2E2E2BEE2E2E2E2E2E2E2E2E2E2E2E2E2F5F5F5F5F5F5E2E2F5E2E2E2BEE2BEE2E2E2E2E2E2E2E2DCE2E2E2E2E2E2E2E2E2E2E2E2E2E2E2E2E2E2E2
310
E2E2E2E2E2E2E2E2E2E2F5E2E2E2E2E2E2E2E2E2E2E2E2E2E2E2E2F5E2E2E2F5F5EFF5E2E2E2F5E2E2E2E2E2E2E2E2E2E2E2E2E2E2E2E2F5E2E2E2E2E2E2E2E2E2E2E2E2E2E2E2E2E2E2E2E2E2E2E2E2E2E2E2E2E2DCE2E2E2E2E2E2E2E2E2E2E2BEBEBEE2BEF5BEF5BEE2E2E2E2C3E2E2E2E2E2E2E2E2E2E2E2E2BEE2E2E2
310
E2E2E2E2E2E2E2E2E2E2C3E2E2E2F5F5F5F5F5BEE2E2BEBEBEE2E2E2E2E2E2E2E2DCE2E2E2E2E2E2E2E2E2E2E2E2E2E2E2E2E2E2E2E2E2E2E2E2E2E2E2E2E2F5E2E2E2E2E2E2E2E2E2E2E2E2E2E2E2E2F5E2E2E2F5F5EFF5E2E2E2F5E2E2E2E2E2E2E2E2E2E2E2E2E2E2E2E2F5E2E2E2E2E2E2E2E2E2E2E2E2E2E2E2E2E2E2
310
E2E2E2E2E2E2E2E2E2E2E2DCE2E2E2E2E2E2E2E2E2E2E2E2E2E2E2E2C3C3E2E2E2E2E2E2C3E2E2E2E2E2E2E2E2E2E2E2E2BEE2E2E2E2E2E2E2E2E2E2E2E2E2C3E2E2E2E2E2E2C3C3E2E2E2E2E2E2E2E2E2E2E2E2E2E2DCE2E2E2E2E2E2E2E2E2E2E2E2E2E2E2E2E2E2E2E2E2E2E2E2E2E2E2E2E2F5E2E2E2E2E2E2E2E2E2E2
310
E2E2E2E2E2E2F5E2E2E2F5F5EFF5E2E2E2F5E2E2E2E2E2E2E2E2E2E2E2E2E2E2E2E2F5E2E2E2E2E2E2E2E2E2E2E2E2E2E2E2E2E2E2E2E2E2E2E2E2E2E2E2E2E2DCE2E2E2E2E2E2E2E2E2E2E2E2E2E2E2E2C3C3C3C3C3C3C3C3C3E2E2E2E2E2E2E2E2E2E2E2E2BEE2E2E2E2E2E2E2E2E2E2E2E2E2C3C3C3C3C3C3C3C3C3E2E2
310
E2E2E2E2E2E2E2E2E2E2E2E2DCE2E2E2E2E2E2E2E2E2E2E2E2E2E2E2E2E2E2E2E2E2E2E2E2E2E2E2E2E2F5E2E2E2E2E2E2E2E2E2E2E2E2E2E2E2E2F5E2E2E2F5F5EFF5E2E2E2F5E2E2E2E2E2E2E2E2E2E2E2E2E2E2E2E2F5E2E2E2E2E2E2E2E2E2E2E2E2E2E2E2E2E2E2E2E2E2E2E2E2E2E2E2E2E2DCE2E2E2E2E2E2E2E2E2
310
E2E2E2E2E2E2E2E2E2E2E2E2E2E2E2E2E2E2E2E2E2E2E2E2E2E2E2E2BEE2E2E2E2E2E2E2E2E2E2E2E2E2E2E2E2E2E2E2E2E2E2E2E2E2E2E2E2E2E2E2E2E2E2E2E2DCE2E2E2E2E2E2E2E2E2E2E2E2E2E2E2E2E2E2E2E2E2E2E2E2E2E2E2E2E2F5E2E2E2E2E2E2E2E2E2E2E2E2E2E2E2E2F5E2E2E2F5F5EFF5E2E2E2E2E2E2E2
310
E2E2E2E2E2E2E2E2E2E2E2E2E2F5E2E2E2E2E2E2E2E2E2E2E2E2E2E2E2E2E2E2E2E2E2E2E2E2E2E2E2E2E2DCE2E2E2E2E2E2E2E2E2E2E2E2E2E2E2BE272727BEBE2727272727BEE2E2E2E2E2E2E2E2E2E2BEE2E2E2E2E2E2E2E2E2E2BEBE2727272727BEBE2727BEE2E2E2E2E2E2E2E2E2E2E2E2E2E2DCE2E2E2E2E2E2E2E2
310
E2E2E2E2E2E2E2E2E2E2E2E2E2E2E2E2E2E2E2E2E2F5E2E2E2E2E2E2E2E2E2E2E2E2E2E2E2E2E2E2E2E2F5F5EFF5E2E2E2E2E2E2E2E2E2E2E2E2E2E2E2E2E2E2E2E2F5E2E2E2E2E2E2E2E2E2E2E2E2E2E2E2E2E2E2E2E2E2E2E2E2E2E2E2E2E2DCE2E2E2E2E2E2E2E2E2E2E2E2E2E2E2BEBEBEBEBEBEBEBEBEBEBEBEE2E2E2
310
E2E2E2E2E2E2E2BEE2E2E2E2E2E2E2E2E2E2E2BEBEBEBEBEBEBEBEBEBEBEE2E2E2E2E2E2E2E2E2E2E2E2E2E2DCE2E2E2E2E2E2E2E2E2E2E2E2E2E2E2E2E2E2E2E2E2E2E2E2E2E2E2E2E2F5E2E2E2E2E2E2E2E2E2E2E2E2E2E2E2E2E2E2E2E2F5F5EFF5E2E2E2E2E2E2E2E2E2E2E2E2E2E2E2E2E2E2E2E2F5E2E2E2E2E2E2E2
310
E2E2E2E2E2E2E2E2E2E2E2E2E2E2E2E2E2E2E2E2E2E2DCE2E2E2E2E2E2E2E2E2E2E2E2E2E2E2BEBEE2E227272727E2E2E2BEE2E2E2E2E2E2E2E2E2E2BEE2E2E2E2E2E2E2E2E2E2E2BEE2E2E2272727E2E2E2BEE2E2E2E2E2E2E2E2E2E2E2E2E2E2DCE2E2E2E2E2E2E2E2E2E2E2E2E2E2E2E2E2E2E2E2E2E2E2E2E2E2E2E2E2
310
F5E2E2E2E2E2E2E2E2E2E2E2E2E2E2E2E2E2E2E2E2F5F5EFF5E2E2E2E2E2E2E2E2E2E2E2E2E2E2E2E2E2E2E2E2F5E2E2E2E2E2E2E2E2E2E2E2E2E2E2E2E2E2E2E2E2E2E2E2E2E2E2E2E2E2DCE2E2E2E2E2E2E2E2E2E2E2E2E2E2E2E2E2E2E2E2E2E2E2E2E2E2E2E2E2E2E2E2E2E2E2E2E2BEE2E2E2E2E2E2E2E2E2E2E2E2E2
310
E2E2E2E2E2E2E2E2E2E2E2E2E2E2E2E2E2E2E2E2E2E2E2DCE2E2E2E2E2E2E2E2E2E2E2E2E2E2E2E2E2E2E2E2E2E2E2E2E2E2E2E2E2F5E2E2E2E2E2E2E2E2E2E2E2E2E2E2E2E2E2E2E2E2F5F5EFF5E2E2E2E2E2E2E2E2E2E2E2E2E2E2E2E2E2E2E2E2F5E2E2E2E2E2E2E2E2E2E2E2E2E2E2E2E2E2E2E2E2E2E2E2E2E2E2E2E2
310
E2DCE2E2E2E2E2E2E2E2E2E2E2E2E2E2E2E2E2E2E2E2E2E2E2E2E2E2E2E2E2E2E2E2E2E2E2E2E2BEE2E2E2E2E2E2E2E2E2E2E2E2E2E2E2E2E2E2E2E2E2E2E2E2E2E2E2E2E2E2E2E2E2E2E2E2DCE2E2E2E2E2E2E2E2E2E2E2E2E2E2E2E2E2E2E2E2E2E2E2E2E2E2E2E2E2F5E2E2E2E2E2E2E2E2E2E2E2E2E2E2E2E2E2E2E2E2
310
F5F5EFF5E2E2E2E2E2E2E2E2E2E2E2E2E2E2E2E2E2E2E2E2F5E2E2E2E2E2E2E2E2E2E2E2E2E2E2E2E2E2E2E2E2E2E2E2E2E2E2E2E2E2DCE2E2E2E2E2E2E2E2E2E2E2E2E2E2E2E2E2E2E2E2E2E2E2E2E2E2E2E2E2E2E2E2E2E2E2E2E2BEE2E2E2E2E2E2E2E2E2E2E2E2E2E2E2E2E2E2E2E2E2E2E2E2E2E2E2E2E2E2E2E2E2E2
310
E2E2DCE2E2E2E2E2E2E2E2E2E2E2E2E2E2E2E2E2E2E2E2E2E2E2E2E2E2E2E2E2F5E2E2E2E2E2E2E2E2E2E2E2E2E2E2E2E2E2E2E2E2F5F5EFF5E2E2E2E2E2E2E2E2E2E2E2E2E2E2E2E2E2E2E2E2F5E2E2E2E2E2E2E2E2E2E2E2E2E2E2E2E2E2E2E2E2E2E2E2E2E2E2E2E2E2DCE2E2E2E2E2E2E2E2E2E2E2E2E2E2E2E2E2E2E2
310
E2E2E2E2E2E2E2E2E2E2E2E2E2E2E2E2E2E2BEE2E2E2E2E2E2E2E2E2E2E2E2E2E2E2E2E2E2E2E2E2E2E2E2E2E2E2E2E2E2E2E2E2E2E2E2DCE2E2E2E2E2E2E2E2E2E2E2E2E2E2E2E2E2E2E2E2E2E2E2E2E2E2E2E2E2F5E2E2E2E2E2E2E2E2E2E2E2E2E2E2E2E2E2E2E2E2F5F5EFF5E2E2E2E2E2E2E2E2E2E2E2E2E2E2E2E2E2
310
E2E2E2F5E2E2E2E2E2E2E2E2E2E2E2E2E2E2E2E2E2E2E2E2E2E2E2E2E2E2E2E2E2DCE2E2E2E2E2E2E2E2E2E2E2E2E2E2E2E2E2E2E2E2E2E2E2E2E2E2E2E2E2E2E2E2E2E2E2E2E2E2E2E2E2E2E2E2E2E2E2E2E2E2E2E2E2E2E2E2E2E2E2E2E2E2E2E2E2E2E2E2E2E2E2E2E2E2DCE2E2E2E2E2E2E2E2E2E2E2E2E2E2E2E2E2E2
310
E2E2E2E2E2E2E2E2E2E2E2F5E2E2E2E2E2E2E2E2E2E2E2E2E2E2E2E2E2E2E2E2F5F5EFF5E2E2E2E2E2E2E2E2E2E2E2E2E2E2E2E2E2E2E2E2F5E2E2E2E2E2E2E2E2E2E2E2E2E2E2E2E2E2E2E2E2E2E2E2E2E2E2E2E2E2DCE2E2E2E2E2E2E2E2E2E2E2E2E2E2E2E2E2E2E2E2E2E2E2E2E2E2E2E2E2E2E2E2E2E2E2E2E2E2E2E2
310
E2E2E2E2E2E2E2E2E2E2E2E2E2E2E2E2E2E2E2E2E2E2E2E2E2E2E2E2E2E2E2E2E2E2DCE2E2E2E2E2E2E2E2E2E2E2E2E2E2E2E2E2E2E2E2E2E2E2E2E2E2E2E2E2F5E2E2E2E2E2E2E2E2E2E2E2E2E2E2E2E2E2E2E2E2F5F5EFF5E2E2E2F5E2E2E2E2E2E2E2E2E2E2E2E2E2E2E2E2F5E2E2E2E2E2E2E2E2E2E2E2E2E2E2E2E2E2
310
E2E2E2E2E2E2E2E2E2E2E2E2DCE2E2E2E2E2E2E2E2E2E2E2E2E2E2E2E2E2E2E2E2E2E2E2E2E2E2E2E2E2E2E2E2E2E2E2E2E2E2E2E2E2E2E2E2E2E2E2E2E2E2E2E2E2E2E2E2E2E2E2E2E2E2E2E2E2E2E2E2E2E2E2E2E2E2DCE2E2E2E2E2E2E2E2E2E2E2E2E2E2E2E2E2E2E2E2E2E2E2E2E2E2E2E2E2F5E2E2E2E2E2E2E2E2E2
310
E2E2E2E2E2E2E2F5E2E2E2F5F5EFF5E2E2E2F5E2E2E2E2E2E2E2E2E2E2E2E2E2E2E2E2F5E2E2E2E2E2E2E2E2E2E2E2E2E2E2E2E2E2E2E2E2E2E2E2E2E2E2E2E2E2DCE2E2E2E2E2E2E2E2E2E2E2E2E2E2E2E2E2E2E2E2E2E2E2E2E2E2E2E2E2E2E2E2E2E2E2E2E2E2E2E2E2E2E2E2E2E2E2E2E2E2E2E2E2E2E2E2E2E2E2E2E2
310
E2E2E2E2E2E2E2E2E2E2E2E2E2DCE2E2E2E2E2E2E2E2E2E2E2E2E2E2E2E2E2E2E2E2E2E2E2E2E2E2E2E2E2F5E2E2E2E2E2E2E2E2E2E2E2E2E2E2E2E2F5E2E2E2F5F5EFF5E2E2E2F5E2E2E2E2E2E2E2E2E2E2E2E2E2E2E2E2F5E2E2E2E2E2E2E2E2E2E2E2E2E2E2E2E2E2E2E2E2E2E2E2E2E2E2E2E2E2DCE2E2E2E2E2E2E2E2
310
E2E2E2E2E2E2E2E2E2E2E2E2E2E2E2E2E2E2E2E2E2E2E2E2E2E2E2E2E2E2E2E2E2E2E2E2E2E2E2E2E2E2E2E2E2E2E2E2E2E2E2E2E2E2E2E2E2E2E2E2E2E2E2E2E2E2DCE2E2E2E2E2E2E2E2E2E2E2E2E2E2E2E2E2E2E2E2E2E2E2E2E2E2E2E2E2F5E2E2E2E2E2E2E2E2E2E2E2E2E2E2E2E2F5E2E2E2F5F5EFF5E2E2E2F5E2E2
310
E2E2E2E2E2E2E2E2E2E2E2E2E2E2F5E2E2E2E2E2E2E2E2E2E2E2E2E2E2E2E2E2E2E2E2E2E2E2E2E2E2E2E2E2DCE2E2E2E2E2E2E2E2E2E2E2E2E2E2E2E2E2E2E2E2E2E2E2E2E2E2E2E2E2E2E2E2E2E2E2E2E2E2E2E2E2E2E2E2E2E2E2E2E2E2E2E2E2E2E2E2E2E2E2E2E2E2E2E2E2E2E2E2E2E2E2E2E2E2DCE2E2E2E2E2E2E2
310
E2E2E2E2E2E2E2E2E2E2E2E2E2E2E2E2E2E2E2E2E2E2F5E2E2E2E2E2E2E2E2E2E2E2E2E2E2E2E2F5E2E2E2F5F5EFF5E2E2E2F5E2E2E2E2E2E2E2E2E2E2E2E2E2E2E2E2F5E2E2E2E2E2E2E2E2E2E2E2E2E2E2E2E2E2E2E2E2E2E2E2E2E2E2E2E2E2DCE2E2E2E2E2E2E2E2E2E2E2E2E2E2E2E2E2E2E2E2E2E2E2E2E2E2E2E2E2
310
E2E2E2E2E2E2E2E2E2E2E2E2E2E2E2E2E2E2E2E2E2E2E2E2E2E2E2E2E2E2E2E2E2E2E2E2E2E2E2E2E2E2E2E2E2DCE2E2E2E2E2E2E2E2E2E2E2E2E2E2E2E2E2E2E2E2E2E2E2E2E2E2E2E2E2F5E2E2E2E2E2E2E2E2E2E2E2E2E2E2E2E2F5E2E2E2F5F5EFF5E2E2E2F5E2E2E2E2E2E2E2E2E2E2E2E2E2E2E2E2F5E2E2E2E2E2E2
310
E2E2E2E2E2E2E2E2E2E2E2E2E2E2E2E2E2E2E2E2E2E2E2DCE2E2E2E2E2E2E2E2E2E2E2E2E2E2E2E2E2E2E2E2E2E2E2E2E2E2E2E2E2E2E2E2E2E2E2E2E2E2E2E2E2E2E2E2E2E2E2E2E2E2E2E2E2E2E2E2E2E2E2E2E2E2E2E2E2E2E2E2E2E2E2E2E2E2DCE2E2E2E2E2E2E2E2E2E2E2E2E2E2E2E2E2E2E2E2E2E2E2E2E2E2E2E2
310
E2F5E2E2E2E2E2E2E2E2E2E2E2E2E2E2E2E2F5E2E2E2F5F5EFF5E2E2E2F5E2E2E2E2E2E2E2E2E2E2E2E2E2E2E2E2F5E2E2E2E2E2E2E2E2E2E2E2E2E2E2E2E2E2E2E2E2E2E2E2E2E2E2E2E2E2DCE2E2E2E2E2E2E2E2E2E2E2E2E2E2E2E2E2E2E2E2E2E2E2E2E2E2E2E2E2E2E2E2E2E2E2E2E2E2E2E2E2E2E2E2E2E2E2E2E2E2
310
E2E2E2E2E2E2E2E2E2E2E2E2E2E2E2E2E2E2E2E2E2E2E2E2DCE2E2E2E2E2E2E2E2E2E2E2E2E2E2E2E2E2E2E2E2E2E2E2E2E2E2E2E2E2F5E2E2E2E2E2E2E2E2E2E2E2E2E2E2E2E2F5E2E2E2F5F5EFF5E2E2E2F5E2E2E2E2E2E2E2E2E2E2E2E2E2E2E2E2F5E2E2E2E2E2E2E2E2E2E2E2E2E2E2E2E2E2E2E2E2E2E2E2E2E2E2E2
310
E2E2DCE2E2E2E2E2E2E2E2E2E2E2E2E2E2E2E2E2E2E2E2E2E2E2E2E2E2E2E2E2E2E2E2E2E2E2E2E2E2E2E2E2E2E2E2E2E2E2E2E2E2E2E2E2E2E2E2E2E2E2E2E2E2E2E2E2E2E2E2E2E2E2E2E2E2DCE2E2E2E2E2E2E2E2E2E2E2E2E2E2E2E2E2E2E2E2E2E2E2E2E2E2E2E2E2F5E2E2E2E2E2E2E2E2E2E2E2E2E2E2E2E2F5E2E2
310
E2F5F5EFF5E2E2E2F5E2E2E2E2E2E2E2E2E2E2E2E2E2E2E2E2F5E2E2E2E2E2E2E2E2E2E2E2E2E2E2E2E2E2E2E2E2E2E2E2E2E2E2E2E2E2DCE2E2E2E2E2E2E2E2E2E2E2E2E2E2E2E2E2E2E2E2E2E2E2E2E2E2E2E2E2E2E2E2E2E2E2E2E2E2E2E2E2E2E2E2E2E2E2E2E2E2E2E2E2E2E2E2E2E2E2E2E2E2E2E2E2E2E2E2E2E2E2
310
E2E2E2DCE2E2E2E2E2E2E2E2E2E2E2E2E2E2E2E2E2E2E2E2E2E2E2E2E2E2E2E2E2F5E2E2E2E2E2E2E2E2E2E2E2E2E2E2E2E2F5E2E2E2F5F5EFF5E2E2E2F5E2E2E2E2E2E2E2E2E2E2E2E2E2E2E2E2F5E2E2E2E2E2E2E2E2E2E2E2E2E2E2E2E2E2E2E2E2E2E2E2E2E2E2E2E2E2DCE2E2E2E2E2E2E2E2E2E2E2E2E2E2E2E2E2E2
310
E2E2E2E2E2E2E2E2E2E2E2E2E2E2E2E2E2E2E2E2E2E2E2E2E2E2E2E2E2E2E2E2E2E2E2E2E2E2E2E2E2E2E2E2E2E2E2E2E2E2E2E2E2E2E2E2DCE2E2E2E2E2E2E2E2E2E2E2E2E2E2E2E2E2E2E2E2E2E2E2E2E2E2E2E2E2F5E2E2E2E2E2E2E2E2E2E2E2E2E2E2E2E2F5E2E2E2F5F5EFF5E2E2E2F5E2E2E2E2E2E2E2E2E2E2E2E2
310
E2E2E2E2F5E2E2E2E2E2E2E2E2E2E2E2E2E2E2E2E2E2E2E2E2E2E2E2E2E2E2E2E2E2DCE2E2E2E2E2E2E2E2E2E2E2E2E2E2E2E2E2E2E2E2E2E2E2E2E2E2E2E2E2E2E2E2E2E2E2E2E2E2E2E2E2E2E2E2E2E2E2E2E2E2E2E2E2E2E2E2E2E2E2E2E2E2E2E2E2E2E2E2E2E2E2E2E2E2DCE2E2E2E2E2E2E2E2E2E2E2E2E2E2E2E2E2
310
E2E2E2E2E2E2E2E2E2E2E2E2F5E2E2E2E2E2E2E2E2E2E2E2E2E2E2E2E2F5E2E2E2F5F5EFF5E2E2E2F5E2E2E2E2E2E2E2E2E2E2E2E2E2E2E2E2F5E2E2E2E2E2E2E2E2E2E2E2E2E2E2E2E2E2E2E2E2E2E2E2E2E2E2E2E2E2DCE2E2E2E2E2E2E2E2E2E2E2E2E2E2E2E2E2E2E2E2E2E2E2E2E2E2E2E2E2E2E2E2E2E2E2E2E2E2E2
310
E2E2E2E2E2E2E2E2E2E2E2E2E2E2E2E2E2E2E2E2E2E2E2E2E2E2E2E2E2E2E2E2E2E2E2DCE2E2E2E2E2E2E2E2E2E2E2E2E2E2E2E2E2E2E2E2E2E2E2E2E2E2E2E2E2F5E2E2E2E2E2E2E2E2E2E2E2E2E2E2E2E2F5E2E2E2F5F5EFF5E2E2E2F5E2E2E2E2E2E2E2E2E2E2E2E2E2E2E2E2F5E2E2E2E2E2E2E2E2E2E2E2E2E2E2E2E2
310
E2E2E2E2E2E2E2E2E2E2E2E2E2DCE2E2E2E2E2E2E2E2E2E2E2E2E2E2E2E2E2E2E2E2E2E2E2E2E2E2E2E2E2E2E2E2E2E2E2E2E2E2E2E2E2E2E2E2E2E2E2E2E2E2E2E2E2E2E2E2E2E2E2E2E2E2E2E2E2E2E2E2E2E2E2E2E2E2DCE2E2E2E2E2E2E2E2E2E2E2E2E2E2E2E2E2E2E2E2E2E2E2E2E2E2E2E2E2F5E2E2E2E2E2E2E2E2
310
E2E2E2E2E2E2E2E2F5E2E2E2F5F5EFF5E2E2E2F5E2E2E2E2E2E2E2E2E2E2E2E2E2E2E2E2F5E2E2E2E2E2E2E2E2E2E2E2E2E2E2E2E2E2E2E2E2E2E2E2E2E2E2E2E2E2DCE2E2E2E2E2E2E2E2E2E2E2E2E2E2E2E2E2E2E2E2E2E2E2E2E2E2E2E2E2E2E2E2E2E2E2E2E2E2E2E2E2E2E2E2E2E2E2E2E2E2E2E2E2E2E2E2E2E2E2E2
310
E2E2E2E2E2E2E2E2E2E2E2E2E2E2DCE2E2E2E2E2E2E2E2E2E2E2E2E2E2E2E2E2E2E2E2E2E2E2E2E2E2E2E2E2F5E2E2E2E2E2E2E2E2E2E2E2E2E2E2E2E2F5E2E2E2F5F5EFF5E2E2E2F5E2E2E2E2E2E2E2E2E2E2E2E2E2E2E2E2F5E2E2E2E2E2E2E2E2E2E2E2E2E2E2E2E2E2E2E2E2E2E2E2E2E2E2E2E2E2DCE2E2E2E2E2E2E2
310
E2E2E2E22727272727272727272727272727272727272727272727272727272727272727272727272727272727272727272727E2E2E2E2E2E2E2E2E2E2E2E2E2E2E2E2DCE2E2E2E2E2E2E2E2E2E2E2E2E2E2E2E2E2E2E2E2E2E2E2E2E2E2E2E2E2F5E2E2E2E2E2E2E2E2E2E2E2E2E2E2E2E2F5E2E2E2F5F5EFF5E2E2E2F5E2
310
E2E2E2E2E2E2E2E2E2E2E2E2E2E2E2F5E2E2E2E2E2E2E2E2E2E2E2E2E2E2E2E2E2E2E2E2E2E2E2E2E2E2E2E2E2DCE2E2E2E2E2E2E2E2E2E2E2E2E2E2E2E2E2E2E2E2E2E2E2E2E2E2E2E2E2E2E2E2E2E2E2E2E2E2E2E2E2E2E2E2E2E2E2E2E2E2E2E2E2E2E2E2E2E2E2E2E2E2E2E2E2E2E2E2E2E2E2E2E2E2DCE2E2E2E2E2E2
310
E2E2E2E2E2E2E2E2E2E2E2E2E2E2E2E2E2E2E2E2E2E2E2F5E2E2E2E2E2E2E2E2E2E2E2E2E2E2E2E2F5E2E2E2F5F5EFF5E2E2E2F5E2E2E2E2E2E2E2E2E2E2E2E2E2E2E2E2F5E2E2E2E2E2E2E2E2E2E2E2E2E2E2E2E2E2E2E2E2E2E2E2E2E2E2E2E2E2DCE2E2E2E2E2E2E2E2E2E2272727272727272727272727272727E2E2E2
310
E2E2E2E2E2E2E2E2E2E2E2E2E2E2E2E2E2E2E2E2E2E2E2E2E2E2E2E2E2E2E2E2E2E2E2E2E2E2E2E2E2E2E2E2E2E2DCE2E2E2E2E2E2E2E2E2E2E2E2E2E2E2E2E2E2E2E2E2E2E2E2E2E2E2E2E2F5E2E2E2E2E2E2E2E2E2E2E2E2E2E2E2E2F5E2E2E2F5F5EFF5E2E2E2E2E2E2E2E2E2E2E2E2E2E2E2E2E2E2E2E2F5E2E2E2E2E2
310
E2E2E2E2E2E2E2E2E2E2E2E2E2E2E2E2E2E2E2E2E2E2E2E2DCE2E2E2E2E2E2E2E2E2E2272727272727272727272727272727E2E2E2E2E2E2E2E2E2E2E2E2E2E2E2E2E2E2E2E2E2E2E2E2E2E2E2E2E2E2E2E2E2E2E2E2E2E2E2E2E2E2E2E2E2E2E2E2E2DCE2E2E2E2E2E2E2E2E2E2E2E2E2E2E2E2E2E2E2E2E2E2E2E2E2E2E2
310
E2E2F5E2E2E2E2E2E2E2E2E2E2E2E2E2E2E2E2E2E2E2E2F5F5EFF5E2E2E2E2E2E2E2E2E2E2E2E2E2E2E2E2E2E2E2E2F5E2E2E2E2E2E2E2E2E2E2E2E2E2E2E2E2E2E2E2E2E2E2E2E2E2E2E2E2E2DCE2E2E2E2E2E2E2E2E2E2E2E2E2E2E2E2E2E2E2E2E2E2E2E2E2E2E2E2E2E2E2E2E2E2E2E2E2E2E2E2E2E2E2E2E2E2E2E2E2
310
E2E2E2E2E2E2E2E2E2E2E2E2E2E2E2E2E2E2E2E2E2E2E2E2E2DCE2E2E2E2E2E2E2E2E2E2E2E2E2E2E2E2E2E2E2E2E2E2E2E2E2E2E2E2E2F5E2E2E2E2E2E2E2E2E2E2E2E2E2E2E2E2E2E2E2E2F5F5EFF5E2E2E2E2E2E2E2E2E2E2E2E2E2E2E2E2E2E2E2E2F5E2E2E2E2E2E2E2E2E2E2E2E2E2E2E2E2E2E2E2E2E2E2E2E2E2E2
310
E2E2E2DCE2E2E2E2E2E2E2E2E2E2E2E2E2E2E2E2E2E2E2E2E2E2E2E2E2E2E2E2E2E2E2E2E2E2E2E2E2E2E2E2E2E2E2E2E2E2E2E2E2E2E2E2E2E2E2E2E2E2E2E2E2E2E2E2E2E2E2E2E2E2E2E2E2E2DCE2E2E2E2E2E2E2E2E2E2E2E2E2E2E2E2E2E2E2E2E2E2E2E2E2E2E2E2E2F5E2E2E2E2E2E2E2E2E2E2E2E2E2E2E2E2E2E2
310
E2E2F5F5EFF5E2E2E2E2E2E2E2E2E2E2E2E2E2E2E2E2E2E2E2E2F5E2E2E2E2E2E2E2E2E2E2E2E2E2E2E2E2E2E2E2E2E2E2E2E2E2E2E2E2E2DCE2E2E2E2E2E2E2E2E2E2E2E2E2E2E2E2E2E2E2E2E2E2E2E2E2E2E2E2E2E2E2E2E2E2E2E2E2E2E2E2E2E2E2E2E2E2E2E2E2E2E2E2E2E2E2E2E2E2E2E2E2E2E2E2E2E2E2E2E2E2
310
E2E2E2E2DCE2E2E2E2E2E2E2E2E2E2E2E2E2E2E2E2E2E2E2E2E2E2E2E2E2E2E2E2E2F5E2E2E2E2E2E2E2E2E2E2E2E2E2E2E2E2E2E2E2E2F5F5EFF5E2E2E2E2E2E2E2E2E2E2E2E2E2E2E2E2E2E2E2E2F5F5F5F5F5F5F5F5F5F5F5F5F5F5F5F5F5F5F5F5F5F5F5F5F5F5F5F5F5F5F5F5F5F5F5F5F5F5F5F5F5F5F5F5F5F5F5F5
310
F5F5F5F5F5F5F5F5F5F5F5F5F5F5F5F5F5F5F5F5F5F5F5F5F5F5F5F5F5F5F5F5F5F5F5F5F5F5F5F5F5F5F5F5F5F5F5F5F5F5F5F5F5F5F5F5F5F5F5F5F5F5F5F5F5F5F5F5F5F5F5F5F5F5F5F5F5F5F5F5F5F5F5F5F5F5F5F5E2E2E2E2E2E2E2E2E2E2E2E2E2E2E2E2E2E2E2E2F5F5EFF5E2E2E2E2E2E2E2E2E2E2E2E2E2E2E2
310
E2E2E2E2E2E2E2E2E2E2E2E2E2E2E2E2E2E2E2E2E2E2E2E2E2E2E2E2E2E2E2E2E2E2E2E2E2E2E2E2E2E2E2E2E2E2E2E2E2E2E2E2E2E2E2E2E2E2E2E2E2E2E2E2E2E2E2E2E2E2E2E2E2E2E2E2E2E2E2E2E2E2E2E2E2E2E2E2E2E2E2E2E2E2E2E2E2E2E2E2E2E2E2E2E2E2E2E2E2E2E2E2E2E2E2E2E2E2E2E2E2E2E2E2E2E2E2
310
E2E2E2E2E2E2E2E2E2E2E2E2E2E2E2E2E2E2E2E2E2E2E2E2E2E2E2E2E2E2E2E2E2E2F5F5EFF5E2E2E2E2E2E2E2E2E2E2E2E2E2E2E2E2E2E2E2E2E2E2E2E2E2E2E2E2E2E2E2E2E2E2E2E2E2E2E2E2E2E2E2E2E2E2E2E2E2E2E2E2E2E2E2E2E2E2E2E2E2E2E2E2E2E2E2E2E2E2E2E2E2E2E2E2E2E2E2E2E2E2E2E2E2E2E2E2E2
310
E2E2E2E2E2E2E2E2E2E2E2E2E2E2E2E2E2E2E2E2E2E2E2E2E2E2E2E2E2E2E2E2E2E2E2E2E2E2E2E2E2E2E2E2E2E2E2E2E2E2E2E2E2E2E2E2E2E2E2E2E2E2E2E2E2E2E2E2E2E2E2E2E2E2E2E2E2E2E2E2E2E2E2E2E2E2E2F5F5EFF5E2E2E2E2E2E2E2E2E2E2E2E2E2E2E2E2E2E2E2E2E2E2E2E2E2E2E2E2E2E2E2E2E2E2E2E2
310
E2E2E2E2E2E2E2E2E2E2E2E2E2E2E2E2E2E2E2E2E2E2E2E2E2E2E2E2E2E2E2E2E2E2E2E2E2E2E2E2E2E2E2E2E2E2E2E2E2E2E2E2E2E2E2E2E2E2E2E2E2E2E2E2E2E2E2E2E2E2E2E2E2E2E2E2E2E2E2E2E2E2E2E2E2E2E2E2E2E2E2E2E2E2E2E2E2E2E2E2E2E2E2E2E2E2E2E2E2E2E2E2E2E2E2E2E2E2E2E2E2E2E2E2E2E2E2
310
E2E2E2E2E2E2E2E2E2E2E2E2E2F5F5EFF5E2E2E2E2E2E2E2E2E2E2E2E2E2E2E2E2E2E2E2E2E2E2E2E2E2E2E2E2E2E2E2E2E2E2E2E2E2E2E2E2E2E2E2E2E2E2E2E2E2E2E2E2E2E2E2E2E2E2E2E2E2E2E2E2E2E2E2E2E2E2E2E2E2E2E2E2E2E2E2E2E2E2E2E2E2E2E2E2E2E2E2E2E2E2E2E2E2E2E2E2E2E2E2E2E2E2E2E2E2E2
310
E2E2E2E2E2E2E2E2E2E2E2E2E2E2E2E2E2E2E2E2E2E2E2E2E2E2E2E2E2E2E2E2E2E2E2E2E2E2E2E2E2E2E2E2E2E2E2E2E2E2E2E2E2E2E2E2E2E2E2E2E2E2E2E2E2E2F5F5EFF5E2E2E2F5E2E2E2E2E2E2E2E2E2E2E2E2E2E2E2E2E2E2E2E2E2E2E2E2E2E2E2E2E2E2E2E2E2E2E2E2E2E2E2E2E2E2E2E2E2E2E2E2E2E2E2E2E2
310
E2E2E2E2E2E2E2E2E2E2E2E2E2E2E2E2E2E2E2E2E2E2E2E2E2E2E2E2E2E2E2E2E2E2E2E2E2E2E2E2E2E2E2E2E2E2E2E2E2E2E2E2E2E2E2E2E2E2E2E2E2E2E2E2E2E2E2E2E2E2E2E2E2E2E2E2E2E2E2E2E2E2E2E2E2E2E2E2E2E2E2E2E2E2E2E2E2E2E2E2E2E2E2E2E2E2E2E2E2E2E2E2E2E2E2F5E2E2E2F5F5EFF5E2E2E2F5
310
E2E2E2E2E2E2E2E2E2E2E2E2E2E2E2E2E2E2E2E2E2E2E2E2E2E2E2E2E2E2E2E2E2E2E2E2E2E2E2E2E2E2E2E2E2E2E2E2E2E2E2E2E2E2E2E2E2E2E2E2E2E2E2E2E2E2E2E2E2E2E2E2E2E2E2E2E2E2E2E2E2E2E2E2E2E2E2E2E2E2E2E2E2E2E2E2E2E2E2E2E2E2E2E2E2E2E2E2E2E2E2E2E2E2E2E2E2E2E2E2E2E2E2E2E2E2E2
310
E2E2E2E2E2E2E2E2E2E2E2E2E2E2E2E2E2E2E2E2E2E2E2E2E2E2E2E2E2E2E2E2E2E2E2E2E2E2E2E2E2F5E2E2E2F5F5EFF5E2E2E2F5E2E2E2E2E2E2E2E2E2E2E2E2E2E2E2E2E2E2E2E2E2E2E2E2E2E2E2E2E2E2E2E2E2E2E2E2E2E2E2E2E2E2E2E2E2E2E2E2E2E2E2E2E2E2E2E2E2E2E2E2E2E2E2E2E2E2E2E2E2E2E2E2E2E2
310
E2E2E2E2E2E2E2E2E2E2E2E2E2E2E2E2E2E2E2E2E2E2E2E2E2E2E2E2E2E2E2E2E2E2E2E2E2E2E2E2E2E2E2E2E2E2E2E2E2E2E2E2E2E2E2E2E2E2E2E2E2E2E2E2E2E2E2E2E2E2E2E2E2E2E2E2E2E2E2E2E2E2E2E2E2E2E2E2E2E2E2E2E2E2F5E2E2E2F5F5EFF5E2E2E2F5E2E2E2E2E2E2E2E2E2E2E2E2E2E2E2E2E2E2E2E2E2
310
E2E2E2E2E2E2E2E2E2E2E2E2E2E2E2E2E2E2E2E2E2E2E2E2E2E2E2E2E2E2E2E2E2E2E2E2E2E2E2E2E2E2E2E2E2E2E2E2E2E2E2E2E2E2E2E2E2E2E2E2E2E2E2E2E2E2E2E2E2E2E2E2E2E2E2E2E2E2E2E2E2E2E2E2E2E2E2E2E2E2E2E2E2E2E2E2E2E2E2E2E2E2E2E2E2E2E2E2E2E2E2E2E2E2E2E2E2E2E2E2E2E2E2E2E2E2E2
310
E2E2E2E2E2E2E2E2E2E2E2E2E2E2E2E2E2E2E2E2F5E2E2E2F5F5EFF5E2E2E2F5E2E2E2E2E2E2E2E2E2E2E2E2E2E2E2E2E2E2E2E2E2E2E2E2E2E2E2E2E2E2E2E2E2E2E2E2E2E2E2E2E2E2E2E2E2E2E2E2E2E2E2E2E2E2E2E2E2E2E2E2E2E2E2E2E2E2E2E2E2E2E2E2E2E2E2E2E2E2E2E2E2E2E2E2E2E2E2E2E2E2E2E2E2E2E2
310
E2E2E2E2E2E2E2E2E2E2E2E2E2E2E2E2E2E2E2E2E2E2E2E2E2E2E2E2E2E2E2E2E2E2E2E2E2E2E2E2E2E2E2E2E2E2E2E2E2E2E2E2E2E2E2E2E2E2E2E2E2E2E2E2E2E2E2E2E2E2E2E2E2F5E2E2E2F5F5EFF5E2E2E2F5E2E2E2E2E2E2E2E2E2E2E2E2E2E2E2E2E2E2E2E2E2E2E2E2E2E2E2E2E2E2E2E2E2E2E2E2E2E2E2E2E2E2
310
E2E2E2E2E2E2E2E2E2E2E2E2E2E2E2E2E2E2E2E2E2E2E2E2E2E2E2E2E2E2E2E2E2E2E2E2E2E2E2E2E2E2E2E2E2E2E2E2E2E2E2E2E2E2E2E2E2E2E2E2E2E2E2E2E2E2E2E2E2E2E2E2E2E2E2E2E2E2E2E2E2E2E2E2E2E2E2E2E2E2E2E2E2E2E2E2E2E2E2E2E2E2E2E2E2E2E2E2E2E2E2E2E2E2E2E2E2E2E2E2E2E2E2E2E2E2F5
310
E2E2E2F5F5EFF5E2E2E2F5E2E2E2E2E2E2E2E2E2E2E2E2E2E2E2E2E2E2E2E2E2E2E2E2E2E2E2E2E2E2E2E2E2E2E2E2E2E2E2E2E2E2E2E2E2E2E2E2E2E2E2E2E2E2E2E2E2E2E2E2E2E2E2E2E2E2E2E2E2E2E2E2E2E2E2E2E2E2E2E2E2E2E2E2E2E2E2E2E2E2E2E2E2E2E2E2E2E2E2E2E2E2E2E2E2E2E2E2E2E2E2E2E2E2E2E2
310
E2E2E2E2E2E2E2E2E2E2E2E2E2E2E2E2E2E2E2E2E2E2E2E2E2E2E2E2E2E2E2E2E2E2E2E2E2E2E2E2E2E2E2E2E2E2E2E2E2E2E2E2F5E2E2E2F5F5EFF5E2E2E2F5E2E2E2E2E2E2E2E2E2E2E2E2E2E2E2E2E2E2E2E2E2E2E2E2E2E2E2E2E2E2E2E2E2E2E2E2E2E2E2E2E2E2E2E2E2E2E2E2E2E2E2E2E2E2E2E2E2E2E2E2E2E2E2
310
E2E2E2E2E2E2E2E2E2E2E2E2E2E2E2E2E2E2E2E2E2E2E2E2E2E2E2E2E2E2E2E2E2E2E2E2E2E2E2E2E2E2E2E2E2E2E2E2E2E2E2E2E2E2E2E2E2E2E2E2E2E2E2E2E2E2E2E2E2E2E2E2E2E2E2E2E2E2E2E2E2E2E2E2E2E2E2E2E2E2E2E2E2E2E2E2E2E2E2E2E2E2E2E2E2F5E2E2E2F5F5EFF5E2E2E2F5F5F5F5F5F5F5F5E2E2E2
310
E2E2E2E2E2E2F5F5F5F5F5F5F5F5F5F5F5F5F5F5F5E2E2E2E2E2E2E2E2E2F5F5F5F5F5F5F5F5F5F5F5F5F5F5F5F5E2E2E2E2E2E2E2E2F5F5F5F5F5F5F5F5F5F5F5F5F5F5F5F5E2E2E2E2E2E2E2E2F5F5F5F5F5F5F5F5F5F5F5F5F5F5F5F5E2E2E2E2E2E2E2E2F5F5F5F5F5F5F5F5F5F5F5F5F5F5F5F5E2E2E2E2E2E2E2E2E2
310
F5F5F5F5F5F5F5F5F5F5F5F5F5F5F5E2E2E2E2E2E2E2E2E2F5F5F5F5F5F5F5F5E2E2E2F5F5EFF5E2E2E2E2E2E2E2E2E2E2E2E2E2E2E2E2E2E2E2E2E2E2E2E2E2E2E2E2E2E2E2E2E2E2E2E2E2E2E2E2E2E2E2E2E2E2E2E2E2E2E2E2E2E2E2E2E2E2E2E2E2E2E2E2E2E2E2E2E2E2E2E2E2E2E2E2E2E2E2E2E2E2E2E2E2E2E2E2
310
E2E2E2E2E2E2E2E2E2E2E2E2E2E2E2E2E2E2E2E2E2E2E2E2E2E2E2E2E2E2E2E2E2E2E2E2E2E2E2E2E2E2E2E2E2E2E2E2E2E2E2E2E2E2E2E2E2E2E2E2E2E2E2E2E2E2E2E2E2E2E2E2E2E2E2E2E2E2E2E2E2E2E2E2E2E2E2E2F5F5EFF5E2E2E2E2E2E2E2E2E2E2E2E2E2E2E2E2E2E2E2E2E2E2E2E2E2E2E2E2E2E2E2E2E2E2E2
310
E2E2E2E2E2E2E2E2E2E2E2E2E2E2E2E2E2E2E2E2E2E2E2E2E2E2E2E2E2E2E2E2E2E2E2E2E2E2E2E2E2E2E2E2E2E2E2E2E2E2E2E2E2E2E2E2E2E2E2E2E2E2E2E2E2E2E2E2E2E2E2E2E2E2E2E2E2E2E2E2E2E2E2E2E2E2E2E2E2E2E2E2E2E2E2E2E2E2E2E2E2E2E2E2E2E2E2E2E2E2E2E2E2E2E2E2E2E2E2E2E2E2E2E2E2E2E2
310
E2E2E2E2E2E2E2E2E2E2E2E2E2E2F5EFEFF5E2E2E2E2E2E2E2E2E2E2E2E2E2E2E2E2E2E2E2E2E2E2E2E2E2E2E2E2E2E2E2E2E2E2E2E2E2E2E2E2E2E2E2E2E2E2E2E2E2E2E2E2E2E2E2E2E2E2E2E2E2E2E2E2E2E2E2E2E2E2E2E2E2E2E2E2E2E2E2E2E2E2E2E2E2E2E2E2E2E2E2E2E2E2E2E2E2E2E2E2E2E2E2E2E2E2E2E2E2
310
E2E2E2E2E2E2E2E2E2E2E2E2E2E2E2E2E2E2E2E2E2E2E2E2E2E2E2E2E2E2E2E2E2E2E2E2E2E2E2E2E2E2E2E2E2E2E2E2E2E2E2E2E2E2E2E2E2E2E2E2E2E2E2E2E2E2E2F5EFEFF5F5F5F5F5F5F5F5F5F5F5F5F5F5F5F5F5F5F5F5F5F5F5F5F5F5F5F5F5F5F5F5F5F5F5F5F5F5F5F5F5F5F5F5F5F5F5F5F5F5F5F5F5F5F5F5F5
310
F5F5F5F5F5F5F5F5F5F5F5F5F5F5F5F5F5F5F5F5F5F5F5F5F5F5F5F5F5F5F5F5F5F5F5F5F5F5F5F5F5F5F5F5F5F5F5F5F5F5F5F5F5F5F5F5F5F5F5F5F5F5F5F5F5F5F5F5F5F5F5F5F5F5F5F5F5F5F5F5F5F5F5F5F5F5F5F5F5F5F5F5F5F5F5F5F5F5F5F5F5F5F5F5F5F5F5F5F5F5F5F5F5F5F5F5F5F5F5F5F5EFEF
  0
XRECORD
  5
3B0
102
{ACAD_REACTORS
330
3AF
102
}
330
3AF
100
AcDbXrecord
280
     1
102
SHADEPLOT
 70
     1
102
SHADEPLOTRESLEVEL
 70
     2
102
SHADEPLOTCUSTOMDPI
 70
   300
  0
XRECORD
  5
3B5
102
{ACAD_REACTORS
330
3B4
102
}
330
3B4
100
AcDbXrecord
280
     1
102
MATERIAL
148
0.0
149
0.0
149
0.0
 93
        0
 94
       63
282
     0
 72
     1
 77
     1
171
     1
175
     1
179
     1
273
     0
  0
XRECORD
  5
3B3
102
{ACAD_REACTORS
330
3B2
102
}
330
3B2
100
AcDbXrecord
280
     1
102
MATERIAL
148
0.0
149
0.0
149
0.0
 93
        0
 94
       63
282
     0
 72
     1
 77
     1
171
     1
175
     1
179
     1
273
     0
  0
XRECORD
  5
3AE
102
{ACAD_REACTORS
330
3AD
102
}
330
3AD
100
AcDbXrecord
280
     1
102
MATERIAL
148
0.0
149
0.0
149
0.0
 93
        0
 94
       63
282
     0
 72
     1
 77
     1
171
     1
175
     1
179
     1
273
     0
  0
ACAD_PROXY_OBJECT
  5
5D
102
{ACAD_REACTORS
330
5C
102
}
330
5C
100
AcDbProxyObject
 90
      499
 91
      778
 95
   131099
 70
     0
 93
     4157
310
40D054060020000020000003200101A412941600000030400000000000000D03F90640640600000030400FEFFFFFF80AD7A3703D0AA73F40A40600000030400FEFFFFFF80AD7A3703D0AA73F41240600000030400FEFFFFFF80AD7A3703D0AA73F42240600000030400FEFFFFFF80AD7A3703D0AA73F44240600000030400F
310
EFFFFFF80AD7A3703D0AA73F48240600000030400FEFFFFFF80AD7A3703D0AA73F4050141501A8000000C800406904A5058000000C10002B5E8DC0F42B1CFE419019018000000C1003FBFFFFFE02B5E8DC0F42A9CFD029018000000C1003FBFFFFFE02B5E8DC0F42A9CFD049018000000C1003FBFFFFFE02B5E8DC0F42A9CF
310
D089018000000C1003FBFFFFFE02B5E8DC0F42A9CFD109018000000C1003FBFFFFFE02B5E8DC0F42A9CFD209018000000C1003FBFFFFFE02B5E8DC0F42A9CFD0240505406A0000003200101A412940A000000304000AD7A3703D0AC73F90640640600000030400FEFFFFFF80AD7A3703D0AA73F40A40600000030400FEFFFF
310
FF80AD7A3703D0AA73F41240600000030400FEFFFFFF80AD7A3703D0AA73F42240600000030400FEFFFFFF80AD7A3703D0AA73F44240600000030400FEFFFFFF80AD7A3703D0AA73F48240600000030400FEFFFFFF80AD7A3703D0AA73F40D029065F005400490054004C0045009075F004800450041004400450052009055
310
F0044004100540041004401C
340
25
340
0
340
0
340
0
340
0
340
0
340
0
340
25
340
0
340
0
340
0
340
0
340
0
340
0
340
25
340
0
340
0
340
0
340
0
340
0
340
0
 94
        0
1001
ACAD
1000
AcRTDxfName
1000
CELLSTYLEMAP
  0
XRECORD
  5
3B6
102
{ACAD_REACTORS
330
5C
102
}
330
5C
100
AcDbXrecord
280
     1
102
ACAD_ROUNDTRIP_PRE2007_TABLESTYLE
 90
        4
 91
        0
  1

 92
        4
 93
        0
  2

 94
        4
 95
        0
  3

  0
ENDSEC
  0
EOF
