  0
SECTION
  2
HEADER
  9
$ACADVER
  1
AC1015
  9
$ACADMAINTVER
 70
    20
  9
$DWGCODEPAGE
  3
ANSI_1250
  9
$INSBASE
 10
0.0
 20
0.0
 30
0.0
  9
$EXTMIN
 10
164187.201902405
 20
71577.51642521247
 30
0.0
  9
$EXTMAX
 10
174387.201902405
 20
85597.51642521247
 30
0.0
  9
$LIMMIN
 10
0.0
 20
0.0
  9
$LIMMAX
 10
420.0
 20
297.0
  9
$ORTHOMODE
 70
     1
  9
$REGENMODE
 70
     1
  9
$FILLMODE
 70
     1
  9
$QTEXTMODE
 70
     0
  9
$MIRRTEXT
 70
     0
  9
$LTSCALE
 40
75.0
  9
$ATTMODE
 70
     1
  9
$TEXTSIZE
 40
20.0
  9
$TRACEWID
 40
1.0
  9
$TEXTSTYLE
  7
ROMANS
  9
$CLAYER
  8
WYMIARY
  9
$CELTYPE
  6
ByLayer
  9
$CECOLOR
 62
   256
  9
$CELTSCALE
 40
1.0
  9
$DISPSILH
 70
     0
  9
$DIMSCALE
 40
1.0
  9
$DIMASZ
 40
30.0
  9
$DIMEXO
 40
43.0
  9
$DIMDLI
 40
0.0
  9
$DIMRND
 40
0.5
  9
$DIMDLE
 40
12.0
  9
$DIMEXE
 40
13.0
  9
$DIMTP
 40
0.0
  9
$DIMTM
 40
0.0
  9
$DIMTXT
 40
80.0
  9
$DIMCEN
 40
0.0
  9
$DIMTSZ
 40
0.0
  9
$DIMTOL
 70
     0
  9
$DIMLIM
 70
     0
  9
$DIMTIH
 70
     0
  9
$DIMTOH
 70
     0
  9
$DIMSE1
 70
     1
  9
$DIMSE2
 70
     1
  9
$DIMTAD
 70
     0
  9
$DIMZIN
 70
    12
  9
$DIMBLK
  1
B-DIM
  9
$DIMASO
 70
     1
  9
$DIMSHO
 70
     1
  9
$DIMPOST
  1

  9
$DIMAPOST
  1

  9
$DIMALT
 70
     0
  9
$DIMALTD
 70
     2
  9
$DIMALTF
 40
25.4
  9
$DIMLFAC
 40
1.0
  9
$DIMTOFL
 70
     1
  9
$DIMTVP
 40
1.0
  9
$DIMTIX
 70
     1
  9
$DIMSOXD
 70
     0
  9
$DIMSAH
 70
     0
  9
$DIMBLK1
  1

  9
$DIMBLK2
  1

  9
$DIMSTYLE
  2
500
  9
$DIMCLRD
 70
     1
  9
$DIMCLRE
 70
     1
  9
$DIMCLRT
 70
    10
  9
$DIMTFAC
 40
1.0
  9
$DIMGAP
 40
0.0
  9
$DIMJUST
 70
     0
  9
$DIMSD1
 70
     0
  9
$DIMSD2
 70
     0
  9
$DIMTOLJ
 70
     1
  9
$DIMTZIN
 70
     0
  9
$DIMALTZ
 70
     0
  9
$DIMALTTZ
 70
     0
  9
$DIMUPT
 70
     0
  9
$DIMDEC
 70
     1
  9
$DIMTDEC
 70
     1
  9
$DIMALTU
 70
     2
  9
$DIMALTTD
 70
     2
  9
$DIMTXSTY
  7
ROMANS
  9
$DIMAUNIT
 70
     0
  9
$DIMADEC
 70
     0
  9
$DIMALTRND
 40
0.0
  9
$DIMAZIN
 70
     0
  9
$DIMDSEP
 70
    46
  9
$DIMATFIT
 70
     3
  9
$DIMFRAC
 70
     0
  9
$DIMLDRBLK
  1
B-DIM
  9
$DIMLUNIT
 70
     2
  9
$DIMLWD
 70
    -2
  9
$DIMLWE
 70
    -2
  9
$DIMTMOVE
 70
     2
  9
$LUNITS
 70
     2
  9
$LUPREC
 70
     1
  9
$SKETCHINC
 40
1.0
  9
$FILLETRAD
 40
0.0
  9
$AUNITS
 70
     0
  9
$AUPREC
 70
     0
  9
$MENU
  1
.
  9
$ELEVATION
 40
0.0
  9
$PELEVATION
 40
0.0
  9
$THICKNESS
 40
0.0
  9
$LIMCHECK
 70
     0
  9
$CHAMFERA
 40
0.0
  9
$CHAMFERB
 40
0.0
  9
$CHAMFERC
 40
20.0
  9
$CHAMFERD
 40
0.0
  9
$SKPOLY
 70
     0
  9
$TDCREATE
 40
2452027.670547454
  9
$TDUCREATE
 40
2452027.587214121
  9
$TDUPDATE
 40
2455029.655355359
  9
$TDUUPDATE
 40
2455029.572022026
  9
$TDINDWG
 40
8.3637353356
  9
$TDUSRTIMER
 40
8.3637353356
  9
$USRTIMER
 70
     1
  9
$ANGBASE
 50
0.0
  9
$ANGDIR
 70
     0
  9
$PDMODE
 70
     0
  9
$PDSIZE
 40
0.0
  9
$PLINEWID
 40
0.0
  9
$SPLFRAME
 70
     0
  9
$SPLINETYPE
 70
     6
  9
$SPLINESEGS
 70
     8
  9
$HANDSEED
  5
30F
  9
$SURFTAB1
 70
     6
  9
$SURFTAB2
 70
     6
  9
$SURFTYPE
 70
     6
  9
$SURFU
 70
     6
  9
$SURFV
 70
     6
  9
$UCSBASE
  2

  9
$UCSNAME
  2

  9
$UCSORG
 10
0.0
 20
0.0
 30
0.0
  9
$UCSXDIR
 10
1.0
 20
0.0
 30
0.0
  9
$UCSYDIR
 10
0.0
 20
1.0
 30
0.0
  9
$UCSORTHOREF
  2

  9
$UCSORTHOVIEW
 70
     0
  9
$UCSORGTOP
 10
0.0
 20
0.0
 30
0.0
  9
$UCSORGBOTTOM
 10
0.0
 20
0.0
 30
0.0
  9
$UCSORGLEFT
 10
0.0
 20
0.0
 30
0.0
  9
$UCSORGRIGHT
 10
0.0
 20
0.0
 30
0.0
  9
$UCSORGFRONT
 10
0.0
 20
0.0
 30
0.0
  9
$UCSORGBACK
 10
0.0
 20
0.0
 30
0.0
  9
$PUCSBASE
  2

  9
$PUCSNAME
  2

  9
$PUCSORG
 10
0.0
 20
0.0
 30
0.0
  9
$PUCSXDIR
 10
1.0
 20
0.0
 30
0.0
  9
$PUCSYDIR
 10
0.0
 20
1.0
 30
0.0
  9
$PUCSORTHOREF
  2

  9
$PUCSORTHOVIEW
 70
     0
  9
$PUCSORGTOP
 10
0.0
 20
0.0
 30
0.0
  9
$PUCSORGBOTTOM
 10
0.0
 20
0.0
 30
0.0
  9
$PUCSORGLEFT
 10
0.0
 20
0.0
 30
0.0
  9
$PUCSORGRIGHT
 10
0.0
 20
0.0
 30
0.0
  9
$PUCSORGFRONT
 10
0.0
 20
0.0
 30
0.0
  9
$PUCSORGBACK
 10
0.0
 20
0.0
 30
0.0
  9
$USERI1
 70
     0
  9
$USERI2
 70
     0
  9
$USERI3
 70
     0
  9
$USERI4
 70
     0
  9
$USERI5
 70
     0
  9
$USERR1
 40
0.0
  9
$USERR2
 40
0.0
  9
$USERR3
 40
0.0
  9
$USERR4
 40
0.0
  9
$USERR5
 40
0.0
  9
$WORLDVIEW
 70
     1
  9
$SHADEDGE
 70
     3
  9
$SHADEDIF
 70
    70
  9
$TILEMODE
 70
     1
  9
$MAXACTVP
 70
    64
  9
$PINSBASE
 10
0.0
 20
0.0
 30
0.0
  9
$PLIMCHECK
 70
     0
  9
$PEXTMIN
 10
1.000000000000000E+20
 20
1.000000000000000E+20
 30
1.000000000000000E+20
  9
$PEXTMAX
 10
-1.000000000000000E+20
 20
-1.000000000000000E+20
 30
-1.000000000000000E+20
  9
$PLIMMIN
 10
0.0
 20
0.0
  9
$PLIMMAX
 10
420.0
 20
297.0
  9
$UNITMODE
 70
     0
  9
$VISRETAIN
 70
     1
  9
$PLINEGEN
 70
     0
  9
$PSLTSCALE
 70
     1
  9
$TREEDEPTH
 70
  3020
  9
$CMLSTYLE
  2
Standard
  9
$CMLJUST
 70
     0
  9
$CMLSCALE
 40
20.0
  9
$PROXYGRAPHICS
 70
     1
  9
$MEASUREMENT
 70
     0
  9
$CELWEIGHT
370
    -1
  9
$ENDCAPS
280
     0
  9
$JOINSTYLE
280
     0
  9
$LWDISPLAY
290
     0
  9
$INSUNITS
 70
     1
  9
$HYPERLINKBASE
  1

  9
$STYLESHEET
  1
100.ctb
  9
$XEDIT
290
     1
  9
$CEPSNTYPE
380
     0
  9
$PSTYLEMODE
290
     1
  9
$FINGERPRINTGUID
  2
{FE692881-A359-4672-AC05-2121220E98AF}
  9
$VERSIONGUID
  2
{BC67BE1E-EFFD-414E-9953-3B0CE847F166}
  9
$EXTNAMES
290
     1
  9
$PSVPSCALE
 40
0.0
  9
$OLESTARTUP
290
     0
  0
ENDSEC
  0
SECTION
  2
CLASSES
  0
CLASS
  1
ACDBDICTIONARYWDFLT
  2
AcDbDictionaryWithDefault
  3
ObjectDBX Classes
 90
        0
280
     0
281
     0
  0
CLASS
  1
ACDBPLACEHOLDER
  2
AcDbPlaceHolder
  3
ObjectDBX Classes
 90
        0
280
     0
281
     0
  0
CLASS
  1
LAYOUT
  2
AcDbLayout
  3
ObjectDBX Classes
 90
        0
280
     0
281
     0
  0
CLASS
  1
DICTIONARYVAR
  2
AcDbDictionaryVar
  3
ObjectDBX Classes
 90
        0
280
     0
281
     0
  0
CLASS
  1
SORTENTSTABLE
  2
AcDbSortentsTable
  3
ObjectDBX Classes
 90
        0
280
     0
281
     0
  0
CLASS
  1
AEC_VARS_DWG_SETUP
  2
AecDbVarsDwgSetup
  3
AecBase50|Product Desc: Autodesk Architectural Desktop 2007 |Company: Autodesk,Inc. |WEB Address: www.autodesk.com
 90
    32897
280
     0
281
     0
  0
CLASS
  1
AEC_DISP_REP_CONFIG
  2
AecDbDispRepConfig
  3
AecBase50|Product Desc: Autodesk Architectural Desktop 2007 |Company: Autodesk,Inc. |WEB Address: www.autodesk.com
 90
    32897
280
     0
281
     0
  0
CLASS
  1
AEC_DISP_REP_SET
  2
AecDbDispRepSet
  3
AecBase50|Product Desc: Autodesk Architectural Desktop 2007 |Company: Autodesk,Inc. |WEB Address: www.autodesk.com
 90
    32897
280
     0
281
     0
  0
CLASS
  1
AEC_DISP_REP_2D_SECTION
  2
AecDbDispRep2dSection
  3
AecBase50|Product Desc: Autodesk Architectural Desktop 2007 |Company: Autodesk,Inc. |WEB Address: www.autodesk.com
 90
    32897
280
     0
281
     0
  0
CLASS
  1
AEC_DISP_REP_ANCHOR_BUB_TO_GRID
  2
AecDbDispRepAnchorBubToGrid
  3
AecStructureBase50|Product Desc: Autodesk Architectural Desktop 2007 |Company: Autodesk,Inc. |WEB Address: www.autodesk.com
 90
    32897
280
     0
281
     0
  0
CLASS
  1
AEC_DISP_REP_ANCHOR_BUB_TO_GRID_MODEL
  2
AecDbDispRepAnchorBubToGridMdl
  3
AecStructureBase50|Product Desc: Autodesk Architectural Desktop 2007 |Company: Autodesk,Inc. |WEB Address: www.autodesk.com
 90
    32897
280
     0
281
     0
  0
CLASS
  1
AEC_DISP_REP_ANCHOR_ENT_TO_NODE
  2
AecDbDispRepAnchorEntToNode
  3
AecBaseEx50|Product Desc: Autodesk Architectural Desktop 2007 |Company: Autodesk,Inc. |WEB Address: www.autodesk.com
 90
    32897
280
     0
281
     0
  0
CLASS
  1
AEC_DISP_REP_ANCHOR_TAG_TO_ENT
  2
AecDbDispRepAnchorTagToEnt
  3
AecScheduleData50|Product Desc: Autodesk Architectural Desktop 2007 |Company: Autodesk,Inc. |WEB Address: www.autodesk.com
 90
    32897
280
     0
281
     0
  0
CLASS
  1
AEC_DISP_REP_AREA
  2
AecDbDispRepArea
  3
AecAreaCalculationBase50|Product Desc: Autodesk Architectural Desktop 2007 |Company: Autodesk,Inc. |WEB Address: www.autodesk.com
 90
    32897
280
     0
281
     0
  0
CLASS
  1
AEC_DISP_REP_AREA_DECOMPOSED
  2
AecDbDispRepAreaDecomposed
  3
AecAreaCalculationBase50|Product Desc: Autodesk Architectural Desktop 2007 |Company: Autodesk,Inc. |WEB Address: www.autodesk.com
 90
    32897
280
     0
281
     0
  0
CLASS
  1
AEC_DISP_REP_AREAGROUP
  2
AecDbDispRepAreaGroup
  3
AecAreaCalculationBase50|Product Desc: Autodesk Architectural Desktop 2007 |Company: Autodesk,Inc. |WEB Address: www.autodesk.com
 90
    32897
280
     0
281
     0
  0
CLASS
  1
AEC_DISP_REP_BDG_ELEVLINE_MODEL
  2
AecDbDispRepBdgElevLineModel
  3
AecArchBase50|Product Desc: Autodesk Architectural Desktop 2007 |Company: Autodesk,Inc. |WEB Address: www.autodesk.com
 90
    32897
280
     0
281
     0
  0
CLASS
  1
AEC_DISP_REP_BDG_SECTIONLINE_PLAN
  2
AecDbDispRepBdgElevLinePlan
  3
AecArchBase50|Product Desc: Autodesk Architectural Desktop 2007 |Company: Autodesk,Inc. |WEB Address: www.autodesk.com
 90
    32897
280
     0
281
     0
  0
CLASS
  1
AEC_DISP_REP_BDG_SECTIONLINE_MODEL
  2
AecDbDispRepBdgSectionLineModel
  3
AecArchBase50|Product Desc: Autodesk Architectural Desktop 2007 |Company: Autodesk,Inc. |WEB Address: www.autodesk.com
 90
    32897
280
     0
281
     0
  0
CLASS
  1
AEC_DISP_REP_BDG_SECTIONLINE_PLAN
  2
AecDbDispRepBdgSectionLinePlan
  3
AecArchBase50|Product Desc: Autodesk Architectural Desktop 2007 |Company: Autodesk,Inc. |WEB Address: www.autodesk.com
 90
    32897
280
     0
281
     0
  0
CLASS
  1
AEC_DISP_REP_BDG_SECTION_SUBDIV
  2
AecDbDispRepBdgSectionSubDiv
  3
AecArchBase50|Product Desc: Autodesk Architectural Desktop 2007 |Company: Autodesk,Inc. |WEB Address: www.autodesk.com
 90
    32897
280
     0
281
     0
  0
CLASS
  1
AEC_DISP_REP_CAMERA
  2
AecDbDispRepCamera
  3
AecBase50|Product Desc: Autodesk Architectural Desktop 2007 |Company: Autodesk,Inc. |WEB Address: www.autodesk.com
 90
    32897
280
     0
281
     0
  0
CLASS
  1
AEC_DISP_REP_CEILING_GRID
  2
AecDbDispRepCeilingGrid
  3
AecArchBase50|Product Desc: Autodesk Architectural Desktop 2007 |Company: Autodesk,Inc. |WEB Address: www.autodesk.com
 90
    33661
280
     0
281
     0
  0
CLASS
  1
AEC_DISP_REP_CEILING_GRID_MODEL
  2
AecDbDispRepCeilingGridModel
  3
AecArchBase50|Product Desc: Autodesk Architectural Desktop 2007 |Company: Autodesk,Inc. |WEB Address: www.autodesk.com
 90
    32897
280
     0
281
     0
  0
CLASS
  1
AEC_DISP_REP_CEILING_GRID_RCP
  2
AecDbDispRepCeilingGridRcp
  3
AecArchBase50|Product Desc: Autodesk Architectural Desktop 2007 |Company: Autodesk,Inc. |WEB Address: www.autodesk.com
 90
    32897
280
     0
281
     0
  0
CLASS
  1
AEC_DISP_REP_CLIP_VOLUME_MODEL
  2
AecDbDispRepClipVolModel
  3
AecBase50|Product Desc: Autodesk Architectural Desktop 2007 |Company: Autodesk,Inc. |WEB Address: www.autodesk.com
 90
    32897
280
     0
281
     0
  0
CLASS
  1
AEC_DISP_REP_CLIP_VOLUME_PLAN
  2
AecDbDispRepClipVolPlan
  3
AecBase50|Product Desc: Autodesk Architectural Desktop 2007 |Company: Autodesk,Inc. |WEB Address: www.autodesk.com
 90
    32897
280
     0
281
     0
  0
CLASS
  1
AEC_DISP_REP_CLIP_VOLUME_RESULT_SUBDIV
  2
AecDbDispRepClipVolResSubDiv
  3
AecBase50|Product Desc: Autodesk Architectural Desktop 2007 |Company: Autodesk,Inc. |WEB Address: www.autodesk.com
 90
    32897
280
     0
281
     0
  0
CLASS
  1
AEC_DISP_REP_CLIP_VOLUME_RESULT
  2
AecDbDispRepClipVolResult
  3
AecBase50|Product Desc: Autodesk Architectural Desktop 2007 |Company: Autodesk,Inc. |WEB Address: www.autodesk.com
 90
    32897
280
     0
281
     0
  0
CLASS
  1
AEC_DISP_REP_COLUMN_GRID
  2
AecDbDispRepColumnGrid
  3
AecStructureBase50|Product Desc: Autodesk Architectural Desktop 2007 |Company: Autodesk,Inc. |WEB Address: www.autodesk.com
 90
    32897
280
     0
281
     0
  0
CLASS
  1
AEC_DISP_REP_COLUMN_GRID_MODEL
  2
AecDbDispRepColumnGridModel
  3
AecStructureBase50|Product Desc: Autodesk Architectural Desktop 2007 |Company: Autodesk,Inc. |WEB Address: www.autodesk.com
 90
    32897
280
     0
281
     0
  0
CLASS
  1
AEC_DISP_REP_CURTAIN_WALL_LAYOUT_MODEL
  2
AecDbDispRepCurtainWallLayoutModel
  3
AecArchBase50|Product Desc: Autodesk Architectural Desktop 2007 |Company: Autodesk,Inc. |WEB Address: www.autodesk.com
 90
    32897
280
     0
281
     0
  0
CLASS
  1
AEC_DISP_REP_CURTAIN_WALL_LAYOUT_PLAN
  2
AecDbDispRepCurtainWallLayoutPlan
  3
AecArchBase50|Product Desc: Autodesk Architectural Desktop 2007 |Company: Autodesk,Inc. |WEB Address: www.autodesk.com
 90
    32897
280
     0
281
     0
  0
CLASS
  1
AEC_DISP_REP_CURTAIN_WALL_UNIT_MODEL
  2
AecDbDispRepCurtainWallUnitModel
  3
AecArchBase50|Product Desc: Autodesk Architectural Desktop 2007 |Company: Autodesk,Inc. |WEB Address: www.autodesk.com
 90
    32897
280
     0
281
     0
  0
CLASS
  1
AEC_DISP_REP_CURTAIN_WALL_UNIT_PLAN
  2
AecDbDispRepCurtainWallUnitPlan
  3
AecArchBase50|Product Desc: Autodesk Architectural Desktop 2007 |Company: Autodesk,Inc. |WEB Address: www.autodesk.com
 90
    32897
280
     0
281
     0
  0
CLASS
  1
AEC_DB_DISP_REP_DIM_GROUP_PLAN
  2
AecDbDispRepDimGroupPlan
  3
AecArchDACHBase50|Product Desc: Autodesk Architectural Desktop 2007 |Company: Autodesk,Inc. |WEB Address: www.autodesk.com
 90
    32897
280
     0
281
     0
  0
CLASS
  1
AEC_DISP_REP_DOOR_MODEL
  2
AecDbDispRepDoorModel
  3
AecArchBase50|Product Desc: Autodesk Architectural Desktop 2007 |Company: Autodesk,Inc. |WEB Address: www.autodesk.com
 90
    32897
280
     0
281
     0
  0
CLASS
  1
AEC_DISP_REP_DOOR_NOMINAL
  2
AecDbDispRepDoorNominal
  3
AecArchBase50|Product Desc: Autodesk Architectural Desktop 2007 |Company: Autodesk,Inc. |WEB Address: www.autodesk.com
 90
    32897
280
     0
281
     0
  0
CLASS
  1
AEC_DISP_REP_DOOR_PLAN
  2
AecDbDispRepDoorPlan
  3
AecArchBase50|Product Desc: Autodesk Architectural Desktop 2007 |Company: Autodesk,Inc. |WEB Address: www.autodesk.com
 90
    32897
280
     0
281
     0
  0
CLASS
  1
AEC_DISP_REP_EDITINPLACEPROFILE
  2
AecDbDispRepEditInPlaceProfile
  3
AecBase50|Product Desc: Autodesk Architectural Desktop 2007 |Company: Autodesk,Inc. |WEB Address: www.autodesk.com
 90
    32897
280
     0
281
     0
  0
CLASS
  1
AEC_DISP_REP_ENT_REF
  2
AecDbDispRepEntRef
  3
AecBase50|Product Desc: Autodesk Architectural Desktop 2007 |Company: Autodesk,Inc. |WEB Address: www.autodesk.com
 90
    32897
280
     0
281
     0
  0
CLASS
  1
AEC_DISP_REP_LAYOUT_CURVE
  2
AecDbDispRepLayoutCurve
  3
AecBase50|Product Desc: Autodesk Architectural Desktop 2007 |Company: Autodesk,Inc. |WEB Address: www.autodesk.com
 90
    32897
280
     0
281
     0
  0
CLASS
  1
AEC_DISP_REP_LAYOUT_GRID2D
  2
AecDbDispRepLayoutGrid2d
  3
AecBase50|Product Desc: Autodesk Architectural Desktop 2007 |Company: Autodesk,Inc. |WEB Address: www.autodesk.com
 90
    32897
280
     0
281
     0
  0
CLASS
  1
AEC_DISP_REP_LAYOUT_GRID3D
  2
AecDbDispRepLayoutGrid3d
  3
AecBase50|Product Desc: Autodesk Architectural Desktop 2007 |Company: Autodesk,Inc. |WEB Address: www.autodesk.com
 90
    32897
280
     0
281
     0
  0
CLASS
  1
AEC_DISP_REP_MASKBLOCK_REF
  2
AecDbDispRepMaskBlockRef
  3
AecBase50|Product Desc: Autodesk Architectural Desktop 2007 |Company: Autodesk,Inc. |WEB Address: www.autodesk.com
 90
    32897
280
     0
281
     0
  0
CLASS
  1
AEC_DISP_REP_MASKBLOCK_REF_RCP
  2
AecDbDispRepMaskBlockRefRcp
  3
AecArchBase50|Product Desc: Autodesk Architectural Desktop 2007 |Company: Autodesk,Inc. |WEB Address: www.autodesk.com
 90
    32897
280
     0
281
     0
  0
CLASS
  1
AEC_DISP_REP_MASS_ELEM_MODEL
  2
AecDbDispRepMassElemModel
  3
AecBaseEx50|Product Desc: Autodesk Architectural Desktop 2007 |Company: Autodesk,Inc. |WEB Address: www.autodesk.com
 90
    32897
280
     0
281
     0
  0
CLASS
  1
AEC_DISP_REP_MASS_ELEM_SCHEM
  2
AecDbDispRepMassElemSchem
  3
AecBaseEx50|Product Desc: Autodesk Architectural Desktop 2007 |Company: Autodesk,Inc. |WEB Address: www.autodesk.com
 90
    32897
280
     0
281
     0
  0
CLASS
  1
AEC_DISP_REP_MASS_GROUP_MODEL
  2
AecDbDispRepMassGroupModel
  3
AecBaseEx50|Product Desc: Autodesk Architectural Desktop 2007 |Company: Autodesk,Inc. |WEB Address: www.autodesk.com
 90
    32897
280
     0
281
     0
  0
CLASS
  1
AEC_DISP_REP_MASS_GROUP_PLAN
  2
AecDbDispRepMassGroupPlan
  3
AecBaseEx50|Product Desc: Autodesk Architectural Desktop 2007 |Company: Autodesk,Inc. |WEB Address: www.autodesk.com
 90
    32897
280
     0
281
     0
  0
CLASS
  1
AEC_DISP_REP_MATERIAL
  2
AecDbDispRepMaterial
  3
AecBase50|Product Desc: Autodesk Architectural Desktop 2007 |Company: Autodesk,Inc. |WEB Address: www.autodesk.com
 90
    32897
280
     0
281
     0
  0
CLASS
  1
AEC_DISP_REP_MVBLOCK_REF
  2
AecDbDispRepMvBlockRef
  3
AecBase50|Product Desc: Autodesk Architectural Desktop 2007 |Company: Autodesk,Inc. |WEB Address: www.autodesk.com
 90
    32897
280
     0
281
     0
  0
CLASS
  1
AEC_DISP_REP_MVBLOCK_REF_MODEL
  2
AecDbDispRepMvBlockRefModel
  3
AecBase50|Product Desc: Autodesk Architectural Desktop 2007 |Company: Autodesk,Inc. |WEB Address: www.autodesk.com
 90
    32897
280
     0
281
     0
  0
CLASS
  1
AEC_DISP_REP_OPENING
  2
AecDbDispRepOpening
  3
AecArchBase50|Product Desc: Autodesk Architectural Desktop 2007 |Company: Autodesk,Inc. |WEB Address: www.autodesk.com
 90
    32897
280
     0
281
     0
  0
CLASS
  1
AEC_DISP_REP_OPENING_MODEL
  2
AecDbDispRepOpeningModel
  3
AecArchBase50|Product Desc: Autodesk Architectural Desktop 2007 |Company: Autodesk,Inc. |WEB Address: www.autodesk.com
 90
    32897
280
     0
281
     0
  0
CLASS
  1
AEC_DISP_REP_POLYGON_MODEL
  2
AecDbDispRepPolygonModel
  3
AecBaseEx50|Product Desc: Autodesk Architectural Desktop 2007 |Company: Autodesk,Inc. |WEB Address: www.autodesk.com
 90
    32897
280
     0
281
     0
  0
CLASS
  1
AEC_DISP_REP_RAILING_MODEL
  2
AecDbDispRepRailingModel
  3
AecArchBase50|Product Desc: Autodesk Architectural Desktop 2007 |Company: Autodesk,Inc. |WEB Address: www.autodesk.com
 90
    32897
280
     0
281
     0
  0
CLASS
  1
AEC_DISP_REP_RAILING_PLAN
  2
AecDbDispRepRailingPlan
  3
AecArchBase50|Product Desc: Autodesk Architectural Desktop 2007 |Company: Autodesk,Inc. |WEB Address: www.autodesk.com
 90
    32897
280
     0
281
     0
  0
CLASS
  1
AEC_DISP_REP_ROOF_MODEL
  2
AecDbDispRepRoofModel
  3
AecArchBase50|Product Desc: Autodesk Architectural Desktop 2007 |Company: Autodesk,Inc. |WEB Address: www.autodesk.com
 90
    32897
280
     0
281
     0
  0
CLASS
  1
AEC_DISP_REP_ROOF_PLAN
  2
AecDbDispRepRoofPlan
  3
AecArchBase50|Product Desc: Autodesk Architectural Desktop 2007 |Company: Autodesk,Inc. |WEB Address: www.autodesk.com
 90
    32897
280
     0
281
     0
  0
CLASS
  1
AEC_DISP_REP_ROOFSLAB_MODEL
  2
AecDbDispRepRoofSlabModel
  3
AecArchBase50|Product Desc: Autodesk Architectural Desktop 2007 |Company: Autodesk,Inc. |WEB Address: www.autodesk.com
 90
    32897
280
     0
281
     0
  0
CLASS
  1
AEC_DISP_REP_ROOFSLAB_PLAN
  2
AecDbDispRepRoofSlabPlan
  3
AecArchBase50|Product Desc: Autodesk Architectural Desktop 2007 |Company: Autodesk,Inc. |WEB Address: www.autodesk.com
 90
    32897
280
     0
281
     0
  0
CLASS
  1
AEC_DISP_REP_SCHEDULE_TABLE
  2
AecDbDispRepScheduleTable
  3
AecSchedule50|Product Desc: Autodesk Architectural Desktop 2007 |Company: Autodesk,Inc. |WEB Address: www.autodesk.com
 90
    32897
280
     0
281
     0
  0
CLASS
  1
AEC_DISP_REP_SLAB_MODEL
  2
AecDbDispRepSlabModel
  3
AecArchBase50|Product Desc: Autodesk Architectural Desktop 2007 |Company: Autodesk,Inc. |WEB Address: www.autodesk.com
 90
    32897
280
     0
281
     0
  0
CLASS
  1
AEC_DISP_REP_SLAB_PLAN
  2
AecDbDispRepSlabPlan
  3
AecArchBase50|Product Desc: Autodesk Architectural Desktop 2007 |Company: Autodesk,Inc. |WEB Address: www.autodesk.com
 90
    32897
280
     0
281
     0
  0
CLASS
  1
AEC_DISP_REP_SLICE
  2
AecDbDispRepSlice
  3
AecBase50|Product Desc: Autodesk Architectural Desktop 2007 |Company: Autodesk,Inc. |WEB Address: www.autodesk.com
 90
    32897
280
     0
281
     0
  0
CLASS
  1
AEC_DISP_REP_SPACE_BOUNDARY_MODEL
  2
AecDbDispRepSpaceBoundaryModel
  3
AecArchBase50|Product Desc: Autodesk Architectural Desktop 2007 |Company: Autodesk,Inc. |WEB Address: www.autodesk.com
 90
    32897
280
     0
281
     0
  0
CLASS
  1
AEC_DISP_REP_SPACE_BOUNDARY_PLAN
  2
AecDbDispRepSpaceBoundaryPlan
  3
AecArchBase50|Product Desc: Autodesk Architectural Desktop 2007 |Company: Autodesk,Inc. |WEB Address: www.autodesk.com
 90
    32897
280
     0
281
     0
  0
CLASS
  1
AEC_DISP_REP_SPACE_BOUNDARY_SCHEM
  2
AecDbDispRepSpaceBoundarySketch
  3
AecArchBase50|Product Desc: Autodesk Architectural Desktop 2007 |Company: Autodesk,Inc. |WEB Address: www.autodesk.com
 90
    32897
280
     0
281
     0
  0
CLASS
  1
AEC_DISP_REP_SPACE_MODEL
  2
AecDbDispRepSpaceModel
  3
AecArchBase50|Product Desc: Autodesk Architectural Desktop 2007 |Company: Autodesk,Inc. |WEB Address: www.autodesk.com
 90
    32897
280
     0
281
     0
  0
CLASS
  1
AEC_DISP_REP_SPACE_PLAN
  2
AecDbDispRepSpacePlan
  3
AecArchBase50|Product Desc: Autodesk Architectural Desktop 2007 |Company: Autodesk,Inc. |WEB Address: www.autodesk.com
 90
    32897
280
     0
281
     0
  0
CLASS
  1
AEC_DISP_REP_STAIR_MODEL
  2
AecDbDispRepStairModel
  3
AecArchBase50|Product Desc: Autodesk Architectural Desktop 2007 |Company: Autodesk,Inc. |WEB Address: www.autodesk.com
 90
    32897
280
     0
281
     0
  0
CLASS
  1
AEC_DISP_REP_STAIR_PLAN
  2
AecDbDispRepStairPlan
  3
AecArchBase50|Product Desc: Autodesk Architectural Desktop 2007 |Company: Autodesk,Inc. |WEB Address: www.autodesk.com
 90
    32897
280
     0
281
     0
  0
CLASS
  1
AEC_DISP_REP_WALL_GRAPH
  2
AecDbDispRepWallGraph
  3
AecArchBase50|Product Desc: Autodesk Architectural Desktop 2007 |Company: Autodesk,Inc. |WEB Address: www.autodesk.com
 90
    32897
280
     0
281
     0
  0
CLASS
  1
AEC_DISP_REP_WALL_MODEL
  2
AecDbDispRepWallModel
  3
AecArchBase50|Product Desc: Autodesk Architectural Desktop 2007 |Company: Autodesk,Inc. |WEB Address: www.autodesk.com
 90
    32897
280
     0
281
     0
  0
CLASS
  1
AEC_DISP_REP_WALL_PLAN
  2
AecDbDispRepWallPlan
  3
AecArchBase50|Product Desc: Autodesk Architectural Desktop 2007 |Company: Autodesk,Inc. |WEB Address: www.autodesk.com
 90
    32897
280
     0
281
     0
  0
CLASS
  1
AEC_DISP_REP_WALL_SCHEM
  2
AecDbDispRepWallSchem
  3
AecArchBase50|Product Desc: Autodesk Architectural Desktop 2007 |Company: Autodesk,Inc. |WEB Address: www.autodesk.com
 90
    32897
280
     0
281
     0
  0
CLASS
  1
AEC_DISP_REP_WINDOW_ASSEMBLY_MODEL
  2
AecDbDispRepWindowAssemblyModel
  3
AecArchBase50|Product Desc: Autodesk Architectural Desktop 2007 |Company: Autodesk,Inc. |WEB Address: www.autodesk.com
 90
    32897
280
     0
281
     0
  0
CLASS
  1
AEC_DISP_REP_WINDOW_ASSEMBLY_PLAN
  2
AecDbDispRepWindowAssemblyPlan
  3
AecArchBase50|Product Desc: Autodesk Architectural Desktop 2007 |Company: Autodesk,Inc. |WEB Address: www.autodesk.com
 90
    32897
280
     0
281
     0
  0
CLASS
  1
AEC_AECDBDISPREPWINDOWASSEMBLYPLAN100
  2
AecDbDispRepWindowAssemblyPlan100
  3
AecArchDACHBase50|Product Desc: Autodesk Architectural Desktop 2007 |Company: Autodesk,Inc. |WEB Address: www.autodesk.com
 90
    32897
280
     0
281
     0
  0
CLASS
  1
AEC_DISP_REP_WINDOW_MODEL
  2
AecDbDispRepWindowModel
  3
AecArchBase50|Product Desc: Autodesk Architectural Desktop 2007 |Company: Autodesk,Inc. |WEB Address: www.autodesk.com
 90
    32897
280
     0
281
     0
  0
CLASS
  1
AEC_DISP_REP_WINDOW_NOMINAL
  2
AecDbDispRepWindowNominal
  3
AecArchBase50|Product Desc: Autodesk Architectural Desktop 2007 |Company: Autodesk,Inc. |WEB Address: www.autodesk.com
 90
    32897
280
     0
281
     0
  0
CLASS
  1
AEC_DISP_REP_WINDOW_PLAN
  2
AecDbDispRepWindowPlan
  3
AecArchBase50|Product Desc: Autodesk Architectural Desktop 2007 |Company: Autodesk,Inc. |WEB Address: www.autodesk.com
 90
    32897
280
     0
281
     0
  0
CLASS
  1
AECS_DISP_REP_MEMBER_LOGICAL
  2
AecsDbDispRepMemberLogical
  3
AecStructureBase50|Product Desc: Autodesk Architectural Desktop 2007 |Company: Autodesk,Inc. |WEB Address: www.autodesk.com
 90
    32897
280
     0
281
     0
  0
CLASS
  1
AECS_DISP_REP_MEMBER_MODEL_DESIGN
  2
AecsDbDispRepMemberModelDesign
  3
AecStructureBase50|Product Desc: Autodesk Architectural Desktop 2007 |Company: Autodesk,Inc. |WEB Address: www.autodesk.com
 90
    32897
280
     0
281
     0
  0
CLASS
  1
AECS_DISP_REP_MEMBER_PLAN_DESIGN
  2
AecsDbDispRepMemberPlanDesign
  3
AecStructureBase50|Product Desc: Autodesk Architectural Desktop 2007 |Company: Autodesk,Inc. |WEB Address: www.autodesk.com
 90
    32897
280
     0
281
     0
  0
CLASS
  1
AEC_DISP_PROPS_ENT
  2
AecDbDispPropsEnt
  3
AecBase50|Product Desc: Autodesk Architectural Desktop 2007 |Company: Autodesk,Inc. |WEB Address: www.autodesk.com
 90
    32897
280
     0
281
     0
  0
CLASS
  1
AEC_DISP_PROPS_CLIP_VOLUME
  2
AecDbDispPropsClipVol
  3
AecBase50|Product Desc: Autodesk Architectural Desktop 2007 |Company: Autodesk,Inc. |WEB Address: www.autodesk.com
 90
    32897
280
     0
281
     0
  0
CLASS
  1
AEC_DISP_PROPS_SLICE
  2
AecDbDispPropsSlice
  3
AecBase50|Product Desc: Autodesk Architectural Desktop 2007 |Company: Autodesk,Inc. |WEB Address: www.autodesk.com
 90
    32897
280
     0
281
     0
  0
CLASS
  1
AEC_DISP_PROPS_ROOFSLAB_PLAN
  2
AecDbDispPropsRoofSlabPlan
  3
AecArchBase50|Product Desc: Autodesk Architectural Desktop 2007 |Company: Autodesk,Inc. |WEB Address: www.autodesk.com
 90
    32897
280
     0
281
     0
  0
CLASS
  1
AEC_DISP_PROPS_GRID_ASSEMBLY_MODEL
  2
AecDbDispPropsGridAssemblyModel
  3
AecArchBase50|Product Desc: Autodesk Architectural Desktop 2007 |Company: Autodesk,Inc. |WEB Address: www.autodesk.com
 90
    32897
280
     0
281
     0
  0
CLASS
  1
AEC_DISP_PROPS_ROOF
  2
AecDbDispPropsRoof
  3
AecArchBase50|Product Desc: Autodesk Architectural Desktop 2007 |Company: Autodesk,Inc. |WEB Address: www.autodesk.com
 90
    32897
280
     0
281
     0
  0
CLASS
  1
AEC_DISP_PROPS_SPACE_MODEL
  2
AecDbDispPropsSpaceModel
  3
AecArchBase50|Product Desc: Autodesk Architectural Desktop 2007 |Company: Autodesk,Inc. |WEB Address: www.autodesk.com
 90
    32897
280
     0
281
     0
  0
CLASS
  1
AEC_DISP_PROPS_EDITINPLACEPROFILE_MODEL
  2
AecDbDispPropsEditInPlaceProfile
  3
AecBase50|Product Desc: Autodesk Architectural Desktop 2007 |Company: Autodesk,Inc. |WEB Address: www.autodesk.com
 90
    32897
280
     0
281
     0
  0
CLASS
  1
AEC_DISP_PROPS_DOOR
  2
AecDbDispPropsDoor
  3
AecArchBase50|Product Desc: Autodesk Architectural Desktop 2007 |Company: Autodesk,Inc. |WEB Address: www.autodesk.com
 90
    32897
280
     0
281
     0
  0
CLASS
  1
AEC_DISP_PROPS_MASKBLOCK
  2
AecDbDispPropsMaskBlock
  3
AecBase50|Product Desc: Autodesk Architectural Desktop 2007 |Company: Autodesk,Inc. |WEB Address: www.autodesk.com
 90
    32897
280
     0
281
     0
  0
CLASS
  1
AEC_DISP_PROPS_SPACE_PLAN
  2
AecDbDispPropsSpacePlan
  3
AecArchBase50|Product Desc: Autodesk Architectural Desktop 2007 |Company: Autodesk,Inc. |WEB Address: www.autodesk.com
 90
    32897
280
     0
281
     0
  0
CLASS
  1
AEC_DISP_PROPS_RAILING_PLAN
  2
AecDbDispPropsRailingPlan
  3
AecArchBase50|Product Desc: Autodesk Architectural Desktop 2007 |Company: Autodesk,Inc. |WEB Address: www.autodesk.com
 90
    32897
280
     0
281
     0
  0
CLASS
  1
AEC_DISP_PROPS_LAYOUT_GRID2D
  2
AecDbDispPropsLayoutGrid2d
  3
AecBase50|Product Desc: Autodesk Architectural Desktop 2007 |Company: Autodesk,Inc. |WEB Address: www.autodesk.com
 90
    32897
280
     0
281
     0
  0
CLASS
  1
AEC_DISP_PROPS_CLIP_VOLUME_RESULT
  2
AecDbDispPropsClipVolResSubDiv
  3
AecBase50|Product Desc: Autodesk Architectural Desktop 2007 |Company: Autodesk,Inc. |WEB Address: www.autodesk.com
 90
    32897
280
     0
281
     0
  0
CLASS
  1
AEC_DISP_PROPS_STAIR_MODEL
  2
AecDbDispPropsStairModel
  3
AecArchBase50|Product Desc: Autodesk Architectural Desktop 2007 |Company: Autodesk,Inc. |WEB Address: www.autodesk.com
 90
    32897
280
     0
281
     0
  0
CLASS
  1
AEC_DISP_PROPS_LAYOUT_CURVE
  2
AecDbDispPropsLayoutCurve
  3
AecBase50|Product Desc: Autodesk Architectural Desktop 2007 |Company: Autodesk,Inc. |WEB Address: www.autodesk.com
 90
    32897
280
     0
281
     0
  0
CLASS
  1
AEC_DISP_PROPS_POLYGON_MODEL
  2
AecDbDispPropsPolygonModel
  3
AecBaseEx50|Product Desc: Autodesk Architectural Desktop 2007 |Company: Autodesk,Inc. |WEB Address: www.autodesk.com
 90
    32897
280
     0
281
     0
  0
CLASS
  1
AEC_DISP_PROPS_MASS_GROUP
  2
AecDbDispPropsMassGroup
  3
AecBaseEx50|Product Desc: Autodesk Architectural Desktop 2007 |Company: Autodesk,Inc. |WEB Address: www.autodesk.com
 90
    32897
280
     0
281
     0
  0
CLASS
  1
AEC_DISP_PROPS_STAIR_PLAN
  2
AecDbDispPropsStairPlan
  3
AecArchBase50|Product Desc: Autodesk Architectural Desktop 2007 |Company: Autodesk,Inc. |WEB Address: www.autodesk.com
 90
    32897
280
     0
281
     0
  0
CLASS
  1
AEC_DISP_PROPS_OPENING
  2
AecDbDispPropsOpening
  3
AecArchBase50|Product Desc: Autodesk Architectural Desktop 2007 |Company: Autodesk,Inc. |WEB Address: www.autodesk.com
 90
    32897
280
     0
281
     0
  0
CLASS
  1
AEC_DISP_PROPS_WALL_GRAPH
  2
AecDbDispPropsWallGraph
  3
AecArchBase50|Product Desc: Autodesk Architectural Desktop 2007 |Company: Autodesk,Inc. |WEB Address: www.autodesk.com
 90
    32897
280
     0
281
     0
  0
CLASS
  1
AEC_DISP_PROPS_DOOR_NOMINAL
  2
AecDbDispPropsDoorNominal
  3
AecArchBase50|Product Desc: Autodesk Architectural Desktop 2007 |Company: Autodesk,Inc. |WEB Address: www.autodesk.com
 90
    32897
280
     0
281
     0
  0
CLASS
  1
AEC_DISP_PROPS_SLAB
  2
AecDbDispPropsSlab
  3
AecArchBase50|Product Desc: Autodesk Architectural Desktop 2007 |Company: Autodesk,Inc. |WEB Address: www.autodesk.com
 90
    32897
280
     0
281
     0
  0
CLASS
  1
AEC_DISP_PROPS_WALL_MODEL
  2
AecDbDispPropsWallModel
  3
AecArchBase50|Product Desc: Autodesk Architectural Desktop 2007 |Company: Autodesk,Inc. |WEB Address: www.autodesk.com
 90
    32897
280
     0
281
     0
  0
CLASS
  1
AEC_DISP_PROPS_MATERIAL
  2
AecDbDispPropsMaterial
  3
AecBase50|Product Desc: Autodesk Architectural Desktop 2007 |Company: Autodesk,Inc. |WEB Address: www.autodesk.com
 90
    32897
280
     0
281
     0
  0
CLASS
  1
AEC_DISP_PROPS_WINDOW
  2
AecDbDispPropsWindow
  3
AecArchBase50|Product Desc: Autodesk Architectural Desktop 2007 |Company: Autodesk,Inc. |WEB Address: www.autodesk.com
 90
    32897
280
     0
281
     0
  0
CLASS
  1
AEC_DISP_PROPS_LAYOUT_GRID3D
  2
AecDbDispPropsLayoutGrid3d
  3
AecBase50|Product Desc: Autodesk Architectural Desktop 2007 |Company: Autodesk,Inc. |WEB Address: www.autodesk.com
 90
    32897
280
     0
281
     0
  0
CLASS
  1
AEC_DISP_PROPS_GRID_ASSEMBLY_PLAN
  2
AecDbDispPropsGridAssemblyPlan
  3
AecArchBase50|Product Desc: Autodesk Architectural Desktop 2007 |Company: Autodesk,Inc. |WEB Address: www.autodesk.com
 90
    32897
280
     0
281
     0
  0
CLASS
  1
AEC_DISP_PROPS_WALL_SCHEM
  2
AecDbDispPropsWallSchem
  3
AecArchBase50|Product Desc: Autodesk Architectural Desktop 2007 |Company: Autodesk,Inc. |WEB Address: www.autodesk.com
 90
    32897
280
     0
281
     0
  0
CLASS
  1
AEC_DISP_PROPS_WALL_PLAN
  2
AecDbDispPropsWallPlan
  3
AecArchBase50|Product Desc: Autodesk Architectural Desktop 2007 |Company: Autodesk,Inc. |WEB Address: www.autodesk.com
 90
    32897
280
     0
281
     0
  0
CLASS
  1
AEC_DISP_PROPS_SPACE_BOUNDARY
  2
AecDbDispPropsSpaceBoundary
  3
AecArchBase50|Product Desc: Autodesk Architectural Desktop 2007 |Company: Autodesk,Inc. |WEB Address: www.autodesk.com
 90
    32897
280
     0
281
     0
  0
CLASS
  1
AEC_DISP_PROPS_SLAB_PLAN
  2
AecDbDispPropsSlabPlan
  3
AecArchBase50|Product Desc: Autodesk Architectural Desktop 2007 |Company: Autodesk,Inc. |WEB Address: www.autodesk.com
 90
    32897
280
     0
281
     0
  0
CLASS
  1
AEC_DISP_PROPS_RAILING_MODEL
  2
AecDbDispPropsRailingModel
  3
AecArchBase50|Product Desc: Autodesk Architectural Desktop 2007 |Company: Autodesk,Inc. |WEB Address: www.autodesk.com
 90
    32897
280
     0
281
     0
  0
CLASS
  1
AEC_DISP_PROPS_MASS_ELEM_MODEL
  2
AecDbDispPropsMassElem
  3
AecBaseEx50|Product Desc: Autodesk Architectural Desktop 2007 |Company: Autodesk,Inc. |WEB Address: www.autodesk.com
 90
    32897
280
     0
281
     0
  0
CLASS
  1
AEC_DISP_PROPS_DIM
  2
AecDbDispPropsDimGroup
  3
AecArchDACHBase50|Product Desc: Autodesk Architectural Desktop 2007 |Company: Autodesk,Inc. |WEB Address: www.autodesk.com
 90
    32897
280
     0
281
     0
  0
CLASS
  1
AEC_DISP_PROPS_ROOFSLAB
  2
AecDbDispPropsRoofSlab
  3
AecArchBase50|Product Desc: Autodesk Architectural Desktop 2007 |Company: Autodesk,Inc. |WEB Address: www.autodesk.com
 90
    32897
280
     0
281
     0
  0
CLASS
  1
AEC_DISP_PROPS_ENT_REF
  2
AecDbDispPropsEntRef
  3
AecBase50|Product Desc: Autodesk Architectural Desktop 2007 |Company: Autodesk,Inc. |WEB Address: www.autodesk.com
 90
    32897
280
     0
281
     0
  0
CLASS
  1
AEC_DISP_PROPS_2D_SECTION
  2
AecDbDispProps2dSection
  3
AecBase50|Product Desc: Autodesk Architectural Desktop 2007 |Company: Autodesk,Inc. |WEB Address: www.autodesk.com
 90
    32897
280
     0
281
     0
  0
CLASS
  1
AECS_DISP_PROPS_MEMBER_LOGICAL
  2
AecsDbDispPropsMemberLogical
  3
AecStructureBase50|Product Desc: Autodesk Architectural Desktop 2007 |Company: Autodesk,Inc. |WEB Address: www.autodesk.com
 90
    32897
280
     0
281
     0
  0
CLASS
  1
AEC_DISP_PROPS_AREA_DECOMPOSED
  2
AecDbDispPropsAreaDecomposed
  3
AecAreaCalculationBase50|Product Desc: Autodesk Architectural Desktop 2007 |Company: Autodesk,Inc. |WEB Address: www.autodesk.com
 90
    32897
280
     0
281
     0
  0
CLASS
  1
AEC_DISP_PROPS_CAMERA
  2
AecDbDispPropsCamera
  3
AecBase50|Product Desc: Autodesk Architectural Desktop 2007 |Company: Autodesk,Inc. |WEB Address: www.autodesk.com
 90
    32897
280
     0
281
     0
  0
CLASS
  1
AECS_DISP_PROPS_MEMBER
  2
AecsDbDispPropsMember
  3
AecStructureBase50|Product Desc: Autodesk Architectural Desktop 2007 |Company: Autodesk,Inc. |WEB Address: www.autodesk.com
 90
    32897
280
     0
281
     0
  0
CLASS
  1
AECS_DISP_PROPS_MEMBER_PLAN
  2
AecsDbDispPropsMemberPlan
  3
AecStructureBase50|Product Desc: Autodesk Architectural Desktop 2007 |Company: Autodesk,Inc. |WEB Address: www.autodesk.com
 90
    32897
280
     0
281
     0
  0
CLASS
  1
AEC_DISP_PROPS_AREAGROUP
  2
AecDbDispPropsAreaGroup
  3
AecAreaCalculationBase50|Product Desc: Autodesk Architectural Desktop 2007 |Company: Autodesk,Inc. |WEB Address: www.autodesk.com
 90
    32897
280
     0
281
     0
  0
CLASS
  1
AEC_DISP_PROPS_WINDOW_NOMINAL
  2
AecDbDispPropsWindowNominal
  3
AecArchBase50|Product Desc: Autodesk Architectural Desktop 2007 |Company: Autodesk,Inc. |WEB Address: www.autodesk.com
 90
    32897
280
     0
281
     0
  0
CLASS
  1
AEC_DISP_PROPS_AREA
  2
AecDbDispPropsArea
  3
AecAreaCalculationBase50|Product Desc: Autodesk Architectural Desktop 2007 |Company: Autodesk,Inc. |WEB Address: www.autodesk.com
 90
    32897
280
     0
281
     0
  0
CLASS
  1
AEC_DISP_PROPS_SCHEDULE_TABLE
  2
AecDbDispPropsScheduleTable
  3
AecSchedule50|Product Desc: Autodesk Architectural Desktop 2007 |Company: Autodesk,Inc. |WEB Address: www.autodesk.com
 90
    32897
280
     0
281
     0
  0
CLASS
  1
AEC_LAYERKEY_STYLE
  2
AecDbLayerKeyStyle
  3
AecBase50|Product Desc: Autodesk Architectural Desktop 2007 |Company: Autodesk,Inc. |WEB Address: www.autodesk.com
 90
    32897
280
     0
281
     0
  0
CLASS
  1
AEC_VARS_ARCHBASE
  2
AecDbVarsArchBase
  3
AecArchBase50|Product Desc: Autodesk Architectural Desktop 2007 |Company: Autodesk,Inc. |WEB Address: www.autodesk.com
 90
    32897
280
     0
281
     0
  0
CLASS
  1
AEC_VARS_MUNICH
  2
AecDbVarsMunich
  3
AecArchDACHBase50|Product Desc: Autodesk Architectural Desktop 2007 |Company: Autodesk,Inc. |WEB Address: www.autodesk.com
 90
    32897
280
     0
281
     0
  0
CLASS
  1
AEC_NOTIFICATION_TRACKER
  2
AecDbNotificationTracker
  3
AecBase50|Product Desc: Autodesk Architectural Desktop 2007 |Company: Autodesk,Inc. |WEB Address: www.autodesk.com
 90
    32897
280
     0
281
     0
  0
CLASS
  1
AEC_DISP_REP_ANCHOR
  2
AecDbDispRepAnchor
  3
AecBase50|Product Desc: Autodesk Architectural Desktop 2007 |Company: Autodesk,Inc. |WEB Address: www.autodesk.com
 90
    32897
280
     0
281
     0
  0
CLASS
  1
AEC_DISP_REP_POLYGON_TRUECOLOUR
  2
AecDbDispRepPolygonTrueColour
  3
AecBaseEx50|Product Desc: Autodesk Architectural Desktop 2007 |Company: Autodesk,Inc. |WEB Address: www.autodesk.com
 90
    32897
280
     0
281
     0
  0
CLASS
  1
AEC_DISP_PROPS_POLYGON_TRUECOLOUR
  2
AecDbDispPropsPolygonTrueColour
  3
AecBaseEx50|Product Desc: Autodesk Architectural Desktop 2007 |Company: Autodesk,Inc. |WEB Address: www.autodesk.com
 90
    32897
280
     0
281
     0
  0
CLASS
  1
AEC_DISP_REP_BDG_ELEVLINE_RCP
  2
AecDbDispRepBdgElevLineRcp
  3
AecArchBase50|Product Desc: Autodesk Architectural Desktop 2007 |Company: Autodesk,Inc. |WEB Address: www.autodesk.com
 90
    32897
280
     0
281
     0
  0
CLASS
  1
AEC_DISP_REP_BDG_SECTIONLINE_RCP
  2
AecDbDispRepBdgSectionLineRcp
  3
AecArchBase50|Product Desc: Autodesk Architectural Desktop 2007 |Company: Autodesk,Inc. |WEB Address: www.autodesk.com
 90
    32897
280
     0
281
     0
  0
CLASS
  1
AEC_DISP_REP_BDG_SECTION_MODEL
  2
AecDbDispRepBdgSectionModel
  3
AecArchBase50|Product Desc: Autodesk Architectural Desktop 2007 |Company: Autodesk,Inc. |WEB Address: www.autodesk.com
 90
    32897
280
     0
281
     0
  0
CLASS
  1
AEC_DISP_REP_DOOR_ELEV
  2
AecDbDispRepDoorElev
  3
AecArchBase50|Product Desc: Autodesk Architectural Desktop 2007 |Company: Autodesk,Inc. |WEB Address: www.autodesk.com
 90
    32897
280
     0
281
     0
  0
CLASS
  1
AEC_DISP_REP_DOOR_RCP
  2
AecDbDispRepDoorRcp
  3
AecArchBase50|Product Desc: Autodesk Architectural Desktop 2007 |Company: Autodesk,Inc. |WEB Address: www.autodesk.com
 90
    32897
280
     0
281
     0
  0
CLASS
  1
AEC_DISP_REP_DOOR_THRESHOLD_PLAN
  2
AecDbDispRepDoorThresholdPlan
  3
AecArchBase50|Product Desc: Autodesk Architectural Desktop 2007 |Company: Autodesk,Inc. |WEB Address: www.autodesk.com
 90
    32897
280
     0
281
     0
  0
CLASS
  1
AEC_DISP_PROPS_DOOR_THRESHOLD_PLAN
  2
AecDbDispPropsDoorThresholdPlan
  3
AecArchBase50|Product Desc: Autodesk Architectural Desktop 2007 |Company: Autodesk,Inc. |WEB Address: www.autodesk.com
 90
    32897
280
     0
281
     0
  0
CLASS
  1
AEC_DISP_REP_MASS_ELEM_RCP
  2
AecDbDispRepMassElemRcp
  3
AecArchBase50|Product Desc: Autodesk Architectural Desktop 2007 |Company: Autodesk,Inc. |WEB Address: www.autodesk.com
 90
    32897
280
     0
281
     0
  0
CLASS
  1
AEC_DISP_REP_MASS_GROUP_RCP
  2
AecDbDispRepMassGroupRcp
  3
AecArchBase50|Product Desc: Autodesk Architectural Desktop 2007 |Company: Autodesk,Inc. |WEB Address: www.autodesk.com
 90
    32897
280
     0
281
     0
  0
CLASS
  1
AEC_DISP_REP_MVBLOCK_REF_RCP
  2
AecDbDispRepMvBlockRefRcp
  3
AecArchBase50|Product Desc: Autodesk Architectural Desktop 2007 |Company: Autodesk,Inc. |WEB Address: www.autodesk.com
 90
    32897
280
     0
281
     0
  0
CLASS
  1
AEC_DISP_REP_ROOF_RCP
  2
AecDbDispRepRoofRcp
  3
AecArchBase50|Product Desc: Autodesk Architectural Desktop 2007 |Company: Autodesk,Inc. |WEB Address: www.autodesk.com
 90
    32897
280
     0
281
     0
  0
CLASS
  1
AEC_DISP_REP_SPACE_BOUNDARY_DIAGRAM
  2
AecDbDispRepSpaceBoundaryDgrm
  3
AecArchBase50|Product Desc: Autodesk Architectural Desktop 2007 |Company: Autodesk,Inc. |WEB Address: www.autodesk.com
 90
    32897
280
     0
281
     0
  0
CLASS
  1
AEC_DISP_REP_SPACE_RCP
  2
AecDbDispRepSpaceRcp
  3
AecArchBase50|Product Desc: Autodesk Architectural Desktop 2007 |Company: Autodesk,Inc. |WEB Address: www.autodesk.com
 90
    32897
280
     0
281
     0
  0
CLASS
  1
AEC_DISP_REP_SPACE_VOLUME
  2
AecDbDispRepSpaceVolume
  3
AecArchBase50|Product Desc: Autodesk Architectural Desktop 2007 |Company: Autodesk,Inc. |WEB Address: www.autodesk.com
 90
    32897
280
     0
281
     0
  0
CLASS
  1
AEC_DISP_REP_STAIR_PLAN_OVERLAPPING
  2
AecDbDispRepStairPlanOverlapping
  3
AecArchBase50|Product Desc: Autodesk Architectural Desktop 2007 |Company: Autodesk,Inc. |WEB Address: www.autodesk.com
 90
    32897
280
     0
281
     0
  0
CLASS
  1
AEC_DISP_PROPS_STAIR_PLAN_OVERLAPPING
  2
AecDbDispPropsStairPlanOverlapping
  3
AecArchBase50|Product Desc: Autodesk Architectural Desktop 2007 |Company: Autodesk,Inc. |WEB Address: www.autodesk.com
 90
    32897
280
     0
281
     0
  0
CLASS
  1
AEC_DISP_REP_STAIR_RCP
  2
AecDbDispRepStairRcp
  3
AecArchBase50|Product Desc: Autodesk Architectural Desktop 2007 |Company: Autodesk,Inc. |WEB Address: www.autodesk.com
 90
    32897
280
     0
281
     0
  0
CLASS
  1
AEC_DISP_REP_WALL_RCP
  2
AecDbDispRepWallRcp
  3
AecArchBase50|Product Desc: Autodesk Architectural Desktop 2007 |Company: Autodesk,Inc. |WEB Address: www.autodesk.com
 90
    32897
280
     0
281
     0
  0
CLASS
  1
AEC_DISP_REP_WINDOWASSEMBLY_SILL_PLAN
  2
AecDbDispRepWindowAssemblySillPlan
  3
AecArchBase50|Product Desc: Autodesk Architectural Desktop 2007 |Company: Autodesk,Inc. |WEB Address: www.autodesk.com
 90
    32897
280
     0
281
     0
  0
CLASS
  1
AEC_DISP_PROPS_WINDOW_ASSEMBLY_SILL_PLAN
  2
AecDbDispPropsWindowAssemblySillPlan
  3
AecArchBase50|Product Desc: Autodesk Architectural Desktop 2007 |Company: Autodesk,Inc. |WEB Address: www.autodesk.com
 90
    32897
280
     0
281
     0
  0
CLASS
  1
AEC_DISP_REP_WINDOW_ELEV
  2
AecDbDispRepWindowElev
  3
AecArchBase50|Product Desc: Autodesk Architectural Desktop 2007 |Company: Autodesk,Inc. |WEB Address: www.autodesk.com
 90
    32897
280
     0
281
     0
  0
CLASS
  1
AEC_DISP_REP_WINDOW_RCP
  2
AecDbDispRepWindowRcp
  3
AecArchBase50|Product Desc: Autodesk Architectural Desktop 2007 |Company: Autodesk,Inc. |WEB Address: www.autodesk.com
 90
    32897
280
     0
281
     0
  0
CLASS
  1
AEC_DISP_REP_WINDOW_SILL_PLAN
  2
AecDbDispRepWindowSillPlan
  3
AecArchBase50|Product Desc: Autodesk Architectural Desktop 2007 |Company: Autodesk,Inc. |WEB Address: www.autodesk.com
 90
    32897
280
     0
281
     0
  0
CLASS
  1
AEC_DISP_PROPS_WINDOW_SILL_PLAN
  2
AecDbDispPropsWindowSillPlan
  3
AecArchBase50|Product Desc: Autodesk Architectural Desktop 2007 |Company: Autodesk,Inc. |WEB Address: www.autodesk.com
 90
    32897
280
     0
281
     0
  0
CLASS
  1
AEC_DISP_REP_ANCHOR_BUB_TO_GRID_RCP
  2
AecDbDispRepAnchorBubToGridRcp
  3
AecStructureBase50|Product Desc: Autodesk Architectural Desktop 2007 |Company: Autodesk,Inc. |WEB Address: www.autodesk.com
 90
    32897
280
     0
281
     0
  0
CLASS
  1
AEC_DISP_REP_COLUMN_GRID_RCP
  2
AecDbDispRepColumnGridRcp
  3
AecStructureBase50|Product Desc: Autodesk Architectural Desktop 2007 |Company: Autodesk,Inc. |WEB Address: www.autodesk.com
 90
    32897
280
     0
281
     0
  0
CLASS
  1
AECS_DISP_REP_MEMBER_ELEVATION_DESIGN
  2
AecsDbDispRepMemberElevationDesign
  3
AecStructureBase50|Product Desc: Autodesk Architectural Desktop 2007 |Company: Autodesk,Inc. |WEB Address: www.autodesk.com
 90
    32897
280
     0
281
     0
  0
CLASS
  1
AECS_DISP_PROPS_MEMBER_PROJECTED
  2
AecsDbDispPropsMemberProjected
  3
AecStructureBase50|Product Desc: Autodesk Architectural Desktop 2007 |Company: Autodesk,Inc. |WEB Address: www.autodesk.com
 90
    32897
280
     0
281
     0
  0
CLASS
  1
AECS_DISP_REP_MEMBER_ELEVATION_DETAIL
  2
AecsDbDispRepMemberElevationDetail
  3
AecStructureBase50|Product Desc: Autodesk Architectural Desktop 2007 |Company: Autodesk,Inc. |WEB Address: www.autodesk.com
 90
    32897
280
     0
281
     0
  0
CLASS
  1
AECS_DISP_REP_MEMBER_MODEL_DETAIL
  2
AecsDbDispRepMemberModelDetail
  3
AecStructureBase50|Product Desc: Autodesk Architectural Desktop 2007 |Company: Autodesk,Inc. |WEB Address: www.autodesk.com
 90
    32897
280
     0
281
     0
  0
CLASS
  1
AECS_DISP_REP_MEMBER_PLAN_DETAIL
  2
AecsDbDispRepMemberPlanDetail
  3
AecStructureBase50|Product Desc: Autodesk Architectural Desktop 2007 |Company: Autodesk,Inc. |WEB Address: www.autodesk.com
 90
    32897
280
     0
281
     0
  0
CLASS
  1
AECS_DISP_REP_MEMBER_PLAN_SKETCH
  2
AecsDbDispRepMemberPlanSketch
  3
AecStructureBase50|Product Desc: Autodesk Architectural Desktop 2007 |Company: Autodesk,Inc. |WEB Address: www.autodesk.com
 90
    32897
280
     0
281
     0
  0
CLASS
  1
AECS_DISP_PROPS_MEMBER_PLAN_SKETCH
  2
AecsDbDispPropsMemberPlanSketch
  3
AecStructureBase50|Product Desc: Autodesk Architectural Desktop 2007 |Company: Autodesk,Inc. |WEB Address: www.autodesk.com
 90
    32897
280
     0
281
     0
  0
CLASS
  1
AEC_AECDBDISPREPAREA100
  2
AecDbDispRepArea100
  3
AecArchDACHBase50|Product Desc: Autodesk Architectural Desktop 2007 |Company: Autodesk,Inc. |WEB Address: www.autodesk.com
 90
    32897
280
     0
281
     0
  0
CLASS
  1
AEC_AECDBDISPREPAREAGROUP100
  2
AecDbDispRepAreaGroup100
  3
AecArchDACHBase50|Product Desc: Autodesk Architectural Desktop 2007 |Company: Autodesk,Inc. |WEB Address: www.autodesk.com
 90
    32897
280
     0
281
     0
  0
CLASS
  1
AEC_AECDBDISPREPBDGELEVLINEPLAN100
  2
AecDbDispRepBdgElevLinePlan100
  3
AecArchDACHBase50|Product Desc: Autodesk Architectural Desktop 2007 |Company: Autodesk,Inc. |WEB Address: www.autodesk.com
 90
    32897
280
     0
281
     0
  0
CLASS
  1
AEC_AECDBDISPREPBDGSECTIONLINEPLAN100
  2
AecDbDispRepBdgSectionLinePlan100
  3
AecArchDACHBase50|Product Desc: Autodesk Architectural Desktop 2007 |Company: Autodesk,Inc. |WEB Address: www.autodesk.com
 90
    32897
280
     0
281
     0
  0
CLASS
  1
AEC_AECDBDISPREPCEILINGGRIDPLAN100
  2
AecDbDispRepCeilingGridPlan100
  3
AecArchDACHBase50|Product Desc: Autodesk Architectural Desktop 2007 |Company: Autodesk,Inc. |WEB Address: www.autodesk.com
 90
    32897
280
     0
281
     0
  0
CLASS
  1
AEC_AECDBDISPREPCOLUMNGRIDPLAN100
  2
AecDbDispRepColumnGridPlan100
  3
AecArchDACHBase50|Product Desc: Autodesk Architectural Desktop 2007 |Company: Autodesk,Inc. |WEB Address: www.autodesk.com
 90
    32897
280
     0
281
     0
  0
CLASS
  1
AEC_AECDBDISPREPCURTAINWALLLAYOUTPLAN100
  2
AecDbDispRepCurtainWallLayoutPlan100
  3
AecArchDACHBase50|Product Desc: Autodesk Architectural Desktop 2007 |Company: Autodesk,Inc. |WEB Address: www.autodesk.com
 90
    32897
280
     0
281
     0
  0
CLASS
  1
AEC_AECDBDISPREPCURTAINWALLUNITPLAN100
  2
AecDbDispRepCurtainWallUnitPlan100
  3
AecArchDACHBase50|Product Desc: Autodesk Architectural Desktop 2007 |Company: Autodesk,Inc. |WEB Address: www.autodesk.com
 90
    32897
280
     0
281
     0
  0
CLASS
  1
AEC_AECDBDISPREPMVBLOCKREFPLAN100
  2
AecDbDispRepMvBlockRefPlan100
  3
AecArchDACHBase50|Product Desc: Autodesk Architectural Desktop 2007 |Company: Autodesk,Inc. |WEB Address: www.autodesk.com
 90
    32897
280
     0
281
     0
  0
CLASS
  1
AEC_AECDBDISPREPROOFPLAN100
  2
AecDbDispRepRoofPlan100
  3
AecArchDACHBase50|Product Desc: Autodesk Architectural Desktop 2007 |Company: Autodesk,Inc. |WEB Address: www.autodesk.com
 90
    32897
280
     0
281
     0
  0
CLASS
  1
AEC_AECDBDISPREPROOFSLABPLAN100
  2
AecDbDispRepRoofSlabPlan100
  3
AecArchDACHBase50|Product Desc: Autodesk Architectural Desktop 2007 |Company: Autodesk,Inc. |WEB Address: www.autodesk.com
 90
    32897
280
     0
281
     0
  0
CLASS
  1
AEC_AECDBDISPREPSLABPLAN100
  2
AecDbDispRepSlabPlan100
  3
AecArchDACHBase50|Product Desc: Autodesk Architectural Desktop 2007 |Company: Autodesk,Inc. |WEB Address: www.autodesk.com
 90
    32897
280
     0
281
     0
  0
CLASS
  1
AEC_AECDBDISPREPSPACEBOUNDARYPLAN100
  2
AecDbDispRepSpaceBoundaryPlan100
  3
AecArchDACHBase50|Product Desc: Autodesk Architectural Desktop 2007 |Company: Autodesk,Inc. |WEB Address: www.autodesk.com
 90
    32897
280
     0
281
     0
  0
CLASS
  1
AEC_AECDBDISPREPSPACEPLAN100
  2
AecDbDispRepSpacePlan100
  3
AecArchDACHBase50|Product Desc: Autodesk Architectural Desktop 2007 |Company: Autodesk,Inc. |WEB Address: www.autodesk.com
 90
    32897
280
     0
281
     0
  0
CLASS
  1
AEC_AECDBDISPREPWALLPLAN100
  2
AecDbDispRepWallPlan100
  3
AecArchDACHBase50|Product Desc: Autodesk Architectural Desktop 2007 |Company: Autodesk,Inc. |WEB Address: www.autodesk.com
 90
    32897
280
     0
281
     0
  0
CLASS
  1
AEC_AECDBDISPREPAREA50
  2
AecDbDispRepArea50
  3
AecArchDACHBase50|Product Desc: Autodesk Architectural Desktop 2007 |Company: Autodesk,Inc. |WEB Address: www.autodesk.com
 90
    32897
280
     0
281
     0
  0
CLASS
  1
AEC_AECDBDISPREPAREAGROUP50
  2
AecDbDispRepAreaGroup50
  3
AecArchDACHBase50|Product Desc: Autodesk Architectural Desktop 2007 |Company: Autodesk,Inc. |WEB Address: www.autodesk.com
 90
    32897
280
     0
281
     0
  0
CLASS
  1
AEC_AECDBDISPREPBDGELEVLINEPLAN50
  2
AecDbDispRepBdgElevLinePlan50
  3
AecArchDACHBase50|Product Desc: Autodesk Architectural Desktop 2007 |Company: Autodesk,Inc. |WEB Address: www.autodesk.com
 90
    32897
280
     0
281
     0
  0
CLASS
  1
AEC_AECDBDISPREPBDGSECTIONLINEPLAN50
  2
AecDbDispRepBdgSectionLinePlan50
  3
AecArchDACHBase50|Product Desc: Autodesk Architectural Desktop 2007 |Company: Autodesk,Inc. |WEB Address: www.autodesk.com
 90
    32897
280
     0
281
     0
  0
CLASS
  1
AEC_AECDBDISPREPCEILINGGRIDPLAN50
  2
AecDbDispRepCeilingGridPlan50
  3
AecArchDACHBase50|Product Desc: Autodesk Architectural Desktop 2007 |Company: Autodesk,Inc. |WEB Address: www.autodesk.com
 90
    32897
280
     0
281
     0
  0
CLASS
  1
AEC_AECDBDISPREPCOLUMNGRIDPLAN50
  2
AecDbDispRepColumnGridPlan50
  3
AecArchDACHBase50|Product Desc: Autodesk Architectural Desktop 2007 |Company: Autodesk,Inc. |WEB Address: www.autodesk.com
 90
    32897
280
     0
281
     0
  0
CLASS
  1
AEC_AECDBDISPREPCURTAINWALLLAYOUTPLAN50
  2
AecDbDispRepCurtainWallLayoutPlan50
  3
AecArchDACHBase50|Product Desc: Autodesk Architectural Desktop 2007 |Company: Autodesk,Inc. |WEB Address: www.autodesk.com
 90
    32897
280
     0
281
     0
  0
CLASS
  1
AEC_AECDBDISPREPCURTAINWALLUNITPLAN50
  2
AecDbDispRepCurtainWallUnitPlan50
  3
AecArchDACHBase50|Product Desc: Autodesk Architectural Desktop 2007 |Company: Autodesk,Inc. |WEB Address: www.autodesk.com
 90
    32897
280
     0
281
     0
  0
CLASS
  1
AEC_AECDBDISPREPMVBLOCKREFPLAN50
  2
AecDbDispRepMvBlockRefPlan50
  3
AecArchDACHBase50|Product Desc: Autodesk Architectural Desktop 2007 |Company: Autodesk,Inc. |WEB Address: www.autodesk.com
 90
    32897
280
     0
281
     0
  0
CLASS
  1
AEC_AECDBDISPREPROOFPLAN50
  2
AecDbDispRepRoofPlan50
  3
AecArchDACHBase50|Product Desc: Autodesk Architectural Desktop 2007 |Company: Autodesk,Inc. |WEB Address: www.autodesk.com
 90
    32897
280
     0
281
     0
  0
CLASS
  1
AEC_AECDBDISPREPROOFSLABPLAN50
  2
AecDbDispRepRoofSlabPlan50
  3
AecArchDACHBase50|Product Desc: Autodesk Architectural Desktop 2007 |Company: Autodesk,Inc. |WEB Address: www.autodesk.com
 90
    32897
280
     0
281
     0
  0
CLASS
  1
AEC_AECDBDISPREPSLABPLAN50
  2
AecDbDispRepSlabPlan50
  3
AecArchDACHBase50|Product Desc: Autodesk Architectural Desktop 2007 |Company: Autodesk,Inc. |WEB Address: www.autodesk.com
 90
    32897
280
     0
281
     0
  0
CLASS
  1
AEC_AECDBDISPREPSPACEBOUNDARYPLAN50
  2
AecDbDispRepSpaceBoundaryPlan50
  3
AecArchDACHBase50|Product Desc: Autodesk Architectural Desktop 2007 |Company: Autodesk,Inc. |WEB Address: www.autodesk.com
 90
    32897
280
     0
281
     0
  0
CLASS
  1
AEC_AECDBDISPREPSPACEPLAN50
  2
AecDbDispRepSpacePlan50
  3
AecArchDACHBase50|Product Desc: Autodesk Architectural Desktop 2007 |Company: Autodesk,Inc. |WEB Address: www.autodesk.com
 90
    32897
280
     0
281
     0
  0
CLASS
  1
AEC_AECDBDISPREPWALLPLAN50
  2
AecDbDispRepWallPlan50
  3
AecArchDACHBase50|Product Desc: Autodesk Architectural Desktop 2007 |Company: Autodesk,Inc. |WEB Address: www.autodesk.com
 90
    32897
280
     0
281
     0
  0
CLASS
  1
AEC_AECDBDISPREPWINDOWASSEMBLYPLAN50
  2
AecDbDispRepWindowAssemblyPlan50
  3
AecArchDACHBase50|Product Desc: Autodesk Architectural Desktop 2007 |Company: Autodesk,Inc. |WEB Address: www.autodesk.com
 90
    32897
280
     0
281
     0
  0
CLASS
  1
AEC_DB_DISP_REP_DIM_GROUP_PLAN100
  2
AecDbDispRepDimGroupPlan100
  3
AecArchDACHBase50|Product Desc: Autodesk Architectural Desktop 2007 |Company: Autodesk,Inc. |WEB Address: www.autodesk.com
 90
    32897
280
     0
281
     0
  0
CLASS
  1
AEC_DB_DISP_REP_DIM_GROUP_PLAN50
  2
AecDbDispRepDimGroupPlan50
  3
AecArchDACHBase50|Product Desc: Autodesk Architectural Desktop 2007 |Company: Autodesk,Inc. |WEB Address: www.autodesk.com
 90
    32897
280
     0
281
     0
  0
CLASS
  1
AEC_DISP_REP_DOOR_PLAN_50
  2
AecDbDispRepDoorPlan50
  3
AecArchDACHBase50|Product Desc: Autodesk Architectural Desktop 2007 |Company: Autodesk,Inc. |WEB Address: www.autodesk.com
 90
    32897
280
     0
281
     0
  0
CLASS
  1
AEC_DISP_PROPS_DOOR_PLAN_50
  2
AecDbDispPropsDoorPlan50
  3
AecArchDACHBase50|Product Desc: Autodesk Architectural Desktop 2007 |Company: Autodesk,Inc. |WEB Address: www.autodesk.com
 90
    32897
280
     0
281
     0
  0
CLASS
  1
AEC_DISP_REP_DOOR_PLAN_HEKTO
  2
AecDbDispRepDoorPlanHekto
  3
AecArchDACHBase50|Product Desc: Autodesk Architectural Desktop 2007 |Company: Autodesk,Inc. |WEB Address: www.autodesk.com
 90
    32897
280
     0
281
     0
  0
CLASS
  1
AEC_DISP_PROPS_DOOR_PLAN_100
  2
AecDbDispPropsDoorPlan100
  3
AecArchDACHBase50|Product Desc: Autodesk Architectural Desktop 2007 |Company: Autodesk,Inc. |WEB Address: www.autodesk.com
 90
    32897
280
     0
281
     0
  0
CLASS
  1
AEC_DISP_REP_DOOR_THRESHOLD_SYMBOL_PLAN
  2
AecDbDispRepDoorThresholdSymbolPlan
  3
AecArchDACHBase50|Product Desc: Autodesk Architectural Desktop 2007 |Company: Autodesk,Inc. |WEB Address: www.autodesk.com
 90
    32897
280
     0
281
     0
  0
CLASS
  1
AEC_DISP_PROPS_DOOR_THRESHOLD_SYMBOL_PLAN
  2
AecDbDispPropsDoorThresholdSymbolPlan
  3
AecArchDACHBase50|Product Desc: Autodesk Architectural Desktop 2007 |Company: Autodesk,Inc. |WEB Address: www.autodesk.com
 90
    32897
280
     0
281
     0
  0
CLASS
  1
AEC_DISPREPAECDBDISPREPMASSELEMPLAN100
  2
AecDbDispRepMassElemPlan100
  3
AecArchDACHBase50|Product Desc: Autodesk Architectural Desktop 2007 |Company: Autodesk,Inc. |WEB Address: www.autodesk.com
 90
    32897
280
     0
281
     0
  0
CLASS
  1
AEC_DISPROPSMASSELEMPLANCOMMON
  2
AecDbDispPropsMassElemPlanCommon
  3
AecArchDACHBase50|Product Desc: Autodesk Architectural Desktop 2007 |Company: Autodesk,Inc. |WEB Address: www.autodesk.com
 90
    32897
280
     0
281
     0
  0
CLASS
  1
AEC_DISPREPAECDBDISPREPMASSELEMPLAN50
  2
AecDbDispRepMassElemPlan50
  3
AecArchDACHBase50|Product Desc: Autodesk Architectural Desktop 2007 |Company: Autodesk,Inc. |WEB Address: www.autodesk.com
 90
    32897
280
     0
281
     0
  0
CLASS
  1
AEC_DISPREPAECDBDISPREPMASSGROUPPLAN100
  2
AecDbDispRepMassGroupPlan100
  3
AecArchDACHBase50|Product Desc: Autodesk Architectural Desktop 2007 |Company: Autodesk,Inc. |WEB Address: www.autodesk.com
 90
    32897
280
     0
281
     0
  0
CLASS
  1
AEC_DISPROPSMASSGROUPPLANCOMMON
  2
AecDbDispPropsMassGroupPlanCommon
  3
AecArchDACHBase50|Product Desc: Autodesk Architectural Desktop 2007 |Company: Autodesk,Inc. |WEB Address: www.autodesk.com
 90
    32897
280
     0
281
     0
  0
CLASS
  1
AEC_DISPREPAECDBDISPREPMASSGROUPPLAN50
  2
AecDbDispRepMassGroupPlan50
  3
AecArchDACHBase50|Product Desc: Autodesk Architectural Desktop 2007 |Company: Autodesk,Inc. |WEB Address: www.autodesk.com
 90
    32897
280
     0
281
     0
  0
CLASS
  1
AEC_DISPREPAECDBDISPREPOPENINGPLAN100
  2
AecDbDispRepOpeningPlan100
  3
AecArchDACHBase50|Product Desc: Autodesk Architectural Desktop 2007 |Company: Autodesk,Inc. |WEB Address: www.autodesk.com
 90
    32897
280
     0
281
     0
  0
CLASS
  1
AEC_DISPROPSOPENINGPLANCOMMONHATCHED
  2
AecDbDispPropsOpeningPlanCommonHatched
  3
AecArchDACHBase50|Product Desc: Autodesk Architectural Desktop 2007 |Company: Autodesk,Inc. |WEB Address: www.autodesk.com
 90
    32897
280
     0
281
     0
  0
CLASS
  1
AEC_DISPREPAECDBDISPREPOPENINGPLAN50
  2
AecDbDispRepOpeningPlan50
  3
AecArchDACHBase50|Product Desc: Autodesk Architectural Desktop 2007 |Company: Autodesk,Inc. |WEB Address: www.autodesk.com
 90
    32897
280
     0
281
     0
  0
CLASS
  1
AEC_DISPREPAECDBDISPREPOPENINGPLANREFLECTED
  2
AecDbDispRepOpeningPlanReflected
  3
AecArchDACHBase50|Product Desc: Autodesk Architectural Desktop 2007 |Company: Autodesk,Inc. |WEB Address: www.autodesk.com
 90
    32897
280
     0
281
     0
  0
CLASS
  1
AEC_DISPROPSOPENINGPLANCOMMON
  2
AecDbDispPropsOpeningPlanCommon
  3
AecArchDACHBase50|Product Desc: Autodesk Architectural Desktop 2007 |Company: Autodesk,Inc. |WEB Address: www.autodesk.com
 90
    32897
280
     0
281
     0
  0
CLASS
  1
AEC_DISPREPAECDBDISPREPOPENINGSILLPLAN
  2
AecDbDispRepOpeningSillPlan
  3
AecArchDACHBase50|Product Desc: Autodesk Architectural Desktop 2007 |Company: Autodesk,Inc. |WEB Address: www.autodesk.com
 90
    32897
280
     0
281
     0
  0
CLASS
  1
AEC_DISPROPSOPENINGSILLPLAN
  2
AecDbDispPropsOpeningSillPlan
  3
AecArchDACHBase50|Product Desc: Autodesk Architectural Desktop 2007 |Company: Autodesk,Inc. |WEB Address: www.autodesk.com
 90
    32897
280
     0
281
     0
  0
CLASS
  1
AEC_DISP_REP_RAILING_PLAN_100
  2
AecDbDispRepRailingPlan100
  3
AecArchDACHBase50|Product Desc: Autodesk Architectural Desktop 2007 |Company: Autodesk,Inc. |WEB Address: www.autodesk.com
 90
    32897
280
     0
281
     0
  0
CLASS
  1
AEC_DISP_ROPS_RAILING_PLAN_100
  2
AecDbDispPropsRailingPlan100
  3
AecArchDACHBase50|Product Desc: Autodesk Architectural Desktop 2007 |Company: Autodesk,Inc. |WEB Address: www.autodesk.com
 90
    32897
280
     0
281
     0
  0
CLASS
  1
AEC_DISP_REP_RAILING_PLAN_50
  2
AecDbDispRepRailingPlan50
  3
AecArchDACHBase50|Product Desc: Autodesk Architectural Desktop 2007 |Company: Autodesk,Inc. |WEB Address: www.autodesk.com
 90
    32897
280
     0
281
     0
  0
CLASS
  1
AEC_DISP_ROPS_RAILING_PLAN_50
  2
AecDbDispPropsRailingPlan50
  3
AecArchDACHBase50|Product Desc: Autodesk Architectural Desktop 2007 |Company: Autodesk,Inc. |WEB Address: www.autodesk.com
 90
    32897
280
     0
281
     0
  0
CLASS
  1
AEC_DISP_REP_STAIR_PLAN_100
  2
AecDbDispRepStairPlan100
  3
AecArchDACHBase50|Product Desc: Autodesk Architectural Desktop 2007 |Company: Autodesk,Inc. |WEB Address: www.autodesk.com
 90
    32897
280
     0
281
     0
  0
CLASS
  1
AEC_DISP_ROPS_STAIR_PLAN_100
  2
AecDbDispPropsStairPlan100
  3
AecArchDACHBase50|Product Desc: Autodesk Architectural Desktop 2007 |Company: Autodesk,Inc. |WEB Address: www.autodesk.com
 90
    32897
280
     0
281
     0
  0
CLASS
  1
AEC_DISP_REP_STAIR_PLAN_50
  2
AecDbDispRepStairPlan50
  3
AecArchDACHBase50|Product Desc: Autodesk Architectural Desktop 2007 |Company: Autodesk,Inc. |WEB Address: www.autodesk.com
 90
    32897
280
     0
281
     0
  0
CLASS
  1
AEC_DISP_ROPS_STAIR_PLAN_50
  2
AecDbDispPropsStairPlan50
  3
AecArchDACHBase50|Product Desc: Autodesk Architectural Desktop 2007 |Company: Autodesk,Inc. |WEB Address: www.autodesk.com
 90
    32897
280
     0
281
     0
  0
CLASS
  1
AEC_DISP_REP_WINDOW_PLAN_100
  2
AecDbDispRepWindowPlan100
  3
AecArchDACHBase50|Product Desc: Autodesk Architectural Desktop 2007 |Company: Autodesk,Inc. |WEB Address: www.autodesk.com
 90
    32897
280
     0
281
     0
  0
CLASS
  1
AEC_DISP_PROPS_WINDOW_PLAN_100
  2
AecDbDispPropsWindowPlan100
  3
AecArchDACHBase50|Product Desc: Autodesk Architectural Desktop 2007 |Company: Autodesk,Inc. |WEB Address: www.autodesk.com
 90
    32897
280
     0
281
     0
  0
CLASS
  1
AEC_DISP_REP_WINDOW_PLAN_50
  2
AecDbDispRepWindowPlan50
  3
AecArchDACHBase50|Product Desc: Autodesk Architectural Desktop 2007 |Company: Autodesk,Inc. |WEB Address: www.autodesk.com
 90
    32897
280
     0
281
     0
  0
CLASS
  1
AEC_DISP_PROPS_WINDOW_PLAN_50
  2
AecDbDispPropsWindowPlan50
  3
AecArchDACHBase50|Product Desc: Autodesk Architectural Desktop 2007 |Company: Autodesk,Inc. |WEB Address: www.autodesk.com
 90
    32897
280
     0
281
     0
  0
CLASS
  1
BINRECORD
  2
AcAecBinRecord
  3
AecBase50|Product Desc: Autodesk Architectural Desktop 2007 |Company: Autodesk,Inc. |WEB Address: www.autodesk.com
 90
    32897
280
     0
281
     0
  0
CLASS
  1
SPATIAL_FILTER
  2
AcDbSpatialFilter
  3
ObjectDBX Classes
 90
    32768
280
     0
281
     0
  0
CLASS
  1
AEC_VARS_STRUCTUREBASE
  2
AecsDbVarsStructureBase
  3
AecStructureBase50|Product Desc: Autodesk Architectural Desktop 2007 |Company: Autodesk,Inc. |WEB Address: www.autodesk.com
 90
    32897
280
     0
281
     0
  0
CLASS
  1
DIMASSOC
  2
AcDbDimAssoc
  3
"AcDbDimAssoc|Product Desc:     AcDim ARX App For Dimension|Company:          Autodesk, Inc.|WEB Address:      www.autodesk.com"
 90
    32768
280
     0
281
     0
  0
CLASS
  1
TABLESTYLE
  2
AcDbTableStyle
  3
ObjectDBX Classes
 90
     4095
280
     0
281
     0
  0
CLASS
  1
AEC_DISP_REP_DISPLAYTHEME
  2
AecDbDispRepDisplayTheme
  3
AecBase50|Product Desc: Autodesk Architectural Desktop 2007 |Company: Autodesk,Inc. |WEB Address: www.autodesk.com
 90
    32897
280
     0
281
     0
  0
CLASS
  1
AEC_DISP_PROPS_DISPLAYTHEME
  2
AecDbDispPropsDisplayTheme
  3
AecBase50|Product Desc: Autodesk Architectural Desktop 2007 |Company: Autodesk,Inc. |WEB Address: www.autodesk.com
 90
    32897
280
     0
281
     0
  0
CLASS
  1
AEC_DISP_REP_ANCHOR_EXT_TAG_TO_ENT
  2
AecDbDispRepAnchorExtendedTagToEnt
  3
AecScheduleData50|Product Desc: Autodesk Architectural Desktop 2007 |Company: Autodesk,Inc. |WEB Address: www.autodesk.com
 90
    32897
280
     0
281
     0
  0
CLASS
  1
MATERIAL
  2
AcDbMaterial
  3
ObjectDBX Classes
 90
     1153
280
     0
281
     0
  0
CLASS
  1
VISUALSTYLE
  2
AcDbVisualStyle
  3
ObjectDBX Classes
 90
     4095
280
     0
281
     0
  0
CLASS
  1
AEC_AECDBDISPREPZONE100
  2
AecDbDispRepZonePlan100
  3
AecArchDACHBase50|Product Desc: Autodesk Architectural Desktop 2007 |Company: Autodesk,Inc. |WEB Address: www.autodesk.com
 90
    32897
280
     0
281
     0
  0
CLASS
  1
AEC_DISP_PROPS_ZONE
  2
AecDbDispPropsZone
  3
AecArchBase50|Product Desc: Autodesk Architectural Desktop 2007 |Company: Autodesk,Inc. |WEB Address: www.autodesk.com
 90
    32897
280
     0
281
     0
  0
CLASS
  1
AEC_AECDBDISPREPZONE50
  2
AecDbDispRepZonePlan50
  3
AecArchDACHBase50|Product Desc: Autodesk Architectural Desktop 2007 |Company: Autodesk,Inc. |WEB Address: www.autodesk.com
 90
    32897
280
     0
281
     0
  0
CLASS
  1
AEC_DISP_REP_SPACE_DECOMPOSED
  2
AecDbDispRepSpaceDecomposed
  3
AecArchBase50|Product Desc: Autodesk Architectural Desktop 2007 |Company: Autodesk,Inc. |WEB Address: www.autodesk.com
 90
    32897
280
     0
281
     0
  0
CLASS
  1
AEC_DISP_PROPS_SPACE_DECOMPOSED
  2
AecDbDispPropsSpaceDecomposed
  3
AecArchBase50|Product Desc: Autodesk Architectural Desktop 2007 |Company: Autodesk,Inc. |WEB Address: www.autodesk.com
 90
    32897
280
     0
281
     0
  0
CLASS
  1
AEC_DISP_REP_ZONE
  2
AecDbDispRepZone
  3
AecArchBase50|Product Desc: Autodesk Architectural Desktop 2007 |Company: Autodesk,Inc. |WEB Address: www.autodesk.com
 90
    32897
280
     0
281
     0
  0
CLASS
  1
EXACXREFPANELOBJECT
  2
ExAcXREFPanelObject
  3
EXAC_ESW
 90
    33793
280
     1
281
     0
  0
CLASS
  1
NPOCOLLECTION
  2
AcDbImpNonPersistentObjectsCollection
  3
ObjectDBX Classes
 90
     1153
280
     0
281
     0
  0
CLASS
  1
SCALE
  2
AcDbScale
  3
ObjectDBX Classes
 90
     1153
280
     0
281
     0
  0
CLASS
  1
MLEADERSTYLE
  2
AcDbMLeaderStyle
  3
ACDB_MLEADERSTYLE_CLASS
 90
     4095
280
     0
281
     0
  0
CLASS
  1
CELLSTYLEMAP
  2
AcDbCellStyleMap
  3
ObjectDBX Classes
 90
     1152
280
     0
281
     0
  0
CLASS
  1
AEC_REFEDIT_STATUS_TRACKER
  2
AecDbRefEditStatusTracker
  3
AecArchBase50|Product Desc: Autodesk Architectural Desktop 2007 |Company: Autodesk,Inc. |WEB Address: www.autodesk.com
 90
      129
280
     0
281
     0
  0
ENDSEC
  0
SECTION
  2
TABLES
  0
TABLE
  2
VPORT
  5
22
330
0
100
AcDbSymbolTable
 70
     1
  0
VPORT
  5
23
330
22
100
AcDbSymbolTableRecord
100
AcDbViewportTableRecord
  2
*Active
 70
     0
 10
0.0
 20
0.0
 11
1.0
 21
1.0
 12
165132.867784499
 22
75112.05181755971
 13
0.0
 23
0.0
 14
10.0
 24
10.0
 15
10.0
 25
10.0
 16
0.0
 26
0.0
 36
1.0
 17
0.0
 27
0.0
 37
0.0
 40
33980.55194711953
 41
2.246612466124661
 42
50.0
 43
0.0
 44
0.0
 50
0.0
 51
0.0
 71
     0
 72
  1000
 73
     1
 74
     1
 75
     0
 76
     0
 77
     0
 78
     0
281
     0
 65
     1
110
0.0
120
0.0
130
0.0
111
1.0
121
0.0
131
0.0
112
0.0
122
1.0
132
0.0
 79
     0
146
0.0
  0
ENDTAB
  0
TABLE
  2
LTYPE
  5
1D
330
0
100
AcDbSymbolTable
 70
     2
  0
LTYPE
  5
1E
330
1D
100
AcDbSymbolTableRecord
100
AcDbLinetypeTableRecord
  2
ByBlock
 70
     0
  3

 72
    65
 73
     0
 40
0.0
  0
LTYPE
  5
1F
330
1D
100
AcDbSymbolTableRecord
100
AcDbLinetypeTableRecord
  2
ByLayer
 70
     0
  3

 72
    65
 73
     0
 40
0.0
  0
LTYPE
  5
C
330
1D
100
AcDbSymbolTableRecord
100
AcDbLinetypeTableRecord
  2
Continuous
 70
     0
  3
Solid line
 72
    65
 73
     0
 40
0.0
  0
LTYPE
  5
7D
330
1D
100
AcDbSymbolTableRecord
100
AcDbLinetypeTableRecord
  2
HIDDEN
 70
     0
  3
Hidden __ __ __ __ __ __ __ __ __ __ __ __ __ _
 72
    65
 73
     2
 40
0.375
 49
0.25
 74
     0
 49
-0.125
 74
     0
  0
ENDTAB
  0
TABLE
  2
LAYER
  5
17
102
{ACAD_XDICTIONARY
360
18
102
}
330
0
100
AcDbSymbolTable
 70
     8
  0
LAYER
  5
4
102
{ACAD_XDICTIONARY
360
5
102
}
330
17
100
AcDbSymbolTableRecord
100
AcDbLayerTableRecord
  2
0
 70
     0
 62
     7
  6
Continuous
370
    -3
390
7
  0
LAYER
  5
D1
102
{ACAD_XDICTIONARY
360
D2
102
}
330
17
100
AcDbSymbolTableRecord
100
AcDbLayerTableRecord
  2
WIDOK
 70
     0
 62
   114
  6
Continuous
370
    -3
390
7
  0
LAYER
  5
80
102
{ACAD_XDICTIONARY
360
81
102
}
330
17
100
AcDbSymbolTableRecord
100
AcDbLayerTableRecord
  2
SCIANY
 70
     0
 62
   140
  6
Continuous
370
    -3
390
7
  0
LAYER
  5
3B
102
{ACAD_XDICTIONARY
360
3C
102
}
330
17
100
AcDbSymbolTableRecord
100
AcDbLayerTableRecord
  2
WYMIARY
 70
     0
 62
     1
  6
Continuous
370
    -3
390
7
  0
LAYER
  5
8A
330
17
100
AcDbSymbolTableRecord
100
AcDbLayerTableRecord
  2
DEFPOINTS
 70
     0
 62
     7
  6
Continuous
290
     0
370
    -3
390
7
  0
LAYER
  5
65
102
{ACAD_XDICTIONARY
360
66
102
}
330
17
100
AcDbSymbolTableRecord
100
AcDbLayerTableRecord
  2
RAMKI-A4
 70
     0
 62
     2
  6
Continuous
290
     0
370
    -3
390
7
  0
LAYER
  5
70
102
{ACAD_XDICTIONARY
360
71
102
}
330
17
100
AcDbSymbolTableRecord
100
AcDbLayerTableRecord
  2
SZRAF
 70
     0
 62
   100
  6
Continuous
370
    -3
390
7
  0
LAYER
  5
69
102
{ACAD_XDICTIONARY
360
6A
102
}
330
17
100
AcDbSymbolTableRecord
100
AcDbLayerTableRecord
  2
NAPISY
 70
     0
 62
   140
  6
Continuous
370
    -3
390
7
  0
ENDTAB
  0
TABLE
  2
STYLE
  5
1A
330
0
100
AcDbSymbolTable
 70
     4
  0
STYLE
  5
1B
330
1A
100
AcDbSymbolTableRecord
100
AcDbTextStyleTableRecord
  2
Standard
 70
     0
 40
0.0
 41
1.0
 50
0.0
 71
     0
 42
2.5
  3
txt
  4

  0
STYLE
  5
28
330
1A
100
AcDbSymbolTableRecord
100
AcDbTextStyleTableRecord
  2
ROMANS
 70
     0
 40
0.0
 41
0.9
 50
0.0
 71
     0
 42
20.0
  3
romans.shx
  4

  0
STYLE
  5
6C
330
1A
100
AcDbSymbolTableRecord
100
AcDbTextStyleTableRecord
  2
AVA
 70
     0
 40
0.0
 41
1.0
 50
0.0
 71
     0
 42
158.5644099714409
  3
ARIAL.TTF
  4

1001
ACAD
1000
Arial CE
1071
    60962
  0
ENDTAB
  0
TABLE
  2
VIEW
  5
20
330
0
100
AcDbSymbolTable
 70
     1
  0
VIEW
  5
10
330
20
100
AcDbSymbolTableRecord
100
AcDbViewTableRecord
  2
DALIE_aneks
 70
     0
 40
14020.0
 10
230487.1523167869
 20
176727.5135321109
 41
10200.00000000003
 11
0.0
 21
0.0
 31
1.0
 12
0.0
 22
0.0
 32
0.0
 42
50.0
 43
0.0
 44
0.0
 50
0.0
 71
     0
281
     0
 72
     1
110
0.0
120
0.0
130
0.0
111
1.0
121
0.0
131
0.0
112
0.0
122
1.0
132
0.0
 79
     0
146
0.0
  0
ENDTAB
  0
TABLE
  2
UCS
  5
21
330
0
100
AcDbSymbolTable
 70
     0
  0
ENDTAB
  0
TABLE
  2
APPID
  5
24
330
0
100
AcDbSymbolTable
 70
     5
  0
APPID
  5
25
330
24
100
AcDbSymbolTableRecord
100
AcDbRegAppTableRecord
  2
ACAD
 70
     0
  0
APPID
  5
1BD
330
24
100
AcDbSymbolTableRecord
100
AcDbRegAppTableRecord
  2
DCO15
 70
     0
  0
APPID
  5
1D8
330
24
100
AcDbSymbolTableRecord
100
AcDbRegAppTableRecord
  2
ACAD_MLEADERVER
 70
     0
  0
APPID
  5
1E0
330
24
100
AcDbSymbolTableRecord
100
AcDbRegAppTableRecord
  2
ACAD_EXEMPT_FROM_CAD_STANDARDS
 70
     0
  0
APPID
  5
2FC
330
24
100
AcDbSymbolTableRecord
100
AcDbRegAppTableRecord
  2
ACAD_PSEXT
 70
     0
  0
ENDTAB
  0
TABLE
  2
DIMSTYLE
  5
26
330
0
100
AcDbSymbolTable
 70
     4
100
AcDbDimStyleTable
 71
     2
340
27
340
31
  0
DIMSTYLE
105
27
102
{ACAD_REACTORS
330
99
330
8E
330
7F
330
C5
330
B1
330
A6
330
115
330
22A
330
22B
330
22C
330
22D
330
22E
330
22F
330
271
102
}
330
26
100
AcDbSymbolTableRecord
100
AcDbDimStyleTableRecord
  2
500
 70
     0
 41
30.0
 42
43.0
 43
0.0
 44
13.0
 45
0.5
 46
12.0
 73
     0
 74
     0
 75
     1
 76
     1
 78
    12
140
80.0
141
0.0
145
1.0
147
0.0
172
     1
174
     1
176
     1
177
     1
178
    10
271
     1
272
     1
279
     2
340
28
341
29
342
29
  0
DIMSTYLE
105
31
330
26
100
AcDbSymbolTableRecord
100
AcDbDimStyleTableRecord
  2
Standard
 70
     0
340
1B
  0
ENDTAB
  0
TABLE
  2
BLOCK_RECORD
  5
1
330
0
100
AcDbSymbolTable
 70
    30
  0
BLOCK_RECORD
  5
2
330
1
100
AcDbSymbolTableRecord
100
AcDbBlockTableRecord
  2
*Model_Space
340
E
  0
BLOCK_RECORD
  5
13
330
1
100
AcDbSymbolTableRecord
100
AcDbBlockTableRecord
  2
*Paper_Space
340
16
  0
BLOCK_RECORD
  5
29
102
{ACAD_XDICTIONARY
360
2A
102
}
330
1
100
AcDbSymbolTableRecord
100
AcDbBlockTableRecord
  2
B-DIM
340
0
102
{BLKREFS
331
86
331
87
331
92
331
93
331
9F
331
A0
331
AA
331
AB
331
B5
331
B6
331
C9
331
CA
331
119
331
11A
331
129
331
12A
331
134
331
135
331
13F
331
140
331
14A
331
14B
331
161
331
162
331
16C
331
16D
331
1AA
331
1AB
331
1E6
331
1E7
331
1F0
331
1F1
331
1FA
331
1FB
331
204
331
205
331
210
331
211
331
21A
331
21B
331
224
331
225
331
2C1
331
2C2
331
2C8
331
2C9
331
2D1
331
2D2
331
2D8
331
2D9
331
2DF
331
2E0
331
2E6
331
2E7
331
2ED
331
2EE
102
}
  0
BLOCK_RECORD
  5
C6
330
1
100
AcDbSymbolTableRecord
100
AcDbBlockTableRecord
  2
*D1
340
0
  0
BLOCK_RECORD
  5
B2
330
1
100
AcDbSymbolTableRecord
100
AcDbBlockTableRecord
  2
*D2
340
0
  0
BLOCK_RECORD
  5
A7
330
1
100
AcDbSymbolTableRecord
100
AcDbBlockTableRecord
  2
*D3
340
0
  0
BLOCK_RECORD
  5
9A
330
1
100
AcDbSymbolTableRecord
100
AcDbBlockTableRecord
  2
*D4
340
0
  0
BLOCK_RECORD
  5
8F
330
1
100
AcDbSymbolTableRecord
100
AcDbBlockTableRecord
  2
*D5
340
0
  0
BLOCK_RECORD
  5
83
330
1
100
AcDbSymbolTableRecord
100
AcDbBlockTableRecord
  2
*D6
340
0
  0
BLOCK_RECORD
  5
116
330
1
100
AcDbSymbolTableRecord
100
AcDbBlockTableRecord
  2
*D7
340
0
  0
BLOCK_RECORD
  5
13C
330
1
100
AcDbSymbolTableRecord
100
AcDbBlockTableRecord
  2
*D8
340
0
  0
BLOCK_RECORD
  5
131
330
1
100
AcDbSymbolTableRecord
100
AcDbBlockTableRecord
  2
*D9
340
0
  0
BLOCK_RECORD
  5
124
330
1
100
AcDbSymbolTableRecord
100
AcDbBlockTableRecord
  2
*D10
340
0
  0
BLOCK_RECORD
  5
169
330
1
100
AcDbSymbolTableRecord
100
AcDbBlockTableRecord
  2
*D11
340
0
  0
BLOCK_RECORD
  5
15E
330
1
100
AcDbSymbolTableRecord
100
AcDbBlockTableRecord
  2
*D12
340
0
  0
BLOCK_RECORD
  5
1A7
330
1
100
AcDbSymbolTableRecord
100
AcDbBlockTableRecord
  2
*D13
340
0
  0
BLOCK_RECORD
  5
147
330
1
100
AcDbSymbolTableRecord
100
AcDbBlockTableRecord
  2
*D14
340
0
  0
BLOCK_RECORD
  5
1E2
330
1
100
AcDbSymbolTableRecord
100
AcDbBlockTableRecord
  2
*D15
340
0
  0
BLOCK_RECORD
  5
1EC
330
1
100
AcDbSymbolTableRecord
100
AcDbBlockTableRecord
  2
*D16
340
0
  0
BLOCK_RECORD
  5
1F6
330
1
100
AcDbSymbolTableRecord
100
AcDbBlockTableRecord
  2
*D17
340
0
  0
BLOCK_RECORD
  5
200
330
1
100
AcDbSymbolTableRecord
100
AcDbBlockTableRecord
  2
*D18
340
0
  0
BLOCK_RECORD
  5
20A
330
1
100
AcDbSymbolTableRecord
100
AcDbBlockTableRecord
  2
*D19
340
0
  0
BLOCK_RECORD
  5
216
330
1
100
AcDbSymbolTableRecord
100
AcDbBlockTableRecord
  2
*D20
340
0
  0
BLOCK_RECORD
  5
220
330
1
100
AcDbSymbolTableRecord
100
AcDbBlockTableRecord
  2
*D21
340
0
  0
BLOCK_RECORD
  5
276
330
1
100
AcDbSymbolTableRecord
100
AcDbBlockTableRecord
  2
*D22
340
0
  0
BLOCK_RECORD
  5
280
330
1
100
AcDbSymbolTableRecord
100
AcDbBlockTableRecord
  2
*D23
340
0
  0
BLOCK_RECORD
  5
28A
330
1
100
AcDbSymbolTableRecord
100
AcDbBlockTableRecord
  2
*D24
340
0
  0
BLOCK_RECORD
  5
296
330
1
100
AcDbSymbolTableRecord
100
AcDbBlockTableRecord
  2
*D25
340
0
  0
BLOCK_RECORD
  5
2A0
330
1
100
AcDbSymbolTableRecord
100
AcDbBlockTableRecord
  2
*D26
340
0
  0
BLOCK_RECORD
  5
2AA
330
1
100
AcDbSymbolTableRecord
100
AcDbBlockTableRecord
  2
*D27
340
0
  0
BLOCK_RECORD
  5
2B6
330
1
100
AcDbSymbolTableRecord
100
AcDbBlockTableRecord
  2
*D28
340
0
  0
ENDTAB
  0
ENDSEC
  0
SECTION
  2
BLOCKS
  0
BLOCK
  5
3
330
2
100
AcDbEntity
  8
0
100
AcDbBlockBegin
  2
*Model_Space
 70
     0
 10
0.0
 20
0.0
 30
0.0
  3
*Model_Space
  1

  0
ENDBLK
  5
D
330
2
100
AcDbEntity
  8
0
100
AcDbBlockEnd
  0
BLOCK
  5
14
330
13
100
AcDbEntity
 67
     1
  8
0
100
AcDbBlockBegin
  2
*Paper_Space
 70
     0
 10
0.0
 20
0.0
 30
0.0
  3
*Paper_Space
  1

  0
ENDBLK
  5
15
330
13
100
AcDbEntity
 67
     1
  8
0
100
AcDbBlockEnd
  0
BLOCK
  5
2C
330
29
100
AcDbEntity
  8
0
100
AcDbBlockBegin
  2
B-DIM
 70
     0
 10
0.0
 20
0.0
 30
0.0
  3
B-DIM
  1

  0
LINE
  5
2D
330
29
100
AcDbEntity
  8
0
 62
     1
100
AcDbLine
 10
0.000000000000091
 20
-1.1
 30
0.0
 11
0.000000000000091
 21
1.1
 31
0.0
  0
LWPOLYLINE
  5
2E
330
29
100
AcDbEntity
  8
0
 62
     1
100
AcDbPolyline
 90
        2
 70
     0
 43
0.3
 10
-0.7071067811864851
 20
-0.7071067811864851
 10
0.707106781186576
 20
0.707106781186576
  0
LINE
  5
2F
330
29
100
AcDbEntity
  8
0
 62
     1
100
AcDbLine
 10
1.20000000000009
 20
0.0
 30
0.0
 11
-1.199999999999909
 21
0.0
 31
0.0
  0
ENDBLK
  5
30
330
29
100
AcDbEntity
  8
0
100
AcDbBlockEnd
  0
BLOCK
  5
C7
330
C6
100
AcDbEntity
  8
0
100
AcDbBlockBegin
  2
*D1
 70
     1
 10
0.0
 20
0.0
 30
0.0
  3
*D1
  1

  0
LINE
  5
C8
330
C6
100
AcDbEntity
  8
WYMIARY
 62
     1
370
    -2
100
AcDbLine
 10
167841.7753444906
 20
78270.75096873275
 30
0.0
 11
166661.7753444906
 21
78270.75096873275
 31
0.0
  0
INSERT
  5
C9
330
C6
100
AcDbEntity
  8
WYMIARY
 62
     1
370
    -2
100
AcDbBlockReference
  2
B-DIM
 10
167871.7753444906
 20
78270.75096873275
 30
0.0
 41
30.0
 42
30.0
 43
30.0
  0
INSERT
  5
CA
330
C6
100
AcDbEntity
  8
WYMIARY
 62
     1
370
    -2
100
AcDbBlockReference
  2
B-DIM
 10
166631.7753444906
 20
78270.75096873275
 30
0.0
 41
30.0
 42
30.0
 43
30.0
 50
180.0
  0
MTEXT
  5
CB
330
C6
100
AcDbEntity
  8
WYMIARY
 62
    10
100
AcDbMText
 10
167251.7753444905
 20
78350.75096873275
 30
0.0
 40
80.0
 41
0.0
 71
     5
 72
     1
  1
\A1;1240
  7
ROMANS
 73
     1
 44
1.0
1001
ACAD
1000
MTEXTBEGIN
1070
    73
1070
     1
1070
    44
1040
1.0
1070
    74
1070
     0
1000
MTEXTEND
  0
POINT
  5
CC
330
C6
100
AcDbEntity
  8
DEFPOINTS
 62
     0
100
AcDbPoint
 10
167871.7753444906
 20
79537.58152292832
 30
0.0
  0
POINT
  5
CD
330
C6
100
AcDbEntity
  8
DEFPOINTS
 62
     0
100
AcDbPoint
 10
166631.7753444906
 20
79143.37126481268
 30
0.0
  0
POINT
  5
CE
330
C6
100
AcDbEntity
  8
DEFPOINTS
 62
     0
100
AcDbPoint
 10
166631.7753444906
 20
78270.75096873275
 30
0.0
  0
ENDBLK
  5
CF
330
C6
100
AcDbEntity
  8
0
100
AcDbBlockEnd
  0
BLOCK
  5
B3
330
B2
100
AcDbEntity
  8
0
100
AcDbBlockBegin
  2
*D2
 70
     1
 10
0.0
 20
0.0
 30
0.0
  3
*D2
  1

  0
LINE
  5
B4
330
B2
100
AcDbEntity
  8
WYMIARY
 62
     1
370
    -2
100
AcDbLine
 10
166049.7110700455
 20
79173.37126481268
 30
0.0
 11
166049.7110700455
 21
79786.37126412722
 31
0.0
  0
INSERT
  5
B5
330
B2
100
AcDbEntity
  8
WYMIARY
 62
     1
370
    -2
100
AcDbBlockReference
  2
B-DIM
 10
166049.7110700455
 20
79143.37126481268
 30
0.0
 41
30.0
 42
30.0
 43
30.0
 50
270.0
  0
INSERT
  5
B6
330
B2
100
AcDbEntity
  8
WYMIARY
 62
     1
370
    -2
100
AcDbBlockReference
  2
B-DIM
 10
166049.7110700455
 20
79816.37126412722
 30
0.0
 41
30.0
 42
30.0
 43
30.0
 50
90.0
  0
MTEXT
  5
B7
330
B2
100
AcDbEntity
  8
WYMIARY
 62
    10
100
AcDbMText
 10
165969.7110700455
 20
79479.87126446997
 30
0.0
 40
80.0
 41
0.0
 71
     5
 72
     1
  1
\A1;673
  7
ROMANS
 11
0.0000000000000001
 21
1.0
 31
0.0
 73
     1
 44
1.0
1001
ACAD
1000
MTEXTBEGIN
1070
    73
1070
     1
1070
    44
1040
1.0
1070
    74
1070
     0
1000
MTEXTEND
  0
POINT
  5
B8
330
B2
100
AcDbEntity
  8
DEFPOINTS
 62
     0
100
AcDbPoint
 10
166631.7753444906
 20
79143.37126481268
 30
0.0
  0
POINT
  5
B9
330
B2
100
AcDbEntity
  8
DEFPOINTS
 62
     0
100
AcDbPoint
 10
166631.7753444906
 20
79816.37126412722
 30
0.0
  0
POINT
  5
BA
330
B2
100
AcDbEntity
  8
DEFPOINTS
 62
     0
100
AcDbPoint
 10
166049.7110700455
 20
79816.37126412722
 30
0.0
  0
ENDBLK
  5
BB
330
B2
100
AcDbEntity
  8
0
100
AcDbBlockEnd
  0
BLOCK
  5
A8
330
A7
100
AcDbEntity
  8
0
100
AcDbBlockBegin
  2
*D3
 70
     1
 10
0.0
 20
0.0
 30
0.0
  3
*D3
  1

  0
LINE
  5
A9
330
A7
100
AcDbEntity
  8
WYMIARY
 62
     1
370
    -2
100
AcDbLine
 10
166049.7110700455
 20
79846.37126412721
 30
0.0
 11
166049.7110700455
 21
79993.37126481268
 31
0.0
  0
INSERT
  5
AA
330
A7
100
AcDbEntity
  8
WYMIARY
 62
     1
370
    -2
100
AcDbBlockReference
  2
B-DIM
 10
166049.7110700455
 20
79816.37126412722
 30
0.0
 41
30.0
 42
30.0
 43
30.0
 50
270.0
  0
INSERT
  5
AB
330
A7
100
AcDbEntity
  8
WYMIARY
 62
     1
370
    -2
100
AcDbBlockReference
  2
B-DIM
 10
166049.7110700455
 20
80023.37126481268
 30
0.0
 41
30.0
 42
30.0
 43
30.0
 50
90.0
  0
MTEXT
  5
AC
330
A7
100
AcDbEntity
  8
WYMIARY
 62
    10
100
AcDbMText
 10
165969.7110700455
 20
79919.87126446997
 30
0.0
 40
80.0
 41
0.0
 71
     5
 72
     1
  1
\A1;207
  7
ROMANS
 11
0.0000000000000001
 21
1.0
 31
0.0
 73
     1
 44
1.0
1001
ACAD
1000
MTEXTBEGIN
1070
    73
1070
     1
1070
    44
1040
1.0
1070
    74
1070
     0
1000
MTEXTEND
  0
POINT
  5
AD
330
A7
100
AcDbEntity
  8
DEFPOINTS
 62
     0
100
AcDbPoint
 10
166631.7753444906
 20
79816.37126412722
 30
0.0
  0
POINT
  5
AE
330
A7
100
AcDbEntity
  8
DEFPOINTS
 62
     0
100
AcDbPoint
 10
166961.7753444905
 20
80023.37126481268
 30
0.0
  0
POINT
  5
AF
330
A7
100
AcDbEntity
  8
DEFPOINTS
 62
     0
100
AcDbPoint
 10
166049.7110700455
 20
80023.37126481268
 30
0.0
  0
ENDBLK
  5
B0
330
A7
100
AcDbEntity
  8
0
100
AcDbBlockEnd
  0
BLOCK
  5
9B
330
9A
100
AcDbEntity
  8
0
100
AcDbBlockBegin
  2
*D4
 70
     1
 10
0.0
 20
0.0
 30
0.0
  3
*D4
  1

  0
LINE
  5
9C
330
9A
100
AcDbEntity
  8
SCIANY
 62
     1
370
    -2
100
AcDbLine
 10
167901.7753444906
 20
80784.02422921488
 30
0.0
 11
167931.7753444905
 21
80784.02422921488
 31
0.0
  0
LINE
  5
9D
330
9A
100
AcDbEntity
  8
SCIANY
 62
     1
370
    -2
100
AcDbLine
 10
167781.7753444905
 20
80784.02422921488
 30
0.0
 11
167751.7753444905
 21
80784.02422921488
 31
0.0
  0
LINE
  5
9E
330
9A
100
AcDbEntity
  8
SCIANY
 62
     1
370
    -2
100
AcDbLine
 10
167871.7753444906
 20
80784.02422921488
 30
0.0
 11
167811.7753444906
 21
80784.02422921488
 31
0.0
  0
INSERT
  5
9F
330
9A
100
AcDbEntity
  8
SCIANY
 62
     1
370
    -2
100
AcDbBlockReference
  2
B-DIM
 10
167871.7753444906
 20
80784.02422921488
 30
0.0
 41
30.0
 42
30.0
 43
30.0
 50
180.0
  0
INSERT
  5
A0
330
9A
100
AcDbEntity
  8
SCIANY
 62
     1
370
    -2
100
AcDbBlockReference
  2
B-DIM
 10
167811.7753444906
 20
80784.02422921488
 30
0.0
 41
30.0
 42
30.0
 43
30.0
  0
MTEXT
  5
A1
330
9A
100
AcDbEntity
  8
SCIANY
 62
    10
100
AcDbMText
 10
167841.7753444906
 20
80864.02422921487
 30
0.0
 40
80.0
 41
0.0
 71
     5
 72
     1
  1
\A1;60
  7
ROMANS
 73
     1
 44
1.0
1001
ACAD
1000
MTEXTBEGIN
1070
    73
1070
     1
1070
    44
1040
1.0
1070
    74
1070
     0
1000
MTEXTEND
  0
POINT
  5
A2
330
9A
100
AcDbEntity
  8
DEFPOINTS
 62
     0
100
AcDbPoint
 10
167871.7753444906
 20
79663.21693588012
 30
0.0
  0
POINT
  5
A3
330
9A
100
AcDbEntity
  8
DEFPOINTS
 62
     0
100
AcDbPoint
 10
167811.7753444906
 20
80023.37126481268
 30
0.0
  0
POINT
  5
A4
330
9A
100
AcDbEntity
  8
DEFPOINTS
 62
     0
100
AcDbPoint
 10
167811.7753444906
 20
80784.02422921488
 30
0.0
  0
ENDBLK
  5
A5
330
9A
100
AcDbEntity
  8
0
100
AcDbBlockEnd
  0
BLOCK
  5
90
330
8F
100
AcDbEntity
  8
0
100
AcDbBlockBegin
  2
*D5
 70
     1
 10
0.0
 20
0.0
 30
0.0
  3
*D5
  1

  0
LINE
  5
91
330
8F
100
AcDbEntity
  8
SCIANY
 62
     1
370
    -2
100
AcDbLine
 10
167781.7753444905
 20
80784.02422921488
 30
0.0
 11
166991.7753444905
 21
80784.02422921488
 31
0.0
  0
INSERT
  5
92
330
8F
100
AcDbEntity
  8
SCIANY
 62
     1
370
    -2
100
AcDbBlockReference
  2
B-DIM
 10
167811.7753444906
 20
80784.02422921488
 30
0.0
 41
30.0
 42
30.0
 43
30.0
  0
INSERT
  5
93
330
8F
100
AcDbEntity
  8
SCIANY
 62
     1
370
    -2
100
AcDbBlockReference
  2
B-DIM
 10
166961.7753444905
 20
80784.02422921488
 30
0.0
 41
30.0
 42
30.0
 43
30.0
 50
180.0
  0
MTEXT
  5
94
330
8F
100
AcDbEntity
  8
SCIANY
 62
    10
100
AcDbMText
 10
167386.7753444906
 20
80864.02422921487
 30
0.0
 40
80.0
 41
0.0
 71
     5
 72
     1
  1
\A1;850
  7
ROMANS
 73
     1
 44
1.0
1001
ACAD
1000
MTEXTBEGIN
1070
    73
1070
     1
1070
    44
1040
1.0
1070
    74
1070
     0
1000
MTEXTEND
  0
POINT
  5
95
330
8F
100
AcDbEntity
  8
DEFPOINTS
 62
     0
100
AcDbPoint
 10
167811.7753444906
 20
80023.37126481268
 30
0.0
  0
POINT
  5
96
330
8F
100
AcDbEntity
  8
DEFPOINTS
 62
     0
100
AcDbPoint
 10
166961.7753444905
 20
80023.37126481268
 30
0.0
  0
POINT
  5
97
330
8F
100
AcDbEntity
  8
DEFPOINTS
 62
     0
100
AcDbPoint
 10
166961.7753444905
 20
80784.02422921488
 30
0.0
  0
ENDBLK
  5
98
330
8F
100
AcDbEntity
  8
0
100
AcDbBlockEnd
  0
BLOCK
  5
84
330
83
100
AcDbEntity
  8
0
100
AcDbBlockBegin
  2
*D6
 70
     1
 10
0.0
 20
0.0
 30
0.0
  3
*D6
  1

  0
LINE
  5
85
330
83
100
AcDbEntity
  8
SCIANY
 62
     1
370
    -2
100
AcDbLine
 10
166931.7753444905
 20
80784.02422921488
 30
0.0
 11
166661.7753444906
 21
80784.02422921488
 31
0.0
  0
INSERT
  5
86
330
83
100
AcDbEntity
  8
SCIANY
 62
     1
370
    -2
100
AcDbBlockReference
  2
B-DIM
 10
166961.7753444905
 20
80784.02422921488
 30
0.0
 41
30.0
 42
30.0
 43
30.0
  0
INSERT
  5
87
330
83
100
AcDbEntity
  8
SCIANY
 62
     1
370
    -2
100
AcDbBlockReference
  2
B-DIM
 10
166631.7753444906
 20
80784.02422921488
 30
0.0
 41
30.0
 42
30.0
 43
30.0
 50
180.0
  0
MTEXT
  5
88
330
83
100
AcDbEntity
  8
SCIANY
 62
    10
100
AcDbMText
 10
166796.7753444906
 20
80864.02422921487
 30
0.0
 40
80.0
 41
0.0
 71
     5
 72
     1
  1
\A1;330
  7
ROMANS
 73
     1
 44
1.0
1001
ACAD
1000
MTEXTBEGIN
1070
    73
1070
     1
1070
    44
1040
1.0
1070
    74
1070
     0
1000
MTEXTEND
  0
POINT
  5
89
330
83
100
AcDbEntity
  8
DEFPOINTS
 62
     0
100
AcDbPoint
 10
166961.7753444905
 20
80023.37126481268
 30
0.0
  0
POINT
  5
8B
330
83
100
AcDbEntity
  8
DEFPOINTS
 62
     0
100
AcDbPoint
 10
166631.7753444906
 20
79816.37126412722
 30
0.0
  0
POINT
  5
8C
330
83
100
AcDbEntity
  8
DEFPOINTS
 62
     0
100
AcDbPoint
 10
166631.7753444906
 20
80784.02422921488
 30
0.0
  0
ENDBLK
  5
8D
330
83
100
AcDbEntity
  8
0
100
AcDbBlockEnd
  0
BLOCK
  5
117
330
116
100
AcDbEntity
  8
0
100
AcDbBlockBegin
  2
*D7
 70
     1
 10
0.0
 20
0.0
 30
0.0
  3
*D7
  1

  0
LINE
  5
118
330
116
100
AcDbEntity
  8
WYMIARY
 62
     1
370
    -2
100
AcDbLine
 10
168430.3407551229
 20
79993.37126481268
 30
0.0
 11
168430.3407551229
 21
79173.37126481268
 31
0.0
  0
INSERT
  5
119
330
116
100
AcDbEntity
  8
WYMIARY
 62
     1
370
    -2
100
AcDbBlockReference
  2
B-DIM
 10
168430.3407551229
 20
80023.37126481268
 30
0.0
 41
30.0
 42
30.0
 43
30.0
 50
90.0
  0
INSERT
  5
11A
330
116
100
AcDbEntity
  8
WYMIARY
 62
     1
370
    -2
100
AcDbBlockReference
  2
B-DIM
 10
168430.3407551229
 20
79143.37126481268
 30
0.0
 41
30.0
 42
30.0
 43
30.0
 50
270.0
  0
MTEXT
  5
11B
330
116
100
AcDbEntity
  8
WYMIARY
 62
    10
100
AcDbMText
 10
168350.3407551229
 20
79583.37126481271
 30
0.0
 40
80.0
 41
0.0
 71
     5
 72
     1
  1
\A1;880
  7
ROMANS
 11
0.0000000000000001
 21
1.0
 31
0.0
 73
     1
 44
1.0
1001
ACAD
1000
MTEXTBEGIN
1070
    73
1070
     1
1070
    44
1040
1.0
1070
    74
1070
     0
1000
MTEXTEND
  0
POINT
  5
11C
330
116
100
AcDbEntity
  8
DEFPOINTS
 62
     0
100
AcDbPoint
 10
167811.7753444906
 20
80023.37126481268
 30
0.0
  0
POINT
  5
11D
330
116
100
AcDbEntity
  8
DEFPOINTS
 62
     0
100
AcDbPoint
 10
167811.7753444906
 20
79143.37126481268
 30
0.0
  0
POINT
  5
11E
330
116
100
AcDbEntity
  8
DEFPOINTS
 62
     0
100
AcDbPoint
 10
168430.3407551229
 20
79143.37126481268
 30
0.0
  0
ENDBLK
  5
11F
330
116
100
AcDbEntity
  8
0
100
AcDbBlockEnd
  0
BLOCK
  5
13D
330
13C
100
AcDbEntity
  8
0
100
AcDbBlockBegin
  2
*D8
 70
     1
 10
0.0
 20
0.0
 30
0.0
  3
*D8
  1

  0
LINE
  5
13E
330
13C
100
AcDbEntity
  8
SCIANY
 62
     1
370
    -2
100
AcDbLine
 10
171868.0068408748
 20
80784.02422921488
 30
0.0
 11
172138.0068408748
 21
80784.02422921488
 31
0.0
  0
INSERT
  5
13F
330
13C
100
AcDbEntity
  8
SCIANY
 62
     1
370
    -2
100
AcDbBlockReference
  2
B-DIM
 10
171838.0068408748
 20
80784.02422921488
 30
0.0
 41
30.0
 42
30.0
 43
30.0
 50
180.0
  0
INSERT
  5
140
330
13C
100
AcDbEntity
  8
SCIANY
 62
     1
370
    -2
100
AcDbBlockReference
  2
B-DIM
 10
172168.0068408748
 20
80784.02422921488
 30
0.0
 41
30.0
 42
30.0
 43
30.0
  0
MTEXT
  5
141
330
13C
100
AcDbEntity
  8
SCIANY
 62
    10
100
AcDbMText
 10
172003.0068408748
 20
80864.02422921487
 30
0.0
 40
80.0
 41
0.0
 71
     5
 72
     1
  1
\A1;330
  7
ROMANS
 73
     1
 44
1.0
1001
ACAD
1000
MTEXTBEGIN
1070
    73
1070
     1
1070
    44
1040
1.0
1070
    74
1070
     0
1000
MTEXTEND
  0
POINT
  5
142
330
13C
100
AcDbEntity
  8
DEFPOINTS
 62
     0
100
AcDbPoint
 10
171838.0068408748
 20
80023.37126481268
 30
0.0
  0
POINT
  5
143
330
13C
100
AcDbEntity
  8
DEFPOINTS
 62
     0
100
AcDbPoint
 10
172168.0068408748
 20
79816.37126412722
 30
0.0
  0
POINT
  5
144
330
13C
100
AcDbEntity
  8
DEFPOINTS
 62
     0
100
AcDbPoint
 10
172168.0068408748
 20
80784.02422921488
 30
0.0
  0
ENDBLK
  5
145
330
13C
100
AcDbEntity
  8
0
100
AcDbBlockEnd
  0
BLOCK
  5
132
330
131
100
AcDbEntity
  8
0
100
AcDbBlockBegin
  2
*D9
 70
     1
 10
0.0
 20
0.0
 30
0.0
  3
*D9
  1

  0
LINE
  5
133
330
131
100
AcDbEntity
  8
SCIANY
 62
     1
370
    -2
100
AcDbLine
 10
171018.0068408748
 20
80784.02422921488
 30
0.0
 11
171808.0068408748
 21
80784.02422921488
 31
0.0
  0
INSERT
  5
134
330
131
100
AcDbEntity
  8
SCIANY
 62
     1
370
    -2
100
AcDbBlockReference
  2
B-DIM
 10
170988.0068408748
 20
80784.02422921488
 30
0.0
 41
30.0
 42
30.0
 43
30.0
 50
180.0
  0
INSERT
  5
135
330
131
100
AcDbEntity
  8
SCIANY
 62
     1
370
    -2
100
AcDbBlockReference
  2
B-DIM
 10
171838.0068408748
 20
80784.02422921488
 30
0.0
 41
30.0
 42
30.0
 43
30.0
  0
MTEXT
  5
136
330
131
100
AcDbEntity
  8
SCIANY
 62
    10
100
AcDbMText
 10
171413.0068408748
 20
80864.02422921487
 30
0.0
 40
80.0
 41
0.0
 71
     5
 72
     1
  1
\A1;850
  7
ROMANS
 73
     1
 44
1.0
1001
ACAD
1000
MTEXTBEGIN
1070
    73
1070
     1
1070
    44
1040
1.0
1070
    74
1070
     0
1000
MTEXTEND
  0
POINT
  5
137
330
131
100
AcDbEntity
  8
DEFPOINTS
 62
     0
100
AcDbPoint
 10
170988.0068408748
 20
80023.37126481268
 30
0.0
  0
POINT
  5
138
330
131
100
AcDbEntity
  8
DEFPOINTS
 62
     0
100
AcDbPoint
 10
171838.0068408748
 20
80023.37126481268
 30
0.0
  0
POINT
  5
139
330
131
100
AcDbEntity
  8
DEFPOINTS
 62
     0
100
AcDbPoint
 10
171838.0068408748
 20
80784.02422921488
 30
0.0
  0
ENDBLK
  5
13A
330
131
100
AcDbEntity
  8
0
100
AcDbBlockEnd
  0
BLOCK
  5
125
330
124
100
AcDbEntity
  8
0
100
AcDbBlockBegin
  2
*D10
 70
     1
 10
0.0
 20
0.0
 30
0.0
  3
*D10
  1

  0
LINE
  5
126
330
124
100
AcDbEntity
  8
SCIANY
 62
     1
370
    -2
100
AcDbLine
 10
170898.0068408748
 20
80784.02422921488
 30
0.0
 11
170868.0068408748
 21
80784.02422921488
 31
0.0
  0
LINE
  5
127
330
124
100
AcDbEntity
  8
SCIANY
 62
     1
370
    -2
100
AcDbLine
 10
171018.0068408748
 20
80784.02422921488
 30
0.0
 11
171048.0068408748
 21
80784.02422921488
 31
0.0
  0
LINE
  5
128
330
124
100
AcDbEntity
  8
SCIANY
 62
     1
370
    -2
100
AcDbLine
 10
170928.0068408748
 20
80784.02422921488
 30
0.0
 11
170988.0068408748
 21
80784.02422921488
 31
0.0
  0
INSERT
  5
129
330
124
100
AcDbEntity
  8
SCIANY
 62
     1
370
    -2
100
AcDbBlockReference
  2
B-DIM
 10
170928.0068408748
 20
80784.02422921488
 30
0.0
 41
30.0
 42
30.0
 43
30.0
  0
INSERT
  5
12A
330
124
100
AcDbEntity
  8
SCIANY
 62
     1
370
    -2
100
AcDbBlockReference
  2
B-DIM
 10
170988.0068408748
 20
80784.02422921488
 30
0.0
 41
30.0
 42
30.0
 43
30.0
 50
180.0
  0
MTEXT
  5
12B
330
124
100
AcDbEntity
  8
SCIANY
 62
    10
100
AcDbMText
 10
170958.0068408748
 20
80864.02422921487
 30
0.0
 40
80.0
 41
0.0
 71
     5
 72
     1
  1
\A1;60
  7
ROMANS
 73
     1
 44
1.0
1001
ACAD
1000
MTEXTBEGIN
1070
    73
1070
     1
1070
    44
1040
1.0
1070
    74
1070
     0
1000
MTEXTEND
  0
POINT
  5
12C
330
124
100
AcDbEntity
  8
DEFPOINTS
 62
     0
100
AcDbPoint
 10
170928.0068408748
 20
79663.21693588012
 30
0.0
  0
POINT
  5
12D
330
124
100
AcDbEntity
  8
DEFPOINTS
 62
     0
100
AcDbPoint
 10
170988.0068408748
 20
80023.37126481268
 30
0.0
  0
POINT
  5
12E
330
124
100
AcDbEntity
  8
DEFPOINTS
 62
     0
100
AcDbPoint
 10
170988.0068408748
 20
80784.02422921488
 30
0.0
  0
ENDBLK
  5
12F
330
124
100
AcDbEntity
  8
0
100
AcDbBlockEnd
  0
BLOCK
  5
16A
330
169
100
AcDbEntity
  8
0
100
AcDbBlockBegin
  2
*D11
 70
     1
 10
0.0
 20
0.0
 30
0.0
  3
*D11
  1

  0
LINE
  5
16B
330
169
100
AcDbEntity
  8
WYMIARY
 62
     1
370
    -2
100
AcDbLine
 10
172750.0711153198
 20
79846.37126412721
 30
0.0
 11
172750.0711153198
 21
79993.37126481268
 31
0.0
  0
INSERT
  5
16C
330
169
100
AcDbEntity
  8
WYMIARY
 62
     1
370
    -2
100
AcDbBlockReference
  2
B-DIM
 10
172750.0711153198
 20
79816.37126412722
 30
0.0
 41
30.0
 42
30.0
 43
30.0
 50
270.0
  0
INSERT
  5
16D
330
169
100
AcDbEntity
  8
WYMIARY
 62
     1
370
    -2
100
AcDbBlockReference
  2
B-DIM
 10
172750.0711153198
 20
80023.37126481268
 30
0.0
 41
30.0
 42
30.0
 43
30.0
 50
90.0
  0
MTEXT
  5
16E
330
169
100
AcDbEntity
  8
WYMIARY
 62
    10
100
AcDbMText
 10
172670.0711153198
 20
79919.87126446997
 30
0.0
 40
80.0
 41
0.0
 71
     5
 72
     1
  1
\A1;207
  7
ROMANS
 11
0.0000000000000001
 21
1.0
 31
0.0
 73
     1
 44
1.0
1001
ACAD
1000
MTEXTBEGIN
1070
    73
1070
     1
1070
    44
1040
1.0
1070
    74
1070
     0
1000
MTEXTEND
  0
POINT
  5
16F
330
169
100
AcDbEntity
  8
DEFPOINTS
 62
     0
100
AcDbPoint
 10
172168.0068408748
 20
79816.37126412722
 30
0.0
  0
POINT
  5
170
330
169
100
AcDbEntity
  8
DEFPOINTS
 62
     0
100
AcDbPoint
 10
171838.0068408748
 20
80023.37126481268
 30
0.0
  0
POINT
  5
171
330
169
100
AcDbEntity
  8
DEFPOINTS
 62
     0
100
AcDbPoint
 10
172750.0711153198
 20
80023.37126481268
 30
0.0
  0
ENDBLK
  5
172
330
169
100
AcDbEntity
  8
0
100
AcDbBlockEnd
  0
BLOCK
  5
15F
330
15E
100
AcDbEntity
  8
0
100
AcDbBlockBegin
  2
*D12
 70
     1
 10
0.0
 20
0.0
 30
0.0
  3
*D12
  1

  0
LINE
  5
160
330
15E
100
AcDbEntity
  8
WYMIARY
 62
     1
370
    -2
100
AcDbLine
 10
172750.0711153198
 20
79173.37126481268
 30
0.0
 11
172750.0711153198
 21
79786.37126412722
 31
0.0
  0
INSERT
  5
161
330
15E
100
AcDbEntity
  8
WYMIARY
 62
     1
370
    -2
100
AcDbBlockReference
  2
B-DIM
 10
172750.0711153198
 20
79143.37126481268
 30
0.0
 41
30.0
 42
30.0
 43
30.0
 50
270.0
  0
INSERT
  5
162
330
15E
100
AcDbEntity
  8
WYMIARY
 62
     1
370
    -2
100
AcDbBlockReference
  2
B-DIM
 10
172750.0711153198
 20
79816.37126412722
 30
0.0
 41
30.0
 42
30.0
 43
30.0
 50
90.0
  0
MTEXT
  5
163
330
15E
100
AcDbEntity
  8
WYMIARY
 62
    10
100
AcDbMText
 10
172670.0711153198
 20
79479.87126446997
 30
0.0
 40
80.0
 41
0.0
 71
     5
 72
     1
  1
\A1;673
  7
ROMANS
 11
0.0000000000000001
 21
1.0
 31
0.0
 73
     1
 44
1.0
1001
ACAD
1000
MTEXTBEGIN
1070
    73
1070
     1
1070
    44
1040
1.0
1070
    74
1070
     0
1000
MTEXTEND
  0
POINT
  5
164
330
15E
100
AcDbEntity
  8
DEFPOINTS
 62
     0
100
AcDbPoint
 10
172168.0068408748
 20
79143.37126481268
 30
0.0
  0
POINT
  5
165
330
15E
100
AcDbEntity
  8
DEFPOINTS
 62
     0
100
AcDbPoint
 10
172168.0068408748
 20
79816.37126412722
 30
0.0
  0
POINT
  5
166
330
15E
100
AcDbEntity
  8
DEFPOINTS
 62
     0
100
AcDbPoint
 10
172750.0711153198
 20
79816.37126412722
 30
0.0
  0
ENDBLK
  5
167
330
15E
100
AcDbEntity
  8
0
100
AcDbBlockEnd
  0
BLOCK
  5
1A8
330
1A7
100
AcDbEntity
  8
0
100
AcDbBlockBegin
  2
*D13
 70
     1
 10
0.0
 20
0.0
 30
0.0
  3
*D13
  1

  0
LINE
  5
1A9
330
1A7
100
AcDbEntity
  8
WYMIARY
 62
     1
370
    -2
100
AcDbLine
 10
170958.0068408748
 20
78270.75096873275
 30
0.0
 11
172138.0068408748
 21
78270.75096873275
 31
0.0
  0
INSERT
  5
1AA
330
1A7
100
AcDbEntity
  8
WYMIARY
 62
     1
370
    -2
100
AcDbBlockReference
  2
B-DIM
 10
170928.0068408748
 20
78270.75096873275
 30
0.0
 41
30.0
 42
30.0
 43
30.0
 50
180.0
  0
INSERT
  5
1AB
330
1A7
100
AcDbEntity
  8
WYMIARY
 62
     1
370
    -2
100
AcDbBlockReference
  2
B-DIM
 10
172168.0068408748
 20
78270.75096873275
 30
0.0
 41
30.0
 42
30.0
 43
30.0
  0
MTEXT
  5
1AC
330
1A7
100
AcDbEntity
  8
WYMIARY
 62
    10
100
AcDbMText
 10
171548.0068408748
 20
78350.75096873275
 30
0.0
 40
80.0
 41
0.0
 71
     5
 72
     1
  1
\A1;1240
  7
ROMANS
 73
     1
 44
1.0
1001
ACAD
1000
MTEXTBEGIN
1070
    73
1070
     1
1070
    44
1040
1.0
1070
    74
1070
     0
1000
MTEXTEND
  0
POINT
  5
1AD
330
1A7
100
AcDbEntity
  8
DEFPOINTS
 62
     0
100
AcDbPoint
 10
170928.0068408748
 20
79537.58152292832
 30
0.0
  0
POINT
  5
1AE
330
1A7
100
AcDbEntity
  8
DEFPOINTS
 62
     0
100
AcDbPoint
 10
172168.0068408748
 20
79143.37126481268
 30
0.0
  0
POINT
  5
1AF
330
1A7
100
AcDbEntity
  8
DEFPOINTS
 62
     0
100
AcDbPoint
 10
172168.0068408748
 20
78270.75096873275
 30
0.0
  0
ENDBLK
  5
1B0
330
1A7
100
AcDbEntity
  8
0
100
AcDbBlockEnd
  0
BLOCK
  5
148
330
147
100
AcDbEntity
  8
0
100
AcDbBlockBegin
  2
*D14
 70
     1
 10
0.0
 20
0.0
 30
0.0
  3
*D14
  1

  0
LINE
  5
149
330
147
100
AcDbEntity
  8
WYMIARY
 62
     1
370
    -2
100
AcDbLine
 10
170369.4414302424
 20
79993.37126481268
 30
0.0
 11
170369.4414302424
 21
79173.37126481268
 31
0.0
  0
INSERT
  5
14A
330
147
100
AcDbEntity
  8
WYMIARY
 62
     1
370
    -2
100
AcDbBlockReference
  2
B-DIM
 10
170369.4414302424
 20
80023.37126481268
 30
0.0
 41
30.0
 42
30.0
 43
30.0
 50
90.0
  0
INSERT
  5
14B
330
147
100
AcDbEntity
  8
WYMIARY
 62
     1
370
    -2
100
AcDbBlockReference
  2
B-DIM
 10
170369.4414302424
 20
79143.37126481268
 30
0.0
 41
30.0
 42
30.0
 43
30.0
 50
270.0
  0
MTEXT
  5
14C
330
147
100
AcDbEntity
  8
WYMIARY
 62
    10
100
AcDbMText
 10
170289.4414302424
 20
79583.37126481271
 30
0.0
 40
80.0
 41
0.0
 71
     5
 72
     1
  1
\A1;880
  7
ROMANS
 11
0.0000000000000001
 21
1.0
 31
0.0
 73
     1
 44
1.0
1001
ACAD
1000
MTEXTBEGIN
1070
    73
1070
     1
1070
    44
1040
1.0
1070
    74
1070
     0
1000
MTEXTEND
  0
POINT
  5
14D
330
147
100
AcDbEntity
  8
DEFPOINTS
 62
     0
100
AcDbPoint
 10
170988.0068408747
 20
80023.37126481268
 30
0.0
  0
POINT
  5
14E
330
147
100
AcDbEntity
  8
DEFPOINTS
 62
     0
100
AcDbPoint
 10
170988.0068408747
 20
79143.37126481268
 30
0.0
  0
POINT
  5
14F
330
147
100
AcDbEntity
  8
DEFPOINTS
 62
     0
100
AcDbPoint
 10
170369.4414302424
 20
79143.37126481268
 30
0.0
  0
ENDBLK
  5
150
330
147
100
AcDbEntity
  8
0
100
AcDbBlockEnd
  0
BLOCK
  5
1E3
330
1E2
100
AcDbEntity
  8
0
100
AcDbBlockBegin
  2
*D15
 70
     1
 10
0.0
 20
0.0
 30
0.0
  3
*D15
  1

  0
LINE
  5
1E5
330
1E2
100
AcDbEntity
  8
WYMIARY
 62
     1
370
    -2
100
AcDbLine
 10
166327.3222190316
 20
79846.37126412721
 30
0.0
 11
166327.3222190316
 21
79993.37126481268
 31
0.0
  0
INSERT
  5
1E6
330
1E2
100
AcDbEntity
  8
WYMIARY
 62
     1
370
    -2
100
AcDbBlockReference
  2
B-DIM
 10
166327.3222190316
 20
79816.37126412722
 30
0.0
 41
30.0
 42
30.0
 43
30.0
 50
270.0
  0
INSERT
  5
1E7
330
1E2
100
AcDbEntity
  8
WYMIARY
 62
     1
370
    -2
100
AcDbBlockReference
  2
B-DIM
 10
166327.3222190316
 20
80023.37126481268
 30
0.0
 41
30.0
 42
30.0
 43
30.0
 50
90.0
  0
MTEXT
  5
1E8
330
1E2
100
AcDbEntity
  8
WYMIARY
 62
    10
100
AcDbMText
 10
166247.3222190315
 20
79919.87126446997
 30
0.0
 40
80.0
 41
0.0
 71
     5
 72
     1
  1
\A1;207
  7
ROMANS
 11
0.0000000000000001
 21
1.0
 31
0.0
 73
     1
 44
1.0
1001
ACAD
1000
MTEXTBEGIN
1070
    73
1070
     1
1070
    44
1040
1.0
1070
    74
1070
     0
1000
MTEXTEND
  0
POINT
  5
1E9
330
1E2
100
AcDbEntity
  8
DEFPOINTS
 62
     0
100
AcDbPoint
 10
166909.3864934766
 20
79816.37126412722
 30
0.0
  0
POINT
  5
1EA
330
1E2
100
AcDbEntity
  8
DEFPOINTS
 62
     0
100
AcDbPoint
 10
167239.3864934766
 20
80023.37126481268
 30
0.0
  0
POINT
  5
1EB
330
1E2
100
AcDbEntity
  8
DEFPOINTS
 62
     0
100
AcDbPoint
 10
166327.3222190316
 20
80023.37126481268
 30
0.0
  0
ENDBLK
  5
1E4
330
1E2
100
AcDbEntity
  8
0
100
AcDbBlockEnd
  0
BLOCK
  5
1ED
330
1EC
100
AcDbEntity
  8
0
100
AcDbBlockBegin
  2
*D16
 70
     1
 10
0.0
 20
0.0
 30
0.0
  3
*D16
  1

  0
LINE
  5
1EF
330
1EC
100
AcDbEntity
  8
WYMIARY
 62
     1
370
    -2
100
AcDbLine
 10
166327.3222190316
 20
79173.37126481268
 30
0.0
 11
166327.3222190316
 21
79786.37126412722
 31
0.0
  0
INSERT
  5
1F0
330
1EC
100
AcDbEntity
  8
WYMIARY
 62
     1
370
    -2
100
AcDbBlockReference
  2
B-DIM
 10
166327.3222190316
 20
79143.37126481268
 30
0.0
 41
30.0
 42
30.0
 43
30.0
 50
270.0
  0
INSERT
  5
1F1
330
1EC
100
AcDbEntity
  8
WYMIARY
 62
     1
370
    -2
100
AcDbBlockReference
  2
B-DIM
 10
166327.3222190316
 20
79816.37126412722
 30
0.0
 41
30.0
 42
30.0
 43
30.0
 50
90.0
  0
MTEXT
  5
1F2
330
1EC
100
AcDbEntity
  8
WYMIARY
 62
    10
100
AcDbMText
 10
166247.3222190315
 20
79479.87126446997
 30
0.0
 40
80.0
 41
0.0
 71
     5
 72
     1
  1
\A1;673
  7
ROMANS
 11
0.0000000000000001
 21
1.0
 31
0.0
 73
     1
 44
1.0
1001
ACAD
1000
MTEXTBEGIN
1070
    73
1070
     1
1070
    44
1040
1.0
1070
    74
1070
     0
1000
MTEXTEND
  0
POINT
  5
1F3
330
1EC
100
AcDbEntity
  8
DEFPOINTS
 62
     0
100
AcDbPoint
 10
166909.3864934766
 20
79143.37126481268
 30
0.0
  0
POINT
  5
1F4
330
1EC
100
AcDbEntity
  8
DEFPOINTS
 62
     0
100
AcDbPoint
 10
166909.3864934766
 20
79816.37126412722
 30
0.0
  0
POINT
  5
1F5
330
1EC
100
AcDbEntity
  8
DEFPOINTS
 62
     0
100
AcDbPoint
 10
166327.3222190316
 20
79816.37126412722
 30
0.0
  0
ENDBLK
  5
1EE
330
1EC
100
AcDbEntity
  8
0
100
AcDbBlockEnd
  0
BLOCK
  5
1F7
330
1F6
100
AcDbEntity
  8
0
100
AcDbBlockBegin
  2
*D17
 70
     1
 10
0.0
 20
0.0
 30
0.0
  3
*D17
  1

  0
LINE
  5
1F9
330
1F6
100
AcDbEntity
  8
SCIANY
 62
     1
370
    -2
100
AcDbLine
 10
166931.7753444905
 20
80365.25182478936
 30
0.0
 11
166661.7753444906
 21
80365.25182478936
 31
0.0
  0
INSERT
  5
1FA
330
1F6
100
AcDbEntity
  8
SCIANY
 62
     1
370
    -2
100
AcDbBlockReference
  2
B-DIM
 10
166961.7753444905
 20
80365.25182478936
 30
0.0
 41
30.0
 42
30.0
 43
30.0
  0
INSERT
  5
1FB
330
1F6
100
AcDbEntity
  8
SCIANY
 62
     1
370
    -2
100
AcDbBlockReference
  2
B-DIM
 10
166631.7753444906
 20
80365.25182478936
 30
0.0
 41
30.0
 42
30.0
 43
30.0
 50
180.0
  0
MTEXT
  5
1FC
330
1F6
100
AcDbEntity
  8
SCIANY
 62
    10
100
AcDbMText
 10
166796.7753444906
 20
80445.25182478936
 30
0.0
 40
80.0
 41
0.0
 71
     5
 72
     1
  1
\A1;330
  7
ROMANS
 73
     1
 44
1.0
1001
ACAD
1000
MTEXTBEGIN
1070
    73
1070
     1
1070
    44
1040
1.0
1070
    74
1070
     0
1000
MTEXTEND
  0
POINT
  5
1FD
330
1F6
100
AcDbEntity
  8
DEFPOINTS
 62
     0
100
AcDbPoint
 10
166961.7753444905
 20
79604.59886038717
 30
0.0
  0
POINT
  5
1FE
330
1F6
100
AcDbEntity
  8
DEFPOINTS
 62
     0
100
AcDbPoint
 10
166631.7753444906
 20
79397.5988597017
 30
0.0
  0
POINT
  5
1FF
330
1F6
100
AcDbEntity
  8
DEFPOINTS
 62
     0
100
AcDbPoint
 10
166631.7753444906
 20
80365.25182478936
 30
0.0
  0
ENDBLK
  5
1F8
330
1F6
100
AcDbEntity
  8
0
100
AcDbBlockEnd
  0
BLOCK
  5
201
330
200
100
AcDbEntity
  8
0
100
AcDbBlockBegin
  2
*D18
 70
     1
 10
0.0
 20
0.0
 30
0.0
  3
*D18
  1

  0
LINE
  5
203
330
200
100
AcDbEntity
  8
SCIANY
 62
     1
370
    -2
100
AcDbLine
 10
167781.7753444905
 20
80365.25182478936
 30
0.0
 11
166991.7753444905
 21
80365.25182478936
 31
0.0
  0
INSERT
  5
204
330
200
100
AcDbEntity
  8
SCIANY
 62
     1
370
    -2
100
AcDbBlockReference
  2
B-DIM
 10
167811.7753444906
 20
80365.25182478936
 30
0.0
 41
30.0
 42
30.0
 43
30.0
  0
INSERT
  5
205
330
200
100
AcDbEntity
  8
SCIANY
 62
     1
370
    -2
100
AcDbBlockReference
  2
B-DIM
 10
166961.7753444905
 20
80365.25182478936
 30
0.0
 41
30.0
 42
30.0
 43
30.0
 50
180.0
  0
MTEXT
  5
206
330
200
100
AcDbEntity
  8
SCIANY
 62
    10
100
AcDbMText
 10
167386.7753444906
 20
80445.25182478936
 30
0.0
 40
80.0
 41
0.0
 71
     5
 72
     1
  1
\A1;850
  7
ROMANS
 73
     1
 44
1.0
1001
ACAD
1000
MTEXTBEGIN
1070
    73
1070
     1
1070
    44
1040
1.0
1070
    74
1070
     0
1000
MTEXTEND
  0
POINT
  5
207
330
200
100
AcDbEntity
  8
DEFPOINTS
 62
     0
100
AcDbPoint
 10
167811.7753444906
 20
79604.59886038717
 30
0.0
  0
POINT
  5
208
330
200
100
AcDbEntity
  8
DEFPOINTS
 62
     0
100
AcDbPoint
 10
166961.7753444905
 20
79604.59886038717
 30
0.0
  0
POINT
  5
209
330
200
100
AcDbEntity
  8
DEFPOINTS
 62
     0
100
AcDbPoint
 10
166961.7753444905
 20
80365.25182478936
 30
0.0
  0
ENDBLK
  5
202
330
200
100
AcDbEntity
  8
0
100
AcDbBlockEnd
  0
BLOCK
  5
20B
330
20A
100
AcDbEntity
  8
0
100
AcDbBlockBegin
  2
*D19
 70
     1
 10
0.0
 20
0.0
 30
0.0
  3
*D19
  1

  0
LINE
  5
20D
330
20A
100
AcDbEntity
  8
SCIANY
 62
     1
370
    -2
100
AcDbLine
 10
167901.7753444906
 20
80365.25182478936
 30
0.0
 11
167931.7753444905
 21
80365.25182478936
 31
0.0
  0
LINE
  5
20E
330
20A
100
AcDbEntity
  8
SCIANY
 62
     1
370
    -2
100
AcDbLine
 10
167781.7753444905
 20
80365.25182478936
 30
0.0
 11
167751.7753444905
 21
80365.25182478936
 31
0.0
  0
LINE
  5
20F
330
20A
100
AcDbEntity
  8
SCIANY
 62
     1
370
    -2
100
AcDbLine
 10
167871.7753444906
 20
80365.25182478936
 30
0.0
 11
167811.7753444906
 21
80365.25182478936
 31
0.0
  0
INSERT
  5
210
330
20A
100
AcDbEntity
  8
SCIANY
 62
     1
370
    -2
100
AcDbBlockReference
  2
B-DIM
 10
167871.7753444906
 20
80365.25182478936
 30
0.0
 41
30.0
 42
30.0
 43
30.0
 50
180.0
  0
INSERT
  5
211
330
20A
100
AcDbEntity
  8
SCIANY
 62
     1
370
    -2
100
AcDbBlockReference
  2
B-DIM
 10
167811.7753444906
 20
80365.25182478936
 30
0.0
 41
30.0
 42
30.0
 43
30.0
  0
MTEXT
  5
212
330
20A
100
AcDbEntity
  8
SCIANY
 62
    10
100
AcDbMText
 10
167841.7753444906
 20
80445.25182478936
 30
0.0
 40
80.0
 41
0.0
 71
     5
 72
     1
  1
\A1;60
  7
ROMANS
 73
     1
 44
1.0
1001
ACAD
1000
MTEXTBEGIN
1070
    73
1070
     1
1070
    44
1040
1.0
1070
    74
1070
     0
1000
MTEXTEND
  0
POINT
  5
213
330
20A
100
AcDbEntity
  8
DEFPOINTS
 62
     0
100
AcDbPoint
 10
167871.7753444906
 20
79244.4445314546
 30
0.0
  0
POINT
  5
214
330
20A
100
AcDbEntity
  8
DEFPOINTS
 62
     0
100
AcDbPoint
 10
167811.7753444906
 20
79604.59886038717
 30
0.0
  0
POINT
  5
215
330
20A
100
AcDbEntity
  8
DEFPOINTS
 62
     0
100
AcDbPoint
 10
167811.7753444906
 20
80365.25182478936
 30
0.0
  0
ENDBLK
  5
20C
330
20A
100
AcDbEntity
  8
0
100
AcDbBlockEnd
  0
BLOCK
  5
217
330
216
100
AcDbEntity
  8
0
100
AcDbBlockBegin
  2
*D20
 70
     1
 10
0.0
 20
0.0
 30
0.0
  3
*D20
  1

  0
LINE
  5
219
330
216
100
AcDbEntity
  8
WYMIARY
 62
     1
370
    -2
100
AcDbLine
 10
168301.3725138569
 20
79993.37126481268
 30
0.0
 11
168301.3725138569
 21
79173.37126481268
 31
0.0
  0
INSERT
  5
21A
330
216
100
AcDbEntity
  8
WYMIARY
 62
     1
370
    -2
100
AcDbBlockReference
  2
B-DIM
 10
168301.3725138569
 20
80023.37126481268
 30
0.0
 41
30.0
 42
30.0
 43
30.0
 50
90.0
  0
INSERT
  5
21B
330
216
100
AcDbEntity
  8
WYMIARY
 62
     1
370
    -2
100
AcDbBlockReference
  2
B-DIM
 10
168301.3725138569
 20
79143.37126481268
 30
0.0
 41
30.0
 42
30.0
 43
30.0
 50
270.0
  0
MTEXT
  5
21C
330
216
100
AcDbEntity
  8
WYMIARY
 62
    10
100
AcDbMText
 10
168221.3725138569
 20
79583.37126481271
 30
0.0
 40
80.0
 41
0.0
 71
     5
 72
     1
  1
\A1;880
  7
ROMANS
 11
0.0000000000000001
 21
1.0
 31
0.0
 73
     1
 44
1.0
1001
ACAD
1000
MTEXTBEGIN
1070
    73
1070
     1
1070
    44
1040
1.0
1070
    74
1070
     0
1000
MTEXTEND
  0
POINT
  5
21D
330
216
100
AcDbEntity
  8
DEFPOINTS
 62
     0
100
AcDbPoint
 10
167682.8071032246
 20
80023.37126481268
 30
0.0
  0
POINT
  5
21E
330
216
100
AcDbEntity
  8
DEFPOINTS
 62
     0
100
AcDbPoint
 10
167682.8071032246
 20
79143.37126481268
 30
0.0
  0
POINT
  5
21F
330
216
100
AcDbEntity
  8
DEFPOINTS
 62
     0
100
AcDbPoint
 10
168301.3725138569
 20
79143.37126481268
 30
0.0
  0
ENDBLK
  5
218
330
216
100
AcDbEntity
  8
0
100
AcDbBlockEnd
  0
BLOCK
  5
221
330
220
100
AcDbEntity
  8
0
100
AcDbBlockBegin
  2
*D21
 70
     1
 10
0.0
 20
0.0
 30
0.0
  3
*D21
  1

  0
LINE
  5
223
330
220
100
AcDbEntity
  8
WYMIARY
 62
     1
370
    -2
100
AcDbLine
 10
167841.7753444906
 20
78800.55557088306
 30
0.0
 11
166661.7753444906
 21
78800.55557088306
 31
0.0
  0
INSERT
  5
224
330
220
100
AcDbEntity
  8
WYMIARY
 62
     1
370
    -2
100
AcDbBlockReference
  2
B-DIM
 10
167871.7753444906
 20
78800.55557088306
 30
0.0
 41
30.0
 42
30.0
 43
30.0
  0
INSERT
  5
225
330
220
100
AcDbEntity
  8
WYMIARY
 62
     1
370
    -2
100
AcDbBlockReference
  2
B-DIM
 10
166631.7753444906
 20
78800.55557088306
 30
0.0
 41
30.0
 42
30.0
 43
30.0
 50
180.0
  0
MTEXT
  5
226
330
220
100
AcDbEntity
  8
WYMIARY
 62
    10
100
AcDbMText
 10
167251.7753444905
 20
78880.55557088306
 30
0.0
 40
80.0
 41
0.0
 71
     5
 72
     1
  1
\A1;1240
  7
ROMANS
 73
     1
 44
1.0
1001
ACAD
1000
MTEXTBEGIN
1070
    73
1070
     1
1070
    44
1040
1.0
1070
    74
1070
     0
1000
MTEXTEND
  0
POINT
  5
227
330
220
100
AcDbEntity
  8
DEFPOINTS
 62
     0
100
AcDbPoint
 10
167871.7753444906
 20
80067.38612507863
 30
0.0
  0
POINT
  5
228
330
220
100
AcDbEntity
  8
DEFPOINTS
 62
     0
100
AcDbPoint
 10
166631.7753444906
 20
79673.17586696299
 30
0.0
  0
POINT
  5
229
330
220
100
AcDbEntity
  8
DEFPOINTS
 62
     0
100
AcDbPoint
 10
166631.7753444906
 20
78800.55557088306
 30
0.0
  0
ENDBLK
  5
222
330
220
100
AcDbEntity
  8
0
100
AcDbBlockEnd
  0
BLOCK
  5
277
330
276
100
AcDbEntity
  8
0
100
AcDbBlockBegin
  2
*D22
 70
     1
 10
0.0
 20
0.0
 30
0.0
  3
*D22
  1

  0
LINE
  5
2C0
330
276
100
AcDbEntity
  8
SCIANY
 62
     1
370
    -2
100
AcDbLine
 10
171868.0068408748
 20
80365.25182478936
 30
0.0
 11
172138.0068408748
 21
80365.25182478936
 31
0.0
  0
INSERT
  5
2C1
330
276
100
AcDbEntity
  8
SCIANY
 62
     1
370
    -2
100
AcDbBlockReference
  2
B-DIM
 10
171838.0068408748
 20
80365.25182478936
 30
0.0
 41
30.0
 42
30.0
 43
30.0
 50
180.0
  0
INSERT
  5
2C2
330
276
100
AcDbEntity
  8
SCIANY
 62
     1
370
    -2
100
AcDbBlockReference
  2
B-DIM
 10
172168.0068408748
 20
80365.25182478936
 30
0.0
 41
30.0
 42
30.0
 43
30.0
  0
MTEXT
  5
2C3
330
276
100
AcDbEntity
  8
SCIANY
 62
    10
100
AcDbMText
 10
172003.0068408748
 20
80445.25182478936
 30
0.0
 40
80.0
 41
0.0
 71
     5
 72
     1
  1
\A1;330
  7
ROMANS
 73
     1
 44
1.0
1001
ACAD
1000
MTEXTBEGIN
1070
    73
1070
     1
1070
    44
1040
1.0
1070
    74
1070
     0
1000
MTEXTEND
  0
POINT
  5
2C4
330
276
100
AcDbEntity
  8
DEFPOINTS
 62
     0
100
AcDbPoint
 10
171838.0068408748
 20
79604.59886038717
 30
0.0
  0
POINT
  5
2C5
330
276
100
AcDbEntity
  8
DEFPOINTS
 62
     0
100
AcDbPoint
 10
172168.0068408748
 20
79397.5988597017
 30
0.0
  0
POINT
  5
2C6
330
276
100
AcDbEntity
  8
DEFPOINTS
 62
     0
100
AcDbPoint
 10
172168.0068408748
 20
80365.25182478936
 30
0.0
  0
ENDBLK
  5
278
330
276
100
AcDbEntity
  8
0
100
AcDbBlockEnd
  0
BLOCK
  5
281
330
280
100
AcDbEntity
  8
0
100
AcDbBlockBegin
  2
*D23
 70
     1
 10
0.0
 20
0.0
 30
0.0
  3
*D23
  1

  0
LINE
  5
2C7
330
280
100
AcDbEntity
  8
SCIANY
 62
     1
370
    -2
100
AcDbLine
 10
171018.0068408748
 20
80365.25182478936
 30
0.0
 11
171808.0068408748
 21
80365.25182478936
 31
0.0
  0
INSERT
  5
2C8
330
280
100
AcDbEntity
  8
SCIANY
 62
     1
370
    -2
100
AcDbBlockReference
  2
B-DIM
 10
170988.0068408748
 20
80365.25182478936
 30
0.0
 41
30.0
 42
30.0
 43
30.0
 50
180.0
  0
INSERT
  5
2C9
330
280
100
AcDbEntity
  8
SCIANY
 62
     1
370
    -2
100
AcDbBlockReference
  2
B-DIM
 10
171838.0068408748
 20
80365.25182478936
 30
0.0
 41
30.0
 42
30.0
 43
30.0
  0
MTEXT
  5
2CA
330
280
100
AcDbEntity
  8
SCIANY
 62
    10
100
AcDbMText
 10
171413.0068408748
 20
80445.25182478936
 30
0.0
 40
80.0
 41
0.0
 71
     5
 72
     1
  1
\A1;850
  7
ROMANS
 73
     1
 44
1.0
1001
ACAD
1000
MTEXTBEGIN
1070
    73
1070
     1
1070
    44
1040
1.0
1070
    74
1070
     0
1000
MTEXTEND
  0
POINT
  5
2CB
330
280
100
AcDbEntity
  8
DEFPOINTS
 62
     0
100
AcDbPoint
 10
170988.0068408748
 20
79604.59886038717
 30
0.0
  0
POINT
  5
2CC
330
280
100
AcDbEntity
  8
DEFPOINTS
 62
     0
100
AcDbPoint
 10
171838.0068408748
 20
79604.59886038717
 30
0.0
  0
POINT
  5
2CD
330
280
100
AcDbEntity
  8
DEFPOINTS
 62
     0
100
AcDbPoint
 10
171838.0068408748
 20
80365.25182478936
 30
0.0
  0
ENDBLK
  5
282
330
280
100
AcDbEntity
  8
0
100
AcDbBlockEnd
  0
BLOCK
  5
28B
330
28A
100
AcDbEntity
  8
0
100
AcDbBlockBegin
  2
*D24
 70
     1
 10
0.0
 20
0.0
 30
0.0
  3
*D24
  1

  0
LINE
  5
2CE
330
28A
100
AcDbEntity
  8
SCIANY
 62
     1
370
    -2
100
AcDbLine
 10
170898.0068408748
 20
80365.25182478936
 30
0.0
 11
170868.0068408748
 21
80365.25182478936
 31
0.0
  0
LINE
  5
2CF
330
28A
100
AcDbEntity
  8
SCIANY
 62
     1
370
    -2
100
AcDbLine
 10
171018.0068408748
 20
80365.25182478936
 30
0.0
 11
171048.0068408748
 21
80365.25182478936
 31
0.0
  0
LINE
  5
2D0
330
28A
100
AcDbEntity
  8
SCIANY
 62
     1
370
    -2
100
AcDbLine
 10
170928.0068408748
 20
80365.25182478936
 30
0.0
 11
170988.0068408748
 21
80365.25182478936
 31
0.0
  0
INSERT
  5
2D1
330
28A
100
AcDbEntity
  8
SCIANY
 62
     1
370
    -2
100
AcDbBlockReference
  2
B-DIM
 10
170928.0068408748
 20
80365.25182478936
 30
0.0
 41
30.0
 42
30.0
 43
30.0
  0
INSERT
  5
2D2
330
28A
100
AcDbEntity
  8
SCIANY
 62
     1
370
    -2
100
AcDbBlockReference
  2
B-DIM
 10
170988.0068408748
 20
80365.25182478936
 30
0.0
 41
30.0
 42
30.0
 43
30.0
 50
180.0
  0
MTEXT
  5
2D3
330
28A
100
AcDbEntity
  8
SCIANY
 62
    10
100
AcDbMText
 10
170958.0068408748
 20
80445.25182478936
 30
0.0
 40
80.0
 41
0.0
 71
     5
 72
     1
  1
\A1;60
  7
ROMANS
 73
     1
 44
1.0
1001
ACAD
1000
MTEXTBEGIN
1070
    73
1070
     1
1070
    44
1040
1.0
1070
    74
1070
     0
1000
MTEXTEND
  0
POINT
  5
2D4
330
28A
100
AcDbEntity
  8
DEFPOINTS
 62
     0
100
AcDbPoint
 10
170928.0068408748
 20
79244.4445314546
 30
0.0
  0
POINT
  5
2D5
330
28A
100
AcDbEntity
  8
DEFPOINTS
 62
     0
100
AcDbPoint
 10
170988.0068408748
 20
79604.59886038717
 30
0.0
  0
POINT
  5
2D6
330
28A
100
AcDbEntity
  8
DEFPOINTS
 62
     0
100
AcDbPoint
 10
170988.0068408748
 20
80365.25182478936
 30
0.0
  0
ENDBLK
  5
28C
330
28A
100
AcDbEntity
  8
0
100
AcDbBlockEnd
  0
BLOCK
  5
297
330
296
100
AcDbEntity
  8
0
100
AcDbBlockBegin
  2
*D25
 70
     1
 10
0.0
 20
0.0
 30
0.0
  3
*D25
  1

  0
LINE
  5
2D7
330
296
100
AcDbEntity
  8
WYMIARY
 62
     1
370
    -2
100
AcDbLine
 10
172472.4599663338
 20
79846.37126412721
 30
0.0
 11
172472.4599663338
 21
79993.37126481268
 31
0.0
  0
INSERT
  5
2D8
330
296
100
AcDbEntity
  8
WYMIARY
 62
     1
370
    -2
100
AcDbBlockReference
  2
B-DIM
 10
172472.4599663338
 20
79816.37126412722
 30
0.0
 41
30.0
 42
30.0
 43
30.0
 50
270.0
  0
INSERT
  5
2D9
330
296
100
AcDbEntity
  8
WYMIARY
 62
     1
370
    -2
100
AcDbBlockReference
  2
B-DIM
 10
172472.4599663338
 20
80023.37126481268
 30
0.0
 41
30.0
 42
30.0
 43
30.0
 50
90.0
  0
MTEXT
  5
2DA
330
296
100
AcDbEntity
  8
WYMIARY
 62
    10
100
AcDbMText
 10
172392.4599663338
 20
79919.87126446997
 30
0.0
 40
80.0
 41
0.0
 71
     5
 72
     1
  1
\A1;207
  7
ROMANS
 11
0.0000000000000001
 21
1.0
 31
0.0
 73
     1
 44
1.0
1001
ACAD
1000
MTEXTBEGIN
1070
    73
1070
     1
1070
    44
1040
1.0
1070
    74
1070
     0
1000
MTEXTEND
  0
POINT
  5
2DB
330
296
100
AcDbEntity
  8
DEFPOINTS
 62
     0
100
AcDbPoint
 10
171890.3956918888
 20
79816.37126412722
 30
0.0
  0
POINT
  5
2DC
330
296
100
AcDbEntity
  8
DEFPOINTS
 62
     0
100
AcDbPoint
 10
171560.3956918888
 20
80023.37126481268
 30
0.0
  0
POINT
  5
2DD
330
296
100
AcDbEntity
  8
DEFPOINTS
 62
     0
100
AcDbPoint
 10
172472.4599663338
 20
80023.37126481268
 30
0.0
  0
ENDBLK
  5
298
330
296
100
AcDbEntity
  8
0
100
AcDbBlockEnd
  0
BLOCK
  5
2A1
330
2A0
100
AcDbEntity
  8
0
100
AcDbBlockBegin
  2
*D26
 70
     1
 10
0.0
 20
0.0
 30
0.0
  3
*D26
  1

  0
LINE
  5
2DE
330
2A0
100
AcDbEntity
  8
WYMIARY
 62
     1
370
    -2
100
AcDbLine
 10
172472.4599663338
 20
79173.37126481268
 30
0.0
 11
172472.4599663338
 21
79786.37126412722
 31
0.0
  0
INSERT
  5
2DF
330
2A0
100
AcDbEntity
  8
WYMIARY
 62
     1
370
    -2
100
AcDbBlockReference
  2
B-DIM
 10
172472.4599663338
 20
79143.37126481268
 30
0.0
 41
30.0
 42
30.0
 43
30.0
 50
270.0
  0
INSERT
  5
2E0
330
2A0
100
AcDbEntity
  8
WYMIARY
 62
     1
370
    -2
100
AcDbBlockReference
  2
B-DIM
 10
172472.4599663338
 20
79816.37126412722
 30
0.0
 41
30.0
 42
30.0
 43
30.0
 50
90.0
  0
MTEXT
  5
2E1
330
2A0
100
AcDbEntity
  8
WYMIARY
 62
    10
100
AcDbMText
 10
172392.4599663338
 20
79479.87126446997
 30
0.0
 40
80.0
 41
0.0
 71
     5
 72
     1
  1
\A1;673
  7
ROMANS
 11
0.0000000000000001
 21
1.0
 31
0.0
 73
     1
 44
1.0
1001
ACAD
1000
MTEXTBEGIN
1070
    73
1070
     1
1070
    44
1040
1.0
1070
    74
1070
     0
1000
MTEXTEND
  0
POINT
  5
2E2
330
2A0
100
AcDbEntity
  8
DEFPOINTS
 62
     0
100
AcDbPoint
 10
171890.3956918888
 20
79143.37126481268
 30
0.0
  0
POINT
  5
2E3
330
2A0
100
AcDbEntity
  8
DEFPOINTS
 62
     0
100
AcDbPoint
 10
171890.3956918888
 20
79816.37126412722
 30
0.0
  0
POINT
  5
2E4
330
2A0
100
AcDbEntity
  8
DEFPOINTS
 62
     0
100
AcDbPoint
 10
172472.4599663338
 20
79816.37126412722
 30
0.0
  0
ENDBLK
  5
2A2
330
2A0
100
AcDbEntity
  8
0
100
AcDbBlockEnd
  0
BLOCK
  5
2AB
330
2AA
100
AcDbEntity
  8
0
100
AcDbBlockBegin
  2
*D27
 70
     1
 10
0.0
 20
0.0
 30
0.0
  3
*D27
  1

  0
LINE
  5
2E5
330
2AA
100
AcDbEntity
  8
WYMIARY
 62
     1
370
    -2
100
AcDbLine
 10
170958.0068408748
 20
78800.55557088306
 30
0.0
 11
172138.0068408748
 21
78800.55557088306
 31
0.0
  0
INSERT
  5
2E6
330
2AA
100
AcDbEntity
  8
WYMIARY
 62
     1
370
    -2
100
AcDbBlockReference
  2
B-DIM
 10
170928.0068408748
 20
78800.55557088306
 30
0.0
 41
30.0
 42
30.0
 43
30.0
 50
180.0
  0
INSERT
  5
2E7
330
2AA
100
AcDbEntity
  8
WYMIARY
 62
     1
370
    -2
100
AcDbBlockReference
  2
B-DIM
 10
172168.0068408748
 20
78800.55557088306
 30
0.0
 41
30.0
 42
30.0
 43
30.0
  0
MTEXT
  5
2E8
330
2AA
100
AcDbEntity
  8
WYMIARY
 62
    10
100
AcDbMText
 10
171548.0068408748
 20
78880.55557088306
 30
0.0
 40
80.0
 41
0.0
 71
     5
 72
     1
  1
\A1;1240
  7
ROMANS
 73
     1
 44
1.0
1001
ACAD
1000
MTEXTBEGIN
1070
    73
1070
     1
1070
    44
1040
1.0
1070
    74
1070
     0
1000
MTEXTEND
  0
POINT
  5
2E9
330
2AA
100
AcDbEntity
  8
DEFPOINTS
 62
     0
100
AcDbPoint
 10
170928.0068408748
 20
80067.38612507863
 30
0.0
  0
POINT
  5
2EA
330
2AA
100
AcDbEntity
  8
DEFPOINTS
 62
     0
100
AcDbPoint
 10
172168.0068408748
 20
79673.17586696299
 30
0.0
  0
POINT
  5
2EB
330
2AA
100
AcDbEntity
  8
DEFPOINTS
 62
     0
100
AcDbPoint
 10
172168.0068408748
 20
78800.55557088306
 30
0.0
  0
ENDBLK
  5
2AC
330
2AA
100
AcDbEntity
  8
0
100
AcDbBlockEnd
  0
BLOCK
  5
2B7
330
2B6
100
AcDbEntity
  8
0
100
AcDbBlockBegin
  2
*D28
 70
     1
 10
0.0
 20
0.0
 30
0.0
  3
*D28
  1

  0
LINE
  5
2EC
330
2B6
100
AcDbEntity
  8
WYMIARY
 62
     1
370
    -2
100
AcDbLine
 10
170498.4096715084
 20
79993.37126481268
 30
0.0
 11
170498.4096715084
 21
79173.37126481268
 31
0.0
  0
INSERT
  5
2ED
330
2B6
100
AcDbEntity
  8
WYMIARY
 62
     1
370
    -2
100
AcDbBlockReference
  2
B-DIM
 10
170498.4096715084
 20
80023.37126481268
 30
0.0
 41
30.0
 42
30.0
 43
30.0
 50
90.0
  0
INSERT
  5
2EE
330
2B6
100
AcDbEntity
  8
WYMIARY
 62
     1
370
    -2
100
AcDbBlockReference
  2
B-DIM
 10
170498.4096715084
 20
79143.37126481268
 30
0.0
 41
30.0
 42
30.0
 43
30.0
 50
270.0
  0
MTEXT
  5
2EF
330
2B6
100
AcDbEntity
  8
WYMIARY
 62
    10
100
AcDbMText
 10
170418.4096715084
 20
79583.37126481271
 30
0.0
 40
80.0
 41
0.0
 71
     5
 72
     1
  1
\A1;880
  7
ROMANS
 11
0.0000000000000001
 21
1.0
 31
0.0
 73
     1
 44
1.0
1001
ACAD
1000
MTEXTBEGIN
1070
    73
1070
     1
1070
    44
1040
1.0
1070
    74
1070
     0
1000
MTEXTEND
  0
POINT
  5
2F0
330
2B6
100
AcDbEntity
  8
DEFPOINTS
 62
     0
100
AcDbPoint
 10
171116.9750821408
 20
80023.37126481268
 30
0.0
  0
POINT
  5
2F1
330
2B6
100
AcDbEntity
  8
DEFPOINTS
 62
     0
100
AcDbPoint
 10
171116.9750821408
 20
79143.37126481268
 30
0.0
  0
POINT
  5
2F2
330
2B6
100
AcDbEntity
  8
DEFPOINTS
 62
     0
100
AcDbPoint
 10
170498.4096715084
 20
79143.37126481268
 30
0.0
  0
ENDBLK
  5
2B8
330
2B6
100
AcDbEntity
  8
0
100
AcDbBlockEnd
  0
ENDSEC
  0
SECTION
  2
ENTITIES
  0
LWPOLYLINE
  5
64
330
2
100
AcDbEntity
  8
RAMKI-A4
100
AcDbPolyline
 90
        4
 70
     1
 43
0.0
 10
164187.201902405
 20
71577.51642521247
 10
164187.201902405
 20
85597.51642521247
 10
174387.201902405
 20
85597.51642521247
 10
174387.201902405
 20
71577.51642521247
  0
TEXT
  5
68
330
2
100
AcDbEntity
  8
NAPISY
100
AcDbText
 10
165646.55384908
 20
72243.072508115
 30
0.0
 40
100.0
  1
   O B R Y S   B U D Y N K U           S K A L A   1 : 5 0 0 
  7
AVA
100
AcDbText
  0
TEXT
  5
79
330
2
100
AcDbEntity
  8
NAPISY
100
AcDbText
 10
165742.7669001978
 20
84706.4377689969
 30
0.0
 40
150.0
  1
MOŻNA WKLEIĆ DO PROJEKTU ZAGOSPODAROWANIA TERENU
  7
AVA
100
AcDbText
  0
TEXT
  5
7B
330
2
100
AcDbEntity
  8
NAPISY
100
AcDbText
 10
165666.4316295627
 20
85036.30624635963
 30
0.0
 40
150.0
  1
"DOM  W  RODODENDRONACH 2"
  7
AVA
100
AcDbText
  0
LINE
  5
7C
330
2
100
AcDbEntity
  8
NAPISY
  6
HIDDEN
 62
     1
 48
0.1
100
AcDbLine
 10
169399.8910926827
 20
77590.66347776141
 30
0.0
 11
169399.8910926827
 21
82393.12053523875
 31
0.0
  0
TEXT
  5
7E
330
2
100
AcDbEntity
  8
NAPISY
100
AcDbText
 10
169340.3699156894
 20
78672.31064058192
 30
0.0
 40
100.0
  1
OŚ ODBICIA LUSTRZANEGO
 50
90.0
  7
AVA
100
AcDbText
  0
DIMENSION
  5
7F
330
2
100
AcDbEntity
  8
SCIANY
100
AcDbDimension
  2
*D17
 10
166631.7753444906
 20
80365.25182478936
 30
0.0
 11
166796.7753444906
 21
80445.25182478936
 31
0.0
 70
    32
 71
     5
 42
330.0
  3
500
100
AcDbAlignedDimension
 13
166961.7753444905
 23
79604.59886038717
 33
0.0
 14
166631.7753444906
 24
79397.5988597017
 34
0.0
 50
180.0
100
AcDbRotatedDimension
  0
DIMENSION
  5
8E
330
2
100
AcDbEntity
  8
SCIANY
100
AcDbDimension
  2
*D18
 10
166961.7753444905
 20
80365.25182478936
 30
0.0
 11
167386.7753444906
 21
80445.25182478936
 31
0.0
 70
    32
 71
     5
 42
850.0
  3
500
100
AcDbAlignedDimension
 13
167811.7753444906
 23
79604.59886038717
 33
0.0
 14
166961.7753444905
 24
79604.59886038717
 34
0.0
 50
180.0
100
AcDbRotatedDimension
  0
DIMENSION
  5
99
330
2
100
AcDbEntity
  8
SCIANY
100
AcDbDimension
  2
*D19
 10
167811.7753444906
 20
80365.25182478936
 30
0.0
 11
167841.7753444906
 21
80445.25182478936
 31
0.0
 70
    32
 71
     5
 42
60.0
  3
500
100
AcDbAlignedDimension
 13
167871.7753444906
 23
79244.4445314546
 33
0.0
 14
167811.7753444906
 24
79604.59886038717
 34
0.0
 50
180.0
100
AcDbRotatedDimension
  0
DIMENSION
  5
A6
330
2
100
AcDbEntity
  8
WYMIARY
100
AcDbDimension
  2
*D15
 10
166327.3222190316
 20
80023.37126481268
 30
0.0
 11
166247.3222190315
 21
79919.87126446997
 31
0.0
 70
    32
 71
     5
 42
207.000000685468
  3
500
100
AcDbAlignedDimension
 13
166909.3864934766
 23
79816.37126412722
 33
0.0
 14
167239.3864934766
 24
80023.37126481268
 34
0.0
 50
90.0
100
AcDbRotatedDimension
  0
DIMENSION
  5
B1
330
2
100
AcDbEntity
  8
WYMIARY
100
AcDbDimension
  2
*D16
 10
166327.3222190316
 20
79816.37126412722
 30
0.0
 11
166247.3222190315
 21
79479.87126446997
 31
0.0
 70
    32
 71
     5
 42
672.999999314532
  3
500
100
AcDbAlignedDimension
 13
166909.3864934766
 23
79143.37126481268
 33
0.0
 14
166909.3864934766
 24
79816.37126412722
 34
0.0
 50
90.0
100
AcDbRotatedDimension
  0
DIMENSION
  5
C5
330
2
100
AcDbEntity
  8
WYMIARY
100
AcDbDimension
  2
*D21
 10
166631.7753444906
 20
78800.55557088306
 30
0.0
 11
167251.7753444905
 21
78880.55557088306
 31
0.0
 70
    32
 71
     5
 42
1240.0
  3
500
100
AcDbAlignedDimension
 13
167871.7753444906
 23
80067.38612507863
 33
0.0
 14
166631.7753444906
 24
79673.17586696299
 34
0.0
 50
180.0
100
AcDbRotatedDimension
  0
LINE
  5
D0
330
2
100
AcDbEntity
  8
WIDOK
100
AcDbLine
 10
167386.7753444906
 20
80023.37126481268
 30
0.0
 11
167386.7753444906
 21
80223.37126481268
 31
0.0
  0
LINE
  5
D4
330
2
100
AcDbEntity
  8
WIDOK
390
D5
100
AcDbLine
 10
167416.7753444906
 20
80023.37126481268
 30
0.0
 11
167416.7753444906
 21
80193.37126481268
 31
0.0
  0
3DFACE
  5
D6
330
2
100
AcDbEntity
  8
WIDOK
100
AcDbFace
 10
167416.7753444906
 20
80193.37126481268
 30
0.0
 11
167416.7753444906
 21
80023.37126481268
 31
0.0
 12
167416.7753444906
 22
80023.37126481268
 32
0.0
 13
167416.7753444906
 23
80193.37126481268
 33
0.0
  0
LINE
  5
D7
330
2
100
AcDbEntity
  8
WIDOK
390
D5
100
AcDbLine
 10
167386.7753444906
 20
80023.37126481268
 30
0.0
 11
167386.7753444906
 21
80223.37126481268
 31
0.0
  0
3DFACE
  5
D8
330
2
100
AcDbEntity
  8
WIDOK
100
AcDbFace
 10
167386.7753444906
 20
80223.37126481268
 30
0.0
 11
167386.7753444906
 21
80023.37126481268
 31
0.0
 12
167386.7753444906
 22
80023.37126481268
 32
0.0
 13
167386.7753444906
 23
80223.37126481268
 33
0.0
  0
LINE
  5
D9
330
2
100
AcDbEntity
  8
WIDOK
100
AcDbLine
 10
167386.7753444906
 20
80223.37126481268
 30
0.0
 11
168141.0665682084
 21
80223.37126481268
 31
0.0
  0
LINE
  5
DA
330
2
100
AcDbEntity
  8
WIDOK
390
D5
100
AcDbLine
 10
167416.7753444906
 20
80193.37126481268
 30
0.0
 11
168111.0665682084
 21
80193.37126481268
 31
0.0
  0
LINE
  5
DB
330
2
100
AcDbEntity
  8
WIDOK
390
D5
100
AcDbLine
 10
167386.7753444906
 20
80223.37126481268
 30
0.0
 11
168141.0665682084
 21
80223.37126481268
 31
0.0
  0
3DFACE
  5
DC
330
2
100
AcDbEntity
  8
WIDOK
100
AcDbFace
 10
168141.0665682084
 20
80223.37126481268
 30
0.0
 11
167386.7753444906
 21
80223.37126481268
 31
0.0
 12
167386.7753444906
 22
80223.37126481268
 32
0.0
 13
168141.0665682084
 23
80223.37126481268
 33
0.0
  0
3DFACE
  5
DD
330
2
100
AcDbEntity
  8
WIDOK
100
AcDbFace
 10
168111.0665682084
 20
80193.37126481268
 30
0.0
 11
167416.7753444906
 21
80193.37126481268
 31
0.0
 12
167416.7753444906
 22
80193.37126481268
 32
0.0
 13
168111.0665682084
 23
80193.37126481268
 33
0.0
  0
3DFACE
  5
DE
330
2
100
AcDbEntity
  8
WIDOK
100
AcDbFace
 10
167236.7753444905
 20
79023.37126481268
 30
0.0
 11
167536.7753444906
 21
79023.37126481268
 31
0.0
 12
167536.7753444906
 22
79023.37126481268
 32
0.0
 13
167236.7753444905
 23
79023.37126481268
 33
0.0
  0
3DFACE
  5
DF
330
2
100
AcDbEntity
  8
WIDOK
100
AcDbFace
 10
167236.7753444905
 20
79023.37126481268
 30
0.0
 11
167536.7753444906
 21
79023.37126481268
 31
0.0
 12
167536.7753444906
 22
79143.37126481268
 32
0.0
 13
167236.7753444905
 23
79143.37126481268
 33
0.0
  0
3DFACE
  5
E0
330
2
100
AcDbEntity
  8
WIDOK
100
AcDbFace
 10
167536.7753444906
 20
79023.37126481268
 30
0.0
 11
167236.7753444905
 21
79023.37126481268
 31
0.0
 12
167236.7753444905
 22
79143.37126481268
 32
0.0
 13
167536.7753444906
 23
79143.37126481268
 33
0.0
  0
LINE
  5
E1
330
2
100
AcDbEntity
  8
WIDOK
390
D5
100
AcDbLine
 10
167536.7753444906
 20
79023.37126481268
 30
0.0
 11
167236.7753444905
 21
79023.37126481268
 31
0.0
  0
LINE
  5
E2
330
2
100
AcDbEntity
  8
WIDOK
100
AcDbLine
 10
167536.7753444906
 20
79023.37126481268
 30
0.0
 11
167236.7753444905
 21
79023.37126481268
 31
0.0
  0
3DFACE
  5
E3
330
2
100
AcDbEntity
  8
WIDOK
100
AcDbFace
 10
167536.7753444906
 20
79023.37126481268
 30
0.0
 11
167536.7753444906
 21
79143.37126481268
 31
0.0
 12
167536.7753444906
 22
79143.37126481268
 32
0.0
 13
167536.7753444906
 23
79023.37126481268
 33
0.0
  0
LINE
  5
E4
330
2
100
AcDbEntity
  8
WIDOK
390
D5
100
AcDbLine
 10
167536.7753444906
 20
79143.37126481268
 30
0.0
 11
167536.7753444906
 21
79023.37126481268
 31
0.0
  0
LINE
  5
E5
330
2
100
AcDbEntity
  8
WIDOK
100
AcDbLine
 10
167536.7753444906
 20
79143.37126481268
 30
0.0
 11
167536.7753444906
 21
79023.37126481268
 31
0.0
  0
3DFACE
  5
E6
330
2
100
AcDbEntity
  8
WIDOK
100
AcDbFace
 10
167266.7753444905
 20
79143.37126481268
 30
0.0
 11
167266.7753444905
 21
79053.37126481268
 31
0.0
 12
167266.7753444905
 22
79053.37126481268
 32
0.0
 13
167266.7753444905
 23
79143.37126481268
 33
0.0
  0
3DFACE
  5
E7
330
2
100
AcDbEntity
  8
WIDOK
100
AcDbFace
 10
167506.7753444906
 20
79053.37126481268
 30
0.0
 11
167506.7753444906
 21
79143.37126481268
 31
0.0
 12
167506.7753444906
 22
79143.37126481268
 32
0.0
 13
167506.7753444906
 23
79053.37126481268
 33
0.0
  0
3DFACE
  5
E8
330
2
100
AcDbEntity
  8
WIDOK
100
AcDbFace
 10
167266.7753444905
 20
79053.37126481268
 30
0.0
 11
167506.7753444906
 21
79053.37126481268
 31
0.0
 12
167506.7753444906
 22
79053.37126481268
 32
0.0
 13
167266.7753444905
 23
79053.37126481268
 33
0.0
  0
3DFACE
  5
E9
330
2
100
AcDbEntity
  8
WIDOK
100
AcDbFace
 10
167266.7753444905
 20
79053.37126481268
 30
0.0
 11
167506.7753444906
 21
79053.37126481268
 31
0.0
 12
167506.7753444906
 22
79143.37126481268
 32
0.0
 13
167266.7753444905
 23
79143.37126481268
 33
0.0
  0
3DFACE
  5
EA
330
2
100
AcDbEntity
  8
WIDOK
100
AcDbFace
 10
167506.7753444906
 20
79053.37126481268
 30
0.0
 11
167266.7753444905
 21
79053.37126481268
 31
0.0
 12
167266.7753444905
 22
79143.37126481268
 32
0.0
 13
167506.7753444906
 23
79143.37126481268
 33
0.0
  0
LINE
  5
EB
330
2
100
AcDbEntity
  8
WIDOK
390
D5
100
AcDbLine
 10
167506.7753444906
 20
79053.37126481268
 30
0.0
 11
167266.7753444905
 21
79053.37126481268
 31
0.0
  0
LINE
  5
EC
330
2
100
AcDbEntity
  8
WIDOK
390
D5
100
AcDbLine
 10
167506.7753444906
 20
79143.37126481268
 30
0.0
 11
167506.7753444906
 21
79053.37126481268
 31
0.0
  0
LINE
  5
ED
330
2
100
AcDbEntity
  8
WIDOK
390
D5
100
AcDbLine
 10
167266.7753444905
 20
79053.37126481268
 30
0.0
 11
167266.7753444905
 21
79143.37126481268
 31
0.0
  0
3DFACE
  5
EE
330
2
100
AcDbEntity
  8
WIDOK
100
AcDbFace
 10
167236.7753444905
 20
79143.37126481268
 30
0.0
 11
167236.7753444905
 21
79023.37126481268
 31
0.0
 12
167236.7753444905
 22
79023.37126481268
 32
0.0
 13
167236.7753444905
 23
79143.37126481268
 33
0.0
  0
LINE
  5
EF
330
2
100
AcDbEntity
  8
WIDOK
390
D5
100
AcDbLine
 10
167236.7753444905
 20
79023.37126481268
 30
0.0
 11
167236.7753444905
 21
79143.37126481268
 31
0.0
  0
LINE
  5
F0
330
2
100
AcDbEntity
  8
WIDOK
100
AcDbLine
 10
167236.7753444905
 20
79023.37126481268
 30
0.0
 11
167236.7753444905
 21
79143.37126481268
 31
0.0
  0
LINE
  5
F1
330
2
100
AcDbEntity
  8
SCIANY
100
AcDbLine
 10
167441.7753444905
 20
79203.37126481268
 30
0.0
 11
167331.7753444906
 21
79203.37126481268
 31
0.0
  0
LINE
  5
F2
330
2
100
AcDbEntity
  8
SCIANY
100
AcDbLine
 10
167751.7753444905
 20
79203.37126481264
 30
0.0
 11
166698.5589859026
 21
79203.37126481269
 31
0.0
  0
LINE
  5
F3
330
2
100
AcDbEntity
  8
SCIANY
100
AcDbLine
 10
167811.7753444906
 20
79143.37126481268
 30
0.0
 11
166698.5589859026
 21
79143.37126481268
 31
0.0
  0
LINE
  5
F4
330
2
100
AcDbEntity
  8
SCIANY
100
AcDbLine
 10
166631.7753444906
 20
79816.37126412722
 30
0.0
 11
166961.7753444905
 21
79816.3712641272
 31
0.0
  0
LINE
  5
F5
330
2
100
AcDbEntity
  8
SCIANY
100
AcDbLine
 10
166681.7753444906
 20
79756.37126412721
 30
0.0
 11
167021.7753444905
 21
79756.37126412721
 31
0.0
  0
LINE
  5
F6
330
2
100
AcDbEntity
  8
SCIANY
100
AcDbLine
 10
166698.5589859026
 20
79203.37126481269
 30
0.0
 11
166698.5589859026
 21
79143.37126481268
 31
0.0
  0
LINE
  5
F7
330
2
100
AcDbEntity
  8
SCIANY
100
AcDbLine
 10
166631.7753444906
 20
79143.37126481268
 30
0.0
 11
166631.7753444906
 21
79816.37126412722
 31
0.0
  0
LINE
  5
F8
330
2
100
AcDbEntity
  8
SCIANY
100
AcDbLine
 10
166698.5589859026
 20
79143.37126481268
 30
0.0
 11
166631.7753444906
 21
79143.37126481268
 31
0.0
  0
LINE
  5
F9
330
2
100
AcDbEntity
  8
SCIANY
100
AcDbLine
 10
166681.7753444906
 20
79203.37126481268
 30
0.0
 11
166681.7753444906
 21
79756.37126412721
 31
0.0
  0
LINE
  5
FA
330
2
100
AcDbEntity
  8
SCIANY
100
AcDbLine
 10
166698.5589859026
 20
79203.37126481269
 30
0.0
 11
166681.7753444906
 21
79203.37126481268
 31
0.0
  0
LINE
  5
FB
330
2
100
AcDbEntity
  8
SCIANY
100
AcDbLine
 10
166938.5589859026
 20
79143.37126481268
 30
0.0
 11
166938.5589859025
 21
79203.37126481269
 31
0.0
  0
LINE
  5
FC
330
2
100
AcDbEntity
  8
SCIANY
100
AcDbLine
 10
167331.7753444906
 20
79203.37126481268
 30
0.0
 11
167331.7753444906
 21
79143.37126481269
 31
0.0
  0
LINE
  5
FD
330
2
100
AcDbEntity
  8
SCIANY
100
AcDbLine
 10
166961.7753444905
 20
79816.3712641272
 30
0.0
 11
166961.7753444905
 21
80023.37126481268
 31
0.0
  0
LINE
  5
FE
330
2
100
AcDbEntity
  8
SCIANY
100
AcDbLine
 10
167021.7753444905
 20
79756.37126412721
 30
0.0
 11
167021.7753444905
 21
79963.37126481268
 31
0.0
  0
LINE
  5
FF
330
2
100
AcDbEntity
  8
SCIANY
100
AcDbLine
 10
167441.7753444906
 20
79143.37126481269
 30
0.0
 11
167441.7753444906
 21
79203.37126481268
 31
0.0
  0
LINE
  5
100
330
2
100
AcDbEntity
  8
SCIANY
100
AcDbLine
 10
167811.7753444905
 20
79723.21693588013
 30
0.0
 11
167871.7753444906
 21
79663.21693588012
 31
0.0
  0
3DFACE
  5
101
330
2
100
AcDbEntity
  8
WIDOK
100
AcDbFace
 10
167811.7753444906
 20
79331.58058048735
 30
0.0
 11
168141.0665682084
 21
79660.87180420521
 31
0.0
 12
168141.0665682084
 22
79660.87180420521
 32
0.0
 13
167811.7753444906
 23
79331.58058048735
 33
0.0
  0
LINE
  5
102
330
2
100
AcDbEntity
  8
WIDOK
390
D5
100
AcDbLine
 10
168141.0665682084
 20
79660.87180420521
 30
0.0
 11
167811.7753444906
 21
79331.58058048735
 31
0.0
  0
3DFACE
  5
103
330
2
100
AcDbEntity
  8
WIDOK
100
AcDbFace
 10
167811.7753444906
 20
79374.00698735855
 30
0.0
 11
168111.0665682084
 21
79673.29821107639
 31
0.0
 12
168111.0665682084
 22
79673.29821107639
 32
0.0
 13
167811.7753444906
 23
79374.00698735855
 33
0.0
  0
LINE
  5
104
330
2
100
AcDbEntity
  8
WIDOK
390
D5
100
AcDbLine
 10
168111.0665682084
 20
79673.29821107639
 30
0.0
 11
167811.7753444906
 21
79374.00698735855
 31
0.0
  0
LINE
  5
105
330
2
100
AcDbEntity
  8
WIDOK
100
AcDbLine
 10
168141.0665682084
 20
79660.87180420521
 30
0.0
 11
167811.7753444906
 21
79331.58058048735
 31
0.0
  0
LINE
  5
106
330
2
100
AcDbEntity
  8
SCIANY
100
AcDbLine
 10
167751.7753444905
 20
79963.37126481268
 30
0.0
 11
167751.7753444906
 21
79698.36412213769
 31
0.0
  0
LINE
  5
107
330
2
100
AcDbEntity
  8
SCIANY
100
AcDbLine
 10
167751.7753444906
 20
79698.36412213769
 30
0.0
 11
167811.7753444906
 21
79638.36412213772
 31
0.0
  0
LINE
  5
108
330
2
100
AcDbEntity
  8
SCIANY
100
AcDbLine
 10
167811.7753444906
 20
79638.36412213772
 30
0.0
 11
167811.7753444905
 21
79548.06974962255
 31
0.0
  0
LINE
  5
109
330
2
100
AcDbEntity
  8
SCIANY
100
AcDbLine
 10
167751.7753444906
 20
79488.06974962246
 30
0.0
 11
167811.7753444905
 21
79548.06974962255
 31
0.0
  0
LINE
  5
10A
330
2
100
AcDbEntity
  8
SCIANY
100
AcDbLine
 10
167751.7753444906
 20
79488.06974962246
 30
0.0
 11
167751.7753444905
 21
79203.37126481264
 31
0.0
  0
LINE
  5
10B
330
2
100
AcDbEntity
  8
SCIANY
100
AcDbLine
 10
167811.7753444906
 20
79463.21693588022
 30
0.0
 11
167811.7753444906
 21
79143.37126481268
 31
0.0
  0
LINE
  5
10C
330
2
100
AcDbEntity
  8
SCIANY
100
AcDbLine
 10
167871.7753444906
 20
79663.21693588012
 30
0.0
 11
167871.7753444906
 21
79523.21693588014
 31
0.0
  0
LINE
  5
10D
330
2
100
AcDbEntity
  8
SCIANY
100
AcDbLine
 10
167811.7753444906
 20
80023.37126481268
 30
0.0
 11
167811.7753444905
 21
79723.21693588013
 31
0.0
  0
3DFACE
  5
10E
330
2
100
AcDbEntity
  8
WIDOK
100
AcDbFace
 10
168141.0665682084
 20
79660.87180420521
 30
0.0
 11
167871.7753444906
 21
79663.21693588012
 31
0.0
 12
168141.0665682084
 22
80223.37126481268
 32
0.0
 13
168141.0665682084
 23
80223.37126481268
 33
0.0
 70
     3
  0
3DFACE
  5
10F
330
2
100
AcDbEntity
  8
WIDOK
100
AcDbFace
 10
168111.0665682084
 20
79673.29821107639
 30
0.0
 11
167871.7753444906
 21
79663.21693588012
 31
0.0
 12
168111.0665682084
 22
80193.37126481268
 32
0.0
 13
168111.0665682084
 23
80193.37126481268
 33
0.0
 70
     3
  0
3DFACE
  5
110
330
2
100
AcDbEntity
  8
WIDOK
100
AcDbFace
 10
168141.0665682084
 20
79660.87180420521
 30
0.0
 11
168141.0665682084
 21
80223.37126481268
 31
0.0
 12
168141.0665682084
 22
80223.37126481268
 32
0.0
 13
168141.0665682084
 23
79660.87180420521
 33
0.0
  0
LINE
  5
111
330
2
100
AcDbEntity
  8
WIDOK
390
D5
100
AcDbLine
 10
168141.0665682084
 20
80223.37126481268
 30
0.0
 11
168141.0665682084
 21
79660.87180420521
 31
0.0
  0
3DFACE
  5
112
330
2
100
AcDbEntity
  8
WIDOK
100
AcDbFace
 10
168111.0665682084
 20
79673.29821107639
 30
0.0
 11
168111.0665682084
 21
80193.37126481268
 31
0.0
 12
168111.0665682084
 22
80193.37126481268
 32
0.0
 13
168111.0665682084
 23
79673.29821107639
 33
0.0
  0
LINE
  5
113
330
2
100
AcDbEntity
  8
WIDOK
390
D5
100
AcDbLine
 10
168111.0665682084
 20
80193.37126481268
 30
0.0
 11
168111.0665682084
 21
79673.29821107639
 31
0.0
  0
LINE
  5
114
330
2
100
AcDbEntity
  8
WIDOK
100
AcDbLine
 10
168141.0665682084
 20
80223.37126481268
 30
0.0
 11
168141.0665682084
 21
79660.87180420521
 31
0.0
  0
DIMENSION
  5
115
330
2
100
AcDbEntity
  8
WYMIARY
100
AcDbDimension
  2
*D20
 10
168301.3725138569
 20
79143.37126481268
 30
0.0
 11
168221.3725138569
 21
79583.37126481271
 31
0.0
 70
    32
 71
     5
 42
880.0
  3
500
100
AcDbAlignedDimension
 13
167682.8071032246
 23
80023.37126481268
 33
0.0
 14
167682.8071032246
 24
79143.37126481268
 34
0.0
 50
90.0
100
AcDbRotatedDimension
  0
LINE
  5
120
330
2
100
AcDbEntity
  8
SCIANY
100
AcDbLine
 10
167811.7753444905
 20
79463.21693588013
 30
0.0
 11
167871.7753444906
 21
79523.21693588014
 31
0.0
  0
LINE
  5
121
330
2
100
AcDbEntity
  8
SCIANY
100
AcDbLine
 10
167751.7753444905
 20
79963.37126481268
 30
0.0
 11
167021.7753444905
 21
79963.37126481268
 31
0.0
  0
LINE
  5
122
330
2
100
AcDbEntity
  8
SCIANY
100
AcDbLine
 10
167811.7753444906
 20
80023.37126481268
 30
0.0
 11
166961.7753444905
 21
80023.37126481268
 31
0.0
  0
HATCH
  5
1B6
330
2
100
AcDbEntity
  8
SZRAF
100
AcDbHatch
 10
0.0
 20
0.0
 30
0.0
210
0.0
220
0.0
230
1.0
  2
SOLID
 70
     1
 71
     0
 91
        2
 92
        7
 72
     0
 73
     1
 93
       24
 10
167811.7753444906
 20
80023.37126481268
 10
166961.7753444905
 20
80023.37126481268
 10
166961.7753444906
 20
79816.3712641272
 10
166631.7753444906
 20
79816.37126412722
 10
166631.7753444906
 20
79143.37126481268
 10
166698.5589859026
 20
79143.37126481268
 10
166698.5589859026
 20
79203.37126481268
 10
166681.7753444906
 20
79203.37126481268
 10
166681.7753444906
 20
79756.37126412721
 10
167021.7753444905
 20
79756.37126412722
 10
167021.7753444905
 20
79963.37126481268
 10
167751.7753444905
 20
79963.3712648127
 10
167751.7753444906
 20
79698.36412213767
 10
167811.7753444906
 20
79638.3641221377
 10
167811.7753444905
 20
79548.06974962259
 10
167751.7753444905
 20
79488.06974962244
 10
167751.7753444905
 20
79203.37126481264
 10
167441.7753444906
 20
79203.37126481264
 10
167441.7753444906
 20
79143.37126481268
 10
167811.7753444906
 20
79143.37126481268
 10
167811.7753444905
 20
79463.21693588016
 10
167871.7753444906
 20
79523.21693588014
 10
167871.7753444906
 20
79663.2169358801
 10
167811.7753444906
 20
79723.21693588018
 97
        0
 92
       22
 72
     0
 73
     1
 93
        4
 10
167331.7753444906
 20
79203.37126481265
 10
166938.5589859026
 20
79203.37126481268
 10
166938.5589859026
 20
79143.37126481268
 10
167331.7753444906
 20
79143.37126481269
 97
        0
 75
     0
 76
     1
 47
2.397576846812074
 98
        2
 10
167469.4411881091
 20
79976.01364647702
 10
167195.9905622341
 20
79160.83769441419
  0
DIMENSION
  5
22A
330
2
100
AcDbEntity
  8
SCIANY
100
AcDbDimension
  2
*D22
 10
172168.0068408748
 20
80365.25182478936
 30
0.0
 11
172003.0068408748
 21
80445.25182478936
 31
0.0
 70
    32
 71
     5
 42
330.0
  3
500
100
AcDbAlignedDimension
 13
171838.0068408748
 23
79604.59886038717
 33
0.0
 14
172168.0068408748
 24
79397.5988597017
 34
0.0
 50
0.000000000000007
100
AcDbRotatedDimension
  0
DIMENSION
  5
22B
330
2
100
AcDbEntity
  8
SCIANY
100
AcDbDimension
  2
*D23
 10
171838.0068408748
 20
80365.25182478936
 30
0.0
 11
171413.0068408748
 21
80445.25182478936
 31
0.0
 70
    32
 71
     5
 42
850.0
  3
500
100
AcDbAlignedDimension
 13
170988.0068408748
 23
79604.59886038717
 33
0.0
 14
171838.0068408748
 24
79604.59886038717
 34
0.0
 50
0.000000000000007
100
AcDbRotatedDimension
  0
DIMENSION
  5
22C
330
2
100
AcDbEntity
  8
SCIANY
100
AcDbDimension
  2
*D24
 10
170988.0068408748
 20
80365.25182478936
 30
0.0
 11
170958.0068408748
 21
80445.25182478936
 31
0.0
 70
    32
 71
     5
 42
60.0
  3
500
100
AcDbAlignedDimension
 13
170928.0068408748
 23
79244.4445314546
 33
0.0
 14
170988.0068408748
 24
79604.59886038717
 34
0.0
 50
0.000000000000007
100
AcDbRotatedDimension
  0
DIMENSION
  5
22D
330
2
100
AcDbEntity
  8
WYMIARY
100
AcDbDimension
  2
*D25
 10
172472.4599663338
 20
80023.37126481268
 30
0.0
 11
172392.4599663338
 21
79919.87126446997
 31
0.0
 70
    32
 71
     5
 42
207.000000685468
  3
500
100
AcDbAlignedDimension
 13
171890.3956918888
 23
79816.37126412722
 33
0.0
 14
171560.3956918888
 24
80023.37126481268
 34
0.0
 50
90.0
100
AcDbRotatedDimension
  0
DIMENSION
  5
22E
330
2
100
AcDbEntity
  8
WYMIARY
100
AcDbDimension
  2
*D26
 10
172472.4599663338
 20
79816.37126412722
 30
0.0
 11
172392.4599663338
 21
79479.87126446997
 31
0.0
 70
    32
 71
     5
 42
672.999999314532
  3
500
100
AcDbAlignedDimension
 13
171890.3956918888
 23
79143.37126481268
 33
0.0
 14
171890.3956918888
 24
79816.37126412722
 34
0.0
 50
90.0
100
AcDbRotatedDimension
  0
DIMENSION
  5
22F
330
2
100
AcDbEntity
  8
WYMIARY
100
AcDbDimension
  2
*D27
 10
172168.0068408748
 20
78800.55557088306
 30
0.0
 11
171548.0068408748
 21
78880.55557088306
 31
0.0
 70
    32
 71
     5
 42
1240.0
  3
500
100
AcDbAlignedDimension
 13
170928.0068408748
 23
80067.38612507863
 33
0.0
 14
172168.0068408748
 24
79673.17586696299
 34
0.0
 50
0.000000000000007
100
AcDbRotatedDimension
  0
LINE
  5
230
330
2
100
AcDbEntity
  8
WIDOK
100
AcDbLine
 10
171413.0068408748
 20
80023.37126481268
 30
0.0
 11
171413.0068408748
 21
80223.37126481268
 31
0.0
  0
LINE
  5
231
330
2
100
AcDbEntity
  8
WIDOK
390
D5
100
AcDbLine
 10
171383.0068408748
 20
80023.37126481268
 30
0.0
 11
171383.0068408748
 21
80193.37126481268
 31
0.0
  0
3DFACE
  5
232
330
2
100
AcDbEntity
  8
WIDOK
100
AcDbFace
 10
171383.0068408748
 20
80193.37126481268
 30
0.0
 11
171383.0068408748
 21
80023.37126481268
 31
0.0
 12
171383.0068408748
 22
80023.37126481268
 32
0.0
 13
171383.0068408748
 23
80193.37126481268
 33
0.0
  0
LINE
  5
233
330
2
100
AcDbEntity
  8
WIDOK
390
D5
100
AcDbLine
 10
171413.0068408748
 20
80023.37126481268
 30
0.0
 11
171413.0068408748
 21
80223.37126481268
 31
0.0
  0
3DFACE
  5
234
330
2
100
AcDbEntity
  8
WIDOK
100
AcDbFace
 10
171413.0068408748
 20
80223.37126481268
 30
0.0
 11
171413.0068408748
 21
80023.37126481268
 31
0.0
 12
171413.0068408748
 22
80023.37126481268
 32
0.0
 13
171413.0068408748
 23
80223.37126481268
 33
0.0
  0
LINE
  5
235
330
2
100
AcDbEntity
  8
WIDOK
100
AcDbLine
 10
171413.0068408748
 20
80223.37126481268
 30
0.0
 11
170658.7156171569
 21
80223.37126481268
 31
0.0
  0
LINE
  5
236
330
2
100
AcDbEntity
  8
WIDOK
390
D5
100
AcDbLine
 10
171383.0068408748
 20
80193.37126481268
 30
0.0
 11
170688.7156171569
 21
80193.37126481268
 31
0.0
  0
LINE
  5
237
330
2
100
AcDbEntity
  8
WIDOK
390
D5
100
AcDbLine
 10
171413.0068408748
 20
80223.37126481268
 30
0.0
 11
170658.7156171569
 21
80223.37126481268
 31
0.0
  0
3DFACE
  5
238
330
2
100
AcDbEntity
  8
WIDOK
100
AcDbFace
 10
170658.7156171569
 20
80223.37126481268
 30
0.0
 11
171413.0068408748
 21
80223.37126481268
 31
0.0
 12
171413.0068408748
 22
80223.37126481268
 32
0.0
 13
170658.7156171569
 23
80223.37126481268
 33
0.0
  0
3DFACE
  5
239
330
2
100
AcDbEntity
  8
WIDOK
100
AcDbFace
 10
170688.7156171569
 20
80193.37126481268
 30
0.0
 11
171383.0068408748
 21
80193.37126481268
 31
0.0
 12
171383.0068408748
 22
80193.37126481268
 32
0.0
 13
170688.7156171569
 23
80193.37126481268
 33
0.0
  0
3DFACE
  5
23A
330
2
100
AcDbEntity
  8
WIDOK
100
AcDbFace
 10
171563.0068408748
 20
79023.37126481268
 30
0.0
 11
171263.0068408748
 21
79023.37126481268
 31
0.0
 12
171263.0068408748
 22
79023.37126481268
 32
0.0
 13
171563.0068408748
 23
79023.37126481268
 33
0.0
  0
3DFACE
  5
23B
330
2
100
AcDbEntity
  8
WIDOK
100
AcDbFace
 10
171563.0068408748
 20
79143.37126481268
 30
0.0
 11
171263.0068408748
 21
79143.37126481268
 31
0.0
 12
171263.0068408748
 22
79023.37126481268
 32
0.0
 13
171563.0068408748
 23
79023.37126481268
 33
0.0
  0
3DFACE
  5
23C
330
2
100
AcDbEntity
  8
WIDOK
100
AcDbFace
 10
171263.0068408748
 20
79143.37126481268
 30
0.0
 11
171563.0068408748
 21
79143.37126481268
 31
0.0
 12
171563.0068408748
 22
79023.37126481268
 32
0.0
 13
171263.0068408748
 23
79023.37126481268
 33
0.0
  0
LINE
  5
23D
330
2
100
AcDbEntity
  8
WIDOK
390
D5
100
AcDbLine
 10
171263.0068408748
 20
79023.37126481268
 30
0.0
 11
171563.0068408748
 21
79023.37126481268
 31
0.0
  0
LINE
  5
23E
330
2
100
AcDbEntity
  8
WIDOK
100
AcDbLine
 10
171263.0068408748
 20
79023.37126481268
 30
0.0
 11
171563.0068408748
 21
79023.37126481268
 31
0.0
  0
3DFACE
  5
23F
330
2
100
AcDbEntity
  8
WIDOK
100
AcDbFace
 10
171263.0068408748
 20
79023.37126481268
 30
0.0
 11
171263.0068408748
 21
79143.37126481268
 31
0.0
 12
171263.0068408748
 22
79143.37126481268
 32
0.0
 13
171263.0068408748
 23
79023.37126481268
 33
0.0
  0
LINE
  5
240
330
2
100
AcDbEntity
  8
WIDOK
390
D5
100
AcDbLine
 10
171263.0068408748
 20
79143.37126481268
 30
0.0
 11
171263.0068408748
 21
79023.37126481268
 31
0.0
  0
LINE
  5
241
330
2
100
AcDbEntity
  8
WIDOK
100
AcDbLine
 10
171263.0068408748
 20
79143.37126481268
 30
0.0
 11
171263.0068408748
 21
79023.37126481268
 31
0.0
  0
3DFACE
  5
242
330
2
100
AcDbEntity
  8
WIDOK
100
AcDbFace
 10
171533.0068408748
 20
79143.37126481268
 30
0.0
 11
171533.0068408748
 21
79053.37126481268
 31
0.0
 12
171533.0068408748
 22
79053.37126481268
 32
0.0
 13
171533.0068408748
 23
79143.37126481268
 33
0.0
  0
3DFACE
  5
243
330
2
100
AcDbEntity
  8
WIDOK
100
AcDbFace
 10
171293.0068408748
 20
79053.37126481268
 30
0.0
 11
171293.0068408748
 21
79143.37126481268
 31
0.0
 12
171293.0068408748
 22
79143.37126481268
 32
0.0
 13
171293.0068408748
 23
79053.37126481268
 33
0.0
  0
3DFACE
  5
244
330
2
100
AcDbEntity
  8
WIDOK
100
AcDbFace
 10
171533.0068408748
 20
79053.37126481268
 30
0.0
 11
171293.0068408748
 21
79053.37126481268
 31
0.0
 12
171293.0068408748
 22
79053.37126481268
 32
0.0
 13
171533.0068408748
 23
79053.37126481268
 33
0.0
  0
3DFACE
  5
245
330
2
100
AcDbEntity
  8
WIDOK
100
AcDbFace
 10
171533.0068408748
 20
79143.37126481268
 30
0.0
 11
171293.0068408748
 21
79143.37126481268
 31
0.0
 12
171293.0068408748
 22
79053.37126481268
 32
0.0
 13
171533.0068408748
 23
79053.37126481268
 33
0.0
  0
3DFACE
  5
246
330
2
100
AcDbEntity
  8
WIDOK
100
AcDbFace
 10
171293.0068408748
 20
79143.37126481268
 30
0.0
 11
171533.0068408748
 21
79143.37126481268
 31
0.0
 12
171533.0068408748
 22
79053.37126481268
 32
0.0
 13
171293.0068408748
 23
79053.37126481268
 33
0.0
  0
LINE
  5
247
330
2
100
AcDbEntity
  8
WIDOK
390
D5
100
AcDbLine
 10
171293.0068408748
 20
79053.37126481268
 30
0.0
 11
171533.0068408748
 21
79053.37126481268
 31
0.0
  0
LINE
  5
248
330
2
100
AcDbEntity
  8
WIDOK
390
D5
100
AcDbLine
 10
171293.0068408748
 20
79143.37126481268
 30
0.0
 11
171293.0068408748
 21
79053.37126481268
 31
0.0
  0
LINE
  5
249
330
2
100
AcDbEntity
  8
WIDOK
390
D5
100
AcDbLine
 10
171533.0068408748
 20
79053.37126481268
 30
0.0
 11
171533.0068408748
 21
79143.37126481268
 31
0.0
  0
3DFACE
  5
24A
330
2
100
AcDbEntity
  8
WIDOK
100
AcDbFace
 10
171563.0068408748
 20
79143.37126481268
 30
0.0
 11
171563.0068408748
 21
79023.37126481268
 31
0.0
 12
171563.0068408748
 22
79023.37126481268
 32
0.0
 13
171563.0068408748
 23
79143.37126481268
 33
0.0
  0
LINE
  5
24B
330
2
100
AcDbEntity
  8
WIDOK
390
D5
100
AcDbLine
 10
171563.0068408748
 20
79023.37126481268
 30
0.0
 11
171563.0068408748
 21
79143.37126481268
 31
0.0
  0
LINE
  5
24C
330
2
100
AcDbEntity
  8
WIDOK
100
AcDbLine
 10
171563.0068408748
 20
79023.37126481268
 30
0.0
 11
171563.0068408748
 21
79143.37126481268
 31
0.0
  0
LINE
  5
24D
330
2
100
AcDbEntity
  8
SCIANY
100
AcDbLine
 10
171358.0068408748
 20
79203.37126481268
 30
0.0
 11
171468.0068408748
 21
79203.37126481268
 31
0.0
  0
LINE
  5
24E
330
2
100
AcDbEntity
  8
SCIANY
100
AcDbLine
 10
171048.0068408749
 20
79203.37126481264
 30
0.0
 11
172101.2231994628
 21
79203.37126481269
 31
0.0
  0
LINE
  5
24F
330
2
100
AcDbEntity
  8
SCIANY
100
AcDbLine
 10
170988.0068408748
 20
79143.37126481268
 30
0.0
 11
172101.2231994628
 21
79143.37126481268
 31
0.0
  0
LINE
  5
250
330
2
100
AcDbEntity
  8
SCIANY
100
AcDbLine
 10
172168.0068408748
 20
79816.37126412722
 30
0.0
 11
171838.0068408748
 21
79816.3712641272
 31
0.0
  0
LINE
  5
251
330
2
100
AcDbEntity
  8
SCIANY
100
AcDbLine
 10
172118.0068408748
 20
79756.37126412721
 30
0.0
 11
171778.0068408748
 21
79756.37126412721
 31
0.0
  0
LINE
  5
252
330
2
100
AcDbEntity
  8
SCIANY
100
AcDbLine
 10
172101.2231994628
 20
79203.37126481269
 30
0.0
 11
172101.2231994628
 21
79143.37126481268
 31
0.0
  0
LINE
  5
253
330
2
100
AcDbEntity
  8
SCIANY
100
AcDbLine
 10
172168.0068408748
 20
79143.37126481268
 30
0.0
 11
172168.0068408748
 21
79816.37126412722
 31
0.0
  0
LINE
  5
254
330
2
100
AcDbEntity
  8
SCIANY
100
AcDbLine
 10
172101.2231994628
 20
79143.37126481268
 30
0.0
 11
172168.0068408748
 21
79143.37126481268
 31
0.0
  0
LINE
  5
255
330
2
100
AcDbEntity
  8
SCIANY
100
AcDbLine
 10
172118.0068408748
 20
79203.37126481268
 30
0.0
 11
172118.0068408748
 21
79756.37126412721
 31
0.0
  0
LINE
  5
256
330
2
100
AcDbEntity
  8
SCIANY
100
AcDbLine
 10
172101.2231994628
 20
79203.37126481269
 30
0.0
 11
172118.0068408748
 21
79203.37126481268
 31
0.0
  0
LINE
  5
257
330
2
100
AcDbEntity
  8
SCIANY
100
AcDbLine
 10
171861.2231994628
 20
79143.37126481268
 30
0.0
 11
171861.2231994628
 21
79203.37126481269
 31
0.0
  0
LINE
  5
258
330
2
100
AcDbEntity
  8
SCIANY
100
AcDbLine
 10
171468.0068408748
 20
79203.37126481268
 30
0.0
 11
171468.0068408748
 21
79143.37126481269
 31
0.0
  0
LINE
  5
259
330
2
100
AcDbEntity
  8
SCIANY
100
AcDbLine
 10
171838.0068408748
 20
79816.3712641272
 30
0.0
 11
171838.0068408748
 21
80023.37126481268
 31
0.0
  0
LINE
  5
25A
330
2
100
AcDbEntity
  8
SCIANY
100
AcDbLine
 10
171778.0068408748
 20
79756.37126412721
 30
0.0
 11
171778.0068408749
 21
79963.37126481268
 31
0.0
  0
LINE
  5
25B
330
2
100
AcDbEntity
  8
SCIANY
100
AcDbLine
 10
171358.0068408748
 20
79143.37126481269
 30
0.0
 11
171358.0068408748
 21
79203.37126481268
 31
0.0
  0
LINE
  5
25C
330
2
100
AcDbEntity
  8
SCIANY
100
AcDbLine
 10
170988.0068408748
 20
79723.21693588013
 30
0.0
 11
170928.0068408748
 21
79663.21693588012
 31
0.0
  0
3DFACE
  5
25D
330
2
100
AcDbEntity
  8
WIDOK
100
AcDbFace
 10
170988.0068408748
 20
79331.58058048735
 30
0.0
 11
170658.7156171569
 21
79660.87180420521
 31
0.0
 12
170658.7156171569
 22
79660.87180420521
 32
0.0
 13
170988.0068408748
 23
79331.58058048735
 33
0.0
  0
LINE
  5
25E
330
2
100
AcDbEntity
  8
WIDOK
390
D5
100
AcDbLine
 10
170658.7156171569
 20
79660.87180420521
 30
0.0
 11
170988.0068408748
 21
79331.58058048735
 31
0.0
  0
3DFACE
  5
25F
330
2
100
AcDbEntity
  8
WIDOK
100
AcDbFace
 10
170988.0068408748
 20
79374.00698735855
 30
0.0
 11
170688.7156171569
 21
79673.29821107639
 31
0.0
 12
170688.7156171569
 22
79673.29821107639
 32
0.0
 13
170988.0068408748
 23
79374.00698735855
 33
0.0
  0
LINE
  5
260
330
2
100
AcDbEntity
  8
WIDOK
390
D5
100
AcDbLine
 10
170688.7156171569
 20
79673.29821107639
 30
0.0
 11
170988.0068408748
 21
79374.00698735855
 31
0.0
  0
LINE
  5
261
330
2
100
AcDbEntity
  8
WIDOK
100
AcDbLine
 10
170658.7156171569
 20
79660.87180420521
 30
0.0
 11
170988.0068408748
 21
79331.58058048735
 31
0.0
  0
LINE
  5
262
330
2
100
AcDbEntity
  8
SCIANY
100
AcDbLine
 10
171048.0068408748
 20
79963.37126481268
 30
0.0
 11
171048.0068408748
 21
79698.36412213769
 31
0.0
  0
LINE
  5
263
330
2
100
AcDbEntity
  8
SCIANY
100
AcDbLine
 10
171048.0068408748
 20
79698.36412213769
 30
0.0
 11
170988.0068408748
 21
79638.36412213772
 31
0.0
  0
LINE
  5
264
330
2
100
AcDbEntity
  8
SCIANY
100
AcDbLine
 10
170988.0068408748
 20
79638.36412213772
 30
0.0
 11
170988.0068408748
 21
79548.06974962255
 31
0.0
  0
LINE
  5
265
330
2
100
AcDbEntity
  8
SCIANY
100
AcDbLine
 10
171048.0068408748
 20
79488.06974962246
 30
0.0
 11
170988.0068408748
 21
79548.06974962255
 31
0.0
  0
LINE
  5
266
330
2
100
AcDbEntity
  8
SCIANY
100
AcDbLine
 10
171048.0068408748
 20
79488.06974962246
 30
0.0
 11
171048.0068408749
 21
79203.37126481264
 31
0.0
  0
LINE
  5
267
330
2
100
AcDbEntity
  8
SCIANY
100
AcDbLine
 10
170988.0068408748
 20
79463.21693588022
 30
0.0
 11
170988.0068408748
 21
79143.37126481268
 31
0.0
  0
LINE
  5
268
330
2
100
AcDbEntity
  8
SCIANY
100
AcDbLine
 10
170928.0068408748
 20
79663.21693588012
 30
0.0
 11
170928.0068408748
 21
79523.21693588014
 31
0.0
  0
LINE
  5
269
330
2
100
AcDbEntity
  8
SCIANY
100
AcDbLine
 10
170988.0068408748
 20
80023.37126481268
 30
0.0
 11
170988.0068408748
 21
79723.21693588013
 31
0.0
  0
3DFACE
  5
26A
330
2
100
AcDbEntity
  8
WIDOK
100
AcDbFace
 10
170658.7156171569
 20
80223.37126481268
 30
0.0
 11
170658.7156171569
 21
80223.37126481268
 31
0.0
 12
170928.0068408748
 22
79663.21693588012
 32
0.0
 13
170658.7156171569
 23
79660.87180420521
 33
0.0
 70
     6
  0
3DFACE
  5
26B
330
2
100
AcDbEntity
  8
WIDOK
100
AcDbFace
 10
170688.7156171569
 20
80193.37126481268
 30
0.0
 11
170688.7156171569
 21
80193.37126481268
 31
0.0
 12
170928.0068408748
 22
79663.21693588012
 32
0.0
 13
170688.7156171569
 23
79673.29821107639
 33
0.0
 70
     6
  0
3DFACE
  5
26C
330
2
100
AcDbEntity
  8
WIDOK
100
AcDbFace
 10
170658.7156171569
 20
79660.87180420521
 30
0.0
 11
170658.7156171569
 21
80223.37126481268
 31
0.0
 12
170658.7156171569
 22
80223.37126481268
 32
0.0
 13
170658.7156171569
 23
79660.87180420521
 33
0.0
  0
LINE
  5
26D
330
2
100
AcDbEntity
  8
WIDOK
390
D5
100
AcDbLine
 10
170658.7156171569
 20
80223.37126481268
 30
0.0
 11
170658.7156171569
 21
79660.87180420521
 31
0.0
  0
3DFACE
  5
26E
330
2
100
AcDbEntity
  8
WIDOK
100
AcDbFace
 10
170688.7156171569
 20
79673.29821107639
 30
0.0
 11
170688.7156171569
 21
80193.37126481268
 31
0.0
 12
170688.7156171569
 22
80193.37126481268
 32
0.0
 13
170688.7156171569
 23
79673.29821107639
 33
0.0
  0
LINE
  5
26F
330
2
100
AcDbEntity
  8
WIDOK
390
D5
100
AcDbLine
 10
170688.7156171569
 20
80193.37126481268
 30
0.0
 11
170688.7156171569
 21
79673.29821107639
 31
0.0
  0
LINE
  5
270
330
2
100
AcDbEntity
  8
WIDOK
100
AcDbLine
 10
170658.7156171569
 20
80223.37126481268
 30
0.0
 11
170658.7156171569
 21
79660.87180420521
 31
0.0
  0
DIMENSION
  5
271
330
2
100
AcDbEntity
  8
WYMIARY
100
AcDbDimension
  2
*D28
 10
170498.4096715084
 20
79143.37126481268
 30
0.0
 11
170418.4096715084
 21
79583.37126481271
 31
0.0
 70
    32
 71
     5
 42
880.0
  3
500
100
AcDbAlignedDimension
 13
171116.9750821408
 23
80023.37126481268
 33
0.0
 14
171116.9750821408
 24
79143.37126481268
 34
0.0
 50
90.0
100
AcDbRotatedDimension
  0
LINE
  5
272
330
2
100
AcDbEntity
  8
SCIANY
100
AcDbLine
 10
170988.0068408748
 20
79463.21693588013
 30
0.0
 11
170928.0068408748
 21
79523.21693588014
 31
0.0
  0
LINE
  5
273
330
2
100
AcDbEntity
  8
SCIANY
100
AcDbLine
 10
171048.0068408748
 20
79963.37126481268
 30
0.0
 11
171778.0068408749
 21
79963.37126481268
 31
0.0
  0
LINE
  5
274
330
2
100
AcDbEntity
  8
SCIANY
100
AcDbLine
 10
170988.0068408748
 20
80023.37126481268
 30
0.0
 11
171838.0068408748
 21
80023.37126481268
 31
0.0
  0
HATCH
  5
275
330
2
100
AcDbEntity
  8
SZRAF
100
AcDbHatch
 10
0.0
 20
0.0
 30
0.0
210
0.0
220
0.0
230
1.0
  2
SOLID
 70
     1
 71
     0
 91
        2
 92
        7
 72
     0
 73
     1
 93
       24
 10
170988.0068408748
 20
80023.37126481268
 10
171838.0068408748
 20
80023.37126481268
 10
171838.0068408748
 20
79816.3712641272
 10
172168.0068408748
 20
79816.37126412722
 10
172168.0068408748
 20
79143.37126481268
 10
172101.2231994628
 20
79143.37126481268
 10
172101.2231994628
 20
79203.37126481268
 10
172118.0068408748
 20
79203.37126481268
 10
172118.0068408748
 20
79756.37126412721
 10
171778.0068408748
 20
79756.37126412722
 10
171778.0068408748
 20
79963.37126481268
 10
171048.0068408748
 20
79963.3712648127
 10
171048.0068408748
 20
79698.36412213767
 10
170988.0068408748
 20
79638.3641221377
 10
170988.0068408748
 20
79548.06974962259
 10
171048.0068408748
 20
79488.06974962244
 10
171048.0068408748
 20
79203.37126481264
 10
171358.0068408748
 20
79203.37126481264
 10
171358.0068408748
 20
79143.37126481268
 10
170988.0068408748
 20
79143.37126481268
 10
170988.0068408748
 20
79463.21693588016
 10
170928.0068408748
 20
79523.21693588014
 10
170928.0068408748
 20
79663.2169358801
 10
170988.0068408748
 20
79723.21693588018
 97
        0
 92
       22
 72
     0
 73
     1
 93
        4
 10
171468.0068408748
 20
79203.37126481265
 10
171861.2231994628
 20
79203.37126481268
 10
171861.2231994628
 20
79143.37126481268
 10
171468.0068408748
 20
79143.37126481269
 97
        0
 75
     0
 76
     1
 47
2.397576846812074
 98
        2
 10
171330.3409972563
 20
79976.01364647702
 10
171603.7916231313
 20
79160.83769441419
  0
ENDSEC
  0
SECTION
  2
OBJECTS
  0
DICTIONARY
  5
9
330
0
100
AcDbDictionary
281
     1
  3
ACAD_COLOR
350
38
  3
ACAD_GROUP
350
33
  3
ACAD_LAYOUT
350
F
  3
ACAD_MATERIAL
350
B
  3
ACAD_MLEADERSTYLE
350
1D6
  3
ACAD_MLINESTYLE
350
34
  3
ACAD_PLOTSETTINGS
350
35
  3
ACAD_PLOTSTYLENAME
350
8
  3
ACAD_SCALELIST
350
39
  3
ACAD_TABLESTYLE
350
3A
  3
ACAD_VISUALSTYLE
350
12
  3
ACDB_RECOMPOSE_DATA
350
1C0
  3
AcDbVariableDictionary
350
1C1
  3
ASE_INDEX_DICTIONARY
350
1BC
  3
DWGPROPS
350
303
  0
DICTIONARY
  5
18
330
17
100
AcDbDictionary
280
     1
281
     1
  3
ACAD_LAYERSTATES
360
19
  0
DICTIONARY
  5
5
330
4
100
AcDbDictionary
280
     1
281
     1
  3
ADSK_XREC_LAYER_RECONCILED
360
6
  0
DICTIONARY
  5
D2
330
D1
100
AcDbDictionary
280
     1
281
     1
  3
ADSK_XREC_LAYER_RECONCILED
360
D3
  0
DICTIONARY
  5
81
330
80
100
AcDbDictionary
280
     1
281
     1
  3
ADSK_XREC_LAYER_RECONCILED
360
82
  0
DICTIONARY
  5
3C
330
3B
100
AcDbDictionary
280
     1
281
     1
  3
ADSK_XREC_LAYER_RECONCILED
360
3D
  0
DICTIONARY
  5
66
330
65
100
AcDbDictionary
280
     1
281
     1
  3
ADSK_XREC_LAYER_RECONCILED
360
67
  0
DICTIONARY
  5
71
330
70
100
AcDbDictionary
280
     1
281
     1
  3
ADSK_XREC_LAYER_RECONCILED
360
72
  0
DICTIONARY
  5
6A
330
69
100
AcDbDictionary
280
     1
281
     1
  3
ADSK_XREC_LAYER_RECONCILED
360
6B
  0
DICTIONARY
  5
2A
330
29
100
AcDbDictionary
280
     1
281
     1
  3
ACAD_SORTENTS
360
2B
  0
DICTIONARY
  5
38
102
{ACAD_REACTORS
330
9
102
}
330
9
100
AcDbDictionary
281
     1
  0
DICTIONARY
  5
33
102
{ACAD_REACTORS
330
9
102
}
330
9
100
AcDbDictionary
281
     1
  0
DICTIONARY
  5
F
102
{ACAD_REACTORS
330
9
102
}
330
9
100
AcDbDictionary
281
     1
  3
Layout1
350
16
  3
Model
350
E
  0
DICTIONARY
  5
B
102
{ACAD_REACTORS
330
9
102
}
330
9
100
AcDbDictionary
281
     1
  3
ByBlock
350
37
  3
ByLayer
350
36
  3
Global
350
A
  0
DICTIONARY
  5
1D6
102
{ACAD_REACTORS
330
9
102
}
330
9
100
AcDbDictionary
281
     1
  3
Standard
350
1D7
  0
DICTIONARY
  5
34
102
{ACAD_REACTORS
330
9
102
}
330
9
100
AcDbDictionary
281
     1
  3
Standard
350
3E
  0
DICTIONARY
  5
35
102
{ACAD_REACTORS
330
9
102
}
330
9
100
AcDbDictionary
281
     1
  0
ACDBDICTIONARYWDFLT
  5
8
102
{ACAD_REACTORS
330
9
102
}
330
9
100
AcDbDictionary
281
     1
  3
Normal
350
7
  3
Standard
350
D5
100
AcDbDictionaryWithDefault
340
7
  0
DICTIONARY
  5
39
102
{ACAD_REACTORS
330
9
102
}
330
9
100
AcDbDictionary
281
     1
  3
A0
350
43
  3
A1
350
44
  3
A2
350
45
  3
A3
350
46
  3
A4
350
47
  3
A5
350
48
  3
A6
350
49
  3
A7
350
4A
  3
A8
350
4B
  3
A9
350
4C
  3
B0
350
4D
  3
B1
350
4E
  3
B2
350
4F
  3
B3
350
50
  3
B4
350
51
  3
B5
350
52
  3
B6
350
53
  3
B7
350
54
  3
B8
350
55
  3
B9
350
56
  3
C0
350
57
  3
C1
350
58
  3
C2
350
59
  3
C3
350
5A
  3
C4
350
5B
  3
C5
350
5C
  3
C6
350
5D
  3
C7
350
5E
  3
C8
350
5F
  3
C9
350
60
  3
D0
350
61
  3
D1
350
62
  3
D2
350
63
  0
DICTIONARY
  5
3A
102
{ACAD_REACTORS
330
9
102
}
330
9
100
AcDbDictionary
281
     1
  3
Standard
350
3F
  0
DICTIONARY
  5
12
102
{ACAD_REACTORS
330
9
102
}
330
9
100
AcDbDictionary
281
     1
  3
2dWireframe
350
11
  3
3D Hidden
350
1CE
  3
3dWireframe
350
42
  3
Basic
350
1CD
  3
Brighten
350
1D1
  3
ColorChange
350
1D5
  3
Conceptual
350
1CF
  3
Dim
350
1D0
  3
Facepattern
350
1D4
  3
Flat
350
1C9
  3
FlatWithEdges
350
1CA
  3
Gouraud
350
1CB
  3
GouraudWithEdges
350
1CC
  3
Linepattern
350
1D3
  3
Realistic
350
41
  3
Thicken
350
1D2
  0
XRECORD
  5
1C0
102
{ACAD_REACTORS
330
9
102
}
330
9
100
AcDbXrecord
280
     1
 90
        1
330
3F
  0
DICTIONARY
  5
1C1
102
{ACAD_REACTORS
330
9
102
}
330
9
100
AcDbDictionary
281
     1
  3
CANNOSCALE
350
1C4
  3
CMLEADERSTYLE
350
1C3
  3
CTABLESTYLE
350
1C2
  3
DIMASSOC
350
301
  3
HIDETEXT
350
300
  3
INDEXCTL
350
2FF
  3
LAYEREVAL
350
1C6
  3
LAYERNOTIFY
350
1C7
  3
LIGHTINGUNITS
350
1C5
  3
MSLTSCALE
350
2FD
  3
SORTENTS
350
2FE
  0
DICTIONARY
  5
1BC
102
{ACAD_REACTORS
330
9
102
}
330
9
100
AcDbDictionary
281
     1
  3
ASEBlockHierarchyIndexRecord
350
1BE
1001
DCO15
1040
1661164718.703
  0
XRECORD
  5
303
102
{ACAD_REACTORS
330
9
102
}
330
9
100
AcDbXrecord
280
     1
  1
DWGPROPS COOKIE
  2

  3

  4

  6

  7

  8
magdalena.jozwik
  9

300
=
301
=
302
=
303
=
304
=
305
=
306
=
307
=
308
=
309
=
 40
8.363735162037036
 41
2452027.670547454
 42
2455029.655355359
  1

 90
        0
  0
DICTIONARY
  5
19
102
{ACAD_REACTORS
330
18
102
}
330
18
100
AcDbDictionary
281
     1
  0
XRECORD
  5
6
102
{ACAD_REACTORS
330
5
102
}
330
5
100
AcDbXrecord
280
     1
290
     1
  0
XRECORD
  5
D3
102
{ACAD_REACTORS
330
D2
102
}
330
D2
100
AcDbXrecord
280
     1
290
     1
  0
XRECORD
  5
82
102
{ACAD_REACTORS
330
81
102
}
330
81
100
AcDbXrecord
280
     1
290
     1
  0
XRECORD
  5
3D
102
{ACAD_REACTORS
330
3C
102
}
330
3C
100
AcDbXrecord
280
     1
290
     1
  0
XRECORD
  5
67
102
{ACAD_REACTORS
330
66
102
}
330
66
100
AcDbXrecord
280
     1
290
     1
  0
XRECORD
  5
72
102
{ACAD_REACTORS
330
71
102
}
330
71
100
AcDbXrecord
280
     1
290
     1
  0
XRECORD
  5
6B
102
{ACAD_REACTORS
330
6A
102
}
330
6A
100
AcDbXrecord
280
     1
290
     1
  0
SORTENTSTABLE
  5
2B
102
{ACAD_REACTORS
330
2A
102
}
330
2A
100
AcDbSortentsTable
330
29
  0
LAYOUT
  5
16
102
{ACAD_XDICTIONARY
360
308
102
}
102
{ACAD_REACTORS
330
F
102
}
330
F
100
AcDbPlotSettings
  1

  2
C:\PROGRAM FILES\AUTOCAD LT 2000\plotters\DWF ePlot.pc3
  4

  6

 40
0.0
 41
0.0
 42
0.0
 43
0.0
 44
0.0
 45
0.0
 46
0.0
 47
0.0
 48
0.0
 49
0.0
140
0.0
141
0.0
142
1.0
143
1.0
 70
   688
 72
     0
 73
     0
 74
     5
  7
100.ctb
 75
    16
147
1.0
148
0.0
149
0.0
100
AcDbLayout
  1
Layout1
 70
     1
 71
     1
 10
0.0
 20
0.0
 11
420.0
 21
297.0
 12
0.0
 22
0.0
 32
0.0
 14
1.000000000000000E+20
 24
1.000000000000000E+20
 34
1.000000000000000E+20
 15
-1.000000000000000E+20
 25
-1.000000000000000E+20
 35
-1.000000000000000E+20
146
0.0
 13
0.0
 23
0.0
 33
0.0
 16
1.0
 26
0.0
 36
0.0
 17
0.0
 27
1.0
 37
0.0
 76
     0
330
13
  0
LAYOUT
  5
E
102
{ACAD_XDICTIONARY
360
306
102
}
102
{ACAD_REACTORS
330
F
102
}
330
F
100
AcDbPlotSettings
  1

  2
CutePDF Writer
  4
A4
  6
DALIE_aneks
 40
3.174999952316284
 41
3.174999952316284
 42
3.175003051757812
 43
3.17498779296875
 44
209.8886566162109
 45
297.0530090332031
 46
0.0
 47
4.0
 48
164187.201902405
 49
71577.51642521247
140
174387.201902405
141
85597.51642521247
142
1.0
143
50.0
 70
 11952
 72
     1
 73
     0
 74
     4
  7
100.ctb
 75
    25
147
0.02
148
-164187.201902405
149
-71577.51642521247
100
AcDbLayout
  1
Model
 70
     1
 71
     0
 10
0.0
 20
0.0
 11
12.0
 21
9.0
 12
0.0
 22
0.0
 32
0.0
 14
0.0
 24
0.0
 34
0.0
 15
0.0
 25
0.0
 35
0.0
146
0.0
 13
0.0
 23
0.0
 33
0.0
 16
1.0
 26
0.0
 36
0.0
 17
0.0
 27
1.0
 37
0.0
 76
     0
330
2
331
23
1001
ACAD_PSEXT
1000
CutePDF Writer
1000
CutePDF Writer
1000
CPW2:
1000

1070
     0
  0
MATERIAL
  5
37
102
{ACAD_XDICTIONARY
360
30C
102
}
102
{ACAD_REACTORS
330
B
102
}
330
B
100
AcDbMaterial
  1
ByBlock
 73
     1
 78
     1
172
     1
176
     1
270
     1
274
     1
  0
MATERIAL
  5
36
102
{ACAD_XDICTIONARY
360
30A
102
}
102
{ACAD_REACTORS
330
B
102
}
330
B
100
AcDbMaterial
  1
ByLayer
 73
     1
 78
     1
172
     1
176
     1
270
     1
274
     1
  0
MATERIAL
  5
A
102
{ACAD_XDICTIONARY
360
304
102
}
102
{ACAD_REACTORS
330
B
102
}
330
B
100
AcDbMaterial
  1
Global
 73
     1
 78
     1
172
     1
176
     1
270
     1
274
     1
  0
MLEADERSTYLE
  5
1D7
102
{ACAD_REACTORS
330
1D6
102
}
330
1D6
100
AcDbMLeaderStyle
170
     2
171
     1
172
     0
 90
        2
 40
0.0
 41
0.0
173
     1
 91
-1056964608
340
1E
 92
       -2
290
     1
 42
0.09
291
     1
 43
0.36
  3
Standard
 44
0.18
300

342
1B
174
     1
178
     6
175
     1
176
     0
 93
-1056964608
 45
0.18
292
     0
297
     0
 46
0.18
 94
-1056964608
 47
1.0
 49
1.0
140
1.0
293
     1
141
0.0
294
     1
177
     0
142
1.0
295
     0
296
     0
143
0.125
1001
ACAD_MLEADERVER
1070
     2
  0
MLINESTYLE
  5
3E
102
{ACAD_REACTORS
330
34
102
}
330
34
100
AcDbMlineStyle
  2
STANDARD
 70
     0
  3

 62
   256
 51
90.0
 52
90.0
 71
     2
 49
0.5
 62
   256
  6
BYLAYER
 49
-0.5
 62
   256
  6
BYLAYER
  0
ACDBPLACEHOLDER
  5
7
102
{ACAD_REACTORS
330
8
102
}
330
8
  0
ACDBPLACEHOLDER
  5
D5
102
{ACAD_REACTORS
330
8
102
}
330
8
  0
SCALE
  5
43
102
{ACAD_REACTORS
330
39
102
}
330
39
100
AcDbScale
 70
     0
300
1:1
140
1.0
141
1.0
290
     0
  0
SCALE
  5
44
102
{ACAD_REACTORS
330
39
102
}
330
39
100
AcDbScale
 70
     0
300
1:2
140
1.0
141
2.0
290
     0
  0
SCALE
  5
45
102
{ACAD_REACTORS
330
39
102
}
330
39
100
AcDbScale
 70
     0
300
1:4
140
1.0
141
4.0
290
     0
  0
SCALE
  5
46
102
{ACAD_REACTORS
330
39
102
}
330
39
100
AcDbScale
 70
     0
300
1:5
140
1.0
141
5.0
290
     0
  0
SCALE
  5
47
102
{ACAD_REACTORS
330
39
102
}
330
39
100
AcDbScale
 70
     0
300
1:8
140
1.0
141
8.0
290
     0
  0
SCALE
  5
48
102
{ACAD_REACTORS
330
39
102
}
330
39
100
AcDbScale
 70
     0
300
1:10
140
1.0
141
10.0
290
     0
  0
SCALE
  5
49
102
{ACAD_REACTORS
330
39
102
}
330
39
100
AcDbScale
 70
     0
300
1:16
140
1.0
141
16.0
290
     0
  0
SCALE
  5
4A
102
{ACAD_REACTORS
330
39
102
}
330
39
100
AcDbScale
 70
     0
300
1:20
140
1.0
141
20.0
290
     0
  0
SCALE
  5
4B
102
{ACAD_REACTORS
330
39
102
}
330
39
100
AcDbScale
 70
     0
300
1:30
140
1.0
141
30.0
290
     0
  0
SCALE
  5
4C
102
{ACAD_REACTORS
330
39
102
}
330
39
100
AcDbScale
 70
     0
300
1:40
140
1.0
141
40.0
290
     0
  0
SCALE
  5
4D
102
{ACAD_REACTORS
330
39
102
}
330
39
100
AcDbScale
 70
     0
300
1:50
140
1.0
141
50.0
290
     0
  0
SCALE
  5
4E
102
{ACAD_REACTORS
330
39
102
}
330
39
100
AcDbScale
 70
     0
300
1:100
140
1.0
141
100.0
290
     0
  0
SCALE
  5
4F
102
{ACAD_REACTORS
330
39
102
}
330
39
100
AcDbScale
 70
     0
300
2:1
140
2.0
141
1.0
290
     0
  0
SCALE
  5
50
102
{ACAD_REACTORS
330
39
102
}
330
39
100
AcDbScale
 70
     0
300
4:1
140
4.0
141
1.0
290
     0
  0
SCALE
  5
51
102
{ACAD_REACTORS
330
39
102
}
330
39
100
AcDbScale
 70
     0
300
8:1
140
8.0
141
1.0
290
     0
  0
SCALE
  5
52
102
{ACAD_REACTORS
330
39
102
}
330
39
100
AcDbScale
 70
     0
300
10:1
140
10.0
141
1.0
290
     0
  0
SCALE
  5
53
102
{ACAD_REACTORS
330
39
102
}
330
39
100
AcDbScale
 70
     0
300
100:1
140
100.0
141
1.0
290
     0
  0
SCALE
  5
54
102
{ACAD_REACTORS
330
39
102
}
330
39
100
AcDbScale
 70
     0
300
1/128" = 1'-0"
140
0.0078125
141
12.0
290
     0
  0
SCALE
  5
55
102
{ACAD_REACTORS
330
39
102
}
330
39
100
AcDbScale
 70
     0
300
1/64" = 1'-0"
140
0.015625
141
12.0
290
     0
  0
SCALE
  5
56
102
{ACAD_REACTORS
330
39
102
}
330
39
100
AcDbScale
 70
     0
300
1/32" = 1'-0"
140
0.03125
141
12.0
290
     0
  0
SCALE
  5
57
102
{ACAD_REACTORS
330
39
102
}
330
39
100
AcDbScale
 70
     0
300
1/16" = 1'-0"
140
0.0625
141
12.0
290
     0
  0
SCALE
  5
58
102
{ACAD_REACTORS
330
39
102
}
330
39
100
AcDbScale
 70
     0
300
3/32" = 1'-0"
140
0.09375
141
12.0
290
     0
  0
SCALE
  5
59
102
{ACAD_REACTORS
330
39
102
}
330
39
100
AcDbScale
 70
     0
300
1/8" = 1'-0"
140
0.125
141
12.0
290
     0
  0
SCALE
  5
5A
102
{ACAD_REACTORS
330
39
102
}
330
39
100
AcDbScale
 70
     0
300
3/16" = 1'-0"
140
0.1875
141
12.0
290
     0
  0
SCALE
  5
5B
102
{ACAD_REACTORS
330
39
102
}
330
39
100
AcDbScale
 70
     0
300
1/4" = 1'-0"
140
0.25
141
12.0
290
     0
  0
SCALE
  5
5C
102
{ACAD_REACTORS
330
39
102
}
330
39
100
AcDbScale
 70
     0
300
3/8" = 1'-0"
140
0.375
141
12.0
290
     0
  0
SCALE
  5
5D
102
{ACAD_REACTORS
330
39
102
}
330
39
100
AcDbScale
 70
     0
300
1/2" = 1'-0"
140
0.5
141
12.0
290
     0
  0
SCALE
  5
5E
102
{ACAD_REACTORS
330
39
102
}
330
39
100
AcDbScale
 70
     0
300
3/4" = 1'-0"
140
0.75
141
12.0
290
     0
  0
SCALE
  5
5F
102
{ACAD_REACTORS
330
39
102
}
330
39
100
AcDbScale
 70
     0
300
1" = 1'-0"
140
1.0
141
12.0
290
     0
  0
SCALE
  5
60
102
{ACAD_REACTORS
330
39
102
}
330
39
100
AcDbScale
 70
     0
300
1-1/2" = 1'-0"
140
1.5
141
12.0
290
     0
  0
SCALE
  5
61
102
{ACAD_REACTORS
330
39
102
}
330
39
100
AcDbScale
 70
     0
300
3" = 1'-0"
140
3.0
141
12.0
290
     0
  0
SCALE
  5
62
102
{ACAD_REACTORS
330
39
102
}
330
39
100
AcDbScale
 70
     0
300
6" = 1'-0"
140
6.0
141
12.0
290
     0
  0
SCALE
  5
63
102
{ACAD_REACTORS
330
39
102
}
330
39
100
AcDbScale
 70
     0
300
1'-0" = 1'-0"
140
12.0
141
12.0
290
     1
  0
TABLESTYLE
  5
3F
102
{ACAD_XDICTIONARY
360
40
102
}
102
{ACAD_REACTORS
330
3A
102
}
330
3A
100
AcDbTableStyle
  3
Standard
 70
     0
 71
     0
 40
0.06
 41
0.06
280
     0
281
     0
  7
Standard
140
0.18
170
     2
 62
     0
 63
     7
283
     0
274
    -2
284
     1
 64
     0
275
    -2
285
     1
 65
     0
276
    -2
286
     1
 66
     0
277
    -2
287
     1
 67
     0
278
    -2
288
     1
 68
     0
279
    -2
289
     1
 69
     0
  7
Standard
140
0.25
170
     5
 62
     0
 63
     7
283
     0
274
    -2
284
     1
 64
     0
275
    -2
285
     1
 65
     0
276
    -2
286
     1
 66
     0
277
    -2
287
     1
 67
     0
278
    -2
288
     1
 68
     0
279
    -2
289
     1
 69
     0
  7
Standard
140
0.18
170
     5
 62
     0
 63
     7
283
     0
274
    -2
284
     1
 64
     0
275
    -2
285
     1
 65
     0
276
    -2
286
     1
 66
     0
277
    -2
287
     1
 67
     0
278
    -2
288
     1
 68
     0
279
    -2
289
     1
 69
     0
  0
VISUALSTYLE
  5
11
102
{ACAD_REACTORS
330
12
102
}
330
12
100
AcDbVisualStyle
  2
2dWireframe
 70
     4
 71
     0
 72
     2
 73
     0
 90
        0
 40
-0.6
 41
-30.0
 62
     5
 63
     7
 74
     1
 91
        4
 64
     7
 65
   257
 75
     1
175
     1
 42
1.0
 92
        0
 66
   257
 43
1.0
 76
     1
 77
     6
 78
     2
 67
     7
 79
     5
170
     0
171
     0
290
     0
174
     0
 93
        1
 44
0.0
173
     0
291
     0
 45
0.0
1001
ACAD
1000
AcDbSavedByObjectVersion
1070
     0
  0
VISUALSTYLE
  5
1CE
102
{ACAD_REACTORS
330
12
102
}
330
12
100
AcDbVisualStyle
  2
3D Hidden
 70
     6
 71
     1
 72
     2
 73
     2
 90
        0
 40
-0.6
 41
-30.0
 62
     5
 63
     7
 74
     2
 91
        2
 64
     7
 65
   257
 75
     2
175
     1
 42
40.0
 92
        0
 66
   257
 43
1.0
 76
     1
 77
     6
 78
     2
 67
     7
 79
     3
170
     0
171
     0
290
     0
174
     0
 93
        1
 44
0.0
173
     0
291
     0
 45
0.0
1001
ACAD
1000
AcDbSavedByObjectVersion
1070
     0
  0
VISUALSTYLE
  5
42
102
{ACAD_REACTORS
330
12
102
}
330
12
100
AcDbVisualStyle
  2
3dWireframe
 70
     5
 71
     0
 72
     2
 73
     0
 90
        0
 40
-0.6
 41
-30.0
 62
     5
 63
     7
 74
     1
 91
        4
 64
     7
 65
   257
 75
     1
175
     1
 42
1.0
 92
        0
 66
   257
 43
1.0
 76
     1
 77
     6
 78
     2
 67
     7
 79
     5
170
     0
171
     0
290
     0
174
     0
 93
        1
 44
0.0
173
     0
291
     0
 45
0.0
1001
ACAD
1000
AcDbSavedByObjectVersion
1070
     0
  0
VISUALSTYLE
  5
1CD
102
{ACAD_REACTORS
330
12
102
}
330
12
100
AcDbVisualStyle
  2
Basic
 70
     7
 71
     1
 72
     0
 73
     1
 90
        0
 40
-0.6
 41
-30.0
 62
     5
 63
     7
 74
     0
 91
        4
 64
     7
 65
   257
 75
     1
175
     1
 42
1.0
 92
        8
 66
     7
 43
1.0
 76
     1
 77
     6
 78
     2
 67
     7
 79
     5
170
     0
171
     0
290
     0
174
     0
 93
        1
 44
0.0
173
     0
291
     1
 45
0.0
1001
ACAD
1000
AcDbSavedByObjectVersion
1070
     0
  0
VISUALSTYLE
  5
1D1
102
{ACAD_REACTORS
330
12
102
}
330
12
100
AcDbVisualStyle
  2
Brighten
 70
    12
 71
     2
 72
     2
 73
     0
 90
        0
 40
-0.6
 41
-30.0
 62
     5
 63
     7
 74
     1
 91
        4
 64
     7
 65
   257
 75
     1
175
     1
 42
1.0
 92
        8
 66
     7
 43
1.0
 76
     1
 77
     6
 78
     2
 67
     7
 79
     5
170
     0
171
     0
290
     0
174
     0
 93
        1
 44
50.0
173
     0
291
     1
 45
0.0
1001
ACAD
1000
AcDbSavedByObjectVersion
1070
     0
  0
VISUALSTYLE
  5
1D5
102
{ACAD_REACTORS
330
12
102
}
330
12
100
AcDbVisualStyle
  2
ColorChange
 70
    16
 71
     2
 72
     2
 73
     3
 90
        0
 40
-0.6
 41
-30.0
 62
     5
 63
     8
 74
     1
 91
        4
 64
     7
 65
   257
 75
     1
175
     1
 42
1.0
 92
        8
 66
     8
 43
1.0
 76
     1
 77
     6
 78
     2
 67
     7
 79
     5
170
     0
171
     0
290
     0
174
     0
 93
        1
 44
0.0
173
     0
291
     1
 45
0.0
1001
ACAD
1000
AcDbSavedByObjectVersion
1070
     0
  0
VISUALSTYLE
  5
1CF
102
{ACAD_REACTORS
330
12
102
}
330
12
100
AcDbVisualStyle
  2
Conceptual
 70
     9
 71
     3
 72
     2
 73
     0
 90
        0
 40
-0.6
 41
-30.0
 62
     5
 63
     7
 74
     2
 91
        2
 64
     7
 65
   257
 75
     1
175
     1
 42
40.0
 92
        8
 66
     7
 43
1.0
 76
     1
 77
     6
 78
     2
 67
     7
 79
     3
170
     0
171
     0
290
     0
174
     0
 93
        1
 44
0.0
173
     0
291
     0
 45
0.0
1001
ACAD
1000
AcDbSavedByObjectVersion
1070
     0
  0
VISUALSTYLE
  5
1D0
102
{ACAD_REACTORS
330
12
102
}
330
12
100
AcDbVisualStyle
  2
Dim
 70
    11
 71
     2
 72
     2
 73
     0
 90
        0
 40
-0.6
 41
-30.0
 62
     5
 63
     7
 74
     1
 91
        4
 64
     7
 65
   257
 75
     1
175
     1
 42
1.0
 92
        8
 66
     7
 43
1.0
 76
     1
 77
     6
 78
     2
 67
     7
 79
     5
170
     0
171
     0
290
     0
174
     0
 93
        1
 44
-50.0
173
     0
291
     1
 45
0.0
1001
ACAD
1000
AcDbSavedByObjectVersion
1070
     0
  0
VISUALSTYLE
  5
1D4
102
{ACAD_REACTORS
330
12
102
}
330
12
100
AcDbVisualStyle
  2
Facepattern
 70
    15
 71
     2
 72
     2
 73
     0
 90
        0
 40
-0.6
 41
-30.0
 62
     5
 63
     7
 74
     1
 91
        4
 64
     7
 65
   257
 75
     1
175
     1
 42
1.0
 92
        8
 66
     7
 43
1.0
 76
     1
 77
     6
 78
     2
 67
     7
 79
     5
170
     0
171
     0
290
     0
174
     0
 93
        1
 44
0.0
173
     0
291
     1
 45
0.0
1001
ACAD
1000
AcDbSavedByObjectVersion
1070
     0
  0
VISUALSTYLE
  5
1C9
102
{ACAD_REACTORS
330
12
102
}
330
12
100
AcDbVisualStyle
  2
Flat
 70
     0
 71
     2
 72
     1
 73
     1
 90
        2
 40
-0.6
 41
30.0
 62
     5
 63
     7
 74
     0
 91
        4
 64
     7
 65
   257
 75
     1
175
     1
 42
1.0
 92
        8
 66
     7
 43
1.0
 76
     1
 77
     6
 78
     2
 67
     7
 79
     5
170
     0
171
     0
290
     0
174
     0
 93
       13
 44
0.0
173
     0
291
     1
 45
0.0
1001
ACAD
1000
AcDbSavedByObjectVersion
1070
     0
  0
VISUALSTYLE
  5
1CA
102
{ACAD_REACTORS
330
12
102
}
330
12
100
AcDbVisualStyle
  2
FlatWithEdges
 70
     1
 71
     2
 72
     1
 73
     1
 90
        2
 40
-0.6
 41
30.0
 62
     5
 63
     7
 74
     1
 91
        4
 64
     7
 65
   257
 75
     1
175
     1
 42
1.0
 92
        0
 66
   257
 43
1.0
 76
     1
 77
     6
 78
     2
 67
     7
 79
     5
170
     0
171
     0
290
     0
174
     0
 93
       13
 44
0.0
173
     0
291
     1
 45
0.0
1001
ACAD
1000
AcDbSavedByObjectVersion
1070
     0
  0
VISUALSTYLE
  5
1CB
102
{ACAD_REACTORS
330
12
102
}
330
12
100
AcDbVisualStyle
  2
Gouraud
 70
     2
 71
     2
 72
     2
 73
     1
 90
        2
 40
-0.6
 41
30.0
 62
     5
 63
     7
 74
     0
 91
        4
 64
     7
 65
   257
 75
     1
175
     1
 42
1.0
 92
        0
 66
     7
 43
1.0
 76
     1
 77
     6
 78
     2
 67
     7
 79
     5
170
     0
171
     0
290
     0
174
     0
 93
       13
 44
0.0
173
     0
291
     1
 45
0.0
1001
ACAD
1000
AcDbSavedByObjectVersion
1070
     0
  0
VISUALSTYLE
  5
1CC
102
{ACAD_REACTORS
330
12
102
}
330
12
100
AcDbVisualStyle
  2
GouraudWithEdges
 70
     3
 71
     2
 72
     2
 73
     1
 90
        2
 40
-0.6
 41
30.0
 62
     5
 63
     7
 74
     1
 91
        4
 64
     7
 65
   257
 75
     1
175
     1
 42
1.0
 92
        0
 66
   257
 43
1.0
 76
     1
 77
     6
 78
     2
 67
     7
 79
     5
170
     0
171
     0
290
     0
174
     0
 93
       13
 44
0.0
173
     0
291
     1
 45
0.0
1001
ACAD
1000
AcDbSavedByObjectVersion
1070
     0
  0
VISUALSTYLE
  5
1D3
102
{ACAD_REACTORS
330
12
102
}
330
12
100
AcDbVisualStyle
  2
Linepattern
 70
    14
 71
     2
 72
     2
 73
     0
 90
        0
 40
-0.6
 41
-30.0
 62
     5
 63
     7
 74
     1
 91
        4
 64
     7
 65
   257
 75
     7
175
     7
 42
1.0
 92
        8
 66
     7
 43
1.0
 76
     1
 77
     6
 78
     2
 67
     7
 79
     5
170
     0
171
     0
290
     0
174
     0
 93
        1
 44
0.0
173
     0
291
     1
 45
0.0
1001
ACAD
1000
AcDbSavedByObjectVersion
1070
     0
  0
VISUALSTYLE
  5
41
102
{ACAD_REACTORS
330
12
102
}
330
12
100
AcDbVisualStyle
  2
Realistic
 70
     8
 71
     2
 72
     2
 73
     0
 90
        0
 40
-0.6
 41
-30.0
 62
     5
 63
     7
 74
     1
 91
        0
 64
     7
 65
   257
 75
     1
175
     1
 42
1.0
 92
        8
 66
     8
 43
1.0
 76
     1
 77
     6
 78
     2
 67
     7
 79
     5
170
     0
171
     0
290
     0
174
     0
 93
       13
 44
0.0
173
     0
291
     0
 45
0.0
1001
ACAD
1000
AcDbSavedByObjectVersion
1070
     0
  0
VISUALSTYLE
  5
1D2
102
{ACAD_REACTORS
330
12
102
}
330
12
100
AcDbVisualStyle
  2
Thicken
 70
    13
 71
     2
 72
     2
 73
     0
 90
        0
 40
-0.6
 41
-30.0
 62
     5
 63
     7
 74
     1
 91
        4
 64
     7
 65
   257
 75
     1
175
     1
 42
1.0
 92
       12
 66
     7
 43
1.0
 76
     1
 77
     6
 78
     2
 67
     7
 79
     5
170
     0
171
     0
290
     0
174
     0
 93
        1
 44
0.0
173
     0
291
     1
 45
0.0
1001
ACAD
1000
AcDbSavedByObjectVersion
1070
     0
  0
DICTIONARYVAR
  5
1C4
102
{ACAD_REACTORS
330
1C1
102
}
330
1C1
100
DictionaryVariables
280
     0
  1
1/8" = 1'-0"
  0
DICTIONARYVAR
  5
1C3
102
{ACAD_REACTORS
330
1C1
102
}
330
1C1
100
DictionaryVariables
280
     0
  1
STANDARD
  0
DICTIONARYVAR
  5
1C2
102
{ACAD_REACTORS
330
1C1
102
}
330
1C1
100
DictionaryVariables
280
     0
  1
STANDARD
  0
DICTIONARYVAR
  5
301
102
{ACAD_REACTORS
330
1C1
102
}
330
1C1
100
DictionaryVariables
280
     0
  1
1
  0
DICTIONARYVAR
  5
300
102
{ACAD_REACTORS
330
1C1
102
}
330
1C1
100
DictionaryVariables
280
     0
  1
1
  0
DICTIONARYVAR
  5
2FF
102
{ACAD_REACTORS
330
1C1
102
}
330
1C1
100
DictionaryVariables
280
     0
  1
0
  0
DICTIONARYVAR
  5
1C6
102
{ACAD_REACTORS
330
1C1
102
}
330
1C1
100
DictionaryVariables
280
     0
  1
1
  0
DICTIONARYVAR
  5
1C7
102
{ACAD_REACTORS
330
1C1
102
}
330
1C1
100
DictionaryVariables
280
     0
  1
15
  0
DICTIONARYVAR
  5
1C5
102
{ACAD_REACTORS
330
1C1
102
}
330
1C1
100
DictionaryVariables
280
     0
  1
0
  0
DICTIONARYVAR
  5
2FD
102
{ACAD_REACTORS
330
1C1
102
}
330
1C1
100
DictionaryVariables
280
     0
  1
1
  0
DICTIONARYVAR
  5
2FE
102
{ACAD_REACTORS
330
1C1
102
}
330
1C1
100
DictionaryVariables
280
     0
  1
127
  0
XRECORD
  5
1BE
102
{ACAD_REACTORS
330
1BC
102
}
330
1BC
100
AcDbXrecord
280
     1
330
C9
330
CA
330
B5
330
B6
330
AA
330
AB
330
9F
330
A0
330
92
330
93
330
86
330
87
330
119
330
11A
330
13F
330
140
330
134
330
135
330
129
330
12A
330
16C
330
16D
330
161
330
162
330
1AA
330
1AB
330
14A
330
14B
330
1E6
330
1E7
330
1F0
330
1F1
330
1FA
330
1FB
330
204
330
205
330
210
330
211
330
21A
330
21B
330
224
330
225
330
2C1
330
2C2
330
2C8
330
2C9
330
2D1
330
2D2
330
2D8
330
2D9
330
2DF
330
2E0
330
2E6
330
2E7
330
2ED
330
2EE
  0
DICTIONARY
  5
308
330
16
100
AcDbDictionary
280
     1
281
     1
  3
ACAD_XREC_ROUNDTRIP
360
309
  0
DICTIONARY
  5
306
330
E
100
AcDbDictionary
280
     1
281
     1
  3
ACAD_XREC_ROUNDTRIP
360
307
  0
DICTIONARY
  5
30C
330
37
100
AcDbDictionary
280
     1
281
     1
  3
ACAD_XREC_ROUNDTRIP
360
30D
  0
DICTIONARY
  5
30A
330
36
100
AcDbDictionary
280
     1
281
     1
  3
ACAD_XREC_ROUNDTRIP
360
30B
  0
DICTIONARY
  5
304
330
A
100
AcDbDictionary
280
     1
281
     1
  3
ACAD_XREC_ROUNDTRIP
360
305
  0
DICTIONARY
  5
40
330
3F
100
AcDbDictionary
280
     1
281
     1
  3
ACAD_ROUNDTRIP_2008_TABLESTYLE_CELLSTYLEMAP
360
302
  3
ACAD_XREC_ROUNDTRIP
360
30E
  0
XRECORD
  5
309
102
{ACAD_REACTORS
330
308
102
}
330
308
100
AcDbXrecord
280
     1
102
SHADEPLOT
 70
     0
102
SHADEPLOTRESLEVEL
 70
     2
102
SHADEPLOTCUSTOMDPI
 70
   300
  0
XRECORD
  5
307
102
{ACAD_REACTORS
330
306
102
}
330
306
100
AcDbXrecord
280
     1
102
SHADEPLOT
 70
     1
102
SHADEPLOTRESLEVEL
 70
     2
102
SHADEPLOTCUSTOMDPI
 70
   300
  0
XRECORD
  5
30D
102
{ACAD_REACTORS
330
30C
102
}
330
30C
100
AcDbXrecord
280
     1
102
MATERIAL
148
0.0
149
0.0
149
0.0
 93
        0
 94
       63
282
     0
 72
     1
 77
     1
171
     1
175
     1
179
     1
273
     0
  0
XRECORD
  5
30B
102
{ACAD_REACTORS
330
30A
102
}
330
30A
100
AcDbXrecord
280
     1
102
MATERIAL
148
0.0
149
0.0
149
0.0
 93
        0
 94
       63
282
     0
 72
     1
 77
     1
171
     1
175
     1
179
     1
273
     0
  0
XRECORD
  5
305
102
{ACAD_REACTORS
330
304
102
}
330
304
100
AcDbXrecord
280
     1
102
MATERIAL
148
0.0
149
0.0
149
0.0
 93
        0
 94
       63
282
     0
 72
     1
 77
     1
171
     1
175
     1
179
     1
273
     0
  0
CELLSTYLEMAP
  5
302
102
{ACAD_REACTORS
330
40
102
}
330
40
100
AcDbCellStyleMap
 90
        3
300
CELLSTYLE
  1
TABLEFORMAT_BEGIN
 90
        5
170
     1
 91
        0
 92
    32768
 62
   257
 93
        1
300
CONTENTFORMAT
  1
CONTENTFORMAT_BEGIN
 90
        0
 91
        0
 92
        4
 93
        0
300

 40
0.0
140
1.0
 94
        5
 62
     0
340
1B
144
0.25
309
CONTENTFORMAT_END
171
     0
 94
        6
 95
        1
302
GRIDFORMAT
  1
GRIDFORMAT_BEGIN
 90
        0
 91
        1
 62
     0
 92
       -2
340
0
 93
        0
 40
0.045
309
GRIDFORMAT_END
 95
        2
302
GRIDFORMAT
  1
GRIDFORMAT_BEGIN
 90
        0
 91
        1
 62
     0
 92
       -2
340
0
 93
        0
 40
0.045
309
GRIDFORMAT_END
 95
        4
302
GRIDFORMAT
  1
GRIDFORMAT_BEGIN
 90
        0
 91
        1
 62
     0
 92
       -2
340
0
 93
        0
 40
0.045
309
GRIDFORMAT_END
 95
        8
302
GRIDFORMAT
  1
GRIDFORMAT_BEGIN
 90
        0
 91
        1
 62
     0
 92
       -2
340
0
 93
        0
 40
0.045
309
GRIDFORMAT_END
 95
       16
302
GRIDFORMAT
  1
GRIDFORMAT_BEGIN
 90
        0
 91
        1
 62
     0
 92
       -2
340
0
 93
        0
 40
0.045
309
GRIDFORMAT_END
 95
       32
302
GRIDFORMAT
  1
GRIDFORMAT_BEGIN
 90
        0
 91
        1
 62
     0
 92
       -2
340
0
 93
        0
 40
0.045
309
GRIDFORMAT_END
309
TABLEFORMAT_END
  1
CELLSTYLE_BEGIN
 90
        1
 91
        1
300
_TITLE
309
CELLSTYLE_END
300
CELLSTYLE
  1
TABLEFORMAT_BEGIN
 90
        5
170
     1
 91
        0
 92
        0
 62
   257
 93
        1
300
CONTENTFORMAT
  1
CONTENTFORMAT_BEGIN
 90
        0
 91
        0
 92
        4
 93
        0
300

 40
0.0
140
1.0
 94
        5
 62
     0
340
1B
144
0.18
309
CONTENTFORMAT_END
171
     0
 94
        6
 95
        1
302
GRIDFORMAT
  1
GRIDFORMAT_BEGIN
 90
        0
 91
        1
 62
     0
 92
       -2
340
0
 93
        0
 40
0.045
309
GRIDFORMAT_END
 95
        2
302
GRIDFORMAT
  1
GRIDFORMAT_BEGIN
 90
        0
 91
        1
 62
     0
 92
       -2
340
0
 93
        0
 40
0.045
309
GRIDFORMAT_END
 95
        4
302
GRIDFORMAT
  1
GRIDFORMAT_BEGIN
 90
        0
 91
        1
 62
     0
 92
       -2
340
0
 93
        0
 40
0.045
309
GRIDFORMAT_END
 95
        8
302
GRIDFORMAT
  1
GRIDFORMAT_BEGIN
 90
        0
 91
        1
 62
     0
 92
       -2
340
0
 93
        0
 40
0.045
309
GRIDFORMAT_END
 95
       16
302
GRIDFORMAT
  1
GRIDFORMAT_BEGIN
 90
        0
 91
        1
 62
     0
 92
       -2
340
0
 93
        0
 40
0.045
309
GRIDFORMAT_END
 95
       32
302
GRIDFORMAT
  1
GRIDFORMAT_BEGIN
 90
        0
 91
        1
 62
     0
 92
       -2
340
0
 93
        0
 40
0.045
309
GRIDFORMAT_END
309
TABLEFORMAT_END
  1
CELLSTYLE_BEGIN
 90
        2
 91
        1
300
_HEADER
309
CELLSTYLE_END
300
CELLSTYLE
  1
TABLEFORMAT_BEGIN
 90
        5
170
     1
 91
        0
 92
        0
 62
   257
 93
        1
300
CONTENTFORMAT
  1
CONTENTFORMAT_BEGIN
 90
        0
 91
        0
 92
        4
 93
        0
300

 40
0.0
140
1.0
 94
        2
 62
     0
340
1B
144
0.18
309
CONTENTFORMAT_END
171
     0
 94
        6
 95
        1
302
GRIDFORMAT
  1
GRIDFORMAT_BEGIN
 90
        0
 91
        1
 62
     0
 92
       -2
340
0
 93
        0
 40
0.045
309
GRIDFORMAT_END
 95
        2
302
GRIDFORMAT
  1
GRIDFORMAT_BEGIN
 90
        0
 91
        1
 62
     0
 92
       -2
340
0
 93
        0
 40
0.045
309
GRIDFORMAT_END
 95
        4
302
GRIDFORMAT
  1
GRIDFORMAT_BEGIN
 90
        0
 91
        1
 62
     0
 92
       -2
340
0
 93
        0
 40
0.045
309
GRIDFORMAT_END
 95
        8
302
GRIDFORMAT
  1
GRIDFORMAT_BEGIN
 90
        0
 91
        1
 62
     0
 92
       -2
340
0
 93
        0
 40
0.045
309
GRIDFORMAT_END
 95
       16
302
GRIDFORMAT
  1
GRIDFORMAT_BEGIN
 90
        0
 91
        1
 62
     0
 92
       -2
340
0
 93
        0
 40
0.045
309
GRIDFORMAT_END
 95
       32
302
GRIDFORMAT
  1
GRIDFORMAT_BEGIN
 90
        0
 91
        1
 62
     0
 92
       -2
340
0
 93
        0
 40
0.045
309
GRIDFORMAT_END
309
TABLEFORMAT_END
  1
CELLSTYLE_BEGIN
 90
        3
 91
        2
300
_DATA
309
CELLSTYLE_END
  0
XRECORD
  5
30E
102
{ACAD_REACTORS
330
40
102
}
330
40
100
AcDbXrecord
280
     1
102
ACAD_ROUNDTRIP_PRE2007_TABLESTYLE
 90
        4
 91
        0
  1

 92
        4
 93
        0
  2

 94
        4
 95
        0
  3

  0
ENDSEC
  0
EOF
