  0
SECTION
  2
HEADER
  9
$ACADVER
  1
AC1015
  9
$ACADMAINTVER
 70
    18
  9
$DWGCODEPAGE
  3
ANSI_1250
  9
$INSBASE
 10
215187.233673673
 20
127657.5168525552
 30
0.0
  9
$EXTMIN
 10
1.000000000000000E+20
 20
1.000000000000000E+20
 30
1.000000000000000E+20
  9
$EXTMAX
 10
0.0
 20
0.0
 30
0.0
  9
$LIMMIN
 10
0.0
 20
0.0
  9
$LIMMAX
 10
420.0
 20
297.0
  9
$ORTHOMODE
 70
     0
  9
$REGENMODE
 70
     1
  9
$FILLMODE
 70
     1
  9
$QTEXTMODE
 70
     0
  9
$MIRRTEXT
 70
     0
  9
$LTSCALE
 40
75.0
  9
$ATTMODE
 70
     1
  9
$TEXTSIZE
 40
20.0
  9
$TRACEWID
 40
1.0
  9
$TEXTSTYLE
  7
ROMANS
  9
$CLAYER
  8
0Wymiary-PL
  9
$CELTYPE
  6
ByLayer
  9
$CECOLOR
 62
   256
  9
$CELTSCALE
 40
1.0
  9
$DISPSILH
 70
     0
  9
$DIMSCALE
 40
1.0
  9
$DIMASZ
 40
30.0
  9
$DIMEXO
 40
43.0
  9
$DIMDLI
 40
0.0
  9
$DIMRND
 40
0.5
  9
$DIMDLE
 40
12.0
  9
$DIMEXE
 40
13.0
  9
$DIMTP
 40
0.0
  9
$DIMTM
 40
0.0
  9
$DIMTXT
 40
80.0
  9
$DIMCEN
 40
0.0
  9
$DIMTSZ
 40
0.0
  9
$DIMTOL
 70
     0
  9
$DIMLIM
 70
     0
  9
$DIMTIH
 70
     0
  9
$DIMTOH
 70
     0
  9
$DIMSE1
 70
     1
  9
$DIMSE2
 70
     1
  9
$DIMTAD
 70
     0
  9
$DIMZIN
 70
    12
  9
$DIMBLK
  1
B-DIM
  9
$DIMASO
 70
     1
  9
$DIMSHO
 70
     1
  9
$DIMPOST
  1

  9
$DIMAPOST
  1

  9
$DIMALT
 70
     0
  9
$DIMALTD
 70
     2
  9
$DIMALTF
 40
25.4
  9
$DIMLFAC
 40
1.0
  9
$DIMTOFL
 70
     1
  9
$DIMTVP
 40
1.0
  9
$DIMTIX
 70
     1
  9
$DIMSOXD
 70
     0
  9
$DIMSAH
 70
     0
  9
$DIMBLK1
  1

  9
$DIMBLK2
  1

  9
$DIMSTYLE
  2
500
  9
$DIMCLRD
 70
     1
  9
$DIMCLRE
 70
     1
  9
$DIMCLRT
 70
   140
  9
$DIMTFAC
 40
1.0
  9
$DIMGAP
 40
0.0
  9
$DIMJUST
 70
     0
  9
$DIMSD1
 70
     0
  9
$DIMSD2
 70
     0
  9
$DIMTOLJ
 70
     1
  9
$DIMTZIN
 70
     0
  9
$DIMALTZ
 70
     0
  9
$DIMALTTZ
 70
     0
  9
$DIMUPT
 70
     0
  9
$DIMDEC
 70
     1
  9
$DIMTDEC
 70
     1
  9
$DIMALTU
 70
     2
  9
$DIMALTTD
 70
     2
  9
$DIMTXSTY
  7
ROMANS
  9
$DIMAUNIT
 70
     0
  9
$DIMADEC
 70
     0
  9
$DIMALTRND
 40
0.0
  9
$DIMAZIN
 70
     0
  9
$DIMDSEP
 70
    46
  9
$DIMATFIT
 70
     3
  9
$DIMFRAC
 70
     0
  9
$DIMLDRBLK
  1
B-DIM
  9
$DIMLUNIT
 70
     2
  9
$DIMLWD
 70
    -2
  9
$DIMLWE
 70
    -2
  9
$DIMTMOVE
 70
     2
  9
$LUNITS
 70
     2
  9
$LUPREC
 70
     1
  9
$SKETCHINC
 40
1.0
  9
$FILLETRAD
 40
0.0
  9
$AUNITS
 70
     0
  9
$AUPREC
 70
     0
  9
$MENU
  1
.
  9
$ELEVATION
 40
0.0
  9
$PELEVATION
 40
0.0
  9
$THICKNESS
 40
0.0
  9
$LIMCHECK
 70
     0
  9
$CHAMFERA
 40
0.0
  9
$CHAMFERB
 40
0.0
  9
$CHAMFERC
 40
20.0
  9
$CHAMFERD
 40
0.0
  9
$SKPOLY
 70
     0
  9
$TDCREATE
 40
2452027.670547454
  9
$TDUCREATE
 40
2452027.587214121
  9
$TDUPDATE
 40
2455421.467970371
  9
$TDUUPDATE
 40
2455421.384637037
  9
$TDINDWG
 40
7.6750305440
  9
$TDUSRTIMER
 40
7.6750305440
  9
$USRTIMER
 70
     1
  9
$ANGBASE
 50
0.0
  9
$ANGDIR
 70
     0
  9
$PDMODE
 70
     0
  9
$PDSIZE
 40
0.0
  9
$PLINEWID
 40
0.0
  9
$SPLFRAME
 70
     0
  9
$SPLINETYPE
 70
     6
  9
$SPLINESEGS
 70
     8
  9
$HANDSEED
  5
206
  9
$SURFTAB1
 70
     6
  9
$SURFTAB2
 70
     6
  9
$SURFTYPE
 70
     6
  9
$SURFU
 70
     6
  9
$SURFV
 70
     6
  9
$UCSBASE
  2

  9
$UCSNAME
  2

  9
$UCSORG
 10
0.0
 20
0.0
 30
0.0
  9
$UCSXDIR
 10
1.0
 20
0.0
 30
0.0
  9
$UCSYDIR
 10
0.0
 20
1.0
 30
0.0
  9
$UCSORTHOREF
  2

  9
$UCSORTHOVIEW
 70
     0
  9
$UCSORGTOP
 10
0.0
 20
0.0
 30
0.0
  9
$UCSORGBOTTOM
 10
0.0
 20
0.0
 30
0.0
  9
$UCSORGLEFT
 10
0.0
 20
0.0
 30
0.0
  9
$UCSORGRIGHT
 10
0.0
 20
0.0
 30
0.0
  9
$UCSORGFRONT
 10
0.0
 20
0.0
 30
0.0
  9
$UCSORGBACK
 10
0.0
 20
0.0
 30
0.0
  9
$PUCSBASE
  2

  9
$PUCSNAME
  2

  9
$PUCSORG
 10
0.0
 20
0.0
 30
0.0
  9
$PUCSXDIR
 10
1.0
 20
0.0
 30
0.0
  9
$PUCSYDIR
 10
0.0
 20
1.0
 30
0.0
  9
$PUCSORTHOREF
  2

  9
$PUCSORTHOVIEW
 70
     0
  9
$PUCSORGTOP
 10
0.0
 20
0.0
 30
0.0
  9
$PUCSORGBOTTOM
 10
0.0
 20
0.0
 30
0.0
  9
$PUCSORGLEFT
 10
0.0
 20
0.0
 30
0.0
  9
$PUCSORGRIGHT
 10
0.0
 20
0.0
 30
0.0
  9
$PUCSORGFRONT
 10
0.0
 20
0.0
 30
0.0
  9
$PUCSORGBACK
 10
0.0
 20
0.0
 30
0.0
  9
$USERI1
 70
     0
  9
$USERI2
 70
     0
  9
$USERI3
 70
     0
  9
$USERI4
 70
     0
  9
$USERI5
 70
     0
  9
$USERR1
 40
0.0
  9
$USERR2
 40
0.0
  9
$USERR3
 40
0.0
  9
$USERR4
 40
0.0
  9
$USERR5
 40
0.0
  9
$WORLDVIEW
 70
     1
  9
$SHADEDGE
 70
     3
  9
$SHADEDIF
 70
    70
  9
$TILEMODE
 70
     1
  9
$MAXACTVP
 70
    64
  9
$PINSBASE
 10
0.0
 20
0.0
 30
0.0
  9
$PLIMCHECK
 70
     0
  9
$PEXTMIN
 10
1.000000000000000E+20
 20
1.000000000000000E+20
 30
1.000000000000000E+20
  9
$PEXTMAX
 10
-1.000000000000000E+20
 20
-1.000000000000000E+20
 30
-1.000000000000000E+20
  9
$PLIMMIN
 10
0.0
 20
0.0
  9
$PLIMMAX
 10
420.0
 20
297.0
  9
$UNITMODE
 70
     0
  9
$VISRETAIN
 70
     1
  9
$PLINEGEN
 70
     0
  9
$PSLTSCALE
 70
     1
  9
$TREEDEPTH
 70
  3020
  9
$CMLSTYLE
  2
Standard
  9
$CMLJUST
 70
     0
  9
$CMLSCALE
 40
20.0
  9
$PROXYGRAPHICS
 70
     1
  9
$MEASUREMENT
 70
     0
  9
$CELWEIGHT
370
    -1
  9
$ENDCAPS
280
     0
  9
$JOINSTYLE
280
     0
  9
$LWDISPLAY
290
     0
  9
$INSUNITS
 70
     5
  9
$HYPERLINKBASE
  1

  9
$STYLESHEET
  1

  9
$XEDIT
290
     1
  9
$CEPSNTYPE
380
     0
  9
$PSTYLEMODE
290
     1
  9
$FINGERPRINTGUID
  2
{1BACDDE0-5A10-433A-B810-23848139A41C}
  9
$VERSIONGUID
  2
{15DA224D-5803-4A05-9B16-24B991145830}
  9
$EXTNAMES
290
     1
  9
$PSVPSCALE
 40
0.0
  9
$OLESTARTUP
290
     0
  0
ENDSEC
  0
SECTION
  2
CLASSES
  0
CLASS
  1
ACDBDICTIONARYWDFLT
  2
AcDbDictionaryWithDefault
  3
ObjectDBX Classes
 90
        0
280
     0
281
     0
  0
CLASS
  1
ACDBPLACEHOLDER
  2
AcDbPlaceHolder
  3
ObjectDBX Classes
 90
        0
280
     0
281
     0
  0
CLASS
  1
LAYOUT
  2
AcDbLayout
  3
ObjectDBX Classes
 90
        0
280
     0
281
     0
  0
CLASS
  1
DICTIONARYVAR
  2
AcDbDictionaryVar
  3
ObjectDBX Classes
 90
        0
280
     0
281
     0
  0
CLASS
  1
SORTENTSTABLE
  2
AcDbSortentsTable
  3
ObjectDBX Classes
 90
        0
280
     0
281
     0
  0
CLASS
  1
AEC_VARS_DWG_SETUP
  2
AecDbVarsDwgSetup
  3
AecBase50|Product Desc: Autodesk Architectural Desktop 2007 |Company: Autodesk,Inc. |WEB Address: www.autodesk.com
 90
    32897
280
     0
281
     0
  0
CLASS
  1
AEC_DISP_REP_CONFIG
  2
AecDbDispRepConfig
  3
AecBase50|Product Desc: Autodesk Architectural Desktop 2007 |Company: Autodesk,Inc. |WEB Address: www.autodesk.com
 90
    32897
280
     0
281
     0
  0
CLASS
  1
AEC_DISP_REP_SET
  2
AecDbDispRepSet
  3
AecBase50|Product Desc: Autodesk Architectural Desktop 2007 |Company: Autodesk,Inc. |WEB Address: www.autodesk.com
 90
    32897
280
     0
281
     0
  0
CLASS
  1
AEC_DISP_REP_2D_SECTION
  2
AecDbDispRep2dSection
  3
AecBase50|Product Desc: Autodesk Architectural Desktop 2007 |Company: Autodesk,Inc. |WEB Address: www.autodesk.com
 90
    32897
280
     0
281
     0
  0
CLASS
  1
AEC_DISP_REP_ANCHOR_BUB_TO_GRID
  2
AecDbDispRepAnchorBubToGrid
  3
AecStructureBase50|Product Desc: Autodesk Architectural Desktop 2007 |Company: Autodesk,Inc. |WEB Address: www.autodesk.com
 90
    32897
280
     0
281
     0
  0
CLASS
  1
AEC_DISP_REP_ANCHOR_BUB_TO_GRID_MODEL
  2
AecDbDispRepAnchorBubToGridMdl
  3
AecStructureBase50|Product Desc: Autodesk Architectural Desktop 2007 |Company: Autodesk,Inc. |WEB Address: www.autodesk.com
 90
    32897
280
     0
281
     0
  0
CLASS
  1
AEC_DISP_REP_ANCHOR_ENT_TO_NODE
  2
AecDbDispRepAnchorEntToNode
  3
AecBaseEx50|Product Desc: Autodesk Architectural Desktop 2007 |Company: Autodesk,Inc. |WEB Address: www.autodesk.com
 90
    32897
280
     0
281
     0
  0
CLASS
  1
AEC_DISP_REP_ANCHOR_TAG_TO_ENT
  2
AecDbDispRepAnchorTagToEnt
  3
AecScheduleData50|Product Desc: Autodesk Architectural Desktop 2007 |Company: Autodesk,Inc. |WEB Address: www.autodesk.com
 90
    32897
280
     0
281
     0
  0
CLASS
  1
AEC_DISP_REP_AREA
  2
AecDbDispRepArea
  3
AecAreaCalculationBase50|Product Desc: Autodesk Architectural Desktop 2007 |Company: Autodesk,Inc. |WEB Address: www.autodesk.com
 90
    32897
280
     0
281
     0
  0
CLASS
  1
AEC_DISP_REP_AREA_DECOMPOSED
  2
AecDbDispRepAreaDecomposed
  3
AecAreaCalculationBase50|Product Desc: Autodesk Architectural Desktop 2007 |Company: Autodesk,Inc. |WEB Address: www.autodesk.com
 90
    32897
280
     0
281
     0
  0
CLASS
  1
AEC_DISP_REP_AREAGROUP
  2
AecDbDispRepAreaGroup
  3
AecAreaCalculationBase50|Product Desc: Autodesk Architectural Desktop 2007 |Company: Autodesk,Inc. |WEB Address: www.autodesk.com
 90
    32897
280
     0
281
     0
  0
CLASS
  1
AEC_DISP_REP_BDG_ELEVLINE_MODEL
  2
AecDbDispRepBdgElevLineModel
  3
AecArchBase50|Product Desc: Autodesk Architectural Desktop 2007 |Company: Autodesk,Inc. |WEB Address: www.autodesk.com
 90
    32897
280
     0
281
     0
  0
CLASS
  1
AEC_DISP_REP_BDG_SECTIONLINE_PLAN
  2
AecDbDispRepBdgElevLinePlan
  3
AecArchBase50|Product Desc: Autodesk Architectural Desktop 2007 |Company: Autodesk,Inc. |WEB Address: www.autodesk.com
 90
    32897
280
     0
281
     0
  0
CLASS
  1
AEC_DISP_REP_BDG_SECTIONLINE_MODEL
  2
AecDbDispRepBdgSectionLineModel
  3
AecArchBase50|Product Desc: Autodesk Architectural Desktop 2007 |Company: Autodesk,Inc. |WEB Address: www.autodesk.com
 90
    32897
280
     0
281
     0
  0
CLASS
  1
AEC_DISP_REP_BDG_SECTIONLINE_PLAN
  2
AecDbDispRepBdgSectionLinePlan
  3
AecArchBase50|Product Desc: Autodesk Architectural Desktop 2007 |Company: Autodesk,Inc. |WEB Address: www.autodesk.com
 90
    32897
280
     0
281
     0
  0
CLASS
  1
AEC_DISP_REP_BDG_SECTION_SUBDIV
  2
AecDbDispRepBdgSectionSubDiv
  3
AecArchBase50|Product Desc: Autodesk Architectural Desktop 2007 |Company: Autodesk,Inc. |WEB Address: www.autodesk.com
 90
    32897
280
     0
281
     0
  0
CLASS
  1
AEC_DISP_REP_CAMERA
  2
AecDbDispRepCamera
  3
AecBase50|Product Desc: Autodesk Architectural Desktop 2007 |Company: Autodesk,Inc. |WEB Address: www.autodesk.com
 90
    32897
280
     0
281
     0
  0
CLASS
  1
AEC_DISP_REP_CEILING_GRID
  2
AecDbDispRepCeilingGrid
  3
AecArchBase50|Product Desc: Autodesk Architectural Desktop 2007 |Company: Autodesk,Inc. |WEB Address: www.autodesk.com
 90
    33661
280
     0
281
     0
  0
CLASS
  1
AEC_DISP_REP_CEILING_GRID_MODEL
  2
AecDbDispRepCeilingGridModel
  3
AecArchBase50|Product Desc: Autodesk Architectural Desktop 2007 |Company: Autodesk,Inc. |WEB Address: www.autodesk.com
 90
    32897
280
     0
281
     0
  0
CLASS
  1
AEC_DISP_REP_CEILING_GRID_RCP
  2
AecDbDispRepCeilingGridRcp
  3
AecArchBase50|Product Desc: Autodesk Architectural Desktop 2007 |Company: Autodesk,Inc. |WEB Address: www.autodesk.com
 90
    32897
280
     0
281
     0
  0
CLASS
  1
AEC_DISP_REP_CLIP_VOLUME_MODEL
  2
AecDbDispRepClipVolModel
  3
AecBase50|Product Desc: Autodesk Architectural Desktop 2007 |Company: Autodesk,Inc. |WEB Address: www.autodesk.com
 90
    32897
280
     0
281
     0
  0
CLASS
  1
AEC_DISP_REP_CLIP_VOLUME_PLAN
  2
AecDbDispRepClipVolPlan
  3
AecBase50|Product Desc: Autodesk Architectural Desktop 2007 |Company: Autodesk,Inc. |WEB Address: www.autodesk.com
 90
    32897
280
     0
281
     0
  0
CLASS
  1
AEC_DISP_REP_CLIP_VOLUME_RESULT_SUBDIV
  2
AecDbDispRepClipVolResSubDiv
  3
AecBase50|Product Desc: Autodesk Architectural Desktop 2007 |Company: Autodesk,Inc. |WEB Address: www.autodesk.com
 90
    32897
280
     0
281
     0
  0
CLASS
  1
AEC_DISP_REP_CLIP_VOLUME_RESULT
  2
AecDbDispRepClipVolResult
  3
AecBase50|Product Desc: Autodesk Architectural Desktop 2007 |Company: Autodesk,Inc. |WEB Address: www.autodesk.com
 90
    32897
280
     0
281
     0
  0
CLASS
  1
AEC_DISP_REP_COLUMN_GRID
  2
AecDbDispRepColumnGrid
  3
AecStructureBase50|Product Desc: Autodesk Architectural Desktop 2007 |Company: Autodesk,Inc. |WEB Address: www.autodesk.com
 90
    32897
280
     0
281
     0
  0
CLASS
  1
AEC_DISP_REP_COLUMN_GRID_MODEL
  2
AecDbDispRepColumnGridModel
  3
AecStructureBase50|Product Desc: Autodesk Architectural Desktop 2007 |Company: Autodesk,Inc. |WEB Address: www.autodesk.com
 90
    32897
280
     0
281
     0
  0
CLASS
  1
AEC_DISP_REP_CURTAIN_WALL_LAYOUT_MODEL
  2
AecDbDispRepCurtainWallLayoutModel
  3
AecArchBase50|Product Desc: Autodesk Architectural Desktop 2007 |Company: Autodesk,Inc. |WEB Address: www.autodesk.com
 90
    32897
280
     0
281
     0
  0
CLASS
  1
AEC_DISP_REP_CURTAIN_WALL_LAYOUT_PLAN
  2
AecDbDispRepCurtainWallLayoutPlan
  3
AecArchBase50|Product Desc: Autodesk Architectural Desktop 2007 |Company: Autodesk,Inc. |WEB Address: www.autodesk.com
 90
    32897
280
     0
281
     0
  0
CLASS
  1
AEC_DISP_REP_CURTAIN_WALL_UNIT_MODEL
  2
AecDbDispRepCurtainWallUnitModel
  3
AecArchBase50|Product Desc: Autodesk Architectural Desktop 2007 |Company: Autodesk,Inc. |WEB Address: www.autodesk.com
 90
    32897
280
     0
281
     0
  0
CLASS
  1
AEC_DISP_REP_CURTAIN_WALL_UNIT_PLAN
  2
AecDbDispRepCurtainWallUnitPlan
  3
AecArchBase50|Product Desc: Autodesk Architectural Desktop 2007 |Company: Autodesk,Inc. |WEB Address: www.autodesk.com
 90
    32897
280
     0
281
     0
  0
CLASS
  1
AEC_DB_DISP_REP_DIM_GROUP_PLAN
  2
AecDbDispRepDimGroupPlan
  3
AecArchDACHBase50|Product Desc: Autodesk Architectural Desktop 2007 |Company: Autodesk,Inc. |WEB Address: www.autodesk.com
 90
    32897
280
     0
281
     0
  0
CLASS
  1
AEC_DISP_REP_DOOR_MODEL
  2
AecDbDispRepDoorModel
  3
AecArchBase50|Product Desc: Autodesk Architectural Desktop 2007 |Company: Autodesk,Inc. |WEB Address: www.autodesk.com
 90
    32897
280
     0
281
     0
  0
CLASS
  1
AEC_DISP_REP_DOOR_NOMINAL
  2
AecDbDispRepDoorNominal
  3
AecArchBase50|Product Desc: Autodesk Architectural Desktop 2007 |Company: Autodesk,Inc. |WEB Address: www.autodesk.com
 90
    32897
280
     0
281
     0
  0
CLASS
  1
AEC_DISP_REP_DOOR_PLAN
  2
AecDbDispRepDoorPlan
  3
AecArchBase50|Product Desc: Autodesk Architectural Desktop 2007 |Company: Autodesk,Inc. |WEB Address: www.autodesk.com
 90
    32897
280
     0
281
     0
  0
CLASS
  1
AEC_DISP_REP_EDITINPLACEPROFILE
  2
AecDbDispRepEditInPlaceProfile
  3
AecBase50|Product Desc: Autodesk Architectural Desktop 2007 |Company: Autodesk,Inc. |WEB Address: www.autodesk.com
 90
    32897
280
     0
281
     0
  0
CLASS
  1
AEC_DISP_REP_ENT_REF
  2
AecDbDispRepEntRef
  3
AecBase50|Product Desc: Autodesk Architectural Desktop 2007 |Company: Autodesk,Inc. |WEB Address: www.autodesk.com
 90
    32897
280
     0
281
     0
  0
CLASS
  1
AEC_DISP_REP_LAYOUT_CURVE
  2
AecDbDispRepLayoutCurve
  3
AecBase50|Product Desc: Autodesk Architectural Desktop 2007 |Company: Autodesk,Inc. |WEB Address: www.autodesk.com
 90
    32897
280
     0
281
     0
  0
CLASS
  1
AEC_DISP_REP_LAYOUT_GRID2D
  2
AecDbDispRepLayoutGrid2d
  3
AecBase50|Product Desc: Autodesk Architectural Desktop 2007 |Company: Autodesk,Inc. |WEB Address: www.autodesk.com
 90
    32897
280
     0
281
     0
  0
CLASS
  1
AEC_DISP_REP_LAYOUT_GRID3D
  2
AecDbDispRepLayoutGrid3d
  3
AecBase50|Product Desc: Autodesk Architectural Desktop 2007 |Company: Autodesk,Inc. |WEB Address: www.autodesk.com
 90
    32897
280
     0
281
     0
  0
CLASS
  1
AEC_DISP_REP_MASKBLOCK_REF
  2
AecDbDispRepMaskBlockRef
  3
AecBase50|Product Desc: Autodesk Architectural Desktop 2007 |Company: Autodesk,Inc. |WEB Address: www.autodesk.com
 90
    32897
280
     0
281
     0
  0
CLASS
  1
AEC_DISP_REP_MASKBLOCK_REF_RCP
  2
AecDbDispRepMaskBlockRefRcp
  3
AecArchBase50|Product Desc: Autodesk Architectural Desktop 2007 |Company: Autodesk,Inc. |WEB Address: www.autodesk.com
 90
    32897
280
     0
281
     0
  0
CLASS
  1
AEC_DISP_REP_MASS_ELEM_MODEL
  2
AecDbDispRepMassElemModel
  3
AecBaseEx50|Product Desc: Autodesk Architectural Desktop 2007 |Company: Autodesk,Inc. |WEB Address: www.autodesk.com
 90
    32897
280
     0
281
     0
  0
CLASS
  1
AEC_DISP_REP_MASS_ELEM_SCHEM
  2
AecDbDispRepMassElemSchem
  3
AecBaseEx50|Product Desc: Autodesk Architectural Desktop 2007 |Company: Autodesk,Inc. |WEB Address: www.autodesk.com
 90
    32897
280
     0
281
     0
  0
CLASS
  1
AEC_DISP_REP_MASS_GROUP_MODEL
  2
AecDbDispRepMassGroupModel
  3
AecBaseEx50|Product Desc: Autodesk Architectural Desktop 2007 |Company: Autodesk,Inc. |WEB Address: www.autodesk.com
 90
    32897
280
     0
281
     0
  0
CLASS
  1
AEC_DISP_REP_MASS_GROUP_PLAN
  2
AecDbDispRepMassGroupPlan
  3
AecBaseEx50|Product Desc: Autodesk Architectural Desktop 2007 |Company: Autodesk,Inc. |WEB Address: www.autodesk.com
 90
    32897
280
     0
281
     0
  0
CLASS
  1
AEC_DISP_REP_MATERIAL
  2
AecDbDispRepMaterial
  3
AecBase50|Product Desc: Autodesk Architectural Desktop 2007 |Company: Autodesk,Inc. |WEB Address: www.autodesk.com
 90
    32897
280
     0
281
     0
  0
CLASS
  1
AEC_DISP_REP_MVBLOCK_REF
  2
AecDbDispRepMvBlockRef
  3
AecBase50|Product Desc: Autodesk Architectural Desktop 2007 |Company: Autodesk,Inc. |WEB Address: www.autodesk.com
 90
    32897
280
     0
281
     0
  0
CLASS
  1
AEC_DISP_REP_MVBLOCK_REF_MODEL
  2
AecDbDispRepMvBlockRefModel
  3
AecBase50|Product Desc: Autodesk Architectural Desktop 2007 |Company: Autodesk,Inc. |WEB Address: www.autodesk.com
 90
    32897
280
     0
281
     0
  0
CLASS
  1
AEC_DISP_REP_OPENING
  2
AecDbDispRepOpening
  3
AecArchBase50|Product Desc: Autodesk Architectural Desktop 2007 |Company: Autodesk,Inc. |WEB Address: www.autodesk.com
 90
    32897
280
     0
281
     0
  0
CLASS
  1
AEC_DISP_REP_OPENING_MODEL
  2
AecDbDispRepOpeningModel
  3
AecArchBase50|Product Desc: Autodesk Architectural Desktop 2007 |Company: Autodesk,Inc. |WEB Address: www.autodesk.com
 90
    32897
280
     0
281
     0
  0
CLASS
  1
AEC_DISP_REP_POLYGON_MODEL
  2
AecDbDispRepPolygonModel
  3
AecBaseEx50|Product Desc: Autodesk Architectural Desktop 2007 |Company: Autodesk,Inc. |WEB Address: www.autodesk.com
 90
    32897
280
     0
281
     0
  0
CLASS
  1
AEC_DISP_REP_RAILING_MODEL
  2
AecDbDispRepRailingModel
  3
AecArchBase50|Product Desc: Autodesk Architectural Desktop 2007 |Company: Autodesk,Inc. |WEB Address: www.autodesk.com
 90
    32897
280
     0
281
     0
  0
CLASS
  1
AEC_DISP_REP_RAILING_PLAN
  2
AecDbDispRepRailingPlan
  3
AecArchBase50|Product Desc: Autodesk Architectural Desktop 2007 |Company: Autodesk,Inc. |WEB Address: www.autodesk.com
 90
    32897
280
     0
281
     0
  0
CLASS
  1
AEC_DISP_REP_ROOF_MODEL
  2
AecDbDispRepRoofModel
  3
AecArchBase50|Product Desc: Autodesk Architectural Desktop 2007 |Company: Autodesk,Inc. |WEB Address: www.autodesk.com
 90
    32897
280
     0
281
     0
  0
CLASS
  1
AEC_DISP_REP_ROOF_PLAN
  2
AecDbDispRepRoofPlan
  3
AecArchBase50|Product Desc: Autodesk Architectural Desktop 2007 |Company: Autodesk,Inc. |WEB Address: www.autodesk.com
 90
    32897
280
     0
281
     0
  0
CLASS
  1
AEC_DISP_REP_ROOFSLAB_MODEL
  2
AecDbDispRepRoofSlabModel
  3
AecArchBase50|Product Desc: Autodesk Architectural Desktop 2007 |Company: Autodesk,Inc. |WEB Address: www.autodesk.com
 90
    32897
280
     0
281
     0
  0
CLASS
  1
AEC_DISP_REP_ROOFSLAB_PLAN
  2
AecDbDispRepRoofSlabPlan
  3
AecArchBase50|Product Desc: Autodesk Architectural Desktop 2007 |Company: Autodesk,Inc. |WEB Address: www.autodesk.com
 90
    32897
280
     0
281
     0
  0
CLASS
  1
AEC_DISP_REP_SCHEDULE_TABLE
  2
AecDbDispRepScheduleTable
  3
AecSchedule50|Product Desc: Autodesk Architectural Desktop 2007 |Company: Autodesk,Inc. |WEB Address: www.autodesk.com
 90
    32897
280
     0
281
     0
  0
CLASS
  1
AEC_DISP_REP_SLAB_MODEL
  2
AecDbDispRepSlabModel
  3
AecArchBase50|Product Desc: Autodesk Architectural Desktop 2007 |Company: Autodesk,Inc. |WEB Address: www.autodesk.com
 90
    32897
280
     0
281
     0
  0
CLASS
  1
AEC_DISP_REP_SLAB_PLAN
  2
AecDbDispRepSlabPlan
  3
AecArchBase50|Product Desc: Autodesk Architectural Desktop 2007 |Company: Autodesk,Inc. |WEB Address: www.autodesk.com
 90
    32897
280
     0
281
     0
  0
CLASS
  1
AEC_DISP_REP_SLICE
  2
AecDbDispRepSlice
  3
AecBase50|Product Desc: Autodesk Architectural Desktop 2007 |Company: Autodesk,Inc. |WEB Address: www.autodesk.com
 90
    32897
280
     0
281
     0
  0
CLASS
  1
AEC_DISP_REP_SPACE_BOUNDARY_MODEL
  2
AecDbDispRepSpaceBoundaryModel
  3
AecArchBase50|Product Desc: Autodesk Architectural Desktop 2007 |Company: Autodesk,Inc. |WEB Address: www.autodesk.com
 90
    32897
280
     0
281
     0
  0
CLASS
  1
AEC_DISP_REP_SPACE_BOUNDARY_PLAN
  2
AecDbDispRepSpaceBoundaryPlan
  3
AecArchBase50|Product Desc: Autodesk Architectural Desktop 2007 |Company: Autodesk,Inc. |WEB Address: www.autodesk.com
 90
    32897
280
     0
281
     0
  0
CLASS
  1
AEC_DISP_REP_SPACE_BOUNDARY_SCHEM
  2
AecDbDispRepSpaceBoundarySketch
  3
AecArchBase50|Product Desc: Autodesk Architectural Desktop 2007 |Company: Autodesk,Inc. |WEB Address: www.autodesk.com
 90
    32897
280
     0
281
     0
  0
CLASS
  1
AEC_DISP_REP_SPACE_MODEL
  2
AecDbDispRepSpaceModel
  3
AecArchBase50|Product Desc: Autodesk Architectural Desktop 2007 |Company: Autodesk,Inc. |WEB Address: www.autodesk.com
 90
    32897
280
     0
281
     0
  0
CLASS
  1
AEC_DISP_REP_SPACE_PLAN
  2
AecDbDispRepSpacePlan
  3
AecArchBase50|Product Desc: Autodesk Architectural Desktop 2007 |Company: Autodesk,Inc. |WEB Address: www.autodesk.com
 90
    32897
280
     0
281
     0
  0
CLASS
  1
AEC_DISP_REP_STAIR_MODEL
  2
AecDbDispRepStairModel
  3
AecArchBase50|Product Desc: Autodesk Architectural Desktop 2007 |Company: Autodesk,Inc. |WEB Address: www.autodesk.com
 90
    32897
280
     0
281
     0
  0
CLASS
  1
AEC_DISP_REP_STAIR_PLAN
  2
AecDbDispRepStairPlan
  3
AecArchBase50|Product Desc: Autodesk Architectural Desktop 2007 |Company: Autodesk,Inc. |WEB Address: www.autodesk.com
 90
    32897
280
     0
281
     0
  0
CLASS
  1
AEC_DISP_REP_WALL_GRAPH
  2
AecDbDispRepWallGraph
  3
AecArchBase50|Product Desc: Autodesk Architectural Desktop 2007 |Company: Autodesk,Inc. |WEB Address: www.autodesk.com
 90
    32897
280
     0
281
     0
  0
CLASS
  1
AEC_DISP_REP_WALL_MODEL
  2
AecDbDispRepWallModel
  3
AecArchBase50|Product Desc: Autodesk Architectural Desktop 2007 |Company: Autodesk,Inc. |WEB Address: www.autodesk.com
 90
    32897
280
     0
281
     0
  0
CLASS
  1
AEC_DISP_REP_WALL_PLAN
  2
AecDbDispRepWallPlan
  3
AecArchBase50|Product Desc: Autodesk Architectural Desktop 2007 |Company: Autodesk,Inc. |WEB Address: www.autodesk.com
 90
    32897
280
     0
281
     0
  0
CLASS
  1
AEC_DISP_REP_WALL_SCHEM
  2
AecDbDispRepWallSchem
  3
AecArchBase50|Product Desc: Autodesk Architectural Desktop 2007 |Company: Autodesk,Inc. |WEB Address: www.autodesk.com
 90
    32897
280
     0
281
     0
  0
CLASS
  1
AEC_DISP_REP_WINDOW_ASSEMBLY_MODEL
  2
AecDbDispRepWindowAssemblyModel
  3
AecArchBase50|Product Desc: Autodesk Architectural Desktop 2007 |Company: Autodesk,Inc. |WEB Address: www.autodesk.com
 90
    32897
280
     0
281
     0
  0
CLASS
  1
AEC_DISP_REP_WINDOW_ASSEMBLY_PLAN
  2
AecDbDispRepWindowAssemblyPlan
  3
AecArchBase50|Product Desc: Autodesk Architectural Desktop 2007 |Company: Autodesk,Inc. |WEB Address: www.autodesk.com
 90
    32897
280
     0
281
     0
  0
CLASS
  1
AEC_AECDBDISPREPWINDOWASSEMBLYPLAN100
  2
AecDbDispRepWindowAssemblyPlan100
  3
AecArchDACHBase50|Product Desc: Autodesk Architectural Desktop 2007 |Company: Autodesk,Inc. |WEB Address: www.autodesk.com
 90
    32897
280
     0
281
     0
  0
CLASS
  1
AEC_DISP_REP_WINDOW_MODEL
  2
AecDbDispRepWindowModel
  3
AecArchBase50|Product Desc: Autodesk Architectural Desktop 2007 |Company: Autodesk,Inc. |WEB Address: www.autodesk.com
 90
    32897
280
     0
281
     0
  0
CLASS
  1
AEC_DISP_REP_WINDOW_NOMINAL
  2
AecDbDispRepWindowNominal
  3
AecArchBase50|Product Desc: Autodesk Architectural Desktop 2007 |Company: Autodesk,Inc. |WEB Address: www.autodesk.com
 90
    32897
280
     0
281
     0
  0
CLASS
  1
AEC_DISP_REP_WINDOW_PLAN
  2
AecDbDispRepWindowPlan
  3
AecArchBase50|Product Desc: Autodesk Architectural Desktop 2007 |Company: Autodesk,Inc. |WEB Address: www.autodesk.com
 90
    32897
280
     0
281
     0
  0
CLASS
  1
AECS_DISP_REP_MEMBER_LOGICAL
  2
AecsDbDispRepMemberLogical
  3
AecStructureBase50|Product Desc: Autodesk Architectural Desktop 2007 |Company: Autodesk,Inc. |WEB Address: www.autodesk.com
 90
    32897
280
     0
281
     0
  0
CLASS
  1
AECS_DISP_REP_MEMBER_MODEL_DESIGN
  2
AecsDbDispRepMemberModelDesign
  3
AecStructureBase50|Product Desc: Autodesk Architectural Desktop 2007 |Company: Autodesk,Inc. |WEB Address: www.autodesk.com
 90
    32897
280
     0
281
     0
  0
CLASS
  1
AECS_DISP_REP_MEMBER_PLAN_DESIGN
  2
AecsDbDispRepMemberPlanDesign
  3
AecStructureBase50|Product Desc: Autodesk Architectural Desktop 2007 |Company: Autodesk,Inc. |WEB Address: www.autodesk.com
 90
    32897
280
     0
281
     0
  0
CLASS
  1
AEC_DISP_PROPS_ENT
  2
AecDbDispPropsEnt
  3
AecBase50|Product Desc: Autodesk Architectural Desktop 2007 |Company: Autodesk,Inc. |WEB Address: www.autodesk.com
 90
    32897
280
     0
281
     0
  0
CLASS
  1
AEC_DISP_PROPS_CLIP_VOLUME
  2
AecDbDispPropsClipVol
  3
AecBase50|Product Desc: Autodesk Architectural Desktop 2007 |Company: Autodesk,Inc. |WEB Address: www.autodesk.com
 90
    32897
280
     0
281
     0
  0
CLASS
  1
AEC_DISP_PROPS_SLICE
  2
AecDbDispPropsSlice
  3
AecBase50|Product Desc: Autodesk Architectural Desktop 2007 |Company: Autodesk,Inc. |WEB Address: www.autodesk.com
 90
    32897
280
     0
281
     0
  0
CLASS
  1
AEC_DISP_PROPS_ROOFSLAB_PLAN
  2
AecDbDispPropsRoofSlabPlan
  3
AecArchBase50|Product Desc: Autodesk Architectural Desktop 2007 |Company: Autodesk,Inc. |WEB Address: www.autodesk.com
 90
    32897
280
     0
281
     0
  0
CLASS
  1
AEC_DISP_PROPS_GRID_ASSEMBLY_MODEL
  2
AecDbDispPropsGridAssemblyModel
  3
AecArchBase50|Product Desc: Autodesk Architectural Desktop 2007 |Company: Autodesk,Inc. |WEB Address: www.autodesk.com
 90
    32897
280
     0
281
     0
  0
CLASS
  1
AEC_DISP_PROPS_ROOF
  2
AecDbDispPropsRoof
  3
AecArchBase50|Product Desc: Autodesk Architectural Desktop 2007 |Company: Autodesk,Inc. |WEB Address: www.autodesk.com
 90
    32897
280
     0
281
     0
  0
CLASS
  1
AEC_DISP_PROPS_SPACE_MODEL
  2
AecDbDispPropsSpaceModel
  3
AecArchBase50|Product Desc: Autodesk Architectural Desktop 2007 |Company: Autodesk,Inc. |WEB Address: www.autodesk.com
 90
    32897
280
     0
281
     0
  0
CLASS
  1
AEC_DISP_PROPS_EDITINPLACEPROFILE_MODEL
  2
AecDbDispPropsEditInPlaceProfile
  3
AecBase50|Product Desc: Autodesk Architectural Desktop 2007 |Company: Autodesk,Inc. |WEB Address: www.autodesk.com
 90
    32897
280
     0
281
     0
  0
CLASS
  1
AEC_DISP_PROPS_DOOR
  2
AecDbDispPropsDoor
  3
AecArchBase50|Product Desc: Autodesk Architectural Desktop 2007 |Company: Autodesk,Inc. |WEB Address: www.autodesk.com
 90
    32897
280
     0
281
     0
  0
CLASS
  1
AEC_DISP_PROPS_MASKBLOCK
  2
AecDbDispPropsMaskBlock
  3
AecBase50|Product Desc: Autodesk Architectural Desktop 2007 |Company: Autodesk,Inc. |WEB Address: www.autodesk.com
 90
    32897
280
     0
281
     0
  0
CLASS
  1
AEC_DISP_PROPS_SPACE_PLAN
  2
AecDbDispPropsSpacePlan
  3
AecArchBase50|Product Desc: Autodesk Architectural Desktop 2007 |Company: Autodesk,Inc. |WEB Address: www.autodesk.com
 90
    32897
280
     0
281
     0
  0
CLASS
  1
AEC_DISP_PROPS_RAILING_PLAN
  2
AecDbDispPropsRailingPlan
  3
AecArchBase50|Product Desc: Autodesk Architectural Desktop 2007 |Company: Autodesk,Inc. |WEB Address: www.autodesk.com
 90
    32897
280
     0
281
     0
  0
CLASS
  1
AEC_DISP_PROPS_LAYOUT_GRID2D
  2
AecDbDispPropsLayoutGrid2d
  3
AecBase50|Product Desc: Autodesk Architectural Desktop 2007 |Company: Autodesk,Inc. |WEB Address: www.autodesk.com
 90
    32897
280
     0
281
     0
  0
CLASS
  1
AEC_DISP_PROPS_CLIP_VOLUME_RESULT
  2
AecDbDispPropsClipVolResSubDiv
  3
AecBase50|Product Desc: Autodesk Architectural Desktop 2007 |Company: Autodesk,Inc. |WEB Address: www.autodesk.com
 90
    32897
280
     0
281
     0
  0
CLASS
  1
AEC_DISP_PROPS_STAIR_MODEL
  2
AecDbDispPropsStairModel
  3
AecArchBase50|Product Desc: Autodesk Architectural Desktop 2007 |Company: Autodesk,Inc. |WEB Address: www.autodesk.com
 90
    32897
280
     0
281
     0
  0
CLASS
  1
AEC_DISP_PROPS_LAYOUT_CURVE
  2
AecDbDispPropsLayoutCurve
  3
AecBase50|Product Desc: Autodesk Architectural Desktop 2007 |Company: Autodesk,Inc. |WEB Address: www.autodesk.com
 90
    32897
280
     0
281
     0
  0
CLASS
  1
AEC_DISP_PROPS_POLYGON_MODEL
  2
AecDbDispPropsPolygonModel
  3
AecBaseEx50|Product Desc: Autodesk Architectural Desktop 2007 |Company: Autodesk,Inc. |WEB Address: www.autodesk.com
 90
    32897
280
     0
281
     0
  0
CLASS
  1
AEC_DISP_PROPS_MASS_GROUP
  2
AecDbDispPropsMassGroup
  3
AecBaseEx50|Product Desc: Autodesk Architectural Desktop 2007 |Company: Autodesk,Inc. |WEB Address: www.autodesk.com
 90
    32897
280
     0
281
     0
  0
CLASS
  1
AEC_DISP_PROPS_STAIR_PLAN
  2
AecDbDispPropsStairPlan
  3
AecArchBase50|Product Desc: Autodesk Architectural Desktop 2007 |Company: Autodesk,Inc. |WEB Address: www.autodesk.com
 90
    32897
280
     0
281
     0
  0
CLASS
  1
AEC_DISP_PROPS_OPENING
  2
AecDbDispPropsOpening
  3
AecArchBase50|Product Desc: Autodesk Architectural Desktop 2007 |Company: Autodesk,Inc. |WEB Address: www.autodesk.com
 90
    32897
280
     0
281
     0
  0
CLASS
  1
AEC_DISP_PROPS_WALL_GRAPH
  2
AecDbDispPropsWallGraph
  3
AecArchBase50|Product Desc: Autodesk Architectural Desktop 2007 |Company: Autodesk,Inc. |WEB Address: www.autodesk.com
 90
    32897
280
     0
281
     0
  0
CLASS
  1
AEC_DISP_PROPS_DOOR_NOMINAL
  2
AecDbDispPropsDoorNominal
  3
AecArchBase50|Product Desc: Autodesk Architectural Desktop 2007 |Company: Autodesk,Inc. |WEB Address: www.autodesk.com
 90
    32897
280
     0
281
     0
  0
CLASS
  1
AEC_DISP_PROPS_SLAB
  2
AecDbDispPropsSlab
  3
AecArchBase50|Product Desc: Autodesk Architectural Desktop 2007 |Company: Autodesk,Inc. |WEB Address: www.autodesk.com
 90
    32897
280
     0
281
     0
  0
CLASS
  1
AEC_DISP_PROPS_WALL_MODEL
  2
AecDbDispPropsWallModel
  3
AecArchBase50|Product Desc: Autodesk Architectural Desktop 2007 |Company: Autodesk,Inc. |WEB Address: www.autodesk.com
 90
    32897
280
     0
281
     0
  0
CLASS
  1
AEC_DISP_PROPS_MATERIAL
  2
AecDbDispPropsMaterial
  3
AecBase50|Product Desc: Autodesk Architectural Desktop 2007 |Company: Autodesk,Inc. |WEB Address: www.autodesk.com
 90
    32897
280
     0
281
     0
  0
CLASS
  1
AEC_DISP_PROPS_WINDOW
  2
AecDbDispPropsWindow
  3
AecArchBase50|Product Desc: Autodesk Architectural Desktop 2007 |Company: Autodesk,Inc. |WEB Address: www.autodesk.com
 90
    32897
280
     0
281
     0
  0
CLASS
  1
AEC_DISP_PROPS_LAYOUT_GRID3D
  2
AecDbDispPropsLayoutGrid3d
  3
AecBase50|Product Desc: Autodesk Architectural Desktop 2007 |Company: Autodesk,Inc. |WEB Address: www.autodesk.com
 90
    32897
280
     0
281
     0
  0
CLASS
  1
AEC_DISP_PROPS_GRID_ASSEMBLY_PLAN
  2
AecDbDispPropsGridAssemblyPlan
  3
AecArchBase50|Product Desc: Autodesk Architectural Desktop 2007 |Company: Autodesk,Inc. |WEB Address: www.autodesk.com
 90
    32897
280
     0
281
     0
  0
CLASS
  1
AEC_DISP_PROPS_WALL_SCHEM
  2
AecDbDispPropsWallSchem
  3
AecArchBase50|Product Desc: Autodesk Architectural Desktop 2007 |Company: Autodesk,Inc. |WEB Address: www.autodesk.com
 90
    32897
280
     0
281
     0
  0
CLASS
  1
AEC_DISP_PROPS_WALL_PLAN
  2
AecDbDispPropsWallPlan
  3
AecArchBase50|Product Desc: Autodesk Architectural Desktop 2007 |Company: Autodesk,Inc. |WEB Address: www.autodesk.com
 90
    32897
280
     0
281
     0
  0
CLASS
  1
AEC_DISP_PROPS_SPACE_BOUNDARY
  2
AecDbDispPropsSpaceBoundary
  3
AecArchBase50|Product Desc: Autodesk Architectural Desktop 2007 |Company: Autodesk,Inc. |WEB Address: www.autodesk.com
 90
    32897
280
     0
281
     0
  0
CLASS
  1
AEC_DISP_PROPS_SLAB_PLAN
  2
AecDbDispPropsSlabPlan
  3
AecArchBase50|Product Desc: Autodesk Architectural Desktop 2007 |Company: Autodesk,Inc. |WEB Address: www.autodesk.com
 90
    32897
280
     0
281
     0
  0
CLASS
  1
AEC_DISP_PROPS_RAILING_MODEL
  2
AecDbDispPropsRailingModel
  3
AecArchBase50|Product Desc: Autodesk Architectural Desktop 2007 |Company: Autodesk,Inc. |WEB Address: www.autodesk.com
 90
    32897
280
     0
281
     0
  0
CLASS
  1
AEC_DISP_PROPS_MASS_ELEM_MODEL
  2
AecDbDispPropsMassElem
  3
AecBaseEx50|Product Desc: Autodesk Architectural Desktop 2007 |Company: Autodesk,Inc. |WEB Address: www.autodesk.com
 90
    32897
280
     0
281
     0
  0
CLASS
  1
AEC_DISP_PROPS_DIM
  2
AecDbDispPropsDimGroup
  3
AecArchDACHBase50|Product Desc: Autodesk Architectural Desktop 2007 |Company: Autodesk,Inc. |WEB Address: www.autodesk.com
 90
    32897
280
     0
281
     0
  0
CLASS
  1
AEC_DISP_PROPS_ROOFSLAB
  2
AecDbDispPropsRoofSlab
  3
AecArchBase50|Product Desc: Autodesk Architectural Desktop 2007 |Company: Autodesk,Inc. |WEB Address: www.autodesk.com
 90
    32897
280
     0
281
     0
  0
CLASS
  1
AEC_DISP_PROPS_ENT_REF
  2
AecDbDispPropsEntRef
  3
AecBase50|Product Desc: Autodesk Architectural Desktop 2007 |Company: Autodesk,Inc. |WEB Address: www.autodesk.com
 90
    32897
280
     0
281
     0
  0
CLASS
  1
AEC_DISP_PROPS_2D_SECTION
  2
AecDbDispProps2dSection
  3
AecBase50|Product Desc: Autodesk Architectural Desktop 2007 |Company: Autodesk,Inc. |WEB Address: www.autodesk.com
 90
    32897
280
     0
281
     0
  0
CLASS
  1
AECS_DISP_PROPS_MEMBER_LOGICAL
  2
AecsDbDispPropsMemberLogical
  3
AecStructureBase50|Product Desc: Autodesk Architectural Desktop 2007 |Company: Autodesk,Inc. |WEB Address: www.autodesk.com
 90
    32897
280
     0
281
     0
  0
CLASS
  1
AEC_DISP_PROPS_AREA_DECOMPOSED
  2
AecDbDispPropsAreaDecomposed
  3
AecAreaCalculationBase50|Product Desc: Autodesk Architectural Desktop 2007 |Company: Autodesk,Inc. |WEB Address: www.autodesk.com
 90
    32897
280
     0
281
     0
  0
CLASS
  1
AEC_DISP_PROPS_CAMERA
  2
AecDbDispPropsCamera
  3
AecBase50|Product Desc: Autodesk Architectural Desktop 2007 |Company: Autodesk,Inc. |WEB Address: www.autodesk.com
 90
    32897
280
     0
281
     0
  0
CLASS
  1
AECS_DISP_PROPS_MEMBER
  2
AecsDbDispPropsMember
  3
AecStructureBase50|Product Desc: Autodesk Architectural Desktop 2007 |Company: Autodesk,Inc. |WEB Address: www.autodesk.com
 90
    32897
280
     0
281
     0
  0
CLASS
  1
AECS_DISP_PROPS_MEMBER_PLAN
  2
AecsDbDispPropsMemberPlan
  3
AecStructureBase50|Product Desc: Autodesk Architectural Desktop 2007 |Company: Autodesk,Inc. |WEB Address: www.autodesk.com
 90
    32897
280
     0
281
     0
  0
CLASS
  1
AEC_DISP_PROPS_AREAGROUP
  2
AecDbDispPropsAreaGroup
  3
AecAreaCalculationBase50|Product Desc: Autodesk Architectural Desktop 2007 |Company: Autodesk,Inc. |WEB Address: www.autodesk.com
 90
    32897
280
     0
281
     0
  0
CLASS
  1
AEC_DISP_PROPS_WINDOW_NOMINAL
  2
AecDbDispPropsWindowNominal
  3
AecArchBase50|Product Desc: Autodesk Architectural Desktop 2007 |Company: Autodesk,Inc. |WEB Address: www.autodesk.com
 90
    32897
280
     0
281
     0
  0
CLASS
  1
AEC_DISP_PROPS_AREA
  2
AecDbDispPropsArea
  3
AecAreaCalculationBase50|Product Desc: Autodesk Architectural Desktop 2007 |Company: Autodesk,Inc. |WEB Address: www.autodesk.com
 90
    32897
280
     0
281
     0
  0
CLASS
  1
AEC_DISP_PROPS_SCHEDULE_TABLE
  2
AecDbDispPropsScheduleTable
  3
AecSchedule50|Product Desc: Autodesk Architectural Desktop 2007 |Company: Autodesk,Inc. |WEB Address: www.autodesk.com
 90
    32897
280
     0
281
     0
  0
CLASS
  1
AEC_LAYERKEY_STYLE
  2
AecDbLayerKeyStyle
  3
AecBase50|Product Desc: Autodesk Architectural Desktop 2007 |Company: Autodesk,Inc. |WEB Address: www.autodesk.com
 90
    32897
280
     0
281
     0
  0
CLASS
  1
AEC_VARS_ARCHBASE
  2
AecDbVarsArchBase
  3
AecArchBase50|Product Desc: Autodesk Architectural Desktop 2007 |Company: Autodesk,Inc. |WEB Address: www.autodesk.com
 90
    32897
280
     0
281
     0
  0
CLASS
  1
AEC_VARS_MUNICH
  2
AecDbVarsMunich
  3
AecArchDACHBase50|Product Desc: Autodesk Architectural Desktop 2007 |Company: Autodesk,Inc. |WEB Address: www.autodesk.com
 90
    32897
280
     0
281
     0
  0
CLASS
  1
AEC_NOTIFICATION_TRACKER
  2
AecDbNotificationTracker
  3
AecBase50|Product Desc: Autodesk Architectural Desktop 2007 |Company: Autodesk,Inc. |WEB Address: www.autodesk.com
 90
    32897
280
     0
281
     0
  0
CLASS
  1
AEC_DISP_REP_ANCHOR
  2
AecDbDispRepAnchor
  3
AecBase50|Product Desc: Autodesk Architectural Desktop 2007 |Company: Autodesk,Inc. |WEB Address: www.autodesk.com
 90
    32897
280
     0
281
     0
  0
CLASS
  1
AEC_DISP_REP_POLYGON_TRUECOLOUR
  2
AecDbDispRepPolygonTrueColour
  3
AecBaseEx50|Product Desc: Autodesk Architectural Desktop 2007 |Company: Autodesk,Inc. |WEB Address: www.autodesk.com
 90
    32897
280
     0
281
     0
  0
CLASS
  1
AEC_DISP_PROPS_POLYGON_TRUECOLOUR
  2
AecDbDispPropsPolygonTrueColour
  3
AecBaseEx50|Product Desc: Autodesk Architectural Desktop 2007 |Company: Autodesk,Inc. |WEB Address: www.autodesk.com
 90
    32897
280
     0
281
     0
  0
CLASS
  1
AEC_DISP_REP_BDG_ELEVLINE_RCP
  2
AecDbDispRepBdgElevLineRcp
  3
AecArchBase50|Product Desc: Autodesk Architectural Desktop 2007 |Company: Autodesk,Inc. |WEB Address: www.autodesk.com
 90
    32897
280
     0
281
     0
  0
CLASS
  1
AEC_DISP_REP_BDG_SECTIONLINE_RCP
  2
AecDbDispRepBdgSectionLineRcp
  3
AecArchBase50|Product Desc: Autodesk Architectural Desktop 2007 |Company: Autodesk,Inc. |WEB Address: www.autodesk.com
 90
    32897
280
     0
281
     0
  0
CLASS
  1
AEC_DISP_REP_BDG_SECTION_MODEL
  2
AecDbDispRepBdgSectionModel
  3
AecArchBase50|Product Desc: Autodesk Architectural Desktop 2007 |Company: Autodesk,Inc. |WEB Address: www.autodesk.com
 90
    32897
280
     0
281
     0
  0
CLASS
  1
AEC_DISP_REP_DOOR_ELEV
  2
AecDbDispRepDoorElev
  3
AecArchBase50|Product Desc: Autodesk Architectural Desktop 2007 |Company: Autodesk,Inc. |WEB Address: www.autodesk.com
 90
    32897
280
     0
281
     0
  0
CLASS
  1
AEC_DISP_REP_DOOR_RCP
  2
AecDbDispRepDoorRcp
  3
AecArchBase50|Product Desc: Autodesk Architectural Desktop 2007 |Company: Autodesk,Inc. |WEB Address: www.autodesk.com
 90
    32897
280
     0
281
     0
  0
CLASS
  1
AEC_DISP_REP_DOOR_THRESHOLD_PLAN
  2
AecDbDispRepDoorThresholdPlan
  3
AecArchBase50|Product Desc: Autodesk Architectural Desktop 2007 |Company: Autodesk,Inc. |WEB Address: www.autodesk.com
 90
    32897
280
     0
281
     0
  0
CLASS
  1
AEC_DISP_PROPS_DOOR_THRESHOLD_PLAN
  2
AecDbDispPropsDoorThresholdPlan
  3
AecArchBase50|Product Desc: Autodesk Architectural Desktop 2007 |Company: Autodesk,Inc. |WEB Address: www.autodesk.com
 90
    32897
280
     0
281
     0
  0
CLASS
  1
AEC_DISP_REP_MASS_ELEM_RCP
  2
AecDbDispRepMassElemRcp
  3
AecArchBase50|Product Desc: Autodesk Architectural Desktop 2007 |Company: Autodesk,Inc. |WEB Address: www.autodesk.com
 90
    32897
280
     0
281
     0
  0
CLASS
  1
AEC_DISP_REP_MASS_GROUP_RCP
  2
AecDbDispRepMassGroupRcp
  3
AecArchBase50|Product Desc: Autodesk Architectural Desktop 2007 |Company: Autodesk,Inc. |WEB Address: www.autodesk.com
 90
    32897
280
     0
281
     0
  0
CLASS
  1
AEC_DISP_REP_MVBLOCK_REF_RCP
  2
AecDbDispRepMvBlockRefRcp
  3
AecArchBase50|Product Desc: Autodesk Architectural Desktop 2007 |Company: Autodesk,Inc. |WEB Address: www.autodesk.com
 90
    32897
280
     0
281
     0
  0
CLASS
  1
AEC_DISP_REP_ROOF_RCP
  2
AecDbDispRepRoofRcp
  3
AecArchBase50|Product Desc: Autodesk Architectural Desktop 2007 |Company: Autodesk,Inc. |WEB Address: www.autodesk.com
 90
    32897
280
     0
281
     0
  0
CLASS
  1
AEC_DISP_REP_SPACE_BOUNDARY_DIAGRAM
  2
AecDbDispRepSpaceBoundaryDgrm
  3
AecArchBase50|Product Desc: Autodesk Architectural Desktop 2007 |Company: Autodesk,Inc. |WEB Address: www.autodesk.com
 90
    32897
280
     0
281
     0
  0
CLASS
  1
AEC_DISP_REP_SPACE_RCP
  2
AecDbDispRepSpaceRcp
  3
AecArchBase50|Product Desc: Autodesk Architectural Desktop 2007 |Company: Autodesk,Inc. |WEB Address: www.autodesk.com
 90
    32897
280
     0
281
     0
  0
CLASS
  1
AEC_DISP_REP_SPACE_VOLUME
  2
AecDbDispRepSpaceVolume
  3
AecArchBase50|Product Desc: Autodesk Architectural Desktop 2007 |Company: Autodesk,Inc. |WEB Address: www.autodesk.com
 90
    32897
280
     0
281
     0
  0
CLASS
  1
AEC_DISP_REP_STAIR_PLAN_OVERLAPPING
  2
AecDbDispRepStairPlanOverlapping
  3
AecArchBase50|Product Desc: Autodesk Architectural Desktop 2007 |Company: Autodesk,Inc. |WEB Address: www.autodesk.com
 90
    32897
280
     0
281
     0
  0
CLASS
  1
AEC_DISP_PROPS_STAIR_PLAN_OVERLAPPING
  2
AecDbDispPropsStairPlanOverlapping
  3
AecArchBase50|Product Desc: Autodesk Architectural Desktop 2007 |Company: Autodesk,Inc. |WEB Address: www.autodesk.com
 90
    32897
280
     0
281
     0
  0
CLASS
  1
AEC_DISP_REP_STAIR_RCP
  2
AecDbDispRepStairRcp
  3
AecArchBase50|Product Desc: Autodesk Architectural Desktop 2007 |Company: Autodesk,Inc. |WEB Address: www.autodesk.com
 90
    32897
280
     0
281
     0
  0
CLASS
  1
AEC_DISP_REP_WALL_RCP
  2
AecDbDispRepWallRcp
  3
AecArchBase50|Product Desc: Autodesk Architectural Desktop 2007 |Company: Autodesk,Inc. |WEB Address: www.autodesk.com
 90
    32897
280
     0
281
     0
  0
CLASS
  1
AEC_DISP_REP_WINDOWASSEMBLY_SILL_PLAN
  2
AecDbDispRepWindowAssemblySillPlan
  3
AecArchBase50|Product Desc: Autodesk Architectural Desktop 2007 |Company: Autodesk,Inc. |WEB Address: www.autodesk.com
 90
    32897
280
     0
281
     0
  0
CLASS
  1
AEC_DISP_PROPS_WINDOW_ASSEMBLY_SILL_PLAN
  2
AecDbDispPropsWindowAssemblySillPlan
  3
AecArchBase50|Product Desc: Autodesk Architectural Desktop 2007 |Company: Autodesk,Inc. |WEB Address: www.autodesk.com
 90
    32897
280
     0
281
     0
  0
CLASS
  1
AEC_DISP_REP_WINDOW_ELEV
  2
AecDbDispRepWindowElev
  3
AecArchBase50|Product Desc: Autodesk Architectural Desktop 2007 |Company: Autodesk,Inc. |WEB Address: www.autodesk.com
 90
    32897
280
     0
281
     0
  0
CLASS
  1
AEC_DISP_REP_WINDOW_RCP
  2
AecDbDispRepWindowRcp
  3
AecArchBase50|Product Desc: Autodesk Architectural Desktop 2007 |Company: Autodesk,Inc. |WEB Address: www.autodesk.com
 90
    32897
280
     0
281
     0
  0
CLASS
  1
AEC_DISP_REP_WINDOW_SILL_PLAN
  2
AecDbDispRepWindowSillPlan
  3
AecArchBase50|Product Desc: Autodesk Architectural Desktop 2007 |Company: Autodesk,Inc. |WEB Address: www.autodesk.com
 90
    32897
280
     0
281
     0
  0
CLASS
  1
AEC_DISP_PROPS_WINDOW_SILL_PLAN
  2
AecDbDispPropsWindowSillPlan
  3
AecArchBase50|Product Desc: Autodesk Architectural Desktop 2007 |Company: Autodesk,Inc. |WEB Address: www.autodesk.com
 90
    32897
280
     0
281
     0
  0
CLASS
  1
AEC_DISP_REP_ANCHOR_BUB_TO_GRID_RCP
  2
AecDbDispRepAnchorBubToGridRcp
  3
AecStructureBase50|Product Desc: Autodesk Architectural Desktop 2007 |Company: Autodesk,Inc. |WEB Address: www.autodesk.com
 90
    32897
280
     0
281
     0
  0
CLASS
  1
AEC_DISP_REP_COLUMN_GRID_RCP
  2
AecDbDispRepColumnGridRcp
  3
AecStructureBase50|Product Desc: Autodesk Architectural Desktop 2007 |Company: Autodesk,Inc. |WEB Address: www.autodesk.com
 90
    32897
280
     0
281
     0
  0
CLASS
  1
AECS_DISP_REP_MEMBER_ELEVATION_DESIGN
  2
AecsDbDispRepMemberElevationDesign
  3
AecStructureBase50|Product Desc: Autodesk Architectural Desktop 2007 |Company: Autodesk,Inc. |WEB Address: www.autodesk.com
 90
    32897
280
     0
281
     0
  0
CLASS
  1
AECS_DISP_PROPS_MEMBER_PROJECTED
  2
AecsDbDispPropsMemberProjected
  3
AecStructureBase50|Product Desc: Autodesk Architectural Desktop 2007 |Company: Autodesk,Inc. |WEB Address: www.autodesk.com
 90
    32897
280
     0
281
     0
  0
CLASS
  1
AECS_DISP_REP_MEMBER_ELEVATION_DETAIL
  2
AecsDbDispRepMemberElevationDetail
  3
AecStructureBase50|Product Desc: Autodesk Architectural Desktop 2007 |Company: Autodesk,Inc. |WEB Address: www.autodesk.com
 90
    32897
280
     0
281
     0
  0
CLASS
  1
AECS_DISP_REP_MEMBER_MODEL_DETAIL
  2
AecsDbDispRepMemberModelDetail
  3
AecStructureBase50|Product Desc: Autodesk Architectural Desktop 2007 |Company: Autodesk,Inc. |WEB Address: www.autodesk.com
 90
    32897
280
     0
281
     0
  0
CLASS
  1
AECS_DISP_REP_MEMBER_PLAN_DETAIL
  2
AecsDbDispRepMemberPlanDetail
  3
AecStructureBase50|Product Desc: Autodesk Architectural Desktop 2007 |Company: Autodesk,Inc. |WEB Address: www.autodesk.com
 90
    32897
280
     0
281
     0
  0
CLASS
  1
AECS_DISP_REP_MEMBER_PLAN_SKETCH
  2
AecsDbDispRepMemberPlanSketch
  3
AecStructureBase50|Product Desc: Autodesk Architectural Desktop 2007 |Company: Autodesk,Inc. |WEB Address: www.autodesk.com
 90
    32897
280
     0
281
     0
  0
CLASS
  1
AECS_DISP_PROPS_MEMBER_PLAN_SKETCH
  2
AecsDbDispPropsMemberPlanSketch
  3
AecStructureBase50|Product Desc: Autodesk Architectural Desktop 2007 |Company: Autodesk,Inc. |WEB Address: www.autodesk.com
 90
    32897
280
     0
281
     0
  0
CLASS
  1
AEC_AECDBDISPREPAREA100
  2
AecDbDispRepArea100
  3
AecArchDACHBase50|Product Desc: Autodesk Architectural Desktop 2007 |Company: Autodesk,Inc. |WEB Address: www.autodesk.com
 90
    32897
280
     0
281
     0
  0
CLASS
  1
AEC_AECDBDISPREPAREAGROUP100
  2
AecDbDispRepAreaGroup100
  3
AecArchDACHBase50|Product Desc: Autodesk Architectural Desktop 2007 |Company: Autodesk,Inc. |WEB Address: www.autodesk.com
 90
    32897
280
     0
281
     0
  0
CLASS
  1
AEC_AECDBDISPREPBDGELEVLINEPLAN100
  2
AecDbDispRepBdgElevLinePlan100
  3
AecArchDACHBase50|Product Desc: Autodesk Architectural Desktop 2007 |Company: Autodesk,Inc. |WEB Address: www.autodesk.com
 90
    32897
280
     0
281
     0
  0
CLASS
  1
AEC_AECDBDISPREPBDGSECTIONLINEPLAN100
  2
AecDbDispRepBdgSectionLinePlan100
  3
AecArchDACHBase50|Product Desc: Autodesk Architectural Desktop 2007 |Company: Autodesk,Inc. |WEB Address: www.autodesk.com
 90
    32897
280
     0
281
     0
  0
CLASS
  1
AEC_AECDBDISPREPCEILINGGRIDPLAN100
  2
AecDbDispRepCeilingGridPlan100
  3
AecArchDACHBase50|Product Desc: Autodesk Architectural Desktop 2007 |Company: Autodesk,Inc. |WEB Address: www.autodesk.com
 90
    32897
280
     0
281
     0
  0
CLASS
  1
AEC_AECDBDISPREPCOLUMNGRIDPLAN100
  2
AecDbDispRepColumnGridPlan100
  3
AecArchDACHBase50|Product Desc: Autodesk Architectural Desktop 2007 |Company: Autodesk,Inc. |WEB Address: www.autodesk.com
 90
    32897
280
     0
281
     0
  0
CLASS
  1
AEC_AECDBDISPREPCURTAINWALLLAYOUTPLAN100
  2
AecDbDispRepCurtainWallLayoutPlan100
  3
AecArchDACHBase50|Product Desc: Autodesk Architectural Desktop 2007 |Company: Autodesk,Inc. |WEB Address: www.autodesk.com
 90
    32897
280
     0
281
     0
  0
CLASS
  1
AEC_AECDBDISPREPCURTAINWALLUNITPLAN100
  2
AecDbDispRepCurtainWallUnitPlan100
  3
AecArchDACHBase50|Product Desc: Autodesk Architectural Desktop 2007 |Company: Autodesk,Inc. |WEB Address: www.autodesk.com
 90
    32897
280
     0
281
     0
  0
CLASS
  1
AEC_AECDBDISPREPMVBLOCKREFPLAN100
  2
AecDbDispRepMvBlockRefPlan100
  3
AecArchDACHBase50|Product Desc: Autodesk Architectural Desktop 2007 |Company: Autodesk,Inc. |WEB Address: www.autodesk.com
 90
    32897
280
     0
281
     0
  0
CLASS
  1
AEC_AECDBDISPREPROOFPLAN100
  2
AecDbDispRepRoofPlan100
  3
AecArchDACHBase50|Product Desc: Autodesk Architectural Desktop 2007 |Company: Autodesk,Inc. |WEB Address: www.autodesk.com
 90
    32897
280
     0
281
     0
  0
CLASS
  1
AEC_AECDBDISPREPROOFSLABPLAN100
  2
AecDbDispRepRoofSlabPlan100
  3
AecArchDACHBase50|Product Desc: Autodesk Architectural Desktop 2007 |Company: Autodesk,Inc. |WEB Address: www.autodesk.com
 90
    32897
280
     0
281
     0
  0
CLASS
  1
AEC_AECDBDISPREPSLABPLAN100
  2
AecDbDispRepSlabPlan100
  3
AecArchDACHBase50|Product Desc: Autodesk Architectural Desktop 2007 |Company: Autodesk,Inc. |WEB Address: www.autodesk.com
 90
    32897
280
     0
281
     0
  0
CLASS
  1
AEC_AECDBDISPREPSPACEBOUNDARYPLAN100
  2
AecDbDispRepSpaceBoundaryPlan100
  3
AecArchDACHBase50|Product Desc: Autodesk Architectural Desktop 2007 |Company: Autodesk,Inc. |WEB Address: www.autodesk.com
 90
    32897
280
     0
281
     0
  0
CLASS
  1
AEC_AECDBDISPREPSPACEPLAN100
  2
AecDbDispRepSpacePlan100
  3
AecArchDACHBase50|Product Desc: Autodesk Architectural Desktop 2007 |Company: Autodesk,Inc. |WEB Address: www.autodesk.com
 90
    32897
280
     0
281
     0
  0
CLASS
  1
AEC_AECDBDISPREPWALLPLAN100
  2
AecDbDispRepWallPlan100
  3
AecArchDACHBase50|Product Desc: Autodesk Architectural Desktop 2007 |Company: Autodesk,Inc. |WEB Address: www.autodesk.com
 90
    32897
280
     0
281
     0
  0
CLASS
  1
AEC_AECDBDISPREPAREA50
  2
AecDbDispRepArea50
  3
AecArchDACHBase50|Product Desc: Autodesk Architectural Desktop 2007 |Company: Autodesk,Inc. |WEB Address: www.autodesk.com
 90
    32897
280
     0
281
     0
  0
CLASS
  1
AEC_AECDBDISPREPAREAGROUP50
  2
AecDbDispRepAreaGroup50
  3
AecArchDACHBase50|Product Desc: Autodesk Architectural Desktop 2007 |Company: Autodesk,Inc. |WEB Address: www.autodesk.com
 90
    32897
280
     0
281
     0
  0
CLASS
  1
AEC_AECDBDISPREPBDGELEVLINEPLAN50
  2
AecDbDispRepBdgElevLinePlan50
  3
AecArchDACHBase50|Product Desc: Autodesk Architectural Desktop 2007 |Company: Autodesk,Inc. |WEB Address: www.autodesk.com
 90
    32897
280
     0
281
     0
  0
CLASS
  1
AEC_AECDBDISPREPBDGSECTIONLINEPLAN50
  2
AecDbDispRepBdgSectionLinePlan50
  3
AecArchDACHBase50|Product Desc: Autodesk Architectural Desktop 2007 |Company: Autodesk,Inc. |WEB Address: www.autodesk.com
 90
    32897
280
     0
281
     0
  0
CLASS
  1
AEC_AECDBDISPREPCEILINGGRIDPLAN50
  2
AecDbDispRepCeilingGridPlan50
  3
AecArchDACHBase50|Product Desc: Autodesk Architectural Desktop 2007 |Company: Autodesk,Inc. |WEB Address: www.autodesk.com
 90
    32897
280
     0
281
     0
  0
CLASS
  1
AEC_AECDBDISPREPCOLUMNGRIDPLAN50
  2
AecDbDispRepColumnGridPlan50
  3
AecArchDACHBase50|Product Desc: Autodesk Architectural Desktop 2007 |Company: Autodesk,Inc. |WEB Address: www.autodesk.com
 90
    32897
280
     0
281
     0
  0
CLASS
  1
AEC_AECDBDISPREPCURTAINWALLLAYOUTPLAN50
  2
AecDbDispRepCurtainWallLayoutPlan50
  3
AecArchDACHBase50|Product Desc: Autodesk Architectural Desktop 2007 |Company: Autodesk,Inc. |WEB Address: www.autodesk.com
 90
    32897
280
     0
281
     0
  0
CLASS
  1
AEC_AECDBDISPREPCURTAINWALLUNITPLAN50
  2
AecDbDispRepCurtainWallUnitPlan50
  3
AecArchDACHBase50|Product Desc: Autodesk Architectural Desktop 2007 |Company: Autodesk,Inc. |WEB Address: www.autodesk.com
 90
    32897
280
     0
281
     0
  0
CLASS
  1
AEC_AECDBDISPREPMVBLOCKREFPLAN50
  2
AecDbDispRepMvBlockRefPlan50
  3
AecArchDACHBase50|Product Desc: Autodesk Architectural Desktop 2007 |Company: Autodesk,Inc. |WEB Address: www.autodesk.com
 90
    32897
280
     0
281
     0
  0
CLASS
  1
AEC_AECDBDISPREPROOFPLAN50
  2
AecDbDispRepRoofPlan50
  3
AecArchDACHBase50|Product Desc: Autodesk Architectural Desktop 2007 |Company: Autodesk,Inc. |WEB Address: www.autodesk.com
 90
    32897
280
     0
281
     0
  0
CLASS
  1
AEC_AECDBDISPREPROOFSLABPLAN50
  2
AecDbDispRepRoofSlabPlan50
  3
AecArchDACHBase50|Product Desc: Autodesk Architectural Desktop 2007 |Company: Autodesk,Inc. |WEB Address: www.autodesk.com
 90
    32897
280
     0
281
     0
  0
CLASS
  1
AEC_AECDBDISPREPSLABPLAN50
  2
AecDbDispRepSlabPlan50
  3
AecArchDACHBase50|Product Desc: Autodesk Architectural Desktop 2007 |Company: Autodesk,Inc. |WEB Address: www.autodesk.com
 90
    32897
280
     0
281
     0
  0
CLASS
  1
AEC_AECDBDISPREPSPACEBOUNDARYPLAN50
  2
AecDbDispRepSpaceBoundaryPlan50
  3
AecArchDACHBase50|Product Desc: Autodesk Architectural Desktop 2007 |Company: Autodesk,Inc. |WEB Address: www.autodesk.com
 90
    32897
280
     0
281
     0
  0
CLASS
  1
AEC_AECDBDISPREPSPACEPLAN50
  2
AecDbDispRepSpacePlan50
  3
AecArchDACHBase50|Product Desc: Autodesk Architectural Desktop 2007 |Company: Autodesk,Inc. |WEB Address: www.autodesk.com
 90
    32897
280
     0
281
     0
  0
CLASS
  1
AEC_AECDBDISPREPWALLPLAN50
  2
AecDbDispRepWallPlan50
  3
AecArchDACHBase50|Product Desc: Autodesk Architectural Desktop 2007 |Company: Autodesk,Inc. |WEB Address: www.autodesk.com
 90
    32897
280
     0
281
     0
  0
CLASS
  1
AEC_AECDBDISPREPWINDOWASSEMBLYPLAN50
  2
AecDbDispRepWindowAssemblyPlan50
  3
AecArchDACHBase50|Product Desc: Autodesk Architectural Desktop 2007 |Company: Autodesk,Inc. |WEB Address: www.autodesk.com
 90
    32897
280
     0
281
     0
  0
CLASS
  1
AEC_DB_DISP_REP_DIM_GROUP_PLAN100
  2
AecDbDispRepDimGroupPlan100
  3
AecArchDACHBase50|Product Desc: Autodesk Architectural Desktop 2007 |Company: Autodesk,Inc. |WEB Address: www.autodesk.com
 90
    32897
280
     0
281
     0
  0
CLASS
  1
AEC_DB_DISP_REP_DIM_GROUP_PLAN50
  2
AecDbDispRepDimGroupPlan50
  3
AecArchDACHBase50|Product Desc: Autodesk Architectural Desktop 2007 |Company: Autodesk,Inc. |WEB Address: www.autodesk.com
 90
    32897
280
     0
281
     0
  0
CLASS
  1
AEC_DISP_REP_DOOR_PLAN_50
  2
AecDbDispRepDoorPlan50
  3
AecArchDACHBase50|Product Desc: Autodesk Architectural Desktop 2007 |Company: Autodesk,Inc. |WEB Address: www.autodesk.com
 90
    32897
280
     0
281
     0
  0
CLASS
  1
AEC_DISP_PROPS_DOOR_PLAN_50
  2
AecDbDispPropsDoorPlan50
  3
AecArchDACHBase50|Product Desc: Autodesk Architectural Desktop 2007 |Company: Autodesk,Inc. |WEB Address: www.autodesk.com
 90
    32897
280
     0
281
     0
  0
CLASS
  1
AEC_DISP_REP_DOOR_PLAN_HEKTO
  2
AecDbDispRepDoorPlanHekto
  3
AecArchDACHBase50|Product Desc: Autodesk Architectural Desktop 2007 |Company: Autodesk,Inc. |WEB Address: www.autodesk.com
 90
    32897
280
     0
281
     0
  0
CLASS
  1
AEC_DISP_PROPS_DOOR_PLAN_100
  2
AecDbDispPropsDoorPlan100
  3
AecArchDACHBase50|Product Desc: Autodesk Architectural Desktop 2007 |Company: Autodesk,Inc. |WEB Address: www.autodesk.com
 90
    32897
280
     0
281
     0
  0
CLASS
  1
AEC_DISP_REP_DOOR_THRESHOLD_SYMBOL_PLAN
  2
AecDbDispRepDoorThresholdSymbolPlan
  3
AecArchDACHBase50|Product Desc: Autodesk Architectural Desktop 2007 |Company: Autodesk,Inc. |WEB Address: www.autodesk.com
 90
    32897
280
     0
281
     0
  0
CLASS
  1
AEC_DISP_PROPS_DOOR_THRESHOLD_SYMBOL_PLAN
  2
AecDbDispPropsDoorThresholdSymbolPlan
  3
AecArchDACHBase50|Product Desc: Autodesk Architectural Desktop 2007 |Company: Autodesk,Inc. |WEB Address: www.autodesk.com
 90
    32897
280
     0
281
     0
  0
CLASS
  1
AEC_DISPREPAECDBDISPREPMASSELEMPLAN100
  2
AecDbDispRepMassElemPlan100
  3
AecArchDACHBase50|Product Desc: Autodesk Architectural Desktop 2007 |Company: Autodesk,Inc. |WEB Address: www.autodesk.com
 90
    32897
280
     0
281
     0
  0
CLASS
  1
AEC_DISPROPSMASSELEMPLANCOMMON
  2
AecDbDispPropsMassElemPlanCommon
  3
AecArchDACHBase50|Product Desc: Autodesk Architectural Desktop 2007 |Company: Autodesk,Inc. |WEB Address: www.autodesk.com
 90
    32897
280
     0
281
     0
  0
CLASS
  1
AEC_DISPREPAECDBDISPREPMASSELEMPLAN50
  2
AecDbDispRepMassElemPlan50
  3
AecArchDACHBase50|Product Desc: Autodesk Architectural Desktop 2007 |Company: Autodesk,Inc. |WEB Address: www.autodesk.com
 90
    32897
280
     0
281
     0
  0
CLASS
  1
AEC_DISPREPAECDBDISPREPMASSGROUPPLAN100
  2
AecDbDispRepMassGroupPlan100
  3
AecArchDACHBase50|Product Desc: Autodesk Architectural Desktop 2007 |Company: Autodesk,Inc. |WEB Address: www.autodesk.com
 90
    32897
280
     0
281
     0
  0
CLASS
  1
AEC_DISPROPSMASSGROUPPLANCOMMON
  2
AecDbDispPropsMassGroupPlanCommon
  3
AecArchDACHBase50|Product Desc: Autodesk Architectural Desktop 2007 |Company: Autodesk,Inc. |WEB Address: www.autodesk.com
 90
    32897
280
     0
281
     0
  0
CLASS
  1
AEC_DISPREPAECDBDISPREPMASSGROUPPLAN50
  2
AecDbDispRepMassGroupPlan50
  3
AecArchDACHBase50|Product Desc: Autodesk Architectural Desktop 2007 |Company: Autodesk,Inc. |WEB Address: www.autodesk.com
 90
    32897
280
     0
281
     0
  0
CLASS
  1
AEC_DISPREPAECDBDISPREPOPENINGPLAN100
  2
AecDbDispRepOpeningPlan100
  3
AecArchDACHBase50|Product Desc: Autodesk Architectural Desktop 2007 |Company: Autodesk,Inc. |WEB Address: www.autodesk.com
 90
    32897
280
     0
281
     0
  0
CLASS
  1
AEC_DISPROPSOPENINGPLANCOMMONHATCHED
  2
AecDbDispPropsOpeningPlanCommonHatched
  3
AecArchDACHBase50|Product Desc: Autodesk Architectural Desktop 2007 |Company: Autodesk,Inc. |WEB Address: www.autodesk.com
 90
    32897
280
     0
281
     0
  0
CLASS
  1
AEC_DISPREPAECDBDISPREPOPENINGPLAN50
  2
AecDbDispRepOpeningPlan50
  3
AecArchDACHBase50|Product Desc: Autodesk Architectural Desktop 2007 |Company: Autodesk,Inc. |WEB Address: www.autodesk.com
 90
    32897
280
     0
281
     0
  0
CLASS
  1
AEC_DISPREPAECDBDISPREPOPENINGPLANREFLECTED
  2
AecDbDispRepOpeningPlanReflected
  3
AecArchDACHBase50|Product Desc: Autodesk Architectural Desktop 2007 |Company: Autodesk,Inc. |WEB Address: www.autodesk.com
 90
    32897
280
     0
281
     0
  0
CLASS
  1
AEC_DISPROPSOPENINGPLANCOMMON
  2
AecDbDispPropsOpeningPlanCommon
  3
AecArchDACHBase50|Product Desc: Autodesk Architectural Desktop 2007 |Company: Autodesk,Inc. |WEB Address: www.autodesk.com
 90
    32897
280
     0
281
     0
  0
CLASS
  1
AEC_DISPREPAECDBDISPREPOPENINGSILLPLAN
  2
AecDbDispRepOpeningSillPlan
  3
AecArchDACHBase50|Product Desc: Autodesk Architectural Desktop 2007 |Company: Autodesk,Inc. |WEB Address: www.autodesk.com
 90
    32897
280
     0
281
     0
  0
CLASS
  1
AEC_DISPROPSOPENINGSILLPLAN
  2
AecDbDispPropsOpeningSillPlan
  3
AecArchDACHBase50|Product Desc: Autodesk Architectural Desktop 2007 |Company: Autodesk,Inc. |WEB Address: www.autodesk.com
 90
    32897
280
     0
281
     0
  0
CLASS
  1
AEC_DISP_REP_RAILING_PLAN_100
  2
AecDbDispRepRailingPlan100
  3
AecArchDACHBase50|Product Desc: Autodesk Architectural Desktop 2007 |Company: Autodesk,Inc. |WEB Address: www.autodesk.com
 90
    32897
280
     0
281
     0
  0
CLASS
  1
AEC_DISP_ROPS_RAILING_PLAN_100
  2
AecDbDispPropsRailingPlan100
  3
AecArchDACHBase50|Product Desc: Autodesk Architectural Desktop 2007 |Company: Autodesk,Inc. |WEB Address: www.autodesk.com
 90
    32897
280
     0
281
     0
  0
CLASS
  1
AEC_DISP_REP_RAILING_PLAN_50
  2
AecDbDispRepRailingPlan50
  3
AecArchDACHBase50|Product Desc: Autodesk Architectural Desktop 2007 |Company: Autodesk,Inc. |WEB Address: www.autodesk.com
 90
    32897
280
     0
281
     0
  0
CLASS
  1
AEC_DISP_ROPS_RAILING_PLAN_50
  2
AecDbDispPropsRailingPlan50
  3
AecArchDACHBase50|Product Desc: Autodesk Architectural Desktop 2007 |Company: Autodesk,Inc. |WEB Address: www.autodesk.com
 90
    32897
280
     0
281
     0
  0
CLASS
  1
AEC_DISP_REP_STAIR_PLAN_100
  2
AecDbDispRepStairPlan100
  3
AecArchDACHBase50|Product Desc: Autodesk Architectural Desktop 2007 |Company: Autodesk,Inc. |WEB Address: www.autodesk.com
 90
    32897
280
     0
281
     0
  0
CLASS
  1
AEC_DISP_ROPS_STAIR_PLAN_100
  2
AecDbDispPropsStairPlan100
  3
AecArchDACHBase50|Product Desc: Autodesk Architectural Desktop 2007 |Company: Autodesk,Inc. |WEB Address: www.autodesk.com
 90
    32897
280
     0
281
     0
  0
CLASS
  1
AEC_DISP_REP_STAIR_PLAN_50
  2
AecDbDispRepStairPlan50
  3
AecArchDACHBase50|Product Desc: Autodesk Architectural Desktop 2007 |Company: Autodesk,Inc. |WEB Address: www.autodesk.com
 90
    32897
280
     0
281
     0
  0
CLASS
  1
AEC_DISP_ROPS_STAIR_PLAN_50
  2
AecDbDispPropsStairPlan50
  3
AecArchDACHBase50|Product Desc: Autodesk Architectural Desktop 2007 |Company: Autodesk,Inc. |WEB Address: www.autodesk.com
 90
    32897
280
     0
281
     0
  0
CLASS
  1
AEC_DISP_REP_WINDOW_PLAN_100
  2
AecDbDispRepWindowPlan100
  3
AecArchDACHBase50|Product Desc: Autodesk Architectural Desktop 2007 |Company: Autodesk,Inc. |WEB Address: www.autodesk.com
 90
    32897
280
     0
281
     0
  0
CLASS
  1
AEC_DISP_PROPS_WINDOW_PLAN_100
  2
AecDbDispPropsWindowPlan100
  3
AecArchDACHBase50|Product Desc: Autodesk Architectural Desktop 2007 |Company: Autodesk,Inc. |WEB Address: www.autodesk.com
 90
    32897
280
     0
281
     0
  0
CLASS
  1
AEC_DISP_REP_WINDOW_PLAN_50
  2
AecDbDispRepWindowPlan50
  3
AecArchDACHBase50|Product Desc: Autodesk Architectural Desktop 2007 |Company: Autodesk,Inc. |WEB Address: www.autodesk.com
 90
    32897
280
     0
281
     0
  0
CLASS
  1
AEC_DISP_PROPS_WINDOW_PLAN_50
  2
AecDbDispPropsWindowPlan50
  3
AecArchDACHBase50|Product Desc: Autodesk Architectural Desktop 2007 |Company: Autodesk,Inc. |WEB Address: www.autodesk.com
 90
    32897
280
     0
281
     0
  0
CLASS
  1
BINRECORD
  2
AcAecBinRecord
  3
AecBase50|Product Desc: Autodesk Architectural Desktop 2007 |Company: Autodesk,Inc. |WEB Address: www.autodesk.com
 90
    32897
280
     0
281
     0
  0
CLASS
  1
SPATIAL_FILTER
  2
AcDbSpatialFilter
  3
ObjectDBX Classes
 90
    32768
280
     0
281
     0
  0
CLASS
  1
AEC_VARS_STRUCTUREBASE
  2
AecsDbVarsStructureBase
  3
AecStructureBase50|Product Desc: Autodesk Architectural Desktop 2007 |Company: Autodesk,Inc. |WEB Address: www.autodesk.com
 90
    32897
280
     0
281
     0
  0
CLASS
  1
DIMASSOC
  2
AcDbDimAssoc
  3
"AcDbDimAssoc|Product Desc:     AcDim ARX App For Dimension|Company:          Autodesk, Inc.|WEB Address:      www.autodesk.com"
 90
    32768
280
     0
281
     0
  0
CLASS
  1
MATERIAL
  2
AcDbMaterial
  3
ObjectDBX Classes
 90
     1153
280
     0
281
     0
  0
CLASS
  1
VISUALSTYLE
  2
AcDbVisualStyle
  3
ObjectDBX Classes
 90
     4095
280
     0
281
     0
  0
CLASS
  1
TABLESTYLE
  2
AcDbTableStyle
  3
ObjectDBX Classes
 90
     4095
280
     0
281
     0
  0
CLASS
  1
SCALE
  2
AcDbScale
  3
ObjectDBX Classes
 90
     1153
280
     0
281
     0
  0
CLASS
  1
MLEADERSTYLE
  2
AcDbMLeaderStyle
  3
ACDB_MLEADERSTYLE_CLASS
 90
    36863
280
     0
281
     0
  0
CLASS
  1
EXACXREFPANELOBJECT
  2
ExAcXREFPanelObject
  3
EXAC_ESW
 90
    33793
280
     0
281
     0
  0
CLASS
  1
NPOCOLLECTION
  2
AcDbImpNonPersistentObjectsCollection
  3
ObjectDBX Classes
 90
    33921
280
     0
281
     0
  0
CLASS
  1
AEC_REFEDIT_STATUS_TRACKER
  2
AecDbRefEditStatusTracker
  3
AecArchBase50|Product Desc: Autodesk Architectural Desktop 2007 |Company: Autodesk,Inc. |WEB Address: www.autodesk.com
 90
    32897
280
     0
281
     0
  0
CLASS
  1
CELLSTYLEMAP
  2
AcDbCellStyleMap
  3
ObjectDBX Classes
 90
     1152
280
     0
281
     0
  0
ENDSEC
  0
SECTION
  2
TABLES
  0
TABLE
  2
VPORT
  5
1CB
330
0
100
AcDbSymbolTable
 70
     1
  0
VPORT
  5
1CC
330
1CB
100
AcDbSymbolTableRecord
100
AcDbViewportTableRecord
  2
*Active
 70
     0
 10
0.0
 20
0.0
 11
1.0
 21
1.0
 12
220181.2774030465
 22
137156.5957730702
 13
0.0
 23
0.0
 14
10.0
 24
10.0
 15
10.0
 25
10.0
 16
0.0
 26
0.0
 36
1.0
 17
0.0
 27
0.0
 37
0.0
 40
32342.86244722622
 41
1.646043165467625
 42
50.0
 43
0.0
 44
0.0
 50
0.0
 51
0.0
 71
     0
 72
  1000
 73
     1
 74
     1
 75
     0
 76
     0
 77
     0
 78
     0
281
     0
 65
     1
110
0.0
120
0.0
130
0.0
111
1.0
121
0.0
131
0.0
112
0.0
122
1.0
132
0.0
 79
     0
146
0.0
  0
ENDTAB
  0
TABLE
  2
LTYPE
  5
1C6
330
0
100
AcDbSymbolTable
 70
     2
  0
LTYPE
  5
1C7
330
1C6
100
AcDbSymbolTableRecord
100
AcDbLinetypeTableRecord
  2
ByBlock
 70
     0
  3

 72
    65
 73
     0
 40
0.0
  0
LTYPE
  5
1C8
330
1C6
100
AcDbSymbolTableRecord
100
AcDbLinetypeTableRecord
  2
ByLayer
 70
     0
  3

 72
    65
 73
     0
 40
0.0
  0
LTYPE
  5
E
330
1C6
100
AcDbSymbolTableRecord
100
AcDbLinetypeTableRecord
  2
Continuous
 70
     0
  3
Solid line
 72
    65
 73
     0
 40
0.0
  0
LTYPE
  5
23
330
1C6
100
AcDbSymbolTableRecord
100
AcDbLinetypeTableRecord
  2
HIDDEN
 70
     0
  3
Hidden __ __ __ __ __ __ __ __ __ __ __ __ __ _
 72
    65
 73
     2
 40
0.375
 49
0.25
 74
     0
 49
-0.125
 74
     0
  0
ENDTAB
  0
TABLE
  2
LAYER
  5
1BF
102
{ACAD_XDICTIONARY
360
1C0
102
}
330
0
100
AcDbSymbolTable
 70
    10
  0
LAYER
  5
6
102
{ACAD_XDICTIONARY
360
7
102
}
330
1BF
100
AcDbSymbolTableRecord
100
AcDbLayerTableRecord
  2
0
 70
     0
 62
     7
  6
Continuous
370
    -3
390
9
1001
RAK
1000
{ACET-LAYISO
1070
     0
1070
     7
1000
Continuous
1071
       -3
1071
        1
1005
9
1000
ACET-LAYISO}
  0
LAYER
  5
43
102
{ACAD_XDICTIONARY
360
44
102
}
330
1BF
100
AcDbSymbolTableRecord
100
AcDbLayerTableRecord
  2
WIDOK
 70
     0
 62
   114
  6
Continuous
370
    -3
390
9
1001
RAK
1000
{ACET-LAYISO
1070
     0
1070
   114
1000
Continuous
1071
       -3
1071
        1
1005
9
1000
ACET-LAYISO}
  0
LAYER
  5
36
102
{ACAD_XDICTIONARY
360
37
102
}
330
1BF
100
AcDbSymbolTableRecord
100
AcDbLayerTableRecord
  2
SCIANY
 70
     0
 62
   140
  6
Continuous
370
    -3
390
9
1001
RAK
1000
{ACET-LAYISO
1070
     0
1070
   140
1000
Continuous
1071
       -3
1071
        1
1005
9
1000
ACET-LAYISO}
  0
LAYER
  5
AF
330
1BF
100
AcDbSymbolTableRecord
100
AcDbLayerTableRecord
  2
DEFPOINTS
 70
     0
 62
     7
  6
Continuous
290
     0
370
    -3
390
9
1001
RAK
1000
{ACET-LAYISO
1070
     0
1070
     7
1000
Continuous
1071
       -3
1071
        0
1005
9
1000
ACET-LAYISO}
  0
LAYER
  5
29
102
{ACAD_XDICTIONARY
360
2A
102
}
330
1BF
100
AcDbSymbolTableRecord
100
AcDbLayerTableRecord
  2
RAMKI-A4
 70
     0
 62
     2
  6
Continuous
290
     0
370
    -3
390
9
1001
RAK
1000
{ACET-LAYISO
1070
     0
1070
     2
1000
Continuous
1071
       -3
1071
        0
1005
9
1000
ACET-LAYISO}
  0
LAYER
  5
1C
102
{ACAD_XDICTIONARY
360
1D
102
}
330
1BF
100
AcDbSymbolTableRecord
100
AcDbLayerTableRecord
  2
SZRAF
 70
     0
 62
   100
  6
Continuous
370
    -3
390
9
1001
RAK
1000
{ACET-LAYISO
1070
     0
1070
   100
1000
Continuous
1071
       -3
1071
        1
1005
9
1000
ACET-LAYISO}
  0
LAYER
  5
11
102
{ACAD_XDICTIONARY
360
12
102
}
330
1BF
100
AcDbSymbolTableRecord
100
AcDbLayerTableRecord
  2
NAPISY
 70
     0
 62
   140
  6
Continuous
370
    -3
390
9
1001
RAK
1000
{ACET-LAYISO
1070
     0
1070
   140
1000
Continuous
1071
       -3
1071
        1
1005
9
1000
ACET-LAYISO}
  0
LAYER
  5
9A
102
{ACAD_XDICTIONARY
360
9B
102
}
330
1BF
100
AcDbSymbolTableRecord
100
AcDbLayerTableRecord
  2
0Wymiary-PL
 70
     0
 62
     1
  6
Continuous
370
     5
390
9
  0
LAYER
  5
3F
102
{ACAD_XDICTIONARY
360
40
102
}
330
1BF
100
AcDbSymbolTableRecord
100
AcDbLayerTableRecord
  2
0Hatch
 70
     0
 62
   122
  6
Continuous
370
     5
390
9
  0
LAYER
  5
4E
102
{ACAD_XDICTIONARY
360
4F
102
}
330
1BF
100
AcDbSymbolTableRecord
100
AcDbLayerTableRecord
  2
A-Section-G
 70
     0
 62
   140
  6
Continuous
370
     9
390
9
  0
ENDTAB
  0
TABLE
  2
STYLE
  5
1C3
330
0
100
AcDbSymbolTable
 70
     3
  0
STYLE
  5
1C4
330
1C3
100
AcDbSymbolTableRecord
100
AcDbTextStyleTableRecord
  2
Standard
 70
     0
 40
0.0
 41
1.0
 50
0.0
 71
     0
 42
2.5
  3
txt
  4

  0
STYLE
  5
AD
330
1C3
100
AcDbSymbolTableRecord
100
AcDbTextStyleTableRecord
  2
ROMANS
 70
     0
 40
0.0
 41
0.9
 50
0.0
 71
     0
 42
20.0
  3
romans.shx
  4

  0
STYLE
  5
14
330
1C3
100
AcDbSymbolTableRecord
100
AcDbTextStyleTableRecord
  2
AVA
 70
     0
 40
0.0
 41
1.0
 50
0.0
 71
     0
 42
158.5644099714409
  3
arial.ttf
  4

1001
ACAD
1000
Arial CE
1071
    60962
  0
ENDTAB
  0
TABLE
  2
VIEW
  5
1C9
330
0
100
AcDbSymbolTable
 70
     1
  0
VIEW
  5
1B7
330
1C9
100
AcDbSymbolTableRecord
100
AcDbViewTableRecord
  2
RODODENDRON 5
 70
     0
 40
14020.0
 10
220287.1664355166
 20
148687.514558954
 41
10200.00000000003
 11
0.0
 21
0.0
 31
1.0
 12
0.0
 22
0.0
 32
0.0
 42
50.0
 43
0.0
 44
0.0
 50
0.0
 71
     0
281
     0
 72
     1
110
0.0
120
0.0
130
0.0
111
1.0
121
0.0
131
0.0
112
0.0
122
1.0
132
0.0
 79
     0
146
0.0
  0
ENDTAB
  0
TABLE
  2
UCS
  5
1CA
330
0
100
AcDbSymbolTable
 70
     0
  0
ENDTAB
  0
TABLE
  2
APPID
  5
1CD
330
0
100
AcDbSymbolTable
 70
     4
  0
APPID
  5
15
330
1CD
100
AcDbSymbolTableRecord
100
AcDbRegAppTableRecord
  2
ACAD
 70
     0
  0
APPID
  5
F
330
1CD
100
AcDbSymbolTableRecord
100
AcDbRegAppTableRecord
  2
RAK
 70
     0
  0
APPID
  5
1BA
330
1CD
100
AcDbSymbolTableRecord
100
AcDbRegAppTableRecord
  2
ACAD_PSEXT
 70
     0
  0
APPID
  5
1C2
330
1CD
100
AcDbSymbolTableRecord
100
AcDbRegAppTableRecord
  2
AcLayerTools
 70
     0
  0
ENDTAB
  0
TABLE
  2
DIMSTYLE
  5
1CE
330
0
100
AcDbSymbolTable
 70
     1
100
AcDbDimStyleTable
 71
     1
340
B3
  0
DIMSTYLE
105
B3
102
{ACAD_REACTORS
330
99
330
B4
330
BF
330
CA
330
D5
330
E0
330
EB
330
14F
330
15C
330
167
330
172
330
17D
330
188
330
193
330
19E
330
1A9
102
}
330
1CE
100
AcDbSymbolTableRecord
100
AcDbDimStyleTableRecord
  2
500
 70
     0
 41
30.0
 42
43.0
 43
0.0
 44
13.0
 45
0.5
 46
12.0
 73
     0
 74
     0
 75
     1
 76
     1
 78
    12
140
80.0
141
0.0
145
1.0
147
0.0
172
     1
174
     1
176
     1
177
     1
178
   140
271
     1
272
     1
279
     2
340
AD
341
A3
342
A3
  0
ENDTAB
  0
TABLE
  2
BLOCK_RECORD
  5
1
330
0
100
AcDbSymbolTable
 70
    17
  0
BLOCK_RECORD
  5
2
102
{ACAD_XDICTIONARY
360
3
102
}
330
1
100
AcDbSymbolTableRecord
100
AcDbBlockTableRecord
  2
*Model_Space
340
1B5
  0
BLOCK_RECORD
  5
1BB
330
1
100
AcDbSymbolTableRecord
100
AcDbBlockTableRecord
  2
*Paper_Space
340
1BE
  0
BLOCK_RECORD
  5
A3
102
{ACAD_XDICTIONARY
360
A4
102
}
330
1
100
AcDbSymbolTableRecord
100
AcDbBlockTableRecord
  2
B-DIM
340
0
102
{BLKREFS
331
A2
331
AB
331
B8
331
B9
331
C3
331
C4
331
CE
331
CF
331
D9
331
DA
331
E4
331
E5
331
EF
331
F0
331
1A2
331
1A3
331
155
331
156
331
160
331
161
331
16B
331
16C
331
176
331
177
331
181
331
182
331
18C
331
18D
331
197
331
198
331
1AD
331
1AE
102
}
  0
BLOCK_RECORD
  5
9D
330
1
100
AcDbSymbolTableRecord
100
AcDbBlockTableRecord
  2
*D1
340
0
  0
BLOCK_RECORD
  5
B5
330
1
100
AcDbSymbolTableRecord
100
AcDbBlockTableRecord
  2
*D2
340
0
  0
BLOCK_RECORD
  5
C0
330
1
100
AcDbSymbolTableRecord
100
AcDbBlockTableRecord
  2
*D3
340
0
  0
BLOCK_RECORD
  5
CB
330
1
100
AcDbSymbolTableRecord
100
AcDbBlockTableRecord
  2
*D4
340
0
  0
BLOCK_RECORD
  5
D6
330
1
100
AcDbSymbolTableRecord
100
AcDbBlockTableRecord
  2
*D5
340
0
  0
BLOCK_RECORD
  5
E1
330
1
100
AcDbSymbolTableRecord
100
AcDbBlockTableRecord
  2
*D6
340
0
  0
BLOCK_RECORD
  5
EC
330
1
100
AcDbSymbolTableRecord
100
AcDbBlockTableRecord
  2
*D7
340
0
  0
BLOCK_RECORD
  5
150
330
1
100
AcDbSymbolTableRecord
100
AcDbBlockTableRecord
  2
*D8
340
0
  0
BLOCK_RECORD
  5
15D
330
1
100
AcDbSymbolTableRecord
100
AcDbBlockTableRecord
  2
*D9
340
0
  0
BLOCK_RECORD
  5
168
330
1
100
AcDbSymbolTableRecord
100
AcDbBlockTableRecord
  2
*D10
340
0
  0
BLOCK_RECORD
  5
173
330
1
100
AcDbSymbolTableRecord
100
AcDbBlockTableRecord
  2
*D11
340
0
  0
BLOCK_RECORD
  5
17E
330
1
100
AcDbSymbolTableRecord
100
AcDbBlockTableRecord
  2
*D12
340
0
  0
BLOCK_RECORD
  5
189
330
1
100
AcDbSymbolTableRecord
100
AcDbBlockTableRecord
  2
*D13
340
0
  0
BLOCK_RECORD
  5
194
330
1
100
AcDbSymbolTableRecord
100
AcDbBlockTableRecord
  2
*D14
340
0
  0
BLOCK_RECORD
  5
19F
330
1
100
AcDbSymbolTableRecord
100
AcDbBlockTableRecord
  2
*D15
340
0
  0
BLOCK_RECORD
  5
1AA
330
1
100
AcDbSymbolTableRecord
100
AcDbBlockTableRecord
  2
*D16
340
0
  0
ENDTAB
  0
ENDSEC
  0
SECTION
  2
BLOCKS
  0
BLOCK
  5
5
330
2
100
AcDbEntity
  8
0
100
AcDbBlockBegin
  2
*Model_Space
 70
     0
 10
0.0
 20
0.0
 30
0.0
  3
*Model_Space
  1

  0
ENDBLK
  5
1B4
330
2
100
AcDbEntity
  8
0
100
AcDbBlockEnd
  0
BLOCK
  5
1BC
330
1BB
100
AcDbEntity
 67
     1
  8
0
100
AcDbBlockBegin
  2
*Paper_Space
 70
     0
 10
0.0
 20
0.0
 30
0.0
  3
*Paper_Space
  1

  0
ENDBLK
  5
1BD
330
1BB
100
AcDbEntity
 67
     1
  8
0
100
AcDbBlockEnd
  0
BLOCK
  5
A6
330
A3
100
AcDbEntity
  8
0
100
AcDbBlockBegin
  2
B-DIM
 70
     0
 10
0.0
 20
0.0
 30
0.0
  3
B-DIM
  1

  0
LINE
  5
A7
330
A3
100
AcDbEntity
  8
0
 62
     1
100
AcDbLine
 10
0.000000000000091
 20
-1.1
 30
0.0
 11
0.000000000000091
 21
1.1
 31
0.0
  0
LWPOLYLINE
  5
A8
330
A3
100
AcDbEntity
  8
0
 62
     1
100
AcDbPolyline
 90
        2
 70
     0
 43
0.3
 10
-0.7071067811864851
 20
-0.7071067811864851
 10
0.707106781186576
 20
0.707106781186576
  0
LINE
  5
A9
330
A3
100
AcDbEntity
  8
0
 62
     1
100
AcDbLine
 10
1.20000000000009
 20
0.0
 30
0.0
 11
-1.199999999999909
 21
0.0
 31
0.0
  0
ENDBLK
  5
AA
330
A3
100
AcDbEntity
  8
0
100
AcDbBlockEnd
  0
BLOCK
  5
9E
330
9D
100
AcDbEntity
  8
0
100
AcDbBlockBegin
  2
*D1
 70
     1
 10
0.0
 20
0.0
 30
0.0
  3
*D1
  1

  0
LINE
  5
9F
330
9D
100
AcDbEntity
  8
0Wymiary-PL
 62
     1
370
    -2
100
AcDbLine
 10
217438.8271701582
 20
137741.2459597886
 30
0.0
 11
217408.8271701583
 21
137741.2459597886
 31
0.0
  0
LINE
  5
A0
330
9D
100
AcDbEntity
  8
0Wymiary-PL
 62
     1
370
    -2
100
AcDbLine
 10
217588.8271701583
 20
137741.2459597886
 30
0.0
 11
217618.8271701583
 21
137741.2459597886
 31
0.0
  0
LINE
  5
A1
330
9D
100
AcDbEntity
  8
0Wymiary-PL
 62
     1
370
    -2
100
AcDbLine
 10
217468.8271701583
 20
137741.2459597886
 30
0.0
 11
217558.8271701583
 21
137741.2459597886
 31
0.0
  0
INSERT
  5
A2
330
9D
100
AcDbEntity
  8
0Wymiary-PL
 62
     1
370
    -2
100
AcDbBlockReference
  2
B-DIM
 10
217468.8271701583
 20
137741.2459597886
 30
0.0
 41
30.0
 42
30.0
 43
30.0
  0
INSERT
  5
AB
330
9D
100
AcDbEntity
  8
0Wymiary-PL
 62
     1
370
    -2
100
AcDbBlockReference
  2
B-DIM
 10
217558.8271701583
 20
137741.2459597886
 30
0.0
 41
30.0
 42
30.0
 43
30.0
 50
180.0
  0
MTEXT
  5
AC
330
9D
100
AcDbEntity
  8
0Wymiary-PL
 62
   140
100
AcDbMText
 10
217513.8271701583
 20
137821.2459597886
 30
0.0
 40
80.0
 41
0.0
 71
     5
 72
     1
  1
\A1;90
  7
ROMANS
 73
     1
 44
1.0
1001
ACAD
1000
MTEXTBEGIN
1070
    73
1070
     1
1070
    44
1040
1.0
1070
    74
1070
     0
1000
MTEXTEND
  0
POINT
  5
AE
330
9D
100
AcDbEntity
  8
DEFPOINTS
 62
     0
100
AcDbPoint
 10
217468.8271701583
 20
137044.912027723
 30
0.0
  0
POINT
  5
B0
330
9D
100
AcDbEntity
  8
DEFPOINTS
 62
     0
100
AcDbPoint
 10
217558.8271701583
 20
137044.912027723
 30
0.0
  0
POINT
  5
B1
330
9D
100
AcDbEntity
  8
DEFPOINTS
 62
     0
100
AcDbPoint
 10
217558.8271701583
 20
137741.2459597886
 30
0.0
  0
ENDBLK
  5
B2
330
9D
100
AcDbEntity
  8
0
100
AcDbBlockEnd
  0
BLOCK
  5
B6
330
B5
100
AcDbEntity
  8
0
100
AcDbBlockBegin
  2
*D2
 70
     1
 10
0.0
 20
0.0
 30
0.0
  3
*D2
  1

  0
LINE
  5
B7
330
B5
100
AcDbEntity
  8
0Wymiary-PL
 62
     1
370
    -2
100
AcDbLine
 10
217588.8271701583
 20
137741.2459597886
 30
0.0
 11
218420.8271701582
 21
137741.2459597886
 31
0.0
  0
INSERT
  5
B8
330
B5
100
AcDbEntity
  8
0Wymiary-PL
 62
     1
370
    -2
100
AcDbBlockReference
  2
B-DIM
 10
217558.8271701583
 20
137741.2459597886
 30
0.0
 41
30.0
 42
30.0
 43
30.0
 50
180.0
  0
INSERT
  5
B9
330
B5
100
AcDbEntity
  8
0Wymiary-PL
 62
     1
370
    -2
100
AcDbBlockReference
  2
B-DIM
 10
218450.8271701583
 20
137741.2459597886
 30
0.0
 41
30.0
 42
30.0
 43
30.0
  0
MTEXT
  5
BA
330
B5
100
AcDbEntity
  8
0Wymiary-PL
 62
   140
100
AcDbMText
 10
218004.8271701583
 20
137821.2459597886
 30
0.0
 40
80.0
 41
0.0
 71
     5
 72
     1
  1
\A1;892
  7
ROMANS
 73
     1
 44
1.0
1001
ACAD
1000
MTEXTBEGIN
1070
    73
1070
     1
1070
    44
1040
1.0
1070
    74
1070
     0
1000
MTEXTEND
  0
POINT
  5
BB
330
B5
100
AcDbEntity
  8
DEFPOINTS
 62
     0
100
AcDbPoint
 10
217558.8271701583
 20
137044.912027723
 30
0.0
  0
POINT
  5
BC
330
B5
100
AcDbEntity
  8
DEFPOINTS
 62
     0
100
AcDbPoint
 10
218450.8271701583
 20
137371.912027723
 30
0.0
  0
POINT
  5
BD
330
B5
100
AcDbEntity
  8
DEFPOINTS
 62
     0
100
AcDbPoint
 10
218450.8271701583
 20
137741.2459597886
 30
0.0
  0
ENDBLK
  5
BE
330
B5
100
AcDbEntity
  8
0
100
AcDbBlockEnd
  0
BLOCK
  5
C1
330
C0
100
AcDbEntity
  8
0
100
AcDbBlockBegin
  2
*D3
 70
     1
 10
0.0
 20
0.0
 30
0.0
  3
*D3
  1

  0
LINE
  5
C2
330
C0
100
AcDbEntity
  8
0Wymiary-PL
 62
     1
370
    -2
100
AcDbLine
 10
218480.8271701582
 20
137741.2459597886
 30
0.0
 11
218785.8271701582
 21
137741.2459597886
 31
0.0
  0
INSERT
  5
C3
330
C0
100
AcDbEntity
  8
0Wymiary-PL
 62
     1
370
    -2
100
AcDbBlockReference
  2
B-DIM
 10
218450.8271701583
 20
137741.2459597886
 30
0.0
 41
30.0
 42
30.0
 43
30.0
 50
180.0
  0
INSERT
  5
C4
330
C0
100
AcDbEntity
  8
0Wymiary-PL
 62
     1
370
    -2
100
AcDbBlockReference
  2
B-DIM
 10
218815.8271701583
 20
137741.2459597886
 30
0.0
 41
30.0
 42
30.0
 43
30.0
  0
MTEXT
  5
C5
330
C0
100
AcDbEntity
  8
0Wymiary-PL
 62
   140
100
AcDbMText
 10
218633.3271701583
 20
137821.2459597886
 30
0.0
 40
80.0
 41
0.0
 71
     5
 72
     1
  1
\A1;365
  7
ROMANS
 73
     1
 44
1.0
1001
ACAD
1000
MTEXTBEGIN
1070
    73
1070
     1
1070
    44
1040
1.0
1070
    74
1070
     0
1000
MTEXTEND
  0
POINT
  5
C6
330
C0
100
AcDbEntity
  8
DEFPOINTS
 62
     0
100
AcDbPoint
 10
218450.8271701583
 20
137371.912027723
 30
0.0
  0
POINT
  5
C7
330
C0
100
AcDbEntity
  8
DEFPOINTS
 62
     0
100
AcDbPoint
 10
218815.8271701583
 20
137231.912027723
 30
0.0
  0
POINT
  5
C8
330
C0
100
AcDbEntity
  8
DEFPOINTS
 62
     0
100
AcDbPoint
 10
218815.8271701583
 20
137741.2459597886
 30
0.0
  0
ENDBLK
  5
C9
330
C0
100
AcDbEntity
  8
0
100
AcDbBlockEnd
  0
BLOCK
  5
CC
330
CB
100
AcDbEntity
  8
0
100
AcDbBlockBegin
  2
*D4
 70
     1
 10
0.0
 20
0.0
 30
0.0
  3
*D4
  1

  0
LINE
  5
CD
330
CB
100
AcDbEntity
  8
0Wymiary-PL
 62
     1
370
    -2
100
AcDbLine
 10
217498.8271701582
 20
137953.7005606817
 30
0.0
 11
218785.8271701582
 21
137953.7005606817
 31
0.0
  0
INSERT
  5
CE
330
CB
100
AcDbEntity
  8
0Wymiary-PL
 62
     1
370
    -2
100
AcDbBlockReference
  2
B-DIM
 10
217468.8271701583
 20
137953.7005606817
 30
0.0
 41
30.0
 42
30.0
 43
30.0
 50
180.0
  0
INSERT
  5
CF
330
CB
100
AcDbEntity
  8
0Wymiary-PL
 62
     1
370
    -2
100
AcDbBlockReference
  2
B-DIM
 10
218815.8271701583
 20
137953.7005606817
 30
0.0
 41
30.0
 42
30.0
 43
30.0
  0
MTEXT
  5
D0
330
CB
100
AcDbEntity
  8
0Wymiary-PL
 62
   140
100
AcDbMText
 10
218142.3271701583
 20
138033.7005606817
 30
0.0
 40
80.0
 41
0.0
 71
     5
 72
     1
  1
\A1;1347
  7
ROMANS
 73
     1
 44
1.0
1001
ACAD
1000
MTEXTBEGIN
1070
    73
1070
     1
1070
    44
1040
1.0
1070
    74
1070
     0
1000
MTEXTEND
  0
POINT
  5
D1
330
CB
100
AcDbEntity
  8
DEFPOINTS
 62
     0
100
AcDbPoint
 10
217468.8271701583
 20
137044.912027723
 30
0.0
  0
POINT
  5
D2
330
CB
100
AcDbEntity
  8
DEFPOINTS
 62
     0
100
AcDbPoint
 10
218815.8271701583
 20
137231.912027723
 30
0.0
  0
POINT
  5
D3
330
CB
100
AcDbEntity
  8
DEFPOINTS
 62
     0
100
AcDbPoint
 10
218815.8271701583
 20
137953.7005606817
 30
0.0
  0
ENDBLK
  5
D4
330
CB
100
AcDbEntity
  8
0
100
AcDbBlockEnd
  0
BLOCK
  5
D7
330
D6
100
AcDbEntity
  8
0
100
AcDbBlockBegin
  2
*D5
 70
     1
 10
0.0
 20
0.0
 30
0.0
  3
*D5
  1

  0
LINE
  5
D8
330
D6
100
AcDbEntity
  8
0Wymiary-PL
 62
     1
370
    -2
100
AcDbLine
 10
217075.9885851532
 20
137341.912027723
 30
0.0
 11
217075.9885851532
 21
137074.912027723
 31
0.0
  0
INSERT
  5
D9
330
D6
100
AcDbEntity
  8
0Wymiary-PL
 62
     1
370
    -2
100
AcDbBlockReference
  2
B-DIM
 10
217075.9885851532
 20
137371.912027723
 30
0.0
 41
30.0
 42
30.0
 43
30.0
 50
90.0
  0
INSERT
  5
DA
330
D6
100
AcDbEntity
  8
0Wymiary-PL
 62
     1
370
    -2
100
AcDbBlockReference
  2
B-DIM
 10
217075.9885851532
 20
137044.912027723
 30
0.0
 41
30.0
 42
30.0
 43
30.0
 50
270.0
  0
MTEXT
  5
DB
330
D6
100
AcDbEntity
  8
0Wymiary-PL
 62
   140
100
AcDbMText
 10
216995.9885851531
 20
137208.412027723
 30
0.0
 40
80.0
 41
0.0
 71
     5
 72
     1
  1
\A1;327
  7
ROMANS
 11
0.0000000000000001
 21
1.0
 31
0.0
 73
     1
 44
1.0
1001
ACAD
1000
MTEXTBEGIN
1070
    73
1070
     1
1070
    44
1040
1.0
1070
    74
1070
     0
1000
MTEXTEND
  0
POINT
  5
DC
330
D6
100
AcDbEntity
  8
DEFPOINTS
 62
     0
100
AcDbPoint
 10
217558.8271701583
 20
137371.912027723
 30
0.0
  0
POINT
  5
DD
330
D6
100
AcDbEntity
  8
DEFPOINTS
 62
     0
100
AcDbPoint
 10
217558.8271701583
 20
137044.912027723
 30
0.0
  0
POINT
  5
DE
330
D6
100
AcDbEntity
  8
DEFPOINTS
 62
     0
100
AcDbPoint
 10
217075.9885851532
 20
137044.912027723
 30
0.0
  0
ENDBLK
  5
DF
330
D6
100
AcDbEntity
  8
0
100
AcDbBlockEnd
  0
BLOCK
  5
E2
330
E1
100
AcDbEntity
  8
0
100
AcDbBlockBegin
  2
*D6
 70
     1
 10
0.0
 20
0.0
 30
0.0
  3
*D6
  1

  0
LINE
  5
E3
330
E1
100
AcDbEntity
  8
0Wymiary-PL
 62
     1
370
    -2
100
AcDbLine
 10
217075.9885851532
 20
137014.912027723
 30
0.0
 11
217075.9885851532
 21
136706.912027723
 31
0.0
  0
INSERT
  5
E4
330
E1
100
AcDbEntity
  8
0Wymiary-PL
 62
     1
370
    -2
100
AcDbBlockReference
  2
B-DIM
 10
217075.9885851532
 20
137044.912027723
 30
0.0
 41
30.0
 42
30.0
 43
30.0
 50
90.0
  0
INSERT
  5
E5
330
E1
100
AcDbEntity
  8
0Wymiary-PL
 62
     1
370
    -2
100
AcDbBlockReference
  2
B-DIM
 10
217075.9885851532
 20
136676.912027723
 30
0.0
 41
30.0
 42
30.0
 43
30.0
 50
270.0
  0
MTEXT
  5
E6
330
E1
100
AcDbEntity
  8
0Wymiary-PL
 62
   140
100
AcDbMText
 10
216995.9885851531
 20
136860.912027723
 30
0.0
 40
80.0
 41
0.0
 71
     5
 72
     1
  1
\A1;368
  7
ROMANS
 11
0.0000000000000001
 21
1.0
 31
0.0
 73
     1
 44
1.0
1001
ACAD
1000
MTEXTBEGIN
1070
    73
1070
     1
1070
    44
1040
1.0
1070
    74
1070
     0
1000
MTEXTEND
  0
POINT
  5
E7
330
E1
100
AcDbEntity
  8
DEFPOINTS
 62
     0
100
AcDbPoint
 10
217558.8271701583
 20
137044.912027723
 30
0.0
  0
POINT
  5
E8
330
E1
100
AcDbEntity
  8
DEFPOINTS
 62
     0
100
AcDbPoint
 10
217558.8271701583
 20
136676.912027723
 30
0.0
  0
POINT
  5
E9
330
E1
100
AcDbEntity
  8
DEFPOINTS
 62
     0
100
AcDbPoint
 10
217075.9885851532
 20
136676.912027723
 30
0.0
  0
ENDBLK
  5
EA
330
E1
100
AcDbEntity
  8
0
100
AcDbBlockEnd
  0
BLOCK
  5
ED
330
EC
100
AcDbEntity
  8
0
100
AcDbBlockBegin
  2
*D7
 70
     1
 10
0.0
 20
0.0
 30
0.0
  3
*D7
  1

  0
LINE
  5
EE
330
EC
100
AcDbEntity
  8
0Wymiary-PL
 62
     1
370
    -2
100
AcDbLine
 10
217075.9885851532
 20
136646.912027723
 30
0.0
 11
217075.9885851532
 21
136379.912027723
 31
0.0
  0
INSERT
  5
EF
330
EC
100
AcDbEntity
  8
0Wymiary-PL
 62
     1
370
    -2
100
AcDbBlockReference
  2
B-DIM
 10
217075.9885851532
 20
136676.912027723
 30
0.0
 41
30.0
 42
30.0
 43
30.0
 50
90.0
  0
INSERT
  5
F0
330
EC
100
AcDbEntity
  8
0Wymiary-PL
 62
     1
370
    -2
100
AcDbBlockReference
  2
B-DIM
 10
217075.9885851532
 20
136349.912027723
 30
0.0
 41
30.0
 42
30.0
 43
30.0
 50
270.0
  0
MTEXT
  5
F1
330
EC
100
AcDbEntity
  8
0Wymiary-PL
 62
   140
100
AcDbMText
 10
216995.9885851531
 20
136513.412027723
 30
0.0
 40
80.0
 41
0.0
 71
     5
 72
     1
  1
\A1;327
  7
ROMANS
 11
0.0000000000000001
 21
1.0
 31
0.0
 73
     1
 44
1.0
1001
ACAD
1000
MTEXTBEGIN
1070
    73
1070
     1
1070
    44
1040
1.0
1070
    74
1070
     0
1000
MTEXTEND
  0
POINT
  5
F2
330
EC
100
AcDbEntity
  8
DEFPOINTS
 62
     0
100
AcDbPoint
 10
217558.8271701583
 20
136676.912027723
 30
0.0
  0
POINT
  5
F3
330
EC
100
AcDbEntity
  8
DEFPOINTS
 62
     0
100
AcDbPoint
 10
217558.8271701583
 20
136349.912027723
 30
0.0
  0
POINT
  5
F4
330
EC
100
AcDbEntity
  8
DEFPOINTS
 62
     0
100
AcDbPoint
 10
217075.9885851532
 20
136349.912027723
 30
0.0
  0
ENDBLK
  5
F5
330
EC
100
AcDbEntity
  8
0
100
AcDbBlockEnd
  0
BLOCK
  5
151
330
150
100
AcDbEntity
  8
0
100
AcDbBlockBegin
  2
*D8
 70
     1
 10
0.0
 20
0.0
 30
0.0
  3
*D8
  1

  0
LINE
  5
152
330
150
100
AcDbEntity
  8
0Wymiary-PL
 62
     1
370
    -2
100
AcDbLine
 10
223360.9513195868
 20
137741.2459597886
 30
0.0
 11
223390.9513195868
 21
137741.2459597886
 31
0.0
  0
LINE
  5
153
330
150
100
AcDbEntity
  8
0Wymiary-PL
 62
     1
370
    -2
100
AcDbLine
 10
223210.9513195868
 20
137741.2459597886
 30
0.0
 11
223180.9513195868
 21
137741.2459597886
 31
0.0
  0
LINE
  5
154
330
150
100
AcDbEntity
  8
0Wymiary-PL
 62
     1
370
    -2
100
AcDbLine
 10
223330.9513195868
 20
137741.2459597886
 30
0.0
 11
223240.9513195868
 21
137741.2459597886
 31
0.0
  0
INSERT
  5
155
330
150
100
AcDbEntity
  8
0Wymiary-PL
 62
     1
370
    -2
100
AcDbBlockReference
  2
B-DIM
 10
223330.9513195868
 20
137741.2459597886
 30
0.0
 41
30.0
 42
30.0
 43
30.0
 50
180.0
  0
INSERT
  5
156
330
150
100
AcDbEntity
  8
0Wymiary-PL
 62
     1
370
    -2
100
AcDbBlockReference
  2
B-DIM
 10
223240.9513195868
 20
137741.2459597886
 30
0.0
 41
30.0
 42
30.0
 43
30.0
  0
MTEXT
  5
157
330
150
100
AcDbEntity
  8
0Wymiary-PL
 62
   140
100
AcDbMText
 10
223285.9513195868
 20
137821.2459597886
 30
0.0
 40
80.0
 41
0.0
 71
     5
 72
     1
  1
\A1;90
  7
ROMANS
 73
     1
 44
1.0
1001
ACAD
1000
MTEXTBEGIN
1070
    73
1070
     1
1070
    44
1040
1.0
1070
    74
1070
     0
1000
MTEXTEND
  0
POINT
  5
158
330
150
100
AcDbEntity
  8
DEFPOINTS
 62
     0
100
AcDbPoint
 10
223330.9513195868
 20
137044.912027723
 30
0.0
  0
POINT
  5
159
330
150
100
AcDbEntity
  8
DEFPOINTS
 62
     0
100
AcDbPoint
 10
223240.9513195868
 20
137044.912027723
 30
0.0
  0
POINT
  5
15A
330
150
100
AcDbEntity
  8
DEFPOINTS
 62
     0
100
AcDbPoint
 10
223240.9513195868
 20
137741.2459597886
 30
0.0
  0
ENDBLK
  5
15B
330
150
100
AcDbEntity
  8
0
100
AcDbBlockEnd
  0
BLOCK
  5
15E
330
15D
100
AcDbEntity
  8
0
100
AcDbBlockBegin
  2
*D9
 70
     1
 10
0.0
 20
0.0
 30
0.0
  3
*D9
  1

  0
LINE
  5
15F
330
15D
100
AcDbEntity
  8
0Wymiary-PL
 62
     1
370
    -2
100
AcDbLine
 10
223210.9513195868
 20
137741.2459597886
 30
0.0
 11
222378.9513195868
 21
137741.2459597886
 31
0.0
  0
INSERT
  5
160
330
15D
100
AcDbEntity
  8
0Wymiary-PL
 62
     1
370
    -2
100
AcDbBlockReference
  2
B-DIM
 10
223240.9513195868
 20
137741.2459597886
 30
0.0
 41
30.0
 42
30.0
 43
30.0
  0
INSERT
  5
161
330
15D
100
AcDbEntity
  8
0Wymiary-PL
 62
     1
370
    -2
100
AcDbBlockReference
  2
B-DIM
 10
222348.9513195868
 20
137741.2459597886
 30
0.0
 41
30.0
 42
30.0
 43
30.0
 50
180.0
  0
MTEXT
  5
162
330
15D
100
AcDbEntity
  8
0Wymiary-PL
 62
   140
100
AcDbMText
 10
222794.9513195868
 20
137821.2459597886
 30
0.0
 40
80.0
 41
0.0
 71
     5
 72
     1
  1
\A1;892
  7
ROMANS
 73
     1
 44
1.0
1001
ACAD
1000
MTEXTBEGIN
1070
    73
1070
     1
1070
    44
1040
1.0
1070
    74
1070
     0
1000
MTEXTEND
  0
POINT
  5
163
330
15D
100
AcDbEntity
  8
DEFPOINTS
 62
     0
100
AcDbPoint
 10
223240.9513195868
 20
137044.912027723
 30
0.0
  0
POINT
  5
164
330
15D
100
AcDbEntity
  8
DEFPOINTS
 62
     0
100
AcDbPoint
 10
222348.9513195868
 20
137371.912027723
 30
0.0
  0
POINT
  5
165
330
15D
100
AcDbEntity
  8
DEFPOINTS
 62
     0
100
AcDbPoint
 10
222348.9513195868
 20
137741.2459597886
 30
0.0
  0
ENDBLK
  5
166
330
15D
100
AcDbEntity
  8
0
100
AcDbBlockEnd
  0
BLOCK
  5
169
330
168
100
AcDbEntity
  8
0
100
AcDbBlockBegin
  2
*D10
 70
     1
 10
0.0
 20
0.0
 30
0.0
  3
*D10
  1

  0
LINE
  5
16A
330
168
100
AcDbEntity
  8
0Wymiary-PL
 62
     1
370
    -2
100
AcDbLine
 10
222318.9513195868
 20
137741.2459597886
 30
0.0
 11
222013.9513195868
 21
137741.2459597886
 31
0.0
  0
INSERT
  5
16B
330
168
100
AcDbEntity
  8
0Wymiary-PL
 62
     1
370
    -2
100
AcDbBlockReference
  2
B-DIM
 10
222348.9513195868
 20
137741.2459597886
 30
0.0
 41
30.0
 42
30.0
 43
30.0
  0
INSERT
  5
16C
330
168
100
AcDbEntity
  8
0Wymiary-PL
 62
     1
370
    -2
100
AcDbBlockReference
  2
B-DIM
 10
221983.9513195868
 20
137741.2459597886
 30
0.0
 41
30.0
 42
30.0
 43
30.0
 50
180.0
  0
MTEXT
  5
16D
330
168
100
AcDbEntity
  8
0Wymiary-PL
 62
   140
100
AcDbMText
 10
222166.4513195868
 20
137821.2459597886
 30
0.0
 40
80.0
 41
0.0
 71
     5
 72
     1
  1
\A1;365
  7
ROMANS
 73
     1
 44
1.0
1001
ACAD
1000
MTEXTBEGIN
1070
    73
1070
     1
1070
    44
1040
1.0
1070
    74
1070
     0
1000
MTEXTEND
  0
POINT
  5
16E
330
168
100
AcDbEntity
  8
DEFPOINTS
 62
     0
100
AcDbPoint
 10
222348.9513195868
 20
137371.912027723
 30
0.0
  0
POINT
  5
16F
330
168
100
AcDbEntity
  8
DEFPOINTS
 62
     0
100
AcDbPoint
 10
221983.9513195868
 20
137231.912027723
 30
0.0
  0
POINT
  5
170
330
168
100
AcDbEntity
  8
DEFPOINTS
 62
     0
100
AcDbPoint
 10
221983.9513195868
 20
137741.2459597886
 30
0.0
  0
ENDBLK
  5
171
330
168
100
AcDbEntity
  8
0
100
AcDbBlockEnd
  0
BLOCK
  5
174
330
173
100
AcDbEntity
  8
0
100
AcDbBlockBegin
  2
*D11
 70
     1
 10
0.0
 20
0.0
 30
0.0
  3
*D11
  1

  0
LINE
  5
175
330
173
100
AcDbEntity
  8
0Wymiary-PL
 62
     1
370
    -2
100
AcDbLine
 10
223300.9513195868
 20
137953.7005606817
 30
0.0
 11
222013.9513195868
 21
137953.7005606817
 31
0.0
  0
INSERT
  5
176
330
173
100
AcDbEntity
  8
0Wymiary-PL
 62
     1
370
    -2
100
AcDbBlockReference
  2
B-DIM
 10
223330.9513195868
 20
137953.7005606817
 30
0.0
 41
30.0
 42
30.0
 43
30.0
  0
INSERT
  5
177
330
173
100
AcDbEntity
  8
0Wymiary-PL
 62
     1
370
    -2
100
AcDbBlockReference
  2
B-DIM
 10
221983.9513195868
 20
137953.7005606817
 30
0.0
 41
30.0
 42
30.0
 43
30.0
 50
180.0
  0
MTEXT
  5
178
330
173
100
AcDbEntity
  8
0Wymiary-PL
 62
   140
100
AcDbMText
 10
222657.4513195868
 20
138033.7005606817
 30
0.0
 40
80.0
 41
0.0
 71
     5
 72
     1
  1
\A1;1347
  7
ROMANS
 73
     1
 44
1.0
1001
ACAD
1000
MTEXTBEGIN
1070
    73
1070
     1
1070
    44
1040
1.0
1070
    74
1070
     0
1000
MTEXTEND
  0
POINT
  5
179
330
173
100
AcDbEntity
  8
DEFPOINTS
 62
     0
100
AcDbPoint
 10
223330.9513195868
 20
137044.912027723
 30
0.0
  0
POINT
  5
17A
330
173
100
AcDbEntity
  8
DEFPOINTS
 62
     0
100
AcDbPoint
 10
221983.9513195868
 20
137231.912027723
 30
0.0
  0
POINT
  5
17B
330
173
100
AcDbEntity
  8
DEFPOINTS
 62
     0
100
AcDbPoint
 10
221983.9513195868
 20
137953.7005606817
 30
0.0
  0
ENDBLK
  5
17C
330
173
100
AcDbEntity
  8
0
100
AcDbBlockEnd
  0
BLOCK
  5
17F
330
17E
100
AcDbEntity
  8
0
100
AcDbBlockBegin
  2
*D12
 70
     1
 10
0.0
 20
0.0
 30
0.0
  3
*D12
  1

  0
LINE
  5
180
330
17E
100
AcDbEntity
  8
0Wymiary-PL
 62
     1
370
    -2
100
AcDbLine
 10
223778.165612302
 20
137341.912027723
 30
0.0
 11
223778.165612302
 21
137074.912027723
 31
0.0
  0
INSERT
  5
181
330
17E
100
AcDbEntity
  8
0Wymiary-PL
 62
     1
370
    -2
100
AcDbBlockReference
  2
B-DIM
 10
223778.165612302
 20
137371.912027723
 30
0.0
 41
30.0
 42
30.0
 43
30.0
 50
90.0
  0
INSERT
  5
182
330
17E
100
AcDbEntity
  8
0Wymiary-PL
 62
     1
370
    -2
100
AcDbBlockReference
  2
B-DIM
 10
223778.165612302
 20
137044.912027723
 30
0.0
 41
30.0
 42
30.0
 43
30.0
 50
270.0
  0
MTEXT
  5
183
330
17E
100
AcDbEntity
  8
0Wymiary-PL
 62
   140
100
AcDbMText
 10
223698.165612302
 20
137208.412027723
 30
0.0
 40
80.0
 41
0.0
 71
     5
 72
     1
  1
\A1;327
  7
ROMANS
 11
0.0000000000000001
 21
1.0
 31
0.0
 73
     1
 44
1.0
1001
ACAD
1000
MTEXTBEGIN
1070
    73
1070
     1
1070
    44
1040
1.0
1070
    74
1070
     0
1000
MTEXTEND
  0
POINT
  5
184
330
17E
100
AcDbEntity
  8
DEFPOINTS
 62
     0
100
AcDbPoint
 10
223240.9513195868
 20
137371.912027723
 30
0.0
  0
POINT
  5
185
330
17E
100
AcDbEntity
  8
DEFPOINTS
 62
     0
100
AcDbPoint
 10
223240.9513195868
 20
137044.912027723
 30
0.0
  0
POINT
  5
186
330
17E
100
AcDbEntity
  8
DEFPOINTS
 62
     0
100
AcDbPoint
 10
223778.165612302
 20
137044.912027723
 30
0.0
  0
ENDBLK
  5
187
330
17E
100
AcDbEntity
  8
0
100
AcDbBlockEnd
  0
BLOCK
  5
18A
330
189
100
AcDbEntity
  8
0
100
AcDbBlockBegin
  2
*D13
 70
     1
 10
0.0
 20
0.0
 30
0.0
  3
*D13
  1

  0
LINE
  5
18B
330
189
100
AcDbEntity
  8
0Wymiary-PL
 62
     1
370
    -2
100
AcDbLine
 10
223778.165612302
 20
137014.912027723
 30
0.0
 11
223778.165612302
 21
136706.912027723
 31
0.0
  0
INSERT
  5
18C
330
189
100
AcDbEntity
  8
0Wymiary-PL
 62
     1
370
    -2
100
AcDbBlockReference
  2
B-DIM
 10
223778.165612302
 20
137044.912027723
 30
0.0
 41
30.0
 42
30.0
 43
30.0
 50
90.0
  0
INSERT
  5
18D
330
189
100
AcDbEntity
  8
0Wymiary-PL
 62
     1
370
    -2
100
AcDbBlockReference
  2
B-DIM
 10
223778.165612302
 20
136676.912027723
 30
0.0
 41
30.0
 42
30.0
 43
30.0
 50
270.0
  0
MTEXT
  5
18E
330
189
100
AcDbEntity
  8
0Wymiary-PL
 62
   140
100
AcDbMText
 10
223698.165612302
 20
136860.912027723
 30
0.0
 40
80.0
 41
0.0
 71
     5
 72
     1
  1
\A1;368
  7
ROMANS
 11
0.0000000000000001
 21
1.0
 31
0.0
 73
     1
 44
1.0
1001
ACAD
1000
MTEXTBEGIN
1070
    73
1070
     1
1070
    44
1040
1.0
1070
    74
1070
     0
1000
MTEXTEND
  0
POINT
  5
18F
330
189
100
AcDbEntity
  8
DEFPOINTS
 62
     0
100
AcDbPoint
 10
223240.9513195868
 20
137044.912027723
 30
0.0
  0
POINT
  5
190
330
189
100
AcDbEntity
  8
DEFPOINTS
 62
     0
100
AcDbPoint
 10
223240.9513195868
 20
136676.912027723
 30
0.0
  0
POINT
  5
191
330
189
100
AcDbEntity
  8
DEFPOINTS
 62
     0
100
AcDbPoint
 10
223778.165612302
 20
136676.912027723
 30
0.0
  0
ENDBLK
  5
192
330
189
100
AcDbEntity
  8
0
100
AcDbBlockEnd
  0
BLOCK
  5
195
330
194
100
AcDbEntity
  8
0
100
AcDbBlockBegin
  2
*D14
 70
     1
 10
0.0
 20
0.0
 30
0.0
  3
*D14
  1

  0
LINE
  5
196
330
194
100
AcDbEntity
  8
0Wymiary-PL
 62
     1
370
    -2
100
AcDbLine
 10
223778.165612302
 20
136646.912027723
 30
0.0
 11
223778.165612302
 21
136379.912027723
 31
0.0
  0
INSERT
  5
197
330
194
100
AcDbEntity
  8
0Wymiary-PL
 62
     1
370
    -2
100
AcDbBlockReference
  2
B-DIM
 10
223778.165612302
 20
136676.912027723
 30
0.0
 41
30.0
 42
30.0
 43
30.0
 50
90.0
  0
INSERT
  5
198
330
194
100
AcDbEntity
  8
0Wymiary-PL
 62
     1
370
    -2
100
AcDbBlockReference
  2
B-DIM
 10
223778.165612302
 20
136349.912027723
 30
0.0
 41
30.0
 42
30.0
 43
30.0
 50
270.0
  0
MTEXT
  5
199
330
194
100
AcDbEntity
  8
0Wymiary-PL
 62
   140
100
AcDbMText
 10
223698.165612302
 20
136513.412027723
 30
0.0
 40
80.0
 41
0.0
 71
     5
 72
     1
  1
\A1;327
  7
ROMANS
 11
0.0000000000000001
 21
1.0
 31
0.0
 73
     1
 44
1.0
1001
ACAD
1000
MTEXTBEGIN
1070
    73
1070
     1
1070
    44
1040
1.0
1070
    74
1070
     0
1000
MTEXTEND
  0
POINT
  5
19A
330
194
100
AcDbEntity
  8
DEFPOINTS
 62
     0
100
AcDbPoint
 10
223240.9513195868
 20
136676.912027723
 30
0.0
  0
POINT
  5
19B
330
194
100
AcDbEntity
  8
DEFPOINTS
 62
     0
100
AcDbPoint
 10
223240.9513195868
 20
136349.912027723
 30
0.0
  0
POINT
  5
19C
330
194
100
AcDbEntity
  8
DEFPOINTS
 62
     0
100
AcDbPoint
 10
223778.165612302
 20
136349.912027723
 30
0.0
  0
ENDBLK
  5
19D
330
194
100
AcDbEntity
  8
0
100
AcDbBlockEnd
  0
BLOCK
  5
1A0
330
19F
100
AcDbEntity
  8
0
100
AcDbBlockBegin
  2
*D15
 70
     1
 10
0.0
 20
0.0
 30
0.0
  3
*D15
  1

  0
LINE
  5
1A1
330
19F
100
AcDbEntity
  8
0Wymiary-PL
 62
     1
370
    -2
100
AcDbLine
 10
216848.7183985064
 20
137341.912027723
 30
0.0
 11
216848.7183985064
 21
136379.912027723
 31
0.0
  0
INSERT
  5
1A2
330
19F
100
AcDbEntity
  8
0Wymiary-PL
 62
     1
370
    -2
100
AcDbBlockReference
  2
B-DIM
 10
216848.7183985064
 20
137371.912027723
 30
0.0
 41
30.0
 42
30.0
 43
30.0
 50
90.0
  0
INSERT
  5
1A3
330
19F
100
AcDbEntity
  8
0Wymiary-PL
 62
     1
370
    -2
100
AcDbBlockReference
  2
B-DIM
 10
216848.7183985064
 20
136349.912027723
 30
0.0
 41
30.0
 42
30.0
 43
30.0
 50
270.0
  0
MTEXT
  5
1A4
330
19F
100
AcDbEntity
  8
0Wymiary-PL
 62
   140
100
AcDbMText
 10
216768.7183985064
 20
136860.912027723
 30
0.0
 40
80.0
 41
0.0
 71
     5
 72
     1
  1
\A1;1022
  7
ROMANS
 11
0.0000000000000001
 21
1.0
 31
0.0
 73
     1
 44
1.0
1001
ACAD
1000
MTEXTBEGIN
1070
    73
1070
     1
1070
    44
1040
1.0
1070
    74
1070
     0
1000
MTEXTEND
  0
POINT
  5
1A5
330
19F
100
AcDbEntity
  8
DEFPOINTS
 62
     0
100
AcDbPoint
 10
217558.8271701583
 20
137371.912027723
 30
0.0
  0
POINT
  5
1A6
330
19F
100
AcDbEntity
  8
DEFPOINTS
 62
     0
100
AcDbPoint
 10
217558.8271701583
 20
136349.912027723
 30
0.0
  0
POINT
  5
1A7
330
19F
100
AcDbEntity
  8
DEFPOINTS
 62
     0
100
AcDbPoint
 10
216848.7183985064
 20
136349.912027723
 30
0.0
  0
ENDBLK
  5
1A8
330
19F
100
AcDbEntity
  8
0
100
AcDbBlockEnd
  0
BLOCK
  5
1AB
330
1AA
100
AcDbEntity
  8
0
100
AcDbBlockBegin
  2
*D16
 70
     1
 10
0.0
 20
0.0
 30
0.0
  3
*D16
  1

  0
LINE
  5
1AC
330
1AA
100
AcDbEntity
  8
0Wymiary-PL
 62
     1
370
    -2
100
AcDbLine
 10
223985.3955688654
 20
137341.912027723
 30
0.0
 11
223985.3955688654
 21
136379.912027723
 31
0.0
  0
INSERT
  5
1AD
330
1AA
100
AcDbEntity
  8
0Wymiary-PL
 62
     1
370
    -2
100
AcDbBlockReference
  2
B-DIM
 10
223985.3955688654
 20
137371.912027723
 30
0.0
 41
30.0
 42
30.0
 43
30.0
 50
90.0
  0
INSERT
  5
1AE
330
1AA
100
AcDbEntity
  8
0Wymiary-PL
 62
     1
370
    -2
100
AcDbBlockReference
  2
B-DIM
 10
223985.3955688654
 20
136349.912027723
 30
0.0
 41
30.0
 42
30.0
 43
30.0
 50
270.0
  0
MTEXT
  5
1AF
330
1AA
100
AcDbEntity
  8
0Wymiary-PL
 62
   140
100
AcDbMText
 10
223905.3955688653
 20
136860.912027723
 30
0.0
 40
80.0
 41
0.0
 71
     5
 72
     1
  1
\A1;1022
  7
ROMANS
 11
0.0000000000000001
 21
1.0
 31
0.0
 73
     1
 44
1.0
1001
ACAD
1000
MTEXTBEGIN
1070
    73
1070
     1
1070
    44
1040
1.0
1070
    74
1070
     0
1000
MTEXTEND
  0
POINT
  5
1B0
330
1AA
100
AcDbEntity
  8
DEFPOINTS
 62
     0
100
AcDbPoint
 10
223240.9513195868
 20
137371.912027723
 30
0.0
  0
POINT
  5
1B1
330
1AA
100
AcDbEntity
  8
DEFPOINTS
 62
     0
100
AcDbPoint
 10
223240.9513195868
 20
136349.912027723
 30
0.0
  0
POINT
  5
1B2
330
1AA
100
AcDbEntity
  8
DEFPOINTS
 62
     0
100
AcDbPoint
 10
223985.3955688654
 20
136349.912027723
 30
0.0
  0
ENDBLK
  5
1B3
330
1AA
100
AcDbEntity
  8
0
100
AcDbBlockEnd
  0
ENDSEC
  0
SECTION
  2
ENTITIES
  0
TEXT
  5
10
330
2
100
AcDbEntity
  8
NAPISY
100
AcDbText
 10
216646.5520012698
 20
128323.0717886572
 30
0.0
 40
100.0
  1
   O B R Y S   B U D Y N K U           S K A L A   1 : 5 0 0 
  7
AVA
100
AcDbText
  0
LINE
  5
16
330
2
100
AcDbEntity
  8
NAPISY
100
AcDbLine
 10
218382.9246601347
 20
131216.877355255
 30
0.0
 11
218834.8476515559
 21
131216.7326121542
 31
0.0
  0
TEXT
  5
17
330
2
100
AcDbEntity
  8
NAPISY
100
AcDbText
 10
218649.8121600232
 20
131119.5801335784
 30
0.0
 40
200.0
  1
N
 50
89.98164915652033
  7
AVA
 72
     1
 11
218649.8444723025
 21
131220.466895116
 31
0.0
100
AcDbText
  0
CIRCLE
  5
18
330
2
100
AcDbEntity
  8
NAPISY
100
AcDbCircle
 10
218072.498150585
 20
131216.9767794851
 30
0.0
 40
310.4265254715954
  0
LINE
  5
19
330
2
100
AcDbEntity
  8
NAPISY
100
AcDbLine
 10
217853.0637641697
 20
131436.5517729951
 30
0.0
 11
218291.9325370002
 21
130997.4017859751
 31
0.0
  0
LINE
  5
1A
330
2
100
AcDbEntity
  8
NAPISY
100
AcDbLine
 10
218292.073144095
 20
131436.4111659003
 30
0.0
 11
217852.9231570749
 21
130997.5423930699
 31
0.0
  0
HATCH
  5
1B
330
2
100
AcDbEntity
  8
SZRAF
100
AcDbHatch
 10
0.0
 20
0.0
 30
0.0
210
0.0
220
0.0
230
1.0
  2
SOLID
 70
     1
 71
     0
 91
        1
 92
        7
 72
     1
 73
     1
 93
        4
 10
218263.7798153369
 20
131408.1359550649
 42
0.0
 10
218292.073144095
 20
131436.4111659003
 42
-0.4142135623730901
 10
218291.9325370002
 20
130997.4017859751
 42
0.0
 10
218263.6573261648
 20
131025.6951147332
 42
0.4142135623731035
 97
        0
 75
     0
 76
     1
 47
2.081360372020095
 98
        1
 10
218355.7481020985
 20
131210.8163206285
  0
ARC
  5
1F
330
2
100
AcDbEntity
  8
NAPISY
100
AcDbCircle
 10
218072.498150585
 20
131216.9767794851
 30
0.0
 40
270.4265254715954
100
AcDbArc
 50
314.9816491556971
 51
44.98164915554975
  0
LINE
  5
20
330
2
100
AcDbEntity
  8
NAPISY
100
AcDbLine
 10
218834.8476515559
 20
131216.7326121542
 30
0.0
 11
218723.2775777257
 21
131105.233983363
 31
0.0
  0
LINE
  5
21
330
2
100
AcDbEntity
  8
NAPISY
100
AcDbLine
 10
218834.8476515559
 20
131216.7326121542
 30
0.0
 11
218719.1215029987
 21
131332.5329146206
 31
0.0
  0
LINE
  5
22
330
2
100
AcDbEntity
  8
NAPISY
  6
HIDDEN
 62
     1
100
AcDbLine
 10
220399.8892448725
 20
133670.6627583035
 30
0.0
 11
220399.8892448725
 21
138473.1198157809
 31
0.0
  0
TEXT
  5
24
330
2
100
AcDbEntity
  8
NAPISY
100
AcDbText
 10
220340.3680678792
 20
134752.3099211241
 30
0.0
 40
100.0
  1
OŚ ODBICIA LUSTRZANEGO
 50
90.0
  7
AVA
100
AcDbText
  0
TEXT
  5
25
330
2
100
AcDbEntity
  8
NAPISY
100
AcDbText
 10
216747.2165030225
 20
140456.5685721763
 30
0.0
 40
150.0
  1
PRZYKŁADOWE USTAWIENIE WZGLĘDEM STRON ŚWIATA
  7
AVA
100
AcDbText
  0
TEXT
  5
26
330
2
100
AcDbEntity
  8
NAPISY
100
AcDbText
 10
216742.7650523877
 20
140786.437049539
 30
0.0
 40
150.0
  1
MOŻNA WKLEIĆ DO PROJEKTU ZAGOSPODAROWANIA TERENU
  7
AVA
100
AcDbText
  0
TEXT
  5
27
330
2
100
AcDbEntity
  8
NAPISY
100
AcDbText
 10
216666.4297817526
 20
141116.3055269018
 30
0.0
 40
150.0
  1
"DOM W RODODENDRONACH 5 (E)"
  7
AVA
100
AcDbText
  0
LWPOLYLINE
  5
28
330
2
100
AcDbEntity
  8
RAMKI-A4
100
AcDbPolyline
 90
        4
 70
     1
 43
0.0
 10
215187.2000545948
 20
127657.5157057546
 10
215187.2000545948
 20
141677.5157057546
 10
225387.2000545948
 20
141677.5157057546
 10
225387.2000545948
 20
127657.5157057546
  0
LINE
  5
2C
330
2
100
AcDbEntity
  8
NAPISY
100
AcDbLine
 10
222416.8538296104
 20
131216.877355255
 30
0.0
 11
221964.9308381892
 21
131216.7326121542
 31
0.0
  0
TEXT
  5
2D
330
2
100
AcDbEntity
  8
NAPISY
100
AcDbText
 10
222149.9022294974
 20
131319.7165489614
 30
0.0
 40
200.0
  1
N
 50
270.0183508443136
  7
AVA
 72
     1
 11
222149.9345417782
 21
131218.8297874238
 31
0.0
100
AcDbText
  0
CIRCLE
  5
2E
330
2
100
AcDbEntity
  8
NAPISY
100
AcDbCircle
 10
222727.2803391601
 20
131216.9767794851
 30
0.0
 40
310.4265254715954
  0
LINE
  5
2F
330
2
100
AcDbEntity
  8
NAPISY
100
AcDbLine
 10
222946.7147255754
 20
131436.5517729951
 30
0.0
 11
222507.8459527448
 21
130997.4017859751
 31
0.0
  0
LINE
  5
30
330
2
100
AcDbEntity
  8
NAPISY
100
AcDbLine
 10
222507.7053456501
 20
131436.4111659003
 30
0.0
 11
222946.8553326702
 21
130997.5423930699
 31
0.0
  0
HATCH
  5
31
330
2
100
AcDbEntity
  8
SZRAF
100
AcDbHatch
 10
0.0
 20
0.0
 30
0.0
210
0.0
220
0.0
230
1.0
  2
SOLID
 70
     1
 71
     0
 91
        1
 92
        7
 72
     1
 73
     1
 93
        4
 10
222535.9986744081
 20
131408.1359550649
 42
0.0
 10
222507.7053456501
 20
131436.4111659003
 42
0.4142135623730901
 10
222507.8459527448
 20
130997.4017859751
 42
0.0
 10
222536.1211635803
 20
131025.6951147332
 42
-0.4142135623731035
 97
        0
 75
     0
 76
     1
 47
2.081360372020095
 98
        1
 10
222444.0303876465
 20
131210.8163206285
  0
ARC
  5
32
330
2
100
AcDbEntity
  8
NAPISY
100
AcDbCircle
 10
222727.2803391601
 20
131216.9767794851
 30
0.0
 40
270.4265254715954
100
AcDbArc
 50
135.0183508441944
 51
225.0183508433056
  0
LINE
  5
33
330
2
100
AcDbEntity
  8
NAPISY
100
AcDbLine
 10
221964.9308381892
 20
131216.7326121542
 30
0.0
 11
222076.5009120194
 21
131105.233983363
 31
0.0
  0
LINE
  5
34
330
2
100
AcDbEntity
  8
NAPISY
100
AcDbLine
 10
221964.9308381892
 20
131216.7326121542
 30
0.0
 11
222080.6569867464
 21
131332.5329146206
 31
0.0
  0
LWPOLYLINE
  5
35
330
2
100
AcDbEntity
  8
SCIANY
 48
4.0
100
AcDbPolyline
 90
       12
 70
     1
 43
0.0
 10
217558.8271701583
 20
137371.912027723
 10
217558.8271701583
 20
137044.912027723
 10
217468.8271701583
 20
137044.912027723
 10
217468.8271701583
 20
136676.912027723
 10
217558.8271701583
 20
136676.912027723
 10
217558.8271701583
 20
136349.912027723
 10
218450.8271701583
 20
136349.912027723
 10
218450.8271701583
 20
136409.912027723
 10
218815.8271701693
 20
136409.912027723
 10
218815.8271701583
 20
137231.912027723
 10
218450.8271701583
 20
137231.912027723
 10
218450.8271701583
 20
137371.912027723
  0
LINE
  5
39
330
2
100
AcDbEntity
  8
SCIANY
 48
4.0
100
AcDbLine
 10
218054.8271701582
 20
136409.912027723
 30
0.0
 11
218054.8271701582
 21
136349.912027723
 31
0.0
  0
LINE
  5
3A
330
2
100
AcDbEntity
  8
SCIANY
 48
4.0
100
AcDbLine
 10
217954.8271701583
 20
136409.912027723
 30
0.0
 11
217954.8271701583
 21
136349.912027723
 31
0.0
  0
LINE
  5
3B
330
2
100
AcDbEntity
  8
SCIANY
 48
4.0
100
AcDbLine
 10
218501.8271701583
 20
136469.912027723
 30
0.0
 11
218501.8271701583
 21
136409.912027723
 31
0.0
  0
LINE
  5
3C
330
2
100
AcDbEntity
  8
SCIANY
 48
4.0
100
AcDbLine
 10
218741.8271701583
 20
136469.912027723
 30
0.0
 11
218741.8271701583
 21
136409.912027723
 31
0.0
  0
LWPOLYLINE
  5
3D
330
2
100
AcDbEntity
  8
SCIANY
 48
4.0
100
AcDbPolyline
 90
       12
 70
     1
 43
0.0
 10
217618.8271701583
 20
137311.912027723
 10
217618.8271701583
 20
136984.912027723
 10
217528.8271701583
 20
136984.912027723
 10
217528.8271701583
 20
136736.912027723
 10
217618.8271701583
 20
136736.912027723
 10
217618.8271701583
 20
136409.912027723
 10
218390.8271701582
 20
136409.912027723
 10
218390.8271701582
 20
136469.912027723
 10
218755.8271701685
 20
136469.912027723
 10
218755.8271701591
 20
137171.912027723
 10
218390.8271701582
 20
137171.912027723
 10
218390.8271701582
 20
137311.912027723
  0
HATCH
  5
3E
330
2
100
AcDbEntity
  8
0Hatch
100
AcDbHatch
 10
0.0
 20
0.0
 30
0.0
210
0.0
220
0.0
230
1.0
  2
SOLID
 70
     1
 71
     0
 91
        2
 92
       22
 72
     0
 73
     1
 93
        8
 10
218501.8271701582
 20
136469.912027723
 10
218390.8271701582
 20
136469.912027723
 10
218390.8271701582
 20
136409.912027723
 10
218054.8271701582
 20
136409.912027723
 10
218054.8271701582
 20
136349.912027723
 10
218450.8271701583
 20
136349.912027723
 10
218450.8271701583
 20
136409.912027723
 10
218501.8271701583
 20
136409.912027723
 97
        0
 92
        7
 72
     0
 73
     1
 93
       24
 10
218815.8271701583
 20
137231.912027723
 10
218450.8271701583
 20
137231.912027723
 10
218450.8271701583
 20
137371.912027723
 10
217558.8271701582
 20
137371.912027723
 10
217558.8271701583
 20
137044.912027723
 10
217468.8271701583
 20
137044.912027723
 10
217468.8271701583
 20
136676.912027723
 10
217558.8271701583
 20
136676.912027723
 10
217558.8271701583
 20
136349.912027723
 10
217954.8271701583
 20
136349.912027723
 10
217954.8271701583
 20
136409.912027723
 10
217618.8271701583
 20
136409.912027723
 10
217618.8271701583
 20
136736.912027723
 10
217528.8271701583
 20
136736.912027723
 10
217528.8271701583
 20
136984.912027723
 10
217618.8271701583
 20
136984.912027723
 10
217618.8271701583
 20
137311.912027723
 10
218390.8271701582
 20
137311.912027723
 10
218390.8271701582
 20
137171.912027723
 10
218755.827170159
 20
137171.912027723
 10
218755.8271701685
 20
136469.912027723
 10
218741.8271701583
 20
136469.912027723
 10
218741.8271701583
 20
136409.912027723
 10
218815.8271701693
 20
136409.912027723
 97
        0
 75
     0
 76
     1
 47
3.250976905474243
 98
        2
 10
218455.3189401033
 20
136449.1931948756
 10
218772.0213894181
 20
136443.0557400689
1001
ACAD
1010
217368.8271701582
1020
136349.912027723
1030
0.0
  0
LINE
  5
42
330
2
100
AcDbEntity
  8
WIDOK
100
AcDbLine
 10
217884.8271701582
 20
136265.912027723
 30
0.0
 11
218124.8271701583
 21
136265.912027723
 31
0.0
  0
LINE
  5
46
330
2
100
AcDbEntity
  8
WIDOK
100
AcDbLine
 10
217854.8271701583
 20
136235.912027723
 30
0.0
 11
218154.8271701583
 21
136235.912027723
 31
0.0
  0
LINE
  5
47
330
2
100
AcDbEntity
  8
WIDOK
100
AcDbLine
 10
217824.8271701582
 20
136205.912027723
 30
0.0
 11
218184.8271701583
 21
136205.912027723
 31
0.0
  0
LINE
  5
48
330
2
100
AcDbEntity
  8
WIDOK
100
AcDbLine
 10
217854.8271701583
 20
136349.912027723
 30
0.0
 11
217854.8271701583
 21
136235.912027723
 31
0.0
  0
LINE
  5
49
330
2
100
AcDbEntity
  8
WIDOK
100
AcDbLine
 10
217824.8271701582
 20
136349.912027723
 30
0.0
 11
217824.8271701582
 21
136205.912027723
 31
0.0
  0
LINE
  5
4A
330
2
100
AcDbEntity
  8
WIDOK
100
AcDbLine
 10
218124.8271701583
 20
136265.912027723
 30
0.0
 11
218124.8271701583
 21
136349.912027723
 31
0.0
  0
LINE
  5
4B
330
2
100
AcDbEntity
  8
WIDOK
100
AcDbLine
 10
218154.8271701583
 20
136235.912027723
 30
0.0
 11
218154.8271701583
 21
136349.912027723
 31
0.0
  0
LINE
  5
4C
330
2
100
AcDbEntity
  8
WIDOK
100
AcDbLine
 10
218184.8271701583
 20
136205.912027723
 30
0.0
 11
218184.8271701583
 21
136342.912027723
 31
0.0
  0
LINE
  5
4D
330
2
100
AcDbEntity
  8
A-Section-G
  6
Continuous
 62
   114
370
     9
100
AcDbLine
 10
217235.0359464404
 20
137535.912027723
 30
0.0
 11
217235.0359464404
 21
137377.912027723
 31
0.0
  0
LINE
  5
50
330
2
100
AcDbEntity
  8
A-Section-G
  6
Continuous
 62
   114
370
     9
100
AcDbLine
 10
217205.0359464404
 20
137535.912027723
 30
0.0
 11
217205.0359464404
 21
136940.9120277229
 31
0.0
  0
LINE
  5
51
330
2
100
AcDbEntity
  8
A-Section-G
  6
Continuous
 62
   114
370
     9
100
AcDbLine
 10
218005.8271701582
 20
137535.912027723
 30
0.0
 11
217205.0359464404
 21
137535.912027723
 31
0.0
  0
LINE
  5
52
330
2
100
AcDbEntity
  8
A-Section-G
  6
Continuous
 62
   114
370
     9
100
AcDbLine
 10
218035.3654889271
 20
137565.912027723
 30
0.0
 11
217775.7888513895
 21
137565.912027723
 31
0.0
  0
LINE
  5
53
330
2
100
AcDbEntity
  8
A-Section-G
  6
Continuous
 62
   114
370
     9
100
AcDbLine
 10
218065.8271701583
 20
137595.912027723
 30
0.0
 11
217205.0359464404
 21
137595.912027723
 31
0.0
  0
LINE
  5
54
330
2
100
AcDbEntity
  8
A-Section-G
  6
Continuous
 62
   114
370
     9
100
AcDbLine
 10
218005.8271701582
 20
137371.912027723
 30
0.0
 11
218005.8271701582
 21
137535.912027723
 31
0.0
  0
LINE
  5
55
330
2
100
AcDbEntity
  8
A-Section-G
  6
Continuous
 62
   114
370
     9
100
AcDbLine
 10
218035.8271701583
 20
137371.912027723
 30
0.0
 11
218035.8271701583
 21
137565.912027723
 31
0.0
  0
LINE
  5
56
330
2
100
AcDbEntity
  8
A-Section-G
  6
Continuous
 62
   114
370
     9
100
AcDbLine
 10
218065.8271701583
 20
137378.912027723
 30
0.0
 11
218065.8271701583
 21
137595.912027723
 31
0.0
  0
LINE
  5
57
330
2
100
AcDbEntity
  8
WIDOK
100
AcDbLine
 10
217884.8271701582
 20
136265.912027723
 30
0.0
 11
217884.8271701582
 21
136349.912027723
 31
0.0
  0
LINE
  5
58
330
2
100
AcDbEntity
  8
A-Section-G
  6
Continuous
 62
   114
370
     9
100
AcDbLine
 10
217775.7888513895
 20
137535.912027723
 30
0.0
 11
217775.7888513895
 21
137595.912027723
 31
0.0
  0
LINE
  5
59
330
2
100
AcDbEntity
  8
A-Section-G
  6
Continuous
 62
   114
370
     9
100
AcDbLine
 10
217769.7888513895
 20
137535.912027723
 30
0.0
 11
217769.7888513895
 21
137595.912027723
 31
0.0
  0
LINE
  5
5A
330
2
100
AcDbEntity
  8
A-Section-G
  6
Continuous
 62
   114
370
     9
100
AcDbLine
 10
217265.0359464404
 20
137371.912027723
 30
0.0
 11
217205.0359464404
 21
137371.912027723
 31
0.0
  0
LINE
  5
5B
330
2
100
AcDbEntity
  8
A-Section-G
  6
Continuous
 62
   114
370
     9
100
AcDbLine
 10
217265.0359464404
 20
137377.912027723
 30
0.0
 11
217205.0359464404
 21
137377.912027723
 31
0.0
  0
LINE
  5
5C
330
2
100
AcDbEntity
  8
A-Section-G
  6
Continuous
 62
   114
370
     9
100
AcDbLine
 10
217265.0359464404
 20
137352.042027723
 30
0.0
 11
217235.0359464404
 21
137352.042027723
 31
0.0
  0
LINE
  5
5D
330
2
100
AcDbEntity
  8
A-Section-G
  6
Continuous
 62
   114
370
     9
100
AcDbLine
 10
217265.0359464404
 20
137332.172027723
 30
0.0
 11
217220.0359464404
 21
137332.172027723
 31
0.0
  0
LINE
  5
5E
330
2
100
AcDbEntity
  8
A-Section-G
  6
Continuous
 62
   114
370
     9
100
AcDbLine
 10
217265.0359464404
 20
137312.302027723
 30
0.0
 11
217235.0359464404
 21
137312.302027723
 31
0.0
  0
LINE
  5
5F
330
2
100
AcDbEntity
  8
A-Section-G
  6
Continuous
 62
   114
370
     9
100
AcDbLine
 10
217265.0359464404
 20
137292.432027723
 30
0.0
 11
217220.0359464404
 21
137292.432027723
 31
0.0
  0
LINE
  5
60
330
2
100
AcDbEntity
  8
A-Section-G
  6
Continuous
 62
   114
370
     9
100
AcDbLine
 10
217265.0359464404
 20
137272.562027723
 30
0.0
 11
217235.0359464404
 21
137272.562027723
 31
0.0
  0
LINE
  5
61
330
2
100
AcDbEntity
  8
A-Section-G
  6
Continuous
 62
   114
370
     9
100
AcDbLine
 10
217265.0359464404
 20
137252.692027723
 30
0.0
 11
217220.0359464404
 21
137252.692027723
 31
0.0
  0
LINE
  5
62
330
2
100
AcDbEntity
  8
A-Section-G
  6
Continuous
 62
   114
370
     9
100
AcDbLine
 10
217265.0359464404
 20
137232.822027723
 30
0.0
 11
217235.0359464404
 21
137232.822027723
 31
0.0
  0
LINE
  5
63
330
2
100
AcDbEntity
  8
A-Section-G
  6
Continuous
 62
   114
370
     9
100
AcDbLine
 10
217265.0359464404
 20
137212.952027723
 30
0.0
 11
217220.0359464404
 21
137212.952027723
 31
0.0
  0
LINE
  5
64
330
2
100
AcDbEntity
  8
A-Section-G
  6
Continuous
 62
   114
370
     9
100
AcDbLine
 10
217265.0359464404
 20
137193.082027723
 30
0.0
 11
217235.0359464404
 21
137193.082027723
 31
0.0
  0
LINE
  5
65
330
2
100
AcDbEntity
  8
A-Section-G
  6
Continuous
 62
   114
370
     9
100
AcDbLine
 10
217265.0359464404
 20
137173.2120277229
 30
0.0
 11
217220.0359464404
 21
137173.2120277229
 31
0.0
  0
LINE
  5
66
330
2
100
AcDbEntity
  8
A-Section-G
  6
Continuous
 62
   114
370
     9
100
AcDbLine
 10
217265.0359464404
 20
137153.342027723
 30
0.0
 11
217235.0359464404
 21
137153.342027723
 31
0.0
  0
LINE
  5
67
330
2
100
AcDbEntity
  8
A-Section-G
  6
Continuous
 62
   114
370
     9
100
AcDbLine
 10
217265.0359464404
 20
137133.472027723
 30
0.0
 11
217220.0359464404
 21
137133.472027723
 31
0.0
  0
LINE
  5
68
330
2
100
AcDbEntity
  8
A-Section-G
  6
Continuous
 62
   114
370
     9
100
AcDbLine
 10
217265.0359464404
 20
137113.602027723
 30
0.0
 11
217235.0359464404
 21
137113.602027723
 31
0.0
  0
LINE
  5
69
330
2
100
AcDbEntity
  8
A-Section-G
  6
Continuous
 62
   114
370
     9
100
AcDbLine
 10
217265.0359464404
 20
137093.732027723
 30
0.0
 11
217220.0359464404
 21
137093.732027723
 31
0.0
  0
LINE
  5
6A
330
2
100
AcDbEntity
  8
A-Section-G
  6
Continuous
 62
   114
370
     9
100
AcDbLine
 10
217265.0359464404
 20
137073.862027723
 30
0.0
 11
217235.0359464404
 21
137073.862027723
 31
0.0
  0
LINE
  5
6B
330
2
100
AcDbEntity
  8
A-Section-G
  6
Continuous
 62
   114
370
     9
100
AcDbLine
 10
217265.0359464404
 20
137053.992027723
 30
0.0
 11
217220.0359464404
 21
137053.992027723
 31
0.0
  0
LINE
  5
6C
330
2
100
AcDbEntity
  8
A-Section-G
  6
Continuous
 62
   114
370
     9
100
AcDbLine
 10
217265.0359464404
 20
137034.122027723
 30
0.0
 11
217235.0359464404
 21
137034.122027723
 31
0.0
  0
LINE
  5
6D
330
2
100
AcDbEntity
  8
A-Section-G
  6
Continuous
 62
   114
370
     9
100
AcDbLine
 10
217265.0359464404
 20
137014.252027723
 30
0.0
 11
217205.0359464404
 21
137014.252027723
 31
0.0
  0
LINE
  5
6E
330
2
100
AcDbEntity
  8
A-Section-G
  6
Continuous
 62
   114
370
     9
100
AcDbLine
 10
217265.0359464404
 20
136994.382027723
 30
0.0
 11
217235.0359464404
 21
136994.382027723
 31
0.0
  0
LINE
  5
6F
330
2
100
AcDbEntity
  8
A-Section-G
  6
Continuous
 62
   114
370
     9
100
AcDbLine
 10
217265.0359464404
 20
136974.512027723
 30
0.0
 11
217220.0359464404
 21
136974.512027723
 31
0.0
  0
LINE
  5
70
330
2
100
AcDbEntity
  8
A-Section-G
  6
Continuous
 62
   114
370
     9
100
AcDbLine
 10
217265.0359464404
 20
136954.642027723
 30
0.0
 11
217235.0359464404
 21
136954.642027723
 31
0.0
  0
LINE
  5
71
330
2
100
AcDbEntity
  8
A-Section-G
  6
Continuous
 62
   114
370
     9
100
AcDbLine
 10
217265.0359464404
 20
137535.912027723
 30
0.0
 11
217220.0359464404
 21
137580.912027723
 31
0.0
  0
LINE
  5
72
330
2
100
AcDbEntity
  8
A-Section-G
  6
Continuous
 62
   114
370
     9
100
AcDbLine
 10
217265.0359464404
 20
137535.912027723
 30
0.0
 11
217265.0359464404
 21
137565.912027723
 31
0.0
  0
LINE
  5
73
330
2
100
AcDbEntity
  8
A-Section-G
  6
Continuous
 62
   114
370
     9
100
AcDbLine
 10
217285.2359464404
 20
137535.9120277229
 30
0.0
 11
217285.2359464405
 21
137580.912027723
 31
0.0
  0
LINE
  5
74
330
2
100
AcDbEntity
  8
A-Section-G
  6
Continuous
 62
   114
370
     9
100
AcDbLine
 10
217305.4359464404
 20
137535.9120277229
 30
0.0
 11
217305.4359464405
 21
137565.9120277229
 31
0.0
  0
LINE
  5
75
330
2
100
AcDbEntity
  8
A-Section-G
  6
Continuous
 62
   114
370
     9
100
AcDbLine
 10
217325.6359464404
 20
137535.9120277229
 30
0.0
 11
217325.6359464405
 21
137580.912027723
 31
0.0
  0
LINE
  5
76
330
2
100
AcDbEntity
  8
A-Section-G
  6
Continuous
 62
   114
370
     9
100
AcDbLine
 10
217345.8359464405
 20
137535.9120277229
 30
0.0
 11
217345.8359464405
 21
137565.9120277229
 31
0.0
  0
LINE
  5
77
330
2
100
AcDbEntity
  8
A-Section-G
  6
Continuous
 62
   114
370
     9
100
AcDbLine
 10
217366.0359464404
 20
137535.9120277229
 30
0.0
 11
217366.0359464404
 21
137580.912027723
 31
0.0
  0
LINE
  5
78
330
2
100
AcDbEntity
  8
A-Section-G
  6
Continuous
 62
   114
370
     9
100
AcDbLine
 10
217386.2359464404
 20
137535.9120277228
 30
0.0
 11
217386.2359464404
 21
137565.9120277228
 31
0.0
  0
LINE
  5
79
330
2
100
AcDbEntity
  8
A-Section-G
  6
Continuous
 62
   114
370
     9
100
AcDbLine
 10
217406.4359464404
 20
137535.9120277228
 30
0.0
 11
217406.4359464404
 21
137580.912027723
 31
0.0
  0
LINE
  5
7A
330
2
100
AcDbEntity
  8
A-Section-G
  6
Continuous
 62
   114
370
     9
100
AcDbLine
 10
217426.6359464404
 20
137535.9120277228
 30
0.0
 11
217426.6359464405
 21
137565.9120277228
 31
0.0
  0
LINE
  5
7B
330
2
100
AcDbEntity
  8
A-Section-G
  6
Continuous
 62
   114
370
     9
100
AcDbLine
 10
217446.8359464404
 20
137535.9120277227
 30
0.0
 11
217446.8359464405
 21
137580.912027723
 31
0.0
  0
LINE
  5
7C
330
2
100
AcDbEntity
  8
A-Section-G
  6
Continuous
 62
   114
370
     9
100
AcDbLine
 10
217467.0359464404
 20
137535.9120277227
 30
0.0
 11
217467.0359464405
 21
137565.9120277227
 31
0.0
  0
LINE
  5
7D
330
2
100
AcDbEntity
  8
A-Section-G
  6
Continuous
 62
   114
370
     9
100
AcDbLine
 10
217487.2359464404
 20
137535.9120277227
 30
0.0
 11
217487.2359464405
 21
137580.912027723
 31
0.0
  0
LINE
  5
7E
330
2
100
AcDbEntity
  8
A-Section-G
  6
Continuous
 62
   114
370
     9
100
AcDbLine
 10
217507.4359464404
 20
137535.9120277227
 30
0.0
 11
217507.4359464405
 21
137565.9120277227
 31
0.0
  0
LINE
  5
7F
330
2
100
AcDbEntity
  8
A-Section-G
  6
Continuous
 62
   114
370
     9
100
AcDbLine
 10
217527.6359464404
 20
137535.9120277227
 30
0.0
 11
217527.6359464405
 21
137580.912027723
 31
0.0
  0
LINE
  5
80
330
2
100
AcDbEntity
  8
A-Section-G
  6
Continuous
 62
   114
370
     9
100
AcDbLine
 10
217547.8359464404
 20
137535.9120277226
 30
0.0
 11
217547.8359464404
 21
137565.9120277226
 31
0.0
  0
LINE
  5
81
330
2
100
AcDbEntity
  8
A-Section-G
  6
Continuous
 62
   114
370
     9
100
AcDbLine
 10
217568.0359464404
 20
137535.9120277226
 30
0.0
 11
217568.0359464405
 21
137580.912027723
 31
0.0
  0
LINE
  5
82
330
2
100
AcDbEntity
  8
A-Section-G
  6
Continuous
 62
   114
370
     9
100
AcDbLine
 10
217588.2359464404
 20
137535.9120277226
 30
0.0
 11
217588.2359464405
 21
137565.9120277226
 31
0.0
  0
LINE
  5
83
330
2
100
AcDbEntity
  8
A-Section-G
  6
Continuous
 62
   114
370
     9
100
AcDbLine
 10
217608.4359464404
 20
137535.9120277225
 30
0.0
 11
217608.4359464405
 21
137580.912027723
 31
0.0
  0
LINE
  5
84
330
2
100
AcDbEntity
  8
A-Section-G
  6
Continuous
 62
   114
370
     9
100
AcDbLine
 10
217628.6359464404
 20
137535.9120277225
 30
0.0
 11
217628.6359464405
 21
137565.9120277225
 31
0.0
  0
LINE
  5
85
330
2
100
AcDbEntity
  8
A-Section-G
  6
Continuous
 62
   114
370
     9
100
AcDbLine
 10
217648.8359464404
 20
137535.9120277225
 30
0.0
 11
217648.8359464405
 21
137580.912027723
 31
0.0
  0
LINE
  5
86
330
2
100
AcDbEntity
  8
A-Section-G
  6
Continuous
 62
   114
370
     9
100
AcDbLine
 10
217669.0359464404
 20
137535.9120277225
 30
0.0
 11
217669.0359464405
 21
137565.9120277225
 31
0.0
  0
LINE
  5
87
330
2
100
AcDbEntity
  8
A-Section-G
  6
Continuous
 62
   114
370
     9
100
AcDbLine
 10
217689.2359464404
 20
137535.9120277225
 30
0.0
 11
217689.2359464405
 21
137580.912027723
 31
0.0
  0
LINE
  5
88
330
2
100
AcDbEntity
  8
A-Section-G
  6
Continuous
 62
   114
370
     9
100
AcDbLine
 10
217709.4359464404
 20
137535.9120277224
 30
0.0
 11
217709.4359464405
 21
137565.9120277224
 31
0.0
  0
LINE
  5
89
330
2
100
AcDbEntity
  8
A-Section-G
  6
Continuous
 62
   114
370
     9
100
AcDbLine
 10
217729.6359464405
 20
137535.9120277224
 30
0.0
 11
217729.6359464405
 21
137565.9120277224
 31
0.0
  0
LINE
  5
8A
330
2
100
AcDbEntity
  8
A-Section-G
  6
Continuous
 62
   114
370
     9
100
AcDbLine
 10
217749.8359464404
 20
137535.9120277224
 30
0.0
 11
217749.8359464404
 21
137565.9120277224
 31
0.0
  0
LINE
  5
8B
330
2
100
AcDbEntity
  8
A-Section-G
  6
Continuous
 62
   114
370
     9
100
AcDbLine
 10
217729.6359464405
 20
137535.9120277224
 30
0.0
 11
217729.6359464405
 21
137580.912027723
 31
0.0
  0
LINE
  5
8C
330
2
100
AcDbEntity
  8
A-Section-G
  6
Continuous
 62
   114
370
     9
100
AcDbLine
 10
217205.0359464404
 20
137535.912027723
 30
0.0
 11
217205.0359464404
 21
137595.912027723
 31
0.0
  0
ARC
  5
8D
330
2
100
AcDbEntity
  8
A-Section-G
  6
Continuous
 62
   114
370
     9
100
AcDbCircle
 10
217475.685816828
 20
136947.5565567129
 30
0.0
 40
270.7314206115019
100
AcDbArc
 50
181.4063446985717
 51
268.5483267762475
  0
LWPOLYLINE
  5
8E
330
2
100
AcDbEntity
  8
A-Section-G
  6
Continuous
 62
   114
370
     9
100
AcDbPolyline
 90
        3
 70
     0
 43
0.0
 10
217265.0359464404
 20
137535.912027723
 10
217265.0359464404
 20
136941.6944974646
 42
0.3966390022268171
 10
217468.8271701583
 20
136736.9367793918
 42
0.3966390022268171
  0
LINE
  5
8F
330
2
100
AcDbEntity
  8
A-Section-G
  6
Continuous
 62
   114
370
     9
100
AcDbLine
 10
217438.8271701582
 20
136740.0736133209
 30
0.0
 11
217433.5799251253
 21
136710.5360707765
 31
0.0
  0
LINE
  5
90
330
2
100
AcDbEntity
  8
A-Section-G
  6
Continuous
 62
   114
370
     9
100
AcDbLine
 10
217409.6650417803
 20
136747.434121951
 30
0.0
 11
217395.566836261
 21
136704.6995855532
 31
0.0
  0
LINE
  5
91
330
2
100
AcDbEntity
  8
A-Section-G
  6
Continuous
 62
   114
370
     9
100
AcDbLine
 10
217381.8477882945
 20
136758.8712206799
 30
0.0
 11
217368.4888841129
 21
136732.0097300462
 31
0.0
  0
LINE
  5
92
330
2
100
AcDbEntity
  8
A-Section-G
  6
Continuous
 62
   114
370
     9
100
AcDbLine
 10
217355.9420605128
 20
136774.1519303142
 30
0.0
 11
217330.3717444273
 21
136737.1227670062
 31
0.0
  0
LINE
  5
93
330
2
100
AcDbEntity
  8
A-Section-G
  6
Continuous
 62
   114
370
     9
100
AcDbLine
 10
217332.4755705506
 20
136792.9649754606
 30
0.0
 11
217312.0879730302
 21
136770.9571162428
 31
0.0
  0
LINE
  5
94
330
2
100
AcDbEntity
  8
A-Section-G
  6
Continuous
 62
   114
370
     9
100
AcDbLine
 10
217311.9263420773
 20
136814.927125355
 30
0.0
 11
217276.9568233298
 21
136786.605177001
 31
0.0
  0
LINE
  5
95
330
2
100
AcDbEntity
  8
A-Section-G
  6
Continuous
 62
   114
370
     9
100
AcDbLine
 10
217294.7129727453
 20
136839.5910004573
 30
0.0
 11
217268.9494425289
 21
136824.2208829957
 31
0.0
  0
LINE
  5
96
330
2
100
AcDbEntity
  8
A-Section-G
  6
Continuous
 62
   114
370
     9
100
AcDbLine
 10
217281.186107154
 20
136866.4541857879
 30
0.0
 11
217239.6522584762
 21
136849.1354267673
 31
0.0
  0
LINE
  5
97
330
2
100
AcDbEntity
  8
A-Section-G
  6
Continuous
 62
   114
370
     9
100
AcDbLine
 10
217271.6212940513
 20
136894.9694653611
 30
0.0
 11
217242.570402326
 21
136887.4830984207
 31
0.0
  0
LINE
  5
98
330
2
100
AcDbEntity
  8
A-Section-G
  6
Continuous
 62
   114
370
     9
100
AcDbLine
 10
217266.2133732733
 20
136924.5559692384
 30
0.0
 11
217221.4822176981
 21
136919.6443787725
 31
0.0
  0
DIMENSION
  5
99
330
2
100
AcDbEntity
  8
0Wymiary-PL
100
AcDbDimension
  2
*D1
 10
217558.8271701583
 20
137741.2459597886
 30
0.0
 11
217513.8271701583
 21
137821.2459597886
 31
0.0
 71
     5
 42
90.0
  3
500
100
AcDbAlignedDimension
 13
217468.8271701583
 23
137044.912027723
 33
0.0
 14
217558.8271701583
 24
137044.912027723
 34
0.0
100
AcDbRotatedDimension
  0
DIMENSION
  5
B4
330
2
100
AcDbEntity
  8
0Wymiary-PL
100
AcDbDimension
  2
*D2
 10
218450.8271701583
 20
137741.2459597886
 30
0.0
 11
218004.8271701583
 21
137821.2459597886
 31
0.0
 71
     5
 42
892.0
  3
500
100
AcDbAlignedDimension
 13
217558.8271701583
 23
137044.912027723
 33
0.0
 14
218450.8271701583
 24
137371.912027723
 34
0.0
100
AcDbRotatedDimension
  0
DIMENSION
  5
BF
330
2
100
AcDbEntity
  8
0Wymiary-PL
100
AcDbDimension
  2
*D3
 10
218815.8271701583
 20
137741.2459597886
 30
0.0
 11
218633.3271701583
 21
137821.2459597886
 31
0.0
 71
     5
 42
365.0
  3
500
100
AcDbAlignedDimension
 13
218450.8271701583
 23
137371.912027723
 33
0.0
 14
218815.8271701583
 24
137231.912027723
 34
0.0
100
AcDbRotatedDimension
  0
DIMENSION
  5
CA
330
2
100
AcDbEntity
  8
0Wymiary-PL
100
AcDbDimension
  2
*D4
 10
218815.8271701583
 20
137953.7005606817
 30
0.0
 11
218142.3271701583
 21
138033.7005606817
 31
0.0
 71
     5
 42
1347.0
  3
500
100
AcDbAlignedDimension
 13
217468.8271701583
 23
137044.912027723
 33
0.0
 14
218815.8271701583
 24
137231.912027723
 34
0.0
100
AcDbRotatedDimension
  0
DIMENSION
  5
D5
330
2
100
AcDbEntity
  8
0Wymiary-PL
100
AcDbDimension
  2
*D5
 10
217075.9885851532
 20
137044.912027723
 30
0.0
 11
216995.9885851531
 21
137208.412027723
 31
0.0
 71
     5
 42
326.9999999999709
  3
500
100
AcDbAlignedDimension
 13
217558.8271701583
 23
137371.912027723
 33
0.0
 14
217558.8271701583
 24
137044.912027723
 34
0.0
 50
90.0
100
AcDbRotatedDimension
  0
DIMENSION
  5
E0
330
2
100
AcDbEntity
  8
0Wymiary-PL
100
AcDbDimension
  2
*D6
 10
217075.9885851532
 20
136676.912027723
 30
0.0
 11
216995.9885851531
 21
136860.912027723
 31
0.0
 71
     5
 42
368.0000000000291
  3
500
100
AcDbAlignedDimension
 13
217558.8271701583
 23
137044.912027723
 33
0.0
 14
217558.8271701583
 24
136676.912027723
 34
0.0
 50
90.0
100
AcDbRotatedDimension
  0
DIMENSION
  5
EB
330
2
100
AcDbEntity
  8
0Wymiary-PL
100
AcDbDimension
  2
*D7
 10
217075.9885851532
 20
136349.912027723
 30
0.0
 11
216995.9885851531
 21
136513.412027723
 31
0.0
 71
     5
 42
327.0
  3
500
100
AcDbAlignedDimension
 13
217558.8271701583
 23
136676.912027723
 33
0.0
 14
217558.8271701583
 24
136349.912027723
 34
0.0
 50
90.0
100
AcDbRotatedDimension
  0
HATCH
  5
F6
330
2
100
AcDbEntity
  8
0Hatch
100
AcDbHatch
 10
0.0
 20
0.0
 30
0.0
210
0.0
220
0.0
230
1.0
  2
SOLID
 70
     1
 71
     0
 91
        2
 92
       22
 72
     0
 73
     1
 93
        8
 10
222297.9513195868
 20
136469.912027723
 10
222408.9513195868
 20
136469.912027723
 10
222408.9513195868
 20
136409.912027723
 10
222744.9513195868
 20
136409.912027723
 10
222744.9513195868
 20
136349.912027723
 10
222348.9513195868
 20
136349.912027723
 10
222348.9513195868
 20
136409.912027723
 10
222297.9513195868
 20
136409.912027723
 97
        0
 92
        7
 72
     0
 73
     1
 93
       24
 10
221983.9513195868
 20
137231.912027723
 10
222348.9513195868
 20
137231.912027723
 10
222348.9513195868
 20
137371.912027723
 10
223240.9513195868
 20
137371.912027723
 10
223240.9513195868
 20
137044.912027723
 10
223330.9513195868
 20
137044.912027723
 10
223330.9513195868
 20
136676.912027723
 10
223240.9513195868
 20
136676.912027723
 10
223240.9513195868
 20
136349.912027723
 10
222844.9513195868
 20
136349.912027723
 10
222844.9513195868
 20
136409.912027723
 10
223180.9513195868
 20
136409.912027723
 10
223180.9513195868
 20
136736.912027723
 10
223270.9513195868
 20
136736.912027723
 10
223270.9513195868
 20
136984.912027723
 10
223180.9513195868
 20
136984.912027723
 10
223180.9513195868
 20
137311.912027723
 10
222408.9513195869
 20
137311.912027723
 10
222408.9513195868
 20
137171.912027723
 10
222043.951319586
 20
137171.912027723
 10
222043.9513195766
 20
136469.912027723
 10
222057.9513195868
 20
136469.912027723
 10
222057.9513195868
 20
136409.912027723
 10
221983.9513195757
 20
136409.912027723
 97
        0
 75
     0
 76
     1
 47
3.250976905474243
 98
        2
 10
222344.4595496417
 20
136449.1931948756
 10
222027.757100327
 20
136443.0557400689
1001
ACAD
1010
217368.8271701582
1020
136349.912027723
1030
0.0
  0
LWPOLYLINE
  5
F7
330
2
100
AcDbEntity
  8
SCIANY
 48
4.0
100
AcDbPolyline
 90
       12
 70
     1
 43
0.0
 10
223240.9513195868
 20
137371.912027723
 10
223240.9513195868
 20
137044.912027723
 10
223330.9513195868
 20
137044.912027723
 10
223330.9513195868
 20
136676.912027723
 10
223240.9513195868
 20
136676.912027723
 10
223240.9513195868
 20
136349.912027723
 10
222348.9513195868
 20
136349.912027723
 10
222348.9513195868
 20
136409.912027723
 10
221983.9513195758
 20
136409.912027723
 10
221983.9513195868
 20
137231.912027723
 10
222348.9513195868
 20
137231.912027723
 10
222348.9513195868
 20
137371.912027723
  0
LWPOLYLINE
  5
F8
330
2
100
AcDbEntity
  8
SCIANY
 48
4.0
100
AcDbPolyline
 90
       12
 70
     1
 43
0.0
 10
223180.9513195868
 20
137311.912027723
 10
223180.9513195868
 20
136984.912027723
 10
223270.9513195868
 20
136984.912027723
 10
223270.9513195868
 20
136736.912027723
 10
223180.9513195868
 20
136736.912027723
 10
223180.9513195868
 20
136409.912027723
 10
222408.9513195868
 20
136409.912027723
 10
222408.9513195868
 20
136469.912027723
 10
222043.9513195766
 20
136469.912027723
 10
222043.951319586
 20
137171.912027723
 10
222408.9513195868
 20
137171.912027723
 10
222408.9513195868
 20
137311.912027723
  0
LINE
  5
F9
330
2
100
AcDbEntity
  8
SCIANY
 48
4.0
100
AcDbLine
 10
222744.9513195868
 20
136409.912027723
 30
0.0
 11
222744.9513195868
 21
136349.912027723
 31
0.0
  0
LINE
  5
FA
330
2
100
AcDbEntity
  8
SCIANY
 48
4.0
100
AcDbLine
 10
222844.9513195868
 20
136409.912027723
 30
0.0
 11
222844.9513195868
 21
136349.912027723
 31
0.0
  0
LINE
  5
FB
330
2
100
AcDbEntity
  8
SCIANY
 48
4.0
100
AcDbLine
 10
222297.9513195868
 20
136469.912027723
 30
0.0
 11
222297.9513195868
 21
136409.912027723
 31
0.0
  0
LINE
  5
FC
330
2
100
AcDbEntity
  8
SCIANY
 48
4.0
100
AcDbLine
 10
222057.9513195868
 20
136469.912027723
 30
0.0
 11
222057.9513195868
 21
136409.912027723
 31
0.0
  0
LINE
  5
FD
330
2
100
AcDbEntity
  8
WIDOK
100
AcDbLine
 10
222914.9513195868
 20
136265.912027723
 30
0.0
 11
222674.9513195868
 21
136265.912027723
 31
0.0
  0
LINE
  5
FE
330
2
100
AcDbEntity
  8
WIDOK
100
AcDbLine
 10
222944.9513195868
 20
136235.912027723
 30
0.0
 11
222644.9513195868
 21
136235.912027723
 31
0.0
  0
LINE
  5
FF
330
2
100
AcDbEntity
  8
WIDOK
100
AcDbLine
 10
222974.9513195868
 20
136205.912027723
 30
0.0
 11
222614.9513195868
 21
136205.912027723
 31
0.0
  0
LINE
  5
100
330
2
100
AcDbEntity
  8
WIDOK
100
AcDbLine
 10
222944.9513195868
 20
136349.912027723
 30
0.0
 11
222944.9513195868
 21
136235.912027723
 31
0.0
  0
LINE
  5
101
330
2
100
AcDbEntity
  8
WIDOK
100
AcDbLine
 10
222974.9513195868
 20
136349.912027723
 30
0.0
 11
222974.9513195868
 21
136205.912027723
 31
0.0
  0
LINE
  5
102
330
2
100
AcDbEntity
  8
WIDOK
100
AcDbLine
 10
222674.9513195868
 20
136265.912027723
 30
0.0
 11
222674.9513195868
 21
136349.912027723
 31
0.0
  0
LINE
  5
103
330
2
100
AcDbEntity
  8
WIDOK
100
AcDbLine
 10
222644.9513195868
 20
136235.912027723
 30
0.0
 11
222644.9513195868
 21
136349.912027723
 31
0.0
  0
LINE
  5
104
330
2
100
AcDbEntity
  8
WIDOK
100
AcDbLine
 10
222614.9513195868
 20
136205.912027723
 30
0.0
 11
222614.9513195868
 21
136342.912027723
 31
0.0
  0
LINE
  5
105
330
2
100
AcDbEntity
  8
A-Section-G
  6
Continuous
 62
   114
370
     9
100
AcDbLine
 10
223564.7425433047
 20
137535.912027723
 30
0.0
 11
223564.7425433047
 21
137377.912027723
 31
0.0
  0
LINE
  5
106
330
2
100
AcDbEntity
  8
A-Section-G
  6
Continuous
 62
   114
370
     9
100
AcDbLine
 10
223594.7425433047
 20
137535.912027723
 30
0.0
 11
223594.7425433047
 21
136940.9120277229
 31
0.0
  0
LINE
  5
107
330
2
100
AcDbEntity
  8
A-Section-G
  6
Continuous
 62
   114
370
     9
100
AcDbLine
 10
222793.9513195869
 20
137535.912027723
 30
0.0
 11
223594.7425433047
 21
137535.912027723
 31
0.0
  0
LINE
  5
108
330
2
100
AcDbEntity
  8
A-Section-G
  6
Continuous
 62
   114
370
     9
100
AcDbLine
 10
222764.413000818
 20
137565.912027723
 30
0.0
 11
223023.9896383556
 21
137565.912027723
 31
0.0
  0
LINE
  5
109
330
2
100
AcDbEntity
  8
A-Section-G
  6
Continuous
 62
   114
370
     9
100
AcDbLine
 10
222733.9513195868
 20
137595.912027723
 30
0.0
 11
223594.7425433047
 21
137595.912027723
 31
0.0
  0
LINE
  5
10A
330
2
100
AcDbEntity
  8
A-Section-G
  6
Continuous
 62
   114
370
     9
100
AcDbLine
 10
222793.9513195869
 20
137371.912027723
 30
0.0
 11
222793.9513195869
 21
137535.912027723
 31
0.0
  0
LINE
  5
10B
330
2
100
AcDbEntity
  8
A-Section-G
  6
Continuous
 62
   114
370
     9
100
AcDbLine
 10
222763.9513195868
 20
137371.912027723
 30
0.0
 11
222763.9513195868
 21
137565.912027723
 31
0.0
  0
LINE
  5
10C
330
2
100
AcDbEntity
  8
A-Section-G
  6
Continuous
 62
   114
370
     9
100
AcDbLine
 10
222733.9513195868
 20
137378.912027723
 30
0.0
 11
222733.9513195868
 21
137595.912027723
 31
0.0
  0
LINE
  5
10D
330
2
100
AcDbEntity
  8
WIDOK
100
AcDbLine
 10
222914.9513195868
 20
136265.912027723
 30
0.0
 11
222914.9513195868
 21
136349.912027723
 31
0.0
  0
LINE
  5
10E
330
2
100
AcDbEntity
  8
A-Section-G
  6
Continuous
 62
   114
370
     9
100
AcDbLine
 10
223023.9896383556
 20
137535.912027723
 30
0.0
 11
223023.9896383556
 21
137595.912027723
 31
0.0
  0
LINE
  5
10F
330
2
100
AcDbEntity
  8
A-Section-G
  6
Continuous
 62
   114
370
     9
100
AcDbLine
 10
223029.9896383556
 20
137535.912027723
 30
0.0
 11
223029.9896383556
 21
137595.912027723
 31
0.0
  0
LINE
  5
110
330
2
100
AcDbEntity
  8
A-Section-G
  6
Continuous
 62
   114
370
     9
100
AcDbLine
 10
223534.7425433047
 20
137371.912027723
 30
0.0
 11
223594.7425433047
 21
137371.912027723
 31
0.0
  0
LINE
  5
111
330
2
100
AcDbEntity
  8
A-Section-G
  6
Continuous
 62
   114
370
     9
100
AcDbLine
 10
223534.7425433047
 20
137377.912027723
 30
0.0
 11
223594.7425433047
 21
137377.912027723
 31
0.0
  0
LINE
  5
112
330
2
100
AcDbEntity
  8
A-Section-G
  6
Continuous
 62
   114
370
     9
100
AcDbLine
 10
223534.7425433047
 20
137352.042027723
 30
0.0
 11
223564.7425433047
 21
137352.042027723
 31
0.0
  0
LINE
  5
113
330
2
100
AcDbEntity
  8
A-Section-G
  6
Continuous
 62
   114
370
     9
100
AcDbLine
 10
223534.7425433047
 20
137332.172027723
 30
0.0
 11
223579.7425433047
 21
137332.172027723
 31
0.0
  0
LINE
  5
114
330
2
100
AcDbEntity
  8
A-Section-G
  6
Continuous
 62
   114
370
     9
100
AcDbLine
 10
223534.7425433047
 20
137312.302027723
 30
0.0
 11
223564.7425433047
 21
137312.302027723
 31
0.0
  0
LINE
  5
115
330
2
100
AcDbEntity
  8
A-Section-G
  6
Continuous
 62
   114
370
     9
100
AcDbLine
 10
223534.7425433047
 20
137292.432027723
 30
0.0
 11
223579.7425433047
 21
137292.432027723
 31
0.0
  0
LINE
  5
116
330
2
100
AcDbEntity
  8
A-Section-G
  6
Continuous
 62
   114
370
     9
100
AcDbLine
 10
223534.7425433047
 20
137272.562027723
 30
0.0
 11
223564.7425433047
 21
137272.562027723
 31
0.0
  0
LINE
  5
117
330
2
100
AcDbEntity
  8
A-Section-G
  6
Continuous
 62
   114
370
     9
100
AcDbLine
 10
223534.7425433047
 20
137252.692027723
 30
0.0
 11
223579.7425433047
 21
137252.692027723
 31
0.0
  0
LINE
  5
118
330
2
100
AcDbEntity
  8
A-Section-G
  6
Continuous
 62
   114
370
     9
100
AcDbLine
 10
223534.7425433047
 20
137232.822027723
 30
0.0
 11
223564.7425433047
 21
137232.822027723
 31
0.0
  0
LINE
  5
119
330
2
100
AcDbEntity
  8
A-Section-G
  6
Continuous
 62
   114
370
     9
100
AcDbLine
 10
223534.7425433047
 20
137212.952027723
 30
0.0
 11
223579.7425433047
 21
137212.952027723
 31
0.0
  0
LINE
  5
11A
330
2
100
AcDbEntity
  8
A-Section-G
  6
Continuous
 62
   114
370
     9
100
AcDbLine
 10
223534.7425433047
 20
137193.082027723
 30
0.0
 11
223564.7425433047
 21
137193.082027723
 31
0.0
  0
LINE
  5
11B
330
2
100
AcDbEntity
  8
A-Section-G
  6
Continuous
 62
   114
370
     9
100
AcDbLine
 10
223534.7425433047
 20
137173.2120277229
 30
0.0
 11
223579.7425433047
 21
137173.2120277229
 31
0.0
  0
LINE
  5
11C
330
2
100
AcDbEntity
  8
A-Section-G
  6
Continuous
 62
   114
370
     9
100
AcDbLine
 10
223534.7425433047
 20
137153.342027723
 30
0.0
 11
223564.7425433047
 21
137153.342027723
 31
0.0
  0
LINE
  5
11D
330
2
100
AcDbEntity
  8
A-Section-G
  6
Continuous
 62
   114
370
     9
100
AcDbLine
 10
223534.7425433047
 20
137133.472027723
 30
0.0
 11
223579.7425433047
 21
137133.472027723
 31
0.0
  0
LINE
  5
11E
330
2
100
AcDbEntity
  8
A-Section-G
  6
Continuous
 62
   114
370
     9
100
AcDbLine
 10
223534.7425433047
 20
137113.602027723
 30
0.0
 11
223564.7425433047
 21
137113.602027723
 31
0.0
  0
LINE
  5
11F
330
2
100
AcDbEntity
  8
A-Section-G
  6
Continuous
 62
   114
370
     9
100
AcDbLine
 10
223534.7425433047
 20
137093.732027723
 30
0.0
 11
223579.7425433047
 21
137093.732027723
 31
0.0
  0
LINE
  5
120
330
2
100
AcDbEntity
  8
A-Section-G
  6
Continuous
 62
   114
370
     9
100
AcDbLine
 10
223534.7425433047
 20
137073.862027723
 30
0.0
 11
223564.7425433047
 21
137073.862027723
 31
0.0
  0
LINE
  5
121
330
2
100
AcDbEntity
  8
A-Section-G
  6
Continuous
 62
   114
370
     9
100
AcDbLine
 10
223534.7425433047
 20
137053.992027723
 30
0.0
 11
223579.7425433047
 21
137053.992027723
 31
0.0
  0
LINE
  5
122
330
2
100
AcDbEntity
  8
A-Section-G
  6
Continuous
 62
   114
370
     9
100
AcDbLine
 10
223534.7425433047
 20
137034.122027723
 30
0.0
 11
223564.7425433047
 21
137034.122027723
 31
0.0
  0
LINE
  5
123
330
2
100
AcDbEntity
  8
A-Section-G
  6
Continuous
 62
   114
370
     9
100
AcDbLine
 10
223534.7425433047
 20
137014.252027723
 30
0.0
 11
223594.7425433047
 21
137014.252027723
 31
0.0
  0
LINE
  5
124
330
2
100
AcDbEntity
  8
A-Section-G
  6
Continuous
 62
   114
370
     9
100
AcDbLine
 10
223534.7425433047
 20
136994.382027723
 30
0.0
 11
223564.7425433047
 21
136994.382027723
 31
0.0
  0
LINE
  5
125
330
2
100
AcDbEntity
  8
A-Section-G
  6
Continuous
 62
   114
370
     9
100
AcDbLine
 10
223534.7425433047
 20
136974.512027723
 30
0.0
 11
223579.7425433047
 21
136974.512027723
 31
0.0
  0
LINE
  5
126
330
2
100
AcDbEntity
  8
A-Section-G
  6
Continuous
 62
   114
370
     9
100
AcDbLine
 10
223534.7425433047
 20
136954.642027723
 30
0.0
 11
223564.7425433047
 21
136954.642027723
 31
0.0
  0
LINE
  5
127
330
2
100
AcDbEntity
  8
A-Section-G
  6
Continuous
 62
   114
370
     9
100
AcDbLine
 10
223534.7425433047
 20
137535.912027723
 30
0.0
 11
223579.7425433047
 21
137580.912027723
 31
0.0
  0
LINE
  5
128
330
2
100
AcDbEntity
  8
A-Section-G
  6
Continuous
 62
   114
370
     9
100
AcDbLine
 10
223534.7425433047
 20
137535.912027723
 30
0.0
 11
223534.7425433046
 21
137565.912027723
 31
0.0
  0
LINE
  5
129
330
2
100
AcDbEntity
  8
A-Section-G
  6
Continuous
 62
   114
370
     9
100
AcDbLine
 10
223514.5425433047
 20
137535.9120277229
 30
0.0
 11
223514.5425433046
 21
137580.912027723
 31
0.0
  0
LINE
  5
12A
330
2
100
AcDbEntity
  8
A-Section-G
  6
Continuous
 62
   114
370
     9
100
AcDbLine
 10
223494.3425433047
 20
137535.9120277229
 30
0.0
 11
223494.3425433046
 21
137565.9120277229
 31
0.0
  0
LINE
  5
12B
330
2
100
AcDbEntity
  8
A-Section-G
  6
Continuous
 62
   114
370
     9
100
AcDbLine
 10
223474.1425433047
 20
137535.9120277229
 30
0.0
 11
223474.1425433046
 21
137580.912027723
 31
0.0
  0
LINE
  5
12C
330
2
100
AcDbEntity
  8
A-Section-G
  6
Continuous
 62
   114
370
     9
100
AcDbLine
 10
223453.9425433046
 20
137535.9120277229
 30
0.0
 11
223453.9425433046
 21
137565.9120277229
 31
0.0
  0
LINE
  5
12D
330
2
100
AcDbEntity
  8
A-Section-G
  6
Continuous
 62
   114
370
     9
100
AcDbLine
 10
223433.7425433047
 20
137535.9120277229
 30
0.0
 11
223433.7425433046
 21
137580.912027723
 31
0.0
  0
LINE
  5
12E
330
2
100
AcDbEntity
  8
A-Section-G
  6
Continuous
 62
   114
370
     9
100
AcDbLine
 10
223413.5425433047
 20
137535.9120277228
 30
0.0
 11
223413.5425433046
 21
137565.9120277228
 31
0.0
  0
LINE
  5
12F
330
2
100
AcDbEntity
  8
A-Section-G
  6
Continuous
 62
   114
370
     9
100
AcDbLine
 10
223393.3425433046
 20
137535.9120277228
 30
0.0
 11
223393.3425433046
 21
137580.912027723
 31
0.0
  0
LINE
  5
130
330
2
100
AcDbEntity
  8
A-Section-G
  6
Continuous
 62
   114
370
     9
100
AcDbLine
 10
223373.1425433047
 20
137535.9120277228
 30
0.0
 11
223373.1425433046
 21
137565.9120277228
 31
0.0
  0
LINE
  5
131
330
2
100
AcDbEntity
  8
A-Section-G
  6
Continuous
 62
   114
370
     9
100
AcDbLine
 10
223352.9425433046
 20
137535.9120277227
 30
0.0
 11
223352.9425433046
 21
137580.912027723
 31
0.0
  0
LINE
  5
132
330
2
100
AcDbEntity
  8
A-Section-G
  6
Continuous
 62
   114
370
     9
100
AcDbLine
 10
223332.7425433047
 20
137535.9120277227
 30
0.0
 11
223332.7425433046
 21
137565.9120277227
 31
0.0
  0
LINE
  5
133
330
2
100
AcDbEntity
  8
A-Section-G
  6
Continuous
 62
   114
370
     9
100
AcDbLine
 10
223312.5425433047
 20
137535.9120277227
 30
0.0
 11
223312.5425433046
 21
137580.912027723
 31
0.0
  0
LINE
  5
134
330
2
100
AcDbEntity
  8
A-Section-G
  6
Continuous
 62
   114
370
     9
100
AcDbLine
 10
223292.3425433047
 20
137535.9120277227
 30
0.0
 11
223292.3425433046
 21
137565.9120277227
 31
0.0
  0
LINE
  5
135
330
2
100
AcDbEntity
  8
A-Section-G
  6
Continuous
 62
   114
370
     9
100
AcDbLine
 10
223272.1425433047
 20
137535.9120277227
 30
0.0
 11
223272.1425433046
 21
137580.912027723
 31
0.0
  0
LINE
  5
136
330
2
100
AcDbEntity
  8
A-Section-G
  6
Continuous
 62
   114
370
     9
100
AcDbLine
 10
223251.9425433046
 20
137535.9120277226
 30
0.0
 11
223251.9425433046
 21
137565.9120277226
 31
0.0
  0
LINE
  5
137
330
2
100
AcDbEntity
  8
A-Section-G
  6
Continuous
 62
   114
370
     9
100
AcDbLine
 10
223231.7425433047
 20
137535.9120277226
 30
0.0
 11
223231.7425433046
 21
137580.912027723
 31
0.0
  0
LINE
  5
138
330
2
100
AcDbEntity
  8
A-Section-G
  6
Continuous
 62
   114
370
     9
100
AcDbLine
 10
223211.5425433047
 20
137535.9120277226
 30
0.0
 11
223211.5425433046
 21
137565.9120277226
 31
0.0
  0
LINE
  5
139
330
2
100
AcDbEntity
  8
A-Section-G
  6
Continuous
 62
   114
370
     9
100
AcDbLine
 10
223191.3425433047
 20
137535.9120277225
 30
0.0
 11
223191.3425433046
 21
137580.912027723
 31
0.0
  0
LINE
  5
13A
330
2
100
AcDbEntity
  8
A-Section-G
  6
Continuous
 62
   114
370
     9
100
AcDbLine
 10
223171.1425433047
 20
137535.9120277225
 30
0.0
 11
223171.1425433046
 21
137565.9120277225
 31
0.0
  0
LINE
  5
13B
330
2
100
AcDbEntity
  8
A-Section-G
  6
Continuous
 62
   114
370
     9
100
AcDbLine
 10
223150.9425433046
 20
137535.9120277225
 30
0.0
 11
223150.9425433046
 21
137580.912027723
 31
0.0
  0
LINE
  5
13C
330
2
100
AcDbEntity
  8
A-Section-G
  6
Continuous
 62
   114
370
     9
100
AcDbLine
 10
223130.7425433046
 20
137535.9120277225
 30
0.0
 11
223130.7425433046
 21
137565.9120277225
 31
0.0
  0
LINE
  5
13D
330
2
100
AcDbEntity
  8
A-Section-G
  6
Continuous
 62
   114
370
     9
100
AcDbLine
 10
223110.5425433046
 20
137535.9120277225
 30
0.0
 11
223110.5425433046
 21
137580.912027723
 31
0.0
  0
LINE
  5
13E
330
2
100
AcDbEntity
  8
A-Section-G
  6
Continuous
 62
   114
370
     9
100
AcDbLine
 10
223090.3425433046
 20
137535.9120277224
 30
0.0
 11
223090.3425433046
 21
137565.9120277224
 31
0.0
  0
LINE
  5
13F
330
2
100
AcDbEntity
  8
A-Section-G
  6
Continuous
 62
   114
370
     9
100
AcDbLine
 10
223070.1425433046
 20
137535.9120277224
 30
0.0
 11
223070.1425433046
 21
137565.9120277224
 31
0.0
  0
LINE
  5
140
330
2
100
AcDbEntity
  8
A-Section-G
  6
Continuous
 62
   114
370
     9
100
AcDbLine
 10
223049.9425433047
 20
137535.9120277224
 30
0.0
 11
223049.9425433047
 21
137565.9120277224
 31
0.0
  0
LINE
  5
141
330
2
100
AcDbEntity
  8
A-Section-G
  6
Continuous
 62
   114
370
     9
100
AcDbLine
 10
223070.1425433046
 20
137535.9120277224
 30
0.0
 11
223070.1425433046
 21
137580.912027723
 31
0.0
  0
LINE
  5
142
330
2
100
AcDbEntity
  8
A-Section-G
  6
Continuous
 62
   114
370
     9
100
AcDbLine
 10
223594.7425433047
 20
137535.912027723
 30
0.0
 11
223594.7425433047
 21
137595.912027723
 31
0.0
  0
ARC
  5
143
330
2
100
AcDbEntity
  8
A-Section-G
  6
Continuous
 62
   114
370
     9
100
AcDbCircle
 10
223324.0926729171
 20
136947.5565567129
 30
0.0
 40
270.7314206115019
100
AcDbArc
 50
271.4516732237631
 51
358.5936553014504
  0
LWPOLYLINE
  5
144
330
2
100
AcDbEntity
  8
A-Section-G
  6
Continuous
 62
   114
370
     9
100
AcDbPolyline
 90
        3
 70
     0
 43
0.0
 10
223534.7425433047
 20
137535.912027723
 10
223534.7425433047
 20
136941.6944974646
 42
-0.3966390022268171
 10
223330.9513195868
 20
136736.9367793918
 42
-0.3966390022268171
  0
LINE
  5
145
330
2
100
AcDbEntity
  8
A-Section-G
  6
Continuous
 62
   114
370
     9
100
AcDbLine
 10
223360.9513195868
 20
136740.0736133209
 30
0.0
 11
223366.1985646198
 21
136710.5360707765
 31
0.0
  0
LINE
  5
146
330
2
100
AcDbEntity
  8
A-Section-G
  6
Continuous
 62
   114
370
     9
100
AcDbLine
 10
223390.1134479648
 20
136747.434121951
 30
0.0
 11
223404.211653484
 21
136704.6995855532
 31
0.0
  0
LINE
  5
147
330
2
100
AcDbEntity
  8
A-Section-G
  6
Continuous
 62
   114
370
     9
100
AcDbLine
 10
223417.9307014506
 20
136758.8712206799
 30
0.0
 11
223431.2896056322
 21
136732.0097300462
 31
0.0
  0
LINE
  5
148
330
2
100
AcDbEntity
  8
A-Section-G
  6
Continuous
 62
   114
370
     9
100
AcDbLine
 10
223443.8364292323
 20
136774.1519303142
 30
0.0
 11
223469.4067453178
 21
136737.1227670062
 31
0.0
  0
LINE
  5
149
330
2
100
AcDbEntity
  8
A-Section-G
  6
Continuous
 62
   114
370
     9
100
AcDbLine
 10
223467.3029191945
 20
136792.9649754606
 30
0.0
 11
223487.6905167149
 21
136770.9571162428
 31
0.0
  0
LINE
  5
14A
330
2
100
AcDbEntity
  8
A-Section-G
  6
Continuous
 62
   114
370
     9
100
AcDbLine
 10
223487.8521476677
 20
136814.927125355
 30
0.0
 11
223522.8216664153
 21
136786.605177001
 31
0.0
  0
LINE
  5
14B
330
2
100
AcDbEntity
  8
A-Section-G
  6
Continuous
 62
   114
370
     9
100
AcDbLine
 10
223505.0655169998
 20
136839.5910004573
 30
0.0
 11
223530.8290472162
 21
136824.2208829957
 31
0.0
  0
LINE
  5
14C
330
2
100
AcDbEntity
  8
A-Section-G
  6
Continuous
 62
   114
370
     9
100
AcDbLine
 10
223518.5923825911
 20
136866.4541857879
 30
0.0
 11
223560.1262312689
 21
136849.1354267673
 31
0.0
  0
LINE
  5
14D
330
2
100
AcDbEntity
  8
A-Section-G
  6
Continuous
 62
   114
370
     9
100
AcDbLine
 10
223528.1571956938
 20
136894.9694653611
 30
0.0
 11
223557.2080874191
 21
136887.4830984207
 31
0.0
  0
LINE
  5
14E
330
2
100
AcDbEntity
  8
A-Section-G
  6
Continuous
 62
   114
370
     9
100
AcDbLine
 10
223533.5651164718
 20
136924.5559692384
 30
0.0
 11
223578.296272047
 21
136919.6443787725
 31
0.0
  0
DIMENSION
  5
14F
330
2
100
AcDbEntity
  8
0Wymiary-PL
100
AcDbDimension
  2
*D8
 10
223240.9513195868
 20
137741.2459597886
 30
0.0
 11
223285.9513195868
 21
137821.2459597886
 31
0.0
 71
     5
 42
90.0
  3
500
100
AcDbAlignedDimension
 13
223330.9513195868
 23
137044.912027723
 33
0.0
 14
223240.9513195868
 24
137044.912027723
 34
0.0
 50
180.0
100
AcDbRotatedDimension
  0
DIMENSION
  5
15C
330
2
100
AcDbEntity
  8
0Wymiary-PL
100
AcDbDimension
  2
*D9
 10
222348.9513195868
 20
137741.2459597886
 30
0.0
 11
222794.9513195868
 21
137821.2459597886
 31
0.0
 71
     5
 42
892.0
  3
500
100
AcDbAlignedDimension
 13
223240.9513195868
 23
137044.912027723
 33
0.0
 14
222348.9513195868
 24
137371.912027723
 34
0.0
 50
180.0
100
AcDbRotatedDimension
  0
DIMENSION
  5
167
330
2
100
AcDbEntity
  8
0Wymiary-PL
100
AcDbDimension
  2
*D10
 10
221983.9513195868
 20
137741.2459597886
 30
0.0
 11
222166.4513195868
 21
137821.2459597886
 31
0.0
 71
     5
 42
365.0
  3
500
100
AcDbAlignedDimension
 13
222348.9513195868
 23
137371.912027723
 33
0.0
 14
221983.9513195868
 24
137231.912027723
 34
0.0
 50
180.0
100
AcDbRotatedDimension
  0
DIMENSION
  5
172
330
2
100
AcDbEntity
  8
0Wymiary-PL
100
AcDbDimension
  2
*D11
 10
221983.9513195868
 20
137953.7005606817
 30
0.0
 11
222657.4513195868
 21
138033.7005606817
 31
0.0
 71
     5
 42
1347.0
  3
500
100
AcDbAlignedDimension
 13
223330.9513195868
 23
137044.912027723
 33
0.0
 14
221983.9513195868
 24
137231.912027723
 34
0.0
 50
180.0
100
AcDbRotatedDimension
  0
DIMENSION
  5
17D
330
2
100
AcDbEntity
  8
0Wymiary-PL
100
AcDbDimension
  2
*D12
 10
223778.165612302
 20
137044.912027723
 30
0.0
 11
223698.165612302
 21
137208.412027723
 31
0.0
 71
     5
 42
326.9999999999709
  3
500
100
AcDbAlignedDimension
 13
223240.9513195868
 23
137371.912027723
 33
0.0
 14
223240.9513195868
 24
137044.912027723
 34
0.0
 50
90.0
100
AcDbRotatedDimension
  0
DIMENSION
  5
188
330
2
100
AcDbEntity
  8
0Wymiary-PL
100
AcDbDimension
  2
*D13
 10
223778.165612302
 20
136676.912027723
 30
0.0
 11
223698.165612302
 21
136860.912027723
 31
0.0
 71
     5
 42
368.0000000000291
  3
500
100
AcDbAlignedDimension
 13
223240.9513195868
 23
137044.912027723
 33
0.0
 14
223240.9513195868
 24
136676.912027723
 34
0.0
 50
90.0
100
AcDbRotatedDimension
  0
DIMENSION
  5
193
330
2
100
AcDbEntity
  8
0Wymiary-PL
100
AcDbDimension
  2
*D14
 10
223778.165612302
 20
136349.912027723
 30
0.0
 11
223698.165612302
 21
136513.412027723
 31
0.0
 71
     5
 42
327.0
  3
500
100
AcDbAlignedDimension
 13
223240.9513195868
 23
136676.912027723
 33
0.0
 14
223240.9513195868
 24
136349.912027723
 34
0.0
 50
90.0
100
AcDbRotatedDimension
  0
DIMENSION
  5
19E
330
2
100
AcDbEntity
  8
0Wymiary-PL
100
AcDbDimension
  2
*D15
 10
216848.7183985064
 20
136349.912027723
 30
0.0
 11
216768.7183985064
 21
136860.912027723
 31
0.0
 71
     5
 42
1022.0
  3
500
100
AcDbAlignedDimension
 13
217558.8271701583
 23
137371.912027723
 33
0.0
 14
217558.8271701583
 24
136349.912027723
 34
0.0
 50
90.0
100
AcDbRotatedDimension
  0
DIMENSION
  5
1A9
330
2
100
AcDbEntity
  8
0Wymiary-PL
100
AcDbDimension
  2
*D16
 10
223985.3955688654
 20
136349.912027723
 30
0.0
 11
223905.3955688653
 21
136860.912027723
 31
0.0
 71
     5
 42
1022.0
  3
500
100
AcDbAlignedDimension
 13
223240.9513195868
 23
137371.912027723
 33
0.0
 14
223240.9513195868
 24
136349.912027723
 34
0.0
 50
90.0
100
AcDbRotatedDimension
  0
ENDSEC
  0
SECTION
  2
OBJECTS
  0
DICTIONARY
  5
B
330
0
100
AcDbDictionary
281
     1
  3
ACAD_COLOR
350
1D5
  3
ACAD_GROUP
350
1D0
  3
ACAD_LAYOUT
350
1B6
  3
ACAD_MATERIAL
350
D
  3
ACAD_MLINESTYLE
350
1D1
  3
ACAD_PLOTSETTINGS
350
1D2
  3
ACAD_PLOTSTYLENAME
350
A
  3
ACAD_SCALELIST
350
1D6
  3
ACAD_TABLESTYLE
350
1D7
  3
ACAD_VISUALSTYLE
350
1B9
  3
ACDB_RECOMPOSE_DATA
350
1F9
  3
AcDbVariableDictionary
350
1EE
  3
DWGPROPS
350
1FA
  0
DICTIONARY
  5
1C0
330
1BF
100
AcDbDictionary
280
     1
281
     1
  3
ACAD_LAYERSTATES
360
1C1
  0
DICTIONARY
  5
7
330
6
100
AcDbDictionary
280
     1
281
     1
  3
ADSK_XREC_LAYER_RECONCILED
360
8
  0
DICTIONARY
  5
44
330
43
100
AcDbDictionary
280
     1
281
     1
  3
ADSK_XREC_LAYER_RECONCILED
360
45
  0
DICTIONARY
  5
37
330
36
100
AcDbDictionary
280
     1
281
     1
  3
ADSK_XREC_LAYER_RECONCILED
360
38
  0
DICTIONARY
  5
2A
330
29
100
AcDbDictionary
280
     1
281
     1
  3
ADSK_XREC_LAYER_RECONCILED
360
2B
  0
DICTIONARY
  5
1D
330
1C
100
AcDbDictionary
280
     1
281
     1
  3
ADSK_XREC_LAYER_RECONCILED
360
1E
  0
DICTIONARY
  5
12
330
11
100
AcDbDictionary
280
     1
281
     1
  3
ADSK_XREC_LAYER_RECONCILED
360
13
  0
DICTIONARY
  5
9B
330
9A
100
AcDbDictionary
280
     1
281
     1
  3
ADSK_XREC_LAYER_RECONCILED
360
9C
  0
DICTIONARY
  5
40
330
3F
100
AcDbDictionary
280
     1
281
     1
  3
ADSK_XREC_LAYER_RECONCILED
360
41
  0
DICTIONARY
  5
4F
330
4E
100
AcDbDictionary
280
     1
281
     1
  0
DICTIONARY
  5
3
330
2
100
AcDbDictionary
280
     1
281
     1
  3
ACAD_SORTENTS
360
1ED
  0
DICTIONARY
  5
A4
330
A3
100
AcDbDictionary
280
     1
281
     1
  3
ACAD_SORTENTS
360
1EC
  0
DICTIONARY
  5
1D5
102
{ACAD_REACTORS
330
B
102
}
330
B
100
AcDbDictionary
281
     1
  0
DICTIONARY
  5
1D0
102
{ACAD_REACTORS
330
B
102
}
330
B
100
AcDbDictionary
281
     1
  0
DICTIONARY
  5
1B6
102
{ACAD_REACTORS
330
B
102
}
330
B
100
AcDbDictionary
281
     1
  3
Layout1
350
1BE
  3
Model
350
1B5
  0
DICTIONARY
  5
D
102
{ACAD_REACTORS
330
B
102
}
330
B
100
AcDbDictionary
281
     1
  3
ByBlock
350
1D4
  3
ByLayer
350
1D3
  3
Global
350
C
  0
DICTIONARY
  5
1D1
102
{ACAD_REACTORS
330
B
102
}
330
B
100
AcDbDictionary
281
     1
  3
Standard
350
1D8
  0
DICTIONARY
  5
1D2
102
{ACAD_REACTORS
330
B
102
}
330
B
100
AcDbDictionary
281
     1
  0
ACDBDICTIONARYWDFLT
  5
A
102
{ACAD_REACTORS
330
B
102
}
330
B
100
AcDbDictionary
281
     1
  3
Normal
350
9
100
AcDbDictionaryWithDefault
340
9
  0
DICTIONARY
  5
1D6
102
{ACAD_REACTORS
330
B
102
}
330
B
100
AcDbDictionary
281
     1
  3
A0
350
1DD
  3
A1
350
1DE
  3
A2
350
1DF
  3
A3
350
1E0
  3
A4
350
1E1
  3
A5
350
1E2
  3
A6
350
1E3
  3
A7
350
1E4
  3
A8
350
1E5
  3
A9
350
1E6
  3
B0
350
1E7
  3
B1
350
1E8
  3
B2
350
1E9
  3
B3
350
1EA
  3
B4
350
1EB
  0
DICTIONARY
  5
1D7
102
{ACAD_REACTORS
330
B
102
}
330
B
100
AcDbDictionary
281
     1
  3
Standard
350
1D9
  0
DICTIONARY
  5
1B9
102
{ACAD_REACTORS
330
B
102
}
330
B
100
AcDbDictionary
281
     1
  3
2dWireframe
350
1B8
  3
3dWireframe
350
1DC
  3
Realistic
350
1DB
  0
XRECORD
  5
1F9
102
{ACAD_REACTORS
330
B
102
}
330
B
100
AcDbXrecord
280
     1
 90
        1
330
1D9
  0
DICTIONARY
  5
1EE
102
{ACAD_REACTORS
330
B
102
}
330
B
100
AcDbDictionary
281
     1
  3
CANNOSCALE
350
1F2
  3
CMLEADERSTYLE
350
1F0
  3
CTABLESTYLE
350
1EF
  3
DIMASSOC
350
1F6
  3
HIDETEXT
350
1F5
  3
INDEXCTL
350
1F4
  3
MSLTSCALE
350
1F1
  3
SORTENTS
350
1F3
  0
XRECORD
  5
1FA
102
{ACAD_REACTORS
330
B
102
}
330
B
100
AcDbXrecord
280
     1
  1
DWGPROPS COOKIE
  2

  3

  4

  6

  7

  8
joanna.jedrzejec
  9

300
=
301
=
302
=
303
=
304
=
305
=
306
=
307
=
308
=
309
=
 40
7.675030358796296
 41
2452027.670547454
 42
2455421.467970371
  1

 90
        0
  0
DICTIONARY
  5
1C1
102
{ACAD_REACTORS
330
1C0
102
}
330
1C0
100
AcDbDictionary
281
     1
1001
AcLayerTools
1000
A
1000
0
  0
XRECORD
  5
8
102
{ACAD_REACTORS
330
7
102
}
330
7
100
AcDbXrecord
280
     1
290
     1
  0
XRECORD
  5
45
102
{ACAD_REACTORS
330
44
102
}
330
44
100
AcDbXrecord
280
     1
290
     1
  0
XRECORD
  5
38
102
{ACAD_REACTORS
330
37
102
}
330
37
100
AcDbXrecord
280
     1
290
     1
  0
XRECORD
  5
2B
102
{ACAD_REACTORS
330
2A
102
}
330
2A
100
AcDbXrecord
280
     1
290
     1
  0
XRECORD
  5
1E
102
{ACAD_REACTORS
330
1D
102
}
330
1D
100
AcDbXrecord
280
     1
290
     1
  0
XRECORD
  5
13
102
{ACAD_REACTORS
330
12
102
}
330
12
100
AcDbXrecord
280
     1
290
     1
  0
XRECORD
  5
9C
102
{ACAD_REACTORS
330
9B
102
}
330
9B
100
AcDbXrecord
280
     1
290
     1
  0
XRECORD
  5
41
102
{ACAD_REACTORS
330
40
102
}
330
40
100
AcDbXrecord
280
     1
290
     1
  0
SORTENTSTABLE
  5
1ED
102
{ACAD_REACTORS
330
3
102
}
330
3
100
AcDbSortentsTable
330
2
331
3A
  5
3C
331
3D
  5
3A
331
3B
  5
3D
331
39
  5
3B
331
35
  5
39
331
3E
  5
35
331
3C
  5
3E
  0
SORTENTSTABLE
  5
1EC
102
{ACAD_REACTORS
330
A4
102
}
330
A4
100
AcDbSortentsTable
330
A3
  0
LAYOUT
  5
1BE
102
{ACAD_XDICTIONARY
360
1FF
102
}
102
{ACAD_REACTORS
330
1B6
102
}
330
1B6
100
AcDbPlotSettings
  1

  2
C:\PROGRAM FILES\AUTOCAD LT 2000\plotters\DWF ePlot.pc3
  4

  6

 40
0.0
 41
0.0
 42
0.0
 43
0.0
 44
0.0
 45
0.0
 46
0.0
 47
0.0
 48
0.0
 49
0.0
140
0.0
141
0.0
142
1.0
143
1.0
 70
   688
 72
     0
 73
     0
 74
     5
  7
monia.ctb
 75
    16
147
1.0
148
0.0
149
0.0
100
AcDbLayout
  1
Layout1
 70
     1
 71
     1
 10
0.0
 20
0.0
 11
420.0
 21
297.0
 12
0.0
 22
0.0
 32
0.0
 14
1.000000000000000E+20
 24
1.000000000000000E+20
 34
1.000000000000000E+20
 15
-1.000000000000000E+20
 25
-1.000000000000000E+20
 35
-1.000000000000000E+20
146
0.0
 13
0.0
 23
0.0
 33
0.0
 16
1.0
 26
0.0
 36
0.0
 17
0.0
 27
1.0
 37
0.0
 76
     0
330
1BB
  0
LAYOUT
  5
1B5
102
{ACAD_XDICTIONARY
360
1FD
102
}
102
{ACAD_REACTORS
330
1B6
102
}
330
1B6
100
AcDbPlotSettings
  1

  2
CutePDF Writer
  4
A4
  6
RODODENDRON 5
 40
3.174999952316284
 41
3.174999952316284
 42
3.175003051757812
 43
3.17498779296875
 44
209.8886566162109
 45
297.0530090332031
 46
0.0
 47
4.0
 48
215187.2000545948
 49
127657.5157057546
140
225387.2000545948
141
141677.5157057546
142
1.0
143
50.0
 70
 11952
 72
     1
 73
     0
 74
     4
  7
100.ctb
 75
    25
147
0.02
148
-215187.2000545948
149
-127657.5157057546
100
AcDbLayout
  1
Model
 70
     1
 71
     0
 10
0.0
 20
0.0
 11
12.0
 21
9.0
 12
0.0
 22
0.0
 32
0.0
 14
0.0
 24
0.0
 34
0.0
 15
0.0
 25
0.0
 35
0.0
146
0.0
 13
0.0
 23
0.0
 33
0.0
 16
1.0
 26
0.0
 36
0.0
 17
0.0
 27
1.0
 37
0.0
 76
     0
330
2
331
1CC
1001
ACAD_PSEXT
1000
CutePDF Writer
1000
CutePDF Writer
1000
CPW2:
1000

1070
     0
  0
MATERIAL
  5
1D4
102
{ACAD_XDICTIONARY
360
203
102
}
102
{ACAD_REACTORS
330
D
102
}
330
D
100
AcDbMaterial
  1
ByBlock
 73
     1
 78
     1
172
     1
176
     1
270
     1
274
     1
  0
MATERIAL
  5
1D3
102
{ACAD_XDICTIONARY
360
201
102
}
102
{ACAD_REACTORS
330
D
102
}
330
D
100
AcDbMaterial
  1
ByLayer
 73
     1
 78
     1
172
     1
176
     1
270
     1
274
     1
  0
MATERIAL
  5
C
102
{ACAD_XDICTIONARY
360
1FB
102
}
102
{ACAD_REACTORS
330
D
102
}
330
D
100
AcDbMaterial
  1
Global
 73
     1
 78
     1
172
     1
176
     1
270
     1
274
     1
  0
MLINESTYLE
  5
1D8
102
{ACAD_REACTORS
330
1D1
102
}
330
1D1
100
AcDbMlineStyle
  2
STANDARD
 70
     0
  3

 62
   256
 51
90.0
 52
90.0
 71
     2
 49
0.5
 62
   256
  6
BYLAYER
 49
-0.5
 62
   256
  6
BYLAYER
  0
ACDBPLACEHOLDER
  5
9
102
{ACAD_REACTORS
330
A
102
}
330
A
  0
SCALE
  5
1DD
102
{ACAD_REACTORS
330
1D6
102
}
330
1D6
100
AcDbScale
 70
     0
300
1/64" = 1'-0"
140
0.015625
141
12.0
290
     0
  0
SCALE
  5
1DE
102
{ACAD_REACTORS
330
1D6
102
}
330
1D6
100
AcDbScale
 70
     0
300
1/32" = 1'-0"
140
0.03125
141
12.0
290
     0
  0
SCALE
  5
1DF
102
{ACAD_REACTORS
330
1D6
102
}
330
1D6
100
AcDbScale
 70
     0
300
1/16" = 1'-0"
140
0.0625
141
12.0
290
     0
  0
SCALE
  5
1E0
102
{ACAD_REACTORS
330
1D6
102
}
330
1D6
100
AcDbScale
 70
     0
300
3/32" = 1'-0"
140
0.09375
141
12.0
290
     0
  0
SCALE
  5
1E1
102
{ACAD_REACTORS
330
1D6
102
}
330
1D6
100
AcDbScale
 70
     0
300
1/8" = 1'-0"
140
0.125
141
12.0
290
     0
  0
SCALE
  5
1E2
102
{ACAD_REACTORS
330
1D6
102
}
330
1D6
100
AcDbScale
 70
     0
300
3/16" = 1'-0"
140
0.1875
141
12.0
290
     0
  0
SCALE
  5
1E3
102
{ACAD_REACTORS
330
1D6
102
}
330
1D6
100
AcDbScale
 70
     0
300
1/4" = 1'-0"
140
0.25
141
12.0
290
     0
  0
SCALE
  5
1E4
102
{ACAD_REACTORS
330
1D6
102
}
330
1D6
100
AcDbScale
 70
     0
300
3/8" = 1'-0"
140
0.375
141
12.0
290
     0
  0
SCALE
  5
1E5
102
{ACAD_REACTORS
330
1D6
102
}
330
1D6
100
AcDbScale
 70
     0
300
1/2" = 1'-0"
140
0.5
141
12.0
290
     0
  0
SCALE
  5
1E6
102
{ACAD_REACTORS
330
1D6
102
}
330
1D6
100
AcDbScale
 70
     0
300
3/4" = 1'-0"
140
0.75
141
12.0
290
     0
  0
SCALE
  5
1E7
102
{ACAD_REACTORS
330
1D6
102
}
330
1D6
100
AcDbScale
 70
     0
300
1" = 1'-0"
140
1.0
141
12.0
290
     0
  0
SCALE
  5
1E8
102
{ACAD_REACTORS
330
1D6
102
}
330
1D6
100
AcDbScale
 70
     0
300
1 1/2" = 1'-0"
140
1.5
141
12.0
290
     0
  0
SCALE
  5
1E9
102
{ACAD_REACTORS
330
1D6
102
}
330
1D6
100
AcDbScale
 70
     0
300
3" = 1'-0"
140
3.0
141
12.0
290
     0
  0
SCALE
  5
1EA
102
{ACAD_REACTORS
330
1D6
102
}
330
1D6
100
AcDbScale
 70
     0
300
6" = 1'-0"
140
6.0
141
12.0
290
     0
  0
SCALE
  5
1EB
102
{ACAD_REACTORS
330
1D6
102
}
330
1D6
100
AcDbScale
 70
     0
300
1'-0" = 1'-0"
140
12.0
141
12.0
290
     1
  0
TABLESTYLE
  5
1D9
102
{ACAD_XDICTIONARY
360
1DA
102
}
102
{ACAD_REACTORS
330
1D7
102
}
330
1D7
100
AcDbTableStyle
  3
Standard
 70
     0
 71
     0
 40
0.06
 41
0.06
280
     0
281
     0
  7
Standard
140
0.18
170
     2
 62
     0
 63
     7
283
     0
274
    -2
284
     1
 64
     0
275
    -2
285
     1
 65
     0
276
    -2
286
     1
 66
     0
277
    -2
287
     1
 67
     0
278
    -2
288
     1
 68
     0
279
    -2
289
     1
 69
     0
  7
Standard
140
0.25
170
     5
 62
     0
 63
     7
283
     0
274
    -2
284
     1
 64
     0
275
    -2
285
     1
 65
     0
276
    -2
286
     1
 66
     0
277
    -2
287
     1
 67
     0
278
    -2
288
     1
 68
     0
279
    -2
289
     1
 69
     0
  7
Standard
140
0.18
170
     5
 62
     0
 63
     7
283
     0
274
    -2
284
     1
 64
     0
275
    -2
285
     1
 65
     0
276
    -2
286
     1
 66
     0
277
    -2
287
     1
 67
     0
278
    -2
288
     1
 68
     0
279
    -2
289
     1
 69
     0
  0
VISUALSTYLE
  5
1B8
102
{ACAD_REACTORS
330
1B9
102
}
330
1B9
100
AcDbVisualStyle
  2
2dWireframe
 70
     4
 71
     0
 72
     2
 73
     0
 90
        0
 40
-0.6
 41
-30.0
 62
     5
 63
     7
 74
     1
 91
        4
 64
     7
 65
   257
 75
     1
175
     1
 42
1.0
 92
        0
 66
   257
 43
1.0
 76
     1
 77
     6
 78
     2
 67
     7
 79
     5
170
     0
171
     0
290
     0
174
     0
 93
        1
 44
0.0
173
     0
291
     0
 45
0.0
1001
ACAD
1000
AcDbSavedByObjectVersion
1070
     0
  0
VISUALSTYLE
  5
1DC
102
{ACAD_REACTORS
330
1B9
102
}
330
1B9
100
AcDbVisualStyle
  2
3dWireframe
 70
     5
 71
     0
 72
     2
 73
     0
 90
        0
 40
-0.6
 41
-30.0
 62
     5
 63
     7
 74
     1
 91
        4
 64
     7
 65
   257
 75
     1
175
     1
 42
1.0
 92
        0
 66
   257
 43
1.0
 76
     1
 77
     6
 78
     2
 67
     7
 79
     5
170
     0
171
     0
290
     0
174
     0
 93
        1
 44
0.0
173
     0
291
     0
 45
0.0
1001
ACAD
1000
AcDbSavedByObjectVersion
1070
     0
  0
VISUALSTYLE
  5
1DB
102
{ACAD_REACTORS
330
1B9
102
}
330
1B9
100
AcDbVisualStyle
  2
Realistic
 70
     8
 71
     2
 72
     2
 73
     0
 90
        0
 40
-0.6
 41
-30.0
 62
     5
 63
     7
 74
     1
 91
        0
 64
     7
 65
   257
 75
     1
175
     1
 42
1.0
 92
        8
 66
     8
 43
1.0
 76
     1
 77
     6
 78
     2
 67
     7
 79
     5
170
     0
171
     0
290
     0
174
     0
 93
       13
 44
0.0
173
     0
291
     0
 45
0.0
1001
ACAD
1000
AcDbSavedByObjectVersion
1070
     0
  0
DICTIONARYVAR
  5
1F2
102
{ACAD_REACTORS
330
1EE
102
}
330
1EE
100
DictionaryVariables
280
     0
  1
1'-0" = 1'-0"
  0
DICTIONARYVAR
  5
1F0
102
{ACAD_REACTORS
330
1EE
102
}
330
1EE
100
DictionaryVariables
280
     0
  1
STANDARD
  0
DICTIONARYVAR
  5
1EF
102
{ACAD_REACTORS
330
1EE
102
}
330
1EE
100
DictionaryVariables
280
     0
  1
STANDARD
  0
DICTIONARYVAR
  5
1F6
102
{ACAD_REACTORS
330
1EE
102
}
330
1EE
100
DictionaryVariables
280
     0
  1
1
  0
DICTIONARYVAR
  5
1F5
102
{ACAD_REACTORS
330
1EE
102
}
330
1EE
100
DictionaryVariables
280
     0
  1
1
  0
DICTIONARYVAR
  5
1F4
102
{ACAD_REACTORS
330
1EE
102
}
330
1EE
100
DictionaryVariables
280
     0
  1
0
  0
DICTIONARYVAR
  5
1F1
102
{ACAD_REACTORS
330
1EE
102
}
330
1EE
100
DictionaryVariables
280
     0
  1
1
  0
DICTIONARYVAR
  5
1F3
102
{ACAD_REACTORS
330
1EE
102
}
330
1EE
100
DictionaryVariables
280
     0
  1
127
  0
DICTIONARY
  5
1FF
330
1BE
100
AcDbDictionary
280
     1
281
     1
  3
ACAD_XREC_ROUNDTRIP
360
200
  0
DICTIONARY
  5
1FD
330
1B5
100
AcDbDictionary
280
     1
281
     1
  3
ACAD_XREC_ROUNDTRIP
360
1FE
  0
DICTIONARY
  5
203
330
1D4
100
AcDbDictionary
280
     1
281
     1
  3
ACAD_XREC_ROUNDTRIP
360
204
  0
DICTIONARY
  5
201
330
1D3
100
AcDbDictionary
280
     1
281
     1
  3
ACAD_XREC_ROUNDTRIP
360
202
  0
DICTIONARY
  5
1FB
330
C
100
AcDbDictionary
280
     1
281
     1
  3
ACAD_XREC_ROUNDTRIP
360
1FC
  0
DICTIONARY
  5
1DA
330
1D9
100
AcDbDictionary
280
     1
281
     1
  3
ACAD_ROUNDTRIP_2008_TABLESTYLE_CELLSTYLEMAP
360
1F8
  3
ACAD_XREC_ROUNDTRIP
360
205
  0
XRECORD
  5
200
102
{ACAD_REACTORS
330
1FF
102
}
330
1FF
100
AcDbXrecord
280
     1
102
SHADEPLOT
 70
     0
102
SHADEPLOTRESLEVEL
 70
     2
102
SHADEPLOTCUSTOMDPI
 70
   300
  0
XRECORD
  5
1FE
102
{ACAD_REACTORS
330
1FD
102
}
330
1FD
100
AcDbXrecord
280
     1
102
SHADEPLOT
 70
     1
102
SHADEPLOTRESLEVEL
 70
     2
102
SHADEPLOTCUSTOMDPI
 70
   300
  0
XRECORD
  5
204
102
{ACAD_REACTORS
330
203
102
}
330
203
100
AcDbXrecord
280
     1
102
MATERIAL
148
0.0
149
0.0
149
0.0
 93
        0
 94
       63
282
     0
 72
     1
 77
     1
171
     1
175
     1
179
     1
273
     0
  0
XRECORD
  5
202
102
{ACAD_REACTORS
330
201
102
}
330
201
100
AcDbXrecord
280
     1
102
MATERIAL
148
0.0
149
0.0
149
0.0
 93
        0
 94
       63
282
     0
 72
     1
 77
     1
171
     1
175
     1
179
     1
273
     0
  0
XRECORD
  5
1FC
102
{ACAD_REACTORS
330
1FB
102
}
330
1FB
100
AcDbXrecord
280
     1
102
MATERIAL
148
0.0
149
0.0
149
0.0
 93
        0
 94
       63
282
     0
 72
     1
 77
     1
171
     1
175
     1
179
     1
273
     0
  0
CELLSTYLEMAP
  5
1F8
102
{ACAD_REACTORS
330
1DA
102
}
330
1DA
100
AcDbCellStyleMap
 90
        3
300
CELLSTYLE
  1
TABLEFORMAT_BEGIN
 90
        5
170
     1
 91
        0
 92
    32768
 62
   257
 93
        1
300
CONTENTFORMAT
  1
CONTENTFORMAT_BEGIN
 90
        0
 91
        0
 92
      512
 93
        0
300

 40
0.0
140
1.0
 94
        5
 62
     0
340
1C4
144
0.25
309
CONTENTFORMAT_END
171
     0
 94
        6
 95
        1
302
GRIDFORMAT
  1
GRIDFORMAT_BEGIN
 90
        0
 91
        1
 62
     0
 92
       -2
340
0
 93
        0
 40
0.045
309
GRIDFORMAT_END
 95
        2
302
GRIDFORMAT
  1
GRIDFORMAT_BEGIN
 90
        0
 91
        1
 62
     0
 92
       -2
340
0
 93
        0
 40
0.045
309
GRIDFORMAT_END
 95
        4
302
GRIDFORMAT
  1
GRIDFORMAT_BEGIN
 90
        0
 91
        1
 62
     0
 92
       -2
340
0
 93
        0
 40
0.045
309
GRIDFORMAT_END
 95
        8
302
GRIDFORMAT
  1
GRIDFORMAT_BEGIN
 90
        0
 91
        1
 62
     0
 92
       -2
340
0
 93
        0
 40
0.045
309
GRIDFORMAT_END
 95
       16
302
GRIDFORMAT
  1
GRIDFORMAT_BEGIN
 90
        0
 91
        1
 62
     0
 92
       -2
340
0
 93
        0
 40
0.045
309
GRIDFORMAT_END
 95
       32
302
GRIDFORMAT
  1
GRIDFORMAT_BEGIN
 90
        0
 91
        1
 62
     0
 92
       -2
340
0
 93
        0
 40
0.045
309
GRIDFORMAT_END
309
TABLEFORMAT_END
  1
CELLSTYLE_BEGIN
 90
        1
 91
        1
300
_TITLE
309
CELLSTYLE_END
300
CELLSTYLE
  1
TABLEFORMAT_BEGIN
 90
        5
170
     1
 91
        0
 92
        0
 62
   257
 93
        1
300
CONTENTFORMAT
  1
CONTENTFORMAT_BEGIN
 90
        0
 91
        0
 92
      512
 93
        0
300

 40
0.0
140
1.0
 94
        5
 62
     0
340
1C4
144
0.18
309
CONTENTFORMAT_END
171
     0
 94
        6
 95
        1
302
GRIDFORMAT
  1
GRIDFORMAT_BEGIN
 90
        0
 91
        1
 62
     0
 92
       -2
340
0
 93
        0
 40
0.045
309
GRIDFORMAT_END
 95
        2
302
GRIDFORMAT
  1
GRIDFORMAT_BEGIN
 90
        0
 91
        1
 62
     0
 92
       -2
340
0
 93
        0
 40
0.045
309
GRIDFORMAT_END
 95
        4
302
GRIDFORMAT
  1
GRIDFORMAT_BEGIN
 90
        0
 91
        1
 62
     0
 92
       -2
340
0
 93
        0
 40
0.045
309
GRIDFORMAT_END
 95
        8
302
GRIDFORMAT
  1
GRIDFORMAT_BEGIN
 90
        0
 91
        1
 62
     0
 92
       -2
340
0
 93
        0
 40
0.045
309
GRIDFORMAT_END
 95
       16
302
GRIDFORMAT
  1
GRIDFORMAT_BEGIN
 90
        0
 91
        1
 62
     0
 92
       -2
340
0
 93
        0
 40
0.045
309
GRIDFORMAT_END
 95
       32
302
GRIDFORMAT
  1
GRIDFORMAT_BEGIN
 90
        0
 91
        1
 62
     0
 92
       -2
340
0
 93
        0
 40
0.045
309
GRIDFORMAT_END
309
TABLEFORMAT_END
  1
CELLSTYLE_BEGIN
 90
        2
 91
        1
300
_HEADER
309
CELLSTYLE_END
300
CELLSTYLE
  1
TABLEFORMAT_BEGIN
 90
        5
170
     1
 91
        0
 92
        0
 62
   257
 93
        1
300
CONTENTFORMAT
  1
CONTENTFORMAT_BEGIN
 90
        0
 91
        0
 92
      512
 93
        0
300

 40
0.0
140
1.0
 94
        2
 62
     0
340
1C4
144
0.18
309
CONTENTFORMAT_END
171
     0
 94
        6
 95
        1
302
GRIDFORMAT
  1
GRIDFORMAT_BEGIN
 90
        0
 91
        1
 62
     0
 92
       -2
340
0
 93
        0
 40
0.045
309
GRIDFORMAT_END
 95
        2
302
GRIDFORMAT
  1
GRIDFORMAT_BEGIN
 90
        0
 91
        1
 62
     0
 92
       -2
340
0
 93
        0
 40
0.045
309
GRIDFORMAT_END
 95
        4
302
GRIDFORMAT
  1
GRIDFORMAT_BEGIN
 90
        0
 91
        1
 62
     0
 92
       -2
340
0
 93
        0
 40
0.045
309
GRIDFORMAT_END
 95
        8
302
GRIDFORMAT
  1
GRIDFORMAT_BEGIN
 90
        0
 91
        1
 62
     0
 92
       -2
340
0
 93
        0
 40
0.045
309
GRIDFORMAT_END
 95
       16
302
GRIDFORMAT
  1
GRIDFORMAT_BEGIN
 90
        0
 91
        1
 62
     0
 92
       -2
340
0
 93
        0
 40
0.045
309
GRIDFORMAT_END
 95
       32
302
GRIDFORMAT
  1
GRIDFORMAT_BEGIN
 90
        0
 91
        1
 62
     0
 92
       -2
340
0
 93
        0
 40
0.045
309
GRIDFORMAT_END
309
TABLEFORMAT_END
  1
CELLSTYLE_BEGIN
 90
        3
 91
        2
300
_DATA
309
CELLSTYLE_END
  0
XRECORD
  5
205
102
{ACAD_REACTORS
330
1DA
102
}
330
1DA
100
AcDbXrecord
280
     1
102
ACAD_ROUNDTRIP_PRE2007_TABLESTYLE
 90
      512
 91
        0
  1

 92
      512
 93
        0
  2

 94
      512
 95
        0
  3

  0
ENDSEC
  0
EOF
