  0
SECTION
  2
HEADER
  9
$ACADVER
  1
AC1015
  9
$ACADMAINTVER
 70
    18
  9
$DWGCODEPAGE
  3
ANSI_1250
  9
$INSBASE
 10
215187.233673673
 20
127657.5168525552
 30
0.0
  9
$EXTMIN
 10
1.000000000000000E+20
 20
1.000000000000000E+20
 30
1.000000000000000E+20
  9
$EXTMAX
 10
0.0
 20
0.0
 30
0.0
  9
$LIMMIN
 10
0.0
 20
0.0
  9
$LIMMAX
 10
420.0
 20
297.0
  9
$ORTHOMODE
 70
     1
  9
$REGENMODE
 70
     1
  9
$FILLMODE
 70
     1
  9
$QTEXTMODE
 70
     0
  9
$MIRRTEXT
 70
     0
  9
$LTSCALE
 40
75.0
  9
$ATTMODE
 70
     1
  9
$TEXTSIZE
 40
20.0
  9
$TRACEWID
 40
1.0
  9
$TEXTSTYLE
  7
ROMANS
  9
$CLAYER
  8
0
  9
$CELTYPE
  6
ByLayer
  9
$CECOLOR
 62
   256
  9
$CELTSCALE
 40
1.0
  9
$DISPSILH
 70
     0
  9
$DIMSCALE
 40
10.0
  9
$DIMASZ
 40
30.0
  9
$DIMEXO
 40
43.0
  9
$DIMDLI
 40
0.0
  9
$DIMRND
 40
0.5
  9
$DIMDLE
 40
12.0
  9
$DIMEXE
 40
13.0
  9
$DIMTP
 40
0.0
  9
$DIMTM
 40
0.0
  9
$DIMTXT
 40
80.0
  9
$DIMCEN
 40
0.0
  9
$DIMTSZ
 40
0.0
  9
$DIMTOL
 70
     0
  9
$DIMLIM
 70
     0
  9
$DIMTIH
 70
     0
  9
$DIMTOH
 70
     0
  9
$DIMSE1
 70
     1
  9
$DIMSE2
 70
     1
  9
$DIMTAD
 70
     0
  9
$DIMZIN
 70
    12
  9
$DIMBLK
  1
B-DIM
  9
$DIMASO
 70
     1
  9
$DIMSHO
 70
     1
  9
$DIMPOST
  1

  9
$DIMAPOST
  1

  9
$DIMALT
 70
     0
  9
$DIMALTD
 70
     2
  9
$DIMALTF
 40
25.4
  9
$DIMLFAC
 40
1.0
  9
$DIMTOFL
 70
     1
  9
$DIMTVP
 40
1.0
  9
$DIMTIX
 70
     1
  9
$DIMSOXD
 70
     0
  9
$DIMSAH
 70
     0
  9
$DIMBLK1
  1

  9
$DIMBLK2
  1

  9
$DIMSTYLE
  2
500
  9
$DIMCLRD
 70
     1
  9
$DIMCLRE
 70
     1
  9
$DIMCLRT
 70
   140
  9
$DIMTFAC
 40
1.0
  9
$DIMGAP
 40
0.0
  9
$DIMJUST
 70
     0
  9
$DIMSD1
 70
     0
  9
$DIMSD2
 70
     0
  9
$DIMTOLJ
 70
     1
  9
$DIMTZIN
 70
     0
  9
$DIMALTZ
 70
     0
  9
$DIMALTTZ
 70
     0
  9
$DIMUPT
 70
     0
  9
$DIMDEC
 70
     1
  9
$DIMTDEC
 70
     1
  9
$DIMALTU
 70
     2
  9
$DIMALTTD
 70
     2
  9
$DIMTXSTY
  7
ROMANS
  9
$DIMAUNIT
 70
     0
  9
$DIMADEC
 70
     0
  9
$DIMALTRND
 40
0.0
  9
$DIMAZIN
 70
     0
  9
$DIMDSEP
 70
    46
  9
$DIMATFIT
 70
     3
  9
$DIMFRAC
 70
     0
  9
$DIMLDRBLK
  1
B-DIM
  9
$DIMLUNIT
 70
     2
  9
$DIMLWD
 70
    -2
  9
$DIMLWE
 70
    -2
  9
$DIMTMOVE
 70
     2
  9
$LUNITS
 70
     2
  9
$LUPREC
 70
     1
  9
$SKETCHINC
 40
1.0
  9
$FILLETRAD
 40
0.0
  9
$AUNITS
 70
     0
  9
$AUPREC
 70
     0
  9
$MENU
  1
.
  9
$ELEVATION
 40
0.0
  9
$PELEVATION
 40
0.0
  9
$THICKNESS
 40
0.0
  9
$LIMCHECK
 70
     0
  9
$CHAMFERA
 40
0.0
  9
$CHAMFERB
 40
0.0
  9
$CHAMFERC
 40
20.0
  9
$CHAMFERD
 40
0.0
  9
$SKPOLY
 70
     0
  9
$TDCREATE
 40
2452027.670547454
  9
$TDUCREATE
 40
2452027.587214121
  9
$TDUPDATE
 40
2456391.450447048
  9
$TDUUPDATE
 40
2456391.367113715
  9
$TDINDWG
 40
8.9510743287
  9
$TDUSRTIMER
 40
8.9510743287
  9
$USRTIMER
 70
     1
  9
$ANGBASE
 50
0.0
  9
$ANGDIR
 70
     0
  9
$PDMODE
 70
     0
  9
$PDSIZE
 40
0.0
  9
$PLINEWID
 40
0.0
  9
$SPLFRAME
 70
     0
  9
$SPLINETYPE
 70
     6
  9
$SPLINESEGS
 70
     8
  9
$HANDSEED
  5
202
  9
$SURFTAB1
 70
     6
  9
$SURFTAB2
 70
     6
  9
$SURFTYPE
 70
     6
  9
$SURFU
 70
     6
  9
$SURFV
 70
     6
  9
$UCSBASE
  2

  9
$UCSNAME
  2

  9
$UCSORG
 10
0.0
 20
0.0
 30
0.0
  9
$UCSXDIR
 10
1.0
 20
0.0
 30
0.0
  9
$UCSYDIR
 10
0.0
 20
1.0
 30
0.0
  9
$UCSORTHOREF
  2

  9
$UCSORTHOVIEW
 70
     0
  9
$UCSORGTOP
 10
0.0
 20
0.0
 30
0.0
  9
$UCSORGBOTTOM
 10
0.0
 20
0.0
 30
0.0
  9
$UCSORGLEFT
 10
0.0
 20
0.0
 30
0.0
  9
$UCSORGRIGHT
 10
0.0
 20
0.0
 30
0.0
  9
$UCSORGFRONT
 10
0.0
 20
0.0
 30
0.0
  9
$UCSORGBACK
 10
0.0
 20
0.0
 30
0.0
  9
$PUCSBASE
  2

  9
$PUCSNAME
  2

  9
$PUCSORG
 10
0.0
 20
0.0
 30
0.0
  9
$PUCSXDIR
 10
1.0
 20
0.0
 30
0.0
  9
$PUCSYDIR
 10
0.0
 20
1.0
 30
0.0
  9
$PUCSORTHOREF
  2

  9
$PUCSORTHOVIEW
 70
     0
  9
$PUCSORGTOP
 10
0.0
 20
0.0
 30
0.0
  9
$PUCSORGBOTTOM
 10
0.0
 20
0.0
 30
0.0
  9
$PUCSORGLEFT
 10
0.0
 20
0.0
 30
0.0
  9
$PUCSORGRIGHT
 10
0.0
 20
0.0
 30
0.0
  9
$PUCSORGFRONT
 10
0.0
 20
0.0
 30
0.0
  9
$PUCSORGBACK
 10
0.0
 20
0.0
 30
0.0
  9
$USERI1
 70
     0
  9
$USERI2
 70
     0
  9
$USERI3
 70
     0
  9
$USERI4
 70
     0
  9
$USERI5
 70
     0
  9
$USERR1
 40
0.0
  9
$USERR2
 40
0.0
  9
$USERR3
 40
0.0
  9
$USERR4
 40
0.0
  9
$USERR5
 40
0.0
  9
$WORLDVIEW
 70
     1
  9
$SHADEDGE
 70
     3
  9
$SHADEDIF
 70
    70
  9
$TILEMODE
 70
     1
  9
$MAXACTVP
 70
    64
  9
$PINSBASE
 10
0.0
 20
0.0
 30
0.0
  9
$PLIMCHECK
 70
     0
  9
$PEXTMIN
 10
1.049999952316284
 20
0.7999999523162842
 30
0.0
  9
$PEXTMAX
 10
9.449999570846559
 20
7.199999570846558
 30
0.0
  9
$PLIMMIN
 10
-0.2500002402958907
 20
-0.2499999962453767
  9
$PLIMMAX
 10
10.74999951940822
 20
8.249999763458733
  9
$UNITMODE
 70
     0
  9
$VISRETAIN
 70
     1
  9
$PLINEGEN
 70
     0
  9
$PSLTSCALE
 70
     1
  9
$TREEDEPTH
 70
  3020
  9
$CMLSTYLE
  2
Standard
  9
$CMLJUST
 70
     0
  9
$CMLSCALE
 40
20.0
  9
$PROXYGRAPHICS
 70
     1
  9
$MEASUREMENT
 70
     0
  9
$CELWEIGHT
370
    -1
  9
$ENDCAPS
280
     0
  9
$JOINSTYLE
280
     0
  9
$LWDISPLAY
290
     0
  9
$INSUNITS
 70
     5
  9
$HYPERLINKBASE
  1

  9
$STYLESHEET
  1

  9
$XEDIT
290
     1
  9
$CEPSNTYPE
380
     0
  9
$PSTYLEMODE
290
     1
  9
$FINGERPRINTGUID
  2
{FB74EF6D-F6C9-4497-B971-A6A2F5E30120}
  9
$VERSIONGUID
  2
{6B385223-2583-4B44-A39C-C196E10ED4CF}
  9
$EXTNAMES
290
     1
  9
$PSVPSCALE
 40
0.0
  9
$OLESTARTUP
290
     0
  0
ENDSEC
  0
SECTION
  2
CLASSES
  0
CLASS
  1
ACDBDICTIONARYWDFLT
  2
AcDbDictionaryWithDefault
  3
ObjectDBX Classes
 90
        0
280
     0
281
     0
  0
CLASS
  1
ACDBPLACEHOLDER
  2
AcDbPlaceHolder
  3
ObjectDBX Classes
 90
        0
280
     0
281
     0
  0
CLASS
  1
LAYOUT
  2
AcDbLayout
  3
ObjectDBX Classes
 90
        0
280
     0
281
     0
  0
CLASS
  1
DICTIONARYVAR
  2
AcDbDictionaryVar
  3
ObjectDBX Classes
 90
        0
280
     0
281
     0
  0
CLASS
  1
SORTENTSTABLE
  2
AcDbSortentsTable
  3
ObjectDBX Classes
 90
        0
280
     0
281
     0
  0
CLASS
  1
AEC_VARS_DWG_SETUP
  2
AecDbVarsDwgSetup
  3
AecBase50|Product Desc: Autodesk Architectural Desktop 2007 |Company: Autodesk,Inc. |WEB Address: www.autodesk.com
 90
    32897
280
     0
281
     0
  0
CLASS
  1
AEC_DISP_REP_CONFIG
  2
AecDbDispRepConfig
  3
AecBase50|Product Desc: Autodesk Architectural Desktop 2007 |Company: Autodesk,Inc. |WEB Address: www.autodesk.com
 90
    32897
280
     0
281
     0
  0
CLASS
  1
AEC_DISP_REP_SET
  2
AecDbDispRepSet
  3
AecBase50|Product Desc: Autodesk Architectural Desktop 2007 |Company: Autodesk,Inc. |WEB Address: www.autodesk.com
 90
    32897
280
     0
281
     0
  0
CLASS
  1
AEC_DISP_REP_2D_SECTION
  2
AecDbDispRep2dSection
  3
AecBase50|Product Desc: Autodesk Architectural Desktop 2007 |Company: Autodesk,Inc. |WEB Address: www.autodesk.com
 90
    32897
280
     0
281
     0
  0
CLASS
  1
AEC_DISP_REP_ANCHOR_BUB_TO_GRID
  2
AecDbDispRepAnchorBubToGrid
  3
AecStructureBase50|Product Desc: Autodesk Architectural Desktop 2007 |Company: Autodesk,Inc. |WEB Address: www.autodesk.com
 90
    32897
280
     0
281
     0
  0
CLASS
  1
AEC_DISP_REP_ANCHOR_BUB_TO_GRID_MODEL
  2
AecDbDispRepAnchorBubToGridMdl
  3
AecStructureBase50|Product Desc: Autodesk Architectural Desktop 2007 |Company: Autodesk,Inc. |WEB Address: www.autodesk.com
 90
    32897
280
     0
281
     0
  0
CLASS
  1
AEC_DISP_REP_ANCHOR_ENT_TO_NODE
  2
AecDbDispRepAnchorEntToNode
  3
AecBaseEx50|Product Desc: Autodesk Architectural Desktop 2007 |Company: Autodesk,Inc. |WEB Address: www.autodesk.com
 90
    32897
280
     0
281
     0
  0
CLASS
  1
AEC_DISP_REP_ANCHOR_TAG_TO_ENT
  2
AecDbDispRepAnchorTagToEnt
  3
AecScheduleData50|Product Desc: Autodesk Architectural Desktop 2007 |Company: Autodesk,Inc. |WEB Address: www.autodesk.com
 90
    32897
280
     0
281
     0
  0
CLASS
  1
AEC_DISP_REP_AREA
  2
AecDbDispRepArea
  3
AecAreaCalculationBase50|Product Desc: Autodesk Architectural Desktop 2007 |Company: Autodesk,Inc. |WEB Address: www.autodesk.com
 90
    32897
280
     0
281
     0
  0
CLASS
  1
AEC_DISP_REP_AREA_DECOMPOSED
  2
AecDbDispRepAreaDecomposed
  3
AecAreaCalculationBase50|Product Desc: Autodesk Architectural Desktop 2007 |Company: Autodesk,Inc. |WEB Address: www.autodesk.com
 90
    32897
280
     0
281
     0
  0
CLASS
  1
AEC_DISP_REP_AREAGROUP
  2
AecDbDispRepAreaGroup
  3
AecAreaCalculationBase50|Product Desc: Autodesk Architectural Desktop 2007 |Company: Autodesk,Inc. |WEB Address: www.autodesk.com
 90
    32897
280
     0
281
     0
  0
CLASS
  1
AEC_DISP_REP_BDG_ELEVLINE_MODEL
  2
AecDbDispRepBdgElevLineModel
  3
AecArchBase50|Product Desc: Autodesk Architectural Desktop 2007 |Company: Autodesk,Inc. |WEB Address: www.autodesk.com
 90
    32897
280
     0
281
     0
  0
CLASS
  1
AEC_DISP_REP_BDG_SECTIONLINE_PLAN
  2
AecDbDispRepBdgElevLinePlan
  3
AecArchBase50|Product Desc: Autodesk Architectural Desktop 2007 |Company: Autodesk,Inc. |WEB Address: www.autodesk.com
 90
    32897
280
     0
281
     0
  0
CLASS
  1
AEC_DISP_REP_BDG_SECTIONLINE_MODEL
  2
AecDbDispRepBdgSectionLineModel
  3
AecArchBase50|Product Desc: Autodesk Architectural Desktop 2007 |Company: Autodesk,Inc. |WEB Address: www.autodesk.com
 90
    32897
280
     0
281
     0
  0
CLASS
  1
AEC_DISP_REP_BDG_SECTIONLINE_PLAN
  2
AecDbDispRepBdgSectionLinePlan
  3
AecArchBase50|Product Desc: Autodesk Architectural Desktop 2007 |Company: Autodesk,Inc. |WEB Address: www.autodesk.com
 90
    32897
280
     0
281
     0
  0
CLASS
  1
AEC_DISP_REP_BDG_SECTION_SUBDIV
  2
AecDbDispRepBdgSectionSubDiv
  3
AecArchBase50|Product Desc: Autodesk Architectural Desktop 2007 |Company: Autodesk,Inc. |WEB Address: www.autodesk.com
 90
    32897
280
     0
281
     0
  0
CLASS
  1
AEC_DISP_REP_CAMERA
  2
AecDbDispRepCamera
  3
AecBase50|Product Desc: Autodesk Architectural Desktop 2007 |Company: Autodesk,Inc. |WEB Address: www.autodesk.com
 90
    32897
280
     0
281
     0
  0
CLASS
  1
AEC_DISP_REP_CEILING_GRID
  2
AecDbDispRepCeilingGrid
  3
AecArchBase50|Product Desc: Autodesk Architectural Desktop 2007 |Company: Autodesk,Inc. |WEB Address: www.autodesk.com
 90
    33661
280
     0
281
     0
  0
CLASS
  1
AEC_DISP_REP_CEILING_GRID_MODEL
  2
AecDbDispRepCeilingGridModel
  3
AecArchBase50|Product Desc: Autodesk Architectural Desktop 2007 |Company: Autodesk,Inc. |WEB Address: www.autodesk.com
 90
    32897
280
     0
281
     0
  0
CLASS
  1
AEC_DISP_REP_CEILING_GRID_RCP
  2
AecDbDispRepCeilingGridRcp
  3
AecArchBase50|Product Desc: Autodesk Architectural Desktop 2007 |Company: Autodesk,Inc. |WEB Address: www.autodesk.com
 90
    32897
280
     0
281
     0
  0
CLASS
  1
AEC_DISP_REP_CLIP_VOLUME_MODEL
  2
AecDbDispRepClipVolModel
  3
AecBase50|Product Desc: Autodesk Architectural Desktop 2007 |Company: Autodesk,Inc. |WEB Address: www.autodesk.com
 90
    32897
280
     0
281
     0
  0
CLASS
  1
AEC_DISP_REP_CLIP_VOLUME_PLAN
  2
AecDbDispRepClipVolPlan
  3
AecBase50|Product Desc: Autodesk Architectural Desktop 2007 |Company: Autodesk,Inc. |WEB Address: www.autodesk.com
 90
    32897
280
     0
281
     0
  0
CLASS
  1
AEC_DISP_REP_CLIP_VOLUME_RESULT_SUBDIV
  2
AecDbDispRepClipVolResSubDiv
  3
AecBase50|Product Desc: Autodesk Architectural Desktop 2007 |Company: Autodesk,Inc. |WEB Address: www.autodesk.com
 90
    32897
280
     0
281
     0
  0
CLASS
  1
AEC_DISP_REP_CLIP_VOLUME_RESULT
  2
AecDbDispRepClipVolResult
  3
AecBase50|Product Desc: Autodesk Architectural Desktop 2007 |Company: Autodesk,Inc. |WEB Address: www.autodesk.com
 90
    32897
280
     0
281
     0
  0
CLASS
  1
AEC_DISP_REP_COLUMN_GRID
  2
AecDbDispRepColumnGrid
  3
AecStructureBase50|Product Desc: Autodesk Architectural Desktop 2007 |Company: Autodesk,Inc. |WEB Address: www.autodesk.com
 90
    32897
280
     0
281
     0
  0
CLASS
  1
AEC_DISP_REP_COLUMN_GRID_MODEL
  2
AecDbDispRepColumnGridModel
  3
AecStructureBase50|Product Desc: Autodesk Architectural Desktop 2007 |Company: Autodesk,Inc. |WEB Address: www.autodesk.com
 90
    32897
280
     0
281
     0
  0
CLASS
  1
AEC_DISP_REP_CURTAIN_WALL_LAYOUT_MODEL
  2
AecDbDispRepCurtainWallLayoutModel
  3
AecArchBase50|Product Desc: Autodesk Architectural Desktop 2007 |Company: Autodesk,Inc. |WEB Address: www.autodesk.com
 90
    32897
280
     0
281
     0
  0
CLASS
  1
AEC_DISP_REP_CURTAIN_WALL_LAYOUT_PLAN
  2
AecDbDispRepCurtainWallLayoutPlan
  3
AecArchBase50|Product Desc: Autodesk Architectural Desktop 2007 |Company: Autodesk,Inc. |WEB Address: www.autodesk.com
 90
    32897
280
     0
281
     0
  0
CLASS
  1
AEC_DISP_REP_CURTAIN_WALL_UNIT_MODEL
  2
AecDbDispRepCurtainWallUnitModel
  3
AecArchBase50|Product Desc: Autodesk Architectural Desktop 2007 |Company: Autodesk,Inc. |WEB Address: www.autodesk.com
 90
    32897
280
     0
281
     0
  0
CLASS
  1
AEC_DISP_REP_CURTAIN_WALL_UNIT_PLAN
  2
AecDbDispRepCurtainWallUnitPlan
  3
AecArchBase50|Product Desc: Autodesk Architectural Desktop 2007 |Company: Autodesk,Inc. |WEB Address: www.autodesk.com
 90
    32897
280
     0
281
     0
  0
CLASS
  1
AEC_DB_DISP_REP_DIM_GROUP_PLAN
  2
AecDbDispRepDimGroupPlan
  3
AecArchDACHBase50|Product Desc: Autodesk Architectural Desktop 2007 |Company: Autodesk,Inc. |WEB Address: www.autodesk.com
 90
    32897
280
     0
281
     0
  0
CLASS
  1
AEC_DISP_REP_DOOR_MODEL
  2
AecDbDispRepDoorModel
  3
AecArchBase50|Product Desc: Autodesk Architectural Desktop 2007 |Company: Autodesk,Inc. |WEB Address: www.autodesk.com
 90
    32897
280
     0
281
     0
  0
CLASS
  1
AEC_DISP_REP_DOOR_NOMINAL
  2
AecDbDispRepDoorNominal
  3
AecArchBase50|Product Desc: Autodesk Architectural Desktop 2007 |Company: Autodesk,Inc. |WEB Address: www.autodesk.com
 90
    32897
280
     0
281
     0
  0
CLASS
  1
AEC_DISP_REP_DOOR_PLAN
  2
AecDbDispRepDoorPlan
  3
AecArchBase50|Product Desc: Autodesk Architectural Desktop 2007 |Company: Autodesk,Inc. |WEB Address: www.autodesk.com
 90
    32897
280
     0
281
     0
  0
CLASS
  1
AEC_DISP_REP_EDITINPLACEPROFILE
  2
AecDbDispRepEditInPlaceProfile
  3
AecBase50|Product Desc: Autodesk Architectural Desktop 2007 |Company: Autodesk,Inc. |WEB Address: www.autodesk.com
 90
    32897
280
     0
281
     0
  0
CLASS
  1
AEC_DISP_REP_ENT_REF
  2
AecDbDispRepEntRef
  3
AecBase50|Product Desc: Autodesk Architectural Desktop 2007 |Company: Autodesk,Inc. |WEB Address: www.autodesk.com
 90
    32897
280
     0
281
     0
  0
CLASS
  1
AEC_DISP_REP_LAYOUT_CURVE
  2
AecDbDispRepLayoutCurve
  3
AecBase50|Product Desc: Autodesk Architectural Desktop 2007 |Company: Autodesk,Inc. |WEB Address: www.autodesk.com
 90
    32897
280
     0
281
     0
  0
CLASS
  1
AEC_DISP_REP_LAYOUT_GRID2D
  2
AecDbDispRepLayoutGrid2d
  3
AecBase50|Product Desc: Autodesk Architectural Desktop 2007 |Company: Autodesk,Inc. |WEB Address: www.autodesk.com
 90
    32897
280
     0
281
     0
  0
CLASS
  1
AEC_DISP_REP_LAYOUT_GRID3D
  2
AecDbDispRepLayoutGrid3d
  3
AecBase50|Product Desc: Autodesk Architectural Desktop 2007 |Company: Autodesk,Inc. |WEB Address: www.autodesk.com
 90
    32897
280
     0
281
     0
  0
CLASS
  1
AEC_DISP_REP_MASKBLOCK_REF
  2
AecDbDispRepMaskBlockRef
  3
AecBase50|Product Desc: Autodesk Architectural Desktop 2007 |Company: Autodesk,Inc. |WEB Address: www.autodesk.com
 90
    32897
280
     0
281
     0
  0
CLASS
  1
AEC_DISP_REP_MASKBLOCK_REF_RCP
  2
AecDbDispRepMaskBlockRefRcp
  3
AecArchBase50|Product Desc: Autodesk Architectural Desktop 2007 |Company: Autodesk,Inc. |WEB Address: www.autodesk.com
 90
    32897
280
     0
281
     0
  0
CLASS
  1
AEC_DISP_REP_MASS_ELEM_MODEL
  2
AecDbDispRepMassElemModel
  3
AecBaseEx50|Product Desc: Autodesk Architectural Desktop 2007 |Company: Autodesk,Inc. |WEB Address: www.autodesk.com
 90
    32897
280
     0
281
     0
  0
CLASS
  1
AEC_DISP_REP_MASS_ELEM_SCHEM
  2
AecDbDispRepMassElemSchem
  3
AecBaseEx50|Product Desc: Autodesk Architectural Desktop 2007 |Company: Autodesk,Inc. |WEB Address: www.autodesk.com
 90
    32897
280
     0
281
     0
  0
CLASS
  1
AEC_DISP_REP_MASS_GROUP_MODEL
  2
AecDbDispRepMassGroupModel
  3
AecBaseEx50|Product Desc: Autodesk Architectural Desktop 2007 |Company: Autodesk,Inc. |WEB Address: www.autodesk.com
 90
    32897
280
     0
281
     0
  0
CLASS
  1
AEC_DISP_REP_MASS_GROUP_PLAN
  2
AecDbDispRepMassGroupPlan
  3
AecBaseEx50|Product Desc: Autodesk Architectural Desktop 2007 |Company: Autodesk,Inc. |WEB Address: www.autodesk.com
 90
    32897
280
     0
281
     0
  0
CLASS
  1
AEC_DISP_REP_MATERIAL
  2
AecDbDispRepMaterial
  3
AecBase50|Product Desc: Autodesk Architectural Desktop 2007 |Company: Autodesk,Inc. |WEB Address: www.autodesk.com
 90
    32897
280
     0
281
     0
  0
CLASS
  1
AEC_DISP_REP_MVBLOCK_REF
  2
AecDbDispRepMvBlockRef
  3
AecBase50|Product Desc: Autodesk Architectural Desktop 2007 |Company: Autodesk,Inc. |WEB Address: www.autodesk.com
 90
    32897
280
     0
281
     0
  0
CLASS
  1
AEC_DISP_REP_MVBLOCK_REF_MODEL
  2
AecDbDispRepMvBlockRefModel
  3
AecBase50|Product Desc: Autodesk Architectural Desktop 2007 |Company: Autodesk,Inc. |WEB Address: www.autodesk.com
 90
    32897
280
     0
281
     0
  0
CLASS
  1
AEC_DISP_REP_OPENING
  2
AecDbDispRepOpening
  3
AecArchBase50|Product Desc: Autodesk Architectural Desktop 2007 |Company: Autodesk,Inc. |WEB Address: www.autodesk.com
 90
    32897
280
     0
281
     0
  0
CLASS
  1
AEC_DISP_REP_OPENING_MODEL
  2
AecDbDispRepOpeningModel
  3
AecArchBase50|Product Desc: Autodesk Architectural Desktop 2007 |Company: Autodesk,Inc. |WEB Address: www.autodesk.com
 90
    32897
280
     0
281
     0
  0
CLASS
  1
AEC_DISP_REP_POLYGON_MODEL
  2
AecDbDispRepPolygonModel
  3
AecBaseEx50|Product Desc: Autodesk Architectural Desktop 2007 |Company: Autodesk,Inc. |WEB Address: www.autodesk.com
 90
    32897
280
     0
281
     0
  0
CLASS
  1
AEC_DISP_REP_RAILING_MODEL
  2
AecDbDispRepRailingModel
  3
AecArchBase50|Product Desc: Autodesk Architectural Desktop 2007 |Company: Autodesk,Inc. |WEB Address: www.autodesk.com
 90
    32897
280
     0
281
     0
  0
CLASS
  1
AEC_DISP_REP_RAILING_PLAN
  2
AecDbDispRepRailingPlan
  3
AecArchBase50|Product Desc: Autodesk Architectural Desktop 2007 |Company: Autodesk,Inc. |WEB Address: www.autodesk.com
 90
    32897
280
     0
281
     0
  0
CLASS
  1
AEC_DISP_REP_ROOF_MODEL
  2
AecDbDispRepRoofModel
  3
AecArchBase50|Product Desc: Autodesk Architectural Desktop 2007 |Company: Autodesk,Inc. |WEB Address: www.autodesk.com
 90
    32897
280
     0
281
     0
  0
CLASS
  1
AEC_DISP_REP_ROOF_PLAN
  2
AecDbDispRepRoofPlan
  3
AecArchBase50|Product Desc: Autodesk Architectural Desktop 2007 |Company: Autodesk,Inc. |WEB Address: www.autodesk.com
 90
    32897
280
     0
281
     0
  0
CLASS
  1
AEC_DISP_REP_ROOFSLAB_MODEL
  2
AecDbDispRepRoofSlabModel
  3
AecArchBase50|Product Desc: Autodesk Architectural Desktop 2007 |Company: Autodesk,Inc. |WEB Address: www.autodesk.com
 90
    32897
280
     0
281
     0
  0
CLASS
  1
AEC_DISP_REP_ROOFSLAB_PLAN
  2
AecDbDispRepRoofSlabPlan
  3
AecArchBase50|Product Desc: Autodesk Architectural Desktop 2007 |Company: Autodesk,Inc. |WEB Address: www.autodesk.com
 90
    32897
280
     0
281
     0
  0
CLASS
  1
AEC_DISP_REP_SCHEDULE_TABLE
  2
AecDbDispRepScheduleTable
  3
AecSchedule50|Product Desc: Autodesk Architectural Desktop 2007 |Company: Autodesk,Inc. |WEB Address: www.autodesk.com
 90
    32897
280
     0
281
     0
  0
CLASS
  1
AEC_DISP_REP_SLAB_MODEL
  2
AecDbDispRepSlabModel
  3
AecArchBase50|Product Desc: Autodesk Architectural Desktop 2007 |Company: Autodesk,Inc. |WEB Address: www.autodesk.com
 90
    32897
280
     0
281
     0
  0
CLASS
  1
AEC_DISP_REP_SLAB_PLAN
  2
AecDbDispRepSlabPlan
  3
AecArchBase50|Product Desc: Autodesk Architectural Desktop 2007 |Company: Autodesk,Inc. |WEB Address: www.autodesk.com
 90
    32897
280
     0
281
     0
  0
CLASS
  1
AEC_DISP_REP_SLICE
  2
AecDbDispRepSlice
  3
AecBase50|Product Desc: Autodesk Architectural Desktop 2007 |Company: Autodesk,Inc. |WEB Address: www.autodesk.com
 90
    32897
280
     0
281
     0
  0
CLASS
  1
AEC_DISP_REP_SPACE_BOUNDARY_MODEL
  2
AecDbDispRepSpaceBoundaryModel
  3
AecArchBase50|Product Desc: Autodesk Architectural Desktop 2007 |Company: Autodesk,Inc. |WEB Address: www.autodesk.com
 90
    32897
280
     0
281
     0
  0
CLASS
  1
AEC_DISP_REP_SPACE_BOUNDARY_PLAN
  2
AecDbDispRepSpaceBoundaryPlan
  3
AecArchBase50|Product Desc: Autodesk Architectural Desktop 2007 |Company: Autodesk,Inc. |WEB Address: www.autodesk.com
 90
    32897
280
     0
281
     0
  0
CLASS
  1
AEC_DISP_REP_SPACE_BOUNDARY_SCHEM
  2
AecDbDispRepSpaceBoundarySketch
  3
AecArchBase50|Product Desc: Autodesk Architectural Desktop 2007 |Company: Autodesk,Inc. |WEB Address: www.autodesk.com
 90
    32897
280
     0
281
     0
  0
CLASS
  1
AEC_DISP_REP_SPACE_MODEL
  2
AecDbDispRepSpaceModel
  3
AecArchBase50|Product Desc: Autodesk Architectural Desktop 2007 |Company: Autodesk,Inc. |WEB Address: www.autodesk.com
 90
    32897
280
     0
281
     0
  0
CLASS
  1
AEC_DISP_REP_SPACE_PLAN
  2
AecDbDispRepSpacePlan
  3
AecArchBase50|Product Desc: Autodesk Architectural Desktop 2007 |Company: Autodesk,Inc. |WEB Address: www.autodesk.com
 90
    32897
280
     0
281
     0
  0
CLASS
  1
AEC_DISP_REP_STAIR_MODEL
  2
AecDbDispRepStairModel
  3
AecArchBase50|Product Desc: Autodesk Architectural Desktop 2007 |Company: Autodesk,Inc. |WEB Address: www.autodesk.com
 90
    32897
280
     0
281
     0
  0
CLASS
  1
AEC_DISP_REP_STAIR_PLAN
  2
AecDbDispRepStairPlan
  3
AecArchBase50|Product Desc: Autodesk Architectural Desktop 2007 |Company: Autodesk,Inc. |WEB Address: www.autodesk.com
 90
    32897
280
     0
281
     0
  0
CLASS
  1
AEC_DISP_REP_WALL_GRAPH
  2
AecDbDispRepWallGraph
  3
AecArchBase50|Product Desc: Autodesk Architectural Desktop 2007 |Company: Autodesk,Inc. |WEB Address: www.autodesk.com
 90
    32897
280
     0
281
     0
  0
CLASS
  1
AEC_DISP_REP_WALL_MODEL
  2
AecDbDispRepWallModel
  3
AecArchBase50|Product Desc: Autodesk Architectural Desktop 2007 |Company: Autodesk,Inc. |WEB Address: www.autodesk.com
 90
    32897
280
     0
281
     0
  0
CLASS
  1
AEC_DISP_REP_WALL_PLAN
  2
AecDbDispRepWallPlan
  3
AecArchBase50|Product Desc: Autodesk Architectural Desktop 2007 |Company: Autodesk,Inc. |WEB Address: www.autodesk.com
 90
    32897
280
     0
281
     0
  0
CLASS
  1
AEC_DISP_REP_WALL_SCHEM
  2
AecDbDispRepWallSchem
  3
AecArchBase50|Product Desc: Autodesk Architectural Desktop 2007 |Company: Autodesk,Inc. |WEB Address: www.autodesk.com
 90
    32897
280
     0
281
     0
  0
CLASS
  1
AEC_DISP_REP_WINDOW_ASSEMBLY_MODEL
  2
AecDbDispRepWindowAssemblyModel
  3
AecArchBase50|Product Desc: Autodesk Architectural Desktop 2007 |Company: Autodesk,Inc. |WEB Address: www.autodesk.com
 90
    32897
280
     0
281
     0
  0
CLASS
  1
AEC_DISP_REP_WINDOW_ASSEMBLY_PLAN
  2
AecDbDispRepWindowAssemblyPlan
  3
AecArchBase50|Product Desc: Autodesk Architectural Desktop 2007 |Company: Autodesk,Inc. |WEB Address: www.autodesk.com
 90
    32897
280
     0
281
     0
  0
CLASS
  1
AEC_AECDBDISPREPWINDOWASSEMBLYPLAN100
  2
AecDbDispRepWindowAssemblyPlan100
  3
AecArchDACHBase50|Product Desc: Autodesk Architectural Desktop 2007 |Company: Autodesk,Inc. |WEB Address: www.autodesk.com
 90
    32897
280
     0
281
     0
  0
CLASS
  1
AEC_DISP_REP_WINDOW_MODEL
  2
AecDbDispRepWindowModel
  3
AecArchBase50|Product Desc: Autodesk Architectural Desktop 2007 |Company: Autodesk,Inc. |WEB Address: www.autodesk.com
 90
    32897
280
     0
281
     0
  0
CLASS
  1
AEC_DISP_REP_WINDOW_NOMINAL
  2
AecDbDispRepWindowNominal
  3
AecArchBase50|Product Desc: Autodesk Architectural Desktop 2007 |Company: Autodesk,Inc. |WEB Address: www.autodesk.com
 90
    32897
280
     0
281
     0
  0
CLASS
  1
AEC_DISP_REP_WINDOW_PLAN
  2
AecDbDispRepWindowPlan
  3
AecArchBase50|Product Desc: Autodesk Architectural Desktop 2007 |Company: Autodesk,Inc. |WEB Address: www.autodesk.com
 90
    32897
280
     0
281
     0
  0
CLASS
  1
AECS_DISP_REP_MEMBER_LOGICAL
  2
AecsDbDispRepMemberLogical
  3
AecStructureBase50|Product Desc: Autodesk Architectural Desktop 2007 |Company: Autodesk,Inc. |WEB Address: www.autodesk.com
 90
    32897
280
     0
281
     0
  0
CLASS
  1
AECS_DISP_REP_MEMBER_MODEL_DESIGN
  2
AecsDbDispRepMemberModelDesign
  3
AecStructureBase50|Product Desc: Autodesk Architectural Desktop 2007 |Company: Autodesk,Inc. |WEB Address: www.autodesk.com
 90
    32897
280
     0
281
     0
  0
CLASS
  1
AECS_DISP_REP_MEMBER_PLAN_DESIGN
  2
AecsDbDispRepMemberPlanDesign
  3
AecStructureBase50|Product Desc: Autodesk Architectural Desktop 2007 |Company: Autodesk,Inc. |WEB Address: www.autodesk.com
 90
    32897
280
     0
281
     0
  0
CLASS
  1
AEC_DISP_PROPS_ENT
  2
AecDbDispPropsEnt
  3
AecBase50|Product Desc: Autodesk Architectural Desktop 2007 |Company: Autodesk,Inc. |WEB Address: www.autodesk.com
 90
    32897
280
     0
281
     0
  0
CLASS
  1
AEC_DISP_PROPS_CLIP_VOLUME
  2
AecDbDispPropsClipVol
  3
AecBase50|Product Desc: Autodesk Architectural Desktop 2007 |Company: Autodesk,Inc. |WEB Address: www.autodesk.com
 90
    32897
280
     0
281
     0
  0
CLASS
  1
AEC_DISP_PROPS_SLICE
  2
AecDbDispPropsSlice
  3
AecBase50|Product Desc: Autodesk Architectural Desktop 2007 |Company: Autodesk,Inc. |WEB Address: www.autodesk.com
 90
    32897
280
     0
281
     0
  0
CLASS
  1
AEC_DISP_PROPS_ROOFSLAB_PLAN
  2
AecDbDispPropsRoofSlabPlan
  3
AecArchBase50|Product Desc: Autodesk Architectural Desktop 2007 |Company: Autodesk,Inc. |WEB Address: www.autodesk.com
 90
    32897
280
     0
281
     0
  0
CLASS
  1
AEC_DISP_PROPS_GRID_ASSEMBLY_MODEL
  2
AecDbDispPropsGridAssemblyModel
  3
AecArchBase50|Product Desc: Autodesk Architectural Desktop 2007 |Company: Autodesk,Inc. |WEB Address: www.autodesk.com
 90
    32897
280
     0
281
     0
  0
CLASS
  1
AEC_DISP_PROPS_ROOF
  2
AecDbDispPropsRoof
  3
AecArchBase50|Product Desc: Autodesk Architectural Desktop 2007 |Company: Autodesk,Inc. |WEB Address: www.autodesk.com
 90
    32897
280
     0
281
     0
  0
CLASS
  1
AEC_DISP_PROPS_SPACE_MODEL
  2
AecDbDispPropsSpaceModel
  3
AecArchBase50|Product Desc: Autodesk Architectural Desktop 2007 |Company: Autodesk,Inc. |WEB Address: www.autodesk.com
 90
    32897
280
     0
281
     0
  0
CLASS
  1
AEC_DISP_PROPS_EDITINPLACEPROFILE_MODEL
  2
AecDbDispPropsEditInPlaceProfile
  3
AecBase50|Product Desc: Autodesk Architectural Desktop 2007 |Company: Autodesk,Inc. |WEB Address: www.autodesk.com
 90
    32897
280
     0
281
     0
  0
CLASS
  1
AEC_DISP_PROPS_DOOR
  2
AecDbDispPropsDoor
  3
AecArchBase50|Product Desc: Autodesk Architectural Desktop 2007 |Company: Autodesk,Inc. |WEB Address: www.autodesk.com
 90
    32897
280
     0
281
     0
  0
CLASS
  1
AEC_DISP_PROPS_MASKBLOCK
  2
AecDbDispPropsMaskBlock
  3
AecBase50|Product Desc: Autodesk Architectural Desktop 2007 |Company: Autodesk,Inc. |WEB Address: www.autodesk.com
 90
    32897
280
     0
281
     0
  0
CLASS
  1
AEC_DISP_PROPS_SPACE_PLAN
  2
AecDbDispPropsSpacePlan
  3
AecArchBase50|Product Desc: Autodesk Architectural Desktop 2007 |Company: Autodesk,Inc. |WEB Address: www.autodesk.com
 90
    32897
280
     0
281
     0
  0
CLASS
  1
AEC_DISP_PROPS_RAILING_PLAN
  2
AecDbDispPropsRailingPlan
  3
AecArchBase50|Product Desc: Autodesk Architectural Desktop 2007 |Company: Autodesk,Inc. |WEB Address: www.autodesk.com
 90
    32897
280
     0
281
     0
  0
CLASS
  1
AEC_DISP_PROPS_LAYOUT_GRID2D
  2
AecDbDispPropsLayoutGrid2d
  3
AecBase50|Product Desc: Autodesk Architectural Desktop 2007 |Company: Autodesk,Inc. |WEB Address: www.autodesk.com
 90
    32897
280
     0
281
     0
  0
CLASS
  1
AEC_DISP_PROPS_CLIP_VOLUME_RESULT
  2
AecDbDispPropsClipVolResSubDiv
  3
AecBase50|Product Desc: Autodesk Architectural Desktop 2007 |Company: Autodesk,Inc. |WEB Address: www.autodesk.com
 90
    32897
280
     0
281
     0
  0
CLASS
  1
AEC_DISP_PROPS_STAIR_MODEL
  2
AecDbDispPropsStairModel
  3
AecArchBase50|Product Desc: Autodesk Architectural Desktop 2007 |Company: Autodesk,Inc. |WEB Address: www.autodesk.com
 90
    32897
280
     0
281
     0
  0
CLASS
  1
AEC_DISP_PROPS_LAYOUT_CURVE
  2
AecDbDispPropsLayoutCurve
  3
AecBase50|Product Desc: Autodesk Architectural Desktop 2007 |Company: Autodesk,Inc. |WEB Address: www.autodesk.com
 90
    32897
280
     0
281
     0
  0
CLASS
  1
AEC_DISP_PROPS_POLYGON_MODEL
  2
AecDbDispPropsPolygonModel
  3
AecBaseEx50|Product Desc: Autodesk Architectural Desktop 2007 |Company: Autodesk,Inc. |WEB Address: www.autodesk.com
 90
    32897
280
     0
281
     0
  0
CLASS
  1
AEC_DISP_PROPS_MASS_GROUP
  2
AecDbDispPropsMassGroup
  3
AecBaseEx50|Product Desc: Autodesk Architectural Desktop 2007 |Company: Autodesk,Inc. |WEB Address: www.autodesk.com
 90
    32897
280
     0
281
     0
  0
CLASS
  1
AEC_DISP_PROPS_STAIR_PLAN
  2
AecDbDispPropsStairPlan
  3
AecArchBase50|Product Desc: Autodesk Architectural Desktop 2007 |Company: Autodesk,Inc. |WEB Address: www.autodesk.com
 90
    32897
280
     0
281
     0
  0
CLASS
  1
AEC_DISP_PROPS_OPENING
  2
AecDbDispPropsOpening
  3
AecArchBase50|Product Desc: Autodesk Architectural Desktop 2007 |Company: Autodesk,Inc. |WEB Address: www.autodesk.com
 90
    32897
280
     0
281
     0
  0
CLASS
  1
AEC_DISP_PROPS_WALL_GRAPH
  2
AecDbDispPropsWallGraph
  3
AecArchBase50|Product Desc: Autodesk Architectural Desktop 2007 |Company: Autodesk,Inc. |WEB Address: www.autodesk.com
 90
    32897
280
     0
281
     0
  0
CLASS
  1
AEC_DISP_PROPS_DOOR_NOMINAL
  2
AecDbDispPropsDoorNominal
  3
AecArchBase50|Product Desc: Autodesk Architectural Desktop 2007 |Company: Autodesk,Inc. |WEB Address: www.autodesk.com
 90
    32897
280
     0
281
     0
  0
CLASS
  1
AEC_DISP_PROPS_SLAB
  2
AecDbDispPropsSlab
  3
AecArchBase50|Product Desc: Autodesk Architectural Desktop 2007 |Company: Autodesk,Inc. |WEB Address: www.autodesk.com
 90
    32897
280
     0
281
     0
  0
CLASS
  1
AEC_DISP_PROPS_WALL_MODEL
  2
AecDbDispPropsWallModel
  3
AecArchBase50|Product Desc: Autodesk Architectural Desktop 2007 |Company: Autodesk,Inc. |WEB Address: www.autodesk.com
 90
    32897
280
     0
281
     0
  0
CLASS
  1
AEC_DISP_PROPS_MATERIAL
  2
AecDbDispPropsMaterial
  3
AecBase50|Product Desc: Autodesk Architectural Desktop 2007 |Company: Autodesk,Inc. |WEB Address: www.autodesk.com
 90
    32897
280
     0
281
     0
  0
CLASS
  1
AEC_DISP_PROPS_WINDOW
  2
AecDbDispPropsWindow
  3
AecArchBase50|Product Desc: Autodesk Architectural Desktop 2007 |Company: Autodesk,Inc. |WEB Address: www.autodesk.com
 90
    32897
280
     0
281
     0
  0
CLASS
  1
AEC_DISP_PROPS_LAYOUT_GRID3D
  2
AecDbDispPropsLayoutGrid3d
  3
AecBase50|Product Desc: Autodesk Architectural Desktop 2007 |Company: Autodesk,Inc. |WEB Address: www.autodesk.com
 90
    32897
280
     0
281
     0
  0
CLASS
  1
AEC_DISP_PROPS_GRID_ASSEMBLY_PLAN
  2
AecDbDispPropsGridAssemblyPlan
  3
AecArchBase50|Product Desc: Autodesk Architectural Desktop 2007 |Company: Autodesk,Inc. |WEB Address: www.autodesk.com
 90
    32897
280
     0
281
     0
  0
CLASS
  1
AEC_DISP_PROPS_WALL_SCHEM
  2
AecDbDispPropsWallSchem
  3
AecArchBase50|Product Desc: Autodesk Architectural Desktop 2007 |Company: Autodesk,Inc. |WEB Address: www.autodesk.com
 90
    32897
280
     0
281
     0
  0
CLASS
  1
AEC_DISP_PROPS_WALL_PLAN
  2
AecDbDispPropsWallPlan
  3
AecArchBase50|Product Desc: Autodesk Architectural Desktop 2007 |Company: Autodesk,Inc. |WEB Address: www.autodesk.com
 90
    32897
280
     0
281
     0
  0
CLASS
  1
AEC_DISP_PROPS_SPACE_BOUNDARY
  2
AecDbDispPropsSpaceBoundary
  3
AecArchBase50|Product Desc: Autodesk Architectural Desktop 2007 |Company: Autodesk,Inc. |WEB Address: www.autodesk.com
 90
    32897
280
     0
281
     0
  0
CLASS
  1
AEC_DISP_PROPS_SLAB_PLAN
  2
AecDbDispPropsSlabPlan
  3
AecArchBase50|Product Desc: Autodesk Architectural Desktop 2007 |Company: Autodesk,Inc. |WEB Address: www.autodesk.com
 90
    32897
280
     0
281
     0
  0
CLASS
  1
AEC_DISP_PROPS_RAILING_MODEL
  2
AecDbDispPropsRailingModel
  3
AecArchBase50|Product Desc: Autodesk Architectural Desktop 2007 |Company: Autodesk,Inc. |WEB Address: www.autodesk.com
 90
    32897
280
     0
281
     0
  0
CLASS
  1
AEC_DISP_PROPS_MASS_ELEM_MODEL
  2
AecDbDispPropsMassElem
  3
AecBaseEx50|Product Desc: Autodesk Architectural Desktop 2007 |Company: Autodesk,Inc. |WEB Address: www.autodesk.com
 90
    32897
280
     0
281
     0
  0
CLASS
  1
AEC_DISP_PROPS_DIM
  2
AecDbDispPropsDimGroup
  3
AecArchDACHBase50|Product Desc: Autodesk Architectural Desktop 2007 |Company: Autodesk,Inc. |WEB Address: www.autodesk.com
 90
    32897
280
     0
281
     0
  0
CLASS
  1
AEC_DISP_PROPS_ROOFSLAB
  2
AecDbDispPropsRoofSlab
  3
AecArchBase50|Product Desc: Autodesk Architectural Desktop 2007 |Company: Autodesk,Inc. |WEB Address: www.autodesk.com
 90
    32897
280
     0
281
     0
  0
CLASS
  1
AEC_DISP_PROPS_ENT_REF
  2
AecDbDispPropsEntRef
  3
AecBase50|Product Desc: Autodesk Architectural Desktop 2007 |Company: Autodesk,Inc. |WEB Address: www.autodesk.com
 90
    32897
280
     0
281
     0
  0
CLASS
  1
AEC_DISP_PROPS_2D_SECTION
  2
AecDbDispProps2dSection
  3
AecBase50|Product Desc: Autodesk Architectural Desktop 2007 |Company: Autodesk,Inc. |WEB Address: www.autodesk.com
 90
    32897
280
     0
281
     0
  0
CLASS
  1
AECS_DISP_PROPS_MEMBER_LOGICAL
  2
AecsDbDispPropsMemberLogical
  3
AecStructureBase50|Product Desc: Autodesk Architectural Desktop 2007 |Company: Autodesk,Inc. |WEB Address: www.autodesk.com
 90
    32897
280
     0
281
     0
  0
CLASS
  1
AEC_DISP_PROPS_AREA_DECOMPOSED
  2
AecDbDispPropsAreaDecomposed
  3
AecAreaCalculationBase50|Product Desc: Autodesk Architectural Desktop 2007 |Company: Autodesk,Inc. |WEB Address: www.autodesk.com
 90
    32897
280
     0
281
     0
  0
CLASS
  1
AEC_DISP_PROPS_CAMERA
  2
AecDbDispPropsCamera
  3
AecBase50|Product Desc: Autodesk Architectural Desktop 2007 |Company: Autodesk,Inc. |WEB Address: www.autodesk.com
 90
    32897
280
     0
281
     0
  0
CLASS
  1
AECS_DISP_PROPS_MEMBER
  2
AecsDbDispPropsMember
  3
AecStructureBase50|Product Desc: Autodesk Architectural Desktop 2007 |Company: Autodesk,Inc. |WEB Address: www.autodesk.com
 90
    32897
280
     0
281
     0
  0
CLASS
  1
AECS_DISP_PROPS_MEMBER_PLAN
  2
AecsDbDispPropsMemberPlan
  3
AecStructureBase50|Product Desc: Autodesk Architectural Desktop 2007 |Company: Autodesk,Inc. |WEB Address: www.autodesk.com
 90
    32897
280
     0
281
     0
  0
CLASS
  1
AEC_DISP_PROPS_AREAGROUP
  2
AecDbDispPropsAreaGroup
  3
AecAreaCalculationBase50|Product Desc: Autodesk Architectural Desktop 2007 |Company: Autodesk,Inc. |WEB Address: www.autodesk.com
 90
    32897
280
     0
281
     0
  0
CLASS
  1
AEC_DISP_PROPS_WINDOW_NOMINAL
  2
AecDbDispPropsWindowNominal
  3
AecArchBase50|Product Desc: Autodesk Architectural Desktop 2007 |Company: Autodesk,Inc. |WEB Address: www.autodesk.com
 90
    32897
280
     0
281
     0
  0
CLASS
  1
AEC_DISP_PROPS_AREA
  2
AecDbDispPropsArea
  3
AecAreaCalculationBase50|Product Desc: Autodesk Architectural Desktop 2007 |Company: Autodesk,Inc. |WEB Address: www.autodesk.com
 90
    32897
280
     0
281
     0
  0
CLASS
  1
AEC_DISP_PROPS_SCHEDULE_TABLE
  2
AecDbDispPropsScheduleTable
  3
AecSchedule50|Product Desc: Autodesk Architectural Desktop 2007 |Company: Autodesk,Inc. |WEB Address: www.autodesk.com
 90
    32897
280
     0
281
     0
  0
CLASS
  1
AEC_LAYERKEY_STYLE
  2
AecDbLayerKeyStyle
  3
AecBase50|Product Desc: Autodesk Architectural Desktop 2007 |Company: Autodesk,Inc. |WEB Address: www.autodesk.com
 90
    32897
280
     0
281
     0
  0
CLASS
  1
AEC_VARS_ARCHBASE
  2
AecDbVarsArchBase
  3
AecArchBase50|Product Desc: Autodesk Architectural Desktop 2007 |Company: Autodesk,Inc. |WEB Address: www.autodesk.com
 90
    32897
280
     0
281
     0
  0
CLASS
  1
AEC_VARS_MUNICH
  2
AecDbVarsMunich
  3
AecArchDACHBase50|Product Desc: Autodesk Architectural Desktop 2007 |Company: Autodesk,Inc. |WEB Address: www.autodesk.com
 90
    32897
280
     0
281
     0
  0
CLASS
  1
AEC_NOTIFICATION_TRACKER
  2
AecDbNotificationTracker
  3
AecBase50|Product Desc: Autodesk Architectural Desktop 2007 |Company: Autodesk,Inc. |WEB Address: www.autodesk.com
 90
    32897
280
     0
281
     0
  0
CLASS
  1
AEC_DISP_REP_ANCHOR
  2
AecDbDispRepAnchor
  3
AecBase50|Product Desc: Autodesk Architectural Desktop 2007 |Company: Autodesk,Inc. |WEB Address: www.autodesk.com
 90
    32897
280
     0
281
     0
  0
CLASS
  1
AEC_DISP_REP_POLYGON_TRUECOLOUR
  2
AecDbDispRepPolygonTrueColour
  3
AecBaseEx50|Product Desc: Autodesk Architectural Desktop 2007 |Company: Autodesk,Inc. |WEB Address: www.autodesk.com
 90
    32897
280
     0
281
     0
  0
CLASS
  1
AEC_DISP_PROPS_POLYGON_TRUECOLOUR
  2
AecDbDispPropsPolygonTrueColour
  3
AecBaseEx50|Product Desc: Autodesk Architectural Desktop 2007 |Company: Autodesk,Inc. |WEB Address: www.autodesk.com
 90
    32897
280
     0
281
     0
  0
CLASS
  1
AEC_DISP_REP_BDG_ELEVLINE_RCP
  2
AecDbDispRepBdgElevLineRcp
  3
AecArchBase50|Product Desc: Autodesk Architectural Desktop 2007 |Company: Autodesk,Inc. |WEB Address: www.autodesk.com
 90
    32897
280
     0
281
     0
  0
CLASS
  1
AEC_DISP_REP_BDG_SECTIONLINE_RCP
  2
AecDbDispRepBdgSectionLineRcp
  3
AecArchBase50|Product Desc: Autodesk Architectural Desktop 2007 |Company: Autodesk,Inc. |WEB Address: www.autodesk.com
 90
    32897
280
     0
281
     0
  0
CLASS
  1
AEC_DISP_REP_BDG_SECTION_MODEL
  2
AecDbDispRepBdgSectionModel
  3
AecArchBase50|Product Desc: Autodesk Architectural Desktop 2007 |Company: Autodesk,Inc. |WEB Address: www.autodesk.com
 90
    32897
280
     0
281
     0
  0
CLASS
  1
AEC_DISP_REP_DOOR_ELEV
  2
AecDbDispRepDoorElev
  3
AecArchBase50|Product Desc: Autodesk Architectural Desktop 2007 |Company: Autodesk,Inc. |WEB Address: www.autodesk.com
 90
    32897
280
     0
281
     0
  0
CLASS
  1
AEC_DISP_REP_DOOR_RCP
  2
AecDbDispRepDoorRcp
  3
AecArchBase50|Product Desc: Autodesk Architectural Desktop 2007 |Company: Autodesk,Inc. |WEB Address: www.autodesk.com
 90
    32897
280
     0
281
     0
  0
CLASS
  1
AEC_DISP_REP_DOOR_THRESHOLD_PLAN
  2
AecDbDispRepDoorThresholdPlan
  3
AecArchBase50|Product Desc: Autodesk Architectural Desktop 2007 |Company: Autodesk,Inc. |WEB Address: www.autodesk.com
 90
    32897
280
     0
281
     0
  0
CLASS
  1
AEC_DISP_PROPS_DOOR_THRESHOLD_PLAN
  2
AecDbDispPropsDoorThresholdPlan
  3
AecArchBase50|Product Desc: Autodesk Architectural Desktop 2007 |Company: Autodesk,Inc. |WEB Address: www.autodesk.com
 90
    32897
280
     0
281
     0
  0
CLASS
  1
AEC_DISP_REP_MASS_ELEM_RCP
  2
AecDbDispRepMassElemRcp
  3
AecArchBase50|Product Desc: Autodesk Architectural Desktop 2007 |Company: Autodesk,Inc. |WEB Address: www.autodesk.com
 90
    32897
280
     0
281
     0
  0
CLASS
  1
AEC_DISP_REP_MASS_GROUP_RCP
  2
AecDbDispRepMassGroupRcp
  3
AecArchBase50|Product Desc: Autodesk Architectural Desktop 2007 |Company: Autodesk,Inc. |WEB Address: www.autodesk.com
 90
    32897
280
     0
281
     0
  0
CLASS
  1
AEC_DISP_REP_MVBLOCK_REF_RCP
  2
AecDbDispRepMvBlockRefRcp
  3
AecArchBase50|Product Desc: Autodesk Architectural Desktop 2007 |Company: Autodesk,Inc. |WEB Address: www.autodesk.com
 90
    32897
280
     0
281
     0
  0
CLASS
  1
AEC_DISP_REP_ROOF_RCP
  2
AecDbDispRepRoofRcp
  3
AecArchBase50|Product Desc: Autodesk Architectural Desktop 2007 |Company: Autodesk,Inc. |WEB Address: www.autodesk.com
 90
    32897
280
     0
281
     0
  0
CLASS
  1
AEC_DISP_REP_SPACE_BOUNDARY_DIAGRAM
  2
AecDbDispRepSpaceBoundaryDgrm
  3
AecArchBase50|Product Desc: Autodesk Architectural Desktop 2007 |Company: Autodesk,Inc. |WEB Address: www.autodesk.com
 90
    32897
280
     0
281
     0
  0
CLASS
  1
AEC_DISP_REP_SPACE_RCP
  2
AecDbDispRepSpaceRcp
  3
AecArchBase50|Product Desc: Autodesk Architectural Desktop 2007 |Company: Autodesk,Inc. |WEB Address: www.autodesk.com
 90
    32897
280
     0
281
     0
  0
CLASS
  1
AEC_DISP_REP_SPACE_VOLUME
  2
AecDbDispRepSpaceVolume
  3
AecArchBase50|Product Desc: Autodesk Architectural Desktop 2007 |Company: Autodesk,Inc. |WEB Address: www.autodesk.com
 90
    32897
280
     0
281
     0
  0
CLASS
  1
AEC_DISP_REP_STAIR_PLAN_OVERLAPPING
  2
AecDbDispRepStairPlanOverlapping
  3
AecArchBase50|Product Desc: Autodesk Architectural Desktop 2007 |Company: Autodesk,Inc. |WEB Address: www.autodesk.com
 90
    32897
280
     0
281
     0
  0
CLASS
  1
AEC_DISP_PROPS_STAIR_PLAN_OVERLAPPING
  2
AecDbDispPropsStairPlanOverlapping
  3
AecArchBase50|Product Desc: Autodesk Architectural Desktop 2007 |Company: Autodesk,Inc. |WEB Address: www.autodesk.com
 90
    32897
280
     0
281
     0
  0
CLASS
  1
AEC_DISP_REP_STAIR_RCP
  2
AecDbDispRepStairRcp
  3
AecArchBase50|Product Desc: Autodesk Architectural Desktop 2007 |Company: Autodesk,Inc. |WEB Address: www.autodesk.com
 90
    32897
280
     0
281
     0
  0
CLASS
  1
AEC_DISP_REP_WALL_RCP
  2
AecDbDispRepWallRcp
  3
AecArchBase50|Product Desc: Autodesk Architectural Desktop 2007 |Company: Autodesk,Inc. |WEB Address: www.autodesk.com
 90
    32897
280
     0
281
     0
  0
CLASS
  1
AEC_DISP_REP_WINDOWASSEMBLY_SILL_PLAN
  2
AecDbDispRepWindowAssemblySillPlan
  3
AecArchBase50|Product Desc: Autodesk Architectural Desktop 2007 |Company: Autodesk,Inc. |WEB Address: www.autodesk.com
 90
    32897
280
     0
281
     0
  0
CLASS
  1
AEC_DISP_PROPS_WINDOW_ASSEMBLY_SILL_PLAN
  2
AecDbDispPropsWindowAssemblySillPlan
  3
AecArchBase50|Product Desc: Autodesk Architectural Desktop 2007 |Company: Autodesk,Inc. |WEB Address: www.autodesk.com
 90
    32897
280
     0
281
     0
  0
CLASS
  1
AEC_DISP_REP_WINDOW_ELEV
  2
AecDbDispRepWindowElev
  3
AecArchBase50|Product Desc: Autodesk Architectural Desktop 2007 |Company: Autodesk,Inc. |WEB Address: www.autodesk.com
 90
    32897
280
     0
281
     0
  0
CLASS
  1
AEC_DISP_REP_WINDOW_RCP
  2
AecDbDispRepWindowRcp
  3
AecArchBase50|Product Desc: Autodesk Architectural Desktop 2007 |Company: Autodesk,Inc. |WEB Address: www.autodesk.com
 90
    32897
280
     0
281
     0
  0
CLASS
  1
AEC_DISP_REP_WINDOW_SILL_PLAN
  2
AecDbDispRepWindowSillPlan
  3
AecArchBase50|Product Desc: Autodesk Architectural Desktop 2007 |Company: Autodesk,Inc. |WEB Address: www.autodesk.com
 90
    32897
280
     0
281
     0
  0
CLASS
  1
AEC_DISP_PROPS_WINDOW_SILL_PLAN
  2
AecDbDispPropsWindowSillPlan
  3
AecArchBase50|Product Desc: Autodesk Architectural Desktop 2007 |Company: Autodesk,Inc. |WEB Address: www.autodesk.com
 90
    32897
280
     0
281
     0
  0
CLASS
  1
AEC_DISP_REP_ANCHOR_BUB_TO_GRID_RCP
  2
AecDbDispRepAnchorBubToGridRcp
  3
AecStructureBase50|Product Desc: Autodesk Architectural Desktop 2007 |Company: Autodesk,Inc. |WEB Address: www.autodesk.com
 90
    32897
280
     0
281
     0
  0
CLASS
  1
AEC_DISP_REP_COLUMN_GRID_RCP
  2
AecDbDispRepColumnGridRcp
  3
AecStructureBase50|Product Desc: Autodesk Architectural Desktop 2007 |Company: Autodesk,Inc. |WEB Address: www.autodesk.com
 90
    32897
280
     0
281
     0
  0
CLASS
  1
AECS_DISP_REP_MEMBER_ELEVATION_DESIGN
  2
AecsDbDispRepMemberElevationDesign
  3
AecStructureBase50|Product Desc: Autodesk Architectural Desktop 2007 |Company: Autodesk,Inc. |WEB Address: www.autodesk.com
 90
    32897
280
     0
281
     0
  0
CLASS
  1
AECS_DISP_PROPS_MEMBER_PROJECTED
  2
AecsDbDispPropsMemberProjected
  3
AecStructureBase50|Product Desc: Autodesk Architectural Desktop 2007 |Company: Autodesk,Inc. |WEB Address: www.autodesk.com
 90
    32897
280
     0
281
     0
  0
CLASS
  1
AECS_DISP_REP_MEMBER_ELEVATION_DETAIL
  2
AecsDbDispRepMemberElevationDetail
  3
AecStructureBase50|Product Desc: Autodesk Architectural Desktop 2007 |Company: Autodesk,Inc. |WEB Address: www.autodesk.com
 90
    32897
280
     0
281
     0
  0
CLASS
  1
AECS_DISP_REP_MEMBER_MODEL_DETAIL
  2
AecsDbDispRepMemberModelDetail
  3
AecStructureBase50|Product Desc: Autodesk Architectural Desktop 2007 |Company: Autodesk,Inc. |WEB Address: www.autodesk.com
 90
    32897
280
     0
281
     0
  0
CLASS
  1
AECS_DISP_REP_MEMBER_PLAN_DETAIL
  2
AecsDbDispRepMemberPlanDetail
  3
AecStructureBase50|Product Desc: Autodesk Architectural Desktop 2007 |Company: Autodesk,Inc. |WEB Address: www.autodesk.com
 90
    32897
280
     0
281
     0
  0
CLASS
  1
AECS_DISP_REP_MEMBER_PLAN_SKETCH
  2
AecsDbDispRepMemberPlanSketch
  3
AecStructureBase50|Product Desc: Autodesk Architectural Desktop 2007 |Company: Autodesk,Inc. |WEB Address: www.autodesk.com
 90
    32897
280
     0
281
     0
  0
CLASS
  1
AECS_DISP_PROPS_MEMBER_PLAN_SKETCH
  2
AecsDbDispPropsMemberPlanSketch
  3
AecStructureBase50|Product Desc: Autodesk Architectural Desktop 2007 |Company: Autodesk,Inc. |WEB Address: www.autodesk.com
 90
    32897
280
     0
281
     0
  0
CLASS
  1
AEC_AECDBDISPREPAREA100
  2
AecDbDispRepArea100
  3
AecArchDACHBase50|Product Desc: Autodesk Architectural Desktop 2007 |Company: Autodesk,Inc. |WEB Address: www.autodesk.com
 90
    32897
280
     0
281
     0
  0
CLASS
  1
AEC_AECDBDISPREPAREAGROUP100
  2
AecDbDispRepAreaGroup100
  3
AecArchDACHBase50|Product Desc: Autodesk Architectural Desktop 2007 |Company: Autodesk,Inc. |WEB Address: www.autodesk.com
 90
    32897
280
     0
281
     0
  0
CLASS
  1
AEC_AECDBDISPREPBDGELEVLINEPLAN100
  2
AecDbDispRepBdgElevLinePlan100
  3
AecArchDACHBase50|Product Desc: Autodesk Architectural Desktop 2007 |Company: Autodesk,Inc. |WEB Address: www.autodesk.com
 90
    32897
280
     0
281
     0
  0
CLASS
  1
AEC_AECDBDISPREPBDGSECTIONLINEPLAN100
  2
AecDbDispRepBdgSectionLinePlan100
  3
AecArchDACHBase50|Product Desc: Autodesk Architectural Desktop 2007 |Company: Autodesk,Inc. |WEB Address: www.autodesk.com
 90
    32897
280
     0
281
     0
  0
CLASS
  1
AEC_AECDBDISPREPCEILINGGRIDPLAN100
  2
AecDbDispRepCeilingGridPlan100
  3
AecArchDACHBase50|Product Desc: Autodesk Architectural Desktop 2007 |Company: Autodesk,Inc. |WEB Address: www.autodesk.com
 90
    32897
280
     0
281
     0
  0
CLASS
  1
AEC_AECDBDISPREPCOLUMNGRIDPLAN100
  2
AecDbDispRepColumnGridPlan100
  3
AecArchDACHBase50|Product Desc: Autodesk Architectural Desktop 2007 |Company: Autodesk,Inc. |WEB Address: www.autodesk.com
 90
    32897
280
     0
281
     0
  0
CLASS
  1
AEC_AECDBDISPREPCURTAINWALLLAYOUTPLAN100
  2
AecDbDispRepCurtainWallLayoutPlan100
  3
AecArchDACHBase50|Product Desc: Autodesk Architectural Desktop 2007 |Company: Autodesk,Inc. |WEB Address: www.autodesk.com
 90
    32897
280
     0
281
     0
  0
CLASS
  1
AEC_AECDBDISPREPCURTAINWALLUNITPLAN100
  2
AecDbDispRepCurtainWallUnitPlan100
  3
AecArchDACHBase50|Product Desc: Autodesk Architectural Desktop 2007 |Company: Autodesk,Inc. |WEB Address: www.autodesk.com
 90
    32897
280
     0
281
     0
  0
CLASS
  1
AEC_AECDBDISPREPMVBLOCKREFPLAN100
  2
AecDbDispRepMvBlockRefPlan100
  3
AecArchDACHBase50|Product Desc: Autodesk Architectural Desktop 2007 |Company: Autodesk,Inc. |WEB Address: www.autodesk.com
 90
    32897
280
     0
281
     0
  0
CLASS
  1
AEC_AECDBDISPREPROOFPLAN100
  2
AecDbDispRepRoofPlan100
  3
AecArchDACHBase50|Product Desc: Autodesk Architectural Desktop 2007 |Company: Autodesk,Inc. |WEB Address: www.autodesk.com
 90
    32897
280
     0
281
     0
  0
CLASS
  1
AEC_AECDBDISPREPROOFSLABPLAN100
  2
AecDbDispRepRoofSlabPlan100
  3
AecArchDACHBase50|Product Desc: Autodesk Architectural Desktop 2007 |Company: Autodesk,Inc. |WEB Address: www.autodesk.com
 90
    32897
280
     0
281
     0
  0
CLASS
  1
AEC_AECDBDISPREPSLABPLAN100
  2
AecDbDispRepSlabPlan100
  3
AecArchDACHBase50|Product Desc: Autodesk Architectural Desktop 2007 |Company: Autodesk,Inc. |WEB Address: www.autodesk.com
 90
    32897
280
     0
281
     0
  0
CLASS
  1
AEC_AECDBDISPREPSPACEBOUNDARYPLAN100
  2
AecDbDispRepSpaceBoundaryPlan100
  3
AecArchDACHBase50|Product Desc: Autodesk Architectural Desktop 2007 |Company: Autodesk,Inc. |WEB Address: www.autodesk.com
 90
    32897
280
     0
281
     0
  0
CLASS
  1
AEC_AECDBDISPREPSPACEPLAN100
  2
AecDbDispRepSpacePlan100
  3
AecArchDACHBase50|Product Desc: Autodesk Architectural Desktop 2007 |Company: Autodesk,Inc. |WEB Address: www.autodesk.com
 90
    32897
280
     0
281
     0
  0
CLASS
  1
AEC_AECDBDISPREPWALLPLAN100
  2
AecDbDispRepWallPlan100
  3
AecArchDACHBase50|Product Desc: Autodesk Architectural Desktop 2007 |Company: Autodesk,Inc. |WEB Address: www.autodesk.com
 90
    32897
280
     0
281
     0
  0
CLASS
  1
AEC_AECDBDISPREPAREA50
  2
AecDbDispRepArea50
  3
AecArchDACHBase50|Product Desc: Autodesk Architectural Desktop 2007 |Company: Autodesk,Inc. |WEB Address: www.autodesk.com
 90
    32897
280
     0
281
     0
  0
CLASS
  1
AEC_AECDBDISPREPAREAGROUP50
  2
AecDbDispRepAreaGroup50
  3
AecArchDACHBase50|Product Desc: Autodesk Architectural Desktop 2007 |Company: Autodesk,Inc. |WEB Address: www.autodesk.com
 90
    32897
280
     0
281
     0
  0
CLASS
  1
AEC_AECDBDISPREPBDGELEVLINEPLAN50
  2
AecDbDispRepBdgElevLinePlan50
  3
AecArchDACHBase50|Product Desc: Autodesk Architectural Desktop 2007 |Company: Autodesk,Inc. |WEB Address: www.autodesk.com
 90
    32897
280
     0
281
     0
  0
CLASS
  1
AEC_AECDBDISPREPBDGSECTIONLINEPLAN50
  2
AecDbDispRepBdgSectionLinePlan50
  3
AecArchDACHBase50|Product Desc: Autodesk Architectural Desktop 2007 |Company: Autodesk,Inc. |WEB Address: www.autodesk.com
 90
    32897
280
     0
281
     0
  0
CLASS
  1
AEC_AECDBDISPREPCEILINGGRIDPLAN50
  2
AecDbDispRepCeilingGridPlan50
  3
AecArchDACHBase50|Product Desc: Autodesk Architectural Desktop 2007 |Company: Autodesk,Inc. |WEB Address: www.autodesk.com
 90
    32897
280
     0
281
     0
  0
CLASS
  1
AEC_AECDBDISPREPCOLUMNGRIDPLAN50
  2
AecDbDispRepColumnGridPlan50
  3
AecArchDACHBase50|Product Desc: Autodesk Architectural Desktop 2007 |Company: Autodesk,Inc. |WEB Address: www.autodesk.com
 90
    32897
280
     0
281
     0
  0
CLASS
  1
AEC_AECDBDISPREPCURTAINWALLLAYOUTPLAN50
  2
AecDbDispRepCurtainWallLayoutPlan50
  3
AecArchDACHBase50|Product Desc: Autodesk Architectural Desktop 2007 |Company: Autodesk,Inc. |WEB Address: www.autodesk.com
 90
    32897
280
     0
281
     0
  0
CLASS
  1
AEC_AECDBDISPREPCURTAINWALLUNITPLAN50
  2
AecDbDispRepCurtainWallUnitPlan50
  3
AecArchDACHBase50|Product Desc: Autodesk Architectural Desktop 2007 |Company: Autodesk,Inc. |WEB Address: www.autodesk.com
 90
    32897
280
     0
281
     0
  0
CLASS
  1
AEC_AECDBDISPREPMVBLOCKREFPLAN50
  2
AecDbDispRepMvBlockRefPlan50
  3
AecArchDACHBase50|Product Desc: Autodesk Architectural Desktop 2007 |Company: Autodesk,Inc. |WEB Address: www.autodesk.com
 90
    32897
280
     0
281
     0
  0
CLASS
  1
AEC_AECDBDISPREPROOFPLAN50
  2
AecDbDispRepRoofPlan50
  3
AecArchDACHBase50|Product Desc: Autodesk Architectural Desktop 2007 |Company: Autodesk,Inc. |WEB Address: www.autodesk.com
 90
    32897
280
     0
281
     0
  0
CLASS
  1
AEC_AECDBDISPREPROOFSLABPLAN50
  2
AecDbDispRepRoofSlabPlan50
  3
AecArchDACHBase50|Product Desc: Autodesk Architectural Desktop 2007 |Company: Autodesk,Inc. |WEB Address: www.autodesk.com
 90
    32897
280
     0
281
     0
  0
CLASS
  1
AEC_AECDBDISPREPSLABPLAN50
  2
AecDbDispRepSlabPlan50
  3
AecArchDACHBase50|Product Desc: Autodesk Architectural Desktop 2007 |Company: Autodesk,Inc. |WEB Address: www.autodesk.com
 90
    32897
280
     0
281
     0
  0
CLASS
  1
AEC_AECDBDISPREPSPACEBOUNDARYPLAN50
  2
AecDbDispRepSpaceBoundaryPlan50
  3
AecArchDACHBase50|Product Desc: Autodesk Architectural Desktop 2007 |Company: Autodesk,Inc. |WEB Address: www.autodesk.com
 90
    32897
280
     0
281
     0
  0
CLASS
  1
AEC_AECDBDISPREPSPACEPLAN50
  2
AecDbDispRepSpacePlan50
  3
AecArchDACHBase50|Product Desc: Autodesk Architectural Desktop 2007 |Company: Autodesk,Inc. |WEB Address: www.autodesk.com
 90
    32897
280
     0
281
     0
  0
CLASS
  1
AEC_AECDBDISPREPWALLPLAN50
  2
AecDbDispRepWallPlan50
  3
AecArchDACHBase50|Product Desc: Autodesk Architectural Desktop 2007 |Company: Autodesk,Inc. |WEB Address: www.autodesk.com
 90
    32897
280
     0
281
     0
  0
CLASS
  1
AEC_AECDBDISPREPWINDOWASSEMBLYPLAN50
  2
AecDbDispRepWindowAssemblyPlan50
  3
AecArchDACHBase50|Product Desc: Autodesk Architectural Desktop 2007 |Company: Autodesk,Inc. |WEB Address: www.autodesk.com
 90
    32897
280
     0
281
     0
  0
CLASS
  1
AEC_DB_DISP_REP_DIM_GROUP_PLAN100
  2
AecDbDispRepDimGroupPlan100
  3
AecArchDACHBase50|Product Desc: Autodesk Architectural Desktop 2007 |Company: Autodesk,Inc. |WEB Address: www.autodesk.com
 90
    32897
280
     0
281
     0
  0
CLASS
  1
AEC_DB_DISP_REP_DIM_GROUP_PLAN50
  2
AecDbDispRepDimGroupPlan50
  3
AecArchDACHBase50|Product Desc: Autodesk Architectural Desktop 2007 |Company: Autodesk,Inc. |WEB Address: www.autodesk.com
 90
    32897
280
     0
281
     0
  0
CLASS
  1
AEC_DISP_REP_DOOR_PLAN_50
  2
AecDbDispRepDoorPlan50
  3
AecArchDACHBase50|Product Desc: Autodesk Architectural Desktop 2007 |Company: Autodesk,Inc. |WEB Address: www.autodesk.com
 90
    32897
280
     0
281
     0
  0
CLASS
  1
AEC_DISP_PROPS_DOOR_PLAN_50
  2
AecDbDispPropsDoorPlan50
  3
AecArchDACHBase50|Product Desc: Autodesk Architectural Desktop 2007 |Company: Autodesk,Inc. |WEB Address: www.autodesk.com
 90
    32897
280
     0
281
     0
  0
CLASS
  1
AEC_DISP_REP_DOOR_PLAN_HEKTO
  2
AecDbDispRepDoorPlanHekto
  3
AecArchDACHBase50|Product Desc: Autodesk Architectural Desktop 2007 |Company: Autodesk,Inc. |WEB Address: www.autodesk.com
 90
    32897
280
     0
281
     0
  0
CLASS
  1
AEC_DISP_PROPS_DOOR_PLAN_100
  2
AecDbDispPropsDoorPlan100
  3
AecArchDACHBase50|Product Desc: Autodesk Architectural Desktop 2007 |Company: Autodesk,Inc. |WEB Address: www.autodesk.com
 90
    32897
280
     0
281
     0
  0
CLASS
  1
AEC_DISP_REP_DOOR_THRESHOLD_SYMBOL_PLAN
  2
AecDbDispRepDoorThresholdSymbolPlan
  3
AecArchDACHBase50|Product Desc: Autodesk Architectural Desktop 2007 |Company: Autodesk,Inc. |WEB Address: www.autodesk.com
 90
    32897
280
     0
281
     0
  0
CLASS
  1
AEC_DISP_PROPS_DOOR_THRESHOLD_SYMBOL_PLAN
  2
AecDbDispPropsDoorThresholdSymbolPlan
  3
AecArchDACHBase50|Product Desc: Autodesk Architectural Desktop 2007 |Company: Autodesk,Inc. |WEB Address: www.autodesk.com
 90
    32897
280
     0
281
     0
  0
CLASS
  1
AEC_DISPREPAECDBDISPREPMASSELEMPLAN100
  2
AecDbDispRepMassElemPlan100
  3
AecArchDACHBase50|Product Desc: Autodesk Architectural Desktop 2007 |Company: Autodesk,Inc. |WEB Address: www.autodesk.com
 90
    32897
280
     0
281
     0
  0
CLASS
  1
AEC_DISPROPSMASSELEMPLANCOMMON
  2
AecDbDispPropsMassElemPlanCommon
  3
AecArchDACHBase50|Product Desc: Autodesk Architectural Desktop 2007 |Company: Autodesk,Inc. |WEB Address: www.autodesk.com
 90
    32897
280
     0
281
     0
  0
CLASS
  1
AEC_DISPREPAECDBDISPREPMASSELEMPLAN50
  2
AecDbDispRepMassElemPlan50
  3
AecArchDACHBase50|Product Desc: Autodesk Architectural Desktop 2007 |Company: Autodesk,Inc. |WEB Address: www.autodesk.com
 90
    32897
280
     0
281
     0
  0
CLASS
  1
AEC_DISPREPAECDBDISPREPMASSGROUPPLAN100
  2
AecDbDispRepMassGroupPlan100
  3
AecArchDACHBase50|Product Desc: Autodesk Architectural Desktop 2007 |Company: Autodesk,Inc. |WEB Address: www.autodesk.com
 90
    32897
280
     0
281
     0
  0
CLASS
  1
AEC_DISPROPSMASSGROUPPLANCOMMON
  2
AecDbDispPropsMassGroupPlanCommon
  3
AecArchDACHBase50|Product Desc: Autodesk Architectural Desktop 2007 |Company: Autodesk,Inc. |WEB Address: www.autodesk.com
 90
    32897
280
     0
281
     0
  0
CLASS
  1
AEC_DISPREPAECDBDISPREPMASSGROUPPLAN50
  2
AecDbDispRepMassGroupPlan50
  3
AecArchDACHBase50|Product Desc: Autodesk Architectural Desktop 2007 |Company: Autodesk,Inc. |WEB Address: www.autodesk.com
 90
    32897
280
     0
281
     0
  0
CLASS
  1
AEC_DISPREPAECDBDISPREPOPENINGPLAN100
  2
AecDbDispRepOpeningPlan100
  3
AecArchDACHBase50|Product Desc: Autodesk Architectural Desktop 2007 |Company: Autodesk,Inc. |WEB Address: www.autodesk.com
 90
    32897
280
     0
281
     0
  0
CLASS
  1
AEC_DISPROPSOPENINGPLANCOMMONHATCHED
  2
AecDbDispPropsOpeningPlanCommonHatched
  3
AecArchDACHBase50|Product Desc: Autodesk Architectural Desktop 2007 |Company: Autodesk,Inc. |WEB Address: www.autodesk.com
 90
    32897
280
     0
281
     0
  0
CLASS
  1
AEC_DISPREPAECDBDISPREPOPENINGPLAN50
  2
AecDbDispRepOpeningPlan50
  3
AecArchDACHBase50|Product Desc: Autodesk Architectural Desktop 2007 |Company: Autodesk,Inc. |WEB Address: www.autodesk.com
 90
    32897
280
     0
281
     0
  0
CLASS
  1
AEC_DISPREPAECDBDISPREPOPENINGPLANREFLECTED
  2
AecDbDispRepOpeningPlanReflected
  3
AecArchDACHBase50|Product Desc: Autodesk Architectural Desktop 2007 |Company: Autodesk,Inc. |WEB Address: www.autodesk.com
 90
    32897
280
     0
281
     0
  0
CLASS
  1
AEC_DISPROPSOPENINGPLANCOMMON
  2
AecDbDispPropsOpeningPlanCommon
  3
AecArchDACHBase50|Product Desc: Autodesk Architectural Desktop 2007 |Company: Autodesk,Inc. |WEB Address: www.autodesk.com
 90
    32897
280
     0
281
     0
  0
CLASS
  1
AEC_DISPREPAECDBDISPREPOPENINGSILLPLAN
  2
AecDbDispRepOpeningSillPlan
  3
AecArchDACHBase50|Product Desc: Autodesk Architectural Desktop 2007 |Company: Autodesk,Inc. |WEB Address: www.autodesk.com
 90
    32897
280
     0
281
     0
  0
CLASS
  1
AEC_DISPROPSOPENINGSILLPLAN
  2
AecDbDispPropsOpeningSillPlan
  3
AecArchDACHBase50|Product Desc: Autodesk Architectural Desktop 2007 |Company: Autodesk,Inc. |WEB Address: www.autodesk.com
 90
    32897
280
     0
281
     0
  0
CLASS
  1
AEC_DISP_REP_RAILING_PLAN_100
  2
AecDbDispRepRailingPlan100
  3
AecArchDACHBase50|Product Desc: Autodesk Architectural Desktop 2007 |Company: Autodesk,Inc. |WEB Address: www.autodesk.com
 90
    32897
280
     0
281
     0
  0
CLASS
  1
AEC_DISP_ROPS_RAILING_PLAN_100
  2
AecDbDispPropsRailingPlan100
  3
AecArchDACHBase50|Product Desc: Autodesk Architectural Desktop 2007 |Company: Autodesk,Inc. |WEB Address: www.autodesk.com
 90
    32897
280
     0
281
     0
  0
CLASS
  1
AEC_DISP_REP_RAILING_PLAN_50
  2
AecDbDispRepRailingPlan50
  3
AecArchDACHBase50|Product Desc: Autodesk Architectural Desktop 2007 |Company: Autodesk,Inc. |WEB Address: www.autodesk.com
 90
    32897
280
     0
281
     0
  0
CLASS
  1
AEC_DISP_ROPS_RAILING_PLAN_50
  2
AecDbDispPropsRailingPlan50
  3
AecArchDACHBase50|Product Desc: Autodesk Architectural Desktop 2007 |Company: Autodesk,Inc. |WEB Address: www.autodesk.com
 90
    32897
280
     0
281
     0
  0
CLASS
  1
AEC_DISP_REP_STAIR_PLAN_100
  2
AecDbDispRepStairPlan100
  3
AecArchDACHBase50|Product Desc: Autodesk Architectural Desktop 2007 |Company: Autodesk,Inc. |WEB Address: www.autodesk.com
 90
    32897
280
     0
281
     0
  0
CLASS
  1
AEC_DISP_ROPS_STAIR_PLAN_100
  2
AecDbDispPropsStairPlan100
  3
AecArchDACHBase50|Product Desc: Autodesk Architectural Desktop 2007 |Company: Autodesk,Inc. |WEB Address: www.autodesk.com
 90
    32897
280
     0
281
     0
  0
CLASS
  1
AEC_DISP_REP_STAIR_PLAN_50
  2
AecDbDispRepStairPlan50
  3
AecArchDACHBase50|Product Desc: Autodesk Architectural Desktop 2007 |Company: Autodesk,Inc. |WEB Address: www.autodesk.com
 90
    32897
280
     0
281
     0
  0
CLASS
  1
AEC_DISP_ROPS_STAIR_PLAN_50
  2
AecDbDispPropsStairPlan50
  3
AecArchDACHBase50|Product Desc: Autodesk Architectural Desktop 2007 |Company: Autodesk,Inc. |WEB Address: www.autodesk.com
 90
    32897
280
     0
281
     0
  0
CLASS
  1
AEC_DISP_REP_WINDOW_PLAN_100
  2
AecDbDispRepWindowPlan100
  3
AecArchDACHBase50|Product Desc: Autodesk Architectural Desktop 2007 |Company: Autodesk,Inc. |WEB Address: www.autodesk.com
 90
    32897
280
     0
281
     0
  0
CLASS
  1
AEC_DISP_PROPS_WINDOW_PLAN_100
  2
AecDbDispPropsWindowPlan100
  3
AecArchDACHBase50|Product Desc: Autodesk Architectural Desktop 2007 |Company: Autodesk,Inc. |WEB Address: www.autodesk.com
 90
    32897
280
     0
281
     0
  0
CLASS
  1
AEC_DISP_REP_WINDOW_PLAN_50
  2
AecDbDispRepWindowPlan50
  3
AecArchDACHBase50|Product Desc: Autodesk Architectural Desktop 2007 |Company: Autodesk,Inc. |WEB Address: www.autodesk.com
 90
    32897
280
     0
281
     0
  0
CLASS
  1
AEC_DISP_PROPS_WINDOW_PLAN_50
  2
AecDbDispPropsWindowPlan50
  3
AecArchDACHBase50|Product Desc: Autodesk Architectural Desktop 2007 |Company: Autodesk,Inc. |WEB Address: www.autodesk.com
 90
    32897
280
     0
281
     0
  0
CLASS
  1
BINRECORD
  2
AcAecBinRecord
  3
AecBase50|Product Desc: Autodesk Architectural Desktop 2007 |Company: Autodesk,Inc. |WEB Address: www.autodesk.com
 90
    32897
280
     0
281
     0
  0
CLASS
  1
SPATIAL_FILTER
  2
AcDbSpatialFilter
  3
ObjectDBX Classes
 90
    32768
280
     0
281
     0
  0
CLASS
  1
AEC_VARS_STRUCTUREBASE
  2
AecsDbVarsStructureBase
  3
AecStructureBase50|Product Desc: Autodesk Architectural Desktop 2007 |Company: Autodesk,Inc. |WEB Address: www.autodesk.com
 90
    32897
280
     0
281
     0
  0
CLASS
  1
DIMASSOC
  2
AcDbDimAssoc
  3
"AcDbDimAssoc|Product Desc:     AcDim ARX App For Dimension|Company:          Autodesk, Inc.|WEB Address:      www.autodesk.com"
 90
    32768
280
     0
281
     0
  0
CLASS
  1
TABLESTYLE
  2
AcDbTableStyle
  3
ObjectDBX Classes
 90
     4095
280
     0
281
     0
  0
CLASS
  1
MATERIAL
  2
AcDbMaterial
  3
ObjectDBX Classes
 90
     1153
280
     0
281
     0
  0
CLASS
  1
VISUALSTYLE
  2
AcDbVisualStyle
  3
ObjectDBX Classes
 90
     4095
280
     0
281
     0
  0
CLASS
  1
EXACXREFPANELOBJECT
  2
ExAcXREFPanelObject
  3
EXAC_ESW
 90
    33793
280
     1
281
     0
  0
CLASS
  1
NPOCOLLECTION
  2
AcDbImpNonPersistentObjectsCollection
  3
ObjectDBX Classes
 90
    33921
280
     0
281
     0
  0
CLASS
  1
AEC_AECDBDISPREPZONE100
  2
AecDbDispRepZonePlan100
  3
AecArchDACHBase50|Product Desc: Autodesk Architectural Desktop 2007 |Company: Autodesk,Inc. |WEB Address: www.autodesk.com
 90
    32897
280
     0
281
     0
  0
CLASS
  1
AEC_DISP_PROPS_ZONE
  2
AecDbDispPropsZone
  3
AecArchBase50|Product Desc: Autodesk Architectural Desktop 2007 |Company: Autodesk,Inc. |WEB Address: www.autodesk.com
 90
    32897
280
     0
281
     0
  0
CLASS
  1
AEC_AECDBDISPREPZONE50
  2
AecDbDispRepZonePlan50
  3
AecArchDACHBase50|Product Desc: Autodesk Architectural Desktop 2007 |Company: Autodesk,Inc. |WEB Address: www.autodesk.com
 90
    32897
280
     0
281
     0
  0
CLASS
  1
AEC_DISP_REP_DISPLAYTHEME
  2
AecDbDispRepDisplayTheme
  3
AecBase50|Product Desc: Autodesk Architectural Desktop 2007 |Company: Autodesk,Inc. |WEB Address: www.autodesk.com
 90
    32897
280
     0
281
     0
  0
CLASS
  1
AEC_DISP_PROPS_DISPLAYTHEME
  2
AecDbDispPropsDisplayTheme
  3
AecBase50|Product Desc: Autodesk Architectural Desktop 2007 |Company: Autodesk,Inc. |WEB Address: www.autodesk.com
 90
    32897
280
     0
281
     0
  0
CLASS
  1
AEC_DISP_REP_ANCHOR_EXT_TAG_TO_ENT
  2
AecDbDispRepAnchorExtendedTagToEnt
  3
AecScheduleData50|Product Desc: Autodesk Architectural Desktop 2007 |Company: Autodesk,Inc. |WEB Address: www.autodesk.com
 90
    32897
280
     0
281
     0
  0
CLASS
  1
AEC_DISP_REP_SPACE_DECOMPOSED
  2
AecDbDispRepSpaceDecomposed
  3
AecArchBase50|Product Desc: Autodesk Architectural Desktop 2007 |Company: Autodesk,Inc. |WEB Address: www.autodesk.com
 90
    32897
280
     0
281
     0
  0
CLASS
  1
AEC_DISP_PROPS_SPACE_DECOMPOSED
  2
AecDbDispPropsSpaceDecomposed
  3
AecArchBase50|Product Desc: Autodesk Architectural Desktop 2007 |Company: Autodesk,Inc. |WEB Address: www.autodesk.com
 90
    32897
280
     0
281
     0
  0
CLASS
  1
AEC_DISP_REP_ZONE
  2
AecDbDispRepZone
  3
AecArchBase50|Product Desc: Autodesk Architectural Desktop 2007 |Company: Autodesk,Inc. |WEB Address: www.autodesk.com
 90
    32897
280
     0
281
     0
  0
CLASS
  1
ACAD_EVALUATION_GRAPH
  2
AcDbEvalGraph
  3
ObjectDBX Classes
 90
    33921
280
     0
281
     0
  0
CLASS
  1
BLOCKFLIPPARAMETER
  2
AcDbBlockFlipParameter
  3
ObjectDBX Classes
 90
    33921
280
     0
281
     0
  0
CLASS
  1
BLOCKFLIPGRIP
  2
AcDbBlockFlipGrip
  3
ObjectDBX Classes
 90
    33921
280
     0
281
     0
  0
CLASS
  1
BLOCKGRIPLOCATIONCOMPONENT
  2
AcDbBlockGripExpr
  3
ObjectDBX Classes
 90
    33921
280
     0
281
     0
  0
CLASS
  1
BLOCKFLIPACTION
  2
AcDbBlockFlipAction
  3
ObjectDBX Classes
 90
    33921
280
     0
281
     0
  0
CLASS
  1
BLOCKROTATIONPARAMETER
  2
AcDbBlockRotationParameter
  3
ObjectDBX Classes
 90
    33921
280
     0
281
     0
  0
CLASS
  1
BLOCKROTATIONGRIP
  2
AcDbBlockRotationGrip
  3
ObjectDBX Classes
 90
    33921
280
     0
281
     0
  0
CLASS
  1
BLOCKROTATEACTION
  2
AcDbBlockRotateAction
  3
ObjectDBX Classes
 90
    33921
280
     0
281
     0
  0
CLASS
  1
BLOCKBASEPOINTPARAMETER
  2
AcDbBlockBasepointParameter
  3
ObjectDBX Classes
 90
    33921
280
     0
281
     0
  0
CLASS
  1
ACDB_DYNAMICBLOCKPURGEPREVENTER_VERSION
  2
AcDbDynamicBlockPurgePreventer
  3
ObjectDBX Classes
 90
    33921
280
     0
281
     0
  0
CLASS
  1
ACDB_BLOCKREPRESENTATION_DATA
  2
AcDbBlockRepresentationData
  3
ObjectDBX Classes
 90
    33921
280
     0
281
     0
  0
CLASS
  1
BLOCKVISIBILITYPARAMETER
  2
AcDbBlockVisibilityParameter
  3
ObjectDBX Classes
 90
    33921
280
     0
281
     0
  0
CLASS
  1
BLOCKVISIBILITYGRIP
  2
AcDbBlockVisibilityGrip
  3
ObjectDBX Classes
 90
    33921
280
     0
281
     0
  0
CLASS
  1
BLOCKLINEARPARAMETER
  2
AcDbBlockLinearParameter
  3
ObjectDBX Classes
 90
    33921
280
     0
281
     0
  0
CLASS
  1
BLOCKSTRETCHACTION
  2
AcDbBlockStretchAction
  3
ObjectDBX Classes
 90
    33921
280
     0
281
     0
  0
CLASS
  1
BLOCKLOOKUPPARAMETER
  2
AcDbBlockLookupParameter
  3
ObjectDBX Classes
 90
    33921
280
     0
281
     0
  0
CLASS
  1
BLOCKLOOKUPGRIP
  2
AcDbBlockLookupGrip
  3
ObjectDBX Classes
 90
    33921
280
     0
281
     0
  0
CLASS
  1
BLOCKLOOKUPACTION
  2
AcDbBlockLookupAction
  3
ObjectDBX Classes
 90
    33921
280
     0
281
     0
  0
CLASS
  1
BLOCKMOVEACTION
  2
AcDbBlockMoveAction
  3
ObjectDBX Classes
 90
    33921
280
     0
281
     0
  0
CLASS
  1
BLOCKLINEARGRIP
  2
AcDbBlockLinearGrip
  3
ObjectDBX Classes
 90
    33921
280
     0
281
     0
  0
CLASS
  1
OBJECT_PTR
  2
CAseDLPNTableRecord
  3
ASE-LPNTableRecord
 90
        1
280
     0
281
     0
  0
CLASS
  1
SCALE
  2
AcDbScale
  3
ObjectDBX Classes
 90
     1153
280
     0
281
     0
  0
CLASS
  1
MLEADERSTYLE
  2
AcDbMLeaderStyle
  3
ACDB_MLEADERSTYLE_CLASS
 90
    36863
280
     0
281
     0
  0
CLASS
  1
AEC_REFEDIT_STATUS_TRACKER
  2
AecDbRefEditStatusTracker
  3
AecArchBase50|Product Desc: Autodesk Architectural Desktop 2007 |Company: Autodesk,Inc. |WEB Address: www.autodesk.com
 90
    32897
280
     0
281
     0
  0
CLASS
  1
CELLSTYLEMAP
  2
AcDbCellStyleMap
  3
ObjectDBX Classes
 90
     1152
280
     0
281
     0
  0
ENDSEC
  0
SECTION
  2
TABLES
  0
TABLE
  2
VPORT
  5
181
330
0
100
AcDbSymbolTable
 70
     1
  0
VPORT
  5
182
330
181
100
AcDbSymbolTableRecord
100
AcDbViewportTableRecord
  2
*Active
 70
     0
 10
0.0
 20
0.0
 11
1.0
 21
1.0
 12
216694.243699057
 22
139297.5177561172
 13
0.0
 23
0.0
 14
10.0
 24
10.0
 15
10.0
 25
10.0
 16
0.0
 26
0.0
 36
1.0
 17
0.0
 27
0.0
 37
0.0
 40
26108.60068747657
 41
1.825958702064896
 42
50.0
 43
0.0
 44
0.0
 50
0.0
 51
0.0
 71
     0
 72
  1000
 73
     1
 74
     1
 75
     0
 76
     0
 77
     0
 78
     0
281
     0
 65
     1
110
0.0
120
0.0
130
0.0
111
1.0
121
0.0
131
0.0
112
0.0
122
1.0
132
0.0
 79
     0
146
0.0
  0
ENDTAB
  0
TABLE
  2
LTYPE
  5
17C
330
0
100
AcDbSymbolTable
 70
     2
  0
LTYPE
  5
17D
330
17C
100
AcDbSymbolTableRecord
100
AcDbLinetypeTableRecord
  2
ByBlock
 70
     0
  3

 72
    65
 73
     0
 40
0.0
  0
LTYPE
  5
17E
330
17C
100
AcDbSymbolTableRecord
100
AcDbLinetypeTableRecord
  2
ByLayer
 70
     0
  3

 72
    65
 73
     0
 40
0.0
  0
LTYPE
  5
E
330
17C
100
AcDbSymbolTableRecord
100
AcDbLinetypeTableRecord
  2
Continuous
 70
     0
  3
Solid line
 72
    65
 73
     0
 40
0.0
  0
LTYPE
  5
14
330
17C
100
AcDbSymbolTableRecord
100
AcDbLinetypeTableRecord
  2
HIDDEN
 70
     0
  3
Hidden __ __ __ __ __ __ __ __ __ __ __ __ __ _
 72
    65
 73
     2
 40
0.375
 49
0.25
 74
     0
 49
-0.125
 74
     0
  0
ENDTAB
  0
TABLE
  2
LAYER
  5
173
102
{ACAD_XDICTIONARY
360
174
102
}
330
0
100
AcDbSymbolTable
 70
     6
  0
LAYER
  5
6
102
{ACAD_XDICTIONARY
360
7
102
}
330
173
100
AcDbSymbolTableRecord
100
AcDbLayerTableRecord
  2
0
 70
     0
 62
     7
  6
Continuous
370
    -3
390
9
1001
RAK
1000
{ACET-LAYISO
1070
     0
1070
     7
1000
Continuous
1071
       -3
1071
        1
1005
9
1000
ACET-LAYISO}
  0
LAYER
  5
81
330
173
100
AcDbSymbolTableRecord
100
AcDbLayerTableRecord
  2
DEFPOINTS
 70
     0
 62
     7
  6
Continuous
290
     0
370
    -3
390
9
1001
RAK
1000
{ACET-LAYISO
1070
     0
1070
     7
1000
Continuous
1071
       -3
1071
        0
1005
9
1000
ACET-LAYISO}
  0
LAYER
  5
1C
102
{ACAD_XDICTIONARY
360
1D
102
}
330
173
100
AcDbSymbolTableRecord
100
AcDbLayerTableRecord
  2
RAMKI-A4
 70
     0
 62
     2
  6
Continuous
290
     0
370
    -3
390
9
1001
RAK
1000
{ACET-LAYISO
1070
     0
1070
     2
1000
Continuous
1071
       -3
1071
        0
1005
9
1000
ACET-LAYISO}
  0
LAYER
  5
6E
102
{ACAD_XDICTIONARY
360
6F
102
}
330
173
100
AcDbSymbolTableRecord
100
AcDbLayerTableRecord
  2
0Wymiary-PL
 70
     0
 62
     1
  6
Continuous
370
     5
390
9
  0
LAYER
  5
16
102
{ACAD_XDICTIONARY
360
17
102
}
330
173
100
AcDbSymbolTableRecord
100
AcDbLayerTableRecord
  2
0Napisy-PL
 70
     0
 62
   140
  6
Continuous
370
    15
390
9
1001
RAK
1000
{ACET-LAYISO
1070
     0
1070
   140
1000
Continuous
1071
       15
1071
        1
1005
9
1000
ACET-LAYISO}
  0
LAYER
  5
11
102
{ACAD_XDICTIONARY
360
12
102
}
330
173
100
AcDbSymbolTableRecord
100
AcDbLayerTableRecord
  2
0Napisy
 70
     0
 62
   140
  6
Continuous
370
    15
390
9
1001
RAK
1000
{ACET-LAYISO
1070
     0
1070
    33
1000
Continuous
1071
       18
1071
        1
1005
9
1000
ACET-LAYISO}
  0
ENDTAB
  0
TABLE
  2
STYLE
  5
179
330
0
100
AcDbSymbolTable
 70
     4
  0
STYLE
  5
17A
330
179
100
AcDbSymbolTableRecord
100
AcDbTextStyleTableRecord
  2
Standard
 70
     0
 40
0.0
 41
1.0
 50
0.0
 71
     0
 42
2.5
  3
txt
  4

  0
STYLE
  5
7F
330
179
100
AcDbSymbolTableRecord
100
AcDbTextStyleTableRecord
  2
ROMANS
 70
     0
 40
0.0
 41
0.9
 50
0.0
 71
     0
 42
20.0
  3
romans.shx
  4

  0
STYLE
  5
19
330
179
100
AcDbSymbolTableRecord
100
AcDbTextStyleTableRecord
  2
AVA
 70
     0
 40
0.0
 41
1.0
 50
0.0
 71
     0
 42
158.5644099714409
  3
arial.ttf
  4

1001
ACAD
1000
Arial CE
1071
    60962
  0
STYLE
  5
20
330
179
100
AcDbSymbolTableRecord
100
AcDbTextStyleTableRecord
  2
ARIAL
 70
     0
 40
0.0
 41
1.0
 50
0.0
 71
     0
 42
20.0
  3
arial.ttf
  4

1001
ACAD
1000
Arial CE
1071
    60962
  0
ENDTAB
  0
TABLE
  2
VIEW
  5
17F
330
0
100
AcDbSymbolTable
 70
     1
  0
VIEW
  5
165
330
17F
100
AcDbSymbolTableRecord
100
AcDbViewTableRecord
  2
RODODENDRON 5
 70
     0
 40
14020.0
 10
220287.1664355166
 20
148687.514558954
 41
10200.00000000003
 11
0.0
 21
0.0
 31
1.0
 12
0.0
 22
0.0
 32
0.0
 42
50.0
 43
0.0
 44
0.0
 50
0.0
 71
     0
281
     0
 72
     1
110
0.0
120
0.0
130
0.0
111
1.0
121
0.0
131
0.0
112
0.0
122
1.0
132
0.0
 79
     0
146
0.0
  0
ENDTAB
  0
TABLE
  2
UCS
  5
180
330
0
100
AcDbSymbolTable
 70
     0
  0
ENDTAB
  0
TABLE
  2
APPID
  5
183
330
0
100
AcDbSymbolTable
 70
     6
  0
APPID
  5
1A
330
183
100
AcDbSymbolTableRecord
100
AcDbRegAppTableRecord
  2
ACAD
 70
     0
  0
APPID
  5
F
330
183
100
AcDbSymbolTableRecord
100
AcDbRegAppTableRecord
  2
RAK
 70
     0
  0
APPID
  5
168
330
183
100
AcDbSymbolTableRecord
100
AcDbRegAppTableRecord
  2
ACAD_PSEXT
 70
     0
  0
APPID
  5
22
330
183
100
AcDbSymbolTableRecord
100
AcDbRegAppTableRecord
  2
DCO15
 70
     0
  0
APPID
  5
177
330
183
100
AcDbSymbolTableRecord
100
AcDbRegAppTableRecord
  2
AcLayerTools
 70
     0
  0
APPID
  5
21
330
183
100
AcDbSymbolTableRecord
100
AcDbRegAppTableRecord
  2
AcDbBlockRepETag
 70
     0
  0
ENDTAB
  0
TABLE
  2
DIMSTYLE
  5
184
330
0
100
AcDbSymbolTable
 70
     2
100
AcDbDimStyleTable
 71
     2
340
85
340
185
  0
DIMSTYLE
105
85
102
{ACAD_REACTORS
330
6D
330
86
330
91
330
9C
330
A9
330
B4
330
C1
330
111
330
11C
330
127
330
132
330
13F
330
14A
330
157
102
}
330
184
100
AcDbSymbolTableRecord
100
AcDbDimStyleTableRecord
  2
500
 70
     0
 41
30.0
 42
43.0
 43
0.0
 44
13.0
 45
0.5
 46
12.0
 73
     0
 74
     0
 75
     1
 76
     1
 78
    12
140
80.0
141
0.0
145
1.0
147
0.0
172
     1
174
     1
176
     1
177
     1
178
   140
271
     1
272
     1
279
     2
340
7F
341
75
342
75
  0
DIMSTYLE
105
185
330
184
100
AcDbSymbolTableRecord
100
AcDbDimStyleTableRecord
  2
Standard
 70
     0
340
17A
  0
ENDTAB
  0
TABLE
  2
BLOCK_RECORD
  5
1
330
0
100
AcDbSymbolTable
 70
    15
  0
BLOCK_RECORD
  5
2
102
{ACAD_XDICTIONARY
360
3
102
}
330
1
100
AcDbSymbolTableRecord
100
AcDbBlockTableRecord
  2
*Model_Space
340
163
  0
BLOCK_RECORD
  5
169
330
1
100
AcDbSymbolTableRecord
100
AcDbBlockTableRecord
  2
*Paper_Space
340
170
  0
BLOCK_RECORD
  5
75
102
{ACAD_XDICTIONARY
360
76
102
}
330
1
100
AcDbSymbolTableRecord
100
AcDbBlockTableRecord
  2
B-DIM
340
0
102
{BLKREFS
331
74
331
7D
331
8A
331
8B
331
95
331
96
331
A2
331
A3
331
AD
331
AE
331
BA
331
BB
331
C5
331
C6
331
115
331
116
331
120
331
121
331
12B
331
12C
331
138
331
139
331
143
331
144
331
150
331
151
331
15B
331
15C
102
}
  0
BLOCK_RECORD
  5
71
330
1
100
AcDbSymbolTableRecord
100
AcDbBlockTableRecord
  2
*D1
340
0
  0
BLOCK_RECORD
  5
87
330
1
100
AcDbSymbolTableRecord
100
AcDbBlockTableRecord
  2
*D2
340
0
  0
BLOCK_RECORD
  5
92
330
1
100
AcDbSymbolTableRecord
100
AcDbBlockTableRecord
  2
*D3
340
0
  0
BLOCK_RECORD
  5
9D
330
1
100
AcDbSymbolTableRecord
100
AcDbBlockTableRecord
  2
*D4
340
0
  0
BLOCK_RECORD
  5
AA
330
1
100
AcDbSymbolTableRecord
100
AcDbBlockTableRecord
  2
*D5
340
0
  0
BLOCK_RECORD
  5
B5
330
1
100
AcDbSymbolTableRecord
100
AcDbBlockTableRecord
  2
*D6
340
0
  0
BLOCK_RECORD
  5
C2
330
1
100
AcDbSymbolTableRecord
100
AcDbBlockTableRecord
  2
*D7
340
0
  0
BLOCK_RECORD
  5
112
330
1
100
AcDbSymbolTableRecord
100
AcDbBlockTableRecord
  2
*D8
340
0
  0
BLOCK_RECORD
  5
11D
330
1
100
AcDbSymbolTableRecord
100
AcDbBlockTableRecord
  2
*D9
340
0
  0
BLOCK_RECORD
  5
128
330
1
100
AcDbSymbolTableRecord
100
AcDbBlockTableRecord
  2
*D10
340
0
  0
BLOCK_RECORD
  5
133
330
1
100
AcDbSymbolTableRecord
100
AcDbBlockTableRecord
  2
*D11
340
0
  0
BLOCK_RECORD
  5
140
330
1
100
AcDbSymbolTableRecord
100
AcDbBlockTableRecord
  2
*D12
340
0
  0
BLOCK_RECORD
  5
14B
330
1
100
AcDbSymbolTableRecord
100
AcDbBlockTableRecord
  2
*D13
340
0
  0
BLOCK_RECORD
  5
158
330
1
100
AcDbSymbolTableRecord
100
AcDbBlockTableRecord
  2
*D14
340
0
  0
ENDTAB
  0
ENDSEC
  0
SECTION
  2
BLOCKS
  0
BLOCK
  5
5
330
2
100
AcDbEntity
  8
0
100
AcDbBlockBegin
  2
*Model_Space
 70
     0
 10
0.0
 20
0.0
 30
0.0
  3
*Model_Space
  1

  0
ENDBLK
  5
162
330
2
100
AcDbEntity
  8
0
100
AcDbBlockEnd
  0
BLOCK
  5
16A
330
169
100
AcDbEntity
 67
     1
  8
0
100
AcDbBlockBegin
  2
*Paper_Space
 70
     0
 10
0.0
 20
0.0
 30
0.0
  3
*Paper_Space
  1

  0
ENDBLK
  5
16F
330
169
100
AcDbEntity
 67
     1
  8
0
100
AcDbBlockEnd
  0
BLOCK
  5
78
330
75
100
AcDbEntity
  8
0
100
AcDbBlockBegin
  2
B-DIM
 70
     0
 10
0.0
 20
0.0
 30
0.0
  3
B-DIM
  1

  0
LINE
  5
79
330
75
100
AcDbEntity
  8
0
 62
     1
100
AcDbLine
 10
0.000000000000091
 20
-1.1
 30
0.0
 11
0.000000000000091
 21
1.1
 31
0.0
  0
LWPOLYLINE
  5
7A
330
75
100
AcDbEntity
  8
0
 62
     1
100
AcDbPolyline
 90
        2
 70
     0
 43
0.3
 10
-0.7071067811864851
 20
-0.7071067811864851
 10
0.707106781186576
 20
0.707106781186576
  0
LINE
  5
7B
330
75
100
AcDbEntity
  8
0
 62
     1
100
AcDbLine
 10
1.20000000000009
 20
0.0
 30
0.0
 11
-1.199999999999909
 21
0.0
 31
0.0
  0
ENDBLK
  5
7C
330
75
100
AcDbEntity
  8
0
100
AcDbBlockEnd
  0
BLOCK
  5
72
330
71
100
AcDbEntity
  8
0
100
AcDbBlockBegin
  2
*D1
 70
     1
 10
0.0
 20
0.0
 30
0.0
  3
*D1
  1

  0
LINE
  5
73
330
71
100
AcDbEntity
  8
0Wymiary-PL
 62
     1
370
    -2
100
AcDbLine
 10
218223.5036423994
 20
135362.5250247918
 30
0.0
 11
218748.5036423994
 21
135362.5250247918
 31
0.0
  0
INSERT
  5
74
330
71
100
AcDbEntity
  8
0Wymiary-PL
 62
     1
370
    -2
100
AcDbBlockReference
  2
B-DIM
 10
218193.5036423994
 20
135362.5250247918
 30
0.0
 41
30.0
 42
30.0
 43
30.0
 50
180.0
  0
INSERT
  5
7D
330
71
100
AcDbEntity
  8
0Wymiary-PL
 62
     1
370
    -2
100
AcDbBlockReference
  2
B-DIM
 10
218778.5036423994
 20
135362.5250247918
 30
0.0
 41
30.0
 42
30.0
 43
30.0
  0
MTEXT
  5
7E
330
71
100
AcDbEntity
  8
0Wymiary-PL
 62
   140
100
AcDbMText
 10
218486.0036423994
 20
135442.5250247919
 30
0.0
 40
80.0
 41
0.0
 71
     5
 72
     1
  1
\A1;585
  7
ROMANS
 73
     1
 44
1.0
1001
ACAD
1000
MTEXTBEGIN
1070
    73
1070
     1
1070
    44
1040
1.0
1070
    74
1070
     0
1000
MTEXTEND
  0
POINT
  5
80
330
71
100
AcDbEntity
  8
DEFPOINTS
 62
     0
100
AcDbPoint
 10
218193.5036423994
 20
136103.2035836504
 30
0.0
  0
POINT
  5
82
330
71
100
AcDbEntity
  8
DEFPOINTS
 62
     0
100
AcDbPoint
 10
218778.5036423994
 20
135963.2035836504
 30
0.0
  0
POINT
  5
83
330
71
100
AcDbEntity
  8
DEFPOINTS
 62
     0
100
AcDbPoint
 10
218778.5036423994
 20
135362.5250247918
 30
0.0
  0
ENDBLK
  5
84
330
71
100
AcDbEntity
  8
0
100
AcDbBlockEnd
  0
BLOCK
  5
88
330
87
100
AcDbEntity
  8
0
100
AcDbBlockBegin
  2
*D2
 70
     1
 10
0.0
 20
0.0
 30
0.0
  3
*D2
  1

  0
LINE
  5
89
330
87
100
AcDbEntity
  8
0Wymiary-PL
 62
     1
370
    -2
100
AcDbLine
 10
218808.5036423994
 20
135362.5250247918
 30
0.0
 11
219383.5036423994
 21
135362.5250247918
 31
0.0
  0
INSERT
  5
8A
330
87
100
AcDbEntity
  8
0Wymiary-PL
 62
     1
370
    -2
100
AcDbBlockReference
  2
B-DIM
 10
218778.5036423994
 20
135362.5250247918
 30
0.0
 41
30.0
 42
30.0
 43
30.0
 50
180.0
  0
INSERT
  5
8B
330
87
100
AcDbEntity
  8
0Wymiary-PL
 62
     1
370
    -2
100
AcDbBlockReference
  2
B-DIM
 10
219413.5036423994
 20
135362.5250247918
 30
0.0
 41
30.0
 42
30.0
 43
30.0
  0
MTEXT
  5
8C
330
87
100
AcDbEntity
  8
0Wymiary-PL
 62
   140
100
AcDbMText
 10
219096.0036423994
 20
135442.5250247919
 30
0.0
 40
80.0
 41
0.0
 71
     5
 72
     1
  1
\A1;635
  7
ROMANS
 73
     1
 44
1.0
1001
ACAD
1000
MTEXTBEGIN
1070
    73
1070
     1
1070
    44
1040
1.0
1070
    74
1070
     0
1000
MTEXTEND
  0
POINT
  5
8D
330
87
100
AcDbEntity
  8
DEFPOINTS
 62
     0
100
AcDbPoint
 10
218778.5036423994
 20
135963.2035836504
 30
0.0
  0
POINT
  5
8E
330
87
100
AcDbEntity
  8
DEFPOINTS
 62
     0
100
AcDbPoint
 10
219413.5036423994
 20
135963.2035836504
 30
0.0
  0
POINT
  5
8F
330
87
100
AcDbEntity
  8
DEFPOINTS
 62
     0
100
AcDbPoint
 10
219413.5036423994
 20
135362.5250247918
 30
0.0
  0
ENDBLK
  5
90
330
87
100
AcDbEntity
  8
0
100
AcDbBlockEnd
  0
BLOCK
  5
93
330
92
100
AcDbEntity
  8
0
100
AcDbBlockBegin
  2
*D3
 70
     1
 10
0.0
 20
0.0
 30
0.0
  3
*D3
  1

  0
LINE
  5
94
330
92
100
AcDbEntity
  8
0Wymiary-PL
 62
     1
370
    -2
100
AcDbLine
 10
218223.5036423994
 20
135115.8604565253
 30
0.0
 11
219383.5036423994
 21
135115.8604565253
 31
0.0
  0
INSERT
  5
95
330
92
100
AcDbEntity
  8
0Wymiary-PL
 62
     1
370
    -2
100
AcDbBlockReference
  2
B-DIM
 10
218193.5036423994
 20
135115.8604565253
 30
0.0
 41
30.0
 42
30.0
 43
30.0
 50
180.0
  0
INSERT
  5
96
330
92
100
AcDbEntity
  8
0Wymiary-PL
 62
     1
370
    -2
100
AcDbBlockReference
  2
B-DIM
 10
219413.5036423994
 20
135115.8604565253
 30
0.0
 41
30.0
 42
30.0
 43
30.0
  0
MTEXT
  5
97
330
92
100
AcDbEntity
  8
0Wymiary-PL
 62
   140
100
AcDbMText
 10
218803.5036423994
 20
135195.8604565253
 30
0.0
 40
80.0
 41
0.0
 71
     5
 72
     1
  1
\A1;1220
  7
ROMANS
 73
     1
 44
1.0
1001
ACAD
1000
MTEXTBEGIN
1070
    73
1070
     1
1070
    44
1040
1.0
1070
    74
1070
     0
1000
MTEXTEND
  0
POINT
  5
98
330
92
100
AcDbEntity
  8
DEFPOINTS
 62
     0
100
AcDbPoint
 10
218193.5036423994
 20
136103.2035836504
 30
0.0
  0
POINT
  5
99
330
92
100
AcDbEntity
  8
DEFPOINTS
 62
     0
100
AcDbPoint
 10
219413.5036423994
 20
135963.2035836504
 30
0.0
  0
POINT
  5
9A
330
92
100
AcDbEntity
  8
DEFPOINTS
 62
     0
100
AcDbPoint
 10
219413.5036423994
 20
135115.8604565253
 30
0.0
  0
ENDBLK
  5
9B
330
92
100
AcDbEntity
  8
0
100
AcDbBlockEnd
  0
BLOCK
  5
9E
330
9D
100
AcDbEntity
  8
0
100
AcDbBlockBegin
  2
*D4
 70
     1
 10
0.0
 20
0.0
 30
0.0
  3
*D4
  1

  0
LINE
  5
9F
330
9D
100
AcDbEntity
  8
0Wymiary-PL
 62
     1
370
    -2
100
AcDbLine
 10
217573.4997995824
 20
137043.2035836504
 30
0.0
 11
217573.4997995824
 21
137073.2035836504
 31
0.0
  0
LINE
  5
A0
330
9D
100
AcDbEntity
  8
0Wymiary-PL
 62
     1
370
    -2
100
AcDbLine
 10
217573.4997995824
 20
136873.2035836504
 30
0.0
 11
217573.4997995824
 21
136843.2035836504
 31
0.0
  0
LINE
  5
A1
330
9D
100
AcDbEntity
  8
0Wymiary-PL
 62
     1
370
    -2
100
AcDbLine
 10
217573.4997995824
 20
137013.2035836504
 30
0.0
 11
217573.4997995824
 21
136903.2035836504
 31
0.0
  0
INSERT
  5
A2
330
9D
100
AcDbEntity
  8
0Wymiary-PL
 62
     1
370
    -2
100
AcDbBlockReference
  2
B-DIM
 10
217573.4997995824
 20
137013.2035836504
 30
0.0
 41
30.0
 42
30.0
 43
30.0
 50
270.0
  0
INSERT
  5
A3
330
9D
100
AcDbEntity
  8
0Wymiary-PL
 62
     1
370
    -2
100
AcDbBlockReference
  2
B-DIM
 10
217573.4997995824
 20
136903.2035836504
 30
0.0
 41
30.0
 42
30.0
 43
30.0
 50
90.0
  0
MTEXT
  5
A4
330
9D
100
AcDbEntity
  8
0Wymiary-PL
 62
   140
100
AcDbMText
 10
217493.4997995825
 20
136958.2035836504
 30
0.0
 40
80.0
 41
0.0
 71
     5
 72
     1
  1
\A1;110
  7
ROMANS
 11
0.0000000000000001
 21
1.0
 31
0.0
 73
     1
 44
1.0
1001
ACAD
1000
MTEXTBEGIN
1070
    73
1070
     1
1070
    44
1040
1.0
1070
    74
1070
     0
1000
MTEXTEND
  0
POINT
  5
A5
330
9D
100
AcDbEntity
  8
DEFPOINTS
 62
     0
100
AcDbPoint
 10
218477.5036423994
 20
137013.2035836504
 30
0.0
  0
POINT
  5
A6
330
9D
100
AcDbEntity
  8
DEFPOINTS
 62
     0
100
AcDbPoint
 10
218193.5036423994
 20
136903.2035836504
 30
0.0
  0
POINT
  5
A7
330
9D
100
AcDbEntity
  8
DEFPOINTS
 62
     0
100
AcDbPoint
 10
217573.4997995824
 20
136903.2035836504
 30
0.0
  0
ENDBLK
  5
A8
330
9D
100
AcDbEntity
  8
0
100
AcDbBlockEnd
  0
BLOCK
  5
AB
330
AA
100
AcDbEntity
  8
0
100
AcDbBlockBegin
  2
*D5
 70
     1
 10
0.0
 20
0.0
 30
0.0
  3
*D5
  1

  0
LINE
  5
AC
330
AA
100
AcDbEntity
  8
0Wymiary-PL
 62
     1
370
    -2
100
AcDbLine
 10
217573.4997995824
 20
136873.2035836504
 30
0.0
 11
217573.4997995824
 21
136133.2035836504
 31
0.0
  0
INSERT
  5
AD
330
AA
100
AcDbEntity
  8
0Wymiary-PL
 62
     1
370
    -2
100
AcDbBlockReference
  2
B-DIM
 10
217573.4997995824
 20
136903.2035836504
 30
0.0
 41
30.0
 42
30.0
 43
30.0
 50
90.0
  0
INSERT
  5
AE
330
AA
100
AcDbEntity
  8
0Wymiary-PL
 62
     1
370
    -2
100
AcDbBlockReference
  2
B-DIM
 10
217573.4997995824
 20
136103.2035836504
 30
0.0
 41
30.0
 42
30.0
 43
30.0
 50
270.0
  0
MTEXT
  5
AF
330
AA
100
AcDbEntity
  8
0Wymiary-PL
 62
   140
100
AcDbMText
 10
217493.4997995825
 20
136503.2035836504
 30
0.0
 40
80.0
 41
0.0
 71
     5
 72
     1
  1
\A1;800
  7
ROMANS
 11
0.0000000000000001
 21
1.0
 31
0.0
 73
     1
 44
1.0
1001
ACAD
1000
MTEXTBEGIN
1070
    73
1070
     1
1070
    44
1040
1.0
1070
    74
1070
     0
1000
MTEXTEND
  0
POINT
  5
B0
330
AA
100
AcDbEntity
  8
DEFPOINTS
 62
     0
100
AcDbPoint
 10
218193.5036423994
 20
136903.2035836504
 30
0.0
  0
POINT
  5
B1
330
AA
100
AcDbEntity
  8
DEFPOINTS
 62
     0
100
AcDbPoint
 10
218193.5036423994
 20
136103.2035836504
 30
0.0
  0
POINT
  5
B2
330
AA
100
AcDbEntity
  8
DEFPOINTS
 62
     0
100
AcDbPoint
 10
217573.4997995824
 20
136103.2035836504
 30
0.0
  0
ENDBLK
  5
B3
330
AA
100
AcDbEntity
  8
0
100
AcDbBlockEnd
  0
BLOCK
  5
B6
330
B5
100
AcDbEntity
  8
0
100
AcDbBlockBegin
  2
*D6
 70
     1
 10
0.0
 20
0.0
 30
0.0
  3
*D6
  1

  0
LINE
  5
B7
330
B5
100
AcDbEntity
  8
0Wymiary-PL
 62
     1
370
    -2
100
AcDbLine
 10
217573.4997995824
 20
136133.2035836504
 30
0.0
 11
217573.4997995824
 21
136163.2035836504
 31
0.0
  0
LINE
  5
B8
330
B5
100
AcDbEntity
  8
0Wymiary-PL
 62
     1
370
    -2
100
AcDbLine
 10
217573.4997995824
 20
135933.2035836504
 30
0.0
 11
217573.4997995824
 21
135903.2035836504
 31
0.0
  0
LINE
  5
B9
330
B5
100
AcDbEntity
  8
0Wymiary-PL
 62
     1
370
    -2
100
AcDbLine
 10
217573.4997995824
 20
136103.2035836504
 30
0.0
 11
217573.4997995824
 21
135963.2035836504
 31
0.0
  0
INSERT
  5
BA
330
B5
100
AcDbEntity
  8
0Wymiary-PL
 62
     1
370
    -2
100
AcDbBlockReference
  2
B-DIM
 10
217573.4997995824
 20
136103.2035836504
 30
0.0
 41
30.0
 42
30.0
 43
30.0
 50
270.0
  0
INSERT
  5
BB
330
B5
100
AcDbEntity
  8
0Wymiary-PL
 62
     1
370
    -2
100
AcDbBlockReference
  2
B-DIM
 10
217573.4997995824
 20
135963.2035836504
 30
0.0
 41
30.0
 42
30.0
 43
30.0
 50
90.0
  0
MTEXT
  5
BC
330
B5
100
AcDbEntity
  8
0Wymiary-PL
 62
   140
100
AcDbMText
 10
217493.4997995825
 20
136033.2035836505
 30
0.0
 40
80.0
 41
0.0
 71
     5
 72
     1
  1
\A1;140
  7
ROMANS
 11
0.0000000000000001
 21
1.0
 31
0.0
 73
     1
 44
1.0
1001
ACAD
1000
MTEXTBEGIN
1070
    73
1070
     1
1070
    44
1040
1.0
1070
    74
1070
     0
1000
MTEXTEND
  0
POINT
  5
BD
330
B5
100
AcDbEntity
  8
DEFPOINTS
 62
     0
100
AcDbPoint
 10
218193.5036423994
 20
136103.2035836504
 30
0.0
  0
POINT
  5
BE
330
B5
100
AcDbEntity
  8
DEFPOINTS
 62
     0
100
AcDbPoint
 10
218778.5036423994
 20
135963.2035836504
 30
0.0
  0
POINT
  5
BF
330
B5
100
AcDbEntity
  8
DEFPOINTS
 62
     0
100
AcDbPoint
 10
217573.4997995824
 20
135963.2035836504
 30
0.0
  0
ENDBLK
  5
C0
330
B5
100
AcDbEntity
  8
0
100
AcDbBlockEnd
  0
BLOCK
  5
C3
330
C2
100
AcDbEntity
  8
0
100
AcDbBlockBegin
  2
*D7
 70
     1
 10
0.0
 20
0.0
 30
0.0
  3
*D7
  1

  0
LINE
  5
C4
330
C2
100
AcDbEntity
  8
0Wymiary-PL
 62
     1
370
    -2
100
AcDbLine
 10
217310.4013909091
 20
136983.2035836504
 30
0.0
 11
217310.4013909091
 21
135993.2035836504
 31
0.0
  0
INSERT
  5
C5
330
C2
100
AcDbEntity
  8
0Wymiary-PL
 62
     1
370
    -2
100
AcDbBlockReference
  2
B-DIM
 10
217310.4013909091
 20
137013.2035836504
 30
0.0
 41
30.0
 42
30.0
 43
30.0
 50
90.0
  0
INSERT
  5
C6
330
C2
100
AcDbEntity
  8
0Wymiary-PL
 62
     1
370
    -2
100
AcDbBlockReference
  2
B-DIM
 10
217310.4013909091
 20
135963.2035836504
 30
0.0
 41
30.0
 42
30.0
 43
30.0
 50
270.0
  0
MTEXT
  5
C7
330
C2
100
AcDbEntity
  8
0Wymiary-PL
 62
   140
100
AcDbMText
 10
217230.401390909
 20
136488.2035836505
 30
0.0
 40
80.0
 41
0.0
 71
     5
 72
     1
  1
\A1;1050
  7
ROMANS
 11
0.0000000000000001
 21
1.0
 31
0.0
 73
     1
 44
1.0
1001
ACAD
1000
MTEXTBEGIN
1070
    73
1070
     1
1070
    44
1040
1.0
1070
    74
1070
     0
1000
MTEXTEND
  0
POINT
  5
C8
330
C2
100
AcDbEntity
  8
DEFPOINTS
 62
     0
100
AcDbPoint
 10
218477.5036423994
 20
137013.2035836504
 30
0.0
  0
POINT
  5
C9
330
C2
100
AcDbEntity
  8
DEFPOINTS
 62
     0
100
AcDbPoint
 10
218778.5036423994
 20
135963.2035836504
 30
0.0
  0
POINT
  5
CA
330
C2
100
AcDbEntity
  8
DEFPOINTS
 62
     0
100
AcDbPoint
 10
217310.4013909091
 20
135963.2035836504
 30
0.0
  0
ENDBLK
  5
CB
330
C2
100
AcDbEntity
  8
0
100
AcDbBlockEnd
  0
BLOCK
  5
113
330
112
100
AcDbEntity
  8
0
100
AcDbBlockBegin
  2
*D8
 70
     1
 10
0.0
 20
0.0
 30
0.0
  3
*D8
  1

  0
LINE
  5
114
330
112
100
AcDbEntity
  8
0Wymiary-PL
 62
     1
370
    -2
100
AcDbLine
 10
222576.2748473457
 20
135362.5250247919
 30
0.0
 11
222051.2748473457
 21
135362.5250247919
 31
0.0
  0
INSERT
  5
115
330
112
100
AcDbEntity
  8
0Wymiary-PL
 62
     1
370
    -2
100
AcDbBlockReference
  2
B-DIM
 10
222606.2748473458
 20
135362.5250247919
 30
0.0
 41
30.0
 42
30.0
 43
30.0
 50
0.0000000000011191
  0
INSERT
  5
116
330
112
100
AcDbEntity
  8
0Wymiary-PL
 62
     1
370
    -2
100
AcDbBlockReference
  2
B-DIM
 10
222021.2748473457
 20
135362.5250247919
 30
0.0
 41
30.0
 42
30.0
 43
30.0
 50
180.0000000000011
  0
MTEXT
  5
117
330
112
100
AcDbEntity
  8
0Wymiary-PL
 62
   140
100
AcDbMText
 10
222313.7748473457
 20
135442.5250247919
 30
0.0
 40
80.0
 41
0.0
 71
     5
 72
     1
  1
\A1;585
  7
ROMANS
 73
     1
 44
1.0
1001
ACAD
1000
MTEXTBEGIN
1070
    73
1070
     1
1070
    44
1040
1.0
1070
    74
1070
     0
1000
MTEXTEND
  0
POINT
  5
118
330
112
100
AcDbEntity
  8
DEFPOINTS
 62
     0
100
AcDbPoint
 10
222606.2748473458
 20
136103.2035836504
 30
0.0
  0
POINT
  5
119
330
112
100
AcDbEntity
  8
DEFPOINTS
 62
     0
100
AcDbPoint
 10
222021.2748473457
 20
135963.2035836504
 30
0.0
  0
POINT
  5
11A
330
112
100
AcDbEntity
  8
DEFPOINTS
 62
     0
100
AcDbPoint
 10
222021.2748473457
 20
135362.5250247919
 30
0.0
  0
ENDBLK
  5
11B
330
112
100
AcDbEntity
  8
0
100
AcDbBlockEnd
  0
BLOCK
  5
11E
330
11D
100
AcDbEntity
  8
0
100
AcDbBlockBegin
  2
*D9
 70
     1
 10
0.0
 20
0.0
 30
0.0
  3
*D9
  1

  0
LINE
  5
11F
330
11D
100
AcDbEntity
  8
0Wymiary-PL
 62
     1
370
    -2
100
AcDbLine
 10
221991.2748473457
 20
135362.5250247918
 30
0.0
 11
221416.2748473457
 21
135362.5250247918
 31
0.0
  0
INSERT
  5
120
330
11D
100
AcDbEntity
  8
0Wymiary-PL
 62
     1
370
    -2
100
AcDbBlockReference
  2
B-DIM
 10
222021.2748473457
 20
135362.5250247918
 30
0.0
 41
30.0
 42
30.0
 43
30.0
 50
0.0000000000011191
  0
INSERT
  5
121
330
11D
100
AcDbEntity
  8
0Wymiary-PL
 62
     1
370
    -2
100
AcDbBlockReference
  2
B-DIM
 10
221386.2748473458
 20
135362.5250247918
 30
0.0
 41
30.0
 42
30.0
 43
30.0
 50
180.0000000000011
  0
MTEXT
  5
122
330
11D
100
AcDbEntity
  8
0Wymiary-PL
 62
   140
100
AcDbMText
 10
221703.7748473457
 20
135442.5250247919
 30
0.0
 40
80.0
 41
0.0
 71
     5
 72
     1
  1
\A1;635
  7
ROMANS
 73
     1
 44
1.0
1001
ACAD
1000
MTEXTBEGIN
1070
    73
1070
     1
1070
    44
1040
1.0
1070
    74
1070
     0
1000
MTEXTEND
  0
POINT
  5
123
330
11D
100
AcDbEntity
  8
DEFPOINTS
 62
     0
100
AcDbPoint
 10
222021.2748473457
 20
135963.2035836504
 30
0.0
  0
POINT
  5
124
330
11D
100
AcDbEntity
  8
DEFPOINTS
 62
     0
100
AcDbPoint
 10
221386.2748473458
 20
135963.2035836504
 30
0.0
  0
POINT
  5
125
330
11D
100
AcDbEntity
  8
DEFPOINTS
 62
     0
100
AcDbPoint
 10
221386.2748473458
 20
135362.5250247918
 30
0.0
  0
ENDBLK
  5
126
330
11D
100
AcDbEntity
  8
0
100
AcDbBlockEnd
  0
BLOCK
  5
129
330
128
100
AcDbEntity
  8
0
100
AcDbBlockBegin
  2
*D10
 70
     1
 10
0.0
 20
0.0
 30
0.0
  3
*D10
  1

  0
LINE
  5
12A
330
128
100
AcDbEntity
  8
0Wymiary-PL
 62
     1
370
    -2
100
AcDbLine
 10
222576.2748473457
 20
135115.8604565253
 30
0.0
 11
221416.2748473457
 21
135115.8604565253
 31
0.0
  0
INSERT
  5
12B
330
128
100
AcDbEntity
  8
0Wymiary-PL
 62
     1
370
    -2
100
AcDbBlockReference
  2
B-DIM
 10
222606.2748473458
 20
135115.8604565253
 30
0.0
 41
30.0
 42
30.0
 43
30.0
 50
0.0000000000011191
  0
INSERT
  5
12C
330
128
100
AcDbEntity
  8
0Wymiary-PL
 62
     1
370
    -2
100
AcDbBlockReference
  2
B-DIM
 10
221386.2748473458
 20
135115.8604565253
 30
0.0
 41
30.0
 42
30.0
 43
30.0
 50
180.0000000000011
  0
MTEXT
  5
12D
330
128
100
AcDbEntity
  8
0Wymiary-PL
 62
   140
100
AcDbMText
 10
221996.2748473458
 20
135195.8604565253
 30
0.0
 40
80.0
 41
0.0
 71
     5
 72
     1
  1
\A1;1220
  7
ROMANS
 73
     1
 44
1.0
1001
ACAD
1000
MTEXTBEGIN
1070
    73
1070
     1
1070
    44
1040
1.0
1070
    74
1070
     0
1000
MTEXTEND
  0
POINT
  5
12E
330
128
100
AcDbEntity
  8
DEFPOINTS
 62
     0
100
AcDbPoint
 10
222606.2748473458
 20
136103.2035836504
 30
0.0
  0
POINT
  5
12F
330
128
100
AcDbEntity
  8
DEFPOINTS
 62
     0
100
AcDbPoint
 10
221386.2748473458
 20
135963.2035836504
 30
0.0
  0
POINT
  5
130
330
128
100
AcDbEntity
  8
DEFPOINTS
 62
     0
100
AcDbPoint
 10
221386.2748473458
 20
135115.8604565253
 30
0.0
  0
ENDBLK
  5
131
330
128
100
AcDbEntity
  8
0
100
AcDbBlockEnd
  0
BLOCK
  5
134
330
133
100
AcDbEntity
  8
0
100
AcDbBlockBegin
  2
*D11
 70
     1
 10
0.0
 20
0.0
 30
0.0
  3
*D11
  1

  0
LINE
  5
135
330
133
100
AcDbEntity
  8
0Wymiary-PL
 62
     1
370
    -2
100
AcDbLine
 10
223226.2786901626
 20
137043.2035836504
 30
0.0
 11
223226.2786901626
 21
137073.2035836504
 31
0.0
  0
LINE
  5
136
330
133
100
AcDbEntity
  8
0Wymiary-PL
 62
     1
370
    -2
100
AcDbLine
 10
223226.2786901626
 20
136873.2035836504
 30
0.0
 11
223226.2786901626
 21
136843.2035836504
 31
0.0
  0
LINE
  5
137
330
133
100
AcDbEntity
  8
0Wymiary-PL
 62
     1
370
    -2
100
AcDbLine
 10
223226.2786901626
 20
137013.2035836504
 30
0.0
 11
223226.2786901626
 21
136903.2035836504
 31
0.0
  0
INSERT
  5
138
330
133
100
AcDbEntity
  8
0Wymiary-PL
 62
     1
370
    -2
100
AcDbBlockReference
  2
B-DIM
 10
223226.2786901626
 20
137013.2035836504
 30
0.0
 41
30.0
 42
30.0
 43
30.0
 50
270.0
  0
INSERT
  5
139
330
133
100
AcDbEntity
  8
0Wymiary-PL
 62
     1
370
    -2
100
AcDbBlockReference
  2
B-DIM
 10
223226.2786901626
 20
136903.2035836504
 30
0.0
 41
30.0
 42
30.0
 43
30.0
 50
90.0
  0
MTEXT
  5
13A
330
133
100
AcDbEntity
  8
0Wymiary-PL
 62
   140
100
AcDbMText
 10
223146.2786901626
 20
136958.2035836505
 30
0.0
 40
80.0
 41
0.0
 71
     5
 72
     1
  1
\A1;110
  7
ROMANS
 11
0.0000000000000001
 21
1.0
 31
0.0
 73
     1
 44
1.0
1001
ACAD
1000
MTEXTBEGIN
1070
    73
1070
     1
1070
    44
1040
1.0
1070
    74
1070
     0
1000
MTEXTEND
  0
POINT
  5
13B
330
133
100
AcDbEntity
  8
DEFPOINTS
 62
     0
100
AcDbPoint
 10
222322.2748473457
 20
137013.2035836504
 30
0.0
  0
POINT
  5
13C
330
133
100
AcDbEntity
  8
DEFPOINTS
 62
     0
100
AcDbPoint
 10
222606.2748473457
 20
136903.2035836504
 30
0.0
  0
POINT
  5
13D
330
133
100
AcDbEntity
  8
DEFPOINTS
 62
     0
100
AcDbPoint
 10
223226.2786901626
 20
136903.2035836504
 30
0.0
  0
ENDBLK
  5
13E
330
133
100
AcDbEntity
  8
0
100
AcDbBlockEnd
  0
BLOCK
  5
141
330
140
100
AcDbEntity
  8
0
100
AcDbBlockBegin
  2
*D12
 70
     1
 10
0.0
 20
0.0
 30
0.0
  3
*D12
  1

  0
LINE
  5
142
330
140
100
AcDbEntity
  8
0Wymiary-PL
 62
     1
370
    -2
100
AcDbLine
 10
223226.2786901626
 20
136873.2035836504
 30
0.0
 11
223226.2786901626
 21
136133.2035836504
 31
0.0
  0
INSERT
  5
143
330
140
100
AcDbEntity
  8
0Wymiary-PL
 62
     1
370
    -2
100
AcDbBlockReference
  2
B-DIM
 10
223226.2786901626
 20
136903.2035836504
 30
0.0
 41
30.0
 42
30.0
 43
30.0
 50
90.0
  0
INSERT
  5
144
330
140
100
AcDbEntity
  8
0Wymiary-PL
 62
     1
370
    -2
100
AcDbBlockReference
  2
B-DIM
 10
223226.2786901626
 20
136103.2035836504
 30
0.0
 41
30.0
 42
30.0
 43
30.0
 50
270.0
  0
MTEXT
  5
145
330
140
100
AcDbEntity
  8
0Wymiary-PL
 62
   140
100
AcDbMText
 10
223146.2786901627
 20
136503.2035836505
 30
0.0
 40
80.0
 41
0.0
 71
     5
 72
     1
  1
\A1;800
  7
ROMANS
 11
0.0000000000000001
 21
1.0
 31
0.0
 73
     1
 44
1.0
1001
ACAD
1000
MTEXTBEGIN
1070
    73
1070
     1
1070
    44
1040
1.0
1070
    74
1070
     0
1000
MTEXTEND
  0
POINT
  5
146
330
140
100
AcDbEntity
  8
DEFPOINTS
 62
     0
100
AcDbPoint
 10
222606.2748473457
 20
136903.2035836504
 30
0.0
  0
POINT
  5
147
330
140
100
AcDbEntity
  8
DEFPOINTS
 62
     0
100
AcDbPoint
 10
222606.2748473458
 20
136103.2035836504
 30
0.0
  0
POINT
  5
148
330
140
100
AcDbEntity
  8
DEFPOINTS
 62
     0
100
AcDbPoint
 10
223226.2786901626
 20
136103.2035836504
 30
0.0
  0
ENDBLK
  5
149
330
140
100
AcDbEntity
  8
0
100
AcDbBlockEnd
  0
BLOCK
  5
14C
330
14B
100
AcDbEntity
  8
0
100
AcDbBlockBegin
  2
*D13
 70
     1
 10
0.0
 20
0.0
 30
0.0
  3
*D13
  1

  0
LINE
  5
14D
330
14B
100
AcDbEntity
  8
0Wymiary-PL
 62
     1
370
    -2
100
AcDbLine
 10
223226.2786901626
 20
136133.2035836504
 30
0.0
 11
223226.2786901626
 21
136163.2035836504
 31
0.0
  0
LINE
  5
14E
330
14B
100
AcDbEntity
  8
0Wymiary-PL
 62
     1
370
    -2
100
AcDbLine
 10
223226.2786901626
 20
135933.2035836504
 30
0.0
 11
223226.2786901626
 21
135903.2035836504
 31
0.0
  0
LINE
  5
14F
330
14B
100
AcDbEntity
  8
0Wymiary-PL
 62
     1
370
    -2
100
AcDbLine
 10
223226.2786901626
 20
136103.2035836504
 30
0.0
 11
223226.2786901626
 21
135963.2035836504
 31
0.0
  0
INSERT
  5
150
330
14B
100
AcDbEntity
  8
0Wymiary-PL
 62
     1
370
    -2
100
AcDbBlockReference
  2
B-DIM
 10
223226.2786901626
 20
136103.2035836504
 30
0.0
 41
30.0
 42
30.0
 43
30.0
 50
270.0
  0
INSERT
  5
151
330
14B
100
AcDbEntity
  8
0Wymiary-PL
 62
     1
370
    -2
100
AcDbBlockReference
  2
B-DIM
 10
223226.2786901626
 20
135963.2035836504
 30
0.0
 41
30.0
 42
30.0
 43
30.0
 50
90.0
  0
MTEXT
  5
152
330
14B
100
AcDbEntity
  8
0Wymiary-PL
 62
   140
100
AcDbMText
 10
223146.2786901627
 20
136033.2035836505
 30
0.0
 40
80.0
 41
0.0
 71
     5
 72
     1
  1
\A1;140
  7
ROMANS
 11
0.0000000000000001
 21
1.0
 31
0.0
 73
     1
 44
1.0
1001
ACAD
1000
MTEXTBEGIN
1070
    73
1070
     1
1070
    44
1040
1.0
1070
    74
1070
     0
1000
MTEXTEND
  0
POINT
  5
153
330
14B
100
AcDbEntity
  8
DEFPOINTS
 62
     0
100
AcDbPoint
 10
222606.2748473458
 20
136103.2035836504
 30
0.0
  0
POINT
  5
154
330
14B
100
AcDbEntity
  8
DEFPOINTS
 62
     0
100
AcDbPoint
 10
222021.2748473457
 20
135963.2035836504
 30
0.0
  0
POINT
  5
155
330
14B
100
AcDbEntity
  8
DEFPOINTS
 62
     0
100
AcDbPoint
 10
223226.2786901626
 20
135963.2035836504
 30
0.0
  0
ENDBLK
  5
156
330
14B
100
AcDbEntity
  8
0
100
AcDbBlockEnd
  0
BLOCK
  5
159
330
158
100
AcDbEntity
  8
0
100
AcDbBlockBegin
  2
*D14
 70
     1
 10
0.0
 20
0.0
 30
0.0
  3
*D14
  1

  0
LINE
  5
15A
330
158
100
AcDbEntity
  8
0Wymiary-PL
 62
     1
370
    -2
100
AcDbLine
 10
223489.377098836
 20
136983.2035836504
 30
0.0
 11
223489.377098836
 21
135993.2035836504
 31
0.0
  0
INSERT
  5
15B
330
158
100
AcDbEntity
  8
0Wymiary-PL
 62
     1
370
    -2
100
AcDbBlockReference
  2
B-DIM
 10
223489.377098836
 20
137013.2035836504
 30
0.0
 41
30.0
 42
30.0
 43
30.0
 50
90.0
  0
INSERT
  5
15C
330
158
100
AcDbEntity
  8
0Wymiary-PL
 62
     1
370
    -2
100
AcDbBlockReference
  2
B-DIM
 10
223489.377098836
 20
135963.2035836504
 30
0.0
 41
30.0
 42
30.0
 43
30.0
 50
270.0
  0
MTEXT
  5
15D
330
158
100
AcDbEntity
  8
0Wymiary-PL
 62
   140
100
AcDbMText
 10
223409.377098836
 20
136488.2035836505
 30
0.0
 40
80.0
 41
0.0
 71
     5
 72
     1
  1
\A1;1050
  7
ROMANS
 11
0.0000000000000001
 21
1.0
 31
0.0
 73
     1
 44
1.0
1001
ACAD
1000
MTEXTBEGIN
1070
    73
1070
     1
1070
    44
1040
1.0
1070
    74
1070
     0
1000
MTEXTEND
  0
POINT
  5
15E
330
158
100
AcDbEntity
  8
DEFPOINTS
 62
     0
100
AcDbPoint
 10
222322.2748473457
 20
137013.2035836504
 30
0.0
  0
POINT
  5
15F
330
158
100
AcDbEntity
  8
DEFPOINTS
 62
     0
100
AcDbPoint
 10
222021.2748473457
 20
135963.2035836504
 30
0.0
  0
POINT
  5
160
330
158
100
AcDbEntity
  8
DEFPOINTS
 62
     0
100
AcDbPoint
 10
223489.377098836
 20
135963.2035836504
 30
0.0
  0
ENDBLK
  5
161
330
158
100
AcDbEntity
  8
0
100
AcDbBlockEnd
  0
ENDSEC
  0
SECTION
  2
ENTITIES
  0
LINE
  5
10
330
2
100
AcDbEntity
  8
0Napisy
  6
HIDDEN
 62
     1
 48
8.0
370
     5
100
AcDbLine
 10
220399.8892448725
 20
132297.6012553763
 30
0.0
 11
220399.8892448725
 21
138473.1198157809
 31
0.0
  0
TEXT
  5
15
330
2
100
AcDbEntity
  8
0Napisy-PL
370
     5
100
AcDbText
 10
216666.4297817526
 20
141116.3055269018
 30
0.0
 40
150.0
  1
"DOM W MIODOKWIATACH"
  7
AVA
100
AcDbText
  0
LWPOLYLINE
  5
1B
330
2
100
AcDbEntity
  8
RAMKI-A4
370
     5
100
AcDbPolyline
 90
        4
 70
     1
 43
0.0
 10
215187.2000545948
 20
127657.5157057546
 10
215187.2000545948
 20
141677.5157057546
 10
225387.2000545948
 20
141677.5157057546
 10
225387.2000545948
 20
127657.5157057546
  0
MTEXT
  5
1F
102
{ACAD_XDICTIONARY
360
1F2
102
}
330
2
100
AcDbEntity
  8
0Napisy
100
AcDbMText
 10
216765.396492656
 20
140778.5536523063
 30
0.0
 40
150.0
 41
0.0
 71
     1
 72
     5
  1
{\fArial|b0|i0|c238|p34;MO\U+017BNA WKLEI\U+0106 DO PROJEKTU ZAGOSPODAROWANIA TERENU}
  7
ARIAL
 73
     1
 44
1.0
1001
AcDbBlockRepETag
1070
     1
1071
      383
1005
1F
1001
DCO15
1071
        1
1071
        1
1000
_tabelka_-_inform_i_etykiety_Link1
1004
19000000
1000
_tabelka_Arial151
1001
ACAD
1000
MTEXTBEGIN
1070
    73
1070
     1
1070
    44
1040
1.0
1070
    74
1070
     0
1000
MTEXTEND
  0
MTEXT
  5
23
102
{ACAD_XDICTIONARY
360
1F4
102
}
330
2
100
AcDbEntity
  8
0Napisy
100
AcDbMText
 10
220212.6558968869
 20
132370.0274562156
 30
0.0
 40
100.0
 41
0.0
 71
     1
 72
     5
  1
{\fArial|b0|i0|c238|p34;O\U+015A ODBICIA LUSTRZANEGO}
  7
ARIAL
 11
0.0000000000000001
 21
1.0
 31
0.0
 73
     1
 44
1.0
1001
AcDbBlockRepETag
1070
     1
1071
      383
1005
1F
1001
DCO15
1071
        1
1071
        1
1000
_tabelka_-_inform_i_etykiety_Link1
1004
1B000000
1000
_tabelka_Arial151
1001
ACAD
1000
MTEXTBEGIN
1070
    73
1070
     1
1070
    44
1040
1.0
1070
    74
1070
     0
1000
MTEXTEND
  0
MTEXT
  5
24
330
2
100
AcDbEntity
  8
0Napisy
100
AcDbMText
 10
216789.6764640862
 20
128621.06909775
 30
0.0
 40
100.0
 41
0.0
 71
     1
 72
     5
  1
{\fArial|b0|i0|c238|p34;OBRYS  BUDYNKU}
  7
ARIAL
 73
     1
 44
1.0
1001
AcDbBlockRepETag
1070
     1
1071
      383
1005
1F
1001
DCO15
1071
        1
1071
        1
1000
_tabelka_-_inform_i_etykiety_Link1
1004
1A000000
1000
_tabelka_Arial151
1001
ACAD
1000
MTEXTBEGIN
1070
    73
1070
     1
1070
    44
1040
1.0
1070
    74
1070
     0
1000
MTEXTEND
  0
MTEXT
  5
25
330
2
100
AcDbEntity
  8
0Napisy
100
AcDbMText
 10
216789.6764640862
 20
128371.0690977501
 30
0.0
 40
100.0
 41
0.0
 71
     1
 72
     5
  1
{\fArial|b0|i0|c238|p34;Skala:}
  7
ARIAL
 73
     1
 44
1.0
1001
AcDbBlockRepETag
1070
     1
1071
      383
1005
1F
1001
DCO15
1071
        1
1071
        1
1000
_tabelka_-_inform_i_etykiety_Link1
1004
08000000
1000
_tabelka_Arial151
1001
ACAD
1000
MTEXTBEGIN
1070
    73
1070
     1
1070
    44
1040
1.0
1070
    74
1070
     0
1000
MTEXTEND
  0
TEXT
  5
26
330
2
100
AcDbEntity
  8
0Napisy
100
AcDbText
 10
217457.3675813689
 20
128269.3637771498
 30
0.0
 40
100.0
  1
1:500
  7
ARIAL
100
AcDbText
1001
AcDbBlockRepETag
1070
     1
1071
      383
1005
1F
1001
DCO15
1071
        1
1071
        1
1000
_tabelka_-_inform_i_etykiety_Link1
1004
08000000
1000
_tabelka_Arial151
  0
TEXT
  5
27
330
2
100
AcDbEntity
  8
0Napisy-PL
370
     5
100
AcDbText
 10
216756.461700245
 20
140885.4379804532
 30
0.0
 40
120.0
  1
wersja TERMO
  7
AVA
100
AcDbText
  0
HATCH
  5
28
330
2
100
AcDbEntity
  8
0
 48
4.0
370
     5
100
AcDbHatch
 10
0.0
 20
0.0
 30
0.0
210
0.0
220
0.0
230
1.0
  2
SOLID
 70
     1
 71
     1
 91
        1
 92
        7
 72
     0
 73
     1
 93
        4
 10
218547.5036423994
 20
136014.2035836504
 10
218547.5036423994
 20
135977.2035836504
 10
218584.5036423994
 20
135977.2035836504
 10
218584.5036423994
 20
136014.2035836504
 97
        4
330
2C
330
29
330
2A
330
2B
 75
     0
 76
     1
 47
0.5975234343254698
 98
        1
 10
218567.2710064431
 20
135998.6429233899
1001
ACAD
1010
0.0
1020
0.0
1030
0.0
  0
LINE
  5
29
102
{ACAD_REACTORS
330
28
102
}
330
2
100
AcDbEntity
  8
0
370
     5
100
AcDbLine
 10
218547.5036423994
 20
136014.2035836504
 30
2.0
 11
218547.5036423994
 21
135977.2035836504
 31
2.0
  0
LINE
  5
2A
102
{ACAD_REACTORS
330
28
102
}
330
2
100
AcDbEntity
  8
0
370
     5
100
AcDbLine
 10
218547.5036423994
 20
135977.2035836504
 30
2.0
 11
218584.5036423994
 21
135977.2035836504
 31
2.0
  0
LINE
  5
2B
102
{ACAD_REACTORS
330
28
102
}
330
2
100
AcDbEntity
  8
0
370
     5
100
AcDbLine
 10
218584.5036423994
 20
135977.2035836504
 30
2.0
 11
218584.5036423994
 21
136014.2035836504
 31
2.0
  0
LINE
  5
2C
102
{ACAD_REACTORS
330
28
102
}
330
2
100
AcDbEntity
  8
0
370
     5
100
AcDbLine
 10
218584.5036423994
 20
136014.2035836504
 30
2.0
 11
218547.5036423994
 21
136014.2035836504
 31
2.0
  0
LINE
  5
2D
330
2
100
AcDbEntity
  8
0
370
     5
100
AcDbLine
 10
218479.5036423994
 20
137153.2035836504
 30
-32.0
 11
218479.5036423994
 21
137013.2035836504
 31
-32.0
  0
LINE
  5
2E
330
2
100
AcDbEntity
  8
0
370
     5
100
AcDbLine
 10
218514.5036423994
 20
137013.2035836504
 30
-32.0
 11
218514.5036423994
 21
137153.2035836504
 31
-32.0
  0
LINE
  5
2F
330
2
100
AcDbEntity
  8
0
370
     5
100
AcDbLine
 10
218514.5036423994
 20
137153.2035836504
 30
-47.0
 11
218514.5036423994
 21
137013.2035836504
 31
-47.0
  0
LINE
  5
30
330
2
100
AcDbEntity
  8
0
370
     5
100
AcDbLine
 10
218549.5036423994
 20
137013.2035836504
 30
-47.0
 11
218549.5036423994
 21
137153.2035836504
 31
-47.0
  0
LINE
  5
31
330
2
100
AcDbEntity
  8
0
370
     5
100
AcDbLine
 10
217895.5036423994
 20
137223.2035836504
 30
-47.0
 11
217895.5036423994
 21
137153.2035836504
 31
-47.0
  0
LINE
  5
32
330
2
100
AcDbEntity
  8
0
370
     5
100
AcDbLine
 10
217895.5036423994
 20
137153.2035836504
 30
-47.0
 11
218549.5036423994
 21
137153.2035836504
 31
-47.0
  0
LINE
  5
33
330
2
100
AcDbEntity
  8
0
370
     5
100
AcDbLine
 10
218549.5036423994
 20
137153.2035836504
 30
-47.0
 11
218549.5036423994
 21
137223.2035836504
 31
-47.0
  0
LINE
  5
34
330
2
100
AcDbEntity
  8
0
370
     5
100
AcDbLine
 10
218549.5036423994
 20
137223.2035836504
 30
-47.0
 11
217895.5036423994
 21
137223.2035836504
 31
-47.0
  0
LINE
  5
35
330
2
100
AcDbEntity
  8
0
370
     5
100
AcDbLine
 10
218778.5036423994
 20
135863.2035836504
 30
-32.0
 11
218513.5036423994
 21
135863.2035836504
 31
-32.0
  0
LINE
  5
36
330
2
100
AcDbEntity
  8
0
370
     5
100
AcDbLine
 10
218513.5036423994
 20
135828.2035836504
 30
-32.0
 11
218778.5036423994
 21
135828.2035836504
 31
-32.0
  0
LINE
  5
37
330
2
100
AcDbEntity
  8
0
370
     5
100
AcDbLine
 10
218513.5036423994
 20
135793.2035836504
 30
-47.0
 11
218778.5036423994
 21
135793.2035836504
 31
-47.0
  0
LINE
  5
38
330
2
100
AcDbEntity
  8
0
370
     5
100
AcDbLine
 10
218778.5036423994
 20
135828.2035836504
 30
-47.0
 11
218513.5036423994
 21
135828.2035836504
 31
-47.0
  0
LINE
  5
39
330
2
100
AcDbEntity
  8
0
370
     5
100
AcDbLine
 10
218778.5036423994
 20
135683.2035836504
 30
-47.0
 11
219016.0036423994
 21
135683.2035836504
 31
-47.0
  0
LINE
  5
3A
330
2
100
AcDbEntity
  8
0
370
     5
100
AcDbLine
 10
219016.0036423994
 20
135683.2035836504
 30
-47.0
 11
219016.0036423994
 21
135863.2035836504
 31
-47.0
  0
LINE
  5
3B
330
2
100
AcDbEntity
  8
0
370
     5
100
AcDbLine
 10
219016.0036423994
 20
135863.2035836504
 30
-47.0
 11
218778.5036423994
 21
135863.2035836504
 31
-47.0
  0
LINE
  5
3C
330
2
100
AcDbEntity
  8
0
370
     5
100
AcDbLine
 10
218778.5036423994
 20
135863.2035836504
 30
-47.0
 11
218778.5036423994
 21
135683.2035836504
 31
-47.0
  0
LINE
  5
3D
330
2
100
AcDbEntity
  8
0
370
     5
100
AcDbLine
 10
219411.5036423994
 20
135683.2035836504
 30
-47.0
 11
219016.0036423994
 21
135683.2035836504
 31
-47.0
  0
LINE
  5
3E
330
2
100
AcDbEntity
  8
0
370
     5
100
AcDbLine
 10
219016.0036423994
 20
135683.2035836504
 30
-47.0
 11
219016.0036423994
 21
135863.2035836504
 31
-47.0
  0
LINE
  5
3F
330
2
100
AcDbEntity
  8
0
370
     5
100
AcDbLine
 10
219016.0036423994
 20
135863.2035836504
 30
-47.0
 11
219411.5036423994
 21
135863.2035836504
 31
-47.0
  0
LINE
  5
40
330
2
100
AcDbEntity
  8
0
370
     5
100
AcDbLine
 10
218775.5036423994
 20
135863.2035836504
 30
-47.0
 11
219016.0036423994
 21
135863.2035836504
 31
-47.0
  0
LINE
  5
41
330
2
100
AcDbEntity
  8
0
370
     5
100
AcDbLine
 10
219016.0036423994
 20
135863.2035836504
 30
-47.0
 11
219016.0036423994
 21
135963.2035836504
 31
0.0
  0
LINE
  5
42
330
2
100
AcDbEntity
  8
0
370
     5
100
AcDbLine
 10
218513.5036423994
 20
135863.2035836504
 30
-47.0
 11
218775.5036423994
 21
135863.2035836504
 31
-47.0
  0
LINE
  5
43
330
2
100
AcDbEntity
  8
0
370
     5
100
AcDbLine
 10
218443.5036423994
 20
136105.2035836504
 30
-47.0
 11
218443.5036423994
 21
135793.2035836504
 31
-47.0
  0
LINE
  5
44
330
2
100
AcDbEntity
  8
0
370
     5
100
AcDbLine
 10
218443.5036423994
 20
135793.2035836504
 30
-47.0
 11
218513.5036423994
 21
135793.2035836504
 31
-47.0
  0
LINE
  5
45
330
2
100
AcDbEntity
  8
0
370
     5
100
AcDbLine
 10
218513.5036423994
 20
135793.2035836504
 30
-47.0
 11
218513.5036423994
 21
136105.2035836504
 31
-47.0
  0
LINE
  5
46
330
2
100
AcDbEntity
  8
0
370
     5
100
AcDbLine
 10
219016.0036423994
 20
135863.2035836504
 30
-47.0
 11
219411.5036423994
 21
135863.2035836504
 31
-47.0
  0
LINE
  5
47
330
2
100
AcDbEntity
  8
0
370
     5
100
AcDbLine
 10
219016.0036423994
 20
135963.2035836504
 30
0.0
 11
219016.0036423994
 21
135863.2035836504
 31
-47.0
  0
LINE
  5
48
330
2
100
AcDbEntity
  8
0
370
     5
100
AcDbLine
 10
217930.5036423994
 20
137153.2035836504
 30
-32.0
 11
217965.5036423994
 21
137153.2035836504
 31
-32.0
  0
LINE
  5
49
330
2
100
AcDbEntity
  8
0
370
     5
100
AcDbLine
 10
217930.5036423994
 20
136981.2035836504
 30
-32.0
 11
217930.5036423994
 21
137153.2035836504
 31
-32.0
  0
LINE
  5
4A
330
2
100
AcDbEntity
  8
0
370
     5
100
AcDbLine
 10
217965.5036423994
 20
137153.2035836504
 30
-32.0
 11
217965.5036423994
 21
136981.2035836504
 31
-32.0
  0
LINE
  5
4B
330
2
100
AcDbEntity
  8
0
370
     5
100
AcDbLine
 10
217895.5036423994
 20
137153.2035836504
 30
-47.0
 11
217930.5036423994
 21
137153.2035836504
 31
-47.0
  0
LINE
  5
4C
330
2
100
AcDbEntity
  8
0
370
     5
100
AcDbLine
 10
217895.5036423994
 20
136981.2035836504
 30
-47.0
 11
217895.5036423994
 21
137153.2035836504
 31
-47.0
  0
LINE
  5
4D
330
2
100
AcDbEntity
  8
0
370
     5
100
AcDbLine
 10
217930.5036423994
 20
137153.2035836504
 30
-47.0
 11
217930.5036423994
 21
136981.2035836504
 31
-47.0
  0
LINE
  5
4E
330
2
100
AcDbEntity
  8
0
370
     5
100
AcDbLine
 10
217895.5036423994
 20
136383.2035836504
 30
-47.0
 11
218193.5036423994
 21
136383.2035836504
 31
-47.0
  0
LINE
  5
4F
330
2
100
AcDbEntity
  8
0
370
     5
100
AcDbLine
 10
218193.5036423994
 20
136418.2035836504
 30
-47.0
 11
217895.5036423994
 21
136418.2035836504
 31
-47.0
  0
LINE
  5
50
330
2
100
AcDbEntity
  8
0
370
     5
100
AcDbLine
 10
217895.5036423994
 20
136348.2035836504
 30
-47.0
 11
218193.5036423994
 21
136348.2035836504
 31
-47.0
  0
LINE
  5
51
330
2
100
AcDbEntity
  8
0
370
     5
100
AcDbLine
 10
218193.5036423994
 20
136383.2035836504
 30
-47.0
 11
217895.5036423994
 21
136383.2035836504
 31
-47.0
  0
LINE
  5
52
330
2
100
AcDbEntity
  8
0
370
     5
100
AcDbLine
 10
217845.5036423994
 20
136931.2035836504
 30
-47.0
 11
217845.5036423994
 21
136658.2035836504
 31
-47.0
  0
LINE
  5
53
330
2
100
AcDbEntity
  8
0
370
     5
100
AcDbLine
 10
217895.5036423994
 20
136658.2035836504
 30
-47.0
 11
217895.5036423994
 21
136418.2035836504
 31
-47.0
  0
LINE
  5
54
330
2
100
AcDbEntity
  8
0
370
     5
100
AcDbLine
 10
217895.5036423994
 20
136418.2035836504
 30
-47.0
 11
218193.5036423994
 21
136418.2035836504
 31
-47.0
  0
LINE
  5
55
330
2
100
AcDbEntity
  8
0
370
     5
100
AcDbLine
 10
218479.5036423994
 20
137013.2035836504
 30
-32.21126760563377
 11
218479.5036423994
 21
137153.2035836504
 31
-47.0
  0
LINE
  5
56
330
2
100
AcDbEntity
  8
0
370
     5
100
AcDbLine
 10
218479.5036423994
 20
137153.2035836504
 30
-47.0
 11
217965.5036423994
 21
137153.2035836504
 31
-47.0
  0
LINE
  5
57
330
2
100
AcDbEntity
  8
0
370
     5
100
AcDbLine
 10
217965.5036423994
 20
137153.2035836504
 30
-47.0
 11
217965.5036423994
 21
136931.2035836504
 31
-47.0
  0
LINE
  5
58
330
2
100
AcDbEntity
  8
0
370
     5
100
AcDbLine
 10
217965.5036423994
 20
136981.2035836504
 30
-47.0
 11
217795.5036423994
 21
136981.2035836504
 31
-47.0
  0
LINE
  5
59
330
2
100
AcDbEntity
  8
0
370
     5
100
AcDbLine
 10
217795.5036423994
 20
136981.2035836504
 30
-47.0
 11
217795.5036423994
 21
136348.2035836504
 31
-47.0
  0
LINE
  5
5A
330
2
100
AcDbEntity
  8
0
370
     5
100
AcDbLine
 10
217795.5036423994
 20
136348.2035836504
 30
-47.0
 11
217895.5036423994
 21
136348.2035836504
 31
-47.0
  0
LINE
  5
5B
330
2
100
AcDbEntity
  8
0
370
     5
100
AcDbLine
 10
217895.5036423994
 20
136348.2035836504
 30
-47.0
 11
217895.5036423994
 21
136658.2035836504
 31
-47.0
  0
LINE
  5
5C
330
2
100
AcDbEntity
  8
0
370
     5
100
AcDbLine
 10
217895.5036423994
 20
136658.2035836504
 30
-47.0
 11
217845.5036423994
 21
136658.2035836504
 31
-47.0
  0
LINE
  5
5D
330
2
100
AcDbEntity
  8
0
370
     5
100
AcDbLine
 10
217845.5036423994
 20
136658.2035836504
 30
-47.0
 11
217845.5036423994
 21
136931.2035836504
 31
-47.0
  0
LINE
  5
5E
330
2
100
AcDbEntity
  8
0
370
     5
100
AcDbLine
 10
217845.5036423994
 20
136931.2035836504
 30
-47.0
 11
217965.5036423994
 21
136931.2035836504
 31
-47.0
  0
HATCH
  5
5F
330
2
100
AcDbEntity
  8
0
 48
4.0
370
     5
100
AcDbHatch
 10
0.0
 20
0.0
 30
0.0
210
0.0
220
0.0
230
1.0
  2
SOLID
 70
     1
 71
     0
 91
        2
 92
        7
 72
     0
 73
     1
 93
       20
 10
218957.5035423994
 20
137013.2035836504
 10
218477.5036423994
 20
137013.2035836504
 10
218477.5036423994
 20
136903.2035836504
 10
218193.5036423994
 20
136903.2035836504
 10
218193.5036423994
 20
136103.2035836504
 10
218662.5035923994
 20
136103.2035836504
 10
218662.5035923994
 20
136163.2035836504
 10
218253.5036423994
 20
136163.2035836504
 10
218253.5036423994
 20
136843.2035836504
 10
218537.5036423994
 20
136843.2035836504
 10
218537.5036423994
 20
136953.2035836504
 10
218897.5035423994
 20
136953.2035836504
 10
218897.5035423994
 20
136843.2035836504
 10
219353.5036423994
 20
136843.2035836504
 10
219353.5036423994
 20
136023.2035836504
 10
219334.900717944
 20
136023.2035836504
 10
219334.900717944
 20
135963.2035836504
 10
219413.5036423994
 20
135963.2035836504
 10
219413.5036423994
 20
136903.2035836504
 10
218957.5035423994
 20
136903.2035836504
 97
        0
 92
       22
 72
     0
 73
     1
 93
        8
 10
219086.0036423994
 20
136023.2035836504
 10
218838.5036423994
 20
136023.2035836504
 10
218838.5036423994
 20
136163.2035836504
 10
218762.5035923994
 20
136163.2035836504
 10
218762.5035923994
 20
136103.2035836504
 10
218778.5036423994
 20
136103.2035836504
 10
218778.5036423994
 20
135963.2035836504
 10
219086.0036423994
 20
135963.2035836504
 97
        0
 75
     0
 76
     1
 47
2.891038854052324
 98
        2
 10
218663.3236258831
 20
136972.4592792
 10
218915.011667064
 20
135995.2881473476
1001
ACAD
1010
0.0
1020
0.0
1030
0.0
  0
LWPOLYLINE
  5
60
330
2
100
AcDbEntity
  8
0
 48
4.0
370
     5
100
AcDbPolyline
 90
       10
 70
     1
 43
0.0
 10
218193.5036423994
 20
136903.2035836504
 10
218477.5036423994
 20
136903.2035836504
 10
218477.5036423994
 20
137013.2035836504
 10
218957.5035423994
 20
137013.2035836504
 10
218957.5035423994
 20
136903.2035836504
 10
219413.5036423994
 20
136903.2035836504
 10
219413.5036423994
 20
135963.2035836504
 10
218778.5036423994
 20
135963.2035836504
 10
218778.5036423994
 20
136103.2035836504
 10
218193.5036423994
 20
136103.2035836504
  0
LWPOLYLINE
  5
61
330
2
100
AcDbEntity
  8
0
 48
4.0
370
     5
100
AcDbPolyline
 90
       10
 70
     1
 43
0.0
 10
218253.5036423994
 20
136843.2035836504
 10
218537.5036423994
 20
136843.2035836504
 10
218537.5036423994
 20
136953.2035836504
 10
218897.5035423994
 20
136953.2035836504
 10
218897.5035423994
 20
136843.2035836504
 10
219353.5036423994
 20
136843.2035836504
 10
219353.5036423994
 20
136023.2035836504
 10
218838.5036423994
 20
136023.2035836504
 10
218838.5036423994
 20
136163.2035836504
 10
218253.5036423994
 20
136163.2035836504
  0
LINE
  5
62
330
2
100
AcDbEntity
  8
0
370
     5
100
AcDbLine
 10
219411.5036423994
 20
135863.2035836504
 30
-47.0
 11
219411.5036423994
 21
135683.2035836504
 31
-47.0
  0
LINE
  5
63
330
2
100
AcDbEntity
  8
0
370
     5
100
AcDbLine
 10
219411.5036423994
 20
135863.2035836504
 30
-47.0
 11
219411.5036423994
 21
135963.2035836504
 31
-47.0
  0
LINE
  5
64
330
2
100
AcDbEntity
  8
0
 48
4.0
370
     5
100
AcDbLine
 10
219086.0036423994
 20
135963.2035836504
 30
0.0
 11
219086.0036423994
 21
136023.2035836504
 31
0.0
  0
LINE
  5
65
330
2
100
AcDbEntity
  8
0
 48
4.0
370
     5
100
AcDbLine
 10
219334.900717944
 20
135963.2035836504
 30
0.0
 11
219334.900717944
 21
136023.2035836504
 31
0.0
  0
LINE
  5
66
330
2
100
AcDbEntity
  8
0
 48
4.0
370
     5
100
AcDbLine
 10
218762.5035923994
 20
136103.2035836504
 30
0.0
 11
218762.5035923994
 21
136163.2035836504
 31
0.0
  0
LINE
  5
67
330
2
100
AcDbEntity
  8
0
 48
4.0
370
     5
100
AcDbLine
 10
218662.5035923994
 20
136103.2035836504
 30
0.0
 11
218662.5035923994
 21
136163.2035836504
 31
0.0
  0
HATCH
  5
68
330
2
100
AcDbEntity
  8
0
 48
4.0
370
     5
100
AcDbHatch
 10
0.0
 20
0.0
 30
0.0
210
0.0
220
0.0
230
1.0
  2
SOLID
 70
     1
 71
     1
 91
        1
 92
        7
 72
     0
 73
     1
 93
        4
 10
218193.5036423994
 20
137004.2035836504
 10
218193.5036423994
 20
136967.2035836504
 10
218230.5036423993
 20
136967.2035836504
 10
218230.5036423994
 20
137004.2035836504
 97
        4
330
6C
330
69
330
6A
330
6B
 75
     0
 76
     1
 47
0.5891435796714575
 98
        1
 10
218217.1082011707
 20
136993.0234344649
1001
ACAD
1010
0.0
1020
0.0
1030
0.0
  0
LINE
  5
69
102
{ACAD_REACTORS
330
68
102
}
330
2
100
AcDbEntity
  8
0
370
     5
100
AcDbLine
 10
218193.5036423994
 20
137004.2035836504
 30
2.0
 11
218193.5036423994
 21
136967.2035836504
 31
2.0
  0
LINE
  5
6A
102
{ACAD_REACTORS
330
68
102
}
330
2
100
AcDbEntity
  8
0
370
     5
100
AcDbLine
 10
218193.5036423994
 20
136967.2035836504
 30
2.0
 11
218230.5036423993
 21
136967.2035836504
 31
2.0
  0
LINE
  5
6B
102
{ACAD_REACTORS
330
68
102
}
330
2
100
AcDbEntity
  8
0
370
     5
100
AcDbLine
 10
218230.5036423993
 20
136967.2035836504
 30
2.0
 11
218230.5036423993
 21
137004.2035836504
 31
2.0
  0
LINE
  5
6C
102
{ACAD_REACTORS
330
68
102
}
330
2
100
AcDbEntity
  8
0
370
     5
100
AcDbLine
 10
218230.5036423993
 20
137004.2035836504
 30
2.0
 11
218193.5036423994
 21
137004.2035836504
 31
2.0
  0
DIMENSION
  5
6D
330
2
100
AcDbEntity
  8
0Wymiary-PL
100
AcDbDimension
  2
*D1
 10
218778.5036423994
 20
135362.5250247918
 30
0.0
 11
218486.0036423994
 21
135442.5250247919
 31
0.0
 71
     5
 42
585.0
  3
500
100
AcDbAlignedDimension
 13
218193.5036423994
 23
136103.2035836504
 33
0.0
 14
218778.5036423994
 24
135963.2035836504
 34
0.0
100
AcDbRotatedDimension
  0
DIMENSION
  5
86
330
2
100
AcDbEntity
  8
0Wymiary-PL
100
AcDbDimension
  2
*D2
 10
219413.5036423994
 20
135362.5250247918
 30
0.0
 11
219096.0036423994
 21
135442.5250247919
 31
0.0
 71
     5
 42
635.0
  3
500
100
AcDbAlignedDimension
 13
218778.5036423994
 23
135963.2035836504
 33
0.0
 14
219413.5036423994
 24
135963.2035836504
 34
0.0
100
AcDbRotatedDimension
  0
DIMENSION
  5
91
330
2
100
AcDbEntity
  8
0Wymiary-PL
100
AcDbDimension
  2
*D3
 10
219413.5036423994
 20
135115.8604565253
 30
0.0
 11
218803.5036423994
 21
135195.8604565253
 31
0.0
 71
     5
 42
1220.0
  3
500
100
AcDbAlignedDimension
 13
218193.5036423994
 23
136103.2035836504
 33
0.0
 14
219413.5036423994
 24
135963.2035836504
 34
0.0
100
AcDbRotatedDimension
  0
DIMENSION
  5
9C
330
2
100
AcDbEntity
  8
0Wymiary-PL
100
AcDbDimension
  2
*D4
 10
217573.4997995824
 20
136903.2035836504
 30
0.0
 11
217493.4997995825
 21
136958.2035836504
 31
0.0
 71
     5
 42
110.0
  3
500
100
AcDbAlignedDimension
 13
218477.5036423994
 23
137013.2035836504
 33
0.0
 14
218193.5036423994
 24
136903.2035836504
 34
0.0
 50
90.0
100
AcDbRotatedDimension
  0
DIMENSION
  5
A9
330
2
100
AcDbEntity
  8
0Wymiary-PL
100
AcDbDimension
  2
*D5
 10
217573.4997995824
 20
136103.2035836504
 30
0.0
 11
217493.4997995825
 21
136503.2035836504
 31
0.0
 71
     5
 42
800.0
  3
500
100
AcDbAlignedDimension
 13
218193.5036423994
 23
136903.2035836504
 33
0.0
 14
218193.5036423994
 24
136103.2035836504
 34
0.0
 50
90.0
100
AcDbRotatedDimension
  0
DIMENSION
  5
B4
330
2
100
AcDbEntity
  8
0Wymiary-PL
100
AcDbDimension
  2
*D6
 10
217573.4997995824
 20
135963.2035836504
 30
0.0
 11
217493.4997995825
 21
136033.2035836505
 31
0.0
 71
     5
 42
140.0
  3
500
100
AcDbAlignedDimension
 13
218193.5036423994
 23
136103.2035836504
 33
0.0
 14
218778.5036423994
 24
135963.2035836504
 34
0.0
 50
90.0
100
AcDbRotatedDimension
  0
DIMENSION
  5
C1
330
2
100
AcDbEntity
  8
0Wymiary-PL
100
AcDbDimension
  2
*D7
 10
217310.4013909091
 20
135963.2035836504
 30
0.0
 11
217230.401390909
 21
136488.2035836505
 31
0.0
 71
     5
 42
1050.0
  3
500
100
AcDbAlignedDimension
 13
218477.5036423994
 23
137013.2035836504
 33
0.0
 14
218778.5036423994
 24
135963.2035836504
 34
0.0
 50
90.0
100
AcDbRotatedDimension
  0
HATCH
  5
CC
330
2
100
AcDbEntity
  8
0
 48
4.0
370
     5
100
AcDbHatch
 10
0.0
 20
0.0
 30
0.0
210
0.0
220
0.0
230
1.0
  2
SOLID
 70
     1
 71
     1
 91
        1
 92
        7
 72
     0
 73
     1
 93
        4
 10
222215.2748473457
 20
136014.2035836504
 10
222215.2748473457
 20
135977.2035836504
 10
222252.2748473457
 20
135977.2035836504
 10
222252.2748473457
 20
136014.2035836504
 97
        4
330
D0
330
CD
330
CE
330
CF
 75
     0
 76
     1
 47
0.5975234343254698
 98
        1
 10
222232.507483302
 20
135998.64292339
1001
ACAD
1010
0.0
1020
0.0
1030
0.0
  0
LINE
  5
CD
102
{ACAD_REACTORS
330
CC
102
}
330
2
100
AcDbEntity
  8
0
370
     5
100
AcDbLine
 10
222252.2748473457
 20
136014.2035836504
 30
2.0
 11
222252.2748473457
 21
135977.2035836504
 31
2.0
  0
LINE
  5
CE
102
{ACAD_REACTORS
330
CC
102
}
330
2
100
AcDbEntity
  8
0
370
     5
100
AcDbLine
 10
222252.2748473457
 20
135977.2035836504
 30
2.0
 11
222215.2748473457
 21
135977.2035836504
 31
2.0
  0
LINE
  5
CF
102
{ACAD_REACTORS
330
CC
102
}
330
2
100
AcDbEntity
  8
0
370
     5
100
AcDbLine
 10
222215.2748473457
 20
135977.2035836504
 30
2.0
 11
222215.2748473457
 21
136014.2035836504
 31
2.0
  0
LINE
  5
D0
102
{ACAD_REACTORS
330
CC
102
}
330
2
100
AcDbEntity
  8
0
370
     5
100
AcDbLine
 10
222215.2748473457
 20
136014.2035836504
 30
2.0
 11
222252.2748473457
 21
136014.2035836504
 31
2.0
  0
LINE
  5
D1
330
2
100
AcDbEntity
  8
0
370
     5
100
AcDbLine
 10
222320.2748473457
 20
137153.2035836504
 30
-32.0
 11
222320.2748473457
 21
137013.2035836504
 31
-32.0
  0
LINE
  5
D2
330
2
100
AcDbEntity
  8
0
370
     5
100
AcDbLine
 10
222285.2748473457
 20
137013.2035836504
 30
-32.0
 11
222285.2748473457
 21
137153.2035836504
 31
-32.0
  0
LINE
  5
D3
330
2
100
AcDbEntity
  8
0
370
     5
100
AcDbLine
 10
222285.2748473457
 20
137153.2035836504
 30
-47.0
 11
222285.2748473457
 21
137013.2035836504
 31
-47.0
  0
LINE
  5
D4
330
2
100
AcDbEntity
  8
0
370
     5
100
AcDbLine
 10
222250.2748473457
 20
137013.2035836504
 30
-47.0
 11
222250.2748473457
 21
137153.2035836504
 31
-47.0
  0
LINE
  5
D5
330
2
100
AcDbEntity
  8
0
370
     5
100
AcDbLine
 10
222904.2748473457
 20
137223.2035836504
 30
-47.0
 11
222904.2748473457
 21
137153.2035836504
 31
-47.0
  0
LINE
  5
D6
330
2
100
AcDbEntity
  8
0
370
     5
100
AcDbLine
 10
222904.2748473457
 20
137153.2035836504
 30
-47.0
 11
222250.2748473457
 21
137153.2035836504
 31
-47.0
  0
LINE
  5
D7
330
2
100
AcDbEntity
  8
0
370
     5
100
AcDbLine
 10
222250.2748473457
 20
137153.2035836504
 30
-47.0
 11
222250.2748473457
 21
137223.2035836504
 31
-47.0
  0
LINE
  5
D8
330
2
100
AcDbEntity
  8
0
370
     5
100
AcDbLine
 10
222250.2748473457
 20
137223.2035836504
 30
-47.0
 11
222904.2748473457
 21
137223.2035836504
 31
-47.0
  0
LINE
  5
D9
330
2
100
AcDbEntity
  8
0
370
     5
100
AcDbLine
 10
222021.2748473457
 20
135863.2035836504
 30
-32.0
 11
222286.2748473457
 21
135863.2035836504
 31
-32.0
  0
LINE
  5
DA
330
2
100
AcDbEntity
  8
0
370
     5
100
AcDbLine
 10
222286.2748473457
 20
135828.2035836504
 30
-32.0
 11
222021.2748473457
 21
135828.2035836504
 31
-32.0
  0
LINE
  5
DB
330
2
100
AcDbEntity
  8
0
370
     5
100
AcDbLine
 10
222286.2748473457
 20
135793.2035836504
 30
-47.0
 11
222021.2748473457
 21
135793.2035836504
 31
-47.0
  0
LINE
  5
DC
330
2
100
AcDbEntity
  8
0
370
     5
100
AcDbLine
 10
222021.2748473457
 20
135828.2035836504
 30
-47.0
 11
222286.2748473457
 21
135828.2035836504
 31
-47.0
  0
LINE
  5
DD
330
2
100
AcDbEntity
  8
0
370
     5
100
AcDbLine
 10
222021.2748473457
 20
135683.2035836504
 30
-47.0
 11
221783.7748473457
 21
135683.2035836504
 31
-47.0
  0
LINE
  5
DE
330
2
100
AcDbEntity
  8
0
370
     5
100
AcDbLine
 10
221783.7748473457
 20
135683.2035836504
 30
-47.0
 11
221783.7748473457
 21
135863.2035836504
 31
-47.0
  0
LINE
  5
DF
330
2
100
AcDbEntity
  8
0
370
     5
100
AcDbLine
 10
221783.7748473457
 20
135863.2035836504
 30
-47.0
 11
222021.2748473457
 21
135863.2035836504
 31
-47.0
  0
LINE
  5
E0
330
2
100
AcDbEntity
  8
0
370
     5
100
AcDbLine
 10
222021.2748473457
 20
135863.2035836504
 30
-47.0
 11
222021.2748473457
 21
135683.2035836504
 31
-47.0
  0
LINE
  5
E1
330
2
100
AcDbEntity
  8
0
370
     5
100
AcDbLine
 10
221388.2748473457
 20
135683.2035836504
 30
-47.0
 11
221783.7748473457
 21
135683.2035836504
 31
-47.0
  0
LINE
  5
E2
330
2
100
AcDbEntity
  8
0
370
     5
100
AcDbLine
 10
221783.7748473457
 20
135683.2035836504
 30
-47.0
 11
221783.7748473457
 21
135863.2035836504
 31
-47.0
  0
LINE
  5
E3
330
2
100
AcDbEntity
  8
0
370
     5
100
AcDbLine
 10
221783.7748473457
 20
135863.2035836504
 30
-47.0
 11
221388.2748473457
 21
135863.2035836504
 31
-47.0
  0
LINE
  5
E4
330
2
100
AcDbEntity
  8
0
370
     5
100
AcDbLine
 10
222024.2748473458
 20
135863.2035836504
 30
-47.0
 11
221783.7748473457
 21
135863.2035836504
 31
-47.0
  0
LINE
  5
E5
330
2
100
AcDbEntity
  8
0
370
     5
100
AcDbLine
 10
221783.7748473457
 20
135863.2035836504
 30
-47.0
 11
221783.7748473457
 21
135963.2035836504
 31
0.0
  0
LINE
  5
E6
330
2
100
AcDbEntity
  8
0
370
     5
100
AcDbLine
 10
222286.2748473457
 20
135863.2035836504
 30
-47.0
 11
222024.2748473458
 21
135863.2035836504
 31
-47.0
  0
LINE
  5
E7
330
2
100
AcDbEntity
  8
0
370
     5
100
AcDbLine
 10
222356.2748473457
 20
136105.2035836504
 30
-47.0
 11
222356.2748473457
 21
135793.2035836504
 31
-47.0
  0
LINE
  5
E8
330
2
100
AcDbEntity
  8
0
370
     5
100
AcDbLine
 10
222356.2748473457
 20
135793.2035836504
 30
-47.0
 11
222286.2748473457
 21
135793.2035836504
 31
-47.0
  0
LINE
  5
E9
330
2
100
AcDbEntity
  8
0
370
     5
100
AcDbLine
 10
222286.2748473457
 20
135793.2035836504
 30
-47.0
 11
222286.2748473457
 21
136105.2035836504
 31
-47.0
  0
LINE
  5
EA
330
2
100
AcDbEntity
  8
0
370
     5
100
AcDbLine
 10
221783.7748473457
 20
135863.2035836504
 30
-47.0
 11
221388.2748473457
 21
135863.2035836504
 31
-47.0
  0
LINE
  5
EB
330
2
100
AcDbEntity
  8
0
370
     5
100
AcDbLine
 10
221783.7748473457
 20
135963.2035836504
 30
0.0
 11
221783.7748473457
 21
135863.2035836504
 31
-47.0
  0
LINE
  5
EC
330
2
100
AcDbEntity
  8
0
370
     5
100
AcDbLine
 10
222869.2748473457
 20
137153.2035836504
 30
-32.0
 11
222834.2748473457
 21
137153.2035836504
 31
-32.0
  0
LINE
  5
ED
330
2
100
AcDbEntity
  8
0
370
     5
100
AcDbLine
 10
222869.2748473457
 20
136981.2035836504
 30
-32.0
 11
222869.2748473457
 21
137153.2035836504
 31
-32.0
  0
LINE
  5
EE
330
2
100
AcDbEntity
  8
0
370
     5
100
AcDbLine
 10
222834.2748473457
 20
137153.2035836504
 30
-32.0
 11
222834.2748473457
 21
136981.2035836504
 31
-32.0
  0
LINE
  5
EF
330
2
100
AcDbEntity
  8
0
370
     5
100
AcDbLine
 10
222904.2748473457
 20
137153.2035836504
 30
-47.0
 11
222869.2748473457
 21
137153.2035836504
 31
-47.0
  0
LINE
  5
F0
330
2
100
AcDbEntity
  8
0
370
     5
100
AcDbLine
 10
222904.2748473457
 20
136981.2035836504
 30
-47.0
 11
222904.2748473457
 21
137153.2035836504
 31
-47.0
  0
LINE
  5
F1
330
2
100
AcDbEntity
  8
0
370
     5
100
AcDbLine
 10
222869.2748473457
 20
137153.2035836504
 30
-47.0
 11
222869.2748473457
 21
136981.2035836504
 31
-47.0
  0
LINE
  5
F2
330
2
100
AcDbEntity
  8
0
370
     5
100
AcDbLine
 10
222904.2748473457
 20
136383.2035836504
 30
-47.0
 11
222606.2748473457
 21
136383.2035836504
 31
-47.0
  0
LINE
  5
F3
330
2
100
AcDbEntity
  8
0
370
     5
100
AcDbLine
 10
222606.2748473457
 20
136418.2035836504
 30
-47.0
 11
222904.2748473457
 21
136418.2035836504
 31
-47.0
  0
LINE
  5
F4
330
2
100
AcDbEntity
  8
0
370
     5
100
AcDbLine
 10
222904.2748473457
 20
136348.2035836504
 30
-47.0
 11
222606.2748473457
 21
136348.2035836504
 31
-47.0
  0
LINE
  5
F5
330
2
100
AcDbEntity
  8
0
370
     5
100
AcDbLine
 10
222606.2748473457
 20
136383.2035836504
 30
-47.0
 11
222904.2748473457
 21
136383.2035836504
 31
-47.0
  0
LINE
  5
F6
330
2
100
AcDbEntity
  8
0
370
     5
100
AcDbLine
 10
222954.2748473457
 20
136931.2035836504
 30
-47.0
 11
222954.2748473457
 21
136658.2035836505
 31
-47.0
  0
LINE
  5
F7
330
2
100
AcDbEntity
  8
0
370
     5
100
AcDbLine
 10
222904.2748473457
 20
136658.2035836504
 30
-47.0
 11
222904.2748473457
 21
136418.2035836504
 31
-47.0
  0
LINE
  5
F8
330
2
100
AcDbEntity
  8
0
370
     5
100
AcDbLine
 10
222904.2748473457
 20
136418.2035836504
 30
-47.0
 11
222606.2748473457
 21
136418.2035836504
 31
-47.0
  0
LINE
  5
F9
330
2
100
AcDbEntity
  8
0
370
     5
100
AcDbLine
 10
222320.2748473457
 20
137013.2035836504
 30
-32.21126760563377
 11
222320.2748473457
 21
137153.2035836504
 31
-47.0
  0
LINE
  5
FA
330
2
100
AcDbEntity
  8
0
370
     5
100
AcDbLine
 10
222320.2748473457
 20
137153.2035836504
 30
-47.0
 11
222834.2748473457
 21
137153.2035836504
 31
-47.0
  0
LINE
  5
FB
330
2
100
AcDbEntity
  8
0
370
     5
100
AcDbLine
 10
222834.2748473457
 20
137153.2035836504
 30
-47.0
 11
222834.2748473457
 21
136931.2035836504
 31
-47.0
  0
LINE
  5
FC
330
2
100
AcDbEntity
  8
0
370
     5
100
AcDbLine
 10
222834.2748473457
 20
136981.2035836504
 30
-47.0
 11
223004.2748473457
 21
136981.2035836505
 31
-47.0
  0
LINE
  5
FD
330
2
100
AcDbEntity
  8
0
370
     5
100
AcDbLine
 10
223004.2748473457
 20
136981.2035836505
 30
-47.0
 11
223004.2748473457
 21
136348.2035836504
 31
-47.0
  0
LINE
  5
FE
330
2
100
AcDbEntity
  8
0
370
     5
100
AcDbLine
 10
223004.2748473457
 20
136348.2035836504
 30
-47.0
 11
222904.2748473457
 21
136348.2035836504
 31
-47.0
  0
LINE
  5
FF
330
2
100
AcDbEntity
  8
0
370
     5
100
AcDbLine
 10
222904.2748473457
 20
136348.2035836504
 30
-47.0
 11
222904.2748473457
 21
136658.2035836504
 31
-47.0
  0
LINE
  5
100
330
2
100
AcDbEntity
  8
0
370
     5
100
AcDbLine
 10
222904.2748473457
 20
136658.2035836504
 30
-47.0
 11
222954.2748473457
 21
136658.2035836505
 31
-47.0
  0
LINE
  5
101
330
2
100
AcDbEntity
  8
0
370
     5
100
AcDbLine
 10
222954.2748473457
 20
136658.2035836505
 30
-47.0
 11
222954.2748473457
 21
136931.2035836504
 31
-47.0
  0
LINE
  5
102
330
2
100
AcDbEntity
  8
0
370
     5
100
AcDbLine
 10
222954.2748473457
 20
136931.2035836504
 30
-47.0
 11
222834.2748473457
 21
136931.2035836504
 31
-47.0
  0
HATCH
  5
103
330
2
100
AcDbEntity
  8
0
 48
4.0
370
     5
100
AcDbHatch
 10
0.0
 20
0.0
 30
0.0
210
0.0
220
0.0
230
1.0
  2
SOLID
 70
     1
 71
     0
 91
        2
 92
        7
 72
     0
 73
     1
 93
       20
 10
221842.2749473457
 20
137013.2035836504
 10
222322.2748473457
 20
137013.2035836504
 10
222322.2748473457
 20
136903.2035836504
 10
222606.2748473457
 20
136903.2035836504
 10
222606.2748473458
 20
136103.2035836504
 10
222137.2748973458
 20
136103.2035836504
 10
222137.2748973458
 20
136163.2035836504
 10
222546.2748473457
 20
136163.2035836504
 10
222546.2748473457
 20
136843.2035836504
 10
222262.2748473457
 20
136843.2035836504
 10
222262.2748473457
 20
136953.2035836504
 10
221902.2749473457
 20
136953.2035836504
 10
221902.2749473457
 20
136843.2035836504
 10
221446.2748473457
 20
136843.2035836504
 10
221446.2748473458
 20
136023.2035836504
 10
221464.8777718011
 20
136023.2035836504
 10
221464.8777718011
 20
135963.2035836504
 10
221386.2748473458
 20
135963.2035836504
 10
221386.2748473457
 20
136903.2035836504
 10
221842.2749473457
 20
136903.2035836504
 97
        0
 92
       22
 72
     0
 73
     1
 93
        8
 10
221713.7748473458
 20
136023.2035836504
 10
221961.2748473457
 20
136023.2035836504
 10
221961.2748473457
 20
136163.2035836504
 10
222037.2748973457
 20
136163.2035836504
 10
222037.2748973457
 20
136103.2035836504
 10
222021.2748473457
 20
136103.2035836504
 10
222021.2748473457
 20
135963.2035836504
 10
221713.7748473458
 20
135963.2035836504
 97
        0
 75
     0
 76
     1
 47
2.891038854052324
 98
        2
 10
222136.454863862
 20
136972.4592792001
 10
221884.7668226811
 20
135995.2881473476
1001
ACAD
1010
0.0
1020
0.0
1030
0.0
  0
LWPOLYLINE
  5
104
330
2
100
AcDbEntity
  8
0
 48
4.0
370
     5
100
AcDbPolyline
 90
       10
 70
     1
 43
0.0
 10
222606.2748473457
 20
136903.2035836504
 10
222322.2748473457
 20
136903.2035836504
 10
222322.2748473457
 20
137013.2035836504
 10
221842.2749473457
 20
137013.2035836504
 10
221842.2749473457
 20
136903.2035836504
 10
221386.2748473457
 20
136903.2035836504
 10
221386.2748473458
 20
135963.2035836504
 10
222021.2748473457
 20
135963.2035836504
 10
222021.2748473457
 20
136103.2035836504
 10
222606.2748473458
 20
136103.2035836504
  0
LWPOLYLINE
  5
105
330
2
100
AcDbEntity
  8
0
 48
4.0
370
     5
100
AcDbPolyline
 90
       10
 70
     1
 43
0.0
 10
222546.2748473457
 20
136843.2035836504
 10
222262.2748473457
 20
136843.2035836504
 10
222262.2748473457
 20
136953.2035836504
 10
221902.2749473457
 20
136953.2035836504
 10
221902.2749473457
 20
136843.2035836504
 10
221446.2748473457
 20
136843.2035836504
 10
221446.2748473458
 20
136023.2035836504
 10
221961.2748473457
 20
136023.2035836504
 10
221961.2748473457
 20
136163.2035836504
 10
222546.2748473457
 20
136163.2035836504
  0
LINE
  5
106
330
2
100
AcDbEntity
  8
0
370
     5
100
AcDbLine
 10
221388.2748473457
 20
135863.2035836504
 30
-47.0
 11
221388.2748473457
 21
135683.2035836504
 31
-47.0
  0
LINE
  5
107
330
2
100
AcDbEntity
  8
0
370
     5
100
AcDbLine
 10
221388.2748473457
 20
135863.2035836504
 30
-47.0
 11
221388.2748473457
 21
135963.2035836504
 31
-47.0
  0
LINE
  5
108
330
2
100
AcDbEntity
  8
0
 48
4.0
370
     5
100
AcDbLine
 10
221713.7748473458
 20
135963.2035836504
 30
0.0
 11
221713.7748473458
 21
136023.2035836504
 31
0.0
  0
LINE
  5
109
330
2
100
AcDbEntity
  8
0
 48
4.0
370
     5
100
AcDbLine
 10
221464.8777718011
 20
135963.2035836504
 30
0.0
 11
221464.8777718011
 21
136023.2035836504
 31
0.0
  0
LINE
  5
10A
330
2
100
AcDbEntity
  8
0
 48
4.0
370
     5
100
AcDbLine
 10
222037.2748973457
 20
136103.2035836504
 30
0.0
 11
222037.2748973457
 21
136163.2035836504
 31
0.0
  0
LINE
  5
10B
330
2
100
AcDbEntity
  8
0
 48
4.0
370
     5
100
AcDbLine
 10
222137.2748973458
 20
136103.2035836504
 30
0.0
 11
222137.2748973458
 21
136163.2035836504
 31
0.0
  0
HATCH
  5
10C
330
2
100
AcDbEntity
  8
0
 48
4.0
370
     5
100
AcDbHatch
 10
0.0
 20
0.0
 30
0.0
210
0.0
220
0.0
230
1.0
  2
SOLID
 70
     1
 71
     1
 91
        1
 92
        7
 72
     0
 73
     1
 93
        4
 10
222569.2748473457
 20
137004.2035836504
 10
222569.2748473456
 20
136967.2035836504
 10
222606.2748473457
 20
136967.2035836504
 10
222606.2748473457
 20
137004.2035836504
 97
        4
330
110
330
10D
330
10E
330
10F
 75
     0
 76
     1
 47
0.5891435796714575
 98
        1
 10
222582.6702885744
 20
136993.0234344649
1001
ACAD
1010
0.0
1020
0.0
1030
0.0
  0
LINE
  5
10D
102
{ACAD_REACTORS
330
10C
102
}
330
2
100
AcDbEntity
  8
0
370
     5
100
AcDbLine
 10
222606.2748473457
 20
137004.2035836504
 30
2.0
 11
222606.2748473457
 21
136967.2035836504
 31
2.0
  0
LINE
  5
10E
102
{ACAD_REACTORS
330
10C
102
}
330
2
100
AcDbEntity
  8
0
370
     5
100
AcDbLine
 10
222606.2748473457
 20
136967.2035836504
 30
2.0
 11
222569.2748473457
 21
136967.2035836504
 31
2.0
  0
LINE
  5
10F
102
{ACAD_REACTORS
330
10C
102
}
330
2
100
AcDbEntity
  8
0
370
     5
100
AcDbLine
 10
222569.2748473457
 20
136967.2035836504
 30
2.0
 11
222569.2748473457
 21
137004.2035836504
 31
2.0
  0
LINE
  5
110
102
{ACAD_REACTORS
330
10C
102
}
330
2
100
AcDbEntity
  8
0
370
     5
100
AcDbLine
 10
222569.2748473457
 20
137004.2035836504
 30
2.0
 11
222606.2748473457
 21
137004.2035836504
 31
2.0
  0
DIMENSION
  5
111
330
2
100
AcDbEntity
  8
0Wymiary-PL
100
AcDbDimension
  2
*D8
 10
222021.2748473457
 20
135362.5250247919
 30
0.0
 11
222313.7748473457
 21
135442.5250247919
 31
0.0
 71
     5
 42
585.0
  3
500
100
AcDbAlignedDimension
 13
222606.2748473458
 23
136103.2035836504
 33
0.0
 14
222021.2748473457
 24
135963.2035836504
 34
0.0
 50
180.0000000000011
100
AcDbRotatedDimension
  0
DIMENSION
  5
11C
330
2
100
AcDbEntity
  8
0Wymiary-PL
100
AcDbDimension
  2
*D9
 10
221386.2748473458
 20
135362.5250247918
 30
0.0
 11
221703.7748473457
 21
135442.5250247919
 31
0.0
 71
     5
 42
635.0
  3
500
100
AcDbAlignedDimension
 13
222021.2748473457
 23
135963.2035836504
 33
0.0
 14
221386.2748473458
 24
135963.2035836504
 34
0.0
 50
180.0000000000011
100
AcDbRotatedDimension
  0
DIMENSION
  5
127
330
2
100
AcDbEntity
  8
0Wymiary-PL
100
AcDbDimension
  2
*D10
 10
221386.2748473458
 20
135115.8604565253
 30
0.0
 11
221996.2748473458
 21
135195.8604565253
 31
0.0
 71
     5
 42
1220.0
  3
500
100
AcDbAlignedDimension
 13
222606.2748473458
 23
136103.2035836504
 33
0.0
 14
221386.2748473458
 24
135963.2035836504
 34
0.0
 50
180.0000000000011
100
AcDbRotatedDimension
  0
DIMENSION
  5
132
330
2
100
AcDbEntity
  8
0Wymiary-PL
100
AcDbDimension
  2
*D11
 10
223226.2786901626
 20
136903.2035836504
 30
0.0
 11
223146.2786901626
 21
136958.2035836505
 31
0.0
 71
     5
 42
110.0
  3
500
100
AcDbAlignedDimension
 13
222322.2748473457
 23
137013.2035836504
 33
0.0
 14
222606.2748473457
 24
136903.2035836504
 34
0.0
 50
90.0
100
AcDbRotatedDimension
  0
DIMENSION
  5
13F
330
2
100
AcDbEntity
  8
0Wymiary-PL
100
AcDbDimension
  2
*D12
 10
223226.2786901626
 20
136103.2035836504
 30
0.0
 11
223146.2786901627
 21
136503.2035836505
 31
0.0
 71
     5
 42
800.0
  3
500
100
AcDbAlignedDimension
 13
222606.2748473457
 23
136903.2035836504
 33
0.0
 14
222606.2748473458
 24
136103.2035836504
 34
0.0
 50
90.0
100
AcDbRotatedDimension
  0
DIMENSION
  5
14A
330
2
100
AcDbEntity
  8
0Wymiary-PL
100
AcDbDimension
  2
*D13
 10
223226.2786901626
 20
135963.2035836504
 30
0.0
 11
223146.2786901627
 21
136033.2035836505
 31
0.0
 71
     5
 42
140.0
  3
500
100
AcDbAlignedDimension
 13
222606.2748473458
 23
136103.2035836504
 33
0.0
 14
222021.2748473457
 24
135963.2035836504
 34
0.0
 50
90.0
100
AcDbRotatedDimension
  0
DIMENSION
  5
157
330
2
100
AcDbEntity
  8
0Wymiary-PL
100
AcDbDimension
  2
*D14
 10
223489.377098836
 20
135963.2035836504
 30
0.0
 11
223409.377098836
 21
136488.2035836505
 31
0.0
 71
     5
 42
1050.0
  3
500
100
AcDbAlignedDimension
 13
222322.2748473457
 23
137013.2035836504
 33
0.0
 14
222021.2748473457
 24
135963.2035836504
 34
0.0
 50
90.0
100
AcDbRotatedDimension
  0
VIEWPORT
  5
16B
102
{ACAD_XDICTIONARY
360
1F8
102
}
330
169
100
AcDbEntity
 67
     1
  8
0
100
AcDbViewport
 10
5.249999639556165
 20
3.999999883606678
 30
0.0
 40
14.53241403783632
 41
8.992999745766949
 68
     1
 69
     1
 12
5.249999639556165
 22
3.999999883606678
 13
0.0
 23
0.0
 14
10.0
 24
10.0
 15
10.0
 25
10.0
 16
0.0
 26
0.0
 36
1.0
 17
0.0
 27
0.0
 37
0.0
 42
50.0
 43
0.0
 44
0.0
 45
8.992999745766949
 50
0.0
 51
0.0
 72
  1000
 90
   819232
  1

281
     0
 71
     1
 74
     0
110
0.0
120
0.0
130
0.0
111
1.0
121
0.0
131
0.0
112
0.0
122
1.0
132
0.0
 79
     0
146
0.0
  0
VIEWPORT
  5
16E
102
{ACAD_XDICTIONARY
360
1FA
102
}
330
169
100
AcDbEntity
 67
     1
  8
0
100
AcDbViewport
 10
5.249999761581421
 20
3.999999761581421
 30
0.0
 40
8.399999618530275
 41
6.399999618530274
 68
     2
 69
     2
 12
220287.2000545948
 22
134667.5157057546
 13
0.0
 23
0.0
 14
10.0
 24
10.0
 15
10.0
 25
10.0
 16
0.0
 26
0.0
 36
1.0
 17
0.0
 27
0.0
 37
0.0
 42
50.0
 43
0.0
 44
0.0
 45
14170.21428571428
 50
0.0
 51
0.0
 72
  1000
 90
   819232
  1

281
     0
 71
     1
 74
     0
110
0.0
120
0.0
130
0.0
111
1.0
121
0.0
131
0.0
112
0.0
122
1.0
132
0.0
 79
     0
146
0.0
  0
ENDSEC
  0
SECTION
  2
OBJECTS
  0
DICTIONARY
  5
B
330
0
100
AcDbDictionary
281
     1
  3
ACAD_COLOR
350
18C
  3
ACAD_GROUP
350
187
  3
ACAD_LAYOUT
350
164
  3
ACAD_MATERIAL
350
D
  3
ACAD_MLINESTYLE
350
188
  3
ACAD_PLOTSETTINGS
350
189
  3
ACAD_PLOTSTYLENAME
350
A
  3
ACAD_SCALELIST
350
18D
  3
ACAD_TABLESTYLE
350
18E
  3
ACAD_VISUALSTYLE
350
167
  3
ACDB_RECOMPOSE_DATA
350
1EE
  3
AcDbVariableDictionary
350
1E2
  3
CONLABELDictionary
350
1BD
  3
CONLDEFDictionary
350
1AC
  3
DWGPROPS
350
1EF
  0
DICTIONARY
  5
174
330
173
100
AcDbDictionary
280
     1
281
     1
  3
ACAD_LAYERFILTERS
360
175
  3
ACAD_LAYERSTATES
360
176
  3
ACLYDICTIONARY
360
178
  0
DICTIONARY
  5
7
330
6
100
AcDbDictionary
280
     1
281
     1
  3
ADSK_XREC_LAYER_RECONCILED
360
8
  0
DICTIONARY
  5
1D
330
1C
100
AcDbDictionary
280
     1
281
     1
  3
ADSK_XREC_LAYER_RECONCILED
360
1E
  0
DICTIONARY
  5
6F
330
6E
100
AcDbDictionary
280
     1
281
     1
  3
ADSK_XREC_LAYER_RECONCILED
360
70
  0
DICTIONARY
  5
17
330
16
100
AcDbDictionary
280
     1
281
     1
  3
ADSK_XREC_LAYER_RECONCILED
360
18
  0
DICTIONARY
  5
12
330
11
100
AcDbDictionary
280
     1
281
     1
  3
ADSK_XREC_LAYER_RECONCILED
360
13
  0
DICTIONARY
  5
3
330
2
100
AcDbDictionary
280
     1
281
     1
  3
ACAD_SORTENTS
360
1AB
  0
DICTIONARY
  5
76
330
75
100
AcDbDictionary
280
     1
281
     1
  3
ACAD_SORTENTS
360
1AA
  0
DICTIONARY
  5
1F2
330
1F
100
AcDbDictionary
280
     1
281
     1
  3
ACAD_MTEXT_RT
360
1F3
  0
DICTIONARY
  5
1F4
330
23
100
AcDbDictionary
280
     1
281
     1
  3
ACAD_MTEXT_RT
360
1F5
  0
DICTIONARY
  5
1F8
330
16B
100
AcDbDictionary
280
     1
281
     1
  3
ACAD_XREC_ROUNDTRIP
360
1F9
  0
DICTIONARY
  5
1FA
330
16E
100
AcDbDictionary
280
     1
281
     1
  3
ACAD_XREC_ROUNDTRIP
360
1FB
  0
DICTIONARY
  5
18C
102
{ACAD_REACTORS
330
B
102
}
330
B
100
AcDbDictionary
281
     1
  0
DICTIONARY
  5
187
102
{ACAD_REACTORS
330
B
102
}
330
B
100
AcDbDictionary
281
     1
  0
DICTIONARY
  5
164
102
{ACAD_REACTORS
330
B
102
}
330
B
100
AcDbDictionary
281
     1
  3
Layout1
350
170
  3
Model
350
163
  0
DICTIONARY
  5
D
102
{ACAD_REACTORS
330
B
102
}
330
B
100
AcDbDictionary
281
     1
  3
ByBlock
350
18B
  3
ByLayer
350
18A
  3
Global
350
C
  0
DICTIONARY
  5
188
102
{ACAD_REACTORS
330
B
102
}
330
B
100
AcDbDictionary
281
     1
  3
Standard
350
18F
  0
DICTIONARY
  5
189
102
{ACAD_REACTORS
330
B
102
}
330
B
100
AcDbDictionary
281
     1
  0
ACDBDICTIONARYWDFLT
  5
A
102
{ACAD_REACTORS
330
B
102
}
330
B
100
AcDbDictionary
281
     1
  3
Normal
350
9
100
AcDbDictionaryWithDefault
340
9
  0
DICTIONARY
  5
18D
102
{ACAD_REACTORS
330
B
102
}
330
B
100
AcDbDictionary
281
     1
  3
A0
350
194
  3
A1
350
195
  3
A2
350
196
  3
A3
350
197
  3
A4
350
198
  3
A5
350
199
  3
A6
350
19A
  3
A7
350
19B
  3
A8
350
19C
  3
A9
350
19D
  3
B0
350
19E
  3
B1
350
19F
  3
B2
350
1A0
  3
B3
350
1A1
  3
B4
350
1A2
  3
B5
350
1A3
  3
B6
350
1A4
  3
B7
350
1A5
  3
B8
350
1A6
  3
B9
350
1A7
  3
C0
350
1A8
  0
DICTIONARY
  5
18E
102
{ACAD_REACTORS
330
B
102
}
330
B
100
AcDbDictionary
281
     1
  3
Standard
350
190
  0
DICTIONARY
  5
167
102
{ACAD_REACTORS
330
B
102
}
330
B
100
AcDbDictionary
281
     1
  3
2dWireframe
350
166
  3
3dWireframe
350
193
  3
Realistic
350
192
  0
XRECORD
  5
1EE
102
{ACAD_REACTORS
330
B
102
}
330
B
100
AcDbXrecord
280
     1
 90
        1
330
190
  0
DICTIONARY
  5
1E2
102
{ACAD_REACTORS
330
B
102
}
330
B
100
AcDbDictionary
281
     1
  3
CANNOSCALE
350
1E6
  3
CMLEADERSTYLE
350
1E4
  3
CTABLESTYLE
350
1E3
  3
DIMASSOC
350
1EA
  3
HIDETEXT
350
1E9
  3
INDEXCTL
350
1E8
  3
MSLTSCALE
350
1E5
  3
SORTENTS
350
1E7
  0
DICTIONARY
  5
1BD
102
{ACAD_REACTORS
330
B
102
}
330
B
100
AcDbDictionary
281
     1
  3
_el_wzb_Left_nazw_romans16
350
1E1
  3
_elementy_wiezby_SKROT_Romans16
350
1E0
  3
_materialy_przegrod_pl_Label1
350
1DF
  3
_nazwy_przegrod_romans18
350
1DE
  3
_nazwy_rysunkow_Arial37
350
1DD
  3
_nazwy_rysunkow_Romans18
350
1DC
  3
_opisy_rozne_II_Label1
350
1DB
  3
_opisy_rozne_II_Link1Label1
350
1DA
  3
_posadzki_do_zestawienia_pomieszczen_Romans17
350
1D9
  3
_rozne_opisy_rys_R16_right
350
1D8
  3
_rozne_opisy_rys_Romans12
350
1D7
  3
_rozne_opisy_rys_Romans16
350
1D6
  3
_tabelka_-_inform_i_etykiety_Romans13
350
1D5
  3
_tabelka_Arial15-center
350
1D4
  3
_tabelka_Arial151
350
1D3
  3
_tabelka_Romans 10
350
1D2
  3
_tabelka_Romans13
350
1D1
  3
_tabelka_Romans19
350
1D0
  3
ALFABET-Arial20
350
1CF
  3
ALFABET-Arial26
350
1CE
  3
ALFABET-Arial37
350
1CD
  3
Arial_27
350
1CC
  3
jednostki-Arial18
350
1CB
  3
jednostki-Arial30
350
1CA
  3
jednostki-Romans16
350
1C9
  3
miesiace-Romans17
350
1C8
  3
pomieszczenia-Arial 15
350
1C7
  3
pomieszczenia-Romans17
350
1C6
  3
romans16
350
1C5
  3
Romans_17
350
1C4
  3
stolarka-Arial14
350
1C3
  3
stolarka-Romans1607
350
1C2
  3
stolarka-Romans1608
350
1C1
  3
stolarkaLabel1
350
1C0
  3
tbl_PRZEGRODY
350
1BF
  3
uwag_og_na_ark_Arial18
350
1BE
  0
DICTIONARY
  5
1AC
102
{ACAD_REACTORS
330
B
102
}
330
B
100
AcDbDictionary
281
     1
  3
_elementy_wiezby_Link1
350
1BC
  3
_materialy_przegrod_pl_Link1
350
1BB
  3
_nazwy_przegrod_pl_Link1
350
1BA
  3
_nazwy_rysunkow_Arial37
350
1B9
  3
_opisy_rozne_II_Link1
350
1B8
  3
_opisy_rozne_II_Link2
350
1B7
  3
_posadzki_do_zestawienia_pomieszczen_Link1
350
1B6
  3
_rozne_opisy_rys_Link1
350
1B5
  3
_tabelka_-_inform_i_etykiety_Link1
350
1B4
  3
_uwagi_ogolne_na_arkuszu_Link1
350
1B3
  3
ALFABETLink1
350
1B2
  3
jednostkiLink1
350
1B1
  3
miesiaceLink1
350
1B0
  3
pomieszczeniaLink1
350
1AF
  3
stolarkaLink1
350
1AE
  3
tbl_PRZEGRODYLink1
350
1AD
  0
XRECORD
  5
1EF
102
{ACAD_REACTORS
330
B
102
}
330
B
100
AcDbXrecord
280
     1
  1
DWGPROPS COOKIE
  2

  3

  4

  6

  7

  8
aleksandra.kot
  9

300
=
301
=
302
=
303
=
304
=
305
=
306
=
307
=
308
=
309
=
 40
8.951074328703704
 41
2452027.670547454
 42
2456391.450447048
  1

 90
        0
  0
DICTIONARY
  5
175
102
{ACAD_REACTORS
330
174
102
}
330
174
100
AcDbDictionary
281
     1
  0
DICTIONARY
  5
176
102
{ACAD_REACTORS
330
174
102
}
330
174
100
AcDbDictionary
281
     1
1001
AcLayerTools
1000
A
1000
0
  0
DICTIONARY
  5
178
102
{ACAD_REACTORS
330
174
102
}
330
174
100
AcDbDictionary
281
     1
1001
ACAD
1000
<All
  0
XRECORD
  5
8
102
{ACAD_REACTORS
330
7
102
}
330
7
100
AcDbXrecord
280
     1
290
     1
  0
XRECORD
  5
1E
102
{ACAD_REACTORS
330
1D
102
}
330
1D
100
AcDbXrecord
280
     1
290
     1
  0
XRECORD
  5
70
102
{ACAD_REACTORS
330
6F
102
}
330
6F
100
AcDbXrecord
280
     1
290
     1
  0
XRECORD
  5
18
102
{ACAD_REACTORS
330
17
102
}
330
17
100
AcDbXrecord
280
     1
290
     1
  0
XRECORD
  5
13
102
{ACAD_REACTORS
330
12
102
}
330
12
100
AcDbXrecord
280
     1
290
     1
  0
SORTENTSTABLE
  5
1AB
102
{ACAD_REACTORS
330
3
102
}
330
3
100
AcDbSortentsTable
330
2
  0
SORTENTSTABLE
  5
1AA
102
{ACAD_REACTORS
330
76
102
}
330
76
100
AcDbSortentsTable
330
75
  0
XRECORD
  5
1F3
102
{ACAD_REACTORS
330
1F2
102
}
330
1F2
100
AcDbXrecord
280
     1
 40
264312.0
  1
{\fArial|b0|i0|c238|p34;MOŻNA WKLEIĆ DO PROJEKTU ZAGOSPODAROWANIA TERENU}
  0
XRECORD
  5
1F5
102
{ACAD_REACTORS
330
1F4
102
}
330
1F4
100
AcDbXrecord
280
     1
 40
106589.0
  1
{\fArial|b0|i0|c238|p34;OŚ ODBICIA LUSTRZANEGO}
  0
XRECORD
  5
1F9
102
{ACAD_REACTORS
330
1F8
102
}
330
1F8
100
AcDbXrecord
280
     1
102
SHADEPLOT
 70
     0
  0
XRECORD
  5
1FB
102
{ACAD_REACTORS
330
1FA
102
}
330
1FA
100
AcDbXrecord
280
     1
102
SHADEPLOT
 70
     0
  0
LAYOUT
  5
170
102
{ACAD_XDICTIONARY
360
171
102
}
102
{ACAD_REACTORS
330
164
102
}
330
164
100
AcDbPlotSettings
  1

  2
none_device
  4
Letter_(8.50_x_11.00_Inches)
  6

 40
6.349999904632568
 41
6.349999904632568
 42
6.350006103515625
 43
6.350006103515625
 44
215.8999938964844
 45
279.3999938964844
 46
0.0
 47
0.0
 48
0.0
 49
0.0
140
0.0
141
0.0
142
1.0
143
1.0
 70
   688
 72
     0
 73
     1
 74
     5
  7
monochrome_140.ctb
 75
    16
147
1.0
148
0.0
149
0.0
100
AcDbLayout
  1
Layout1
 70
     1
 71
     1
 10
-0.2500002402958907
 20
-0.2499999962453767
 11
10.74999951940822
 21
8.249999763458733
 12
0.0
 22
0.0
 32
0.0
 14
1.049999952316284
 24
0.7999999523162842
 34
0.0
 15
9.449999570846559
 25
7.199999570846558
 35
0.0
146
0.0
 13
0.0
 23
0.0
 33
0.0
 16
1.0
 26
0.0
 36
0.0
 17
0.0
 27
1.0
 37
0.0
 76
     0
330
169
331
16B
1001
ACAD_PSEXT
1000
None
1000
None
1000
Not applicable
1000
The layout will not be plotted unless a new plotter configuration name is selected.
1070
     0
  0
LAYOUT
  5
163
102
{ACAD_XDICTIONARY
360
1F6
102
}
102
{ACAD_REACTORS
330
164
102
}
330
164
100
AcDbPlotSettings
  1

  2
PDFCreator
  4
A4
  6
RODODENDRON 5
 40
3.174999952316284
 41
3.174999952316284
 42
3.175003051757812
 43
3.17498779296875
 44
209.8886566162109
 45
297.0530090332031
 46
-0.230673193931878
 47
5.151510643959028
 48
215187.2000545948
 49
127657.5157057546
140
225387.2000545948
141
141677.5157057546
142
1.0
143
50.0
 70
 11956
 72
     1
 73
     0
 74
     4
  7
monochrome_140.ctb
 75
    25
147
0.02
148
-215187.2000545948
149
-127657.5157057546
100
AcDbLayout
  1
Model
 70
     1
 71
     0
 10
0.0
 20
0.0
 11
12.0
 21
9.0
 12
0.0
 22
0.0
 32
0.0
 14
0.0
 24
0.0
 34
0.0
 15
0.0
 25
0.0
 35
0.0
146
0.0
 13
0.0
 23
0.0
 33
0.0
 16
1.0
 26
0.0
 36
0.0
 17
0.0
 27
1.0
 37
0.0
 76
     0
330
2
331
182
1001
ACAD_PSEXT
1000
PDFCreator
1000
PDFCreator
1000
PDFCreator:
1000
eDoc Printer
1070
     0
  0
MATERIAL
  5
18B
102
{ACAD_XDICTIONARY
360
1FF
102
}
102
{ACAD_REACTORS
330
D
102
}
330
D
100
AcDbMaterial
  1
ByBlock
 73
     1
 78
     1
172
     1
176
     1
270
     1
274
     1
  0
MATERIAL
  5
18A
102
{ACAD_XDICTIONARY
360
1FD
102
}
102
{ACAD_REACTORS
330
D
102
}
330
D
100
AcDbMaterial
  1
ByLayer
 73
     1
 78
     1
172
     1
176
     1
270
     1
274
     1
  0
MATERIAL
  5
C
102
{ACAD_XDICTIONARY
360
1F0
102
}
102
{ACAD_REACTORS
330
D
102
}
330
D
100
AcDbMaterial
  1
Global
 73
     1
 78
     1
172
     1
176
     1
270
     1
274
     1
  0
MLINESTYLE
  5
18F
102
{ACAD_REACTORS
330
188
102
}
330
188
100
AcDbMlineStyle
  2
STANDARD
 70
     0
  3

 62
   256
 51
90.0
 52
90.0
 71
     2
 49
0.5
 62
   256
  6
BYLAYER
 49
-0.5
 62
   256
  6
BYLAYER
  0
ACDBPLACEHOLDER
  5
9
102
{ACAD_REACTORS
330
A
102
}
330
A
  0
SCALE
  5
194
102
{ACAD_REACTORS
330
18D
102
}
330
18D
100
AcDbScale
 70
     0
300
1:1
140
1.0
141
0.1
290
     0
  0
SCALE
  5
195
102
{ACAD_REACTORS
330
18D
102
}
330
18D
100
AcDbScale
 70
     0
300
1:2
140
1.0
141
0.2
290
     0
  0
SCALE
  5
196
102
{ACAD_REACTORS
330
18D
102
}
330
18D
100
AcDbScale
 70
     0
300
1:2.5
140
1.0
141
0.25
290
     0
  0
SCALE
  5
197
102
{ACAD_REACTORS
330
18D
102
}
330
18D
100
AcDbScale
 70
     0
300
1:5
140
1.0
141
0.5
290
     0
  0
SCALE
  5
198
102
{ACAD_REACTORS
330
18D
102
}
330
18D
100
AcDbScale
 70
     0
300
1:7.5
140
1.0
141
0.75
290
     0
  0
SCALE
  5
199
102
{ACAD_REACTORS
330
18D
102
}
330
18D
100
AcDbScale
 70
     0
300
1:10
140
1.0
141
1.0
290
     1
  0
SCALE
  5
19A
102
{ACAD_REACTORS
330
18D
102
}
330
18D
100
AcDbScale
 70
     0
300
1:20
140
1.0
141
2.0
290
     0
  0
SCALE
  5
19B
102
{ACAD_REACTORS
330
18D
102
}
330
18D
100
AcDbScale
 70
     0
300
1:25
140
1.0
141
2.5
290
     0
  0
SCALE
  5
19C
102
{ACAD_REACTORS
330
18D
102
}
330
18D
100
AcDbScale
 70
     0
300
1:50
140
1.0
141
5.0
290
     0
  0
SCALE
  5
19D
102
{ACAD_REACTORS
330
18D
102
}
330
18D
100
AcDbScale
 70
     0
300
1:75
140
1.0
141
7.5
290
     0
  0
SCALE
  5
19E
102
{ACAD_REACTORS
330
18D
102
}
330
18D
100
AcDbScale
 70
     0
300
1:100
140
1.0
141
10.0
290
     0
  0
SCALE
  5
19F
102
{ACAD_REACTORS
330
18D
102
}
330
18D
100
AcDbScale
 70
     0
300
1:150
140
1.0
141
15.0
290
     0
  0
SCALE
  5
1A0
102
{ACAD_REACTORS
330
18D
102
}
330
18D
100
AcDbScale
 70
     0
300
1:200
140
1.0
141
20.0
290
     0
  0
SCALE
  5
1A1
102
{ACAD_REACTORS
330
18D
102
}
330
18D
100
AcDbScale
 70
     0
300
1:250
140
1.0
141
25.0
290
     0
  0
SCALE
  5
1A2
102
{ACAD_REACTORS
330
18D
102
}
330
18D
100
AcDbScale
 70
     0
300
1:500
140
1.0
141
50.0
290
     0
  0
SCALE
  5
1A3
102
{ACAD_REACTORS
330
18D
102
}
330
18D
100
AcDbScale
 70
     0
300
1:750
140
1.0
141
75.0
290
     0
  0
SCALE
  5
1A4
102
{ACAD_REACTORS
330
18D
102
}
330
18D
100
AcDbScale
 70
     0
300
1:1000
140
1.0
141
100.0
290
     0
  0
SCALE
  5
1A5
102
{ACAD_REACTORS
330
18D
102
}
330
18D
100
AcDbScale
 70
     0
300
1:1250
140
1.0
141
125.0
290
     0
  0
SCALE
  5
1A6
102
{ACAD_REACTORS
330
18D
102
}
330
18D
100
AcDbScale
 70
     0
300
1:2000
140
1.0
141
200.0
290
     0
  0
SCALE
  5
1A7
102
{ACAD_REACTORS
330
18D
102
}
330
18D
100
AcDbScale
 70
     0
300
1:2500
140
1.0
141
250.0
290
     0
  0
SCALE
  5
1A8
102
{ACAD_REACTORS
330
18D
102
}
330
18D
100
AcDbScale
 70
     0
300
1:5000
140
1.0
141
500.0
290
     0
  0
TABLESTYLE
  5
190
102
{ACAD_XDICTIONARY
360
191
102
}
102
{ACAD_REACTORS
330
18E
102
}
330
18E
100
AcDbTableStyle
  3
Standard
 70
     0
 71
     0
 40
0.06
 41
0.06
280
     0
281
     0
  7
Standard
140
0.18
170
     2
 62
     0
 63
     7
283
     0
274
    -2
284
     1
 64
     0
275
    -2
285
     1
 65
     0
276
    -2
286
     1
 66
     0
277
    -2
287
     1
 67
     0
278
    -2
288
     1
 68
     0
279
    -2
289
     1
 69
     0
  7
Standard
140
0.25
170
     5
 62
     0
 63
     7
283
     0
274
    -2
284
     1
 64
     0
275
    -2
285
     1
 65
     0
276
    -2
286
     1
 66
     0
277
    -2
287
     1
 67
     0
278
    -2
288
     1
 68
     0
279
    -2
289
     1
 69
     0
  7
Standard
140
0.18
170
     5
 62
     0
 63
     7
283
     0
274
    -2
284
     1
 64
     0
275
    -2
285
     1
 65
     0
276
    -2
286
     1
 66
     0
277
    -2
287
     1
 67
     0
278
    -2
288
     1
 68
     0
279
    -2
289
     1
 69
     0
  0
VISUALSTYLE
  5
166
102
{ACAD_REACTORS
330
167
102
}
330
167
100
AcDbVisualStyle
  2
2dWireframe
 70
     4
 71
     0
 72
     2
 73
     0
 90
        0
 40
-0.6
 41
-30.0
 62
     5
 63
     7
 74
     1
 91
        4
 64
     7
 65
   257
 75
     1
175
     1
 42
1.0
 92
        0
 66
   257
 43
1.0
 76
     1
 77
     6
 78
     2
 67
     7
 79
     5
170
     0
171
     0
290
     0
174
     0
 93
        1
 44
0.0
173
     0
291
     0
 45
0.0
1001
ACAD
1000
AcDbSavedByObjectVersion
1070
     0
  0
VISUALSTYLE
  5
193
102
{ACAD_REACTORS
330
167
102
}
330
167
100
AcDbVisualStyle
  2
3dWireframe
 70
     5
 71
     0
 72
     2
 73
     0
 90
        0
 40
-0.6
 41
-30.0
 62
     5
 63
     7
 74
     1
 91
        4
 64
     7
 65
   257
 75
     1
175
     1
 42
1.0
 92
        0
 66
   257
 43
1.0
 76
     1
 77
     6
 78
     2
 67
     7
 79
     5
170
     0
171
     0
290
     0
174
     0
 93
        1
 44
0.0
173
     0
291
     0
 45
0.0
1001
ACAD
1000
AcDbSavedByObjectVersion
1070
     0
  0
VISUALSTYLE
  5
192
102
{ACAD_REACTORS
330
167
102
}
330
167
100
AcDbVisualStyle
  2
Realistic
 70
     8
 71
     2
 72
     2
 73
     0
 90
        0
 40
-0.6
 41
-30.0
 62
     5
 63
     7
 74
     1
 91
        0
 64
     7
 65
   257
 75
     1
175
     1
 42
1.0
 92
        8
 66
     8
 43
1.0
 76
     1
 77
     6
 78
     2
 67
     7
 79
     5
170
     0
171
     0
290
     0
174
     0
 93
       13
 44
0.0
173
     0
291
     0
 45
0.0
1001
ACAD
1000
AcDbSavedByObjectVersion
1070
     0
  0
DICTIONARYVAR
  5
1E6
102
{ACAD_REACTORS
330
1E2
102
}
330
1E2
100
DictionaryVariables
280
     0
  1
1:100
  0
DICTIONARYVAR
  5
1E4
102
{ACAD_REACTORS
330
1E2
102
}
330
1E2
100
DictionaryVariables
280
     0
  1
STANDARD
  0
DICTIONARYVAR
  5
1E3
102
{ACAD_REACTORS
330
1E2
102
}
330
1E2
100
DictionaryVariables
280
     0
  1
STANDARD
  0
DICTIONARYVAR
  5
1EA
102
{ACAD_REACTORS
330
1E2
102
}
330
1E2
100
DictionaryVariables
280
     0
  1
1
  0
DICTIONARYVAR
  5
1E9
102
{ACAD_REACTORS
330
1E2
102
}
330
1E2
100
DictionaryVariables
280
     0
  1
1
  0
DICTIONARYVAR
  5
1E8
102
{ACAD_REACTORS
330
1E2
102
}
330
1E2
100
DictionaryVariables
280
     0
  1
0
  0
DICTIONARYVAR
  5
1E5
102
{ACAD_REACTORS
330
1E2
102
}
330
1E2
100
DictionaryVariables
280
     0
  1
1
  0
DICTIONARYVAR
  5
1E7
102
{ACAD_REACTORS
330
1E2
102
}
330
1E2
100
DictionaryVariables
280
     0
  1
127
  0
OBJECT_PTR
  5
1E1
102
{ACAD_REACTORS
330
1BD
102
}
330
1BD
1001
DCO15
1000
jet_dbsamples..."elementy wiezby"(_el_wzb_Left_nazw_romans16)
1000
nazw_el_wiezb
1040
1.0
1040
1.0
1040
0.0
1040
0.0
1040
0.0
1040
0.0
1040
0.0
1040
15.0
1071
        0
1071
      256
1071
        7
1071
        5
1071
        1
1000
ROMANS
1000
ByLayer
1000
#(nazw_el_wiezb)
  0
OBJECT_PTR
  5
1E0
102
{ACAD_REACTORS
330
1BD
102
}
330
1BD
1001
DCO15
1000
jet_dbsamples..."elementy wiezby"(_elementy_wiezby_SKROT_Romans16)
1000
skrot_el_wiezb
1040
1.0
1040
1.0
1040
0.0
1040
0.0
1040
0.0
1040
0.0
1040
0.0
1040
16.0
1071
        0
1071
      256
1071
        9
1071
        5
1071
        1
1000
ROMANS
1000
ByLayer
1000
#(skrot_el_wiezb)
  0
OBJECT_PTR
  5
1DF
102
{ACAD_REACTORS
330
1BD
102
}
330
1BD
1001
DCO15
1000
jet_dbsamples..."materialy przegrod pl"(_materialy_przegrod_pl_Label1)
1000
nazw_mat
1040
1.0
1040
1.0
1040
0.0
1040
0.0
1040
0.0
1040
0.0
1040
0.0
1040
17.0
1071
        0
1071
      256
1071
        7
1071
        5
1071
        1
1000
ROMANS
1000
ByLayer
1000
#(nazw_mat)
  0
OBJECT_PTR
  5
1DE
102
{ACAD_REACTORS
330
1BD
102
}
330
1BD
1001
DCO15
1000
jet_dbsamples..."nazwy przegrod pl"(_nazwy_przegrod_romans18)
1000
nzw_przegrody
1040
1.0
1040
1.0
1040
0.0
1040
0.0
1040
0.0
1040
0.0
1040
0.0
1040
17.0
1071
        0
1071
      256
1071
        7
1071
        5
1071
        1
1000
ROMANS
1000
ByLayer
1000
{\L\C2;#(nzw_przegrody)}
  0
OBJECT_PTR
  5
1DD
102
{ACAD_REACTORS
330
1BD
102
}
330
1BD
1001
DCO15
1000
jet_dbsamples..."nazwy rysunkow"(_nazwy_rysunkow_Arial37)
1000
1linia
1000
2linia
1000
3linia
1040
1.0
1040
1.0
1040
0.0
1040
0.0
1040
0.0
1040
0.0
1040
0.0
1040
37.0
1071
        0
1071
      256
1071
        1
1071
        5
1071
        1
1000
ROMANS
1000
ByLayer
1000
{\fArial|b0|i0|c238|p34;#(1linia)\P#(2linia)\P#(3linia)}
  0
OBJECT_PTR
  5
1DC
102
{ACAD_REACTORS
330
1BD
102
}
330
1BD
1001
DCO15
1000
jet_dbsamples..."nazwy rysunkow"(_nazwy_rysunkow_Romans18)
1000
1linia
1000
2linia
1000
3linia
1040
1.0
1040
1.0
1040
0.0
1040
0.0
1040
0.0
1040
0.0
1040
0.0
1040
18.0
1071
        0
1071
      256
1071
        2
1071
        5
1071
        1
1000
ROMANS
1000
ByLayer
1000
{\Fromans.shx|c238;#(1linia)\P#(2linia)\P#(3linia)}
  0
OBJECT_PTR
  5
1DB
102
{ACAD_REACTORS
330
1BD
102
}
330
1BD
1001
DCO15
1000
jet_dbsamples..."opisy rozne II"(_opisy_rozne_II_Label1)
1000
opis różny
1040
1.0
1040
1.0
1040
0.0
1040
0.0
1040
0.0
1040
0.0
1040
0.0
1040
10.0
1071
        0
1071
      256
1071
        1
1071
        5
1071
        1
1000
ROMANS
1000
ByLayer
1000
#(opis różny)
  0
OBJECT_PTR
  5
1DA
102
{ACAD_REACTORS
330
1BD
102
}
330
1BD
1001
DCO15
1000
jet_dbsamples..."opisy rozne II"(_opisy_rozne_II_Link1Label1)
1000
opis różny
1040
1.0
1040
1.0
1040
0.0
1040
0.0
1040
0.0
1040
0.0
1040
0.0
1040
10.0
1071
        0
1071
      256
1071
        1
1071
        5
1071
        1
1000
ROMANS
1000
ByLayer
1000
#(opis różny)
  0
OBJECT_PTR
  5
1D9
102
{ACAD_REACTORS
330
1BD
102
}
330
1BD
1001
DCO15
1000
jet_dbsamples..."posadzki do zestawienia pomieszczen"(_posadzki_do_zestawienia_pomieszczen_Romans17)
1000
nazwa_pos
1040
1.0
1040
1.0
1040
0.0
1040
0.0
1040
0.0
1040
0.0
1040
0.0
1040
17.0
1071
        0
1071
      256
1071
        7
1071
        5
1071
        1
1000
ROMANS
1000
ByLayer
1000
#(nazwa_pos)
  0
OBJECT_PTR
  5
1D8
102
{ACAD_REACTORS
330
1BD
102
}
330
1BD
1001
DCO15
1000
jet_dbsamples..."rozne opisy rys"(_rozne_opisy_rys_R16_right)
1000
1L
1000
2L
1000
3L
1000
4L
1000
5L
1040
1.0
1040
1.0
1040
0.0
1040
0.0
1040
0.0
1040
0.0
1040
0.0
1040
16.0
1071
        0
1071
      256
1071
        3
1071
        5
1071
        1
1000
ROMANS
1000
ByLayer
1000
#(1L)\P#(2L)\P#(3L)\P#(4L)\P#(5L)
  0
OBJECT_PTR
  5
1D7
102
{ACAD_REACTORS
330
1BD
102
}
330
1BD
1001
DCO15
1000
jet_dbsamples..."rozne opisy rys"(_rozne_opisy_rys_Romans12)
1000
1L
1000
2L
1000
3L
1000
4L
1000
5L
1040
1.0
1040
1.0
1040
0.0
1040
0.0
1040
0.0
1040
0.0
1040
0.0
1040
13.0
1071
        0
1071
      256
1071
        1
1071
        5
1071
        1
1000
ROMANS
1000
ByLayer
1000
#(1L)\P#(2L)\P#(3L)\P#(4L)\P#(5L)
  0
OBJECT_PTR
  5
1D6
102
{ACAD_REACTORS
330
1BD
102
}
330
1BD
1001
DCO15
1000
jet_dbsamples..."rozne opisy rys"(_rozne_opisy_rys_Romans16)
1000
1L
1000
2L
1000
3L
1000
4L
1000
5L
1040
1.0
1040
1.0
1040
0.0
1040
0.0
1040
0.0
1040
0.0
1040
0.0
1040
16.0
1071
        0
1071
      256
1071
        1
1071
        5
1071
        1
1000
ROMANS
1000
ByLayer
1000
#(1L)\P#(2L)\P#(3L)\P#(4L)\P#(5L)
  0
OBJECT_PTR
  5
1D5
102
{ACAD_REACTORS
330
1BD
102
}
330
1BD
1001
DCO15
1000
jet_dbsamples..."tabelka - inform i etykiety"(_tabelka_-_inform_i_etykiety_Romans13)
1000
1linia
1000
2linia_ewentualna
1000
3linia_ewentualna
1040
1.0
1040
1.0
1040
0.0
1040
0.0
1040
0.0
1040
0.0
1040
0.0
1040
13.0
1071
        0
1071
      256
1071
        1
1071
        5
1071
        1
1000
ROMANS
1000
ByLayer
1000
#(1linia)\P#(2linia_ewentualna)\P#(3linia_ewentualna)
  0
OBJECT_PTR
  5
1D4
102
{ACAD_REACTORS
330
1BD
102
}
330
1BD
1001
DCO15
1000
jet_dbsamples..."tabelka - inform i etykiety"(_tabelka_Arial15-center)
1000
1linia
1000
2linia_ewentualna
1000
3linia_ewentualna
1040
1.0
1040
1.0
1040
0.0
1040
0.0
1040
0.0
1040
0.0
1040
0.0
1040
15.0
1071
        0
1071
      256
1071
        2
1071
        5
1071
        1
1000
ROMANS
1000
ByLayer
1000
{\fArial|b0|i0|c238|p34;#(1linia)\P#(2linia_ewentualna)\P#(3linia_ewentualna)}
  0
OBJECT_PTR
  5
1D3
102
{ACAD_REACTORS
330
1BD
102
}
330
1BD
1001
DCO15
1000
jet_dbsamples..."tabelka - inform i etykiety"(_tabelka_Arial151)
1000
1linia
1040
1.0
1040
1.0
1040
0.0
1040
0.0
1040
0.0
1040
0.0
1040
0.0
1040
15.0
1071
        0
1071
      256
1071
        1
1071
        5
1071
        1
1000
ARIAL
1000
ByLayer
1000
{\fArial|b0|i0|c238|p34;#(1linia)}
  0
OBJECT_PTR
  5
1D2
102
{ACAD_REACTORS
330
1BD
102
}
330
1BD
1001
DCO15
1000
jet_dbsamples..."tabelka - inform i etykiety"(_tabelka_Romans 10)
1000
1linia
1000
2linia_ewentualna
1000
3linia_ewentualna
1040
1.0
1040
1.0
1040
0.0
1040
0.0
1040
0.0
1040
0.0
1040
0.0
1040
10.0
1071
        0
1071
      256
1071
        1
1071
        5
1071
        1
1000
ARIAL
1000
ByLayer
1000
#(1linia)\P#(2linia_ewentualna)\P#(3linia_ewentualna)
  0
OBJECT_PTR
  5
1D1
102
{ACAD_REACTORS
330
1BD
102
}
330
1BD
1001
DCO15
1000
jet_dbsamples..."tabelka - inform i etykiety"(_tabelka_Romans13)
1000
1linia
1000
2linia_ewentualna
1000
3linia_ewentualna
1040
1.0
1040
1.0
1040
0.0
1040
0.0
1040
0.0
1040
0.0
1040
0.0
1040
13.0
1071
        0
1071
      256
1071
        1
1071
        5
1071
        1
1000
ARIAL
1000
ByLayer
1000
#(1linia)\P#(2linia_ewentualna)\P#(3linia_ewentualna)
  0
OBJECT_PTR
  5
1D0
102
{ACAD_REACTORS
330
1BD
102
}
330
1BD
1001
DCO15
1000
jet_dbsamples..."tabelka - inform i etykiety"(_tabelka_Romans19)
1000
1linia
1000
2linia_ewentualna
1000
3linia_ewentualna
1040
1.0
1040
1.0
1040
0.0
1040
0.0
1040
0.0
1040
0.0
1040
0.0
1040
19.0
1071
        0
1071
      256
1071
        2
1071
        5
1071
        1
1000
ARIAL
1000
ByLayer
1000
#(1linia)\P#(2linia_ewentualna)\P#(3linia_ewentualna)
  0
OBJECT_PTR
  5
1CF
102
{ACAD_REACTORS
330
1BD
102
}
330
1BD
1001
DCO15
1000
jet_dbsamples...ALFABET(ALFABET-Arial20)
1000
liter_alf
1040
1.0
1040
1.0
1040
0.0
1040
0.0
1040
0.0
1040
0.0
1040
0.0
1040
20.0
1071
        0
1071
      256
1071
        7
1071
        5
1071
        1
1000
ARIAL
1000
ByLayer
1000
{\fArial|b0|i0|c238|p34;#(liter_alf)}
  0
OBJECT_PTR
  5
1CE
102
{ACAD_REACTORS
330
1BD
102
}
330
1BD
1001
DCO15
1000
jet_dbsamples...ALFABET(ALFABET-Arial26)
1000
liter_alf
1040
1.0
1040
1.0
1040
0.0
1040
0.0
1040
0.0
1040
0.0
1040
0.0
1040
26.0
1071
        0
1071
      256
1071
        7
1071
        5
1071
        1
1000
ARIAL
1000
ByLayer
1000
{\fArial|b0|i0|c238|p34;\C140;#(liter_alf)}
  0
OBJECT_PTR
  5
1CD
102
{ACAD_REACTORS
330
1BD
102
}
330
1BD
1001
DCO15
1000
jet_dbsamples...ALFABET(ALFABET-Arial37)
1000
liter_alf
1040
1.0
1040
1.0
1040
0.0
1040
0.0
1040
0.0
1040
0.0
1040
0.0
1040
37.0
1071
        0
1071
      256
1071
        7
1071
        5
1071
        1
1000
ARIAL
1000
ByLayer
1000
{\fArial|b0|i0|c238|p34;#(liter_alf)}
  0
OBJECT_PTR
  5
1CC
102
{ACAD_REACTORS
330
1BD
102
}
330
1BD
1001
DCO15
1000
jet_dbsamples..."uwagi ogolne na arkuszu"(Arial_27)
1000
1naglowek
1000
1linia
1000
2linia
1000
3linia
1000
4linia
1000
5linia
1000
6linia
1000
7linia
1000
8linia
1000
9linia
1000
10linia
1000
11linia
1000
12linia
1040
1.0
1040
1.0
1040
0.0
1040
0.0
1040
0.0
1040
0.0
1040
0.0
1040
26.0
1071
        0
1071
      256
1071
        1
1071
        5
1071
        1
1000
ARIAL
1000
ByLayer
1000
{\fArial|b0|i0|c238|p34;#(1naglowek)\P#(1linia)\P#(2linia)\P#(3linia)\P#(4linia)\P#(5linia)\P#(6linia)\P#(7linia)\P#(8linia)\P#(9linia)\P#(10linia)\P#(11linia)\P#(12linia)}
  0
OBJECT_PTR
  5
1CB
102
{ACAD_REACTORS
330
1BD
102
}
330
1BD
1001
DCO15
1000
jet_dbsamples...jednostki(jednostki-Arial18)
1000
jedn
1040
1.0
1040
1.0
1040
0.0
1040
0.0
1040
0.0
1040
0.0
1040
0.0
1040
18.0
1071
        0
1071
      256
1071
        7
1071
        5
1071
        1
1000
ARIAL
1000
ByLayer
1000
{\fArial|b0|i0|c238|p34;#(jedn)}
  0
OBJECT_PTR
  5
1CA
102
{ACAD_REACTORS
330
1BD
102
}
330
1BD
1001
DCO15
1000
jet_dbsamples...jednostki(jednostki-Arial30)
1000
jedn
1040
1.0
1040
1.0
1040
0.0
1040
0.0
1040
0.0
1040
0.0
1040
0.0
1040
30.0
1071
        0
1071
      256
1071
        7
1071
        5
1071
        1
1000
ARIAL
1000
ByLayer
1000
{\fArial|b0|i0|c238|p34;#(jedn)}
  0
OBJECT_PTR
  5
1C9
102
{ACAD_REACTORS
330
1BD
102
}
330
1BD
1001
DCO15
1000
jet_dbsamples...jednostki(jednostki-Romans16)
1000
jedn
1040
1.0
1040
1.0
1040
0.0
1040
0.0
1040
0.0
1040
0.0
1040
0.0
1040
16.0
1071
        0
1071
      256
1071
        7
1071
        5
1071
        1
1000
ARIAL
1000
ByLayer
1000
#(jedn)
  0
OBJECT_PTR
  5
1C8
102
{ACAD_REACTORS
330
1BD
102
}
330
1BD
1001
DCO15
1000
jet_dbsamples...miesiace(miesiace-Romans17)
1000
nzw_mies
1040
1.0
1040
1.0
1040
0.0
1040
0.0
1040
0.0
1040
0.0
1040
0.0
1040
17.0
1071
        0
1071
      256
1071
        1
1071
        5
1071
        1
1000
ARIAL
1000
ByLayer
1000
#(nzw_mies)
  0
OBJECT_PTR
  5
1C7
102
{ACAD_REACTORS
330
1BD
102
}
330
1BD
1001
DCO15
1000
jet_dbsamples...pomieszczenia(pomieszczenia-Arial 15)
1000
nazwa
1040
1.0
1040
1.0
1040
0.0
1040
0.0
1040
0.0
1040
0.0
1040
0.0
1040
15.0
1071
        0
1071
      256
1071
        8
1071
        5
1071
        1
1000
ARIAL
1000
ByLayer
1000
{\fArial|b0|i0|c238|p34;#(nazwa)}
  0
OBJECT_PTR
  5
1C6
102
{ACAD_REACTORS
330
1BD
102
}
330
1BD
1001
DCO15
1000
jet_dbsamples...pomieszczenia(pomieszczenia-Romans17)
1000
nazwa
1040
1.0
1040
1.0
1040
0.0
1040
0.0
1040
0.0
1040
0.0
1040
0.0
1040
17.0
1071
        0
1071
      256
1071
        7
1071
        5
1071
        1
1000
ARIAL
1000
ByLayer
1000
#(nazwa)
  0
OBJECT_PTR
  5
1C5
102
{ACAD_REACTORS
330
1BD
102
}
330
1BD
1001
DCO15
1000
jet_dbsamples..."elementy wiezby"(romans16)
1000
nazw_el_wiezb
1040
1.0
1040
1.0
1040
0.0
1040
0.0
1040
0.0
1040
0.0
1040
0.0
1040
16.0
1071
        0
1071
      256
1071
        1
1071
        5
1071
        1
1000
ARIAL
1000
ByLayer
1000
#(nazw_el_wiezb)
  0
OBJECT_PTR
  5
1C4
102
{ACAD_REACTORS
330
1BD
102
}
330
1BD
1001
DCO15
1000
jet_dbsamples..."uwagi ogolne na arkuszu"(Romans_17)
1000
1naglowek
1000
1linia
1000
2linia
1000
3linia
1000
4linia
1000
5linia
1000
6linia
1000
7linia
1000
8linia
1000
9linia
1000
10linia
1000
11linia
1000
12linia
1040
1.0
1040
1.0
1040
0.0
1040
0.0
1040
0.0
1040
0.0
1040
0.0
1040
17.0
1071
        0
1071
      256
1071
        1
1071
        5
1071
        1
1000
ARIAL
1000
ByLayer
1000
#(1naglowek)\P#(1linia)\P#(2linia)\P#(3linia)\P#(4linia)\P#(5linia)\P#(6linia)\P#(7linia)\P#(8linia)\P#(9linia)\P#(10linia)\P#(11linia)\P#(12linia)
  0
OBJECT_PTR
  5
1C3
102
{ACAD_REACTORS
330
1BD
102
}
330
1BD
1001
DCO15
1000
jet_dbsamples...stolarka(stolarka-Arial14)
1000
STOL_TKST
1000
STOL_TKST_2linia
1040
1.0
1040
1.0
1040
0.0
1040
0.0
1040
0.0
1040
0.0
1040
0.0
1040
14.0
1071
        0
1071
      256
1071
        1
1071
        5
1071
        1
1000
ARIAL
1000
ByLayer
1000
{\fArial|b0|i0|c238|p34;#(STOL_TKST)\P#(STOL_TKST_2linia)}
  0
OBJECT_PTR
  5
1C2
102
{ACAD_REACTORS
330
1BD
102
}
330
1BD
1001
DCO15
1000
jet_dbsamples...stolarka(stolarka-Romans1607)
1000
STOL_TKST
1000
STOL_TKST_2linia
1040
1.0
1040
1.0
1040
0.0
1040
0.0
1040
0.0
1040
0.0
1040
0.0
1040
16.0
1071
        0
1071
      256
1071
        5
1071
        5
1071
        1
1000
ARIAL
1000
ByLayer
1000
#(STOL_TKST)\P#(STOL_TKST_2linia)
  0
OBJECT_PTR
  5
1C1
102
{ACAD_REACTORS
330
1BD
102
}
330
1BD
1001
DCO15
1000
jet_dbsamples...stolarka(stolarka-Romans1608)
1000
STOL_TKST
1000
STOL_TKST_2linia
1040
1.0
1040
1.0
1040
0.0
1040
0.0
1040
0.0
1040
0.0
1040
0.0
1040
16.0
1071
        0
1071
      256
1071
        5
1071
        5
1071
        1
1000
ROMANS
1000
ByLayer
1000
#(STOL_TKST)\P#(STOL_TKST_2linia)
  0
OBJECT_PTR
  5
1C0
102
{ACAD_REACTORS
330
1BD
102
}
330
1BD
1001
DCO15
1000
jet_dbsamples...stolarka(stolarkaLabel1)
1000
STOL_TKST
1000
STOL_TKST_2linia
1040
1.0
1040
1.0
1040
0.0
1040
0.0
1040
0.0
1040
0.0
1040
0.0
1040
25.0
1071
        0
1071
      256
1071
        1
1071
        5
1071
        1
1000
ROMANS
1000
ByLayer
1000
{\fArial|b0|i0|c238|p34;#(STOL_TKST)\P#(STOL_TKST_2linia)}
  0
OBJECT_PTR
  5
1BF
102
{ACAD_REACTORS
330
1BD
102
}
330
1BD
1001
DCO15
1000
jet_dbsamples...tbl_PRZEGRODY(tbl_PRZEGRODY)
1000
nazwa przegrody
1000
1w
1000
2w
1000
3w
1000
4w
1000
5w
1000
6w
1000
7w
1000
8w
1000
9w
1000
10w
1000
11w
1000
12w
1000
13w
1000
14w
1000
15w
1000
16w
1040
1.0
1040
1.0
1040
0.0
1040
0.0
1040
0.0
1040
0.0
1040
0.0
1040
17.0
1071
        0
1071
      256
1071
        1
1071
        5
1071
        1
1000
ROMANS
1000
ByLayer
1000
{\Fromans.shx|c238;\L\C2;#(nazwa przegrody)\C4;\P}#(1w)\P#(2w)\P#(3w)\P#(4w)\P#(5w)\P#(6w)\P#(7w)\P#(8w)\P#(9w)\P#(10w)\P#(11w)\P#(12w)\P#(13w)\P#(14w)\P#(15w)\P#(16w)
  0
OBJECT_PTR
  5
1BE
102
{ACAD_REACTORS
330
1BD
102
}
330
1BD
1001
DCO15
1000
jet_dbsamples..."uwagi ogolne na arkuszu"(uwag_og_na_ark_Arial18)
1000
1naglowek
1000
1linia
1000
2linia
1000
3linia
1000
4linia
1000
5linia
1000
6linia
1000
7linia
1000
8linia
1000
9linia
1000
10linia
1000
11linia
1000
12linia
1040
1.0
1040
1.0
1040
0.0
1040
0.0
1040
0.0
1040
0.0
1040
0.0
1040
18.0
1071
        0
1071
      256
1071
        1
1071
        5
1071
        1
1000
ROMANS
1000
ByLayer
1000
{\fArial|b0|i0|c238|p34;#(1naglowek)\P#(1linia)\P#(2linia)\P#(3linia)\P#(4linia)\P#(5linia)\P#(6linia)\P#(7linia)\P#(8linia)\P#(9linia)\P#(10linia)\P#(11linia)\P#(12linia)}
  0
OBJECT_PTR
  5
1BC
102
{ACAD_REACTORS
330
1AC
102
}
330
1AC
1001
DCO15
1000
jet_dbsamples..."elementy wiezby"(_elementy_wiezby_Link1)
1000
IDENTYFIKATOR
1000

1000

1070
     4
1070
     0
1070
     0
1070
     0
1070
  1024
  0
OBJECT_PTR
  5
1BB
102
{ACAD_REACTORS
330
1AC
102
}
330
1AC
1001
DCO15
1000
jet_dbsamples..."materialy przegrod pl"(_materialy_przegrod_pl_Link1)
1000
IDENTYFIKATOR
1000

1000

1070
     4
1070
     0
1070
     0
1070
     0
1070
  1024
  0
OBJECT_PTR
  5
1BA
102
{ACAD_REACTORS
330
1AC
102
}
330
1AC
1001
DCO15
1000
jet_dbsamples..."nazwy przegrod pl"(_nazwy_przegrod_pl_Link1)
1000
IDENTYFIKATOR
1000

1000

1070
     4
1070
     0
1070
     0
1070
     0
1070
  1024
  0
OBJECT_PTR
  5
1B9
102
{ACAD_REACTORS
330
1AC
102
}
330
1AC
1001
DCO15
1000
jet_dbsamples..."nazwy rysunkow"(_nazwy_rysunkow_Arial37)
1000
IDENTYFIKATOR
1000

1000

1070
     4
1070
     0
1070
     0
1070
     0
1070
  1024
  0
OBJECT_PTR
  5
1B8
102
{ACAD_REACTORS
330
1AC
102
}
330
1AC
1001
DCO15
1000
jet_dbsamples..."opisy rozne II"(_opisy_rozne_II_Link1)
1000
"opis różny"
1000
1250
1000
ASCII
1070
    12
1070
   200
1070
     0
1070
     0
1070
  1024
  0
OBJECT_PTR
  5
1B7
102
{ACAD_REACTORS
330
1AC
102
}
330
1AC
1001
DCO15
1000
jet_dbsamples..."opisy rozne II"(_opisy_rozne_II_Link2)
1000
IDENTYFIKATOR
1000

1000

1070
     4
1070
     0
1070
     0
1070
     0
1070
  1024
  0
OBJECT_PTR
  5
1B6
102
{ACAD_REACTORS
330
1AC
102
}
330
1AC
1001
DCO15
1000
jet_dbsamples..."posadzki do zestawienia pomieszczen"(_posadzki_do_zestawienia_pomieszczen_Link1)
1000
IDENTYFIKATOR
1000

1000

1070
     4
1070
     0
1070
     0
1070
     0
1070
  1024
  0
OBJECT_PTR
  5
1B5
102
{ACAD_REACTORS
330
1AC
102
}
330
1AC
1001
DCO15
1000
jet_dbsamples..."rozne opisy rys"(_rozne_opisy_rys_Link1)
1000
IDENTYFIKATOR
1000

1000

1070
     4
1070
     0
1070
     0
1070
     0
1070
  1024
  0
OBJECT_PTR
  5
1B4
102
{ACAD_REACTORS
330
1AC
102
}
330
1AC
1001
DCO15
1000
jet_dbsamples..."tabelka - inform i etykiety"(_tabelka_-_inform_i_etykiety_Link1)
1000
IDENTYFIKATOR
1000

1000

1070
     4
1070
     0
1070
     0
1070
     0
1070
  1024
  0
OBJECT_PTR
  5
1B3
102
{ACAD_REACTORS
330
1AC
102
}
330
1AC
1001
DCO15
1000
jet_dbsamples..."uwagi ogolne na arkuszu"(_uwagi_ogolne_na_arkuszu_Link1)
1000
IDENTYFIKATOR
1000

1000

1070
     4
1070
     0
1070
     0
1070
     0
1070
  1024
  0
OBJECT_PTR
  5
1B2
102
{ACAD_REACTORS
330
1AC
102
}
330
1AC
1001
DCO15
1000
jet_dbsamples...ALFABET(ALFABETLink1)
1000
IDENTYFIKATOR
1000

1000

1070
     4
1070
     0
1070
     0
1070
     0
1070
  1024
  0
OBJECT_PTR
  5
1B1
102
{ACAD_REACTORS
330
1AC
102
}
330
1AC
1001
DCO15
1000
jet_dbsamples...jednostki(jednostkiLink1)
1000
IDENTYFIKATOR
1000

1000

1070
     4
1070
     0
1070
     0
1070
     0
1070
  1024
  0
OBJECT_PTR
  5
1B0
102
{ACAD_REACTORS
330
1AC
102
}
330
1AC
1001
DCO15
1000
jet_dbsamples...miesiace(miesiaceLink1)
1000
IDENTYFIKATOR
1000

1000

1070
     4
1070
     0
1070
     0
1070
     0
1070
  1024
  0
OBJECT_PTR
  5
1AF
102
{ACAD_REACTORS
330
1AC
102
}
330
1AC
1001
DCO15
1000
jet_dbsamples...pomieszczenia(pomieszczeniaLink1)
1000
IDENTYFIKATOR
1000

1000

1070
     4
1070
     0
1070
     0
1070
     0
1070
  1024
  0
OBJECT_PTR
  5
1AE
102
{ACAD_REACTORS
330
1AC
102
}
330
1AC
1001
DCO15
1000
jet_dbsamples...stolarka(stolarkaLink1)
1000
IDENTYFIKATOR
1000

1000

1070
     4
1070
     0
1070
     0
1070
     0
1070
  1024
  0
OBJECT_PTR
  5
1AD
102
{ACAD_REACTORS
330
1AC
102
}
330
1AC
1001
DCO15
1000
jet_dbsamples...tbl_PRZEGRODY(tbl_PRZEGRODYLink1)
1000
IDENTYFIKATOR
1000

1000

1070
     4
1070
     0
1070
     0
1070
     0
1070
  1024
  0
DICTIONARY
  5
171
330
170
100
AcDbDictionary
280
     1
281
     1
  3
ACAD_XREC_ROUNDTRIP
360
1FC
  3
ADSK_XREC_LAYOUTTHUMBNAIL
360
172
  0
DICTIONARY
  5
1F6
330
163
100
AcDbDictionary
280
     1
281
     1
  3
ACAD_XREC_ROUNDTRIP
360
1F7
  0
DICTIONARY
  5
1FF
330
18B
100
AcDbDictionary
280
     1
281
     1
  3
ACAD_XREC_ROUNDTRIP
360
200
  0
DICTIONARY
  5
1FD
330
18A
100
AcDbDictionary
280
     1
281
     1
  3
ACAD_XREC_ROUNDTRIP
360
1FE
  0
DICTIONARY
  5
1F0
330
C
100
AcDbDictionary
280
     1
281
     1
  3
ACAD_XREC_ROUNDTRIP
360
1F1
  0
DICTIONARY
  5
191
330
190
100
AcDbDictionary
280
     1
281
     1
  3
ACAD_ROUNDTRIP_2008_TABLESTYLE_CELLSTYLEMAP
360
1ED
  3
ACAD_XREC_ROUNDTRIP
360
201
  0
XRECORD
  5
1FC
102
{ACAD_REACTORS
330
171
102
}
330
171
100
AcDbXrecord
280
     1
102
SHADEPLOT
 70
     0
102
SHADEPLOTRESLEVEL
 70
     2
102
SHADEPLOTCUSTOMDPI
 70
   300
  0
XRECORD
  5
172
102
{ACAD_REACTORS
330
171
102
}
330
171
100
AcDbXrecord
280
     1
310
28000000B40000008A000000010008000000000008610000000000000000000000010000000000000000000000000000FFFFFF000000000000000000000000000000000000000000000000000000000000000000330000006600000099000000CC000000FF00000000330000333300006633000099330000CC330000FF3300
310
0000660000336600006666000099660000CC660000FF66000000990000339900006699000099990000CC990000FF99000000CC000033CC000066CC000099CC0000CCCC0000FFCC000000FF000033FF000066FF000099FF0000CCFF0000FFFF000000003300330033006600330099003300CC003300FF003300003333003333
310
33006633330099333300CC333300FF33330000663300336633006666330099663300CC663300FF66330000993300339933006699330099993300CC993300FF99330000CC330033CC330066CC330099CC3300CCCC3300FFCC330000FF330033FF330066FF330099FF3300CCFF3300FFFF330000006600330066006600660099
310
006600CC006600FF00660000336600333366006633660099336600CC336600FF33660000666600336666006666660099666600CC666600FF66660000996600339966006699660099996600CC996600FF99660000CC660033CC660066CC660099CC6600CCCC6600FFCC660000FF660033FF660066FF660099FF6600CCFF6600
310
FFFF660000009900330099006600990099009900CC009900FF00990000339900333399006633990099339900CC339900FF33990000669900336699006666990099669900CC669900FF66990000999900339999006699990099999900CC999900FF99990000CC990033CC990066CC990099CC9900CCCC9900FFCC990000FF99
310
0033FF990066FF990099FF9900CCFF9900FFFF99000000CC003300CC006600CC009900CC00CC00CC00FF00CC000033CC003333CC006633CC009933CC00CC33CC00FF33CC000066CC003366CC006666CC009966CC00CC66CC00FF66CC000099CC003399CC006699CC009999CC00CC99CC00FF99CC0000CCCC0033CCCC0066CC
310
CC0099CCCC00CCCCCC00FFCCCC0000FFCC0033FFCC0066FFCC0099FFCC00CCFFCC00FFFFCC000000FF003300FF006600FF009900FF00CC00FF00FF00FF000033FF003333FF006633FF009933FF00CC33FF00FF33FF000066FF003366FF006666FF009966FF00CC66FF00FF66FF000099FF003399FF006699FF009999FF00CC
310
99FF00FF99FF0000CCFF0033CCFF0066CCFF0099CCFF00CCCCFF00FFCCFF0000FFFF0033FFFF0066FFFF0099FFFF00CCFFFF00FFFFFF00000000000D0D0D001A1A1A00282828003535350043434300505050005D5D5D006B6B6B00787878008686860093939300A1A1A100AEAEAE00BBBBBB00C9C9C900D6D6D600E4E4E400
310
F1F1F100FFFFFF0000000000000000000000000000000000000000000000000000000000000000000000000000000000F5F5F5F5F5F5F5F5F5F5F5F5F5F5F5F5F5F5F5F5F5F5F5F5F5F5F5F5F5F5F5F5F5F5F5F5F5F5F5F5F5F5F5F5F5F5F5F5F5F5F5F5F5F5F5F5F5F5F5F5F5F5F5F5F5F5F5F5F5F5F5F5F5F5F5F5F5F5F5
310
F5F5F5F5F5F5F5F5F5F5F5F5F5F5F5F5F5F5F5F5F5F5F5F5F5F5F5F5F5F5F5F5F5F5F5F5F5F5F5F5F5F5F5F5F5F5F5F5F5F5F5F5F5F5F5F5F5F5F5F5F5F5F5F5F5F5F5F5F5F5F5F5F5F5F5F5F5F5F5F5F5F5F5F5F5F5F5F5F5F5F5F5F5F5F5F5F5F5F5F5EFF5E2E2E2E2E2E2E2E2E2E2E2E2E2E2E2E2E2E2E2E2E2E2E2E2E2
310
E2E2E2E2E2E2E2E2E2E2E2E2E2E2E2E2E2E2E2E2E2E2E2E2E2E2E2E2E2E2E2E2E2E2E2E2E2E2E2E2E2E2E2E2E2E2E2E2E2E2E2E2E2E2E2E2E2E2E2E2E2E2E2E2E2E2E2E2E2E2E2E2E2E2E2E2E2E2E2E2E2E2E2E2E2E2E2E2E2E2E2E2E2E2E2E2E2E2E2E2E2E2E2E2E2E2E2E2E2E2E2E2E2E2E2E2E2E2E2E2E2E2E2E2E2E2E2
310
E2E2E2E2E2E2E2E2E2E2E2E2E2E2E2E2E2E2E2E2E2E2E2E2F5F5EFF5E2E2E2E2E2E2E2E2E2E2E2E2E2E2E2E2E2E2E2E2E2E2E2E2E2E2E2E2E2E2E2E2E2E2E2E2E2E2E2E2E2E2E2E2E2E2E2E2E2E2E2E2E2E2E2E2E2E2E2E2E2E2E2E2E2E2E2E2E2E2E2E2E2E2E2E2E2E2E2E2E2E2E2E2E2E2E2E2E2E2E2E2E2E2E2E2E2E2E2
310
E2E2E2E2E2E2E2E2E2E2E2E2E2E2E2E2E2E2E2E2E2E2E2E2E2E2E2E2E2E2E2E2E2E2E2E2E2E2E2E2E2E2E2E2E2E2E2E2E2E2E2E2E2E2E2E2E2E2E2E2E2E2E2E2E2E2E2E2E2E2E2E2E2E2E2E2E2F5F5EFF5E2E2E2E2E2E2E2E2E2E2E2E2E2E2E2E2E2E2E2E2E2E2E2E2E2E2E2E2E2E2E2E2E2E2E2E2E2E2E2E2E2E2E2E2E2E2
310
E2E2E2E2E2E2E2E2E2E2E2E2E2E2E2E2E2E2E2E2E2E2E2E2E2E2E2E2E2E2E2E2E2E2E2E2E2E2E2E2E2E2E2E2E2E2E2E2E2E2E2E2E2E2E2E2E2E2E2E2E2E2E2E2E2E2E2E2E2E2E2E2E2E2E2E2E2E2E2E2E2E2E2E2E2E2E2E2E2E2E2E2E2E2E2E2E2E2E2E2E2E2E2E2E2E2E2E2E2E2E2E2E2E2E2E2E2E2E2E2E2E2E2E2E2E2E2
310
E2E2E2F5F5EFF5E2E2E2F5F5F5F5F5F5F5F5E2E2E2E2E2E2E2E2E2F5F5F5F5F5F5F5F5F5F5F5F5F5F5F5E2E2E2E2E2E2E2E2E2F5F5F5F5F5F5F5F5F5F5F5F5F5F5F5F5E2E2E2E2E2E2E2E2F5F5F5F5F5F5F5F5F5F5F5F5F5F5F5F5E2E2E2E2E2E2E2E2F5F5F5F5F5F5F5F5F5F5F5F5F5F5F5F5E2E2E2E2E2E2E2E2F5F5F5F5
310
F5F5F5F5F5F5F5F5F5F5F5F5E2E2E2E2E2E2E2E2E2F5F5F5F5F5F5F5F5F5F5F5F5F5F5F5E2E2E2E2E2E2E2E2E2F5F5F5F5F5F5F5F5E2E2E2F5F5EFF5E2E2E2F5E2E2E2E2E2E2E2E2E2E2E2E2E2E2E2E2E2E2E2E2E2E2E2E2E2E2E2E2E2E2E2E2E2E2E2E2E2E2E2E2E2E2E2E2E2E2E2E2E2E2E2E2E2E2E2E2E2E2E2E2E2E2E2
310
E2E2E2E2E2E2E2E2E2E2E2E2E2E2E2E2E2E2E2E2E2E2E2E2E2E2E2E2E2E2E2E2E2E2E2E2E2E2E2E2E2E2E2E2E2E2E2E2E2E2E2E2E2E2E2E2E2E2E2E2E2E2E2E2E2E2E2E2E2E2E2E2E2E2E2E2E2E2E2E2E2E2E2E2E2E2E2E2E2E2E2E2E2E2E2E2E2E2E2E2E2E2E2E2E2F5E2E2E2F5F5EFF5E2E2E2F5E2E2E2E2E2E2E2E2E2E2
310
E2E2E2E2E2E2E2E2E2E2E2E2E2E2E2E2E2E2E2E2E2E2E2E2E2E2E2E2E2E2E2E2E2E2E2E2E2E2E2E2E2E2E2E2E2E2E2E2E2E2E2E2E2E2E2E2E2E2E2E2E2E2E2E2E2E2E2E2E2E2E2E2E2E2E2E2E2E2E2E2E2E2E2E2E2E2E2E2E2E2E2E2E2E2E2E2E2E2E2E2E2E2E2E2E2E2E2E2E2E2E2E2E2E2E2E2E2E2E2E2E2E2E2E2E2E2E2
310
E2E2E2E2E2E2E2E2E2E2E2E2E2E2E2E2E2E2E2E2E2E2E2E2E2E2E2E2E2E2E2F5E2E2E2F5F5EFF5E2E2E2F5E2E2E2E2E2E2E2E2E2E2E2E2E2E2E2E2E2E2E2E2E2E2E2E2E2E2E2E2E2E2E2E2E2E2E2E2E2E2E2E2E2E2E2E2E2E2E2E2E2E2E2E2E2E2E2E2E2E2E2E2E2E2E2E2E2E2E2E2E2E2E2E2E2E2E2E2E2E2E2E2E2E2E2E2
310
E2E2E2E2E2E2E2E2E2E2E2E2E2E2E2E2E2E2E2E2E2E2E2E2E2E2E2E2E2E2E2E2E2E2E2E2E2E2E2E2E2E2E2E2E2E2E2E2E2E2E2E2E2E2E2E2E2E2E2E2E2E2E2E2E2E2E2E2E2E2E2E2E2E2E2E2E2E2E2E2E2E2E2E2F5E2E2E2F5F5EFF5E2E2E2F5E2E2E2E2E2E2E2E2E2E2E2E2E2E2E2E2E2E2E2E2E2E2E2E2E2E2E2E2E2E2E2
310
E2E2E2E2E2E2E2E2E2E2E2E2E2E2E2E2E2E2E2E2E2E2E2E2E2E2E2E2E2E2E2E2E2E2E2E2E2E2E2E2E2E2E2E2E2E2E2E2E2E2E2E2E2E2E2E2E2E2E2E2E2E2E2E2E2E2E2E2E2E2E2E2E2E2E2E2E2E2E2E2E2E2E2E2E2E2E2E2E2E2E2E2E2E2E2E2E2E2E2E2E2E2E2E2E2E2E2E2E2E2E2E2E2E2E2E2E2E2E2E2E2E2E2E2E2E2E2
310
E2E2E2E2E2E2E2E2E2E2F5E2E2E2F5F5EFF5E2E2E2F5E2E2E2E2E2E2E2E2E2E2E2E2E2E2E2E2E2E2E2E2E2E2E2E2E2E2E2E2E2E2E2E2E2E2E2E2E2E2E2E2E2E2E2E2E2E2E2E2E2E2E2E2E2E2E2E2E2E2E2E2E2E2E2E2E2E2E2E2E2E2E2E2E2E2E2E2E2E2E2E2E2E2E2E2E2E2E2E2E2E2E2E2E2E2E2E2E2E2E2E2E2E2E2E2E2
310
E2E2E2E2E2E2E2E2E2E2E2E2E2E2E2E2E2E2E2E2E2E2E2E2E2E2E2E2E2E2E2E2E2E2E2E2E2E2E2E2E2E2E2E2E2E2E2E2E2E2E2E2E2E2E2E2E2E2E2E2E2E2E2F5E2E2E2F5F5EFF5E2E2E2F5E2E2E2E2E2E2E2E2E2E2E2E2E2E2E2E2E2E2E2E2E2E2E2E2E2E2E2E2E2E2E2E2E2E2E2E2E2E2E2E2E2E2E2E2E2E2E2E2E2E2E2E2
310
E2E2E2E2E2E2E2E2E2E2E2E2E2E2E2E2E2E2E2E2E2E2E2E2E2E2E2E2E2E2E2E2E2E2E2E2E2E2E2E2E2E2E2E2E2E2E2E2E2E2E2E2E2E2E2E2E2E2E2E2E2E2E2E2E2E2E2E2E2E2E2E2E2E2E2E2E2E2E2E2E2E2E2E2E2E2E2E2E2E2E2E2E2E2E2E2E2E2E2E2E2E2E2E2E2E2E2E2E2E2E2E2E2E2E2E2F5E2E2E2F5F5EFF5E2E2E2
310
F5E2E2E2E2E2E2E2E2E2E2E2E2E2E2E2E2E2E2E2E2E2E2E2E2E2E2E2E2E2E2E2E2E2E2E2E2E2E2E2E2E2E2E2E2E2E2E2E2E2E2E2E2E2E2E2E2E2E2E2E2E2E2E2E2E2E2E2E2E2E2E2E2E2E2E2E2E2E2E2E2E2E2E2E2E2E2E2E2E2E2E2E2E2E2E2E2E2E2E2E2E2E2E2E2E2E2E2E2E2E2E2E2E2E2E2E2E2E2E2E2E2E2E2E2E2E2
310
E2E2E2E2E2E2E2E2E2E2E2E2E2E2E2E2E2E2E2E2E2E2E2E2E2E2E2E2E2E2E2E2E2E2E2E2E2E2E2E2E2E2F5E2E2E2F5F5EFF5E2E2E2F5E2E2E2E2E2E2E2E2E2E2E2E2E2E2E2E2E2E2E2E2E2E2E2E2E2E2E2E2E2E2E2E2E2E2E2E2E2E2E2E2E2E2E2E2E2E2E2E2E2E2E2E2E2E2E2E2E2E2E2E2E2E2E2E2E2E2E2E2E2E2E2E2E2
310
E2E2E2E2E2E2E2E2E2E2E2E2E2E2E2E2E2E2E2E2E2E2E2E2E2E2E2E2E2E2E2E2E2E2E2E2E2E2E2E2E2E2E2E2E2E2E2E2E2E2E2E2E2E2E2E2E2E2E2E2E2E2E2E2E2E2E2E2E2E2E2E2E2E2E2E2E2E2E2E2E2E2E2E2E2E2E2E2E2E2E2E2E2E2E2F5E2E2E2F5F5EFF5E2E2E2E2E2E2E2E2E2E2E2E2E2E2E2E2E2E2E2E2E2E2E2E2
310
E2E2E2E2E2E2E2E2E2E2E2E2E2E2E2E2E2E2E2E2E2E2E2E2E2E2E2E2E2E2E2E2E2E2E2E2E2E2E2E2E2E2E2E2E2E2E2E2E2E2E2E2E2E2E2E2E2E2E2E2E2E2E2E2E2E2E2E2E2E2E2E2E2E2E2E2E2E2E2E2E2E2E2E2E2E2E2E2E2E2E2E2E2E2E2E2E2E2E2E2E2E2E2E2E2E2E2E2E2E2E2E2E2E2E2E2E2E2E2E2E2E2E2E2E2E2E2
310
E2E2E2E2E2E2E2E2E2E2E2E2E2E2E2E2E2E2E2E2E2E2E2E2E2F5F5EFF5E2E2E2E2E2E2E2E2E2E2E2E2E2E2E2E2E2E2E2E2E2E2E2E2E2E2E2E2E2E2E2E2E2E2E2E2E2E2E2E2E2E2E2E2E2E2E2E2E2E2E2E2E2E2E2E2E2E2E2E2E2E2E2E2E2E2E2E2E2E2E2E2E2E2E2E2E2E2E2E2E2E2E2E2E2E2E2E2E2E2E2E2E2E2E2E2E2E2
310
E2E2E2E2E2E2E2E2E2E2E2E2E2E2E2E2E2E2E2E2E2E2E2E2E2E2E2E2E2E2E2E2E2E2E2E2E2E2E2E2E2E2E2E2E2E2E2E2E2E2E2E2E2E2E2E2E2E2E2E2E2E2E2E2E2E2E2E2E2E2E2E2E2E2E2E2E2E2F5F5EFF5E2E2E2E2E2E2E2E2E2E2E2E2E2E2E2E2E2E2E2E2E2E2E2E2E2E2E2E2E2E2E2E2E2E2E2E2E2E2E2E2E2E2E2E2E2
310
E2E2E2E2E2E2E2E2E2E2E2E2E2E2E2E2E2E2E2E2E2E2E2E2E2E2E2E2E2E2E2E2E2E2E2E2E2E2E2E2E2E2E2E2E2E2E2E2E2E2E2E2E2E2E2E2E2E2E2E2E2E2E2E2E2E2E2E2E2E2E2E2E2E2E2E2E2E2E2E2E2E2E2E2E2E2E2E2E2E2E2E2E2E2E2E2E2E2E2E2E2E2E2E2E2E2E2E2E2E2E2E2E2E2E2E2E2E2E2E2E2E2E2E2E2E2E2
310
E2E2E2E2F5F5EFF5E2E2E2E2E2E2E2E2E2E2E2E2E2E2E2E2E2E2E2E2E2E2E2E2E2E2E2E2E2E2E2E2E2E2E2E2E2E2E2E2E2E2E2E2E2E2E2E2E2E2E2E2E2E2E2E2E2E2E2E2E2E2E2E2E2E2E2E2E2E2E2E2E2E2E2E2E2E2E2E2E2E2E2E2E2E2E2E2E2E2E2E2E2E2E2E2E2E2E2E2E2E2E2E2E2E2E2E2E2E2E2E2E2E2E2E2E2E2E2
310
E2E2E2E2E2E2E2E2E2E2E2E2E2E2E2E2E2E2E2E2E2E2E2E2E2E2E2E2E2E2E2E2E2E2E2E2E2E2E2E2E2E2E2E2E2E2E2E2E2E2E2E2E2E2E2E2E2F5F5EFF5E2E2E2E2E2E2E2E2E2E2E2E2E2E2E2E2E2E2E2E2F5F5F5F5F5F5F5F5F5F5F5F5F5F5F5F5F5F5F5F5F5F5F5F5F5F5F5F5F5F5F5F5F5F5F5F5F5F5F5F5F5F5F5F5F5F5
310
F5F5F5F5F5F5F5F5F5F5F5F5F5F5F5F5F5F5F5F5F5F5F5F5F5F5F5F5F5F5F5F5F5F5F5F5F5F5F5F5F5F5F5F5F5F5F5F5F5F5F5F5F5F5F5F5F5F5F5F5F5F5F5F5F5F5F5F5F5F5F5F5F5F5F5F5F5F5F5F5F5F5F5F5F5F5F5F5F5F5E2E2E2E2E2E2E2E2E2E2E2E2E2E2E2E2E2E2E2E2F5F5EFF5E2E2E2E2E2E2E2E2E2E2E2E2E2
310
E2E2E2E2E2E2E2F5E2E2E2E2E2E2E2E2E2E2E2E2E2E2E2E2E2E2E2E2E2E2E2E2E2E2E2E2E2DCE2E2E2E2E2E2E2E2E2E2E2E2E2E2E2E2E2E2E2E2E2E2E2E2E2E2E2E2E2E2E2E2E2E2E2E2E2E2E2E2E2E2E2E2E2E2E2E2E2E2E2E2E2E2E2E2E2E2E2E2E2E2E2E2E2E2E2E2E2E2E2E2E2E2DCE2E2E2E2E2E2E2E2E2E2E2E2E2E2
310
E2E2E2E2E2E2E2E2E2E2E2E2E2E2E2F5E2E2E2E2E2E2E2E2E2E2E2E2E2E2E2E2E2E2E2E2F5F5EFF5E2E2E2E2E2E2E2E2E2E2E2E2E2E2E2E2E2E2E2E2F5E2E2E2E2E2E2E2E2E2E2E2E2E2E2E2E2E2E2E2E2E2E2E2E2E2E2E2E2E2DCE2E2E2E2E2E2E2E2E2E2E2E2E2E2E2E2E2E2E2E2E2E2E2E2E2E2E2E2E2E2E2E2E2E2E2E2
310
E2E2E2E2E2E2E2E2E2E2E2E2E2E2E2E2E2E2E2E2E2E2E2E2E2E2E2E2E2E2E2E2E2E2E2E2E2E2DCE2E2E2E2E2E2E2E2E2E2E2E2E2E2E2E2E2E2E2E2E2E2E2E2E2E2E2E2E2F5E2E2E2E2E2E2E2E2E2E2E2E2E2E2E2E2E2E2E2E2F5F5EFF5E2E2E2E2E2E2E2E2E2E2E2E2E2E2E2E2E2E2E2E2F5E2E2E2E2E2E2E2E2E2E2E2E2E2
310
E2E2E2E2E2E2E2E2E2E2E2E2E2E2E2E2DCE2E2E2E2E2E2E2E2E2E2E2E2E2E2E2E2E2E2E2E2E2E2E2E2E2E2E2E2E2E2E2E2E2E2E2E2E2E2E2E2E2E2E2E2E2E2E2E2E2E2E2E2E2E2E2E2E2E2E2E2E2E2E2E2E2E2E2E2E2E2E2E2E2E2DCE2E2E2E2E2E2E2E2E2E2E2E2E2E2E2E2E2E2E2E2E2E2E2E2E2E2E2E2E2F5E2E2E2E2E2
310
E2E2E2E2E2E2E2E2E2E2E2E2E2E2E2F5F5EFF5E2E2E2E2E2E2E2E2E2E2E2E2E2E2E2E2E2E2E2E2F5E2E2E2E2E2E2E2E2E2E2E2E2E2E2E2E2E2E2E2E2E2E2E2E2E2E2E2E2E2DCE2E2E2E2E2E2E2E2E2E2E2E2E2E2E2E2E2E2E2E2E2E2E2E2E2E2E2E2E2E2E2E2E2E2E2E2E2E2E2E2E2E2E2E2E2E2E2E2E2E2E2E2E2E2E2E2E2
310
E2E2E2E2E2E2E2E2E2E2E2E2E2E2E2E2E2DCE2E2E2E2E2E2E2E2E2E2E2E2E2E2E2E2E2E2E2E2E2E2E2E2E2E2E2E2E2F5E2E2E2E2E2E2E2E2E2E2E2E2E2E2E2E2E2E2E2E2F5F5EFF5E2E2E2F5E2E2E2E2E2E2E2E2E2E2E2E2E2E2E2E2F5E2E2E2E2E2E2E2E2E2E2E2E2E2E2E2E2E2E2E2E2E2E2E2E2E2E2E2E2E2DCE2E2E2E2
310
E2E2E2E2E2E2E2272727E2E22727E2E2E2E2E2E2E2E2E2E2E2E2E2E2E2E2E2E2E2E2E2E2E2E2E2E2E2E2E2E2E2E2E2E2E2E2E2E2E2E2E2E2E2E2E2E2E2E2E2E2E2E2E2E2E2E2DCE2E2E2E2E2E2E2E2E2E2E2E2E2E2E2E2E2E2E2E2E2E2E2E2E2E2E2E2E2F5E2E2E2E2E2E2E2E2E2E2E2E2E2E2E2E2F5E2E2E2F5F5EFF5E2E2
310
E2F5E2E2E2E2E2E2E2E2E2E2E2E2E2E2E2E2F5E2E2E2E2E2E2E2E2E2E2E2E2E2E2E2E2E2E2E2E2E2E2E2E2E2E2E2E2E2DCE2E2E2E2E2E2E2E2E2E2E2272727272727272727E2E2E2E2E2E2E2E2E2E2E2E2E2E2E2E2E2E2E2E2E2E2E2E2E2E2E2E2E2E2E2E2E2E2E2E2E2E2E2E2E2E2E2E2E2E2E2E2E2E2E2E2E2E2DCE2E2E2
310
E2E2E2E2E2E2E2E2E2E2E2E2E2E2E2E2E2E2E2E2E2E2E2E2E2E2F5E2E2E2E2E2E2E2E2E2E2E2E2E2E2E2E2F5E2E2E2F5F5EFF5E2E2E2F5E2E2E2E2E2E2E2E2E2E2E2E2E2E2E2E2F5E2E2E2E2E2E2E2E2E2E2E2E2E2E2E2E2E2E2E2E2E2E2E2E2E2E2E2E2E2DCE2E2E2E2E2E2E2E2E2E2E2272727272727272727E2E2E2E2E2
310
E2E2E2E2E2E2E2E2E2E2E2E2E2E2E2E2E2E2E2E2E2E2E2E2E2E2E2E2E2E2E2E2E2E2E2E2E2E2E2E2E2E2E2E2E2E2E2E2E2DCE2E2E2E2E2E2E2E2E2E2E2E2E2E2E2E2E2E2E2E2E2E2E2E2E2E2E2E2E2F5E2E2E2E2E2E2E2E2E2E2E2E2E2E2E2E2F5E2E2E2F5F5EFF5E2E2E2F5E2E2E2E2E2E2E2E2E2E2E2E2E2E2E2E2F5E2E2
310
E2E2E2E2E2E2E2E2E2E2E2E2E2E2E2E2E2E2E2E2E2E2E2E2E2E2E2DCE2E2E2E2E2E2E2E2E2E2E2E2E2E2E2E2E2E2E2E2E2E2E2E2E2E2E2E2E2E2E2E2E2E2E2E2E2E2E2E2E2E2E2E2E2E2E2E2E2E2E2E2E2E2E2E2E2E2E2E2E2E2E2E2E2E2E2E2E2E2E2E2E2E2DCE2E2E2E2E2E2E2E2E2E2E2E2E2E2E2E2E2E2E2E2E2E2E2E2
310
E2E2E2E2E2F5E2E2E2E2E2E2E2E2E2E2E2E2E2E2E2E2F5E2E2E2F5F5EFF5E2E2E2F5E2E2E2E2E2E2E2E2E2E2E2E2E2E2E2E2F5E2E2E2E2E2E2E2E2E2E2E2E2E2E2E2E2E2E2E2E2E2E2E2E2E2E2E2E2E2DCE2E2E2E2E2E2E2E2E2E2E2E2E2E2E2E2E2E2E2E2E2E2E2E2E2E2E2E2E2E2E2E2E2E2E2E2E2E2E2E2E2E2E2E2E2E2
310
E2E2E2E2E2E2E2E2E2E2E2E2E2E2E2E2E2E2E2E2E2E2E2E2E2E2E2E2DCE2E2E2E2E2E2E2E2E2E2E2E2E2E2E2E2E2E2E2E2E2E2E2E2E2E2E2E2E2F5E2E2E2E2E2E2E2E2E2E2E2E2E2E2E2E2F5E2E2E2F5F5EFF5E2E2E2F5E2E2E2E2E2E2E2E2E2E2E2E2E2E2E2E2F5E2E2E2E2E2E2E2E2E2E2E2E2E2E2E2E2E2E2E2E2E2E2E2
310
E2E2E2E2E2E2DCE2E2E2E2E2E2E2E2E2E2E2E2E2E2E2E2E2E2E2E2E2E2E2E2E2E2E2E2E2E2E2E2E2E2E2E2E2E2E2E2E2E2E2E2E2E2E2E2E2E2E2E2E2E2E2E2E2E2E2E2E2E2E2E2E2E2E2E2E2E2E2E2E2E2DCE2E2E2E2E2E2E2E2E2E2E2E2E2E2E2E2E2E2E2E2E2E2E2E2E2E2E2E2E2F5E2E2E2E2E2E2E2E2E2E2E2E2E2E2E2
310
E2F5E2E2E2F5F5EFF5E2E2E2F5E2E2E2E2E2E2E2E2E2E2E2E2E2E2E2E2F5E2E2E2E2E2E2E2E2E2E2E2E2E2E2E2E2E2E2E2E2E2E2E2E2E2E2E2E2E2DCE2E2E2E2E2E2E2E2E2E2E2E2E2E2E2E2E2E2E2E2E2E2E2E2E2E2E2E2E2E2E2E2E2E2E2E2E2E2E2E2E2E2E2E2E2E2E2E2E2E2E2E2E2E2E2E2E2E2E2E2E2E2E2E2E2E2E2
310
E2E2E2E2E2E2E2DCE2E2E2E2E2E2E2E2E2E2E2E2E2E2E2E2E2E2E2E2E2E2E2E2E2E2E2E2E2F5E2E2E2E2E2E2E2E2E2E2E2E2E2E2E2E2F5E2E2E2F5F5EFF5E2E2E2F5E2E2E2E2E2E2E2E2E2E2E2E2E2E2E2E2F5E2E2E2E2E2E2E2E2E2E2E2E2E2E2E2E2E2E2E2E2E2E2E2E2E2E2E2E2E2DCE2E2E2E2E2E2E2E2E2E2E2E2E2E2
310
E2E2E2E2E2E2E2E2E2E2E2E2E2E2E2E2E2E2E2E2E2E2E2E2E2E2E2E2E2E2E2E2E2E2E2E2E2E2E2E2E2E2E2E2E2E2E2E2E2E2E2E2E2E2E2E2E2E2E2E2DCE2E2E2E2E2E2E2E2E2E2E2E2E2E2E2E2E2E2E2E2E2E2E2E2E2E2E2E2E2F5E2E2E2E2E2E2E2E2E2E2E2E2E2E2E2E2F5E2E2E2F5F5EFF5E2E2E2F5E2E2E2E2E2E2E2E2
310
E2E2E2E2E2E2E2E2F5E2E2E2E2E2E2E2E2E2E2E2E2E2E2E2E2E2E2E2E2E2E2E2E2E2E2E2E2E2DCE2E2E2E2E2E2E2E2E2E2E2E2E2E2E2E2E2E2E2E2E2E2E2E2E2E2E2E2E2E2E2E2E2E2E2E2E2E2E2E2E2E2E2E2E2E2E2E2E2E2E2E2E2E2E2E2E2E2E2E2E2E2E2E2E2E2E2E2E2E2E2E2E2E2DCE2E2E2E2E2E2E2E2E2E2E2E2E2
310
E2E2E2E2E2E2E2E2E2E2E2E2E2E2E2E2F5E2E2E2E2E2E2E2E2E2E2E2E2E2E2E2E2F5E2E2E2F5F5EFF5E2E2E2F5E2E2E2E2E2E2E2E2E2E2E2E2E2E2E2E2F5E2E2E2E2E2E2E2E2E2E2E2E2E2E2E2E2E2E2E2E2E2E2E2E2E2E2E2E2E2DCE2E2E2E2E2E2E2E2E2E2E2E2E2E2E2E2E2E2E2E2E2E2E2E2E2E2E2E2E2E2E2E2E2E2E2
310
E2E2E2E2E2E2E2E2E2E2E2E2E2E2E2E2E2E2E2E2E2E2E2E2E2E2E2E2E2E2E2E2E2E2E2E2E2E2E2DCE2E2E2E2E2E2E2E2E2E2E2E2E2E2E2E2E2E2E2E2E2E2E2E2E2E2E2E2E2F5E2E2E2E2E2E2E2E2E2E2E2E2E2E2E2E2F5E2E2E2F5F5EFF5E2E2E2F5E2E2E2E2E2E2E2E2E2E2E2E2E2E2E2E2F5E2E2E2E2E2E2E2E2E2E2E2E2
310
E2E2E2E2E2E2E2E2E2E2E2E2E2E2E2E2E2DCE2E2E2E2E2E2E2E2E2E2E2E2E2E2E2E2E2E2E2E2E2E2E2E2E2E2E2E2E2E2E2E2E2E2E2E2E2E2E2E2E2E2E2E2E2E2E2E2E2E2E2E2E2E2E2E2E2E2E2E2E2E2E2E2E2E2E2E2E2E2E2E2E2E2DCE2E2E2E2E2E2E2E2E2E2E2E2E2E2E2E2E2E2E2E2E2E2E2E2E2E2E2E2E2F5E2E2E2E2
310
E2E2E2E2E2E2E2E2E2E2E2E2F5E2E2E2F5F5EFF5E2E2E2F5E2E2E2E2E2E2E2E2E2E2E2E2E2E2E2E2F5E2E2E2E2E2E2E2E2E2E2E2E2E2E2E2E2E2E2E2E2E2E2E2E2E2E2E2E2E2DCE2E2E2E2E2E2E2E2E2E2E2E2E2E2E2E2E2E2E2E2E2E2E2E2E2E2E2E2E2E2E2E2E2E2E2E2E2E2E2E2E2E2E2E2E2E2E2E2E2E2E2E2E2E2E2E2
310
E2E2E2E2E2E2E2E2E2E2E2E2E2E2E2E2E2E2DCE2E2E2E2E2E2E2E2E2E2E2E2E2E2E2E2E2E2E2E2E2E2E2E2E2E2E2E2E2F5E2E2E2E2E2E2E2E2E2E2E2E2E2E2E2E2F5E2E2E2F5F5EFF5E2E2E2F5E2E2E2E2E2E2E2E2E2E2E2E2E2E2E2E2F5E2E2E2E2E2E2E2E2E2E2E2E2E2E2E2E2E2E2E2E2E2E2E2E2E2E2E2E2E2DCE2E2E2
310
E2E2E2E2E2E2E2E2E2E2E2E2E2E2E2E2E2E2E2E2E2E2E2E2E2E2E2E2E2E2E2E2E2E2E2E2E2E2E2E2E2E2E2E2E2E2E2E2E2E2E2E2E2E2E2E2E2E2E2E2E2E2E2E2E2E2E2E2E2E2E2DCE2E2E2E2E2E2E2E2E2E2E2E2E2E2E2E2E2E2E2E2E2E2E2E2E2E2E2E2E2F5E2E2E2E2E2E2E2E2E2E2E2E2E2E2E2E2F5E2E2E2F5F5EFF5E2
310
E2E2F5E2E2E2E2E2E2E2E2E2E2E2E2E2E2E2E2F5E2E2E2E2E2E2E2E2E2E2E2E2E2E2E2E2E2E2E2E2E2E2E2E2E2E2E2E2E2DCE2E2E2E2E2E2E2E2E2E2E2E2E2E2E2E2E2E2E2E2E2E2E2E2E2E2E2E2E2E2E2E2E2E2E2E2E2E2E2E2E2E2E2E2E2E2E2E2E2E2E2E2E2E2E2E2E2E2E2E2E2E2E2E2E2E2E2E2E2E2E2E2E2E2DCE2E2
310
E2E2E2E2E2E2E2E2E2E2E2E2E2E2E2E2E2E2E2E2E2E2E2E2E2E2E2F5E2E2E2E2E2E2E2E2E2E2E2E2E2E2E2E2F5E2E2E2F5F5EFF5E2E2E2F5E2E2E2E2E2E2E2E2E2E2E2E2E2E2E2E2F5E2E2E2E2E2E2E2E2E2E2E2E2E2E2E2E2E2E2E2E2E2E2E2E2E2E2E2E2E2DCE2E2E2E2E2E2E2E2E2E2E2E2E2E2E2E2E2E2E2E2E2E2E2E2
310
E2E2E2E2E2E2E2E2E2E2E2E2E2E2E2E2E2E2E2E2E2E2E2E2E2E2E2E2E2E2E2E2E2E2E2E2E2E2E2E2E2E2E2E2E2E2E2E2E2E2DCE2E2E2E2E2E2E2E2E2E2E2E2E2E2E2E2E2E2E2E2E2E2E2E2E2E2E2E2E2F5E2E2E2E2E2E2E2E2E2E2E2E2E2E2E2E2F5E2E2E2F5F5EFF5E2E2E2F5E2E2E2E2E2E2E2E2E2E2E2E2E2E2E2E2F5E2
310
E2E2E2E2E2E2E2E2E2E2E2E2E2E2E2E2E2E2E2E2E2E2E2E2E2E2E2E2DCE2E2E2E2E2E2E2E2E2E2E2E2E2E2E2E2E2E2E2E2E2E2E2E2E2E2E2E2E2E2E2E2E2E2E2E2E2E2E2E2E2E2E2E2E2E2E2E2E2E2E2E2E2E2E2E2E2E2E2E2E2E2E2E2E2E2E2E2E2E2E2E2E2E2DCE2E2E2E2E2E2E2E2E2E2E2E2E2E2E2E2E2E2E2E2E2E2E2
310
E2E2E2E2E2E2F5E2E2E2E2E2E2E2E2E2E2E2E2E2E2E2E2F5E2E2E2F5F5EFF5E2E2E2F5E2E2E2E2E2E2E2E2E2E2E2E2E2E2E2E2F5E2E2E2E2E2E2E2E2E2E2E2E2E2E2E2E2E2E2E2E2E2E2E2E2E2E2E2E2E2DCE2E2E2E2E2E2E2E2E2E2E2E2E2E2E2E2E2E2E2E2E2E2E2E2E2E2E2E2E2E2E2E2E2E2E2E2E2E2E2E2E2E2E2E2E2
310
E2E2E2E2E2E2E2E2E2E2E2E2E2E2E2E2E2E2E2E2E2E2E2E2E2E2E2E2E2DCE2E2E2E2E2E2E2E2E2E2E2E2E2E2E2E2E2E2E2E2E2E2E2E2E2E2E2E2E2F5E2E2E2E2E2E2E2E2E2E2E2E2E2E2E2E2F5E2E2E2F5F5EFF5E2E2E2E2E2E2E2E2E2E2E2E2E2E2E2E2E2E2E2E2F5E2E2E2E2E2E2E2E2E2E2E2E2E2E2E2E2E2E2E2E2E2E2
310
E2E2E2E2E2E2E2DCE2E2E2E2E2E2E2E2E2E2E2E2E2E2E2E2E2E2E2E2E2E2E2E2E2E2E2E2E2E2E2E2E2E2E2E2E2E2E2E2E2E2E2E2E2E2E2E2E2E2E2E2E2E2E2E2E2E2E2E2E2E2E2E2E2E2E2E2E2E2E2E2E2E2DCE2E2E2E2E2E2E2E2E2E2E2E2E2E2E2E2E2E2E2E2E2E2E2E2E2E2E2E2E2F5E2E2E2E2E2E2E2E2E2E2E2E2E2E2
310
E2E2E2E2E2E2F5F5EFF5E2E2E2E2E2E2E2E2E2E2E2E2E2E2E2E2E2E2E2E2F5E2E2E2E2E2E2E2E2E2E2E2E2E2E2E2E2E2E2E2E2E2E2E2E2E2E2E2E2E2DCE2E2E2E2E2E2E2E2E2E2E2E2E2E2E2E2E2E2E2E2E2E2E2E2E2E2E2E2E2E2E2E2E2E2E2E2E2E2E2E2E2E2E2E2E2E2E2E2E2E2E2E2E2E2E2E2E2E2E2E2E2E2E2E2E2E2
310
E2E2E2E2E2E2E2E2DCE2E2E2E2E2E2E2E2E2E2E2E2E2E2E2E2E2E2E2E2E2E2E2E2E2E2E2E2E2F5E2E2E2E2E2E2E2E2E2E2E2E2E2E2E2E2E2E2E2E2F5F5EFF5E2E2E2E2E2E2E2E2E2E2E2E2E2E2E2E2E2E2E2E2F5E2E2E2E2E2E2E2E2E2E2E2E2E2E2E2E2E2E2E2E2E2E2E2E2E2E2E2E2E2DCE2E2E2E2E2E2E2E2E2E2E2E2E2
310
E2E2E2E2E2E2E2E2E2E2E2E2E2E2E2E2E2E2E2E2E2E2E2E2E2E2E2E2E2E2E2E2E2E2E2E2E2E2E2E2E2E2E2E2E2E2E2E2E2E2E2E2E2E2E2E2E2E2E2E2E2DCE2E2E2E2E2E2E2E2E2E2E2E2E2E2E2E2E2E2E2E2E2E2E2E2E2E2E2E2E2F5E2E2E2E2E2E2E2E2E2E2E2E2E2E2E2E2E2E2E2E2F5F5EFF5E2E2E2E2E2E2E2E2E2E2E2
310
E2E2E2E2E2E2E2E2E2F5E2E2E2E2E2E2E2E2E2E2E2E2E2E2E2E2E2E2E2E2E2E2E2E2E2E2E2E2E2DCE2E2E2E2E2E2E2E2E2E2E2E2E2E2E2E2E2E2E2E2E2E2E2E2E2E2E2E2E2E2E2E2E2E2E2E2E2E2E2E2E2E2E2E2E2E2E2E2E2E2E2E2E2E2E2E2E2E2E2E2E2E2E2E2E2E2E2E2E2E2E2E2E2E2DCE2E2E2E2E2E2E2E2E2E2E2E2
310
E2E2E2E2E2E2E2E2E2E2E2E2E2E2E2E2E2F5E2E2E2E2E2E2E2E2E2E2E2E2E2E2E2E2E2E2E2E2F5F5EFF5E2E2E2E2E2E2E2E2E2E2E2E2E2E2E2E2E2E2E2E2F5E2E2E2E2E2E2E2E2E2E2E2E2E2E2E2E2E2E2E2E2E2E2E2E2E2E2E2E2E2DCE2E2E2E2E2E2E2E2E2E2E2E2E2E2E2E2E2E2E2E2E2E2E2E2E2E2E2E2E2E2E2E2E2E2
310
E2E2E2E2E2E2E2E2E2E2E2E2E2E2E2E2E2E2E2E2E2E2E2E2E2E2E2E2E2E2E2E2E2E2E2E2E2E2E2E2DCE2E2E2E2E2E2E2E2E2E2E2E2E2E2E2E2E2E2E2E2E2E2E2E2E2E2E2E2E2F5E2E2E2E2E2E2E2E2E2E2E2E2E2E2E2E2E2E2E2E2F5F5EFF5E2E2E2E2E2E2E2E2E2E2E2E2E2E2E2E2E2E2E2E2F5E2E2E2E2E2E2E2E2E2E2E2
310
E2E2E2E2E2E2E2E2E2E2E2E2E2E2E2E2E2E2DCE2E2E2E2E2E2E2E2E2E2E2E2E2E2E2E2E2E2E2E2E2E2E2E2E2E2E2E2E2E2E2E2E2E2E2E2E2E2E2E2E2E2E2E2E2E2E2E2E2E2E2E2E2E2E2E2E2E2E2E2E2E2E2E2E2E2E2E2E2E2E2E2E2E2DCE2E2E2E2E2E2E2E2E2E2E2E2E2E2E2E2E2E2E2E2E2E2E2E2E2E2E2E2E2F5E2E2E2
310
E2E2E2E2E2E2E2E2E2E2E2E2E2E2E2E2E2F5F5EFF5E2E2E2E2E2E2E2E2E2E2E2E2E2E2E2E2E2E2E2E2F5E2E2E2E2E2E2E2E2E2E2E2E2E2E2E2E2E2E2E2E2E2E2E2E2E2E2E2E2E2DCE2E2E2E2E2E2E2E2E2E2E2E2E2E2E2E2E2E2E2E2E2E2E2E2E2E2E2E2E2E2E2E2E2E2E2E2E2E2E2E2E2E2E2E2E2E2E2E2E2E2E2E2E2E2E2
310
E2E2E2E2E2E2E2E2E2E2E2E2E2E2E2E2E2E2E2DCE2E2E2E2E2E2E2E2E2E2E2E2E2E2E2E2E2E2E2E2E2E2E2E2E2E2E2E2E2F5E2E2E2E2E2E2E2E2E2E2E2E2E2E2E2E2E2E2E2E2F5F5EFF5E2E2E2E2E2E2E2E2E2E2E2E2E2E2E2E2E2E2E2E2F5E2E2E2E2E2E2E2E2E2E2E2E2E2E2E2E2E2E2E2E2E2E2E2E2E2E2E2E2E2DCE2E2
310
E2E2E2E2E2E2E2E2E2E2E2E2E2E2E2E2E2E2E2E2E2E2E2E2E2E2E2E2E2E2E2E2E2E2E2E2E2E2E2E2E2E2E2E2E2E2E2E2E2E2E2E2E2E2E2E2E2E2E2E2E2E2E2E2E2E2E2E2E2E2E2E2DCE2E2E2E2E2E2E2E2E2E2E2E2E2E2E2E2E2E2E2E2E2E2E2E2E2E2E2E2E2F5E2E2E2E2E2E2E2E2E2E2E2E2E2E2E2E2E2E2E2E2F5F5EFF5
310
E2E2E2E2E2E2E2E2E2E2E2E2E2E2E2E2E2E2E2E2F5E2E2E2E2E2E2E2E2E2E2E2E2E2E2E2E2E2E2E2E2E2E2E2E2E2E2E2E2E2DCE2E2E2E2E2E2E2E2E2E2E2E2E2E2E2E2E2E2E2E2E2E2E2E2E2E2E2E2E2E2E2E2E2E2E2E2E2E2E2E2E2E2E2E2E2E2E2E2E2E2E2E2E2E2E2E2E2E2E2E2E2E2E2E2E2E2E2E2E2E2E2E2E2E2DCE2
310
E2E2E2E2E2E2E2E2E2E2E2E2E2E2E2E2E2E2E2E2E2E2E2E2E2E2E2E2F5E2E2E2E2E2E2E2E2E2E2E2E2E2E2E2E2E2E2E2E2F5F5EFF5E2E2E2F5E2E2E2E2E2E2E2E2E2E2E2E2E2E2E2E2F5E2E2E2E2E2E2E2E2E2E2E2E2E2E2E2E2E2E2E2E2E2E2E2E2E2E2E2E2E2DCE2E2E2E2E2E2E2E2E2E2E2E2E2E2E2E2E2E2E2E2E2E2E2
310
E2E2E2E2E2E2E2E2E2E2E2E2E2E2E2E2E2E2E2E2E2E2E2E2E2E2E2E2E2E2E2E2E2E2E2E2E2E2E2E2E2E2E2E2E2E2E2E2E2E2E2DCE2E2E2E2E2E2E2E2E2E2E2E2E2E2E2E2E2E2E2E2E2E2E2E2E2E2E2E2E2F5E2E2E2E2E2E2E2E2E2E2E2E2E2E2E2E2F5E2E2E2F5F5EFF5E2E2E2F5E2E2E2E2E2E2E2E2E2E2E2E2E2E2E2E2F5
310
E2E2E2E2E2E2E2E2E2E2E2E2E2E2E2E2E2E2E2E2E2E2E2E2E2E2E2E2E2DCE2E2E2E2E2E2E2E2E2E2E2E2E2E2E2E2E2E2E2E2E2E2E2E2E2E2E2E2E2E2E2E2E2E2E2E2E2E2E2E2E2E2E2E2E2E2E2E2E2E2E2E2E2E2E2E2E2E2E2E2E2E2E2E2E2E2E2E2E2E2E2E2E2E2DCE2E2E2E2E2E2E2E2E2E2E2E2E2E2E2E2E2E2E2E2E2E2
310
E2E2E2E2E2E2E2F5E2E2E2E2E2E2E2E2E2E2E2E2E2E2E2E2F5E2E2E2F5F5EFF5E2E2E2F5E2E2E2E2E2E2E2E2E2E2E2E2E2E2E2E2F5E2E2E2E2E2E2E2E2E2E2E2E2E2E2E2E2E2E2E2E2E2E2E2E2E2E2E2E2E2DCE2E2E2E2E2E2E2E2E2E2E2E2E2E2E2E2E2E2E2E2E2E2E2E2E2E2E2E2E2E2E2E2E2E2E2E2E2E2E2E2E2E2E2E2
310
E2E2E2E2E2E2E2E2E2E2E2E2E2E2E2E2E2E2E2E2E2E2E2E2E2E2E2E2E2E2DCE2E2E2E2E2E2E2E2E2E2E2E2E2E2E2E2E2E2E2E2E2E2E2E2E2E2E2E2E2F5E2E2E2E2E2E2E2E2E2E2E2E2E2E2E2E2F5E2E2E2F5F5EFF5E2E2E2F5E2E2E2E2E2E2E2E2E2E2E2E2E2E2E2E2F5E2E2E2E2E2E2E2E2E2E2E2E2E2E2E2E2E2E2E2E2E2
310
E2E2E2E2E2E2E2E2DCE2E2E2E2E2E2E2E2E2E2E2E2E2E2E2E2E2E2E2E2E2E2E2E2E2E2E2E2E2E2E2E2E2E2E2E2E2BEE2E2E2E2E2E2E2E2E2E2E2E2E2E2E2E2E2E2E2E2E2E2E2E2E2E2E2E2E2E2E2E2E2E2E2E2DCE2E2E2E2E2E2E2E2E2E2E2E2E2E2E2E2E2E2E2E2E2E2E2E2E2E2E2E2E2F5E2E2E2E2E2E2E2E2E2E2E2E2E2
310
E2E2E2F5E2E2E2F5F5EFF5E2E2E2F5E2E2E2E2E2E2E2E2E2E2E2E2E2E2E2E2F5E2E2E2E2E2E2E2E2E2E2E2E2E2E2E2E2E2E2E2E2E2E2E2E2E2E2E2E2E2DCE2E2E2E2E2E2E2E2E2E2E2E2E2E2E2E2E2E2E2E2E2E2E2E2E2E2E2E2E2E2E2E2E2E2E2E227BEE2E2E2E2E2E2E2E2E2E2E2E2E2E2E2E2E2E2E2E2E2E2E2E2E2E2E2
310
E2E2E2E2E2E2E2E2E2DCE2E2E2E2E2E2E2E2E2E2E2E2E2E2E2E2E2E2E2E2E2E2E2E2E2E2E2E2E2F5E2E2E2E2E2E2E2E2E2E2E2E2E2E2E2E2F5E2E2E2F5F5EFF5E2E2E2F5E2E2E2E2E2E2E2E2E2E2E2E2E2E2E2E2F5E2E2E2E2E2E2E2E2E2E2E2E2E2E2E2E2E2E2E2E2E2E2E2E2E2E2E2E2E2DCE2E2E2E2E2E2E2E2E2E2E2E2
310
E2E2E2E2E2E2E2E2E2E2E2E2E2E2E2E2E2E2E2E2E2E2E2E227BEE2E2E2E2E2E2E2E2E2E2E2E2E2E2E2E2E2E2E2E2E2E2E2E2E2E2E2E2E2E2E2E2E2E2E2E2DCE2E2E2E2E2E2E2E2E2E2E2E2E2E2E2E2E2E2E2E2E2E2E2E2E2E2E2E2E2F5E2E2E2E2E2E2E2E2E2E2E2E2E2E2E2E2F5E2E2E2F5F5EFF5E2E2E2F5E2E2E2E2E2E2
310
E2E2E2E2E2E2E2E2E2E2F5E2E2E2E2E2E2E2E2E2E2E2E2E2E2E2E2E2E2E2E2E2E2E2E2E2E2E2E2E2DCE2E2E2E2E2E2E2E2E2E2E2E2E2E2E2E2E2E2E2E2E2E2E2E2E2E2E2E2E2E2E2E2E2E2E2E227BEE2E2E2E2E2E2E2E2E2E2E2E2E2E2E2E2E2E2E2E2E2E2E2E2E2E2E2E2E2E2E2E2E2E2E2E2DCE2E2E2E2E2E2E2E2E2E2E2
310
E2E2E2E2E2E2E2E2E2E2E2E2E2E2E2E2E2E2F5E2E2E2E2E2E2E2E2E2E2E2E2E2E2E2E2F5E2E2E2F5F5EFF5E2E2E2F5E2E2E2E2E2E2E2E2E2E2E2E2E2E2E2E2F5E2E2E2E2E2E2E2E2E2E2E2E2E2E2E2E2E2E2E2E2E2E2E2E2E2E2E2E2E2DCE2E2E2E2E2E2E2E2E2E2E2E2E2E2E2E2E2E2E2E2E2E2E2E2E2E2E2E2E2E2E2E2E2
310
E2E2E227BEE2E2E2E2E2E2E2E2E2E2E2E2E2E2E2E2E2E2E2E2E2E2E2E2E2E2E2E2E2E2E2E2E2E2E2E2DCE2E2E2E2E2E2E2E2E2E2E2E2E2E2E2E2E2E2E2E2E2E2E2E2E2E2E2E2E2F5E2E2E2E2E2E2E2E2E2E2E2E2E2E2E2E2F5E2E2E2F5F5EFF5E2E2E2F5E2E2E2E2E2E2E2E2E2E2E2E2E2E2E2E2F5E2E2E2E2E2E2E2E2E2E2
310
E2E2E2E2E2E2E2E2E2E2E2E2E2E2E2E2E2E2E2DCE2E2E2E2E2E2E2E2E2E2E2E2E2E2E2E2E2E2E2E2E2E2E2E2E2E2E2E2E2E2E2E2E2E2E2E227BEE2E2E2E2E2E2E2E2E2E2E2E2E2E2E2E2E2E2E2E2E2E2E2E2E2E2E2E2E2E2E2E2E2E2E2E2DCE2E2E2E2E2E2E2E2E2E2E2E2E2E2E2E2E2E2E2E2E2E2E2E2E2E2E2E2E2F5E2E2
310
E2E2E2E2E2E2E2E2E2E2E2E2E2E2F5E2E2E2F5F5EFF5E2E2E2F5E2E2E2E2E2E2E2E2E2E2E2E2E2E2E2E2F5E2E2E2E2E2E2E2E2E2E2E2E2E2E2E2E2E2E2E2E2E2E2E2E2E2E2E2E2E2DCE2E2E2E2E2E2E2E2E2E2E2E2E2E2E2E2E2E2E2E2E2E2E2E2E2E2E2E2E2E2E2E2E2E2E2E227BEE2E2E2E2E2E2E2E2E2E2E2E2E2E2E2E2
310
E2E2E2E2E2E2E2E2E2E2E2E2E2E2E2E2E2E2E2E2DCE2E2E2E2E2E2E2E2E2E2E2E2E2E2E2E2E2E2E2E2E2E2E2E2E2E2E2E2E2F5E2E2E2E2E2E2E2E2E2E2E2E2E2E2E2E2F5E2E2E2F5F5EFF5E2E2E2F5E2E2E2E2E2E2E2E2E2E2E2E2E2E2E2E2F5E2E2E2E2E2E2E2E2E2E2E2E2E2E2E2E2E2E2E2E2E2E2E2E2E2E2E2E2E2DCE2
310
E2E2E2E2E2E2E2E2E2E2E2E2E2E2E2E2E2E2E2E2E2E2E2E2E2E2E2E2E2E2E2E2E2E2E227BEE2E2E2E2E2E2E2E2E2E2E2E2E2E2E2E2E2E2E2E2E2E2E2E2E2E2E2E2E2E2E2E2E2E2E2E2DCE2E2E2E2E2E2E2E2E2E2E2E2E2E2E2E2E2E2E2E2E2E2E2E2E2E2E2E2E2F5E2E2E2E2E2E2E2E2E2E2E2E2E2E2E2E2F5E2E2E2F5F5EF
310
F5E2E2E2F5E2E2E2E2E2E2E2E2E2E2E2E2E2E2E2E2F5E2E2E2E2E2E2E2E2E2E2E2E2E2E2E2E2E2E2E2E2E2E2E2E2E2E2E2E2E2DCE2E2E2E2E2E2E2E2E2E2E2E2E2E2E2E2E2E2E2E2E2E2E2E2E2E2E2E2E2E2E2E2E2E2E2E227BEE2E2E2E2E2E2E2E2E2E2E2E2E2E2E2E2E2E2E2E2E2E2E2E2E2E2E2E2E2E2E2E2E2E2E2E2DC
310
E2E2E2E2E2E2E2E2E2E2E2E2E2E2E2E2E2E2E2E2E2E2E2E2E2E2E2E2E2F5E2E2E2E2E2E2E2E2E2E2E2E2E2E2E2E2F5E2E2E2F5F5EFF5E2E2E2F5E2E2E2E2E2E2E2E2E2E2E2E2E2E2E2E2F5E2E2E2E2E2E2E2E2E2E2E2E2E2E2E2E2E2E2E2E2E2E2E2E2E2E2E2E2E2DCE2E2E2E2E2E2E2E2E2E2E2E2E2E2E2E2E2E2E2E2E2E2
310
E2E2E2E2E2E2E2E2E2E2E2E2E2E227BEE2E2E2E2E2E2E2E2E2E2E2E2E2E2E2E2E2E2E2E2E2E2E2E2E2E2E2E2E2E2E2E2E2E2E2E2DCE2E2E2E2E2E2E2E2E2E2E2E2E2E2E2E2E2E2E2E2E2E2E2E2E2E2E2E2E2F5E2E2E2E2E2E2E2E2E2E2E2E2E2E2E2E2F5E2E2E2F5F5EFF5E2E2E2F5E2E2E2E2E2E2E2E2E2E2E2E2E2E2E2E2
310
F5E2E2E2E2E2E2E2E2E2E2E2E2E2E2E2E2E2E2E2E2E2E2E2E2E2E2E2E2E2DCE2E2E2E2E2E2E2E2E2E2E2E2E2E2E2E2E2E2E2E2E2E2E2E2E2E2E2E2E2E2E2E2E2E2E2E227BEE2E2E2E2E2E2E2E2E2E2E2E2E2E2E2E2E2E2E2E2E2E2E2E2E2E2E2E2E2E2E2E2E2E2E2E2DCE2E2E2E2E2E2E2E2E2E2E2E2E2E2E2E2E2E2E2E2E2
310
E2E2E2E2E2E2E2E2F5E2E2E2E2E2E2E2E2E2E2E2E2E2E2E2E2F5E2E2E2F5F5EFF5E2E2E2F5E2E2E2E2E2E2E2E2E2E2E2E2E2E2E2E2F5E2E2E2E2E2E2E2E2E2E2E2E2E2E2E2E2E2E2E2E2E2E2E2E2E2E2E2E2E2DCE2E2E2E2E2E2E2E2E2E2E2E2E2E2E2E2E2E2E2E2E2E2E2E2E2E2E2E2E2E2E2E2E2E2E2E227BEE2E2E2E2E2
310
E2E2E2E2E2E2E2E2E2E2E2E2E2E2E2E2E2E2E2E2E2E2E2E2E2E2E2E2E2E2E2DCE2E2E2E2E2E2E2E2E2E2E2E2E2E2E2E2E2E2E2E2E2E2E2E2E2E2E2E2E2F5E2E2E2E2E2E2E2E2E2E2E2E2E2E2E2E2F5E2E2E2F5F5EFF5E2E2E2F5E2E2E2E2E2E2E2E2E2E2E2E2E2E2E2E2F5E2E2E2E2E2E2E2E2E2E2E2E2E2E2E2E2E2E2E2E2
310
E2E2E2E2E2E2E2E2E2DCE2E2E2E2E2E2E2E2E2E2E2E2E2E2E2E2E2E2E2E2E2E2E2E2E2E2E2E2E2E2E2E2E2E2E2E227BEE2E2E2E2E2E2E2E2E2E2E2E2E2E2E2E2E2E2E2E2E2E2E2E2E2E2E2E2E2E2E2E2E2E2E2E2DCE2E2E2E2E2E2E2E2E2E2E2E2E2E2E2E2E2E2E2E2E2E2E2E2E2E2E2E2E2F5E2E2E2E2E2E2E2E2E2E2E2E2
310
E2E2E2E2F5E2E2E2F5F5EFF5E2E2E2E2E2E2E2E2E2E2E2E2E2E2E2E2E2E2E2E2F5E2E2E2E2E2E2E2E2E2E2E2E2E2E2E2E2E2E2E2E2E2E2E2E2E2E2E2E2E2DCE2E2E2E2E2E2E2E2E2E2E2E2E2E2E2E2E2E2E2E2E2E2E2E2E2E2E2E2E2E2E2E2E2E2E2E227BEE2E2E2E2E2E2E2E2E2E2E2E2E2E2E2E2E2E2E2E2E2E2E2E2E2E2
310
E2E2E2E2E2E2E2E2E2E2DCE2E2E2E2E2E2E2E2E2E2E2E2E2E2E2E2E2E2E2E2E2E2E2E2E2E2E2E2E2F5E2E2E2E2E2E2E2E2E2E2E2E2E2E2E2E2E2E2E2E2F5F5EFF5E2E2E2E2E2E2E2E2E2E2E2E2E2E2E2E2E2E2E2E2F5E2E2E2E2E2E2E2E2E2E2E2E2E2E2E2E2E2E2E2E2E2E2E2E2E2E2E2E2E2DCE2E2E2E2E2E2E2E2E2E2E2
310
E2E2E2E2E2E2E2E2E2E2E2E2E2E2E2E2E2E2E2E2E2E2E2E2E227BEE2E2E2E2E2E2E2E2E2E2E2E2E2E2E2E2E2E2E2E2E2E2E2E2E2E2E2E2E2E2E2E2E2E2E2E2DCE2E2E2E2E2E2E2E2E2E2E2E2E2E2E2E2E2E2E2E2E2E2E2E2E2E2E2E2E2F5E2E2E2E2E2E2E2E2E2E2E2E2E2E2E2E2E2E2E2E2F5F5EFF5E2E2E2E2E2E2E2E2E2
310
E2E2E2E2E2E2E2E2E2E2E2F5E2E2E2E2E2E2E2E2E2E2E2E2E2E2E2E2E2E2E2E2E2E2E2E2E2E2E2E2E2DCE2E2E2E2E2E2E2E2E2E2E2E2E2E2E2E2E2E2E2E2E2E2E2E2E2E2E2E2E2E2E2E2E2E2E2E2E2BEE2E2E2E2E2E2E2E2E2E2E2E2E2E2E2E2E2E2E2E2E2E2E2E2E2E2E2E2E2E2E2E2E2E2E2E2DCE2E2E2E2E2E2E2E2E2E2
310
E2E2E2E2E2E2E2E2E2E2E2E2E2E2E2E2E2E2E2F5E2E2E2E2E2E2E2E2E2E2E2E2E2E2E2E2E2E2E2E2F5F5EFF5E2E2E2E2E2E2E2E2E2E2E2E2E2E2E2E2E2E2E2E2F5E2E2E2E2E2E2E2E2E2E2E2E2E2E2E2E2E2E2E2E2E2E2E2E2E2E2E2E2E2DCE2E2E2E2E2E2E2E2E2E2E2E2E2E2E2E2E2E2E2E2E2E2E2E2E2E2E2E2E2E2E2E2
310
E2E2E2E2E2BEE2E2E2E2E2E2E2E2E2E2E2E2E2E2E2E2E2E2E2E2E2E2E2E2E2E2E2E2E2E2E2E2E2E2E2E2DCE2E2E2E2E2E2E2E2E2E2E2E2E2E2E2E2E2E2E2E2E2E2E2E2E2E2E2E2E2F5E2E2E2E2E2E2E2E2E2E2E2E2E2E2E2E2E2E2E2E2F5F5EFF5E2E2E2E2E2E2E2E2E2E2E2E2E2E2E2E2E2E2E2E2F5E2E2E2E2E2E2E2E2E2
310
E2E2E2E2E2E2E2E2E2E2E2E2E2E2E2E2E2E2E2E2DCE2E2E2E2E2E2E2E2E2E2E2E2E2E2E2E2E2E2E2E2E2E2E2E2E2E2E2E2E2E2E2E2E2E2E2E2E2BEE2E2E2E2E2E2E2E2E2E2E2E2E2E2E2E2E2E2E2E2E2E2E2E2E2E2E2E2E2E2E2E2E2E2E2E2DCE2E2E2E2E2E2E2E2E2E2E2E2E2E2E2E2E2E2E2E2E2E2E2E2E2E2E2E2E2F5E2
310
E2E2E2E2E2E2E2E2E2E2E2E2E2E2E2E2E2E2E2F5F5EFF5E2E2E2E2E2E2E2E2E2E2E2E2E2E2E2E2E2E2E2E2F5E2E2E2E2E2E2E2E2E2E2E2E2E2E2E2E2E2E2E2E2E2E2E2E2E2E2E2E2E2DCE2E2E2E2E2E2E2E2E2E2E2E2E2E2E2E2E2E2E2E2E2E2E2E2E2E2E2E2E2E2E2E2E2E2E2E2E2BEE2E2E2E2E2E2E2E2E2E2E2E2E2E2E2
310
E2E2E2E2E2E2E2E2E2E2E2E2E2E2E2E2E2E2E2E2E2DCE2E2E2E2E2E2E2E2E2E2E2E2E2E2E2E2E2E2E2E2E2E2E2E2E2E2E2E2E2F5E2E2E2E2E2E2E2E2E2E2E2E2E2E2E2E2E2E2E2E2F5F5EFF5E2E2E2E2E2E2E2E2E2E2E2E2E2E2E2E2E2E2E2E2F5E2E2E2E2E2E2E2E2E2E2E2E2E2E2E2E2E2E2E2E2E2E2E2E2E2E2E2E2E2DC
310
E2E2E2E2E2E2E2E2E2E2E2E2E2E2E2E2E2E2E2E2E2E2E2E2E2E2E2E2E2E2E2E2E2E2E2E2E2BEE2E2E2E2E2E2E2E2E2E2E2E2E2E2E2E2E2E2E2E2E2E2E2E2E2E2E2E2E2E2E2E2E2E2E2E2DCE2E2E2E2E2E2E2E2E2E2E2E2E2E2E2E2E2E2E2E2E2E2E2E2E2E2E2E2E2F5E2E2E2E2E2E2E2E2E2E2E2E2E2E2E2E2E2E2E2E2F5F5
310
EFF5E2E2E2E2E2E2E2E2E2E2E2E2E2E2E2E2E2E2E2E2F5E2E2E2E2E2E2E2E2E2E2E2E2E2E2E2E2E2E2E2E2E2E2E2E2E2E2E2E2E2DCE2E2E2E2E2E2E2E2E2E2E2E2E2E2E2E2E2E2E2E2E2E2E2E2E2E2E2E2E2E2E2E2E2E2E2E2E2BEE2E2E2E2E2E2E2E2E2E2E2E2E2E2E2E2E2E2E2E2E2E2E2E2E2E2E2E2E2E2E2E2E2E2E2E2
310
DCE2E2E2E2E2E2E2E2E2E2E2E2E2E2E2E2E2E2E2E2E2E2E2E2E2E2E2E2E2F5E2E2E2E2E2E2E2E2E2E2E2E2E2E2E2E2E2E2E2E2F5F5EFF5E2E2E2E2E2E2E2E2E2E2E2E2E2E2E2E2E2E2E2E2F5E2E2E2E2E2E2E2E2E2E2E2E2E2E2E2E2E2E2E2E2E2E2E2E2E2E2E2E2E2DCE2E2E2E2E2E2E2E2E2E2E2E2E2E2E2E2E2E2E2E2E2
310
E2E2E2E2E2E2E2E2E2E2E2E2E2E2E2E2BEE2E2E2E2E2E2E2E2E2E2E2E2E2E2E2E2E2E2E2E2E2E2E2E2E2E2E2E2E2E2E2E2E2E2E2E2DCE2E2E2E2E2E2E2E2E2E2E2E2E2E2E2E2E2E2E2E2E2E2E2E2E2E2E2E2E2F5E2E2E2E2E2E2E2E2E2E2E2E2E2E2E2E2E2E2E2E2F5F5EFF5E2E2E2E2E2E2E2E2E2E2E2E2E2E2E2E2E2E2E2
310
E2F5E2E2E2E2E2E2E2E2E2E2E2E2E2E2E2E2E2E2E2E2E2E2E2E2E2E2E2E2E2DCE2E2E2E2E2E2E2E2E2E2E2E2E2E2E2E2E2E2E2E2E2C3C3C3C3C3C3E2E2E2E2E2E2E2E2E2E2BEE2E2E2E2E2E2E2E2E2E2E2C3C3C3C3C3C3E2E2E2E2E2E2E2E2E2E2E2E2E2E2E2E2E2E2E2DCE2E2E2E2E2E2E2E2E2E2E2E2E2E2E2E2E2E2E2E2
310
E2E2E2E2E2E2E2E2E2F5E2E2E2E2E2E2E2E2E2E2E2E2E2E2E2E2E2E2E2E2F5F5EFF5E2E2E2F5E2E2E2E2E2E2E2E2E2E2E2E2E2E2E2E2F5E2E2E2E2E2E2E2E2E2E2E2E2E2E2E2E2E2E2E2E2E2E2E2E2E2E2E2E2E2DCE2E2E2E2E2E2E2E2E2E2E2BEE2BEE2E2E2E2E2E2E2C3C3C3C3C3C3E2E2E2E2E2E2E2E2E2E2BEE2E2E2E2
310
E2E2E2E2E2E2E2C3C3C3C3C3C3E2E2E2E2E2E2E2E2BEE2BEE2E2E2E2E2E2E2E2DCE2E2E2E2E2E2E2E2E2E2E2E2E2E2E2E2E2E2E2E2E2E2E2E2E2E2E2E2E2F5E2E2E2E2E2E2E2E2E2E2E2E2E2E2E2E2F5E2E2E2F5F5EFF5E2E2E2F5E2E2E2E2E2E2E2E2E2E2E2E2E2E2E2E2F5E2E2E2E2E2E2E2E2E2E2E2E2E2E2E2E2E2E2E2
310
E2E2E2E2E2E2E2E2E2E2DCE2E2E2E2E2E2E2E2E2E2E2BEBEBEE2E2E2E2E2E2E2F5BEF5F5F5BEE2E2E2E2E2E2E2E2E2E2BEE2E2E2E2E2E2E2E2E2E2E2F5F5F5F5F5F5E2E2E2E2E2E2E227BEBEBEE2E2E2E2E2E2E2E2DCE2E2E2E2E2E2E2E2E2E2E2E2E2E2E2E2E2E2E2E2E2E2E2E2E2E2E2E2E2F5E2E2E2E2E2E2E2E2E2E2E2
310
E2E2E2E2E2F5E2E2E2F5F5EFF5E2E2E2F5E2E2E2E2E2E2E2E2E2E2E2E2E2E2E2E2F5E2E2E2E2E2E2E2E2E2E2E2E2E2E2E2E2E2E2E2E2E2E2E2E2E2E2E2E2E2DCE2E2E2E2E2E2E2E2E2E2E2BE2727E2E2E2E2E2E2E2F5E2E2E2F5F5E2E2E2E2E2E2E2E2E2E2BEE2E2E2E2E2E2E2E2E2E2E2F5E2E2E2F5F5E2E2E2E2E2E2E227
310
27E2BEE2E2E2E2E2E2E2E2DCE2E2E2E2E2E2E2E2E2E2E2E2E2E2E2E2E2E2E2E2E2E2E2E2E2E2E2E2E2F5E2E2E2E2E2E2E2E2E2E2E2E2E2E2E2E2F5E2E2E2F5F5EFF5E2E2E2F5E2E2E2E2E2E2E2E2E2E2E2E2E2E2E2E2F5E2E2E2E2E2E2E2E2E2E2E2E2E2E2E2E2E2E2E2E2E2E2E2E2E2E2E2E2E2DCE2E2E2E2E2E2E2E2E2E2
310
E2BE2727E2E2E2E2E2C3C3F5E2E2E2F5F5E2E2E2E2E2E2E2E2E2E2BEE2E2E2E2E2E2E2E2E2E2E2F5E2E2E2F5F5C3E2E2E2E2E2E22727E2BEE2E2E2E2E2E2E2E2DCE2E2E2E2E2E2E2E2E2E2E2E2E2E2E2E2E2E2E2E2E2E2E2E2E2E2E2E2E2F5E2E2E2E2E2E2E2E2E2E2E2E2E2E2E2E2F5E2E2E2F5F5EFF5E2E2E2F5E2E2E2E2
310
E2E2E2E2E2E2E2E2E2E2E2E2F5E2E2E2E2E2E2E2E2E2E2E2E2E2E2E2E2E2E2E2E2E2E2E2E2E2E2E2E2E2DCE2E2E2E2E2E2E2E2E2E2E2BE27BEC3C3C3F5BEF5F5F5E2E2E2F5F5E2E2E2E2E2E2E2E2E2E2BEE2E2E2E2E2E2E2E2E2E2E2F5E2E2E2F5F5F5F5F5F5C3C3E227BEE2BEE2E2E2E2E2E2E2E2DCE2E2E2E2E2E2E2E2E2
310
E2E2E2E2E2E2E2E2E2E2E2E2E2E2E2E2E2E2E2E2F5E2E2E2E2E2E2E2E2E2E2E2E2E2E2E2E2F5E2E2E2F5F5EFF5E2E2E2F5E2E2E2E2E2E2E2E2E2E2E2E2E2E2E2E2F5E2E2E2E2E2E2E2E2E2E2E2E2E2E2E2E2E2E2E2E2E2E2E2E2E2E2E2E2E2DCE2E2E2E2E2E2E2E2E2E227272727C3E2E2F5E2E2E2E2E2E2F5F5BEE2E2E2E2
310
E2E2E2E2E2E2BEE2E2E2E2E2E2E2E2E2E2E2F5F5F5E2E2E2E2E2E2F5E2C3E2272727BEE2E2E2E2E2E2E2E2DCE2E2E2E2E2E2E2E2E2E2E2E2E2E2E2E2E2E2E2E2E2E2E2E2E2E2E2E2E2F5E2E2E2E2E2E2E2E2E2E2E2E2E2E2E2E2F5E2E2E2F5F5EFF5E2E2E2F5E2E2E2E2E2E2E2E2E2E2E2E2E2E2E2E2F5E2E2E2E2E2E2E2E2
310
E2E2E2E2E2E2E2E2E2E2E2E2E2E2E2E2E2E2E2E2E2DCE2E2E2E2E2E2E2E2E2E227272727C3F5F5BEE2E2E2E2E2E2F5E2E2E2E2E2E2E2E2E2E2E2E2BEE2E2E2E2E2E2E2E2E2E2E2E2E2F5E2E2E2E2E2E2F5F5C3E2272727BEE2E2E2E2E2E2E2E2DCE2E2E2E2E2E2E2E2E2E2E2E2E2E2E2E2E2E2E2E2E2E2E2E2E2E2E2E2E2F5
310
E2E2E2E2E2E2E2E2E2E2E2E2E2E2E2E2F5E2E2E2F5F5EFF5E2E2E2F5E2E2E2E2E2E2E2E2E2E2E2E2E2E2E2E2F5E2E2E2E2E2E2E2E2E2E2E2E2E2E2E2E2E2E2E2E2E2E2E2E2E2E2E2E2E2DCE2E2E2E2E2E2E2E2E2E22727E2BEE2C3F5E2E2E2E2E2E2E2F5E2E2E2E2E2E2E2E2E2E2E2E2BEE2E2E2E2E2E2E2E2E2E2E2E2E2F5
310
E2E2E2E2E2E2E2C3C3E2E2BE27BEE2E2E2E2E2E2E2E2DCE2E2E2E2E2E2E2E2E2E2E2E2E2E2E2E2E2E2E2E2E2E2E2E2E2E2E2E2E2F5E2E2E2E2E2E2E2E2E2E2E2E2E2E2E2E2F5E2E2E2F5F5EFF5E2E2E2F5E2E2E2E2E2E2E2E2E2E2E2E2E2E2E2E2F5E2E2E2E2E2E2E2E2E2E2E2E2E2E2E2E2E2E2E2E2E2E2E2E2E2E2E2E2E2
310
DCE2E2E2E2E2E2E2E2E2E2E2272727E2F5F5E2E2E2E2E2E2E2F5E2E2E2E2E2E2E2E2E2E2E2E2BEE2E2E2E2E2E2E2E2E2E2E2E2E2F5E2E2E2E2E2E2E2F5E2E2272727BEE2E2E2E2E2E2E2E2DCE2E2E2E2E2E2E2E2E2E2E2E2E2E2E2E2E2E2E2E2E2E2E2E2E2E2E2E2E2F5E2E2E2E2E2E2E2E2E2E2E2E2E2E2E2E2F5E2E2E2F5
310
F5EFF5E2E2E2F5E2E2E2E2E2E2E2E2E2E2E2E2E2E2E2E2F5E2E2E2E2E2E2E2E2E2E2E2E2E2E2E2E2E2E2E2E2E2E2E2E2E2E2E2E2E2DCE2E2E2E2E2E2E2E2E2E2E2BE2727E2F5F5E2E2E2E2E2E2E2F5E2E2E2E2E2E2E2E2E2E2E2E2BEE2E2E2E2E2E2E2E2E2E2E2E2E2F5E2E2E2E2E2E2E2F5E2E22727E2BEE2E2E2E2E2E2E2
310
E2DCE2E2E2E2E2E2E2E2E2E2E2E2E2E2E2E2E2E2E2E2E2E2E2E2E2E2E2E2E2F5E2E2E2E2E2E2E2E2E2E2E2E2E2E2E2E2F5E2E2E2F5F5EFF5E2E2E2F5E2E2E2E2E2E2E2E2E2E2E2E2E2E2E2E2F5E2E2E2E2E2E2E2E2E2E2E2E2E2E2E2E2E2E2E2E2E2E2E2E2E2E2E2E2E2DCE2E2E2E2E2E2E2E2E2E2E2BE2727E2F5F5E2E2E2
310
E2E2E2E2F5E2E2E2E2E2E2E2E2E2E2E2E2BEE2E2E2E2E2E2E2E2E2E2E2E2E2F5E2E2E2E2E2E2E2F5E2E22727E2BEE2E2E2E2E2E2E2E2DCE2E2E2E2E2E2E2E2E2E2E2E2E2E2E2E2E2E2E2E2E2E2E2E2E2E2E2E2E2F5E2E2E2E2E2E2E2E2E2E2E2E2E2E2E2E2F5E2E2E2F5F5EFF5E2E2E2F5E2E2E2E2E2E2E2E2E2E2E2E2E2E2
310
E2E2F5E2E2E2E2E2E2E2E2E2E2E2E2E2E2E2E2E2E2E2E2E2E2E2E2E2E2E2E2E2DCE2E2E2E2E2E2E2E2E2E2E2BEE2BEE2F5F5E2E2F5F5F5F5F5BEE2E2E2E2E2E2E2E2E2E2E2E2BEE2E2E2E2E2E2E2E2E2E2E2E2E2F5F5F5F5F5F5E2E2F5E2E2E2BEE2BEE2E2E2E2E2E2E2E2DCE2E2E2E2E2E2E2E2E2E2E2E2E2E2E2E2E2E2E2
310
E2E2E2E2E2E2E2E2E2E2F5E2E2E2E2E2E2E2E2E2E2E2E2E2E2E2E2F5E2E2E2F5F5EFF5E2E2E2F5E2E2E2E2E2E2E2E2E2E2E2E2E2E2E2E2F5E2E2E2E2E2E2E2E2E2E2E2E2E2E2E2E2E2E2E2E2E2E2E2E2E2E2E2E2E2DCE2E2E2E2E2E2E2E2E2E2E2BEBEBEE2BEF5BEF5BEE2E2E2E2C3E2E2E2E2E2E2E2E2E2E2E2E2BEE2E2E2
310
E2E2E2E2E2E2E2E2E2E2C3E2E2E2F5F5F5F5F5BEE2E2BEBEBEE2E2E2E2E2E2E2E2DCE2E2E2E2E2E2E2E2E2E2E2E2E2E2E2E2E2E2E2E2E2E2E2E2E2E2E2E2E2F5E2E2E2E2E2E2E2E2E2E2E2E2E2E2E2E2F5E2E2E2F5F5EFF5E2E2E2F5E2E2E2E2E2E2E2E2E2E2E2E2E2E2E2E2F5E2E2E2E2E2E2E2E2E2E2E2E2E2E2E2E2E2E2
310
E2E2E2E2E2E2E2E2E2E2E2DCE2E2E2E2E2E2E2E2E2E2E2E2E2E2E2E2C3C3E2E2E2E2E2E2C3E2E2E2E2E2E2E2E2E2E2E2E2BEE2E2E2E2E2E2E2E2E2E2E2E2E2C3E2E2E2E2E2E2C3C3E2E2E2E2E2E2E2E2E2E2E2E2E2E2DCE2E2E2E2E2E2E2E2E2E2E2E2E2E2E2E2E2E2E2E2E2E2E2E2E2E2E2E2E2F5E2E2E2E2E2E2E2E2E2E2
310
E2E2E2E2E2E2F5E2E2E2F5F5EFF5E2E2E2F5E2E2E2E2E2E2E2E2E2E2E2E2E2E2E2E2F5E2E2E2E2E2E2E2E2E2E2E2E2E2E2E2E2E2E2E2E2E2E2E2E2E2E2E2E2E2DCE2E2E2E2E2E2E2E2E2E2E2E2E2E2E2E2C3C3C3C3C3C3C3C3C3E2E2E2E2E2E2E2E2E2E2E2E2BEE2E2E2E2E2E2E2E2E2E2E2E2E2C3C3C3C3C3C3C3C3C3E2E2
310
E2E2E2E2E2E2E2E2E2E2E2E2DCE2E2E2E2E2E2E2E2E2E2E2E2E2E2E2E2E2E2E2E2E2E2E2E2E2E2E2E2E2F5E2E2E2E2E2E2E2E2E2E2E2E2E2E2E2E2F5E2E2E2F5F5EFF5E2E2E2F5E2E2E2E2E2E2E2E2E2E2E2E2E2E2E2E2F5E2E2E2E2E2E2E2E2E2E2E2E2E2E2E2E2E2E2E2E2E2E2E2E2E2E2E2E2E2DCE2E2E2E2E2E2E2E2E2
310
E2E2E2E2E2E2E2E2E2E2E2E2E2E2E2E2E2E2E2E2E2E2E2E2E2E2E2E2BEE2E2E2E2E2E2E2E2E2E2E2E2E2E2E2E2E2E2E2E2E2E2E2E2E2E2E2E2E2E2E2E2E2E2E2E2DCE2E2E2E2E2E2E2E2E2E2E2E2E2E2E2E2E2E2E2E2E2E2E2E2E2E2E2E2E2F5E2E2E2E2E2E2E2E2E2E2E2E2E2E2E2E2F5E2E2E2F5F5EFF5E2E2E2E2E2E2E2
310
E2E2E2E2E2E2E2E2E2E2E2E2E2F5E2E2E2E2E2E2E2E2E2E2E2E2E2E2E2E2E2E2E2E2E2E2E2E2E2E2E2E2E2DCE2E2E2E2E2E2E2E2E2E2E2E2E2E2E2BE272727BEBE2727272727BEE2E2E2E2E2E2E2E2E2E2BEE2E2E2E2E2E2E2E2E2E2BEBE2727272727BEBE2727BEE2E2E2E2E2E2E2E2E2E2E2E2E2E2DCE2E2E2E2E2E2E2E2
310
E2E2E2E2E2E2E2E2E2E2E2E2E2E2E2E2E2E2E2E2E2F5E2E2E2E2E2E2E2E2E2E2E2E2E2E2E2E2E2E2E2E2F5F5EFF5E2E2E2E2E2E2E2E2E2E2E2E2E2E2E2E2E2E2E2E2F5E2E2E2E2E2E2E2E2E2E2E2E2E2E2E2E2E2E2E2E2E2E2E2E2E2E2E2E2E2DCE2E2E2E2E2E2E2E2E2E2E2E2E2E2E2BEBEBEBEBEBEBEBEBEBEBEBEE2E2E2
310
E2E2E2E2E2E2E2BEE2E2E2E2E2E2E2E2E2E2E2BEBEBEBEBEBEBEBEBEBEBEE2E2E2E2E2E2E2E2E2E2E2E2E2E2DCE2E2E2E2E2E2E2E2E2E2E2E2E2E2E2E2E2E2E2E2E2E2E2E2E2E2E2E2E2F5E2E2E2E2E2E2E2E2E2E2E2E2E2E2E2E2E2E2E2E2F5F5EFF5E2E2E2E2E2E2E2E2E2E2E2E2E2E2E2E2E2E2E2E2F5E2E2E2E2E2E2E2
310
E2E2E2E2E2E2E2E2E2E2E2E2E2E2E2E2E2E2E2E2E2E2DCE2E2E2E2E2E2E2E2E2E2E2E2E2E2E2BEBEE2E227272727E2E2E2BEE2E2E2E2E2E2E2E2E2E2BEE2E2E2E2E2E2E2E2E2E2E2BEE2E2E2272727E2E2E2BEE2E2E2E2E2E2E2E2E2E2E2E2E2E2DCE2E2E2E2E2E2E2E2E2E2E2E2E2E2E2E2E2E2E2E2E2E2E2E2E2E2E2E2E2
310
F5E2E2E2E2E2E2E2E2E2E2E2E2E2E2E2E2E2E2E2E2F5F5EFF5E2E2E2E2E2E2E2E2E2E2E2E2E2E2E2E2E2E2E2E2F5E2E2E2E2E2E2E2E2E2E2E2E2E2E2E2E2E2E2E2E2E2E2E2E2E2E2E2E2E2DCE2E2E2E2E2E2E2E2E2E2E2E2E2E2E2E2E2E2E2E2E2E2E2E2E2E2E2E2E2E2E2E2E2E2E2E2E2BEE2E2E2E2E2E2E2E2E2E2E2E2E2
310
E2E2E2E2E2E2E2E2E2E2E2E2E2E2E2E2E2E2E2E2E2E2E2DCE2E2E2E2E2E2E2E2E2E2E2E2E2E2E2E2E2E2E2E2E2E2E2E2E2E2E2E2E2F5E2E2E2E2E2E2E2E2E2E2E2E2E2E2E2E2E2E2E2E2F5F5EFF5E2E2E2E2E2E2E2E2E2E2E2E2E2E2E2E2E2E2E2E2F5E2E2E2E2E2E2E2E2E2E2E2E2E2E2E2E2E2E2E2E2E2E2E2E2E2E2E2E2
310
E2DCE2E2E2E2E2E2E2E2E2E2E2E2E2E2E2E2E2E2E2E2E2E2E2E2E2E2E2E2E2E2E2E2E2E2E2E2E2BEE2E2E2E2E2E2E2E2E2E2E2E2E2E2E2E2E2E2E2E2E2E2E2E2E2E2E2E2E2E2E2E2E2E2E2E2DCE2E2E2E2E2E2E2E2E2E2E2E2E2E2E2E2E2E2E2E2E2E2E2E2E2E2E2E2E2F5E2E2E2E2E2E2E2E2E2E2E2E2E2E2E2E2E2E2E2E2
310
F5F5EFF5E2E2E2E2E2E2E2E2E2E2E2E2E2E2E2E2E2E2E2E2F5E2E2E2E2E2E2E2E2E2E2E2E2E2E2E2E2E2E2E2E2E2E2E2E2E2E2E2E2E2DCE2E2E2E2E2E2E2E2E2E2E2E2E2E2E2E2E2E2E2E2E2E2E2E2E2E2E2E2E2E2E2E2E2E2E2E2E2BEE2E2E2E2E2E2E2E2E2E2E2E2E2E2E2E2E2E2E2E2E2E2E2E2E2E2E2E2E2E2E2E2E2E2
310
E2E2DCE2E2E2E2E2E2E2E2E2E2E2E2E2E2E2E2E2E2E2E2E2E2E2E2E2E2E2E2E2F5E2E2E2E2E2E2E2E2E2E2E2E2E2E2E2E2E2E2E2E2F5F5EFF5E2E2E2E2E2E2E2E2E2E2E2E2E2E2E2E2E2E2E2E2F5E2E2E2E2E2E2E2E2E2E2E2E2E2E2E2E2E2E2E2E2E2E2E2E2E2E2E2E2E2DCE2E2E2E2E2E2E2E2E2E2E2E2E2E2E2E2E2E2E2
310
E2E2E2E2E2E2E2E2E2E2E2E2E2E2E2E2E2E2BEE2E2E2E2E2E2E2E2E2E2E2E2E2E2E2E2E2E2E2E2E2E2E2E2E2E2E2E2E2E2E2E2E2E2E2E2DCE2E2E2E2E2E2E2E2E2E2E2E2E2E2E2E2E2E2E2E2E2E2E2E2E2E2E2E2E2F5E2E2E2E2E2E2E2E2E2E2E2E2E2E2E2E2E2E2E2E2F5F5EFF5E2E2E2E2E2E2E2E2E2E2E2E2E2E2E2E2E2
310
E2E2E2F5E2E2E2E2E2E2E2E2E2E2E2E2E2E2E2E2E2E2E2E2E2E2E2E2E2E2E2E2E2DCE2E2E2E2E2E2E2E2E2E2E2E2E2E2E2E2E2E2E2E2E2E2E2E2E2E2E2E2E2E2E2E2E2E2E2E2E2E2E2E2E2E2E2E2E2E2E2E2E2E2E2E2E2E2E2E2E2E2E2E2E2E2E2E2E2E2E2E2E2E2E2E2E2E2DCE2E2E2E2E2E2E2E2E2E2E2E2E2E2E2E2E2E2
310
E2E2E2E2E2E2E2E2E2E2E2F5E2E2E2E2E2E2E2E2E2E2E2E2E2E2E2E2E2E2E2E2F5F5EFF5E2E2E2E2E2E2E2E2E2E2E2E2E2E2E2E2E2E2E2E2F5E2E2E2E2E2E2E2E2E2E2E2E2E2E2E2E2E2E2E2E2E2E2E2E2E2E2E2E2E2DCE2E2E2E2E2E2E2E2E2E2E2E2E2E2E2E2E2E2E2E2E2E2E2E2E2E2E2E2E2E2E2E2E2E2E2E2E2E2E2E2
310
E2E2E2E2E2E2E2E2E2E2E2E2E2E2E2E2E2E2E2E2E2E2E2E2E2E2E2E2E2E2E2E2E2E2DCE2E2E2E2E2E2E2E2E2E2E2E2E2E2E2E2E2E2E2E2E2E2E2E2E2E2E2E2E2F5E2E2E2E2E2E2E2E2E2E2E2E2E2E2E2E2E2E2E2E2F5F5EFF5E2E2E2F5E2E2E2E2E2E2E2E2E2E2E2E2E2E2E2E2F5E2E2E2E2E2E2E2E2E2E2E2E2E2E2E2E2E2
310
E2E2E2E2E2E2E2E2E2E2E2E2DCE2E2E2E2E2E2E2E2E2E2E2E2E2E2E2E2E2E2E2E2E2E2E2E2E2E2E2E2E2E2E2E2E2E2E2E2E2E2E2E2E2E2E2E2E2E2E2E2E2E2E2E2E2E2E2E2E2E2E2E2E2E2E2E2E2E2E2E2E2E2E2E2E2E2DCE2E2E2E2E2E2E2E2E2E2E2E2E2E2E2E2E2E2E2E2E2E2E2E2E2E2E2E2E2F5E2E2E2E2E2E2E2E2E2
310
E2E2E2E2E2E2E2F5E2E2E2F5F5EFF5E2E2E2F5E2E2E2E2E2E2E2E2E2E2E2E2E2E2E2E2F5E2E2E2E2E2E2E2E2E2E2E2E2E2E2E2E2E2E2E2E2E2E2E2E2E2E2E2E2E2DCE2E2E2E2E2E2E2E2E2E2E2E2E2E2E2E2E2E2E2E2E2E2E2E2E2E2E2E2E2E2E2E2E2E2E2E2E2E2E2E2E2E2E2E2E2E2E2E2E2E2E2E2E2E2E2E2E2E2E2E2E2
310
E2E2E2E2E2E2E2E2E2E2E2E2E2DCE2E2E2E2E2E2E2E2E2E2E2E2E2E2E2E2E2E2E2E2E2E2E2E2E2E2E2E2E2F5E2E2E2E2E2E2E2E2E2E2E2E2E2E2E2E2F5E2E2E2F5F5EFF5E2E2E2F5E2E2E2E2E2E2E2E2E2E2E2E2E2E2E2E2F5E2E2E2E2E2E2E2E2E2E2E2E2E2E2E2E2E2E2E2E2E2E2E2E2E2E2E2E2E2DCE2E2E2E2E2E2E2E2
310
E2E2E2E2E2E2E2E2E2E2E2E2E2E2E2E2E2E2E2E2E2E2E2E2E2E2E2E2E2E2E2E2E2E2E2E2E2E2E2E2E2E2E2E2E2E2E2E2E2E2E2E2E2E2E2E2E2E2E2E2E2E2E2E2E2E2DCE2E2E2E2E2E2E2E2E2E2E2E2E2E2E2E2E2E2E2E2E2E2E2E2E2E2E2E2E2F5E2E2E2E2E2E2E2E2E2E2E2E2E2E2E2E2F5E2E2E2F5F5EFF5E2E2E2F5E2E2
310
E2E2E2E2E2E2E2E2E2E2E2E2E2E2F5E2E2E2E2E2E2E2E2E2E2E2E2E2E2E2E2E2E2E2E2E2E2E2E2E2E2E2E2E2DCE2E2E2E2E2E2E2E2E2E2E2E2E2E2E2E2E2E2E2E2E2E2E2E2E2E2E2E2E2E2E2E2E2E2E2E2E2E2E2E2E2E2E2E2E2E2E2E2E2E2E2E2E2E2E2E2E2E2E2E2E2E2E2E2E2E2E2E2E2E2E2E2E2E2DCE2E2E2E2E2E2E2
310
E2E2E2E2E2E2E2E2E2E2E2E2E2E2E2E2E2E2E2E2E2E2F5E2E2E2E2E2E2E2E2E2E2E2E2E2E2E2E2F5E2E2E2F5F5EFF5E2E2E2F5E2E2E2E2E2E2E2E2E2E2E2E2E2E2E2E2F5E2E2E2E2E2E2E2E2E2E2E2E2E2E2E2E2E2E2E2E2E2E2E2E2E2E2E2E2E2DCE2E2E2E2E2E2E2E2E2E2E2E2E2E2E2E2E2E2E2E2E2E2E2E2E2E2E2E2E2
310
E2E2E2E2E2E2E2E2E2E2E2E2E2E2E2E2E2E2E2E2E2E2E2E2E2E2E2E2E2E2E2E2E2E2E2E2E2E2E2E2E2E2E2E2E2DCE2E2E2E2E2E2E2E2E2E2E2E2E2E2E2E2E2E2E2E2E2E2E2E2E2E2E2E2E2F5E2E2E2E2E2E2E2E2E2E2E2E2E2E2E2E2F5E2E2E2F5F5EFF5E2E2E2F5E2E2E2E2E2E2E2E2E2E2E2E2E2E2E2E2F5E2E2E2E2E2E2
310
E2E2E2E2E2E2E2E2E2E2E2E2E2E2E2E2E2E2E2E2E2E2E2DCE2E2E2E2E2E2E2E2E2E2E2E2E2E2E2E2E2E2E2E2E2E2E2E2E2E2E2E2E2E2E2E2E2E2E2E2E2E2E2E2E2E2E2E2E2E2E2E2E2E2E2E2E2E2E2E2E2E2E2E2E2E2E2E2E2E2E2E2E2E2E2E2E2E2DCE2E2E2E2E2E2E2E2E2E2E2E2E2E2E2E2E2E2E2E2E2E2E2E2E2E2E2E2
310
E2F5E2E2E2E2E2E2E2E2E2E2E2E2E2E2E2E2F5E2E2E2F5F5EFF5E2E2E2F5E2E2E2E2E2E2E2E2E2E2E2E2E2E2E2E2F5E2E2E2E2E2E2E2E2E2E2E2E2E2E2E2E2E2E2E2E2E2E2E2E2E2E2E2E2E2DCE2E2E2E2E2E2E2E2E2E2E2E2E2E2E2E2E2E2E2E2E2E2E2E2E2E2E2E2E2E2E2E2E2E2E2E2E2E2E2E2E2E2E2E2E2E2E2E2E2E2
310
E2E2E2E2E2E2E2E2E2E2E2E2E2E2E2E2E2E2E2E2E2E2E2E2DCE2E2E2E2E2E2E2E2E2E2E2E2E2E2E2E2E2E2E2E2E2E2E2E2E2E2E2E2E2F5E2E2E2E2E2E2E2E2E2E2E2E2E2E2E2E2F5E2E2E2F5F5EFF5E2E2E2F5E2E2E2E2E2E2E2E2E2E2E2E2E2E2E2E2F5E2E2E2E2E2E2E2E2E2E2E2E2E2E2E2E2E2E2E2E2E2E2E2E2E2E2E2
310
E2E2DCE2E2E2E2E2E2E2E2E2E2E2E2E2E2E2E2E2E2E2E2E2E2E2E2E2E2E2E2E2E2E2E2E2E2E2E2E2E2E2E2E2E2E2E2E2E2E2E2E2E2E2E2E2E2E2E2E2E2E2E2E2E2E2E2E2E2E2E2E2E2E2E2E2E2DCE2E2E2E2E2E2E2E2E2E2E2E2E2E2E2E2E2E2E2E2E2E2E2E2E2E2E2E2E2F5E2E2E2E2E2E2E2E2E2E2E2E2E2E2E2E2F5E2E2
310
E2F5F5EFF5E2E2E2F5E2E2E2E2E2E2E2E2E2E2E2E2E2E2E2E2F5E2E2E2E2E2E2E2E2E2E2E2E2E2E2E2E2E2E2E2E2E2E2E2E2E2E2E2E2E2DCE2E2E2E2E2E2E2E2E2E2E2E2E2E2E2E2E2E2E2E2E2E2E2E2E2E2E2E2E2E2E2E2E2E2E2E2E2E2E2E2E2E2E2E2E2E2E2E2E2E2E2E2E2E2E2E2E2E2E2E2E2E2E2E2E2E2E2E2E2E2E2
310
E2E2E2DCE2E2E2E2E2E2E2E2E2E2E2E2E2E2E2E2E2E2E2E2E2E2E2E2E2E2E2E2E2F5E2E2E2E2E2E2E2E2E2E2E2E2E2E2E2E2F5E2E2E2F5F5EFF5E2E2E2F5E2E2E2E2E2E2E2E2E2E2E2E2E2E2E2E2F5E2E2E2E2E2E2E2E2E2E2E2E2E2E2E2E2E2E2E2E2E2E2E2E2E2E2E2E2E2DCE2E2E2E2E2E2E2E2E2E2E2E2E2E2E2E2E2E2
310
E2E2E2E2E2E2E2E2E2E2E2E2E2E2E2E2E2E2E2E2E2E2E2E2E2E2E2E2E2E2E2E2E2E2E2E2E2E2E2E2E2E2E2E2E2E2E2E2E2E2E2E2E2E2E2E2DCE2E2E2E2E2E2E2E2E2E2E2E2E2E2E2E2E2E2E2E2E2E2E2E2E2E2E2E2E2F5E2E2E2E2E2E2E2E2E2E2E2E2E2E2E2E2F5E2E2E2F5F5EFF5E2E2E2F5E2E2E2E2E2E2E2E2E2E2E2E2
310
E2E2E2E2F5E2E2E2E2E2E2E2E2E2E2E2E2E2E2E2E2E2E2E2E2E2E2E2E2E2E2E2E2E2DCE2E2E2E2E2E2E2E2E2E2E2E2E2E2E2E2E2E2E2E2E2E2E2E2E2E2E2E2E2E2E2E2E2E2E2E2E2E2E2E2E2E2E2E2E2E2E2E2E2E2E2E2E2E2E2E2E2E2E2E2E2E2E2E2E2E2E2E2E2E2E2E2E2E2DCE2E2E2E2E2E2E2E2E2E2E2E2E2E2E2E2E2
310
E2E2E2E2E2E2E2E2E2E2E2E2F5E2E2E2E2E2E2E2E2E2E2E2E2E2E2E2E2F5E2E2E2F5F5EFF5E2E2E2F5E2E2E2E2E2E2E2E2E2E2E2E2E2E2E2E2F5E2E2E2E2E2E2E2E2E2E2E2E2E2E2E2E2E2E2E2E2E2E2E2E2E2E2E2E2E2DCE2E2E2E2E2E2E2E2E2E2E2E2E2E2E2E2E2E2E2E2E2E2E2E2E2E2E2E2E2E2E2E2E2E2E2E2E2E2E2
310
E2E2E2E2E2E2E2E2E2E2E2E2E2E2E2E2E2E2E2E2E2E2E2E2E2E2E2E2E2E2E2E2E2E2E2DCE2E2E2E2E2E2E2E2E2E2E2E2E2E2E2E2E2E2E2E2E2E2E2E2E2E2E2E2E2F5E2E2E2E2E2E2E2E2E2E2E2E2E2E2E2E2F5E2E2E2F5F5EFF5E2E2E2F5E2E2E2E2E2E2E2E2E2E2E2E2E2E2E2E2F5E2E2E2E2E2E2E2E2E2E2E2E2E2E2E2E2
310
E2E2E2E2E2E2E2E2E2E2E2E2E2DCE2E2E2E2E2E2E2E2E2E2E2E2E2E2E2E2E2E2E2E2E2E2E2E2E2E2E2E2E2E2E2E2E2E2E2E2E2E2E2E2E2E2E2E2E2E2E2E2E2E2E2E2E2E2E2E2E2E2E2E2E2E2E2E2E2E2E2E2E2E2E2E2E2E2DCE2E2E2E2E2E2E2E2E2E2E2E2E2E2E2E2E2E2E2E2E2E2E2E2E2E2E2E2E2F5E2E2E2E2E2E2E2E2
310
E2E2E2E2E2E2E2E2F5E2E2E2F5F5EFF5E2E2E2F5E2E2E2E2E2E2E2E2E2E2E2E2E2E2E2E2F5E2E2E2E2E2E2E2E2E2E2E2E2E2E2E2E2E2E2E2E2E2E2E2E2E2E2E2E2E2DCE2E2E2E2E2E2E2E2E2E2E2E2E2E2E2E2E2E2E2E2E2E2E2E2E2E2E2E2E2E2E2E2E2E2E2E2E2E2E2E2E2E2E2E2E2E2E2E2E2E2E2E2E2E2E2E2E2E2E2E2
310
E2E2E2E2E2E2E2E2E2E2E2E2E2E2DCE2E2E2E2E2E2E2E2E2E2E2E2E2E2E2E2E2E2E2E2E2E2E2E2E2E2E2E2E2F5E2E2E2E2E2E2E2E2E2E2E2E2E2E2E2E2F5E2E2E2F5F5EFF5E2E2E2F5E2E2E2E2E2E2E2E2E2E2E2E2E2E2E2E2F5E2E2E2E2E2E2E2E2E2E2E2E2E2E2E2E2E2E2E2E2E2E2E2E2E2E2E2E2E2DCE2E2E2E2E2E2E2
310
E2E2E2E22727272727272727272727272727272727272727272727272727272727272727272727272727272727272727272727E2E2E2E2E2E2E2E2E2E2E2E2E2E2E2E2DCE2E2E2E2E2E2E2E2E2E2E2E2E2E2E2E2E2E2E2E2E2E2E2E2E2E2E2E2E2F5E2E2E2E2E2E2E2E2E2E2E2E2E2E2E2E2F5E2E2E2F5F5EFF5E2E2E2F5E2
310
E2E2E2E2E2E2E2E2E2E2E2E2E2E2E2F5E2E2E2E2E2E2E2E2E2E2E2E2E2E2E2E2E2E2E2E2E2E2E2E2E2E2E2E2E2DCE2E2E2E2E2E2E2E2E2E2E2E2E2E2E2E2E2E2E2E2E2E2E2E2E2E2E2E2E2E2E2E2E2E2E2E2E2E2E2E2E2E2E2E2E2E2E2E2E2E2E2E2E2E2E2E2E2E2E2E2E2E2E2E2E2E2E2E2E2E2E2E2E2E2DCE2E2E2E2E2E2
310
E2E2E2E2E2E2E2E2E2E2E2E2E2E2E2E2E2E2E2E2E2E2E2F5E2E2E2E2E2E2E2E2E2E2E2E2E2E2E2E2F5E2E2E2F5F5EFF5E2E2E2F5E2E2E2E2E2E2E2E2E2E2E2E2E2E2E2E2F5E2E2E2E2E2E2E2E2E2E2E2E2E2E2E2E2E2E2E2E2E2E2E2E2E2E2E2E2E2DCE2E2E2E2E2E2E2E2E2E2272727272727272727272727272727E2E2E2
310
E2E2E2E2E2E2E2E2E2E2E2E2E2E2E2E2E2E2E2E2E2E2E2E2E2E2E2E2E2E2E2E2E2E2E2E2E2E2E2E2E2E2E2E2E2E2DCE2E2E2E2E2E2E2E2E2E2E2E2E2E2E2E2E2E2E2E2E2E2E2E2E2E2E2E2E2F5E2E2E2E2E2E2E2E2E2E2E2E2E2E2E2E2F5E2E2E2F5F5EFF5E2E2E2E2E2E2E2E2E2E2E2E2E2E2E2E2E2E2E2E2F5E2E2E2E2E2
310
E2E2E2E2E2E2E2E2E2E2E2E2E2E2E2E2E2E2E2E2E2E2E2E2DCE2E2E2E2E2E2E2E2E2E2272727272727272727272727272727E2E2E2E2E2E2E2E2E2E2E2E2E2E2E2E2E2E2E2E2E2E2E2E2E2E2E2E2E2E2E2E2E2E2E2E2E2E2E2E2E2E2E2E2E2E2E2E2E2DCE2E2E2E2E2E2E2E2E2E2E2E2E2E2E2E2E2E2E2E2E2E2E2E2E2E2E2
310
E2E2F5E2E2E2E2E2E2E2E2E2E2E2E2E2E2E2E2E2E2E2E2F5F5EFF5E2E2E2E2E2E2E2E2E2E2E2E2E2E2E2E2E2E2E2E2F5E2E2E2E2E2E2E2E2E2E2E2E2E2E2E2E2E2E2E2E2E2E2E2E2E2E2E2E2E2DCE2E2E2E2E2E2E2E2E2E2E2E2E2E2E2E2E2E2E2E2E2E2E2E2E2E2E2E2E2E2E2E2E2E2E2E2E2E2E2E2E2E2E2E2E2E2E2E2E2
310
E2E2E2E2E2E2E2E2E2E2E2E2E2E2E2E2E2E2E2E2E2E2E2E2E2DCE2E2E2E2E2E2E2E2E2E2E2E2E2E2E2E2E2E2E2E2E2E2E2E2E2E2E2E2E2F5E2E2E2E2E2E2E2E2E2E2E2E2E2E2E2E2E2E2E2E2F5F5EFF5E2E2E2E2E2E2E2E2E2E2E2E2E2E2E2E2E2E2E2E2F5E2E2E2E2E2E2E2E2E2E2E2E2E2E2E2E2E2E2E2E2E2E2E2E2E2E2
310
E2E2E2DCE2E2E2E2E2E2E2E2E2E2E2E2E2E2E2E2E2E2E2E2E2E2E2E2E2E2E2E2E2E2E2E2E2E2E2E2E2E2E2E2E2E2E2E2E2E2E2E2E2E2E2E2E2E2E2E2E2E2E2E2E2E2E2E2E2E2E2E2E2E2E2E2E2E2DCE2E2E2E2E2E2E2E2E2E2E2E2E2E2E2E2E2E2E2E2E2E2E2E2E2E2E2E2E2F5E2E2E2E2E2E2E2E2E2E2E2E2E2E2E2E2E2E2
310
E2E2F5F5EFF5E2E2E2E2E2E2E2E2E2E2E2E2E2E2E2E2E2E2E2E2F5E2E2E2E2E2E2E2E2E2E2E2E2E2E2E2E2E2E2E2E2E2E2E2E2E2E2E2E2E2DCE2E2E2E2E2E2E2E2E2E2E2E2E2E2E2E2E2E2E2E2E2E2E2E2E2E2E2E2E2E2E2E2E2E2E2E2E2E2E2E2E2E2E2E2E2E2E2E2E2E2E2E2E2E2E2E2E2E2E2E2E2E2E2E2E2E2E2E2E2E2
310
E2E2E2E2DCE2E2E2E2E2E2E2E2E2E2E2E2E2E2E2E2E2E2E2E2E2E2E2E2E2E2E2E2E2F5E2E2E2E2E2E2E2E2E2E2E2E2E2E2E2E2E2E2E2E2F5F5EFF5E2E2E2E2E2E2E2E2E2E2E2E2E2E2E2E2E2E2E2E2F5F5F5F5F5F5F5F5F5F5F5F5F5F5F5F5F5F5F5F5F5F5F5F5F5F5F5F5F5F5F5F5F5F5F5F5F5F5F5F5F5F5F5F5F5F5F5F5
310
F5F5F5F5F5F5F5F5F5F5F5F5F5F5F5F5F5F5F5F5F5F5F5F5F5F5F5F5F5F5F5F5F5F5F5F5F5F5F5F5F5F5F5F5F5F5F5F5F5F5F5F5F5F5F5F5F5F5F5F5F5F5F5F5F5F5F5F5F5F5F5F5F5F5F5F5F5F5F5F5F5F5F5F5F5F5F5F5E2E2E2E2E2E2E2E2E2E2E2E2E2E2E2E2E2E2E2E2F5F5EFF5E2E2E2E2E2E2E2E2E2E2E2E2E2E2E2
310
E2E2E2E2E2E2E2E2E2E2E2E2E2E2E2E2E2E2E2E2E2E2E2E2E2E2E2E2E2E2E2E2E2E2E2E2E2E2E2E2E2E2E2E2E2E2E2E2E2E2E2E2E2E2E2E2E2E2E2E2E2E2E2E2E2E2E2E2E2E2E2E2E2E2E2E2E2E2E2E2E2E2E2E2E2E2E2E2E2E2E2E2E2E2E2E2E2E2E2E2E2E2E2E2E2E2E2E2E2E2E2E2E2E2E2E2E2E2E2E2E2E2E2E2E2E2E2
310
E2E2E2E2E2E2E2E2E2E2E2E2E2E2E2E2E2E2E2E2E2E2E2E2E2E2E2E2E2E2E2E2E2E2F5F5EFF5E2E2E2E2E2E2E2E2E2E2E2E2E2E2E2E2E2E2E2E2E2E2E2E2E2E2E2E2E2E2E2E2E2E2E2E2E2E2E2E2E2E2E2E2E2E2E2E2E2E2E2E2E2E2E2E2E2E2E2E2E2E2E2E2E2E2E2E2E2E2E2E2E2E2E2E2E2E2E2E2E2E2E2E2E2E2E2E2E2
310
E2E2E2E2E2E2E2E2E2E2E2E2E2E2E2E2E2E2E2E2E2E2E2E2E2E2E2E2E2E2E2E2E2E2E2E2E2E2E2E2E2E2E2E2E2E2E2E2E2E2E2E2E2E2E2E2E2E2E2E2E2E2E2E2E2E2E2E2E2E2E2E2E2E2E2E2E2E2E2E2E2E2E2E2E2E2E2F5F5EFF5E2E2E2E2E2E2E2E2E2E2E2E2E2E2E2E2E2E2E2E2E2E2E2E2E2E2E2E2E2E2E2E2E2E2E2E2
310
E2E2E2E2E2E2E2E2E2E2E2E2E2E2E2E2E2E2E2E2E2E2E2E2E2E2E2E2E2E2E2E2E2E2E2E2E2E2E2E2E2E2E2E2E2E2E2E2E2E2E2E2E2E2E2E2E2E2E2E2E2E2E2E2E2E2E2E2E2E2E2E2E2E2E2E2E2E2E2E2E2E2E2E2E2E2E2E2E2E2E2E2E2E2E2E2E2E2E2E2E2E2E2E2E2E2E2E2E2E2E2E2E2E2E2E2E2E2E2E2E2E2E2E2E2E2E2
310
E2E2E2E2E2E2E2E2E2E2E2E2E2F5F5EFF5E2E2E2E2E2E2E2E2E2E2E2E2E2E2E2E2E2E2E2E2E2E2E2E2E2E2E2E2E2E2E2E2E2E2E2E2E2E2E2E2E2E2E2E2E2E2E2E2E2E2E2E2E2E2E2E2E2E2E2E2E2E2E2E2E2E2E2E2E2E2E2E2E2E2E2E2E2E2E2E2E2E2E2E2E2E2E2E2E2E2E2E2E2E2E2E2E2E2E2E2E2E2E2E2E2E2E2E2E2E2
310
E2E2E2E2E2E2E2E2E2E2E2E2E2E2E2E2E2E2E2E2E2E2E2E2E2E2E2E2E2E2E2E2E2E2E2E2E2E2E2E2E2E2E2E2E2E2E2E2E2E2E2E2E2E2E2E2E2E2E2E2E2E2E2E2E2E2F5F5EFF5E2E2E2F5E2E2E2E2E2E2E2E2E2E2E2E2E2E2E2E2E2E2E2E2E2E2E2E2E2E2E2E2E2E2E2E2E2E2E2E2E2E2E2E2E2E2E2E2E2E2E2E2E2E2E2E2E2
310
E2E2E2E2E2E2E2E2E2E2E2E2E2E2E2E2E2E2E2E2E2E2E2E2E2E2E2E2E2E2E2E2E2E2E2E2E2E2E2E2E2E2E2E2E2E2E2E2E2E2E2E2E2E2E2E2E2E2E2E2E2E2E2E2E2E2E2E2E2E2E2E2E2E2E2E2E2E2E2E2E2E2E2E2E2E2E2E2E2E2E2E2E2E2E2E2E2E2E2E2E2E2E2E2E2E2E2E2E2E2E2E2E2E2E2F5E2E2E2F5F5EFF5E2E2E2F5
310
E2E2E2E2E2E2E2E2E2E2E2E2E2E2E2E2E2E2E2E2E2E2E2E2E2E2E2E2E2E2E2E2E2E2E2E2E2E2E2E2E2E2E2E2E2E2E2E2E2E2E2E2E2E2E2E2E2E2E2E2E2E2E2E2E2E2E2E2E2E2E2E2E2E2E2E2E2E2E2E2E2E2E2E2E2E2E2E2E2E2E2E2E2E2E2E2E2E2E2E2E2E2E2E2E2E2E2E2E2E2E2E2E2E2E2E2E2E2E2E2E2E2E2E2E2E2E2
310
E2E2E2E2E2E2E2E2E2E2E2E2E2E2E2E2E2E2E2E2E2E2E2E2E2E2E2E2E2E2E2E2E2E2E2E2E2E2E2E2E2F5E2E2E2F5F5EFF5E2E2E2F5E2E2E2E2E2E2E2E2E2E2E2E2E2E2E2E2E2E2E2E2E2E2E2E2E2E2E2E2E2E2E2E2E2E2E2E2E2E2E2E2E2E2E2E2E2E2E2E2E2E2E2E2E2E2E2E2E2E2E2E2E2E2E2E2E2E2E2E2E2E2E2E2E2E2
310
E2E2E2E2E2E2E2E2E2E2E2E2E2E2E2E2E2E2E2E2E2E2E2E2E2E2E2E2E2E2E2E2E2E2E2E2E2E2E2E2E2E2E2E2E2E2E2E2E2E2E2E2E2E2E2E2E2E2E2E2E2E2E2E2E2E2E2E2E2E2E2E2E2E2E2E2E2E2E2E2E2E2E2E2E2E2E2E2E2E2E2E2E2E2F5E2E2E2F5F5EFF5E2E2E2F5E2E2E2E2E2E2E2E2E2E2E2E2E2E2E2E2E2E2E2E2E2
310
E2E2E2E2E2E2E2E2E2E2E2E2E2E2E2E2E2E2E2E2E2E2E2E2E2E2E2E2E2E2E2E2E2E2E2E2E2E2E2E2E2E2E2E2E2E2E2E2E2E2E2E2E2E2E2E2E2E2E2E2E2E2E2E2E2E2E2E2E2E2E2E2E2E2E2E2E2E2E2E2E2E2E2E2E2E2E2E2E2E2E2E2E2E2E2E2E2E2E2E2E2E2E2E2E2E2E2E2E2E2E2E2E2E2E2E2E2E2E2E2E2E2E2E2E2E2E2
310
E2E2E2E2E2E2E2E2E2E2E2E2E2E2E2E2E2E2E2E2F5E2E2E2F5F5EFF5E2E2E2F5E2E2E2E2E2E2E2E2E2E2E2E2E2E2E2E2E2E2E2E2E2E2E2E2E2E2E2E2E2E2E2E2E2E2E2E2E2E2E2E2E2E2E2E2E2E2E2E2E2E2E2E2E2E2E2E2E2E2E2E2E2E2E2E2E2E2E2E2E2E2E2E2E2E2E2E2E2E2E2E2E2E2E2E2E2E2E2E2E2E2E2E2E2E2E2
310
E2E2E2E2E2E2E2E2E2E2E2E2E2E2E2E2E2E2E2E2E2E2E2E2E2E2E2E2E2E2E2E2E2E2E2E2E2E2E2E2E2E2E2E2E2E2E2E2E2E2E2E2E2E2E2E2E2E2E2E2E2E2E2E2E2E2E2E2E2E2E2E2E2F5E2E2E2F5F5EFF5E2E2E2F5E2E2E2E2E2E2E2E2E2E2E2E2E2E2E2E2E2E2E2E2E2E2E2E2E2E2E2E2E2E2E2E2E2E2E2E2E2E2E2E2E2E2
310
E2E2E2E2E2E2E2E2E2E2E2E2E2E2E2E2E2E2E2E2E2E2E2E2E2E2E2E2E2E2E2E2E2E2E2E2E2E2E2E2E2E2E2E2E2E2E2E2E2E2E2E2E2E2E2E2E2E2E2E2E2E2E2E2E2E2E2E2E2E2E2E2E2E2E2E2E2E2E2E2E2E2E2E2E2E2E2E2E2E2E2E2E2E2E2E2E2E2E2E2E2E2E2E2E2E2E2E2E2E2E2E2E2E2E2E2E2E2E2E2E2E2E2E2E2E2F5
310
E2E2E2F5F5EFF5E2E2E2F5E2E2E2E2E2E2E2E2E2E2E2E2E2E2E2E2E2E2E2E2E2E2E2E2E2E2E2E2E2E2E2E2E2E2E2E2E2E2E2E2E2E2E2E2E2E2E2E2E2E2E2E2E2E2E2E2E2E2E2E2E2E2E2E2E2E2E2E2E2E2E2E2E2E2E2E2E2E2E2E2E2E2E2E2E2E2E2E2E2E2E2E2E2E2E2E2E2E2E2E2E2E2E2E2E2E2E2E2E2E2E2E2E2E2E2E2
310
E2E2E2E2E2E2E2E2E2E2E2E2E2E2E2E2E2E2E2E2E2E2E2E2E2E2E2E2E2E2E2E2E2E2E2E2E2E2E2E2E2E2E2E2E2E2E2E2E2E2E2E2F5E2E2E2F5F5EFF5E2E2E2F5E2E2E2E2E2E2E2E2E2E2E2E2E2E2E2E2E2E2E2E2E2E2E2E2E2E2E2E2E2E2E2E2E2E2E2E2E2E2E2E2E2E2E2E2E2E2E2E2E2E2E2E2E2E2E2E2E2E2E2E2E2E2E2
310
E2E2E2E2E2E2E2E2E2E2E2E2E2E2E2E2E2E2E2E2E2E2E2E2E2E2E2E2E2E2E2E2E2E2E2E2E2E2E2E2E2E2E2E2E2E2E2E2E2E2E2E2E2E2E2E2E2E2E2E2E2E2E2E2E2E2E2E2E2E2E2E2E2E2E2E2E2E2E2E2E2E2E2E2E2E2E2E2E2E2E2E2E2E2E2E2E2E2E2E2E2E2E2E2E2F5E2E2E2F5F5EFF5E2E2E2F5F5F5F5F5F5F5F5E2E2E2
310
E2E2E2E2E2E2F5F5F5F5F5F5F5F5F5F5F5F5F5F5F5E2E2E2E2E2E2E2E2E2F5F5F5F5F5F5F5F5F5F5F5F5F5F5F5F5E2E2E2E2E2E2E2E2F5F5F5F5F5F5F5F5F5F5F5F5F5F5F5F5E2E2E2E2E2E2E2E2F5F5F5F5F5F5F5F5F5F5F5F5F5F5F5F5E2E2E2E2E2E2E2E2F5F5F5F5F5F5F5F5F5F5F5F5F5F5F5F5E2E2E2E2E2E2E2E2E2
310
F5F5F5F5F5F5F5F5F5F5F5F5F5F5F5E2E2E2E2E2E2E2E2E2F5F5F5F5F5F5F5F5E2E2E2F5F5EFF5E2E2E2E2E2E2E2E2E2E2E2E2E2E2E2E2E2E2E2E2E2E2E2E2E2E2E2E2E2E2E2E2E2E2E2E2E2E2E2E2E2E2E2E2E2E2E2E2E2E2E2E2E2E2E2E2E2E2E2E2E2E2E2E2E2E2E2E2E2E2E2E2E2E2E2E2E2E2E2E2E2E2E2E2E2E2E2E2
310
E2E2E2E2E2E2E2E2E2E2E2E2E2E2E2E2E2E2E2E2E2E2E2E2E2E2E2E2E2E2E2E2E2E2E2E2E2E2E2E2E2E2E2E2E2E2E2E2E2E2E2E2E2E2E2E2E2E2E2E2E2E2E2E2E2E2E2E2E2E2E2E2E2E2E2E2E2E2E2E2E2E2E2E2E2E2E2E2F5F5EFF5E2E2E2E2E2E2E2E2E2E2E2E2E2E2E2E2E2E2E2E2E2E2E2E2E2E2E2E2E2E2E2E2E2E2E2
310
E2E2E2E2E2E2E2E2E2E2E2E2E2E2E2E2E2E2E2E2E2E2E2E2E2E2E2E2E2E2E2E2E2E2E2E2E2E2E2E2E2E2E2E2E2E2E2E2E2E2E2E2E2E2E2E2E2E2E2E2E2E2E2E2E2E2E2E2E2E2E2E2E2E2E2E2E2E2E2E2E2E2E2E2E2E2E2E2E2E2E2E2E2E2E2E2E2E2E2E2E2E2E2E2E2E2E2E2E2E2E2E2E2E2E2E2E2E2E2E2E2E2E2E2E2E2E2
310
E2E2E2E2E2E2E2E2E2E2E2E2E2E2F5EFEFF5E2E2E2E2E2E2E2E2E2E2E2E2E2E2E2E2E2E2E2E2E2E2E2E2E2E2E2E2E2E2E2E2E2E2E2E2E2E2E2E2E2E2E2E2E2E2E2E2E2E2E2E2E2E2E2E2E2E2E2E2E2E2E2E2E2E2E2E2E2E2E2E2E2E2E2E2E2E2E2E2E2E2E2E2E2E2E2E2E2E2E2E2E2E2E2E2E2E2E2E2E2E2E2E2E2E2E2E2E2
310
E2E2E2E2E2E2E2E2E2E2E2E2E2E2E2E2E2E2E2E2E2E2E2E2E2E2E2E2E2E2E2E2E2E2E2E2E2E2E2E2E2E2E2E2E2E2E2E2E2E2E2E2E2E2E2E2E2E2E2E2E2E2E2E2E2E2E2F5EFEFF5F5F5F5F5F5F5F5F5F5F5F5F5F5F5F5F5F5F5F5F5F5F5F5F5F5F5F5F5F5F5F5F5F5F5F5F5F5F5F5F5F5F5F5F5F5F5F5F5F5F5F5F5F5F5F5F5
310
F5F5F5F5F5F5F5F5F5F5F5F5F5F5F5F5F5F5F5F5F5F5F5F5F5F5F5F5F5F5F5F5F5F5F5F5F5F5F5F5F5F5F5F5F5F5F5F5F5F5F5F5F5F5F5F5F5F5F5F5F5F5F5F5F5F5F5F5F5F5F5F5F5F5F5F5F5F5F5F5F5F5F5F5F5F5F5F5F5F5F5F5F5F5F5F5F5F5F5F5F5F5F5F5F5F5F5F5F5F5F5F5F5F5F5F5F5F5F5F5F5EFEF
  0
XRECORD
  5
1F7
102
{ACAD_REACTORS
330
1F6
102
}
330
1F6
100
AcDbXrecord
280
     1
102
SHADEPLOT
 70
     1
102
SHADEPLOTRESLEVEL
 70
     2
102
SHADEPLOTCUSTOMDPI
 70
   300
  0
XRECORD
  5
200
102
{ACAD_REACTORS
330
1FF
102
}
330
1FF
100
AcDbXrecord
280
     1
102
MATERIAL
148
0.0
149
0.0
149
0.0
 93
        0
 94
       63
282
     0
 72
     1
 77
     1
171
     1
175
     1
179
     1
273
     0
  0
XRECORD
  5
1FE
102
{ACAD_REACTORS
330
1FD
102
}
330
1FD
100
AcDbXrecord
280
     1
102
MATERIAL
148
0.0
149
0.0
149
0.0
 93
        0
 94
       63
282
     0
 72
     1
 77
     1
171
     1
175
     1
179
     1
273
     0
  0
XRECORD
  5
1F1
102
{ACAD_REACTORS
330
1F0
102
}
330
1F0
100
AcDbXrecord
280
     1
102
MATERIAL
148
0.0
149
0.0
149
0.0
 93
        0
 94
       63
282
     0
 72
     1
 77
     1
171
     1
175
     1
179
     1
273
     0
  0
CELLSTYLEMAP
  5
1ED
102
{ACAD_REACTORS
330
191
102
}
330
191
100
AcDbCellStyleMap
 90
        3
300
CELLSTYLE
  1
TABLEFORMAT_BEGIN
 90
        5
170
     1
 91
        0
 92
    32768
 62
   257
 93
        1
300
CONTENTFORMAT
  1
CONTENTFORMAT_BEGIN
 90
        0
 91
        0
 92
        4
 93
        0
300

 40
0.0
140
1.0
 94
        5
 62
     0
340
17A
144
0.25
309
CONTENTFORMAT_END
171
     0
 94
        6
 95
        1
302
GRIDFORMAT
  1
GRIDFORMAT_BEGIN
 90
        0
 91
        1
 62
     0
 92
       -2
340
0
 93
        0
 40
0.045
309
GRIDFORMAT_END
 95
        2
302
GRIDFORMAT
  1
GRIDFORMAT_BEGIN
 90
        0
 91
        1
 62
     0
 92
       -2
340
0
 93
        0
 40
0.045
309
GRIDFORMAT_END
 95
        4
302
GRIDFORMAT
  1
GRIDFORMAT_BEGIN
 90
        0
 91
        1
 62
     0
 92
       -2
340
0
 93
        0
 40
0.045
309
GRIDFORMAT_END
 95
        8
302
GRIDFORMAT
  1
GRIDFORMAT_BEGIN
 90
        0
 91
        1
 62
     0
 92
       -2
340
0
 93
        0
 40
0.045
309
GRIDFORMAT_END
 95
       16
302
GRIDFORMAT
  1
GRIDFORMAT_BEGIN
 90
        0
 91
        1
 62
     0
 92
       -2
340
0
 93
        0
 40
0.045
309
GRIDFORMAT_END
 95
       32
302
GRIDFORMAT
  1
GRIDFORMAT_BEGIN
 90
        0
 91
        1
 62
     0
 92
       -2
340
0
 93
        0
 40
0.045
309
GRIDFORMAT_END
309
TABLEFORMAT_END
  1
CELLSTYLE_BEGIN
 90
        1
 91
        1
300
_TITLE
309
CELLSTYLE_END
300
CELLSTYLE
  1
TABLEFORMAT_BEGIN
 90
        5
170
     1
 91
        0
 92
        0
 62
   257
 93
        1
300
CONTENTFORMAT
  1
CONTENTFORMAT_BEGIN
 90
        0
 91
        0
 92
        4
 93
        0
300

 40
0.0
140
1.0
 94
        5
 62
     0
340
17A
144
0.18
309
CONTENTFORMAT_END
171
     0
 94
        6
 95
        1
302
GRIDFORMAT
  1
GRIDFORMAT_BEGIN
 90
        0
 91
        1
 62
     0
 92
       -2
340
0
 93
        0
 40
0.045
309
GRIDFORMAT_END
 95
        2
302
GRIDFORMAT
  1
GRIDFORMAT_BEGIN
 90
        0
 91
        1
 62
     0
 92
       -2
340
0
 93
        0
 40
0.045
309
GRIDFORMAT_END
 95
        4
302
GRIDFORMAT
  1
GRIDFORMAT_BEGIN
 90
        0
 91
        1
 62
     0
 92
       -2
340
0
 93
        0
 40
0.045
309
GRIDFORMAT_END
 95
        8
302
GRIDFORMAT
  1
GRIDFORMAT_BEGIN
 90
        0
 91
        1
 62
     0
 92
       -2
340
0
 93
        0
 40
0.045
309
GRIDFORMAT_END
 95
       16
302
GRIDFORMAT
  1
GRIDFORMAT_BEGIN
 90
        0
 91
        1
 62
     0
 92
       -2
340
0
 93
        0
 40
0.045
309
GRIDFORMAT_END
 95
       32
302
GRIDFORMAT
  1
GRIDFORMAT_BEGIN
 90
        0
 91
        1
 62
     0
 92
       -2
340
0
 93
        0
 40
0.045
309
GRIDFORMAT_END
309
TABLEFORMAT_END
  1
CELLSTYLE_BEGIN
 90
        2
 91
        1
300
_HEADER
309
CELLSTYLE_END
300
CELLSTYLE
  1
TABLEFORMAT_BEGIN
 90
        5
170
     1
 91
        0
 92
        0
 62
   257
 93
        1
300
CONTENTFORMAT
  1
CONTENTFORMAT_BEGIN
 90
        0
 91
        0
 92
        4
 93
        0
300

 40
0.0
140
1.0
 94
        2
 62
     0
340
17A
144
0.18
309
CONTENTFORMAT_END
171
     0
 94
        6
 95
        1
302
GRIDFORMAT
  1
GRIDFORMAT_BEGIN
 90
        0
 91
        1
 62
     0
 92
       -2
340
0
 93
        0
 40
0.045
309
GRIDFORMAT_END
 95
        2
302
GRIDFORMAT
  1
GRIDFORMAT_BEGIN
 90
        0
 91
        1
 62
     0
 92
       -2
340
0
 93
        0
 40
0.045
309
GRIDFORMAT_END
 95
        4
302
GRIDFORMAT
  1
GRIDFORMAT_BEGIN
 90
        0
 91
        1
 62
     0
 92
       -2
340
0
 93
        0
 40
0.045
309
GRIDFORMAT_END
 95
        8
302
GRIDFORMAT
  1
GRIDFORMAT_BEGIN
 90
        0
 91
        1
 62
     0
 92
       -2
340
0
 93
        0
 40
0.045
309
GRIDFORMAT_END
 95
       16
302
GRIDFORMAT
  1
GRIDFORMAT_BEGIN
 90
        0
 91
        1
 62
     0
 92
       -2
340
0
 93
        0
 40
0.045
309
GRIDFORMAT_END
 95
       32
302
GRIDFORMAT
  1
GRIDFORMAT_BEGIN
 90
        0
 91
        1
 62
     0
 92
       -2
340
0
 93
        0
 40
0.045
309
GRIDFORMAT_END
309
TABLEFORMAT_END
  1
CELLSTYLE_BEGIN
 90
        3
 91
        2
300
_DATA
309
CELLSTYLE_END
  0
XRECORD
  5
201
102
{ACAD_REACTORS
330
191
102
}
330
191
100
AcDbXrecord
280
     1
102
ACAD_ROUNDTRIP_PRE2007_TABLESTYLE
 90
        4
 91
        0
  1

 92
        4
 93
        0
  2

 94
        4
 95
        0
  3

  0
ENDSEC
  0
EOF
