  0
SECTION
  2
HEADER
  9
$ACADVER
  1
AC1015
  9
$ACADMAINTVER
 70
    20
  9
$DWGCODEPAGE
  3
ANSI_1250
  9
$INSBASE
 10
0.0
 20
0.0
 30
0.0
  9
$EXTMIN
 10
14830.4407606986
 20
-10811.5725621928
 30
-0.0000000000090115
  9
$EXTMAX
 10
25030.44076069864
 20
3208.427437807201
 30
0.0000000000039257
  9
$LIMMIN
 10
0.0
 20
0.0
  9
$LIMMAX
 10
420.0
 20
297.0
  9
$ORTHOMODE
 70
     0
  9
$REGENMODE
 70
     1
  9
$FILLMODE
 70
     1
  9
$QTEXTMODE
 70
     0
  9
$MIRRTEXT
 70
     0
  9
$LTSCALE
 40
75.0
  9
$ATTMODE
 70
     1
  9
$TEXTSIZE
 40
20.0
  9
$TRACEWID
 40
1.0
  9
$TEXTSTYLE
  7
ROMANS
  9
$CLAYER
  8
0Wymiary-PL
  9
$CELTYPE
  6
ByLayer
  9
$CECOLOR
 62
   256
  9
$CELTSCALE
 40
1.0
  9
$DISPSILH
 70
     0
  9
$DIMSCALE
 40
1.0
  9
$DIMASZ
 40
30.0
  9
$DIMEXO
 40
43.0
  9
$DIMDLI
 40
0.0
  9
$DIMRND
 40
0.5
  9
$DIMDLE
 40
12.0
  9
$DIMEXE
 40
13.0
  9
$DIMTP
 40
0.0
  9
$DIMTM
 40
0.0
  9
$DIMTXT
 40
80.0
  9
$DIMCEN
 40
0.0
  9
$DIMTSZ
 40
0.0
  9
$DIMTOL
 70
     0
  9
$DIMLIM
 70
     0
  9
$DIMTIH
 70
     0
  9
$DIMTOH
 70
     0
  9
$DIMSE1
 70
     1
  9
$DIMSE2
 70
     1
  9
$DIMTAD
 70
     0
  9
$DIMZIN
 70
    12
  9
$DIMBLK
  1
B-DIM
  9
$DIMASO
 70
     1
  9
$DIMSHO
 70
     1
  9
$DIMPOST
  1

  9
$DIMAPOST
  1

  9
$DIMALT
 70
     0
  9
$DIMALTD
 70
     2
  9
$DIMALTF
 40
25.4
  9
$DIMLFAC
 40
1.0
  9
$DIMTOFL
 70
     1
  9
$DIMTVP
 40
1.0
  9
$DIMTIX
 70
     1
  9
$DIMSOXD
 70
     0
  9
$DIMSAH
 70
     0
  9
$DIMBLK1
  1

  9
$DIMBLK2
  1

  9
$DIMSTYLE
  2
500
  9
$DIMCLRD
 70
     1
  9
$DIMCLRE
 70
     1
  9
$DIMCLRT
 70
   140
  9
$DIMTFAC
 40
1.0
  9
$DIMGAP
 40
0.0
  9
$DIMJUST
 70
     0
  9
$DIMSD1
 70
     0
  9
$DIMSD2
 70
     0
  9
$DIMTOLJ
 70
     1
  9
$DIMTZIN
 70
     0
  9
$DIMALTZ
 70
     0
  9
$DIMALTTZ
 70
     0
  9
$DIMUPT
 70
     0
  9
$DIMDEC
 70
     1
  9
$DIMTDEC
 70
     1
  9
$DIMALTU
 70
     2
  9
$DIMALTTD
 70
     2
  9
$DIMTXSTY
  7
ROMANS
  9
$DIMAUNIT
 70
     0
  9
$DIMADEC
 70
     0
  9
$DIMALTRND
 40
0.0
  9
$DIMAZIN
 70
     0
  9
$DIMDSEP
 70
    46
  9
$DIMATFIT
 70
     3
  9
$DIMFRAC
 70
     0
  9
$DIMLDRBLK
  1
B-DIM
  9
$DIMLUNIT
 70
     2
  9
$DIMLWD
 70
    -2
  9
$DIMLWE
 70
    -2
  9
$DIMTMOVE
 70
     2
  9
$LUNITS
 70
     2
  9
$LUPREC
 70
     1
  9
$SKETCHINC
 40
1.0
  9
$FILLETRAD
 40
0.0
  9
$AUNITS
 70
     0
  9
$AUPREC
 70
     0
  9
$MENU
  1
.
  9
$ELEVATION
 40
0.0
  9
$PELEVATION
 40
0.0
  9
$THICKNESS
 40
0.0
  9
$LIMCHECK
 70
     0
  9
$CHAMFERA
 40
0.0
  9
$CHAMFERB
 40
0.0
  9
$CHAMFERC
 40
20.0
  9
$CHAMFERD
 40
0.0
  9
$SKPOLY
 70
     0
  9
$TDCREATE
 40
2452027.670547454
  9
$TDUCREATE
 40
2452027.587214120
  9
$TDUPDATE
 40
2455043.548442743
  9
$TDUUPDATE
 40
2455043.465109410
  9
$TDINDWG
 40
8.1686792593
  9
$TDUSRTIMER
 40
8.1686792593
  9
$USRTIMER
 70
     1
  9
$ANGBASE
 50
0.0
  9
$ANGDIR
 70
     0
  9
$PDMODE
 70
     0
  9
$PDSIZE
 40
0.0
  9
$PLINEWID
 40
0.0
  9
$SPLFRAME
 70
     0
  9
$SPLINETYPE
 70
     6
  9
$SPLINESEGS
 70
     8
  9
$HANDSEED
  5
E49
  9
$SURFTAB1
 70
     6
  9
$SURFTAB2
 70
     6
  9
$SURFTYPE
 70
     6
  9
$SURFU
 70
     6
  9
$SURFV
 70
     6
  9
$UCSBASE
  2

  9
$UCSNAME
  2

  9
$UCSORG
 10
0.0
 20
0.0
 30
0.0
  9
$UCSXDIR
 10
1.0
 20
0.0
 30
0.0
  9
$UCSYDIR
 10
0.0
 20
1.0
 30
0.0
  9
$UCSORTHOREF
  2

  9
$UCSORTHOVIEW
 70
     0
  9
$UCSORGTOP
 10
0.0
 20
0.0
 30
0.0
  9
$UCSORGBOTTOM
 10
0.0
 20
0.0
 30
0.0
  9
$UCSORGLEFT
 10
0.0
 20
0.0
 30
0.0
  9
$UCSORGRIGHT
 10
0.0
 20
0.0
 30
0.0
  9
$UCSORGFRONT
 10
0.0
 20
0.0
 30
0.0
  9
$UCSORGBACK
 10
0.0
 20
0.0
 30
0.0
  9
$PUCSBASE
  2

  9
$PUCSNAME
  2

  9
$PUCSORG
 10
0.0
 20
0.0
 30
0.0
  9
$PUCSXDIR
 10
1.0
 20
0.0
 30
0.0
  9
$PUCSYDIR
 10
0.0
 20
1.0
 30
0.0
  9
$PUCSORTHOREF
  2

  9
$PUCSORTHOVIEW
 70
     0
  9
$PUCSORGTOP
 10
0.0
 20
0.0
 30
0.0
  9
$PUCSORGBOTTOM
 10
0.0
 20
0.0
 30
0.0
  9
$PUCSORGLEFT
 10
0.0
 20
0.0
 30
0.0
  9
$PUCSORGRIGHT
 10
0.0
 20
0.0
 30
0.0
  9
$PUCSORGFRONT
 10
0.0
 20
0.0
 30
0.0
  9
$PUCSORGBACK
 10
0.0
 20
0.0
 30
0.0
  9
$USERI1
 70
     0
  9
$USERI2
 70
     0
  9
$USERI3
 70
     0
  9
$USERI4
 70
     0
  9
$USERI5
 70
     0
  9
$USERR1
 40
0.0
  9
$USERR2
 40
0.0
  9
$USERR3
 40
0.0
  9
$USERR4
 40
0.0
  9
$USERR5
 40
0.0
  9
$WORLDVIEW
 70
     1
  9
$SHADEDGE
 70
     3
  9
$SHADEDIF
 70
    70
  9
$TILEMODE
 70
     1
  9
$MAXACTVP
 70
    64
  9
$PINSBASE
 10
0.0
 20
0.0
 30
0.0
  9
$PLIMCHECK
 70
     0
  9
$PEXTMIN
 10
1.000000000000000E+20
 20
1.000000000000000E+20
 30
1.000000000000000E+20
  9
$PEXTMAX
 10
-1.000000000000000E+20
 20
-1.000000000000000E+20
 30
-1.000000000000000E+20
  9
$PLIMMIN
 10
0.0
 20
0.0
  9
$PLIMMAX
 10
420.0
 20
297.0
  9
$UNITMODE
 70
     0
  9
$VISRETAIN
 70
     1
  9
$PLINEGEN
 70
     0
  9
$PSLTSCALE
 70
     1
  9
$TREEDEPTH
 70
  3020
  9
$CMLSTYLE
  2
Standard
  9
$CMLJUST
 70
     0
  9
$CMLSCALE
 40
20.0
  9
$PROXYGRAPHICS
 70
     1
  9
$MEASUREMENT
 70
     0
  9
$CELWEIGHT
370
    -1
  9
$ENDCAPS
280
     0
  9
$JOINSTYLE
280
     0
  9
$LWDISPLAY
290
     0
  9
$INSUNITS
 70
     5
  9
$HYPERLINKBASE
  1

  9
$STYLESHEET
  1
monochrome_140.ctb
  9
$XEDIT
290
     1
  9
$CEPSNTYPE
380
     0
  9
$PSTYLEMODE
290
     1
  9
$FINGERPRINTGUID
  2
{5D32C69A-CBA2-4D5C-B428-77949FAB80F0}
  9
$VERSIONGUID
  2
{977AB620-46A0-4C82-987E-38F5438D578D}
  9
$EXTNAMES
290
     1
  9
$PSVPSCALE
 40
0.0
  9
$OLESTARTUP
290
     0
  0
ENDSEC
  0
SECTION
  2
CLASSES
  0
CLASS
  1
ACDBDICTIONARYWDFLT
  2
AcDbDictionaryWithDefault
  3
ObjectDBX Classes
 90
        0
280
     0
281
     0
  0
CLASS
  1
ACDBPLACEHOLDER
  2
AcDbPlaceHolder
  3
ObjectDBX Classes
 90
        0
280
     0
281
     0
  0
CLASS
  1
LAYOUT
  2
AcDbLayout
  3
ObjectDBX Classes
 90
        0
280
     0
281
     0
  0
CLASS
  1
DICTIONARYVAR
  2
AcDbDictionaryVar
  3
ObjectDBX Classes
 90
        0
280
     0
281
     0
  0
CLASS
  1
SORTENTSTABLE
  2
AcDbSortentsTable
  3
ObjectDBX Classes
 90
        0
280
     0
281
     0
  0
CLASS
  1
AEC_VARS_DWG_SETUP
  2
AecDbVarsDwgSetup
  3
AecBase50|Product Desc: Autodesk Architectural Desktop 2007 |Company: Autodesk,Inc. |WEB Address: www.autodesk.com
 90
    32897
280
     0
281
     0
  0
CLASS
  1
AEC_DISP_REP_CONFIG
  2
AecDbDispRepConfig
  3
AecBase50|Product Desc: Autodesk Architectural Desktop 2007 |Company: Autodesk,Inc. |WEB Address: www.autodesk.com
 90
    32897
280
     0
281
     0
  0
CLASS
  1
AEC_DISP_REP_SET
  2
AecDbDispRepSet
  3
AecBase50|Product Desc: Autodesk Architectural Desktop 2007 |Company: Autodesk,Inc. |WEB Address: www.autodesk.com
 90
    32897
280
     0
281
     0
  0
CLASS
  1
AEC_DISP_REP_2D_SECTION
  2
AecDbDispRep2dSection
  3
AecBase50|Product Desc: Autodesk Architectural Desktop 2007 |Company: Autodesk,Inc. |WEB Address: www.autodesk.com
 90
    32897
280
     0
281
     0
  0
CLASS
  1
AEC_DISP_REP_ANCHOR_BUB_TO_GRID
  2
AecDbDispRepAnchorBubToGrid
  3
AecStructureBase50|Product Desc: Autodesk Architectural Desktop 2007 |Company: Autodesk,Inc. |WEB Address: www.autodesk.com
 90
    32897
280
     0
281
     0
  0
CLASS
  1
AEC_DISP_REP_ANCHOR_BUB_TO_GRID_MODEL
  2
AecDbDispRepAnchorBubToGridMdl
  3
AecStructureBase50|Product Desc: Autodesk Architectural Desktop 2007 |Company: Autodesk,Inc. |WEB Address: www.autodesk.com
 90
    32897
280
     0
281
     0
  0
CLASS
  1
AEC_DISP_REP_ANCHOR_ENT_TO_NODE
  2
AecDbDispRepAnchorEntToNode
  3
AecBaseEx50|Product Desc: Autodesk Architectural Desktop 2007 |Company: Autodesk,Inc. |WEB Address: www.autodesk.com
 90
    32897
280
     0
281
     0
  0
CLASS
  1
AEC_DISP_REP_ANCHOR_TAG_TO_ENT
  2
AecDbDispRepAnchorTagToEnt
  3
AecScheduleData50|Product Desc: Autodesk Architectural Desktop 2007 |Company: Autodesk,Inc. |WEB Address: www.autodesk.com
 90
    32897
280
     0
281
     0
  0
CLASS
  1
AEC_DISP_REP_AREA
  2
AecDbDispRepArea
  3
AecAreaCalculationBase50|Product Desc: Autodesk Architectural Desktop 2007 |Company: Autodesk,Inc. |WEB Address: www.autodesk.com
 90
    32897
280
     0
281
     0
  0
CLASS
  1
AEC_DISP_REP_AREA_DECOMPOSED
  2
AecDbDispRepAreaDecomposed
  3
AecAreaCalculationBase50|Product Desc: Autodesk Architectural Desktop 2007 |Company: Autodesk,Inc. |WEB Address: www.autodesk.com
 90
    32897
280
     0
281
     0
  0
CLASS
  1
AEC_DISP_REP_AREAGROUP
  2
AecDbDispRepAreaGroup
  3
AecAreaCalculationBase50|Product Desc: Autodesk Architectural Desktop 2007 |Company: Autodesk,Inc. |WEB Address: www.autodesk.com
 90
    32897
280
     0
281
     0
  0
CLASS
  1
AEC_DISP_REP_BDG_ELEVLINE_MODEL
  2
AecDbDispRepBdgElevLineModel
  3
AecArchBase50|Product Desc: Autodesk Architectural Desktop 2007 |Company: Autodesk,Inc. |WEB Address: www.autodesk.com
 90
    32897
280
     0
281
     0
  0
CLASS
  1
AEC_DISP_REP_BDG_SECTIONLINE_PLAN
  2
AecDbDispRepBdgElevLinePlan
  3
AecArchBase50|Product Desc: Autodesk Architectural Desktop 2007 |Company: Autodesk,Inc. |WEB Address: www.autodesk.com
 90
    32897
280
     0
281
     0
  0
CLASS
  1
AEC_DISP_REP_BDG_SECTIONLINE_MODEL
  2
AecDbDispRepBdgSectionLineModel
  3
AecArchBase50|Product Desc: Autodesk Architectural Desktop 2007 |Company: Autodesk,Inc. |WEB Address: www.autodesk.com
 90
    32897
280
     0
281
     0
  0
CLASS
  1
AEC_DISP_REP_BDG_SECTIONLINE_PLAN
  2
AecDbDispRepBdgSectionLinePlan
  3
AecArchBase50|Product Desc: Autodesk Architectural Desktop 2007 |Company: Autodesk,Inc. |WEB Address: www.autodesk.com
 90
    32897
280
     0
281
     0
  0
CLASS
  1
AEC_DISP_REP_BDG_SECTION_SUBDIV
  2
AecDbDispRepBdgSectionSubDiv
  3
AecArchBase50|Product Desc: Autodesk Architectural Desktop 2007 |Company: Autodesk,Inc. |WEB Address: www.autodesk.com
 90
    32897
280
     0
281
     0
  0
CLASS
  1
AEC_DISP_REP_CAMERA
  2
AecDbDispRepCamera
  3
AecBase50|Product Desc: Autodesk Architectural Desktop 2007 |Company: Autodesk,Inc. |WEB Address: www.autodesk.com
 90
    32897
280
     0
281
     0
  0
CLASS
  1
AEC_DISP_REP_CEILING_GRID
  2
AecDbDispRepCeilingGrid
  3
AecArchBase50|Product Desc: Autodesk Architectural Desktop 2007 |Company: Autodesk,Inc. |WEB Address: www.autodesk.com
 90
    33661
280
     0
281
     0
  0
CLASS
  1
AEC_DISP_REP_CEILING_GRID_MODEL
  2
AecDbDispRepCeilingGridModel
  3
AecArchBase50|Product Desc: Autodesk Architectural Desktop 2007 |Company: Autodesk,Inc. |WEB Address: www.autodesk.com
 90
    32897
280
     0
281
     0
  0
CLASS
  1
AEC_DISP_REP_CEILING_GRID_RCP
  2
AecDbDispRepCeilingGridRcp
  3
AecArchBase50|Product Desc: Autodesk Architectural Desktop 2007 |Company: Autodesk,Inc. |WEB Address: www.autodesk.com
 90
    32897
280
     0
281
     0
  0
CLASS
  1
AEC_DISP_REP_CLIP_VOLUME_MODEL
  2
AecDbDispRepClipVolModel
  3
AecBase50|Product Desc: Autodesk Architectural Desktop 2007 |Company: Autodesk,Inc. |WEB Address: www.autodesk.com
 90
    32897
280
     0
281
     0
  0
CLASS
  1
AEC_DISP_REP_CLIP_VOLUME_PLAN
  2
AecDbDispRepClipVolPlan
  3
AecBase50|Product Desc: Autodesk Architectural Desktop 2007 |Company: Autodesk,Inc. |WEB Address: www.autodesk.com
 90
    32897
280
     0
281
     0
  0
CLASS
  1
AEC_DISP_REP_CLIP_VOLUME_RESULT_SUBDIV
  2
AecDbDispRepClipVolResSubDiv
  3
AecBase50|Product Desc: Autodesk Architectural Desktop 2007 |Company: Autodesk,Inc. |WEB Address: www.autodesk.com
 90
    32897
280
     0
281
     0
  0
CLASS
  1
AEC_DISP_REP_CLIP_VOLUME_RESULT
  2
AecDbDispRepClipVolResult
  3
AecBase50|Product Desc: Autodesk Architectural Desktop 2007 |Company: Autodesk,Inc. |WEB Address: www.autodesk.com
 90
    32897
280
     0
281
     0
  0
CLASS
  1
AEC_DISP_REP_COLUMN_GRID
  2
AecDbDispRepColumnGrid
  3
AecStructureBase50|Product Desc: Autodesk Architectural Desktop 2007 |Company: Autodesk,Inc. |WEB Address: www.autodesk.com
 90
    32897
280
     0
281
     0
  0
CLASS
  1
AEC_DISP_REP_COLUMN_GRID_MODEL
  2
AecDbDispRepColumnGridModel
  3
AecStructureBase50|Product Desc: Autodesk Architectural Desktop 2007 |Company: Autodesk,Inc. |WEB Address: www.autodesk.com
 90
    32897
280
     0
281
     0
  0
CLASS
  1
AEC_DISP_REP_CURTAIN_WALL_LAYOUT_MODEL
  2
AecDbDispRepCurtainWallLayoutModel
  3
AecArchBase50|Product Desc: Autodesk Architectural Desktop 2007 |Company: Autodesk,Inc. |WEB Address: www.autodesk.com
 90
    32897
280
     0
281
     0
  0
CLASS
  1
AEC_DISP_REP_CURTAIN_WALL_LAYOUT_PLAN
  2
AecDbDispRepCurtainWallLayoutPlan
  3
AecArchBase50|Product Desc: Autodesk Architectural Desktop 2007 |Company: Autodesk,Inc. |WEB Address: www.autodesk.com
 90
    32897
280
     0
281
     0
  0
CLASS
  1
AEC_DISP_REP_CURTAIN_WALL_UNIT_MODEL
  2
AecDbDispRepCurtainWallUnitModel
  3
AecArchBase50|Product Desc: Autodesk Architectural Desktop 2007 |Company: Autodesk,Inc. |WEB Address: www.autodesk.com
 90
    32897
280
     0
281
     0
  0
CLASS
  1
AEC_DISP_REP_CURTAIN_WALL_UNIT_PLAN
  2
AecDbDispRepCurtainWallUnitPlan
  3
AecArchBase50|Product Desc: Autodesk Architectural Desktop 2007 |Company: Autodesk,Inc. |WEB Address: www.autodesk.com
 90
    32897
280
     0
281
     0
  0
CLASS
  1
AEC_DB_DISP_REP_DIM_GROUP_PLAN
  2
AecDbDispRepDimGroupPlan
  3
AecArchDACHBase50|Product Desc: Autodesk Architectural Desktop 2007 |Company: Autodesk,Inc. |WEB Address: www.autodesk.com
 90
    32897
280
     0
281
     0
  0
CLASS
  1
AEC_DISP_REP_DOOR_MODEL
  2
AecDbDispRepDoorModel
  3
AecArchBase50|Product Desc: Autodesk Architectural Desktop 2007 |Company: Autodesk,Inc. |WEB Address: www.autodesk.com
 90
    32897
280
     0
281
     0
  0
CLASS
  1
AEC_DISP_REP_DOOR_NOMINAL
  2
AecDbDispRepDoorNominal
  3
AecArchBase50|Product Desc: Autodesk Architectural Desktop 2007 |Company: Autodesk,Inc. |WEB Address: www.autodesk.com
 90
    32897
280
     0
281
     0
  0
CLASS
  1
AEC_DISP_REP_DOOR_PLAN
  2
AecDbDispRepDoorPlan
  3
AecArchBase50|Product Desc: Autodesk Architectural Desktop 2007 |Company: Autodesk,Inc. |WEB Address: www.autodesk.com
 90
    32897
280
     0
281
     0
  0
CLASS
  1
AEC_DISP_REP_EDITINPLACEPROFILE
  2
AecDbDispRepEditInPlaceProfile
  3
AecBase50|Product Desc: Autodesk Architectural Desktop 2007 |Company: Autodesk,Inc. |WEB Address: www.autodesk.com
 90
    32897
280
     0
281
     0
  0
CLASS
  1
AEC_DISP_REP_ENT_REF
  2
AecDbDispRepEntRef
  3
AecBase50|Product Desc: Autodesk Architectural Desktop 2007 |Company: Autodesk,Inc. |WEB Address: www.autodesk.com
 90
    32897
280
     0
281
     0
  0
CLASS
  1
AEC_DISP_REP_LAYOUT_CURVE
  2
AecDbDispRepLayoutCurve
  3
AecBase50|Product Desc: Autodesk Architectural Desktop 2007 |Company: Autodesk,Inc. |WEB Address: www.autodesk.com
 90
    32897
280
     0
281
     0
  0
CLASS
  1
AEC_DISP_REP_LAYOUT_GRID2D
  2
AecDbDispRepLayoutGrid2d
  3
AecBase50|Product Desc: Autodesk Architectural Desktop 2007 |Company: Autodesk,Inc. |WEB Address: www.autodesk.com
 90
    32897
280
     0
281
     0
  0
CLASS
  1
AEC_DISP_REP_LAYOUT_GRID3D
  2
AecDbDispRepLayoutGrid3d
  3
AecBase50|Product Desc: Autodesk Architectural Desktop 2007 |Company: Autodesk,Inc. |WEB Address: www.autodesk.com
 90
    32897
280
     0
281
     0
  0
CLASS
  1
AEC_DISP_REP_MASKBLOCK_REF
  2
AecDbDispRepMaskBlockRef
  3
AecBase50|Product Desc: Autodesk Architectural Desktop 2007 |Company: Autodesk,Inc. |WEB Address: www.autodesk.com
 90
    32897
280
     0
281
     0
  0
CLASS
  1
AEC_DISP_REP_MASKBLOCK_REF_RCP
  2
AecDbDispRepMaskBlockRefRcp
  3
AecArchBase50|Product Desc: Autodesk Architectural Desktop 2007 |Company: Autodesk,Inc. |WEB Address: www.autodesk.com
 90
    32897
280
     0
281
     0
  0
CLASS
  1
AEC_DISP_REP_MASS_ELEM_MODEL
  2
AecDbDispRepMassElemModel
  3
AecBaseEx50|Product Desc: Autodesk Architectural Desktop 2007 |Company: Autodesk,Inc. |WEB Address: www.autodesk.com
 90
    32897
280
     0
281
     0
  0
CLASS
  1
AEC_DISP_REP_MASS_ELEM_SCHEM
  2
AecDbDispRepMassElemSchem
  3
AecBaseEx50|Product Desc: Autodesk Architectural Desktop 2007 |Company: Autodesk,Inc. |WEB Address: www.autodesk.com
 90
    32897
280
     0
281
     0
  0
CLASS
  1
AEC_DISP_REP_MASS_GROUP_MODEL
  2
AecDbDispRepMassGroupModel
  3
AecBaseEx50|Product Desc: Autodesk Architectural Desktop 2007 |Company: Autodesk,Inc. |WEB Address: www.autodesk.com
 90
    32897
280
     0
281
     0
  0
CLASS
  1
AEC_DISP_REP_MASS_GROUP_PLAN
  2
AecDbDispRepMassGroupPlan
  3
AecBaseEx50|Product Desc: Autodesk Architectural Desktop 2007 |Company: Autodesk,Inc. |WEB Address: www.autodesk.com
 90
    32897
280
     0
281
     0
  0
CLASS
  1
AEC_DISP_REP_MATERIAL
  2
AecDbDispRepMaterial
  3
AecBase50|Product Desc: Autodesk Architectural Desktop 2007 |Company: Autodesk,Inc. |WEB Address: www.autodesk.com
 90
    32897
280
     0
281
     0
  0
CLASS
  1
AEC_DISP_REP_MVBLOCK_REF
  2
AecDbDispRepMvBlockRef
  3
AecBase50|Product Desc: Autodesk Architectural Desktop 2007 |Company: Autodesk,Inc. |WEB Address: www.autodesk.com
 90
    32897
280
     0
281
     0
  0
CLASS
  1
AEC_DISP_REP_MVBLOCK_REF_MODEL
  2
AecDbDispRepMvBlockRefModel
  3
AecBase50|Product Desc: Autodesk Architectural Desktop 2007 |Company: Autodesk,Inc. |WEB Address: www.autodesk.com
 90
    32897
280
     0
281
     0
  0
CLASS
  1
AEC_DISP_REP_OPENING
  2
AecDbDispRepOpening
  3
AecArchBase50|Product Desc: Autodesk Architectural Desktop 2007 |Company: Autodesk,Inc. |WEB Address: www.autodesk.com
 90
    32897
280
     0
281
     0
  0
CLASS
  1
AEC_DISP_REP_OPENING_MODEL
  2
AecDbDispRepOpeningModel
  3
AecArchBase50|Product Desc: Autodesk Architectural Desktop 2007 |Company: Autodesk,Inc. |WEB Address: www.autodesk.com
 90
    32897
280
     0
281
     0
  0
CLASS
  1
AEC_DISP_REP_POLYGON_MODEL
  2
AecDbDispRepPolygonModel
  3
AecBaseEx50|Product Desc: Autodesk Architectural Desktop 2007 |Company: Autodesk,Inc. |WEB Address: www.autodesk.com
 90
    32897
280
     0
281
     0
  0
CLASS
  1
AEC_DISP_REP_RAILING_MODEL
  2
AecDbDispRepRailingModel
  3
AecArchBase50|Product Desc: Autodesk Architectural Desktop 2007 |Company: Autodesk,Inc. |WEB Address: www.autodesk.com
 90
    32897
280
     0
281
     0
  0
CLASS
  1
AEC_DISP_REP_RAILING_PLAN
  2
AecDbDispRepRailingPlan
  3
AecArchBase50|Product Desc: Autodesk Architectural Desktop 2007 |Company: Autodesk,Inc. |WEB Address: www.autodesk.com
 90
    32897
280
     0
281
     0
  0
CLASS
  1
AEC_DISP_REP_ROOF_MODEL
  2
AecDbDispRepRoofModel
  3
AecArchBase50|Product Desc: Autodesk Architectural Desktop 2007 |Company: Autodesk,Inc. |WEB Address: www.autodesk.com
 90
    32897
280
     0
281
     0
  0
CLASS
  1
AEC_DISP_REP_ROOF_PLAN
  2
AecDbDispRepRoofPlan
  3
AecArchBase50|Product Desc: Autodesk Architectural Desktop 2007 |Company: Autodesk,Inc. |WEB Address: www.autodesk.com
 90
    32897
280
     0
281
     0
  0
CLASS
  1
AEC_DISP_REP_ROOFSLAB_MODEL
  2
AecDbDispRepRoofSlabModel
  3
AecArchBase50|Product Desc: Autodesk Architectural Desktop 2007 |Company: Autodesk,Inc. |WEB Address: www.autodesk.com
 90
    32897
280
     0
281
     0
  0
CLASS
  1
AEC_DISP_REP_ROOFSLAB_PLAN
  2
AecDbDispRepRoofSlabPlan
  3
AecArchBase50|Product Desc: Autodesk Architectural Desktop 2007 |Company: Autodesk,Inc. |WEB Address: www.autodesk.com
 90
    32897
280
     0
281
     0
  0
CLASS
  1
AEC_DISP_REP_SCHEDULE_TABLE
  2
AecDbDispRepScheduleTable
  3
AecSchedule50|Product Desc: Autodesk Architectural Desktop 2007 |Company: Autodesk,Inc. |WEB Address: www.autodesk.com
 90
    32897
280
     0
281
     0
  0
CLASS
  1
AEC_DISP_REP_SLAB_MODEL
  2
AecDbDispRepSlabModel
  3
AecArchBase50|Product Desc: Autodesk Architectural Desktop 2007 |Company: Autodesk,Inc. |WEB Address: www.autodesk.com
 90
    32897
280
     0
281
     0
  0
CLASS
  1
AEC_DISP_REP_SLAB_PLAN
  2
AecDbDispRepSlabPlan
  3
AecArchBase50|Product Desc: Autodesk Architectural Desktop 2007 |Company: Autodesk,Inc. |WEB Address: www.autodesk.com
 90
    32897
280
     0
281
     0
  0
CLASS
  1
AEC_DISP_REP_SLICE
  2
AecDbDispRepSlice
  3
AecBase50|Product Desc: Autodesk Architectural Desktop 2007 |Company: Autodesk,Inc. |WEB Address: www.autodesk.com
 90
    32897
280
     0
281
     0
  0
CLASS
  1
AEC_DISP_REP_SPACE_BOUNDARY_MODEL
  2
AecDbDispRepSpaceBoundaryModel
  3
AecArchBase50|Product Desc: Autodesk Architectural Desktop 2007 |Company: Autodesk,Inc. |WEB Address: www.autodesk.com
 90
    32897
280
     0
281
     0
  0
CLASS
  1
AEC_DISP_REP_SPACE_BOUNDARY_PLAN
  2
AecDbDispRepSpaceBoundaryPlan
  3
AecArchBase50|Product Desc: Autodesk Architectural Desktop 2007 |Company: Autodesk,Inc. |WEB Address: www.autodesk.com
 90
    32897
280
     0
281
     0
  0
CLASS
  1
AEC_DISP_REP_SPACE_BOUNDARY_SCHEM
  2
AecDbDispRepSpaceBoundarySketch
  3
AecArchBase50|Product Desc: Autodesk Architectural Desktop 2007 |Company: Autodesk,Inc. |WEB Address: www.autodesk.com
 90
    32897
280
     0
281
     0
  0
CLASS
  1
AEC_DISP_REP_SPACE_MODEL
  2
AecDbDispRepSpaceModel
  3
AecArchBase50|Product Desc: Autodesk Architectural Desktop 2007 |Company: Autodesk,Inc. |WEB Address: www.autodesk.com
 90
    32897
280
     0
281
     0
  0
CLASS
  1
AEC_DISP_REP_SPACE_PLAN
  2
AecDbDispRepSpacePlan
  3
AecArchBase50|Product Desc: Autodesk Architectural Desktop 2007 |Company: Autodesk,Inc. |WEB Address: www.autodesk.com
 90
    32897
280
     0
281
     0
  0
CLASS
  1
AEC_DISP_REP_STAIR_MODEL
  2
AecDbDispRepStairModel
  3
AecArchBase50|Product Desc: Autodesk Architectural Desktop 2007 |Company: Autodesk,Inc. |WEB Address: www.autodesk.com
 90
    32897
280
     0
281
     0
  0
CLASS
  1
AEC_DISP_REP_STAIR_PLAN
  2
AecDbDispRepStairPlan
  3
AecArchBase50|Product Desc: Autodesk Architectural Desktop 2007 |Company: Autodesk,Inc. |WEB Address: www.autodesk.com
 90
    32897
280
     0
281
     0
  0
CLASS
  1
AEC_DISP_REP_WALL_GRAPH
  2
AecDbDispRepWallGraph
  3
AecArchBase50|Product Desc: Autodesk Architectural Desktop 2007 |Company: Autodesk,Inc. |WEB Address: www.autodesk.com
 90
    32897
280
     0
281
     0
  0
CLASS
  1
AEC_DISP_REP_WALL_MODEL
  2
AecDbDispRepWallModel
  3
AecArchBase50|Product Desc: Autodesk Architectural Desktop 2007 |Company: Autodesk,Inc. |WEB Address: www.autodesk.com
 90
    32897
280
     0
281
     0
  0
CLASS
  1
AEC_DISP_REP_WALL_PLAN
  2
AecDbDispRepWallPlan
  3
AecArchBase50|Product Desc: Autodesk Architectural Desktop 2007 |Company: Autodesk,Inc. |WEB Address: www.autodesk.com
 90
    32897
280
     0
281
     0
  0
CLASS
  1
AEC_DISP_REP_WALL_SCHEM
  2
AecDbDispRepWallSchem
  3
AecArchBase50|Product Desc: Autodesk Architectural Desktop 2007 |Company: Autodesk,Inc. |WEB Address: www.autodesk.com
 90
    32897
280
     0
281
     0
  0
CLASS
  1
AEC_DISP_REP_WINDOW_ASSEMBLY_MODEL
  2
AecDbDispRepWindowAssemblyModel
  3
AecArchBase50|Product Desc: Autodesk Architectural Desktop 2007 |Company: Autodesk,Inc. |WEB Address: www.autodesk.com
 90
    32897
280
     0
281
     0
  0
CLASS
  1
AEC_DISP_REP_WINDOW_ASSEMBLY_PLAN
  2
AecDbDispRepWindowAssemblyPlan
  3
AecArchBase50|Product Desc: Autodesk Architectural Desktop 2007 |Company: Autodesk,Inc. |WEB Address: www.autodesk.com
 90
    32897
280
     0
281
     0
  0
CLASS
  1
AEC_AECDBDISPREPWINDOWASSEMBLYPLAN100
  2
AecDbDispRepWindowAssemblyPlan100
  3
AecArchDACHBase50|Product Desc: Autodesk Architectural Desktop 2007 |Company: Autodesk,Inc. |WEB Address: www.autodesk.com
 90
    32897
280
     0
281
     0
  0
CLASS
  1
AEC_DISP_REP_WINDOW_MODEL
  2
AecDbDispRepWindowModel
  3
AecArchBase50|Product Desc: Autodesk Architectural Desktop 2007 |Company: Autodesk,Inc. |WEB Address: www.autodesk.com
 90
    32897
280
     0
281
     0
  0
CLASS
  1
AEC_DISP_REP_WINDOW_NOMINAL
  2
AecDbDispRepWindowNominal
  3
AecArchBase50|Product Desc: Autodesk Architectural Desktop 2007 |Company: Autodesk,Inc. |WEB Address: www.autodesk.com
 90
    32897
280
     0
281
     0
  0
CLASS
  1
AEC_DISP_REP_WINDOW_PLAN
  2
AecDbDispRepWindowPlan
  3
AecArchBase50|Product Desc: Autodesk Architectural Desktop 2007 |Company: Autodesk,Inc. |WEB Address: www.autodesk.com
 90
    32897
280
     0
281
     0
  0
CLASS
  1
AECS_DISP_REP_MEMBER_LOGICAL
  2
AecsDbDispRepMemberLogical
  3
AecStructureBase50|Product Desc: Autodesk Architectural Desktop 2007 |Company: Autodesk,Inc. |WEB Address: www.autodesk.com
 90
    32897
280
     0
281
     0
  0
CLASS
  1
AECS_DISP_REP_MEMBER_MODEL_DESIGN
  2
AecsDbDispRepMemberModelDesign
  3
AecStructureBase50|Product Desc: Autodesk Architectural Desktop 2007 |Company: Autodesk,Inc. |WEB Address: www.autodesk.com
 90
    32897
280
     0
281
     0
  0
CLASS
  1
AECS_DISP_REP_MEMBER_PLAN_DESIGN
  2
AecsDbDispRepMemberPlanDesign
  3
AecStructureBase50|Product Desc: Autodesk Architectural Desktop 2007 |Company: Autodesk,Inc. |WEB Address: www.autodesk.com
 90
    32897
280
     0
281
     0
  0
CLASS
  1
AEC_DISP_PROPS_ENT
  2
AecDbDispPropsEnt
  3
AecBase50|Product Desc: Autodesk Architectural Desktop 2007 |Company: Autodesk,Inc. |WEB Address: www.autodesk.com
 90
    32897
280
     0
281
     0
  0
CLASS
  1
AEC_DISP_PROPS_CLIP_VOLUME
  2
AecDbDispPropsClipVol
  3
AecBase50|Product Desc: Autodesk Architectural Desktop 2007 |Company: Autodesk,Inc. |WEB Address: www.autodesk.com
 90
    32897
280
     0
281
     0
  0
CLASS
  1
AEC_DISP_PROPS_SLICE
  2
AecDbDispPropsSlice
  3
AecBase50|Product Desc: Autodesk Architectural Desktop 2007 |Company: Autodesk,Inc. |WEB Address: www.autodesk.com
 90
    32897
280
     0
281
     0
  0
CLASS
  1
AEC_DISP_PROPS_ROOFSLAB_PLAN
  2
AecDbDispPropsRoofSlabPlan
  3
AecArchBase50|Product Desc: Autodesk Architectural Desktop 2007 |Company: Autodesk,Inc. |WEB Address: www.autodesk.com
 90
    32897
280
     0
281
     0
  0
CLASS
  1
AEC_DISP_PROPS_GRID_ASSEMBLY_MODEL
  2
AecDbDispPropsGridAssemblyModel
  3
AecArchBase50|Product Desc: Autodesk Architectural Desktop 2007 |Company: Autodesk,Inc. |WEB Address: www.autodesk.com
 90
    32897
280
     0
281
     0
  0
CLASS
  1
AEC_DISP_PROPS_ROOF
  2
AecDbDispPropsRoof
  3
AecArchBase50|Product Desc: Autodesk Architectural Desktop 2007 |Company: Autodesk,Inc. |WEB Address: www.autodesk.com
 90
    32897
280
     0
281
     0
  0
CLASS
  1
AEC_DISP_PROPS_SPACE_MODEL
  2
AecDbDispPropsSpaceModel
  3
AecArchBase50|Product Desc: Autodesk Architectural Desktop 2007 |Company: Autodesk,Inc. |WEB Address: www.autodesk.com
 90
    32897
280
     0
281
     0
  0
CLASS
  1
AEC_DISP_PROPS_EDITINPLACEPROFILE_MODEL
  2
AecDbDispPropsEditInPlaceProfile
  3
AecBase50|Product Desc: Autodesk Architectural Desktop 2007 |Company: Autodesk,Inc. |WEB Address: www.autodesk.com
 90
    32897
280
     0
281
     0
  0
CLASS
  1
AEC_DISP_PROPS_DOOR
  2
AecDbDispPropsDoor
  3
AecArchBase50|Product Desc: Autodesk Architectural Desktop 2007 |Company: Autodesk,Inc. |WEB Address: www.autodesk.com
 90
    32897
280
     0
281
     0
  0
CLASS
  1
AEC_DISP_PROPS_MASKBLOCK
  2
AecDbDispPropsMaskBlock
  3
AecBase50|Product Desc: Autodesk Architectural Desktop 2007 |Company: Autodesk,Inc. |WEB Address: www.autodesk.com
 90
    32897
280
     0
281
     0
  0
CLASS
  1
AEC_DISP_PROPS_SPACE_PLAN
  2
AecDbDispPropsSpacePlan
  3
AecArchBase50|Product Desc: Autodesk Architectural Desktop 2007 |Company: Autodesk,Inc. |WEB Address: www.autodesk.com
 90
    32897
280
     0
281
     0
  0
CLASS
  1
AEC_DISP_PROPS_RAILING_PLAN
  2
AecDbDispPropsRailingPlan
  3
AecArchBase50|Product Desc: Autodesk Architectural Desktop 2007 |Company: Autodesk,Inc. |WEB Address: www.autodesk.com
 90
    32897
280
     0
281
     0
  0
CLASS
  1
AEC_DISP_PROPS_LAYOUT_GRID2D
  2
AecDbDispPropsLayoutGrid2d
  3
AecBase50|Product Desc: Autodesk Architectural Desktop 2007 |Company: Autodesk,Inc. |WEB Address: www.autodesk.com
 90
    32897
280
     0
281
     0
  0
CLASS
  1
AEC_DISP_PROPS_CLIP_VOLUME_RESULT
  2
AecDbDispPropsClipVolResSubDiv
  3
AecBase50|Product Desc: Autodesk Architectural Desktop 2007 |Company: Autodesk,Inc. |WEB Address: www.autodesk.com
 90
    32897
280
     0
281
     0
  0
CLASS
  1
AEC_DISP_PROPS_STAIR_MODEL
  2
AecDbDispPropsStairModel
  3
AecArchBase50|Product Desc: Autodesk Architectural Desktop 2007 |Company: Autodesk,Inc. |WEB Address: www.autodesk.com
 90
    32897
280
     0
281
     0
  0
CLASS
  1
AEC_DISP_PROPS_LAYOUT_CURVE
  2
AecDbDispPropsLayoutCurve
  3
AecBase50|Product Desc: Autodesk Architectural Desktop 2007 |Company: Autodesk,Inc. |WEB Address: www.autodesk.com
 90
    32897
280
     0
281
     0
  0
CLASS
  1
AEC_DISP_PROPS_POLYGON_MODEL
  2
AecDbDispPropsPolygonModel
  3
AecBaseEx50|Product Desc: Autodesk Architectural Desktop 2007 |Company: Autodesk,Inc. |WEB Address: www.autodesk.com
 90
    32897
280
     0
281
     0
  0
CLASS
  1
AEC_DISP_PROPS_MASS_GROUP
  2
AecDbDispPropsMassGroup
  3
AecBaseEx50|Product Desc: Autodesk Architectural Desktop 2007 |Company: Autodesk,Inc. |WEB Address: www.autodesk.com
 90
    32897
280
     0
281
     0
  0
CLASS
  1
AEC_DISP_PROPS_STAIR_PLAN
  2
AecDbDispPropsStairPlan
  3
AecArchBase50|Product Desc: Autodesk Architectural Desktop 2007 |Company: Autodesk,Inc. |WEB Address: www.autodesk.com
 90
    32897
280
     0
281
     0
  0
CLASS
  1
AEC_DISP_PROPS_OPENING
  2
AecDbDispPropsOpening
  3
AecArchBase50|Product Desc: Autodesk Architectural Desktop 2007 |Company: Autodesk,Inc. |WEB Address: www.autodesk.com
 90
    32897
280
     0
281
     0
  0
CLASS
  1
AEC_DISP_PROPS_WALL_GRAPH
  2
AecDbDispPropsWallGraph
  3
AecArchBase50|Product Desc: Autodesk Architectural Desktop 2007 |Company: Autodesk,Inc. |WEB Address: www.autodesk.com
 90
    32897
280
     0
281
     0
  0
CLASS
  1
AEC_DISP_PROPS_DOOR_NOMINAL
  2
AecDbDispPropsDoorNominal
  3
AecArchBase50|Product Desc: Autodesk Architectural Desktop 2007 |Company: Autodesk,Inc. |WEB Address: www.autodesk.com
 90
    32897
280
     0
281
     0
  0
CLASS
  1
AEC_DISP_PROPS_SLAB
  2
AecDbDispPropsSlab
  3
AecArchBase50|Product Desc: Autodesk Architectural Desktop 2007 |Company: Autodesk,Inc. |WEB Address: www.autodesk.com
 90
    32897
280
     0
281
     0
  0
CLASS
  1
AEC_DISP_PROPS_WALL_MODEL
  2
AecDbDispPropsWallModel
  3
AecArchBase50|Product Desc: Autodesk Architectural Desktop 2007 |Company: Autodesk,Inc. |WEB Address: www.autodesk.com
 90
    32897
280
     0
281
     0
  0
CLASS
  1
AEC_DISP_PROPS_MATERIAL
  2
AecDbDispPropsMaterial
  3
AecBase50|Product Desc: Autodesk Architectural Desktop 2007 |Company: Autodesk,Inc. |WEB Address: www.autodesk.com
 90
    32897
280
     0
281
     0
  0
CLASS
  1
AEC_DISP_PROPS_WINDOW
  2
AecDbDispPropsWindow
  3
AecArchBase50|Product Desc: Autodesk Architectural Desktop 2007 |Company: Autodesk,Inc. |WEB Address: www.autodesk.com
 90
    32897
280
     0
281
     0
  0
CLASS
  1
AEC_DISP_PROPS_LAYOUT_GRID3D
  2
AecDbDispPropsLayoutGrid3d
  3
AecBase50|Product Desc: Autodesk Architectural Desktop 2007 |Company: Autodesk,Inc. |WEB Address: www.autodesk.com
 90
    32897
280
     0
281
     0
  0
CLASS
  1
AEC_DISP_PROPS_GRID_ASSEMBLY_PLAN
  2
AecDbDispPropsGridAssemblyPlan
  3
AecArchBase50|Product Desc: Autodesk Architectural Desktop 2007 |Company: Autodesk,Inc. |WEB Address: www.autodesk.com
 90
    32897
280
     0
281
     0
  0
CLASS
  1
AEC_DISP_PROPS_WALL_SCHEM
  2
AecDbDispPropsWallSchem
  3
AecArchBase50|Product Desc: Autodesk Architectural Desktop 2007 |Company: Autodesk,Inc. |WEB Address: www.autodesk.com
 90
    32897
280
     0
281
     0
  0
CLASS
  1
AEC_DISP_PROPS_WALL_PLAN
  2
AecDbDispPropsWallPlan
  3
AecArchBase50|Product Desc: Autodesk Architectural Desktop 2007 |Company: Autodesk,Inc. |WEB Address: www.autodesk.com
 90
    32897
280
     0
281
     0
  0
CLASS
  1
AEC_DISP_PROPS_SPACE_BOUNDARY
  2
AecDbDispPropsSpaceBoundary
  3
AecArchBase50|Product Desc: Autodesk Architectural Desktop 2007 |Company: Autodesk,Inc. |WEB Address: www.autodesk.com
 90
    32897
280
     0
281
     0
  0
CLASS
  1
AEC_DISP_PROPS_SLAB_PLAN
  2
AecDbDispPropsSlabPlan
  3
AecArchBase50|Product Desc: Autodesk Architectural Desktop 2007 |Company: Autodesk,Inc. |WEB Address: www.autodesk.com
 90
    32897
280
     0
281
     0
  0
CLASS
  1
AEC_DISP_PROPS_RAILING_MODEL
  2
AecDbDispPropsRailingModel
  3
AecArchBase50|Product Desc: Autodesk Architectural Desktop 2007 |Company: Autodesk,Inc. |WEB Address: www.autodesk.com
 90
    32897
280
     0
281
     0
  0
CLASS
  1
AEC_DISP_PROPS_MASS_ELEM_MODEL
  2
AecDbDispPropsMassElem
  3
AecBaseEx50|Product Desc: Autodesk Architectural Desktop 2007 |Company: Autodesk,Inc. |WEB Address: www.autodesk.com
 90
    32897
280
     0
281
     0
  0
CLASS
  1
AEC_DISP_PROPS_DIM
  2
AecDbDispPropsDimGroup
  3
AecArchDACHBase50|Product Desc: Autodesk Architectural Desktop 2007 |Company: Autodesk,Inc. |WEB Address: www.autodesk.com
 90
    32897
280
     0
281
     0
  0
CLASS
  1
AEC_DISP_PROPS_ROOFSLAB
  2
AecDbDispPropsRoofSlab
  3
AecArchBase50|Product Desc: Autodesk Architectural Desktop 2007 |Company: Autodesk,Inc. |WEB Address: www.autodesk.com
 90
    32897
280
     0
281
     0
  0
CLASS
  1
AEC_DISP_PROPS_ENT_REF
  2
AecDbDispPropsEntRef
  3
AecBase50|Product Desc: Autodesk Architectural Desktop 2007 |Company: Autodesk,Inc. |WEB Address: www.autodesk.com
 90
    32897
280
     0
281
     0
  0
CLASS
  1
AEC_DISP_PROPS_2D_SECTION
  2
AecDbDispProps2dSection
  3
AecBase50|Product Desc: Autodesk Architectural Desktop 2007 |Company: Autodesk,Inc. |WEB Address: www.autodesk.com
 90
    32897
280
     0
281
     0
  0
CLASS
  1
AECS_DISP_PROPS_MEMBER_LOGICAL
  2
AecsDbDispPropsMemberLogical
  3
AecStructureBase50|Product Desc: Autodesk Architectural Desktop 2007 |Company: Autodesk,Inc. |WEB Address: www.autodesk.com
 90
    32897
280
     0
281
     0
  0
CLASS
  1
AEC_DISP_PROPS_AREA_DECOMPOSED
  2
AecDbDispPropsAreaDecomposed
  3
AecAreaCalculationBase50|Product Desc: Autodesk Architectural Desktop 2007 |Company: Autodesk,Inc. |WEB Address: www.autodesk.com
 90
    32897
280
     0
281
     0
  0
CLASS
  1
AEC_DISP_PROPS_CAMERA
  2
AecDbDispPropsCamera
  3
AecBase50|Product Desc: Autodesk Architectural Desktop 2007 |Company: Autodesk,Inc. |WEB Address: www.autodesk.com
 90
    32897
280
     0
281
     0
  0
CLASS
  1
AECS_DISP_PROPS_MEMBER
  2
AecsDbDispPropsMember
  3
AecStructureBase50|Product Desc: Autodesk Architectural Desktop 2007 |Company: Autodesk,Inc. |WEB Address: www.autodesk.com
 90
    32897
280
     0
281
     0
  0
CLASS
  1
AECS_DISP_PROPS_MEMBER_PLAN
  2
AecsDbDispPropsMemberPlan
  3
AecStructureBase50|Product Desc: Autodesk Architectural Desktop 2007 |Company: Autodesk,Inc. |WEB Address: www.autodesk.com
 90
    32897
280
     0
281
     0
  0
CLASS
  1
AEC_DISP_PROPS_AREAGROUP
  2
AecDbDispPropsAreaGroup
  3
AecAreaCalculationBase50|Product Desc: Autodesk Architectural Desktop 2007 |Company: Autodesk,Inc. |WEB Address: www.autodesk.com
 90
    32897
280
     0
281
     0
  0
CLASS
  1
AEC_DISP_PROPS_WINDOW_NOMINAL
  2
AecDbDispPropsWindowNominal
  3
AecArchBase50|Product Desc: Autodesk Architectural Desktop 2007 |Company: Autodesk,Inc. |WEB Address: www.autodesk.com
 90
    32897
280
     0
281
     0
  0
CLASS
  1
AEC_DISP_PROPS_AREA
  2
AecDbDispPropsArea
  3
AecAreaCalculationBase50|Product Desc: Autodesk Architectural Desktop 2007 |Company: Autodesk,Inc. |WEB Address: www.autodesk.com
 90
    32897
280
     0
281
     0
  0
CLASS
  1
AEC_DISP_PROPS_SCHEDULE_TABLE
  2
AecDbDispPropsScheduleTable
  3
AecSchedule50|Product Desc: Autodesk Architectural Desktop 2007 |Company: Autodesk,Inc. |WEB Address: www.autodesk.com
 90
    32897
280
     0
281
     0
  0
CLASS
  1
AEC_LAYERKEY_STYLE
  2
AecDbLayerKeyStyle
  3
AecBase50|Product Desc: Autodesk Architectural Desktop 2007 |Company: Autodesk,Inc. |WEB Address: www.autodesk.com
 90
    32897
280
     0
281
     0
  0
CLASS
  1
AEC_VARS_ARCHBASE
  2
AecDbVarsArchBase
  3
AecArchBase50|Product Desc: Autodesk Architectural Desktop 2007 |Company: Autodesk,Inc. |WEB Address: www.autodesk.com
 90
    32897
280
     0
281
     0
  0
CLASS
  1
AEC_VARS_MUNICH
  2
AecDbVarsMunich
  3
AecArchDACHBase50|Product Desc: Autodesk Architectural Desktop 2007 |Company: Autodesk,Inc. |WEB Address: www.autodesk.com
 90
    32897
280
     0
281
     0
  0
CLASS
  1
AEC_NOTIFICATION_TRACKER
  2
AecDbNotificationTracker
  3
AecBase50|Product Desc: Autodesk Architectural Desktop 2007 |Company: Autodesk,Inc. |WEB Address: www.autodesk.com
 90
    32897
280
     0
281
     0
  0
CLASS
  1
AEC_DISP_REP_ANCHOR
  2
AecDbDispRepAnchor
  3
AecBase50|Product Desc: Autodesk Architectural Desktop 2007 |Company: Autodesk,Inc. |WEB Address: www.autodesk.com
 90
    32897
280
     0
281
     0
  0
CLASS
  1
AEC_DISP_REP_POLYGON_TRUECOLOUR
  2
AecDbDispRepPolygonTrueColour
  3
AecBaseEx50|Product Desc: Autodesk Architectural Desktop 2007 |Company: Autodesk,Inc. |WEB Address: www.autodesk.com
 90
    32897
280
     0
281
     0
  0
CLASS
  1
AEC_DISP_PROPS_POLYGON_TRUECOLOUR
  2
AecDbDispPropsPolygonTrueColour
  3
AecBaseEx50|Product Desc: Autodesk Architectural Desktop 2007 |Company: Autodesk,Inc. |WEB Address: www.autodesk.com
 90
    32897
280
     0
281
     0
  0
CLASS
  1
AEC_DISP_REP_BDG_ELEVLINE_RCP
  2
AecDbDispRepBdgElevLineRcp
  3
AecArchBase50|Product Desc: Autodesk Architectural Desktop 2007 |Company: Autodesk,Inc. |WEB Address: www.autodesk.com
 90
    32897
280
     0
281
     0
  0
CLASS
  1
AEC_DISP_REP_BDG_SECTIONLINE_RCP
  2
AecDbDispRepBdgSectionLineRcp
  3
AecArchBase50|Product Desc: Autodesk Architectural Desktop 2007 |Company: Autodesk,Inc. |WEB Address: www.autodesk.com
 90
    32897
280
     0
281
     0
  0
CLASS
  1
AEC_DISP_REP_BDG_SECTION_MODEL
  2
AecDbDispRepBdgSectionModel
  3
AecArchBase50|Product Desc: Autodesk Architectural Desktop 2007 |Company: Autodesk,Inc. |WEB Address: www.autodesk.com
 90
    32897
280
     0
281
     0
  0
CLASS
  1
AEC_DISP_REP_DOOR_ELEV
  2
AecDbDispRepDoorElev
  3
AecArchBase50|Product Desc: Autodesk Architectural Desktop 2007 |Company: Autodesk,Inc. |WEB Address: www.autodesk.com
 90
    32897
280
     0
281
     0
  0
CLASS
  1
AEC_DISP_REP_DOOR_RCP
  2
AecDbDispRepDoorRcp
  3
AecArchBase50|Product Desc: Autodesk Architectural Desktop 2007 |Company: Autodesk,Inc. |WEB Address: www.autodesk.com
 90
    32897
280
     0
281
     0
  0
CLASS
  1
AEC_DISP_REP_DOOR_THRESHOLD_PLAN
  2
AecDbDispRepDoorThresholdPlan
  3
AecArchBase50|Product Desc: Autodesk Architectural Desktop 2007 |Company: Autodesk,Inc. |WEB Address: www.autodesk.com
 90
    32897
280
     0
281
     0
  0
CLASS
  1
AEC_DISP_PROPS_DOOR_THRESHOLD_PLAN
  2
AecDbDispPropsDoorThresholdPlan
  3
AecArchBase50|Product Desc: Autodesk Architectural Desktop 2007 |Company: Autodesk,Inc. |WEB Address: www.autodesk.com
 90
    32897
280
     0
281
     0
  0
CLASS
  1
AEC_DISP_REP_MASS_ELEM_RCP
  2
AecDbDispRepMassElemRcp
  3
AecArchBase50|Product Desc: Autodesk Architectural Desktop 2007 |Company: Autodesk,Inc. |WEB Address: www.autodesk.com
 90
    32897
280
     0
281
     0
  0
CLASS
  1
AEC_DISP_REP_MASS_GROUP_RCP
  2
AecDbDispRepMassGroupRcp
  3
AecArchBase50|Product Desc: Autodesk Architectural Desktop 2007 |Company: Autodesk,Inc. |WEB Address: www.autodesk.com
 90
    32897
280
     0
281
     0
  0
CLASS
  1
AEC_DISP_REP_MVBLOCK_REF_RCP
  2
AecDbDispRepMvBlockRefRcp
  3
AecArchBase50|Product Desc: Autodesk Architectural Desktop 2007 |Company: Autodesk,Inc. |WEB Address: www.autodesk.com
 90
    32897
280
     0
281
     0
  0
CLASS
  1
AEC_DISP_REP_ROOF_RCP
  2
AecDbDispRepRoofRcp
  3
AecArchBase50|Product Desc: Autodesk Architectural Desktop 2007 |Company: Autodesk,Inc. |WEB Address: www.autodesk.com
 90
    32897
280
     0
281
     0
  0
CLASS
  1
AEC_DISP_REP_SPACE_BOUNDARY_DIAGRAM
  2
AecDbDispRepSpaceBoundaryDgrm
  3
AecArchBase50|Product Desc: Autodesk Architectural Desktop 2007 |Company: Autodesk,Inc. |WEB Address: www.autodesk.com
 90
    32897
280
     0
281
     0
  0
CLASS
  1
AEC_DISP_REP_SPACE_RCP
  2
AecDbDispRepSpaceRcp
  3
AecArchBase50|Product Desc: Autodesk Architectural Desktop 2007 |Company: Autodesk,Inc. |WEB Address: www.autodesk.com
 90
    32897
280
     0
281
     0
  0
CLASS
  1
AEC_DISP_REP_SPACE_VOLUME
  2
AecDbDispRepSpaceVolume
  3
AecArchBase50|Product Desc: Autodesk Architectural Desktop 2007 |Company: Autodesk,Inc. |WEB Address: www.autodesk.com
 90
    32897
280
     0
281
     0
  0
CLASS
  1
AEC_DISP_REP_STAIR_PLAN_OVERLAPPING
  2
AecDbDispRepStairPlanOverlapping
  3
AecArchBase50|Product Desc: Autodesk Architectural Desktop 2007 |Company: Autodesk,Inc. |WEB Address: www.autodesk.com
 90
    32897
280
     0
281
     0
  0
CLASS
  1
AEC_DISP_PROPS_STAIR_PLAN_OVERLAPPING
  2
AecDbDispPropsStairPlanOverlapping
  3
AecArchBase50|Product Desc: Autodesk Architectural Desktop 2007 |Company: Autodesk,Inc. |WEB Address: www.autodesk.com
 90
    32897
280
     0
281
     0
  0
CLASS
  1
AEC_DISP_REP_STAIR_RCP
  2
AecDbDispRepStairRcp
  3
AecArchBase50|Product Desc: Autodesk Architectural Desktop 2007 |Company: Autodesk,Inc. |WEB Address: www.autodesk.com
 90
    32897
280
     0
281
     0
  0
CLASS
  1
AEC_DISP_REP_WALL_RCP
  2
AecDbDispRepWallRcp
  3
AecArchBase50|Product Desc: Autodesk Architectural Desktop 2007 |Company: Autodesk,Inc. |WEB Address: www.autodesk.com
 90
    32897
280
     0
281
     0
  0
CLASS
  1
AEC_DISP_REP_WINDOWASSEMBLY_SILL_PLAN
  2
AecDbDispRepWindowAssemblySillPlan
  3
AecArchBase50|Product Desc: Autodesk Architectural Desktop 2007 |Company: Autodesk,Inc. |WEB Address: www.autodesk.com
 90
    32897
280
     0
281
     0
  0
CLASS
  1
AEC_DISP_PROPS_WINDOW_ASSEMBLY_SILL_PLAN
  2
AecDbDispPropsWindowAssemblySillPlan
  3
AecArchBase50|Product Desc: Autodesk Architectural Desktop 2007 |Company: Autodesk,Inc. |WEB Address: www.autodesk.com
 90
    32897
280
     0
281
     0
  0
CLASS
  1
AEC_DISP_REP_WINDOW_ELEV
  2
AecDbDispRepWindowElev
  3
AecArchBase50|Product Desc: Autodesk Architectural Desktop 2007 |Company: Autodesk,Inc. |WEB Address: www.autodesk.com
 90
    32897
280
     0
281
     0
  0
CLASS
  1
AEC_DISP_REP_WINDOW_RCP
  2
AecDbDispRepWindowRcp
  3
AecArchBase50|Product Desc: Autodesk Architectural Desktop 2007 |Company: Autodesk,Inc. |WEB Address: www.autodesk.com
 90
    32897
280
     0
281
     0
  0
CLASS
  1
AEC_DISP_REP_WINDOW_SILL_PLAN
  2
AecDbDispRepWindowSillPlan
  3
AecArchBase50|Product Desc: Autodesk Architectural Desktop 2007 |Company: Autodesk,Inc. |WEB Address: www.autodesk.com
 90
    32897
280
     0
281
     0
  0
CLASS
  1
AEC_DISP_PROPS_WINDOW_SILL_PLAN
  2
AecDbDispPropsWindowSillPlan
  3
AecArchBase50|Product Desc: Autodesk Architectural Desktop 2007 |Company: Autodesk,Inc. |WEB Address: www.autodesk.com
 90
    32897
280
     0
281
     0
  0
CLASS
  1
AEC_DISP_REP_ANCHOR_BUB_TO_GRID_RCP
  2
AecDbDispRepAnchorBubToGridRcp
  3
AecStructureBase50|Product Desc: Autodesk Architectural Desktop 2007 |Company: Autodesk,Inc. |WEB Address: www.autodesk.com
 90
    32897
280
     0
281
     0
  0
CLASS
  1
AEC_DISP_REP_COLUMN_GRID_RCP
  2
AecDbDispRepColumnGridRcp
  3
AecStructureBase50|Product Desc: Autodesk Architectural Desktop 2007 |Company: Autodesk,Inc. |WEB Address: www.autodesk.com
 90
    32897
280
     0
281
     0
  0
CLASS
  1
AECS_DISP_REP_MEMBER_ELEVATION_DESIGN
  2
AecsDbDispRepMemberElevationDesign
  3
AecStructureBase50|Product Desc: Autodesk Architectural Desktop 2007 |Company: Autodesk,Inc. |WEB Address: www.autodesk.com
 90
    32897
280
     0
281
     0
  0
CLASS
  1
AECS_DISP_PROPS_MEMBER_PROJECTED
  2
AecsDbDispPropsMemberProjected
  3
AecStructureBase50|Product Desc: Autodesk Architectural Desktop 2007 |Company: Autodesk,Inc. |WEB Address: www.autodesk.com
 90
    32897
280
     0
281
     0
  0
CLASS
  1
AECS_DISP_REP_MEMBER_ELEVATION_DETAIL
  2
AecsDbDispRepMemberElevationDetail
  3
AecStructureBase50|Product Desc: Autodesk Architectural Desktop 2007 |Company: Autodesk,Inc. |WEB Address: www.autodesk.com
 90
    32897
280
     0
281
     0
  0
CLASS
  1
AECS_DISP_REP_MEMBER_MODEL_DETAIL
  2
AecsDbDispRepMemberModelDetail
  3
AecStructureBase50|Product Desc: Autodesk Architectural Desktop 2007 |Company: Autodesk,Inc. |WEB Address: www.autodesk.com
 90
    32897
280
     0
281
     0
  0
CLASS
  1
AECS_DISP_REP_MEMBER_PLAN_DETAIL
  2
AecsDbDispRepMemberPlanDetail
  3
AecStructureBase50|Product Desc: Autodesk Architectural Desktop 2007 |Company: Autodesk,Inc. |WEB Address: www.autodesk.com
 90
    32897
280
     0
281
     0
  0
CLASS
  1
AECS_DISP_REP_MEMBER_PLAN_SKETCH
  2
AecsDbDispRepMemberPlanSketch
  3
AecStructureBase50|Product Desc: Autodesk Architectural Desktop 2007 |Company: Autodesk,Inc. |WEB Address: www.autodesk.com
 90
    32897
280
     0
281
     0
  0
CLASS
  1
AECS_DISP_PROPS_MEMBER_PLAN_SKETCH
  2
AecsDbDispPropsMemberPlanSketch
  3
AecStructureBase50|Product Desc: Autodesk Architectural Desktop 2007 |Company: Autodesk,Inc. |WEB Address: www.autodesk.com
 90
    32897
280
     0
281
     0
  0
CLASS
  1
AEC_AECDBDISPREPAREA100
  2
AecDbDispRepArea100
  3
AecArchDACHBase50|Product Desc: Autodesk Architectural Desktop 2007 |Company: Autodesk,Inc. |WEB Address: www.autodesk.com
 90
    32897
280
     0
281
     0
  0
CLASS
  1
AEC_AECDBDISPREPAREAGROUP100
  2
AecDbDispRepAreaGroup100
  3
AecArchDACHBase50|Product Desc: Autodesk Architectural Desktop 2007 |Company: Autodesk,Inc. |WEB Address: www.autodesk.com
 90
    32897
280
     0
281
     0
  0
CLASS
  1
AEC_AECDBDISPREPBDGELEVLINEPLAN100
  2
AecDbDispRepBdgElevLinePlan100
  3
AecArchDACHBase50|Product Desc: Autodesk Architectural Desktop 2007 |Company: Autodesk,Inc. |WEB Address: www.autodesk.com
 90
    32897
280
     0
281
     0
  0
CLASS
  1
AEC_AECDBDISPREPBDGSECTIONLINEPLAN100
  2
AecDbDispRepBdgSectionLinePlan100
  3
AecArchDACHBase50|Product Desc: Autodesk Architectural Desktop 2007 |Company: Autodesk,Inc. |WEB Address: www.autodesk.com
 90
    32897
280
     0
281
     0
  0
CLASS
  1
AEC_AECDBDISPREPCEILINGGRIDPLAN100
  2
AecDbDispRepCeilingGridPlan100
  3
AecArchDACHBase50|Product Desc: Autodesk Architectural Desktop 2007 |Company: Autodesk,Inc. |WEB Address: www.autodesk.com
 90
    32897
280
     0
281
     0
  0
CLASS
  1
AEC_AECDBDISPREPCOLUMNGRIDPLAN100
  2
AecDbDispRepColumnGridPlan100
  3
AecArchDACHBase50|Product Desc: Autodesk Architectural Desktop 2007 |Company: Autodesk,Inc. |WEB Address: www.autodesk.com
 90
    32897
280
     0
281
     0
  0
CLASS
  1
AEC_AECDBDISPREPCURTAINWALLLAYOUTPLAN100
  2
AecDbDispRepCurtainWallLayoutPlan100
  3
AecArchDACHBase50|Product Desc: Autodesk Architectural Desktop 2007 |Company: Autodesk,Inc. |WEB Address: www.autodesk.com
 90
    32897
280
     0
281
     0
  0
CLASS
  1
AEC_AECDBDISPREPCURTAINWALLUNITPLAN100
  2
AecDbDispRepCurtainWallUnitPlan100
  3
AecArchDACHBase50|Product Desc: Autodesk Architectural Desktop 2007 |Company: Autodesk,Inc. |WEB Address: www.autodesk.com
 90
    32897
280
     0
281
     0
  0
CLASS
  1
AEC_AECDBDISPREPMVBLOCKREFPLAN100
  2
AecDbDispRepMvBlockRefPlan100
  3
AecArchDACHBase50|Product Desc: Autodesk Architectural Desktop 2007 |Company: Autodesk,Inc. |WEB Address: www.autodesk.com
 90
    32897
280
     0
281
     0
  0
CLASS
  1
AEC_AECDBDISPREPROOFPLAN100
  2
AecDbDispRepRoofPlan100
  3
AecArchDACHBase50|Product Desc: Autodesk Architectural Desktop 2007 |Company: Autodesk,Inc. |WEB Address: www.autodesk.com
 90
    32897
280
     0
281
     0
  0
CLASS
  1
AEC_AECDBDISPREPROOFSLABPLAN100
  2
AecDbDispRepRoofSlabPlan100
  3
AecArchDACHBase50|Product Desc: Autodesk Architectural Desktop 2007 |Company: Autodesk,Inc. |WEB Address: www.autodesk.com
 90
    32897
280
     0
281
     0
  0
CLASS
  1
AEC_AECDBDISPREPSLABPLAN100
  2
AecDbDispRepSlabPlan100
  3
AecArchDACHBase50|Product Desc: Autodesk Architectural Desktop 2007 |Company: Autodesk,Inc. |WEB Address: www.autodesk.com
 90
    32897
280
     0
281
     0
  0
CLASS
  1
AEC_AECDBDISPREPSPACEBOUNDARYPLAN100
  2
AecDbDispRepSpaceBoundaryPlan100
  3
AecArchDACHBase50|Product Desc: Autodesk Architectural Desktop 2007 |Company: Autodesk,Inc. |WEB Address: www.autodesk.com
 90
    32897
280
     0
281
     0
  0
CLASS
  1
AEC_AECDBDISPREPSPACEPLAN100
  2
AecDbDispRepSpacePlan100
  3
AecArchDACHBase50|Product Desc: Autodesk Architectural Desktop 2007 |Company: Autodesk,Inc. |WEB Address: www.autodesk.com
 90
    32897
280
     0
281
     0
  0
CLASS
  1
AEC_AECDBDISPREPWALLPLAN100
  2
AecDbDispRepWallPlan100
  3
AecArchDACHBase50|Product Desc: Autodesk Architectural Desktop 2007 |Company: Autodesk,Inc. |WEB Address: www.autodesk.com
 90
    32897
280
     0
281
     0
  0
CLASS
  1
AEC_AECDBDISPREPAREA50
  2
AecDbDispRepArea50
  3
AecArchDACHBase50|Product Desc: Autodesk Architectural Desktop 2007 |Company: Autodesk,Inc. |WEB Address: www.autodesk.com
 90
    32897
280
     0
281
     0
  0
CLASS
  1
AEC_AECDBDISPREPAREAGROUP50
  2
AecDbDispRepAreaGroup50
  3
AecArchDACHBase50|Product Desc: Autodesk Architectural Desktop 2007 |Company: Autodesk,Inc. |WEB Address: www.autodesk.com
 90
    32897
280
     0
281
     0
  0
CLASS
  1
AEC_AECDBDISPREPBDGELEVLINEPLAN50
  2
AecDbDispRepBdgElevLinePlan50
  3
AecArchDACHBase50|Product Desc: Autodesk Architectural Desktop 2007 |Company: Autodesk,Inc. |WEB Address: www.autodesk.com
 90
    32897
280
     0
281
     0
  0
CLASS
  1
AEC_AECDBDISPREPBDGSECTIONLINEPLAN50
  2
AecDbDispRepBdgSectionLinePlan50
  3
AecArchDACHBase50|Product Desc: Autodesk Architectural Desktop 2007 |Company: Autodesk,Inc. |WEB Address: www.autodesk.com
 90
    32897
280
     0
281
     0
  0
CLASS
  1
AEC_AECDBDISPREPCEILINGGRIDPLAN50
  2
AecDbDispRepCeilingGridPlan50
  3
AecArchDACHBase50|Product Desc: Autodesk Architectural Desktop 2007 |Company: Autodesk,Inc. |WEB Address: www.autodesk.com
 90
    32897
280
     0
281
     0
  0
CLASS
  1
AEC_AECDBDISPREPCOLUMNGRIDPLAN50
  2
AecDbDispRepColumnGridPlan50
  3
AecArchDACHBase50|Product Desc: Autodesk Architectural Desktop 2007 |Company: Autodesk,Inc. |WEB Address: www.autodesk.com
 90
    32897
280
     0
281
     0
  0
CLASS
  1
AEC_AECDBDISPREPCURTAINWALLLAYOUTPLAN50
  2
AecDbDispRepCurtainWallLayoutPlan50
  3
AecArchDACHBase50|Product Desc: Autodesk Architectural Desktop 2007 |Company: Autodesk,Inc. |WEB Address: www.autodesk.com
 90
    32897
280
     0
281
     0
  0
CLASS
  1
AEC_AECDBDISPREPCURTAINWALLUNITPLAN50
  2
AecDbDispRepCurtainWallUnitPlan50
  3
AecArchDACHBase50|Product Desc: Autodesk Architectural Desktop 2007 |Company: Autodesk,Inc. |WEB Address: www.autodesk.com
 90
    32897
280
     0
281
     0
  0
CLASS
  1
AEC_AECDBDISPREPMVBLOCKREFPLAN50
  2
AecDbDispRepMvBlockRefPlan50
  3
AecArchDACHBase50|Product Desc: Autodesk Architectural Desktop 2007 |Company: Autodesk,Inc. |WEB Address: www.autodesk.com
 90
    32897
280
     0
281
     0
  0
CLASS
  1
AEC_AECDBDISPREPROOFPLAN50
  2
AecDbDispRepRoofPlan50
  3
AecArchDACHBase50|Product Desc: Autodesk Architectural Desktop 2007 |Company: Autodesk,Inc. |WEB Address: www.autodesk.com
 90
    32897
280
     0
281
     0
  0
CLASS
  1
AEC_AECDBDISPREPROOFSLABPLAN50
  2
AecDbDispRepRoofSlabPlan50
  3
AecArchDACHBase50|Product Desc: Autodesk Architectural Desktop 2007 |Company: Autodesk,Inc. |WEB Address: www.autodesk.com
 90
    32897
280
     0
281
     0
  0
CLASS
  1
AEC_AECDBDISPREPSLABPLAN50
  2
AecDbDispRepSlabPlan50
  3
AecArchDACHBase50|Product Desc: Autodesk Architectural Desktop 2007 |Company: Autodesk,Inc. |WEB Address: www.autodesk.com
 90
    32897
280
     0
281
     0
  0
CLASS
  1
AEC_AECDBDISPREPSPACEBOUNDARYPLAN50
  2
AecDbDispRepSpaceBoundaryPlan50
  3
AecArchDACHBase50|Product Desc: Autodesk Architectural Desktop 2007 |Company: Autodesk,Inc. |WEB Address: www.autodesk.com
 90
    32897
280
     0
281
     0
  0
CLASS
  1
AEC_AECDBDISPREPSPACEPLAN50
  2
AecDbDispRepSpacePlan50
  3
AecArchDACHBase50|Product Desc: Autodesk Architectural Desktop 2007 |Company: Autodesk,Inc. |WEB Address: www.autodesk.com
 90
    32897
280
     0
281
     0
  0
CLASS
  1
AEC_AECDBDISPREPWALLPLAN50
  2
AecDbDispRepWallPlan50
  3
AecArchDACHBase50|Product Desc: Autodesk Architectural Desktop 2007 |Company: Autodesk,Inc. |WEB Address: www.autodesk.com
 90
    32897
280
     0
281
     0
  0
CLASS
  1
AEC_AECDBDISPREPWINDOWASSEMBLYPLAN50
  2
AecDbDispRepWindowAssemblyPlan50
  3
AecArchDACHBase50|Product Desc: Autodesk Architectural Desktop 2007 |Company: Autodesk,Inc. |WEB Address: www.autodesk.com
 90
    32897
280
     0
281
     0
  0
CLASS
  1
AEC_DB_DISP_REP_DIM_GROUP_PLAN100
  2
AecDbDispRepDimGroupPlan100
  3
AecArchDACHBase50|Product Desc: Autodesk Architectural Desktop 2007 |Company: Autodesk,Inc. |WEB Address: www.autodesk.com
 90
    32897
280
     0
281
     0
  0
CLASS
  1
AEC_DB_DISP_REP_DIM_GROUP_PLAN50
  2
AecDbDispRepDimGroupPlan50
  3
AecArchDACHBase50|Product Desc: Autodesk Architectural Desktop 2007 |Company: Autodesk,Inc. |WEB Address: www.autodesk.com
 90
    32897
280
     0
281
     0
  0
CLASS
  1
AEC_DISP_REP_DOOR_PLAN_50
  2
AecDbDispRepDoorPlan50
  3
AecArchDACHBase50|Product Desc: Autodesk Architectural Desktop 2007 |Company: Autodesk,Inc. |WEB Address: www.autodesk.com
 90
    32897
280
     0
281
     0
  0
CLASS
  1
AEC_DISP_PROPS_DOOR_PLAN_50
  2
AecDbDispPropsDoorPlan50
  3
AecArchDACHBase50|Product Desc: Autodesk Architectural Desktop 2007 |Company: Autodesk,Inc. |WEB Address: www.autodesk.com
 90
    32897
280
     0
281
     0
  0
CLASS
  1
AEC_DISP_REP_DOOR_PLAN_HEKTO
  2
AecDbDispRepDoorPlanHekto
  3
AecArchDACHBase50|Product Desc: Autodesk Architectural Desktop 2007 |Company: Autodesk,Inc. |WEB Address: www.autodesk.com
 90
    32897
280
     0
281
     0
  0
CLASS
  1
AEC_DISP_PROPS_DOOR_PLAN_100
  2
AecDbDispPropsDoorPlan100
  3
AecArchDACHBase50|Product Desc: Autodesk Architectural Desktop 2007 |Company: Autodesk,Inc. |WEB Address: www.autodesk.com
 90
    32897
280
     0
281
     0
  0
CLASS
  1
AEC_DISP_REP_DOOR_THRESHOLD_SYMBOL_PLAN
  2
AecDbDispRepDoorThresholdSymbolPlan
  3
AecArchDACHBase50|Product Desc: Autodesk Architectural Desktop 2007 |Company: Autodesk,Inc. |WEB Address: www.autodesk.com
 90
    32897
280
     0
281
     0
  0
CLASS
  1
AEC_DISP_PROPS_DOOR_THRESHOLD_SYMBOL_PLAN
  2
AecDbDispPropsDoorThresholdSymbolPlan
  3
AecArchDACHBase50|Product Desc: Autodesk Architectural Desktop 2007 |Company: Autodesk,Inc. |WEB Address: www.autodesk.com
 90
    32897
280
     0
281
     0
  0
CLASS
  1
AEC_DISPREPAECDBDISPREPMASSELEMPLAN100
  2
AecDbDispRepMassElemPlan100
  3
AecArchDACHBase50|Product Desc: Autodesk Architectural Desktop 2007 |Company: Autodesk,Inc. |WEB Address: www.autodesk.com
 90
    32897
280
     0
281
     0
  0
CLASS
  1
AEC_DISPROPSMASSELEMPLANCOMMON
  2
AecDbDispPropsMassElemPlanCommon
  3
AecArchDACHBase50|Product Desc: Autodesk Architectural Desktop 2007 |Company: Autodesk,Inc. |WEB Address: www.autodesk.com
 90
    32897
280
     0
281
     0
  0
CLASS
  1
AEC_DISPREPAECDBDISPREPMASSELEMPLAN50
  2
AecDbDispRepMassElemPlan50
  3
AecArchDACHBase50|Product Desc: Autodesk Architectural Desktop 2007 |Company: Autodesk,Inc. |WEB Address: www.autodesk.com
 90
    32897
280
     0
281
     0
  0
CLASS
  1
AEC_DISPREPAECDBDISPREPMASSGROUPPLAN100
  2
AecDbDispRepMassGroupPlan100
  3
AecArchDACHBase50|Product Desc: Autodesk Architectural Desktop 2007 |Company: Autodesk,Inc. |WEB Address: www.autodesk.com
 90
    32897
280
     0
281
     0
  0
CLASS
  1
AEC_DISPROPSMASSGROUPPLANCOMMON
  2
AecDbDispPropsMassGroupPlanCommon
  3
AecArchDACHBase50|Product Desc: Autodesk Architectural Desktop 2007 |Company: Autodesk,Inc. |WEB Address: www.autodesk.com
 90
    32897
280
     0
281
     0
  0
CLASS
  1
AEC_DISPREPAECDBDISPREPMASSGROUPPLAN50
  2
AecDbDispRepMassGroupPlan50
  3
AecArchDACHBase50|Product Desc: Autodesk Architectural Desktop 2007 |Company: Autodesk,Inc. |WEB Address: www.autodesk.com
 90
    32897
280
     0
281
     0
  0
CLASS
  1
AEC_DISPREPAECDBDISPREPOPENINGPLAN100
  2
AecDbDispRepOpeningPlan100
  3
AecArchDACHBase50|Product Desc: Autodesk Architectural Desktop 2007 |Company: Autodesk,Inc. |WEB Address: www.autodesk.com
 90
    32897
280
     0
281
     0
  0
CLASS
  1
AEC_DISPROPSOPENINGPLANCOMMONHATCHED
  2
AecDbDispPropsOpeningPlanCommonHatched
  3
AecArchDACHBase50|Product Desc: Autodesk Architectural Desktop 2007 |Company: Autodesk,Inc. |WEB Address: www.autodesk.com
 90
    32897
280
     0
281
     0
  0
CLASS
  1
AEC_DISPREPAECDBDISPREPOPENINGPLAN50
  2
AecDbDispRepOpeningPlan50
  3
AecArchDACHBase50|Product Desc: Autodesk Architectural Desktop 2007 |Company: Autodesk,Inc. |WEB Address: www.autodesk.com
 90
    32897
280
     0
281
     0
  0
CLASS
  1
AEC_DISPREPAECDBDISPREPOPENINGPLANREFLECTED
  2
AecDbDispRepOpeningPlanReflected
  3
AecArchDACHBase50|Product Desc: Autodesk Architectural Desktop 2007 |Company: Autodesk,Inc. |WEB Address: www.autodesk.com
 90
    32897
280
     0
281
     0
  0
CLASS
  1
AEC_DISPROPSOPENINGPLANCOMMON
  2
AecDbDispPropsOpeningPlanCommon
  3
AecArchDACHBase50|Product Desc: Autodesk Architectural Desktop 2007 |Company: Autodesk,Inc. |WEB Address: www.autodesk.com
 90
    32897
280
     0
281
     0
  0
CLASS
  1
AEC_DISPREPAECDBDISPREPOPENINGSILLPLAN
  2
AecDbDispRepOpeningSillPlan
  3
AecArchDACHBase50|Product Desc: Autodesk Architectural Desktop 2007 |Company: Autodesk,Inc. |WEB Address: www.autodesk.com
 90
    32897
280
     0
281
     0
  0
CLASS
  1
AEC_DISPROPSOPENINGSILLPLAN
  2
AecDbDispPropsOpeningSillPlan
  3
AecArchDACHBase50|Product Desc: Autodesk Architectural Desktop 2007 |Company: Autodesk,Inc. |WEB Address: www.autodesk.com
 90
    32897
280
     0
281
     0
  0
CLASS
  1
AEC_DISP_REP_RAILING_PLAN_100
  2
AecDbDispRepRailingPlan100
  3
AecArchDACHBase50|Product Desc: Autodesk Architectural Desktop 2007 |Company: Autodesk,Inc. |WEB Address: www.autodesk.com
 90
    32897
280
     0
281
     0
  0
CLASS
  1
AEC_DISP_ROPS_RAILING_PLAN_100
  2
AecDbDispPropsRailingPlan100
  3
AecArchDACHBase50|Product Desc: Autodesk Architectural Desktop 2007 |Company: Autodesk,Inc. |WEB Address: www.autodesk.com
 90
    32897
280
     0
281
     0
  0
CLASS
  1
AEC_DISP_REP_RAILING_PLAN_50
  2
AecDbDispRepRailingPlan50
  3
AecArchDACHBase50|Product Desc: Autodesk Architectural Desktop 2007 |Company: Autodesk,Inc. |WEB Address: www.autodesk.com
 90
    32897
280
     0
281
     0
  0
CLASS
  1
AEC_DISP_ROPS_RAILING_PLAN_50
  2
AecDbDispPropsRailingPlan50
  3
AecArchDACHBase50|Product Desc: Autodesk Architectural Desktop 2007 |Company: Autodesk,Inc. |WEB Address: www.autodesk.com
 90
    32897
280
     0
281
     0
  0
CLASS
  1
AEC_DISP_REP_STAIR_PLAN_100
  2
AecDbDispRepStairPlan100
  3
AecArchDACHBase50|Product Desc: Autodesk Architectural Desktop 2007 |Company: Autodesk,Inc. |WEB Address: www.autodesk.com
 90
    32897
280
     0
281
     0
  0
CLASS
  1
AEC_DISP_ROPS_STAIR_PLAN_100
  2
AecDbDispPropsStairPlan100
  3
AecArchDACHBase50|Product Desc: Autodesk Architectural Desktop 2007 |Company: Autodesk,Inc. |WEB Address: www.autodesk.com
 90
    32897
280
     0
281
     0
  0
CLASS
  1
AEC_DISP_REP_STAIR_PLAN_50
  2
AecDbDispRepStairPlan50
  3
AecArchDACHBase50|Product Desc: Autodesk Architectural Desktop 2007 |Company: Autodesk,Inc. |WEB Address: www.autodesk.com
 90
    32897
280
     0
281
     0
  0
CLASS
  1
AEC_DISP_ROPS_STAIR_PLAN_50
  2
AecDbDispPropsStairPlan50
  3
AecArchDACHBase50|Product Desc: Autodesk Architectural Desktop 2007 |Company: Autodesk,Inc. |WEB Address: www.autodesk.com
 90
    32897
280
     0
281
     0
  0
CLASS
  1
AEC_DISP_REP_WINDOW_PLAN_100
  2
AecDbDispRepWindowPlan100
  3
AecArchDACHBase50|Product Desc: Autodesk Architectural Desktop 2007 |Company: Autodesk,Inc. |WEB Address: www.autodesk.com
 90
    32897
280
     0
281
     0
  0
CLASS
  1
AEC_DISP_PROPS_WINDOW_PLAN_100
  2
AecDbDispPropsWindowPlan100
  3
AecArchDACHBase50|Product Desc: Autodesk Architectural Desktop 2007 |Company: Autodesk,Inc. |WEB Address: www.autodesk.com
 90
    32897
280
     0
281
     0
  0
CLASS
  1
AEC_DISP_REP_WINDOW_PLAN_50
  2
AecDbDispRepWindowPlan50
  3
AecArchDACHBase50|Product Desc: Autodesk Architectural Desktop 2007 |Company: Autodesk,Inc. |WEB Address: www.autodesk.com
 90
    32897
280
     0
281
     0
  0
CLASS
  1
AEC_DISP_PROPS_WINDOW_PLAN_50
  2
AecDbDispPropsWindowPlan50
  3
AecArchDACHBase50|Product Desc: Autodesk Architectural Desktop 2007 |Company: Autodesk,Inc. |WEB Address: www.autodesk.com
 90
    32897
280
     0
281
     0
  0
CLASS
  1
BINRECORD
  2
AcAecBinRecord
  3
AecBase50|Product Desc: Autodesk Architectural Desktop 2007 |Company: Autodesk,Inc. |WEB Address: www.autodesk.com
 90
    32897
280
     0
281
     0
  0
CLASS
  1
SPATIAL_FILTER
  2
AcDbSpatialFilter
  3
ObjectDBX Classes
 90
    32768
280
     0
281
     0
  0
CLASS
  1
AEC_VARS_STRUCTUREBASE
  2
AecsDbVarsStructureBase
  3
AecStructureBase50|Product Desc: Autodesk Architectural Desktop 2007 |Company: Autodesk,Inc. |WEB Address: www.autodesk.com
 90
    32897
280
     0
281
     0
  0
CLASS
  1
DIMASSOC
  2
AcDbDimAssoc
  3
"AcDbDimAssoc|Product Desc:     AcDim ARX App For Dimension|Company:          Autodesk, Inc.|WEB Address:      www.autodesk.com"
 90
    32768
280
     0
281
     0
  0
CLASS
  1
MATERIAL
  2
AcDbMaterial
  3
ObjectDBX Classes
 90
     1153
280
     0
281
     0
  0
CLASS
  1
VISUALSTYLE
  2
AcDbVisualStyle
  3
ObjectDBX Classes
 90
     4095
280
     0
281
     0
  0
CLASS
  1
TABLESTYLE
  2
AcDbTableStyle
  3
ObjectDBX Classes
 90
     4095
280
     0
281
     0
  0
CLASS
  1
SCALE
  2
AcDbScale
  3
ObjectDBX Classes
 90
     1153
280
     0
281
     0
  0
CLASS
  1
MLEADERSTYLE
  2
AcDbMLeaderStyle
  3
ACDB_MLEADERSTYLE_CLASS
 90
     4095
280
     0
281
     0
  0
CLASS
  1
EXACXREFPANELOBJECT
  2
ExAcXREFPanelObject
  3
EXAC_ESW
 90
     1025
280
     0
281
     0
  0
CLASS
  1
NPOCOLLECTION
  2
AcDbImpNonPersistentObjectsCollection
  3
ObjectDBX Classes
 90
     1153
280
     0
281
     0
  0
CLASS
  1
CELLSTYLEMAP
  2
AcDbCellStyleMap
  3
ObjectDBX Classes
 90
     1152
280
     0
281
     0
  0
CLASS
  1
IMAGE
  2
AcDbRasterImage
  3
ISM
 90
    34943
280
     0
281
     1
  0
CLASS
  1
IMAGEDEF_REACTOR
  2
AcDbRasterImageDefReactor
  3
ISM
 90
    32769
280
     0
281
     0
  0
CLASS
  1
AEC_SPACE
  2
AecDbSpace
  3
AecArchBase50|Product Desc: Autodesk Architectural Desktop 2007 |Company: Autodesk,Inc. |WEB Address: www.autodesk.com
 90
    33661
280
     0
281
     1
  0
CLASS
  1
AecDbPropertySet
  2
AecDbPropertySet
  3
AecScheduleData50|Product Desc: Autodesk Architectural Desktop 2007 |Company: Autodesk,Inc. |WEB Address: www.autodesk.com
 90
    32897
280
     0
281
     0
  0
CLASS
  1
AEC_MVBLOCK_REF
  2
AecDbMvBlockRef
  3
AecBase50|Product Desc: Autodesk Architectural Desktop 2007 |Company: Autodesk,Inc. |WEB Address: www.autodesk.com
 90
    33661
280
     0
281
     1
  0
CLASS
  1
AEC_ANCHOR_TAG_TO_ENT
  2
AecDbAnchorTagToEnt
  3
AecScheduleData50|Product Desc: Autodesk Architectural Desktop 2007 |Company: Autodesk,Inc. |WEB Address: www.autodesk.com
 90
    32897
280
     0
281
     0
  0
CLASS
  1
AEC_SCHEDULE_TABLE
  2
AecDbScheduleTable
  3
AecSchedule50|Product Desc: Autodesk Architectural Desktop 2007 |Company: Autodesk,Inc. |WEB Address: www.autodesk.com
 90
    33661
280
     0
281
     1
  0
CLASS
  1
AEC_CLEANUP_GROUP_DEF
  2
AecDbCleanupGroupDef
  3
AecArchBase50|Product Desc: Autodesk Architectural Desktop 2007 |Company: Autodesk,Inc. |WEB Address: www.autodesk.com
 90
    32897
280
     0
281
     0
  0
CLASS
  1
AEC_DISP_REP_DISPLAYTHEME
  2
AecDbDispRepDisplayTheme
  3
AecBase50|Product Desc: Autodesk Architectural Desktop 2007 |Company: Autodesk,Inc. |WEB Address: www.autodesk.com
 90
    32897
280
     0
281
     0
  0
CLASS
  1
AEC_DISP_REP_SPACE_DECOMPOSED
  2
AecDbDispRepSpaceDecomposed
  3
AecArchBase50|Product Desc: Autodesk Architectural Desktop 2007 |Company: Autodesk,Inc. |WEB Address: www.autodesk.com
 90
    32897
280
     0
281
     0
  0
CLASS
  1
AEC_DISP_REP_ZONE
  2
AecDbDispRepZone
  3
AecArchBase50|Product Desc: Autodesk Architectural Desktop 2007 |Company: Autodesk,Inc. |WEB Address: www.autodesk.com
 90
    32897
280
     0
281
     0
  0
CLASS
  1
AEC_DISP_PROPS_ZONE
  2
AecDbDispPropsZone
  3
AecArchBase50|Product Desc: Autodesk Architectural Desktop 2007 |Company: Autodesk,Inc. |WEB Address: www.autodesk.com
 90
    32897
280
     0
281
     0
  0
CLASS
  1
AEC_DISP_PROPS_SPACE_DECOMPOSED
  2
AecDbDispPropsSpaceDecomposed
  3
AecArchBase50|Product Desc: Autodesk Architectural Desktop 2007 |Company: Autodesk,Inc. |WEB Address: www.autodesk.com
 90
    32897
280
     0
281
     0
  0
CLASS
  1
AEC_DISP_PROPS_DISPLAYTHEME
  2
AecDbDispPropsDisplayTheme
  3
AecBase50|Product Desc: Autodesk Architectural Desktop 2007 |Company: Autodesk,Inc. |WEB Address: www.autodesk.com
 90
    32897
280
     0
281
     0
  0
CLASS
  1
AEC_ENDCAP_STYLE
  2
AecDbEndcapStyle
  3
AecArchBase50|Product Desc: Autodesk Architectural Desktop 2007 |Company: Autodesk,Inc. |WEB Address: www.autodesk.com
 90
    32897
280
     0
281
     0
  0
CLASS
  1
AEC_LIST_DEF
  2
AecDbListDefinition
  3
AecBase50|Product Desc: Autodesk Architectural Desktop 2007 |Company: Autodesk,Inc. |WEB Address: www.autodesk.com
 90
    32897
280
     0
281
     0
  0
CLASS
  1
AEC_LIST_DEF
  2
AecDbListItem
  3
AecBase50|Product Desc: Autodesk Architectural Desktop 2007 |Company: Autodesk,Inc. |WEB Address: www.autodesk.com
 90
    32897
280
     0
281
     0
  0
CLASS
  1
AEC_MATERIAL_DEF
  2
AecDbMaterialDef
  3
AecBase50|Product Desc: Autodesk Architectural Desktop 2007 |Company: Autodesk,Inc. |WEB Address: www.autodesk.com
 90
    32897
280
     0
281
     0
  0
CLASS
  1
AEC_MVBLOCK_DEF
  2
AecDbMvBlockDef
  3
AecBase50|Product Desc: Autodesk Architectural Desktop 2007 |Company: Autodesk,Inc. |WEB Address: www.autodesk.com
 90
    32897
280
     0
281
     0
  0
CLASS
  1
AEC_FRAME_DEF
  2
AecDbOpeningEndcapStyle
  3
AecArchBase50|Product Desc: Autodesk Architectural Desktop 2007 |Company: Autodesk,Inc. |WEB Address: www.autodesk.com
 90
    32897
280
     0
281
     0
  0
CLASS
  1
AEC_SCHEDULE_DATA_FORMAT
  2
AecDbScheduleDataFormat
  3
AecScheduleData50|Product Desc: Autodesk Architectural Desktop 2007 |Company: Autodesk,Inc. |WEB Address: www.autodesk.com
 90
    32897
280
     0
281
     0
  0
CLASS
  1
AEC_PROPERTY_SET_DEF
  2
AecDbPropertySetDef
  3
AecScheduleData50|Product Desc: Autodesk Architectural Desktop 2007 |Company: Autodesk,Inc. |WEB Address: www.autodesk.com
 90
    32897
280
     0
281
     0
  0
CLASS
  1
AEC_ROOFSLAB_STYLE
  2
AecDbRoofSlabStyle
  3
AecArchBase50|Product Desc: Autodesk Architectural Desktop 2007 |Company: Autodesk,Inc. |WEB Address: www.autodesk.com
 90
    32897
280
     0
281
     0
  0
CLASS
  1
AEC_ROOFSLABEDGE_STYLE
  2
AecDbRoofSlabEdgeStyle
  3
AecArchBase50|Product Desc: Autodesk Architectural Desktop 2007 |Company: Autodesk,Inc. |WEB Address: www.autodesk.com
 90
    32897
280
     0
281
     0
  0
CLASS
  1
AEC_SCHEDULE_TABLE_STYLE
  2
AecDbScheduleTableStyle
  3
AecSchedule50|Product Desc: Autodesk Architectural Desktop 2007 |Company: Autodesk,Inc. |WEB Address: www.autodesk.com
 90
    32897
280
     0
281
     0
  0
CLASS
  1
AEC_SLAB_STYLE
  2
AecDbSlabStyle
  3
AecArchBase50|Product Desc: Autodesk Architectural Desktop 2007 |Company: Autodesk,Inc. |WEB Address: www.autodesk.com
 90
    32897
280
     0
281
     0
  0
CLASS
  1
AEC_SLABEDGE_STYLE
  2
AecDbSlabEdgeStyle
  3
AecArchBase50|Product Desc: Autodesk Architectural Desktop 2007 |Company: Autodesk,Inc. |WEB Address: www.autodesk.com
 90
    32897
280
     0
281
     0
  0
CLASS
  1
AEC_SPACE_STYLES
  2
AecDbSpaceStyle
  3
AecArchBase50|Product Desc: Autodesk Architectural Desktop 2007 |Company: Autodesk,Inc. |WEB Address: www.autodesk.com
 90
    32897
280
     0
281
     0
  0
CLASS
  1
AEC_WALL_STYLE
  2
AecDbWallStyle
  3
AecArchBase50|Product Desc: Autodesk Architectural Desktop 2007 |Company: Autodesk,Inc. |WEB Address: www.autodesk.com
 90
    32897
280
     0
281
     0
  0
CLASS
  1
IMAGEDEF
  2
AcDbRasterImageDef
  3
ISM
 90
    32768
280
     0
281
     0
  0
CLASS
  1
AEC_DISP_REP_ANCHOR_EXT_TAG_TO_ENT
  2
AecDbDispRepAnchorExtendedTagToEnt
  3
AecScheduleData50|Product Desc: Autodesk Architectural Desktop 2007 |Company: Autodesk,Inc. |WEB Address: www.autodesk.com
 90
    32897
280
     0
281
     0
  0
CLASS
  1
AEC_AECDBDISPREPZONE100
  2
AecDbDispRepZonePlan100
  3
AecArchDACHBase50|Product Desc: Autodesk Architectural Desktop 2007 |Company: Autodesk,Inc. |WEB Address: www.autodesk.com
 90
    32897
280
     0
281
     0
  0
CLASS
  1
AEC_AECDBDISPREPZONE50
  2
AecDbDispRepZonePlan50
  3
AecArchDACHBase50|Product Desc: Autodesk Architectural Desktop 2007 |Company: Autodesk,Inc. |WEB Address: www.autodesk.com
 90
    32897
280
     0
281
     0
  0
CLASS
  1
OBJECT_PTR
  2
CAseDLPNTableRecord
  3
ASE-LPNTableRecord
 90
    32769
280
     0
281
     0
  0
CLASS
  1
AEC_REFEDIT_STATUS_TRACKER
  2
AecDbRefEditStatusTracker
  3
AecArchBase50|Product Desc: Autodesk Architectural Desktop 2007 |Company: Autodesk,Inc. |WEB Address: www.autodesk.com
 90
    32897
280
     0
281
     0
  0
CLASS
  1
RASTERVARIABLES
  2
AcDbRasterVariables
  3
ISM
 90
    32768
280
     0
281
     0
  0
CLASS
  1
AEC_ANCHOR_MVB_TO_UCS
  2
AecDbAnchorMVBToUCS
  3
AecBase50|Product Desc: Autodesk Architectural Desktop 2007 |Company: Autodesk,Inc. |WEB Address: www.autodesk.com
 90
    32897
280
     0
281
     0
  0
CLASS
  1
ACAD_EVALUATION_GRAPH
  2
AcDbEvalGraph
  3
ObjectDBX Classes
 90
    33921
280
     0
281
     0
  0
CLASS
  1
BLOCKLINEARPARAMETER
  2
AcDbBlockLinearParameter
  3
ObjectDBX Classes
 90
    33921
280
     0
281
     0
  0
CLASS
  1
BLOCKMOVEACTION
  2
AcDbBlockMoveAction
  3
ObjectDBX Classes
 90
    33921
280
     0
281
     0
  0
CLASS
  1
BLOCKVISIBILITYPARAMETER
  2
AcDbBlockVisibilityParameter
  3
ObjectDBX Classes
 90
    33921
280
     0
281
     0
  0
CLASS
  1
BLOCKLOOKUPPARAMETER
  2
AcDbBlockLookupParameter
  3
ObjectDBX Classes
 90
    33921
280
     0
281
     0
  0
CLASS
  1
BLOCKLOOKUPGRIP
  2
AcDbBlockLookupGrip
  3
ObjectDBX Classes
 90
    33921
280
     0
281
     0
  0
CLASS
  1
BLOCKGRIPLOCATIONCOMPONENT
  2
AcDbBlockGripExpr
  3
ObjectDBX Classes
 90
    33921
280
     0
281
     0
  0
CLASS
  1
BLOCKLOOKUPACTION
  2
AcDbBlockLookupAction
  3
ObjectDBX Classes
 90
    33921
280
     0
281
     0
  0
CLASS
  1
ACDB_DYNAMICBLOCKPURGEPREVENTER_VERSION
  2
AcDbDynamicBlockPurgePreventer
  3
ObjectDBX Classes
 90
    33921
280
     0
281
     0
  0
CLASS
  1
ACDB_BLOCKREPRESENTATION_DATA
  2
AcDbBlockRepresentationData
  3
ObjectDBX Classes
 90
    33921
280
     0
281
     0
  0
CLASS
  1
SOLID_BACKGROUND
  2
AcDbSolidBackground
  3
SCENEOE
 90
    36863
280
     0
281
     0
  0
ENDSEC
  0
SECTION
  2
TABLES
  0
TABLE
  2
VPORT
  5
26
330
0
100
AcDbSymbolTable
 70
     1
  0
VPORT
  5
27
330
26
100
AcDbSymbolTableRecord
100
AcDbViewportTableRecord
  2
*Active
 70
     0
 10
0.0
 20
0.0
 11
1.0
 21
1.0
 12
19512.59738774461
 22
-1971.9026188297
 13
0.0
 23
0.0
 14
10.0
 24
10.0
 15
10.0
 25
10.0
 16
0.0
 26
0.0
 36
1.0
 17
0.0
 27
0.0
 37
0.0
 40
5591.099171611578
 41
1.785714285714285
 42
50.0
 43
0.0
 44
0.0
 50
0.0
 51
0.0
 71
     0
 72
  1000
 73
     1
 74
     1
 75
     0
 76
     0
 77
     0
 78
     0
281
     0
 65
     1
110
0.0
120
0.0
130
0.0
111
1.0
121
0.0
131
0.0
112
0.0
122
1.0
132
0.0
 79
     0
146
0.0
  0
ENDTAB
  0
TABLE
  2
LTYPE
  5
21
330
0
100
AcDbSymbolTable
 70
     2
  0
LTYPE
  5
22
330
21
100
AcDbSymbolTableRecord
100
AcDbLinetypeTableRecord
  2
ByBlock
 70
     0
  3

 72
    65
 73
     0
 40
0.0
  0
LTYPE
  5
23
330
21
100
AcDbSymbolTableRecord
100
AcDbLinetypeTableRecord
  2
ByLayer
 70
     0
  3

 72
    65
 73
     0
 40
0.0
  0
LTYPE
  5
E
330
21
100
AcDbSymbolTableRecord
100
AcDbLinetypeTableRecord
  2
Continuous
 70
     0
  3
Solid line
 72
    65
 73
     0
 40
0.0
  0
LTYPE
  5
8C7
330
21
100
AcDbSymbolTableRecord
100
AcDbLinetypeTableRecord
  2
HIDDEN
 70
     0
  3
__ __ __ __ __ __ __ __ __ __ __ __ __ __ __ __
 72
    65
 73
     2
 40
0.375
 49
0.25
 74
     0
 49
-0.125
 74
     0
  0
ENDTAB
  0
TABLE
  2
LAYER
  5
1B
102
{ACAD_XDICTIONARY
360
1C
102
}
330
0
100
AcDbSymbolTable
 70
     6
  0
LAYER
  5
6
102
{ACAD_XDICTIONARY
360
7
102
}
330
1B
100
AcDbSymbolTableRecord
100
AcDbLayerTableRecord
  2
0
 70
     0
 62
     7
  6
Continuous
370
    -3
390
9
1001
RAK
1000
{ACET-LAYISO
1070
     0
1070
     7
1000
Continuous
1071
       -3
1071
        1
1005
9
1000
ACET-LAYISO}
  0
LAYER
  5
156
330
1B
100
AcDbSymbolTableRecord
100
AcDbLayerTableRecord
  2
DEFPOINTS
 70
     0
 62
     7
  6
Continuous
290
     0
370
    -3
390
9
1001
RAK
1000
{ACET-LAYISO
1070
     0
1070
     7
1000
Continuous
1071
       -3
1071
        0
1005
9
1000
ACET-LAYISO}
  0
LAYER
  5
52
330
1B
100
AcDbSymbolTableRecord
100
AcDbLayerTableRecord
  2
0Wymiary-PL
 70
     0
 62
     1
  6
Continuous
370
     5
390
9
  0
ENDTAB
  0
TABLE
  2
STYLE
  5
1E
330
0
100
AcDbSymbolTable
 70
     4
  0
STYLE
  5
1F
330
1E
100
AcDbSymbolTableRecord
100
AcDbTextStyleTableRecord
  2
Standard
 70
     0
 40
0.0
 41
1.0
 50
0.0
 71
     0
 42
2.5
  3
txt
  4

  0
STYLE
  5
2C
330
1E
100
AcDbSymbolTableRecord
100
AcDbTextStyleTableRecord
  2
ROMANS
 70
     0
 40
0.0
 41
0.9
 50
0.0
 71
     0
 42
20.0
  3
romans.shx
  4

  0
STYLE
  5
6C
330
1E
100
AcDbSymbolTableRecord
100
AcDbTextStyleTableRecord
  2
AVA
 70
     0
 40
0.0
 41
1.0
 50
0.0
 71
     0
 42
158.5644099714409
  3
ARIAL.TTF
  4

1001
ACAD
1000
Arial CE
1071
    60962
  0
ENDTAB
  0
TABLE
  2
VIEW
  5
24
330
0
100
AcDbSymbolTable
 70
     1
  0
VIEW
  5
13
330
24
100
AcDbSymbolTableRecord
100
AcDbViewTableRecord
  2
RODODENDRON 5
 70
     0
 40
14020.0
 10
220287.1664355166
 20
148687.514558954
 41
10200.00000000003
 11
0.0
 21
0.0
 31
1.0
 12
0.0
 22
0.0
 32
0.0
 42
50.0
 43
0.0
 44
0.0
 50
0.0
 71
     0
281
     0
 72
     1
110
0.0
120
0.0
130
0.0
111
1.0
121
0.0
131
0.0
112
0.0
122
1.0
132
0.0
 79
     0
146
0.0
  0
ENDTAB
  0
TABLE
  2
UCS
  5
25
330
0
100
AcDbSymbolTable
 70
     0
  0
ENDTAB
  0
TABLE
  2
APPID
  5
28
330
0
100
AcDbSymbolTable
 70
     9
  0
APPID
  5
29
330
28
100
AcDbSymbolTableRecord
100
AcDbRegAppTableRecord
  2
ACAD
 70
     0
  0
APPID
  5
F
330
28
100
AcDbSymbolTableRecord
100
AcDbRegAppTableRecord
  2
RAK
 70
     0
  0
APPID
  5
16
330
28
100
AcDbSymbolTableRecord
100
AcDbRegAppTableRecord
  2
ACAD_PSEXT
 70
     0
  0
APPID
  5
3A0
330
28
100
AcDbSymbolTableRecord
100
AcDbRegAppTableRecord
  2
DCO15
 70
     0
  0
APPID
  5
3BB
330
28
100
AcDbSymbolTableRecord
100
AcDbRegAppTableRecord
  2
ACAD_MLEADERVER
 70
     0
  0
APPID
  5
3C3
330
28
100
AcDbSymbolTableRecord
100
AcDbRegAppTableRecord
  2
ACAD_EXEMPT_FROM_CAD_STANDARDS
 70
     0
  0
APPID
  5
7A1
330
28
100
AcDbSymbolTableRecord
100
AcDbRegAppTableRecord
  2
AcLayerTools
 70
     0
  0
APPID
  5
7A9
330
28
100
AcDbSymbolTableRecord
100
AcDbRegAppTableRecord
  2
ACAD_DSTYLE_DIMJOGGED_JOGANGLE_SYMBOL
 70
     0
  0
APPID
  5
989
330
28
100
AcDbSymbolTableRecord
100
AcDbRegAppTableRecord
  2
AcAecLayerStandard
 70
     0
  0
ENDTAB
  0
TABLE
  2
DIMSTYLE
  5
2A
330
0
100
AcDbSymbolTable
 70
     6
100
AcDbDimStyleTable
 71
     2
340
40
340
7A5
  0
DIMSTYLE
105
40
102
{ACAD_REACTORS
330
8FF
330
8F4
330
8E9
330
8DE
330
8D3
330
A93
330
AA0
330
AAB
330
AB8
330
AC3
330
B62
330
D31
330
D32
330
D33
330
D34
330
D35
330
D3F
330
D40
330
D41
330
D42
330
D43
330
D44
102
}
330
2A
100
AcDbSymbolTableRecord
100
AcDbDimStyleTableRecord
  2
500
 70
     0
 41
30.0
 42
43.0
 43
0.0
 44
13.0
 45
0.5
 46
12.0
 73
     0
 74
     0
 75
     1
 76
     1
 78
    12
140
80.0
141
0.0
145
1.0
147
0.0
172
     1
174
     1
176
     1
177
     1
178
   140
271
     1
272
     1
279
     2
340
2C
341
41
342
41
  0
DIMSTYLE
105
7A5
330
2A
100
AcDbSymbolTableRecord
100
AcDbDimStyleTableRecord
  2
Standard
 70
     0
340
1F
  0
ENDTAB
  0
TABLE
  2
BLOCK_RECORD
  5
1
330
0
100
AcDbSymbolTable
 70
    24
  0
BLOCK_RECORD
  5
2
102
{ACAD_XDICTIONARY
360
3
102
}
330
1
100
AcDbSymbolTableRecord
100
AcDbBlockTableRecord
  2
*Model_Space
340
11
  0
BLOCK_RECORD
  5
17
330
1
100
AcDbSymbolTableRecord
100
AcDbBlockTableRecord
  2
*Paper_Space
340
1A
  0
BLOCK_RECORD
  5
41
102
{ACAD_XDICTIONARY
360
42
102
}
330
1
100
AcDbSymbolTableRecord
100
AcDbBlockTableRecord
  2
B-DIM
340
0
102
{BLKREFS
331
A6F
331
A70
331
ADB
331
ADC
331
B19
331
B1A
331
C2E
331
C2F
331
C3E
331
C3F
331
C45
331
C46
331
C4E
331
C4F
331
C55
331
C56
331
C5D
331
C5E
331
C63
331
C64
331
DC7
331
DC8
331
DCE
331
DCF
331
DD5
331
DD6
331
DDC
331
DDD
331
DE4
331
DE5
331
DEA
331
DEB
331
DF3
331
DF4
331
DFA
331
DFB
331
E04
331
E05
331
E0A
331
E0B
331
E14
331
E15
331
E1B
331
E1C
102
}
  0
BLOCK_RECORD
  5
8D4
330
1
100
AcDbSymbolTableRecord
100
AcDbBlockTableRecord
  2
*D1
340
0
  0
BLOCK_RECORD
  5
8DF
330
1
100
AcDbSymbolTableRecord
100
AcDbBlockTableRecord
  2
*D2
340
0
  0
BLOCK_RECORD
  5
8EA
330
1
100
AcDbSymbolTableRecord
100
AcDbBlockTableRecord
  2
*D3
340
0
  0
BLOCK_RECORD
  5
8F5
330
1
100
AcDbSymbolTableRecord
100
AcDbBlockTableRecord
  2
*D4
340
0
  0
BLOCK_RECORD
  5
900
330
1
100
AcDbSymbolTableRecord
100
AcDbBlockTableRecord
  2
*D5
340
0
  0
BLOCK_RECORD
  5
A94
330
1
100
AcDbSymbolTableRecord
100
AcDbBlockTableRecord
  2
*D6
340
0
  0
BLOCK_RECORD
  5
AA1
330
1
100
AcDbSymbolTableRecord
100
AcDbBlockTableRecord
  2
*D7
340
0
  0
BLOCK_RECORD
  5
AAC
330
1
100
AcDbSymbolTableRecord
100
AcDbBlockTableRecord
  2
*D8
340
0
  0
BLOCK_RECORD
  5
AB9
330
1
100
AcDbSymbolTableRecord
100
AcDbBlockTableRecord
  2
*D9
340
0
  0
BLOCK_RECORD
  5
AC4
330
1
100
AcDbSymbolTableRecord
100
AcDbBlockTableRecord
  2
*D10
340
0
  0
BLOCK_RECORD
  5
B63
330
1
100
AcDbSymbolTableRecord
100
AcDbBlockTableRecord
  2
*D11
340
0
  0
BLOCK_RECORD
  5
D49
330
1
100
AcDbSymbolTableRecord
100
AcDbBlockTableRecord
  2
*D13
340
0
  0
BLOCK_RECORD
  5
D55
330
1
100
AcDbSymbolTableRecord
100
AcDbBlockTableRecord
  2
*D14
340
0
  0
BLOCK_RECORD
  5
D5F
330
1
100
AcDbSymbolTableRecord
100
AcDbBlockTableRecord
  2
*D15
340
0
  0
BLOCK_RECORD
  5
D69
330
1
100
AcDbSymbolTableRecord
100
AcDbBlockTableRecord
  2
*D16
340
0
  0
BLOCK_RECORD
  5
D73
330
1
100
AcDbSymbolTableRecord
100
AcDbBlockTableRecord
  2
*D17
340
0
  0
BLOCK_RECORD
  5
D7D
330
1
100
AcDbSymbolTableRecord
100
AcDbBlockTableRecord
  2
*D18
340
0
  0
BLOCK_RECORD
  5
D87
330
1
100
AcDbSymbolTableRecord
100
AcDbBlockTableRecord
  2
*D19
340
0
  0
BLOCK_RECORD
  5
D91
330
1
100
AcDbSymbolTableRecord
100
AcDbBlockTableRecord
  2
*D20
340
0
  0
BLOCK_RECORD
  5
D9D
330
1
100
AcDbSymbolTableRecord
100
AcDbBlockTableRecord
  2
*D21
340
0
  0
BLOCK_RECORD
  5
DA7
330
1
100
AcDbSymbolTableRecord
100
AcDbBlockTableRecord
  2
*D22
340
0
  0
BLOCK_RECORD
  5
DB3
330
1
100
AcDbSymbolTableRecord
100
AcDbBlockTableRecord
  2
*D23
340
0
  0
ENDTAB
  0
ENDSEC
  0
SECTION
  2
BLOCKS
  0
BLOCK
  5
5
330
2
100
AcDbEntity
  8
0
100
AcDbBlockBegin
  2
*Model_Space
 70
     0
 10
0.0
 20
0.0
 30
0.0
  3
*Model_Space
  1

  0
ENDBLK
  5
10
330
2
100
AcDbEntity
  8
0
100
AcDbBlockEnd
  0
BLOCK
  5
18
330
17
100
AcDbEntity
 67
     1
  8
0
100
AcDbBlockBegin
  2
*Paper_Space
 70
     0
 10
0.0
 20
0.0
 30
0.0
  3
*Paper_Space
  1

  0
ENDBLK
  5
19
330
17
100
AcDbEntity
 67
     1
  8
0
100
AcDbBlockEnd
  0
BLOCK
  5
44
330
41
100
AcDbEntity
  8
0
100
AcDbBlockBegin
  2
B-DIM
 70
     0
 10
0.0
 20
0.0
 30
0.0
  3
B-DIM
  1

  0
LINE
  5
45
330
41
100
AcDbEntity
  8
0
 62
     1
100
AcDbLine
 10
0.000000000000091
 20
-1.1
 30
0.0
 11
0.000000000000091
 21
1.1
 31
0.0
  0
LWPOLYLINE
  5
46
330
41
100
AcDbEntity
  8
0
 62
     1
100
AcDbPolyline
 90
        2
 70
     0
 43
0.3
 10
-0.7071067811864851
 20
-0.7071067811864851
 10
0.707106781186576
 20
0.707106781186576
  0
LINE
  5
47
330
41
100
AcDbEntity
  8
0
 62
     1
100
AcDbLine
 10
1.20000000000009
 20
0.0
 30
0.0
 11
-1.199999999999909
 21
0.0
 31
0.0
  0
ENDBLK
  5
48
330
41
100
AcDbEntity
  8
0
100
AcDbBlockEnd
  0
BLOCK
  5
8D5
330
8D4
100
AcDbEntity
  8
0
100
AcDbBlockBegin
  2
*D1
 70
     1
 10
0.0
 20
0.0
 30
0.0
  3
*D1
  1

  0
LINE
  5
E12
330
8D4
100
AcDbEntity
  8
0
 62
     1
370
    -2
100
AcDbLine
 10
17139.30768234073
 20
-1060.789444433467
 30
0.0
 11
17139.30768234073
 21
-1100.789444074791
 31
0.0
  0
MTEXT
  5
E13
330
8D4
100
AcDbEntity
  8
0
 62
   140
370
     5
100
AcDbMText
 10
17059.30768234073
 20
-1060.183201399828
 30
0.0
 40
80.0
 41
0.0
 71
     5
 72
     1
  1
\A1;100
  7
ROMANS
 11
0.0000000000000001
 21
1.0
 31
0.0
 73
     1
 44
1.0
1001
ACAD
1000
MTEXTBEGIN
1070
    73
1070
     1
1070
    44
1040
1.0
1070
    74
1070
     0
1000
MTEXTEND
  0
INSERT
  5
E14
330
8D4
100
AcDbEntity
  8
0
 62
     1
370
    -2
100
AcDbBlockReference
  2
B-DIM
 10
17139.30768234073
 20
-1030.789444433467
 30
0.0
 41
30.0
 42
30.0
 43
30.0
 50
90.0
  0
INSERT
  5
E15
330
8D4
100
AcDbEntity
  8
0
 62
     1
370
    -2
100
AcDbBlockReference
  2
B-DIM
 10
17139.30768234073
 20
-1130.789444074791
 30
0.0
 41
30.0
 42
30.0
 43
30.0
 50
270.0
  0
POINT
  5
E16
330
8D4
100
AcDbEntity
  8
DEFPOINTS
 62
     0
100
AcDbPoint
 10
18101.22119274488
 20
-1030.789444433467
 30
-0.0000000000005614
  0
POINT
  5
E17
330
8D4
100
AcDbEntity
  8
DEFPOINTS
 62
     0
100
AcDbPoint
 10
18001.22119310352
 20
-1130.789444074791
 30
-0.0000000000006502
  0
POINT
  5
E18
330
8D4
100
AcDbEntity
  8
DEFPOINTS
 62
     0
100
AcDbPoint
 10
17139.30768234073
 20
-1130.789444074791
 30
0.0
  0
ENDBLK
  5
8D6
330
8D4
100
AcDbEntity
  8
0
100
AcDbBlockEnd
  0
BLOCK
  5
8E0
330
8DF
100
AcDbEntity
  8
0
100
AcDbBlockBegin
  2
*D2
 70
     1
 10
0.0
 20
0.0
 30
0.0
  3
*D2
  1

  0
LINE
  5
C2D
330
8DF
100
AcDbEntity
  8
0
 62
     1
370
    -2
100
AcDbLine
 10
17139.30768234073
 20
-1160.789444074791
 30
0.0
 11
17139.30768234073
 21
-1470.789444074791
 31
0.0
  0
INSERT
  5
C2E
330
8DF
100
AcDbEntity
  8
0
 62
     1
370
    -2
100
AcDbBlockReference
  2
B-DIM
 10
17139.30768234073
 20
-1130.789444074791
 30
0.0
 41
30.0
 42
30.0
 43
30.0
 50
90.0
  0
INSERT
  5
C2F
330
8DF
100
AcDbEntity
  8
0
 62
     1
370
    -2
100
AcDbBlockReference
  2
B-DIM
 10
17139.30768234073
 20
-1500.789444074791
 30
0.0
 41
30.0
 42
30.0
 43
30.0
 50
270.0
  0
MTEXT
  5
C30
330
8DF
100
AcDbEntity
  8
0
 62
   140
370
     5
100
AcDbMText
 10
17059.30768234073
 20
-1315.789444074788
 30
0.0
 40
80.0
 41
0.0
 71
     5
 72
     1
  1
\A1;370
  7
ROMANS
 11
0.0000000000000001
 21
1.0
 31
0.0
 73
     1
 44
1.0
1001
ACAD
1000
MTEXTBEGIN
1070
    73
1070
     1
1070
    44
1040
1.0
1070
    74
1070
     0
1000
MTEXTEND
  0
POINT
  5
C31
330
8DF
100
AcDbEntity
  8
DEFPOINTS
 62
     0
100
AcDbPoint
 10
18001.22119310352
 20
-1130.789444074791
 30
-0.0000000000006502
  0
POINT
  5
C32
330
8DF
100
AcDbEntity
  8
DEFPOINTS
 62
     0
100
AcDbPoint
 10
17661.22119246903
 20
-1500.789444074791
 30
0.0
  0
POINT
  5
C33
330
8DF
100
AcDbEntity
  8
DEFPOINTS
 62
     0
100
AcDbPoint
 10
17139.30768234073
 20
-1500.789444074791
 30
0.0
  0
ENDBLK
  5
8E1
330
8DF
100
AcDbEntity
  8
0
100
AcDbBlockEnd
  0
BLOCK
  5
8EB
330
8EA
100
AcDbEntity
  8
0
100
AcDbBlockBegin
  2
*D3
 70
     1
 10
0.0
 20
0.0
 30
0.0
  3
*D3
  1

  0
LINE
  5
B18
330
8EA
100
AcDbEntity
  8
0
 62
     1
370
    -2
100
AcDbLine
 10
17139.30768234073
 20
-1530.789444074791
 30
0.0
 11
17139.30768234073
 21
-1870.789444074791
 31
0.0
  0
INSERT
  5
B19
330
8EA
100
AcDbEntity
  8
0
 62
     1
370
    -2
100
AcDbBlockReference
  2
B-DIM
 10
17139.30768234073
 20
-1500.789444074791
 30
0.0
 41
30.0
 42
30.0
 43
30.0
 50
90.0
  0
INSERT
  5
B1A
330
8EA
100
AcDbEntity
  8
0
 62
     1
370
    -2
100
AcDbBlockReference
  2
B-DIM
 10
17139.30768234073
 20
-1900.789444074791
 30
0.0
 41
30.0
 42
30.0
 43
30.0
 50
270.0
  0
MTEXT
  5
B1B
330
8EA
100
AcDbEntity
  8
0
 62
   140
370
     5
100
AcDbMText
 10
17059.30768234073
 20
-1700.789444074789
 30
0.0
 40
80.0
 41
0.0
 71
     5
 72
     1
  1
\A1;400
  7
ROMANS
 11
0.0000000000000001
 21
1.0
 31
0.0
 73
     1
 44
1.0
1001
ACAD
1000
MTEXTBEGIN
1070
    73
1070
     1
1070
    44
1040
1.0
1070
    74
1070
     0
1000
MTEXTEND
  0
POINT
  5
B1C
330
8EA
100
AcDbEntity
  8
DEFPOINTS
 62
     0
100
AcDbPoint
 10
17661.22119246903
 20
-1500.789444074791
 30
0.0
  0
POINT
  5
B1D
330
8EA
100
AcDbEntity
  8
DEFPOINTS
 62
     0
100
AcDbPoint
 10
17661.22119246903
 20
-1900.789444074791
 30
0.0
  0
POINT
  5
B1E
330
8EA
100
AcDbEntity
  8
DEFPOINTS
 62
     0
100
AcDbPoint
 10
17139.30768234073
 20
-1900.789444074791
 30
0.0
  0
ENDBLK
  5
8EC
330
8EA
100
AcDbEntity
  8
0
100
AcDbBlockEnd
  0
BLOCK
  5
8F6
330
8F5
100
AcDbEntity
  8
0
100
AcDbBlockBegin
  2
*D4
 70
     1
 10
0.0
 20
0.0
 30
0.0
  3
*D4
  1

  0
LINE
  5
A6E
330
8F5
100
AcDbEntity
  8
0
 62
     1
370
    -2
100
AcDbLine
 10
17139.30768234073
 20
-1930.789444074791
 30
0.0
 11
17139.30768234073
 21
-2240.789444074791
 31
0.0
  0
INSERT
  5
A6F
330
8F5
100
AcDbEntity
  8
0
 62
     1
370
    -2
100
AcDbBlockReference
  2
B-DIM
 10
17139.30768234073
 20
-1900.789444074791
 30
0.0
 41
30.0
 42
30.0
 43
30.0
 50
90.0
  0
INSERT
  5
A70
330
8F5
100
AcDbEntity
  8
0
 62
     1
370
    -2
100
AcDbBlockReference
  2
B-DIM
 10
17139.30768234073
 20
-2270.789444074791
 30
0.0
 41
30.0
 42
30.0
 43
30.0
 50
270.0
  0
MTEXT
  5
A71
330
8F5
100
AcDbEntity
  8
0
 62
   140
100
AcDbMText
 10
17059.30768234073
 20
-2085.789444074788
 30
0.0
 40
80.0
 41
0.0
 71
     5
 72
     1
  1
\A1;370
  7
ROMANS
 11
0.0000000000000001
 21
1.0
 31
0.0
 73
     1
 44
1.0
1001
ACAD
1000
MTEXTBEGIN
1070
    73
1070
     1
1070
    44
1040
1.0
1070
    74
1070
     0
1000
MTEXTEND
  0
POINT
  5
A72
330
8F5
100
AcDbEntity
  8
DEFPOINTS
 62
     0
100
AcDbPoint
 10
17661.22119246903
 20
-1900.789444074791
 30
0.0
  0
POINT
  5
A73
330
8F5
100
AcDbEntity
  8
DEFPOINTS
 62
     0
100
AcDbPoint
 10
17701.22119246903
 20
-2270.789444074792
 30
0.0
  0
POINT
  5
A74
330
8F5
100
AcDbEntity
  8
DEFPOINTS
 62
     0
100
AcDbPoint
 10
17139.30768234073
 20
-2270.789444074791
 30
0.0
  0
ENDBLK
  5
8F7
330
8F5
100
AcDbEntity
  8
0
100
AcDbBlockEnd
  0
BLOCK
  5
901
330
900
100
AcDbEntity
  8
0
100
AcDbBlockBegin
  2
*D5
 70
     1
 10
0.0
 20
0.0
 30
0.0
  3
*D5
  1

  0
LINE
  5
C62
330
900
100
AcDbEntity
  8
0
 62
     1
370
    -2
100
AcDbLine
 10
17139.30768234073
 20
-2300.789444074791
 30
0.0
 11
17139.30768234073
 21
-2570.789444074791
 31
0.0
  0
INSERT
  5
C63
330
900
100
AcDbEntity
  8
0
 62
     1
370
    -2
100
AcDbBlockReference
  2
B-DIM
 10
17139.30768234073
 20
-2270.789444074791
 30
0.0
 41
30.0
 42
30.0
 43
30.0
 50
90.0
  0
INSERT
  5
C64
330
900
100
AcDbEntity
  8
0
 62
     1
370
    -2
100
AcDbBlockReference
  2
B-DIM
 10
17139.30768234073
 20
-2600.789444074791
 30
0.0
 41
30.0
 42
30.0
 43
30.0
 50
270.0
  0
MTEXT
  5
C65
330
900
100
AcDbEntity
  8
0
 62
   140
370
     5
100
AcDbMText
 10
17059.30768234073
 20
-2435.789444074788
 30
0.0
 40
80.0
 41
0.0
 71
     5
 72
     1
  1
\A1;330
  7
ROMANS
 11
0.0000000000000001
 21
1.0
 31
0.0
 73
     1
 44
1.0
1001
ACAD
1000
MTEXTBEGIN
1070
    73
1070
     1
1070
    44
1040
1.0
1070
    74
1070
     0
1000
MTEXTEND
  0
POINT
  5
C66
330
900
100
AcDbEntity
  8
DEFPOINTS
 62
     0
100
AcDbPoint
 10
17701.22119246903
 20
-2270.789444074792
 30
0.0
  0
POINT
  5
C67
330
900
100
AcDbEntity
  8
DEFPOINTS
 62
     0
100
AcDbPoint
 10
17861.22119274482
 20
-2600.789444074791
 30
0.0
  0
POINT
  5
C68
330
900
100
AcDbEntity
  8
DEFPOINTS
 62
     0
100
AcDbPoint
 10
17139.30768234073
 20
-2600.789444074791
 30
0.0
  0
ENDBLK
  5
902
330
900
100
AcDbEntity
  8
0
100
AcDbBlockEnd
  0
BLOCK
  5
A95
330
A94
100
AcDbEntity
  8
0
100
AcDbBlockBegin
  2
*D6
 70
     1
 10
0.0
 20
0.0
 30
0.0
  3
*D6
  1

  0
LINE
  5
C5B
330
A94
100
AcDbEntity
  8
0
 62
     1
370
    -2
100
AcDbLine
 10
17731.22119246903
 20
-2934.179271838031
 30
0.0
 11
17831.22119274482
 21
-2934.179271838031
 31
0.0
  0
MTEXT
  5
C5C
330
A94
100
AcDbEntity
  8
0
 62
   140
370
     5
100
AcDbMText
 10
17868.6497640355
 20
-2854.179271838031
 30
0.0
 40
80.0
 41
0.0
 71
     5
 72
     1
  1
\A1;160
  7
ROMANS
 73
     1
 44
1.0
1001
ACAD
1000
MTEXTBEGIN
1070
    73
1070
     1
1070
    44
1040
1.0
1070
    74
1070
     0
1000
MTEXTEND
  0
INSERT
  5
C5D
330
A94
100
AcDbEntity
  8
0
 62
     1
370
    -2
100
AcDbBlockReference
  2
B-DIM
 10
17701.22119246903
 20
-2934.179271838031
 30
0.0
 41
30.0
 42
30.0
 43
30.0
 50
180.0
  0
INSERT
  5
C5E
330
A94
100
AcDbEntity
  8
0
 62
     1
370
    -2
100
AcDbBlockReference
  2
B-DIM
 10
17861.22119274482
 20
-2934.179271838031
 30
0.0
 41
30.0
 42
30.0
 43
30.0
  0
POINT
  5
C5F
330
A94
100
AcDbEntity
  8
DEFPOINTS
 62
     0
100
AcDbPoint
 10
17701.22119246903
 20
-2270.789444074792
 30
0.0
  0
POINT
  5
C60
330
A94
100
AcDbEntity
  8
DEFPOINTS
 62
     0
100
AcDbPoint
 10
17861.22119274482
 20
-2270.789444074792
 30
-0.0000000000016628
  0
POINT
  5
C61
330
A94
100
AcDbEntity
  8
DEFPOINTS
 62
     0
100
AcDbPoint
 10
17861.22119274482
 20
-2934.179271838031
 30
0.0
  0
ENDBLK
  5
A96
330
A94
100
AcDbEntity
  8
0
100
AcDbBlockEnd
  0
BLOCK
  5
AA2
330
AA1
100
AcDbEntity
  8
0
100
AcDbBlockBegin
  2
*D7
 70
     1
 10
0.0
 20
0.0
 30
0.0
  3
*D7
  1

  0
LINE
  5
C54
330
AA1
100
AcDbEntity
  8
0
 62
     1
370
    -2
100
AcDbLine
 10
17891.22119274482
 20
-2934.179271838031
 30
0.0
 11
18541.22119274482
 21
-2934.179271838031
 31
0.0
  0
INSERT
  5
C55
330
AA1
100
AcDbEntity
  8
0
 62
     1
370
    -2
100
AcDbBlockReference
  2
B-DIM
 10
17861.22119274482
 20
-2934.179271838031
 30
0.0
 41
30.0
 42
30.0
 43
30.0
 50
180.0
  0
INSERT
  5
C56
330
AA1
100
AcDbEntity
  8
0
 62
     1
370
    -2
100
AcDbBlockReference
  2
B-DIM
 10
18571.22119274482
 20
-2934.179271838031
 30
0.0
 41
30.0
 42
30.0
 43
30.0
  0
MTEXT
  5
C57
330
AA1
100
AcDbEntity
  8
0
 62
   140
370
     5
100
AcDbMText
 10
18216.22119274482
 20
-2854.179271838031
 30
0.0
 40
80.0
 41
0.0
 71
     5
 72
     1
  1
\A1;710
  7
ROMANS
 73
     1
 44
1.0
1001
ACAD
1000
MTEXTBEGIN
1070
    73
1070
     1
1070
    44
1040
1.0
1070
    74
1070
     0
1000
MTEXTEND
  0
POINT
  5
C58
330
AA1
100
AcDbEntity
  8
DEFPOINTS
 62
     0
100
AcDbPoint
 10
17861.22119274482
 20
-2270.789444074792
 30
-0.0000000000016628
  0
POINT
  5
C59
330
AA1
100
AcDbEntity
  8
DEFPOINTS
 62
     0
100
AcDbPoint
 10
18571.22119274482
 20
-2600.789444074802
 30
0.0
  0
POINT
  5
C5A
330
AA1
100
AcDbEntity
  8
DEFPOINTS
 62
     0
100
AcDbPoint
 10
18571.22119274482
 20
-2934.179271838031
 30
0.0
  0
ENDBLK
  5
AA3
330
AA1
100
AcDbEntity
  8
0
100
AcDbBlockEnd
  0
BLOCK
  5
AAD
330
AAC
100
AcDbEntity
  8
0
100
AcDbBlockBegin
  2
*D8
 70
     1
 10
0.0
 20
0.0
 30
0.0
  3
*D8
  1

  0
LINE
  5
C4B
330
AAC
100
AcDbEntity
  8
0
 62
     1
370
    -2
100
AcDbLine
 10
18541.22119274482
 20
-2934.179271838031
 30
0.0
 11
18511.22119274482
 21
-2934.179271838031
 31
0.0
  0
LINE
  5
C4C
330
AAC
100
AcDbEntity
  8
0
 62
     1
370
    -2
100
AcDbLine
 10
18671.22119302061
 20
-2934.179271838031
 30
0.0
 11
18701.22119302061
 21
-2934.179271838031
 31
0.0
  0
LINE
  5
C4D
330
AAC
100
AcDbEntity
  8
0
 62
     1
370
    -2
100
AcDbLine
 10
18571.22119274482
 20
-2934.179271838031
 30
0.0
 11
18641.22119302061
 21
-2934.179271838031
 31
0.0
  0
INSERT
  5
C4E
330
AAC
100
AcDbEntity
  8
0
 62
     1
370
    -2
100
AcDbBlockReference
  2
B-DIM
 10
18571.22119274482
 20
-2934.179271838031
 30
0.0
 41
30.0
 42
30.0
 43
30.0
  0
INSERT
  5
C4F
330
AAC
100
AcDbEntity
  8
0
 62
     1
370
    -2
100
AcDbBlockReference
  2
B-DIM
 10
18641.22119302061
 20
-2934.179271838031
 30
0.0
 41
30.0
 42
30.0
 43
30.0
 50
180.0
  0
MTEXT
  5
C50
330
AAC
100
AcDbEntity
  8
0
 62
   140
370
     5
100
AcDbMText
 10
18606.22119288271
 20
-2854.179271838031
 30
0.0
 40
80.0
 41
0.0
 71
     5
 72
     1
  1
\A1;70
  7
ROMANS
 73
     1
 44
1.0
1001
ACAD
1000
MTEXTBEGIN
1070
    73
1070
     1
1070
    44
1040
1.0
1070
    74
1070
     0
1000
MTEXTEND
  0
POINT
  5
C51
330
AAC
100
AcDbEntity
  8
DEFPOINTS
 62
     0
100
AcDbPoint
 10
18571.22119274482
 20
-2600.789444074802
 30
0.0
  0
POINT
  5
C52
330
AAC
100
AcDbEntity
  8
DEFPOINTS
 62
     0
100
AcDbPoint
 10
18641.22119302061
 20
-2270.789444074801
 30
0.0
  0
POINT
  5
C53
330
AAC
100
AcDbEntity
  8
DEFPOINTS
 62
     0
100
AcDbPoint
 10
18641.22119302061
 20
-2934.179271838031
 30
0.0
  0
ENDBLK
  5
AAE
330
AAC
100
AcDbEntity
  8
0
100
AcDbBlockEnd
  0
BLOCK
  5
ABA
330
AB9
100
AcDbEntity
  8
0
100
AcDbBlockBegin
  2
*D9
 70
     1
 10
0.0
 20
0.0
 30
0.0
  3
*D9
  1

  0
LINE
  5
C44
330
AB9
100
AcDbEntity
  8
0
 62
     1
370
    -2
100
AcDbLine
 10
18611.22119302061
 20
-3149.905986008511
 30
0.0
 11
17691.22119246903
 21
-3149.905986008511
 31
0.0
  0
INSERT
  5
C45
330
AB9
100
AcDbEntity
  8
0
 62
     1
370
    -2
100
AcDbBlockReference
  2
B-DIM
 10
18641.22119302061
 20
-3149.905986008511
 30
0.0
 41
30.0
 42
30.0
 43
30.0
  0
INSERT
  5
C46
330
AB9
100
AcDbEntity
  8
0
 62
     1
370
    -2
100
AcDbBlockReference
  2
B-DIM
 10
17661.22119246903
 20
-3149.905986008511
 30
0.0
 41
30.0
 42
30.0
 43
30.0
 50
180.0
  0
MTEXT
  5
C47
330
AB9
100
AcDbEntity
  8
0
 62
   140
370
     5
100
AcDbMText
 10
18151.22119274482
 20
-3069.905986008511
 30
0.0
 40
80.0
 41
0.0
 71
     5
 72
     1
  1
\A1;980
  7
ROMANS
 73
     1
 44
1.0
1001
ACAD
1000
MTEXTBEGIN
1070
    73
1070
     1
1070
    44
1040
1.0
1070
    74
1070
     0
1000
MTEXTEND
  0
POINT
  5
C48
330
AB9
100
AcDbEntity
  8
DEFPOINTS
 62
     0
100
AcDbPoint
 10
18641.22119302061
 20
-2270.789444074801
 30
0.0
  0
POINT
  5
C49
330
AB9
100
AcDbEntity
  8
DEFPOINTS
 62
     0
100
AcDbPoint
 10
17661.22119246903
 20
-1900.789444074791
 30
0.0
  0
POINT
  5
C4A
330
AB9
100
AcDbEntity
  8
DEFPOINTS
 62
     0
100
AcDbPoint
 10
17661.22119246903
 20
-3149.905986008511
 30
0.0
  0
ENDBLK
  5
ABB
330
AB9
100
AcDbEntity
  8
0
100
AcDbBlockEnd
  0
BLOCK
  5
AC5
330
AC4
100
AcDbEntity
  8
0
100
AcDbBlockBegin
  2
*D10
 70
     1
 10
0.0
 20
0.0
 30
0.0
  3
*D10
  1

  0
LINE
  5
AD7
330
AC4
100
AcDbEntity
  8
0
 62
     1
370
    -2
100
AcDbLine
 10
17631.22119246903
 20
-2934.179271838026
 30
0.0
 11
17601.22119246903
 21
-2934.179271838026
 31
0.0
  0
LINE
  5
AD8
330
AC4
100
AcDbEntity
  8
0
 62
     1
370
    -2
100
AcDbLine
 10
17731.22119246903
 20
-2934.179271838026
 30
0.0
 11
17761.22119246903
 21
-2934.179271838026
 31
0.0
  0
MTEXT
  5
AD9
330
AC4
100
AcDbEntity
  8
0
 62
   140
100
AcDbMText
 10
17622.93547818332
 20
-2854.179271838026
 30
0.0
 40
80.0
 41
0.0
 71
     5
 72
     1
  1
\A1;40
  7
ROMANS
 73
     1
 44
1.0
1001
ACAD
1000
MTEXTBEGIN
1070
    73
1070
     1
1070
    44
1040
1.0
1070
    74
1070
     0
1000
MTEXTEND
  0
LINE
  5
ADA
330
AC4
100
AcDbEntity
  8
0
 62
     1
370
    -2
100
AcDbLine
 10
17661.22119246903
 20
-2934.179271838026
 30
0.0
 11
17701.22119246903
 21
-2934.179271838026
 31
0.0
  0
INSERT
  5
ADB
330
AC4
100
AcDbEntity
  8
0
 62
     1
370
    -2
100
AcDbBlockReference
  2
B-DIM
 10
17661.22119246903
 20
-2934.179271838026
 30
0.0
 41
30.0
 42
30.0
 43
30.0
  0
INSERT
  5
ADC
330
AC4
100
AcDbEntity
  8
0
 62
     1
370
    -2
100
AcDbBlockReference
  2
B-DIM
 10
17701.22119246903
 20
-2934.179271838026
 30
0.0
 41
30.0
 42
30.0
 43
30.0
 50
180.0
  0
POINT
  5
ADD
330
AC4
100
AcDbEntity
  8
DEFPOINTS
 62
     0
100
AcDbPoint
 10
17661.22119246903
 20
-1900.789444074791
 30
0.0
  0
POINT
  5
ADE
330
AC4
100
AcDbEntity
  8
DEFPOINTS
 62
     0
100
AcDbPoint
 10
17701.22119246903
 20
-1900.789444074791
 30
-0.0000000000013341
  0
POINT
  5
ADF
330
AC4
100
AcDbEntity
  8
DEFPOINTS
 62
     0
100
AcDbPoint
 10
17701.22119246903
 20
-2934.179271838026
 30
0.0
  0
ENDBLK
  5
AC6
330
AC4
100
AcDbEntity
  8
0
100
AcDbBlockEnd
  0
BLOCK
  5
B64
330
B63
100
AcDbEntity
  8
0
100
AcDbBlockBegin
  2
*D11
 70
     1
 10
0.0
 20
0.0
 30
0.0
  3
*D11
  1

  0
LINE
  5
C3D
330
B63
100
AcDbEntity
  8
0
 62
     1
370
    -2
100
AcDbLine
 10
16899.39761544676
 20
-1060.789444433467
 30
0.0
 11
16899.39761544676
 21
-2510.789444074791
 31
0.0
  0
INSERT
  5
C3E
330
B63
100
AcDbEntity
  8
0
 62
     1
370
    -2
100
AcDbBlockReference
  2
B-DIM
 10
16899.39761544676
 20
-1030.789444433467
 30
0.0
 41
30.0
 42
30.0
 43
30.0
 50
90.0
  0
INSERT
  5
C3F
330
B63
100
AcDbEntity
  8
0
 62
     1
370
    -2
100
AcDbBlockReference
  2
B-DIM
 10
16899.39761544676
 20
-2540.789444074791
 30
0.0
 41
30.0
 42
30.0
 43
30.0
 50
270.0
  0
MTEXT
  5
C40
330
B63
100
AcDbEntity
  8
0
 62
   140
370
     5
100
AcDbMText
 10
16819.39761544676
 20
-1785.789444254126
 30
0.0
 40
80.0
 41
0.0
 71
     5
 72
     1
  1
\A1;1510
  7
ROMANS
 11
0.0000000000000001
 21
1.0
 31
0.0
 73
     1
 44
1.0
1001
ACAD
1000
MTEXTBEGIN
1070
    73
1070
     1
1070
    44
1040
1.0
1070
    74
1070
     0
1000
MTEXTEND
  0
POINT
  5
C41
330
B63
100
AcDbEntity
  8
DEFPOINTS
 62
     0
100
AcDbPoint
 10
18171.22119274488
 20
-1030.789444433467
 30
-0.0000000000005614
  0
POINT
  5
C42
330
B63
100
AcDbEntity
  8
DEFPOINTS
 62
     0
100
AcDbPoint
 10
18246.22119274482
 20
-2540.789444074792
 30
-0.0000000000019559
  0
POINT
  5
C43
330
B63
100
AcDbEntity
  8
DEFPOINTS
 62
     0
100
AcDbPoint
 10
16899.39761544676
 20
-2540.789444074791
 30
0.0
  0
ENDBLK
  5
B65
330
B63
100
AcDbEntity
  8
0
100
AcDbBlockEnd
  0
BLOCK
  5
D4A
330
D49
100
AcDbEntity
  8
0
100
AcDbBlockBegin
  2
*D13
 70
     1
 10
0.0
 20
0.0
 30
0.0
  3
*D13
  1

  0
LINE
  5
E19
330
D49
100
AcDbEntity
  8
0
 62
     1
370
    -2
100
AcDbLine
 10
22946.95221961191
 20
-1060.789444433467
 30
0.0
 11
22946.95221961191
 21
-1100.789444074791
 31
0.0
  0
MTEXT
  5
E1A
330
D49
100
AcDbEntity
  8
0
 62
   140
370
     5
100
AcDbMText
 10
22866.95221961191
 20
-1047.805758125556
 30
0.0
 40
80.0
 41
0.0
 71
     5
 72
     1
  1
\A1;100
  7
ROMANS
 11
0.0000000000000001
 21
1.0
 31
0.0
 73
     1
 44
1.0
1001
ACAD
1000
MTEXTBEGIN
1070
    73
1070
     1
1070
    44
1040
1.0
1070
    74
1070
     0
1000
MTEXTEND
  0
INSERT
  5
E1B
330
D49
100
AcDbEntity
  8
0
 62
     1
370
    -2
100
AcDbBlockReference
  2
B-DIM
 10
22946.95221961191
 20
-1030.789444433467
 30
0.0
 41
30.0
 42
30.0
 43
30.0
 50
90.0
  0
INSERT
  5
E1C
330
D49
100
AcDbEntity
  8
0
 62
     1
370
    -2
100
AcDbBlockReference
  2
B-DIM
 10
22946.95221961191
 20
-1130.789444074791
 30
0.0
 41
30.0
 42
30.0
 43
30.0
 50
270.0
  0
POINT
  5
E1D
330
D49
100
AcDbEntity
  8
DEFPOINTS
 62
     0
100
AcDbPoint
 10
21985.03870920776
 20
-1030.789444433467
 30
-0.0000000000005614
  0
POINT
  5
E1E
330
D49
100
AcDbEntity
  8
DEFPOINTS
 62
     0
100
AcDbPoint
 10
22085.03870884911
 20
-1130.789444074791
 30
-0.0000000000006502
  0
POINT
  5
E1F
330
D49
100
AcDbEntity
  8
DEFPOINTS
 62
     0
100
AcDbPoint
 10
22946.95221961191
 20
-1130.789444074791
 30
0.0
  0
ENDBLK
  5
D4B
330
D49
100
AcDbEntity
  8
0
100
AcDbBlockEnd
  0
BLOCK
  5
D56
330
D55
100
AcDbEntity
  8
0
100
AcDbBlockBegin
  2
*D14
 70
     1
 10
0.0
 20
0.0
 30
0.0
  3
*D14
  1

  0
LINE
  5
DC6
330
D55
100
AcDbEntity
  8
0
 62
     1
370
    -2
100
AcDbLine
 10
22946.95221961191
 20
-1160.789444074791
 30
0.0
 11
22946.95221961191
 21
-1470.789444074791
 31
0.0
  0
INSERT
  5
DC7
330
D55
100
AcDbEntity
  8
0
 62
     1
370
    -2
100
AcDbBlockReference
  2
B-DIM
 10
22946.95221961191
 20
-1130.789444074791
 30
0.0
 41
30.0
 42
30.0
 43
30.0
 50
90.0
  0
INSERT
  5
DC8
330
D55
100
AcDbEntity
  8
0
 62
     1
370
    -2
100
AcDbBlockReference
  2
B-DIM
 10
22946.95221961191
 20
-1500.789444074791
 30
0.0
 41
30.0
 42
30.0
 43
30.0
 50
270.0
  0
MTEXT
  5
DC9
330
D55
100
AcDbEntity
  8
0
 62
   140
370
     5
100
AcDbMText
 10
22866.95221961191
 20
-1315.789444074788
 30
0.0
 40
80.0
 41
0.0
 71
     5
 72
     1
  1
\A1;370
  7
ROMANS
 11
0.0000000000000001
 21
1.0
 31
0.0
 73
     1
 44
1.0
1001
ACAD
1000
MTEXTBEGIN
1070
    73
1070
     1
1070
    44
1040
1.0
1070
    74
1070
     0
1000
MTEXTEND
  0
POINT
  5
DCA
330
D55
100
AcDbEntity
  8
DEFPOINTS
 62
     0
100
AcDbPoint
 10
22085.03870884911
 20
-1130.789444074791
 30
-0.0000000000006502
  0
POINT
  5
DCB
330
D55
100
AcDbEntity
  8
DEFPOINTS
 62
     0
100
AcDbPoint
 10
22425.03870948361
 20
-1500.789444074791
 30
0.0
  0
POINT
  5
DCC
330
D55
100
AcDbEntity
  8
DEFPOINTS
 62
     0
100
AcDbPoint
 10
22946.95221961191
 20
-1500.789444074791
 30
0.0
  0
ENDBLK
  5
D57
330
D55
100
AcDbEntity
  8
0
100
AcDbBlockEnd
  0
BLOCK
  5
D60
330
D5F
100
AcDbEntity
  8
0
100
AcDbBlockBegin
  2
*D15
 70
     1
 10
0.0
 20
0.0
 30
0.0
  3
*D15
  1

  0
LINE
  5
DCD
330
D5F
100
AcDbEntity
  8
0
 62
     1
370
    -2
100
AcDbLine
 10
22946.95221961191
 20
-1530.789444074791
 30
0.0
 11
22946.95221961191
 21
-1870.789444074791
 31
0.0
  0
INSERT
  5
DCE
330
D5F
100
AcDbEntity
  8
0
 62
     1
370
    -2
100
AcDbBlockReference
  2
B-DIM
 10
22946.95221961191
 20
-1500.789444074791
 30
0.0
 41
30.0
 42
30.0
 43
30.0
 50
90.0
  0
INSERT
  5
DCF
330
D5F
100
AcDbEntity
  8
0
 62
     1
370
    -2
100
AcDbBlockReference
  2
B-DIM
 10
22946.95221961191
 20
-1900.789444074791
 30
0.0
 41
30.0
 42
30.0
 43
30.0
 50
270.0
  0
MTEXT
  5
DD0
330
D5F
100
AcDbEntity
  8
0
 62
   140
370
     5
100
AcDbMText
 10
22866.95221961191
 20
-1700.789444074788
 30
0.0
 40
80.0
 41
0.0
 71
     5
 72
     1
  1
\A1;400
  7
ROMANS
 11
0.0000000000000001
 21
1.0
 31
0.0
 73
     1
 44
1.0
1001
ACAD
1000
MTEXTBEGIN
1070
    73
1070
     1
1070
    44
1040
1.0
1070
    74
1070
     0
1000
MTEXTEND
  0
POINT
  5
DD1
330
D5F
100
AcDbEntity
  8
DEFPOINTS
 62
     0
100
AcDbPoint
 10
22425.03870948361
 20
-1500.789444074791
 30
0.0
  0
POINT
  5
DD2
330
D5F
100
AcDbEntity
  8
DEFPOINTS
 62
     0
100
AcDbPoint
 10
22425.03870948361
 20
-1900.789444074791
 30
0.0
  0
POINT
  5
DD3
330
D5F
100
AcDbEntity
  8
DEFPOINTS
 62
     0
100
AcDbPoint
 10
22946.95221961191
 20
-1900.789444074791
 30
0.0
  0
ENDBLK
  5
D61
330
D5F
100
AcDbEntity
  8
0
100
AcDbBlockEnd
  0
BLOCK
  5
D6A
330
D69
100
AcDbEntity
  8
0
100
AcDbBlockBegin
  2
*D16
 70
     1
 10
0.0
 20
0.0
 30
0.0
  3
*D16
  1

  0
LINE
  5
DD4
330
D69
100
AcDbEntity
  8
0
 62
     1
370
    -2
100
AcDbLine
 10
22946.95221961191
 20
-1930.789444074791
 30
0.0
 11
22946.95221961191
 21
-2240.789444074791
 31
0.0
  0
INSERT
  5
DD5
330
D69
100
AcDbEntity
  8
0
 62
     1
370
    -2
100
AcDbBlockReference
  2
B-DIM
 10
22946.95221961191
 20
-1900.789444074791
 30
0.0
 41
30.0
 42
30.0
 43
30.0
 50
90.0
  0
INSERT
  5
DD6
330
D69
100
AcDbEntity
  8
0
 62
     1
370
    -2
100
AcDbBlockReference
  2
B-DIM
 10
22946.95221961191
 20
-2270.789444074792
 30
0.0
 41
30.0
 42
30.0
 43
30.0
 50
270.0
  0
MTEXT
  5
DD7
330
D69
100
AcDbEntity
  8
0
 62
   140
100
AcDbMText
 10
22866.95221961191
 20
-2085.789444074788
 30
0.0
 40
80.0
 41
0.0
 71
     5
 72
     1
  1
\A1;370
  7
ROMANS
 11
0.0000000000000001
 21
1.0
 31
0.0
 73
     1
 44
1.0
1001
ACAD
1000
MTEXTBEGIN
1070
    73
1070
     1
1070
    44
1040
1.0
1070
    74
1070
     0
1000
MTEXTEND
  0
POINT
  5
DD8
330
D69
100
AcDbEntity
  8
DEFPOINTS
 62
     0
100
AcDbPoint
 10
22425.03870948361
 20
-1900.789444074791
 30
0.0
  0
POINT
  5
DD9
330
D69
100
AcDbEntity
  8
DEFPOINTS
 62
     0
100
AcDbPoint
 10
22385.03870948361
 20
-2270.789444074792
 30
0.0
  0
POINT
  5
DDA
330
D69
100
AcDbEntity
  8
DEFPOINTS
 62
     0
100
AcDbPoint
 10
22946.95221961191
 20
-2270.789444074792
 30
0.0
  0
ENDBLK
  5
D6B
330
D69
100
AcDbEntity
  8
0
100
AcDbBlockEnd
  0
BLOCK
  5
D74
330
D73
100
AcDbEntity
  8
0
100
AcDbBlockBegin
  2
*D17
 70
     1
 10
0.0
 20
0.0
 30
0.0
  3
*D17
  1

  0
LINE
  5
DDB
330
D73
100
AcDbEntity
  8
0
 62
     1
370
    -2
100
AcDbLine
 10
22946.95221961191
 20
-2300.789444074792
 30
0.0
 11
22946.95221961191
 21
-2570.789444074792
 31
0.0
  0
INSERT
  5
DDC
330
D73
100
AcDbEntity
  8
0
 62
     1
370
    -2
100
AcDbBlockReference
  2
B-DIM
 10
22946.95221961191
 20
-2270.789444074792
 30
0.0
 41
30.0
 42
30.0
 43
30.0
 50
90.0
  0
INSERT
  5
DDD
330
D73
100
AcDbEntity
  8
0
 62
     1
370
    -2
100
AcDbBlockReference
  2
B-DIM
 10
22946.95221961191
 20
-2600.789444074791
 30
0.0
 41
30.0
 42
30.0
 43
30.0
 50
270.0
  0
MTEXT
  5
DDE
330
D73
100
AcDbEntity
  8
0
 62
   140
370
     5
100
AcDbMText
 10
22866.95221961191
 20
-2435.789444074788
 30
0.0
 40
80.0
 41
0.0
 71
     5
 72
     1
  1
\A1;330
  7
ROMANS
 11
0.0000000000000001
 21
1.0
 31
0.0
 73
     1
 44
1.0
1001
ACAD
1000
MTEXTBEGIN
1070
    73
1070
     1
1070
    44
1040
1.0
1070
    74
1070
     0
1000
MTEXTEND
  0
POINT
  5
DDF
330
D73
100
AcDbEntity
  8
DEFPOINTS
 62
     0
100
AcDbPoint
 10
22385.03870948361
 20
-2270.789444074792
 30
0.0
  0
POINT
  5
DE0
330
D73
100
AcDbEntity
  8
DEFPOINTS
 62
     0
100
AcDbPoint
 10
22225.03870920782
 20
-2600.789444074791
 30
0.0
  0
POINT
  5
DE1
330
D73
100
AcDbEntity
  8
DEFPOINTS
 62
     0
100
AcDbPoint
 10
22946.95221961191
 20
-2600.789444074791
 30
0.0
  0
ENDBLK
  5
D75
330
D73
100
AcDbEntity
  8
0
100
AcDbBlockEnd
  0
BLOCK
  5
D7E
330
D7D
100
AcDbEntity
  8
0
100
AcDbBlockBegin
  2
*D18
 70
     1
 10
0.0
 20
0.0
 30
0.0
  3
*D18
  1

  0
LINE
  5
DE2
330
D7D
100
AcDbEntity
  8
0
 62
     1
370
    -2
100
AcDbLine
 10
22355.03870948361
 20
-2934.179271838031
 30
0.0
 11
22255.03870920782
 21
-2934.179271838031
 31
0.0
  0
MTEXT
  5
DE3
330
D7D
100
AcDbEntity
  8
0
 62
   140
370
     5
100
AcDbMText
 10
22217.61013791714
 20
-2854.179271838031
 30
0.0
 40
80.0
 41
0.0
 71
     5
 72
     1
  1
\A1;160
  7
ROMANS
 73
     1
 44
1.0
1001
ACAD
1000
MTEXTBEGIN
1070
    73
1070
     1
1070
    44
1040
1.0
1070
    74
1070
     0
1000
MTEXTEND
  0
INSERT
  5
DE4
330
D7D
100
AcDbEntity
  8
0
 62
     1
370
    -2
100
AcDbBlockReference
  2
B-DIM
 10
22385.03870948361
 20
-2934.179271838031
 30
0.0
 41
30.0
 42
30.0
 43
30.0
  0
INSERT
  5
DE5
330
D7D
100
AcDbEntity
  8
0
 62
     1
370
    -2
100
AcDbBlockReference
  2
B-DIM
 10
22225.03870920782
 20
-2934.179271838031
 30
0.0
 41
30.0
 42
30.0
 43
30.0
 50
180.0
  0
POINT
  5
DE6
330
D7D
100
AcDbEntity
  8
DEFPOINTS
 62
     0
100
AcDbPoint
 10
22385.03870948361
 20
-2270.789444074792
 30
0.0
  0
POINT
  5
DE7
330
D7D
100
AcDbEntity
  8
DEFPOINTS
 62
     0
100
AcDbPoint
 10
22225.03870920782
 20
-2270.789444074792
 30
-0.0000000000016628
  0
POINT
  5
DE8
330
D7D
100
AcDbEntity
  8
DEFPOINTS
 62
     0
100
AcDbPoint
 10
22225.03870920782
 20
-2934.179271838031
 30
0.0
  0
ENDBLK
  5
D7F
330
D7D
100
AcDbEntity
  8
0
100
AcDbBlockEnd
  0
BLOCK
  5
D88
330
D87
100
AcDbEntity
  8
0
100
AcDbBlockBegin
  2
*D19
 70
     1
 10
0.0
 20
0.0
 30
0.0
  3
*D19
  1

  0
LINE
  5
DE9
330
D87
100
AcDbEntity
  8
0
 62
     1
370
    -2
100
AcDbLine
 10
22195.03870920782
 20
-2934.179271838031
 30
0.0
 11
21545.03870920782
 21
-2934.179271838031
 31
0.0
  0
INSERT
  5
DEA
330
D87
100
AcDbEntity
  8
0
 62
     1
370
    -2
100
AcDbBlockReference
  2
B-DIM
 10
22225.03870920782
 20
-2934.179271838031
 30
0.0
 41
30.0
 42
30.0
 43
30.0
  0
INSERT
  5
DEB
330
D87
100
AcDbEntity
  8
0
 62
     1
370
    -2
100
AcDbBlockReference
  2
B-DIM
 10
21515.03870920782
 20
-2934.179271838031
 30
0.0
 41
30.0
 42
30.0
 43
30.0
 50
180.0
  0
MTEXT
  5
DEC
330
D87
100
AcDbEntity
  8
0
 62
   140
370
     5
100
AcDbMText
 10
21870.03870920781
 20
-2854.179271838031
 30
0.0
 40
80.0
 41
0.0
 71
     5
 72
     1
  1
\A1;710
  7
ROMANS
 73
     1
 44
1.0
1001
ACAD
1000
MTEXTBEGIN
1070
    73
1070
     1
1070
    44
1040
1.0
1070
    74
1070
     0
1000
MTEXTEND
  0
POINT
  5
DED
330
D87
100
AcDbEntity
  8
DEFPOINTS
 62
     0
100
AcDbPoint
 10
22225.03870920782
 20
-2270.789444074792
 30
-0.0000000000016628
  0
POINT
  5
DEE
330
D87
100
AcDbEntity
  8
DEFPOINTS
 62
     0
100
AcDbPoint
 10
21515.03870920782
 20
-2600.789444074802
 30
0.0
  0
POINT
  5
DEF
330
D87
100
AcDbEntity
  8
DEFPOINTS
 62
     0
100
AcDbPoint
 10
21515.03870920782
 20
-2934.179271838031
 30
0.0
  0
ENDBLK
  5
D89
330
D87
100
AcDbEntity
  8
0
100
AcDbBlockEnd
  0
BLOCK
  5
D92
330
D91
100
AcDbEntity
  8
0
100
AcDbBlockBegin
  2
*D20
 70
     1
 10
0.0
 20
0.0
 30
0.0
  3
*D20
  1

  0
LINE
  5
DF0
330
D91
100
AcDbEntity
  8
0
 62
     1
370
    -2
100
AcDbLine
 10
21545.03870920782
 20
-2934.179271838031
 30
0.0
 11
21575.03870920782
 21
-2934.179271838031
 31
0.0
  0
LINE
  5
DF1
330
D91
100
AcDbEntity
  8
0
 62
     1
370
    -2
100
AcDbLine
 10
21415.03870893203
 20
-2934.179271838031
 30
0.0
 11
21385.03870893203
 21
-2934.179271838031
 31
0.0
  0
LINE
  5
DF2
330
D91
100
AcDbEntity
  8
0
 62
     1
370
    -2
100
AcDbLine
 10
21515.03870920782
 20
-2934.179271838031
 30
0.0
 11
21445.03870893203
 21
-2934.179271838031
 31
0.0
  0
INSERT
  5
DF3
330
D91
100
AcDbEntity
  8
0
 62
     1
370
    -2
100
AcDbBlockReference
  2
B-DIM
 10
21515.03870920782
 20
-2934.179271838031
 30
0.0
 41
30.0
 42
30.0
 43
30.0
 50
180.0
  0
INSERT
  5
DF4
330
D91
100
AcDbEntity
  8
0
 62
     1
370
    -2
100
AcDbBlockReference
  2
B-DIM
 10
21445.03870893203
 20
-2934.179271838031
 30
0.0
 41
30.0
 42
30.0
 43
30.0
  0
MTEXT
  5
DF5
330
D91
100
AcDbEntity
  8
0
 62
   140
370
     5
100
AcDbMText
 10
21480.03870906992
 20
-2854.179271838031
 30
0.0
 40
80.0
 41
0.0
 71
     5
 72
     1
  1
\A1;70
  7
ROMANS
 73
     1
 44
1.0
1001
ACAD
1000
MTEXTBEGIN
1070
    73
1070
     1
1070
    44
1040
1.0
1070
    74
1070
     0
1000
MTEXTEND
  0
POINT
  5
DF6
330
D91
100
AcDbEntity
  8
DEFPOINTS
 62
     0
100
AcDbPoint
 10
21515.03870920782
 20
-2600.789444074802
 30
0.0
  0
POINT
  5
DF7
330
D91
100
AcDbEntity
  8
DEFPOINTS
 62
     0
100
AcDbPoint
 10
21445.03870893203
 20
-2270.789444074801
 30
0.0
  0
POINT
  5
DF8
330
D91
100
AcDbEntity
  8
DEFPOINTS
 62
     0
100
AcDbPoint
 10
21445.03870893203
 20
-2934.179271838031
 30
0.0
  0
ENDBLK
  5
D93
330
D91
100
AcDbEntity
  8
0
100
AcDbBlockEnd
  0
BLOCK
  5
D9E
330
D9D
100
AcDbEntity
  8
0
100
AcDbBlockBegin
  2
*D21
 70
     1
 10
0.0
 20
0.0
 30
0.0
  3
*D21
  1

  0
LINE
  5
DF9
330
D9D
100
AcDbEntity
  8
0
 62
     1
370
    -2
100
AcDbLine
 10
21475.03870893203
 20
-3149.905986008511
 30
0.0
 11
22395.03870948361
 21
-3149.905986008511
 31
0.0
  0
INSERT
  5
DFA
330
D9D
100
AcDbEntity
  8
0
 62
     1
370
    -2
100
AcDbBlockReference
  2
B-DIM
 10
21445.03870893203
 20
-3149.905986008511
 30
0.0
 41
30.0
 42
30.0
 43
30.0
 50
180.0
  0
INSERT
  5
DFB
330
D9D
100
AcDbEntity
  8
0
 62
     1
370
    -2
100
AcDbBlockReference
  2
B-DIM
 10
22425.03870948361
 20
-3149.905986008511
 30
0.0
 41
30.0
 42
30.0
 43
30.0
  0
MTEXT
  5
DFC
330
D9D
100
AcDbEntity
  8
0
 62
   140
370
     5
100
AcDbMText
 10
21935.03870920782
 20
-3069.905986008511
 30
0.0
 40
80.0
 41
0.0
 71
     5
 72
     1
  1
\A1;980
  7
ROMANS
 73
     1
 44
1.0
1001
ACAD
1000
MTEXTBEGIN
1070
    73
1070
     1
1070
    44
1040
1.0
1070
    74
1070
     0
1000
MTEXTEND
  0
POINT
  5
DFD
330
D9D
100
AcDbEntity
  8
DEFPOINTS
 62
     0
100
AcDbPoint
 10
21445.03870893203
 20
-2270.789444074801
 30
0.0
  0
POINT
  5
DFE
330
D9D
100
AcDbEntity
  8
DEFPOINTS
 62
     0
100
AcDbPoint
 10
22425.03870948361
 20
-1900.789444074791
 30
0.0
  0
POINT
  5
DFF
330
D9D
100
AcDbEntity
  8
DEFPOINTS
 62
     0
100
AcDbPoint
 10
22425.03870948361
 20
-3149.905986008511
 30
0.0
  0
ENDBLK
  5
D9F
330
D9D
100
AcDbEntity
  8
0
100
AcDbBlockEnd
  0
BLOCK
  5
DA8
330
DA7
100
AcDbEntity
  8
0
100
AcDbBlockBegin
  2
*D22
 70
     1
 10
0.0
 20
0.0
 30
0.0
  3
*D22
  1

  0
LINE
  5
E00
330
DA7
100
AcDbEntity
  8
0
 62
     1
370
    -2
100
AcDbLine
 10
22455.0387094836
 20
-2934.179271838026
 30
0.0
 11
22485.0387094836
 21
-2934.179271838026
 31
0.0
  0
LINE
  5
E01
330
DA7
100
AcDbEntity
  8
0
 62
     1
370
    -2
100
AcDbLine
 10
22355.03870948361
 20
-2934.179271838026
 30
0.0
 11
22325.0387094836
 21
-2934.179271838026
 31
0.0
  0
MTEXT
  5
E02
330
DA7
100
AcDbEntity
  8
0
 62
   140
100
AcDbMText
 10
22463.32442376932
 20
-2854.179271838026
 30
0.0
 40
80.0
 41
0.0
 71
     5
 72
     1
  1
\A1;40
  7
ROMANS
 73
     1
 44
1.0
1001
ACAD
1000
MTEXTBEGIN
1070
    73
1070
     1
1070
    44
1040
1.0
1070
    74
1070
     0
1000
MTEXTEND
  0
LINE
  5
E03
330
DA7
100
AcDbEntity
  8
0
 62
     1
370
    -2
100
AcDbLine
 10
22425.03870948361
 20
-2934.179271838026
 30
0.0
 11
22385.03870948361
 21
-2934.179271838026
 31
0.0
  0
INSERT
  5
E04
330
DA7
100
AcDbEntity
  8
0
 62
     1
370
    -2
100
AcDbBlockReference
  2
B-DIM
 10
22425.03870948361
 20
-2934.179271838026
 30
0.0
 41
30.0
 42
30.0
 43
30.0
 50
180.0
  0
INSERT
  5
E05
330
DA7
100
AcDbEntity
  8
0
 62
     1
370
    -2
100
AcDbBlockReference
  2
B-DIM
 10
22385.03870948361
 20
-2934.179271838026
 30
0.0
 41
30.0
 42
30.0
 43
30.0
  0
POINT
  5
E06
330
DA7
100
AcDbEntity
  8
DEFPOINTS
 62
     0
100
AcDbPoint
 10
22425.03870948361
 20
-1900.789444074791
 30
0.0
  0
POINT
  5
E07
330
DA7
100
AcDbEntity
  8
DEFPOINTS
 62
     0
100
AcDbPoint
 10
22385.03870948361
 20
-1900.789444074791
 30
-0.0000000000013341
  0
POINT
  5
E08
330
DA7
100
AcDbEntity
  8
DEFPOINTS
 62
     0
100
AcDbPoint
 10
22385.03870948361
 20
-2934.179271838026
 30
0.0
  0
ENDBLK
  5
DA9
330
DA7
100
AcDbEntity
  8
0
100
AcDbBlockEnd
  0
BLOCK
  5
DB4
330
DB3
100
AcDbEntity
  8
0
100
AcDbBlockBegin
  2
*D23
 70
     1
 10
0.0
 20
0.0
 30
0.0
  3
*D23
  1

  0
LINE
  5
E09
330
DB3
100
AcDbEntity
  8
0
 62
     1
370
    -2
100
AcDbLine
 10
23186.86228650587
 20
-1060.789444433467
 30
0.0
 11
23186.86228650587
 21
-2510.789444074791
 31
0.0
  0
INSERT
  5
E0A
330
DB3
100
AcDbEntity
  8
0
 62
     1
370
    -2
100
AcDbBlockReference
  2
B-DIM
 10
23186.86228650587
 20
-1030.789444433467
 30
0.0
 41
30.0
 42
30.0
 43
30.0
 50
90.0
  0
INSERT
  5
E0B
330
DB3
100
AcDbEntity
  8
0
 62
     1
370
    -2
100
AcDbBlockReference
  2
B-DIM
 10
23186.86228650587
 20
-2540.789444074792
 30
0.0
 41
30.0
 42
30.0
 43
30.0
 50
270.0
  0
MTEXT
  5
E0C
330
DB3
100
AcDbEntity
  8
0
 62
   140
370
     5
100
AcDbMText
 10
23106.86228650587
 20
-1785.789444254126
 30
0.0
 40
80.0
 41
0.0
 71
     5
 72
     1
  1
\A1;1510
  7
ROMANS
 11
0.0000000000000001
 21
1.0
 31
0.0
 73
     1
 44
1.0
1001
ACAD
1000
MTEXTBEGIN
1070
    73
1070
     1
1070
    44
1040
1.0
1070
    74
1070
     0
1000
MTEXTEND
  0
POINT
  5
E0D
330
DB3
100
AcDbEntity
  8
DEFPOINTS
 62
     0
100
AcDbPoint
 10
21915.03870920776
 20
-1030.789444433467
 30
-0.0000000000005614
  0
POINT
  5
E0E
330
DB3
100
AcDbEntity
  8
DEFPOINTS
 62
     0
100
AcDbPoint
 10
21840.03870920782
 20
-2540.789444074792
 30
-0.0000000000019559
  0
POINT
  5
E0F
330
DB3
100
AcDbEntity
  8
DEFPOINTS
 62
     0
100
AcDbPoint
 10
23186.86228650587
 20
-2540.789444074792
 30
0.0
  0
ENDBLK
  5
DB5
330
DB3
100
AcDbEntity
  8
0
100
AcDbBlockEnd
  0
ENDSEC
  0
SECTION
  2
ENTITIES
  0
TEXT
  5
68
330
2
100
AcDbEntity
  8
0
370
     5
100
AcDbText
 10
16289.79270737359
 20
-10146.01647929026
 30
-0.0000000000090115
 40
100.0
  1
   O B R Y S   B U D Y N K U           S K A L A   1 : 5 0 0 
  7
AVA
100
AcDbText
  0
LINE
  5
6D
330
2
100
AcDbEntity
  8
0
  6
HIDDEN
 48
5.0
100
AcDbLine
 10
20043.12995097632
 20
-6047.305434274233
 30
-0.0000000000042619
 11
20043.12995097632
 21
837.2574361262087
 31
0.0000000000000036
  0
TEXT
  5
6F
330
2
100
AcDbEntity
  8
0
370
     5
100
AcDbText
 10
19983.60877398299
 20
-3716.778346823354
 30
-0.0000000000033012
 40
100.0
  1
OŚ ODBICIA LUSTRZANEGO
 50
90.0
  7
AVA
100
AcDbText
  0
TEXT
  5
70
330
2
100
AcDbEntity
  8
0
370
     5
100
AcDbText
 10
16386.00575849149
 20
2317.348781591602
 30
0.0000000000020582
 40
150.0
  1
MOŻNA WKLEIĆ DO PROJEKTU ZAGOSPODAROWANIA TERENU
  7
AVA
100
AcDbText
  0
TEXT
  5
71
330
2
100
AcDbEntity
  8
0
370
     5
100
AcDbText
 10
16309.67048785634
 20
2647.217258954363
 30
0.0000000000023512
 40
150.0
  1
"DOM W LEWKONIACH (P)"
  7
AVA
100
AcDbText
  0
LWPOLYLINE
  5
72
330
2
100
AcDbEntity
  8
0
370
     5
100
AcDbPolyline
 90
        4
 70
     1
 43
0.0
 10
14830.4407606986
 20
-10811.5725621928
 10
14830.4407606986
 20
3208.427437807201
 10
25030.44076069864
 20
3208.427437807201
 10
25030.44076069864
 20
-10811.5725621928
  0
LINE
  5
76
330
2
100
AcDbEntity
  8
0
370
     5
100
AcDbLine
 10
17718.79478559783
 20
-780.7894440747913
 30
-0.0000000000003394
 11
17501.22119246903
 21
-998.3630372036131
 31
-0.0000000000005326
  0
LINE
  5
7A
330
2
100
AcDbEntity
  8
0
370
     5
100
AcDbLine
 10
17731.22119246903
 20
-810.7894440747914
 30
-0.000000000000366
 11
17531.22119246903
 21
-1010.789444074791
 31
-0.0000000000005437
  0
LINE
  5
7C
330
2
100
AcDbEntity
  8
0
370
     5
100
AcDbLine
 10
18616.22119302061
 20
-840.7894440747913
 30
-0.0000000000003927
 11
18416.22119302061
 21
-840.7894440747913
 31
-0.0000000000003927
  0
HATCH
  5
7D
330
2
100
AcDbEntity
  8
0
370
     5
100
AcDbHatch
 10
0.0
 20
0.0
 30
0.0
210
0.0
220
0.0
230
1.0
  2
SOLID
 70
     1
 71
     0
 91
        1
 92
        7
 72
     0
 73
     1
 93
       10
 10
18641.22119302061
 20
-1930.789444074733
 10
18641.22119302061
 20
-1755.789444074791
 10
18581.22119302061
 20
-1755.78944407482
 10
18581.22119302061
 20
-2180.789444074733
 10
18581.22119302058
 20
-2210.789444074792
 10
18511.22119274482
 20
-2210.789444074792
 10
18511.22119274482
 20
-2308.789444074792
 10
18571.22119274482
 20
-2308.789444074792
 10
18571.22119274482
 20
-2270.789444074792
 10
18641.22119302061
 20
-2270.789444074792
 97
        0
 75
     0
 76
     1
 47
2.549209435828275
 98
        1
 10
18599.58238523465
 20
-2081.231720710726
1001
ACAD
1010
0.0
1020
0.0
1030
0.0
  0
LINE
  5
88
330
2
100
AcDbEntity
  8
0
370
     5
100
AcDbLine
 10
18532.22119274482
 20
-2548.789444074792
 30
-0.0000000000019097
 11
18571.22119274482
 21
-2548.789444074792
 31
-0.0000000000019097
  0
LINE
  5
89
102
{ACAD_REACTORS
330
C2C
102
}
330
2
100
AcDbEntity
  8
0
370
     5
100
AcDbLine
 10
18571.22119274482
 20
-2600.789444074791
 30
-0.0000000000019559
 11
18571.22119274482
 21
-2270.789444074792
 31
-0.0000000000016628
  0
LINE
  5
8C
330
2
100
AcDbEntity
  8
0
370
     5
100
AcDbLine
 10
18532.22119274482
 20
-2308.789444074792
 30
-0.0000000000016965
 11
18571.22119274482
 21
-2308.789444074792
 31
-0.0000000000016965
  0
LINE
  5
8D
330
2
100
AcDbEntity
  8
0
370
     5
100
AcDbLine
 10
18571.22119274482
 20
-2270.789444074792
 30
-0.0000000000016628
 11
18761.08122111341
 21
-2270.789444074801
 31
-0.0000000000009567
  0
LINE
  5
8E
330
2
100
AcDbEntity
  8
0
370
     5
100
AcDbLine
 10
18581.22119302058
 20
-2210.789444074792
 30
-0.0000000000016628
 11
18511.22119274482
 21
-2210.789444074792
 31
-0.0000000000016628
  0
LINE
  5
8F
102
{ACAD_REACTORS
330
BC8
330
BCD
330
BD8
102
}
330
2
100
AcDbEntity
  8
0
370
     5
100
AcDbLine
 10
18641.22119302061
 20
-2270.789444074792
 30
-0.0000000000016628
 11
18641.22119302061
 21
-780.7894440747913
 31
-0.0000000000003394
  0
LINE
  5
90
102
{ACAD_REACTORS
330
BC8
330
BCD
330
BD8
330
BF0
102
}
330
2
100
AcDbEntity
  8
0
370
     5
100
AcDbLine
 10
18581.22119302058
 20
-2210.789444074792
 30
-0.0000000000016095
 11
18581.22119302061
 21
-1130.789444074791
 31
-0.0000000000006502
  0
LINE
  5
95
102
{ACAD_REACTORS
330
BC8
102
}
330
2
100
AcDbEntity
  8
0
370
     5
100
AcDbLine
 10
18581.22119302061
 20
-1755.78944407482
 30
-0.0000000000012054
 11
18641.22119302061
 21
-1755.789444074791
 31
-0.0000000000012054
  0
LINE
  5
9A
102
{ACAD_REACTORS
330
BF0
102
}
330
2
100
AcDbEntity
  8
0
370
     5
100
AcDbLine
 10
18216.36837900235
 20
-1090.789444433438
 30
-0.000000000000577
 11
18316.36837864388
 21
-1190.789444074791
 31
-0.0000000000006631
  0
LINE
  5
9B
102
{ACAD_REACTORS
330
BD8
330
BF0
102
}
330
2
100
AcDbEntity
  8
0
370
     5
100
AcDbLine
 10
18341.22119238623
 20
-1130.789444074791
 30
-0.0000000000006502
 11
18641.22119302061
 21
-1130.789444074791
 31
-0.0000000000006502
  0
LINE
  5
9C
102
{ACAD_REACTORS
330
BF0
102
}
330
2
100
AcDbEntity
  8
0
370
     5
100
AcDbLine
 10
18316.36837864388
 20
-1190.789444074791
 30
-0.0000000000006502
 11
18581.22119302061
 21
-1190.789444074791
 31
-0.0000000000007035
  0
LINE
  5
9D
102
{ACAD_REACTORS
330
BF0
102
}
330
2
100
AcDbEntity
  8
0
370
     5
100
AcDbLine
 10
18241.22119274488
 20
-1030.789444433467
 30
-0.0000000000005614
 11
18341.22119238623
 21
-1130.789444074791
 31
-0.0000000000006502
  0
LINE
  5
9F
102
{ACAD_REACTORS
330
C1B
102
}
330
2
100
AcDbEntity
  8
0
370
     5
100
AcDbLine
 10
17661.22119246903
 20
-1500.789444074791
 30
-0.0000000000009789
 11
17661.22119246903
 21
-1900.789444074791
 31
-0.0000000000013341
  0
LINE
  5
A0
102
{ACAD_REACTORS
330
C02
330
C1B
102
}
330
2
100
AcDbEntity
  8
0
370
     5
100
AcDbLine
 10
17721.22119246903
 20
-1500.789444074791
 30
-0.0000000000009789
 11
17721.22119246903
 21
-1840.789444074791
 31
-0.0000000000012809
  0
LINE
  5
A3
102
{ACAD_REACTORS
330
C2C
102
}
330
2
100
AcDbEntity
  8
0
370
     5
100
AcDbLine
 10
17861.22119274482
 20
-2600.789444074791
 30
-0.0000000000019559
 11
18761.08122111341
 21
-2600.789444074802
 31
-0.0000000000009567
  0
LINE
  5
A4
102
{ACAD_REACTORS
330
C2C
102
}
330
2
100
AcDbEntity
  8
0
370
     5
100
AcDbLine
 10
17921.22119274482
 20
-2540.789444074792
 30
-0.0000000000019559
 11
18571.22119274482
 21
-2540.789444074792
 31
-0.0000000000019559
  0
LINE
  5
A5
102
{ACAD_REACTORS
330
C1B
102
}
330
2
100
AcDbEntity
  8
0
370
     5
100
AcDbLine
 10
17861.22119274482
 20
-2270.789444074792
 30
-0.0000000000016628
 11
17701.22119246903
 21
-2270.789444074792
 31
-0.0000000000016628
  0
LINE
  5
A6
102
{ACAD_REACTORS
330
C1B
102
}
330
2
100
AcDbEntity
  8
0
370
     5
100
AcDbLine
 10
17921.22119274482
 20
-2210.789444074792
 30
-0.0000000000016095
 11
17761.22119246903
 21
-2210.789444074792
 31
-0.0000000000016628
  0
LINE
  5
A7
102
{ACAD_REACTORS
330
C1B
102
}
330
2
100
AcDbEntity
  8
0
370
     5
100
AcDbLine
 10
17701.22119246903
 20
-2270.789444074792
 30
-0.0000000000016628
 11
17701.22119246903
 21
-1900.789444074791
 31
-0.0000000000013341
  0
LINE
  5
A8
102
{ACAD_REACTORS
330
C1B
102
}
330
2
100
AcDbEntity
  8
0
370
     5
100
AcDbLine
 10
17761.22119246903
 20
-2210.789444074792
 30
-0.0000000000016095
 11
17761.22119246903
 21
-1840.789444074791
 31
-0.0000000000012809
  0
LINE
  5
AE
102
{ACAD_REACTORS
330
C1B
102
}
330
2
100
AcDbEntity
  8
0
370
     5
100
AcDbLine
 10
17761.22119246903
 20
-1840.789444074791
 30
-0.0000000000012809
 11
17721.22119246903
 21
-1840.789444074791
 31
-0.0000000000013022
  0
LINE
  5
AF
330
2
100
AcDbEntity
  8
0
370
     5
100
AcDbLine
 10
17501.22119246903
 20
-1525.789444074791
 30
-0.0000000000010011
 11
17501.22119246903
 21
-998.3630372036131
 31
-0.0000000000005326
  0
LINE
  5
B2
102
{ACAD_REACTORS
330
C02
330
C1B
102
}
330
2
100
AcDbEntity
  8
0
370
     5
100
AcDbLine
 10
17526.22119246903
 20
-1500.789444074791
 30
-0.0000000000009789
 11
17830.22119246903
 21
-1500.789444074791
 31
-0.0000000000009789
  0
LINE
  5
B3
102
{ACAD_REACTORS
330
C02
102
}
330
2
100
AcDbEntity
  8
0
370
     5
100
AcDbLine
 10
17830.22119246903
 20
-1500.789444074791
 30
-0.0000000000009789
 11
17830.22119246906
 21
-1130.789444074791
 31
-0.0000000000006502
  0
LINE
  5
B4
102
{ACAD_REACTORS
330
BF0
330
C02
102
}
330
2
100
AcDbEntity
  8
0
370
     5
100
AcDbLine
 10
17890.22119246903
 20
-1560.789444074791
 30
-0.0000000000010322
 11
17890.22119246907
 21
-1130.789444074791
 31
-0.0000000000006502
  0
LINE
  5
B6
102
{ACAD_REACTORS
330
C02
102
}
330
2
100
AcDbEntity
  8
0
370
     5
100
AcDbLine
 10
17890.22119246903
 20
-1560.789444074791
 30
-0.0000000000010322
 11
17721.22119246903
 21
-1560.789444074791
 31
-0.0000000000009789
  0
LINE
  5
B7
330
2
100
AcDbEntity
  8
0
370
     5
100
AcDbLine
 10
17743.64759934021
 20
-840.7894440747913
 30
-0.0000000000003927
 11
17561.22119246903
 21
-1023.215850945998
 31
-0.0000000000005547
  0
LINE
  5
B8
102
{ACAD_REACTORS
330
BF0
330
C02
102
}
330
2
100
AcDbEntity
  8
0
370
     5
100
AcDbLine
 10
17830.22119246906
 20
-1130.789444074791
 30
-0.0000000000006502
 11
18001.22119310352
 21
-1130.789444074791
 31
-0.0000000000006502
  0
LINE
  5
B9
102
{ACAD_REACTORS
330
BF0
102
}
330
2
100
AcDbEntity
  8
0
370
     5
100
AcDbLine
 10
17890.22119246906
 20
-1190.789444074791
 30
-0.0000000000006502
 11
18026.07400684594
 21
-1190.789444074791
 31
-0.0000000000006531
  0
LINE
  5
BA
102
{ACAD_REACTORS
330
BF0
102
}
330
2
100
AcDbEntity
  8
0
370
     5
100
AcDbLine
 10
18101.22119274485
 20
-1030.789444433467
 30
-0.0000000000005614
 11
18001.22119310352
 21
-1130.789444074791
 31
-0.0000000000006502
  0
LINE
  5
BB
102
{ACAD_REACTORS
330
BF0
102
}
330
2
100
AcDbEntity
  8
0
370
     5
100
AcDbLine
 10
18026.07400684594
 20
-1190.789444074791
 30
-0.0000000000006659
 11
18126.07400648729
 21
-1090.789444433467
 31
-0.000000000000577
  0
LINE
  5
BE
102
{ACAD_REACTORS
330
BF0
102
}
330
2
100
AcDbEntity
  8
0
370
     5
100
AcDbLine
 10
18101.22119274488
 20
-1030.789444433467
 30
-0.0000000000005614
 11
18241.22119274488
 21
-1030.789444433467
 31
-0.0000000000005614
  0
LINE
  5
BF
102
{ACAD_REACTORS
330
BF0
102
}
330
2
100
AcDbEntity
  8
0
370
     5
100
AcDbLine
 10
18126.07400648729
 20
-1090.789444433467
 30
-0.0000000000005614
 11
18216.36837900241
 21
-1090.789444433438
 31
-0.0000000000005614
  0
LINE
  5
C2
330
2
100
AcDbEntity
  8
0
370
     5
100
AcDbLine
 10
18616.22119302061
 20
-810.7894440747914
 30
-0.000000000000366
 11
18416.22119302061
 21
-810.7894440747914
 31
-0.000000000000366
  0
LINE
  5
C3
330
2
100
AcDbEntity
  8
0
370
     5
100
AcDbLine
 10
17718.79478559783
 20
-780.7894440747913
 30
-0.0000000000003394
 11
18740.69505569925
 21
-780.789444074795
 31
-0.0000000000003616
  0
LINE
  5
C4
330
2
100
AcDbEntity
  8
0
370
     5
100
AcDbLine
 10
18841.22119302061
 20
-1475.789444074791
 30
-0.0000000000009567
 11
18641.22119302061
 21
-1475.789444074791
 31
-0.0000000000009567
  0
LINE
  5
C5
330
2
100
AcDbEntity
  8
0
370
     5
100
AcDbLine
 10
18841.22119302061
 20
-1505.789444074791
 30
-0.0000000000009833
 11
18641.22119302061
 21
-1505.789444074791
 31
-0.0000000000009833
  0
CIRCLE
  5
C6
330
2
100
AcDbEntity
  8
0
370
     5
100
AcDbCircle
 10
18731.22119302061
 20
-1565.789444074791
 30
-0.0000000000010366
 40
20.0
  0
HATCH
  5
C7
330
2
100
AcDbEntity
  8
0
370
     5
100
AcDbHatch
 10
0.0
 20
0.0
 30
0.0000000000003541
210
0.0
220
-0.0000000000000009
230
1.0
  2
SOLID
 70
     1
 71
     1
 91
        1
 92
        7
 72
     1
 73
     1
 93
        2
 10
18716.22119302061
 20
-1565.789444074791
 42
1.0
 10
18746.22119302061
 20
-1565.789444074791
 42
1.0
 97
        1
330
C9
 75
     0
 76
     1
 47
0.683283654368829
 98
        1
 10
18726.7977363762
 20
-1554.74349506147
1001
ACAD
1010
0.0
1020
0.0
1030
0.0
  0
CIRCLE
  5
C9
102
{ACAD_REACTORS
330
C7
102
}
330
2
100
AcDbEntity
  8
0
370
     5
100
AcDbCircle
 10
18731.22119302061
 20
-1565.789444074791
 30
-0.0000000000010366
 40
15.0
  0
LINE
  5
CA
330
2
100
AcDbEntity
  8
0
370
     5
100
AcDbLine
 10
18751.22119302061
 20
-1895.789444074791
 30
-0.0000000000013297
 11
18751.22119302061
 21
-1505.789444074791
 31
-0.0000000000009833
  0
LINE
  5
CB
330
2
100
AcDbEntity
  8
0
370
     5
100
AcDbLine
 10
18781.22119302061
 20
-1895.789444074791
 30
-0.0000000000013297
 11
18781.22119302061
 21
-1505.789444074791
 31
-0.0000000000009833
  0
LINE
  5
CC
330
2
100
AcDbEntity
  8
0
370
     5
100
AcDbLine
 10
18811.22119302061
 20
-1895.789444074791
 30
-0.0000000000013297
 11
18811.22119302061
 21
-1505.789444074791
 31
-0.0000000000009833
  0
HATCH
  5
CD
330
2
100
AcDbEntity
  8
0
370
     5
100
AcDbHatch
 10
0.0
 20
0.0
 30
0.0000000000003541
210
0.0
220
-0.0000000000000009
230
1.0
  2
SOLID
 70
     1
 71
     1
 91
        1
 92
        7
 72
     1
 73
     1
 93
        2
 10
18716.22119302061
 20
-1835.789444074791
 42
1.0
 10
18746.22119302061
 20
-1835.789444074791
 42
1.0
 97
        1
330
CE
 75
     0
 76
     1
 47
0.683283654368829
 98
        1
 10
18728.16515211668
 20
-1830.790116141841
1001
ACAD
1010
0.0
1020
0.0
1030
0.0
  0
CIRCLE
  5
CE
102
{ACAD_REACTORS
330
CD
102
}
330
2
100
AcDbEntity
  8
0
370
     5
100
AcDbCircle
 10
18731.22119302061
 20
-1835.789444074791
 30
-0.0000000000012764
 40
15.0
  0
CIRCLE
  5
CF
330
2
100
AcDbEntity
  8
0
370
     5
100
AcDbCircle
 10
18731.22119302061
 20
-1835.789444074791
 30
-0.0000000000012764
 40
20.0
  0
LINE
  5
D0
330
2
100
AcDbEntity
  8
0
370
     5
100
AcDbLine
 10
18841.22119302061
 20
-1925.789444074791
 30
-0.0000000000013564
 11
18641.22119302061
 21
-1925.789444074791
 31
-0.0000000000013564
  0
LINE
  5
D1
330
2
100
AcDbEntity
  8
0
370
     5
100
AcDbLine
 10
18841.22119302061
 20
-1895.789444074791
 30
-0.0000000000013297
 11
18641.22119302061
 21
-1895.789444074791
 31
-0.0000000000013297
  0
LINE
  5
D2
330
2
100
AcDbEntity
  8
0
370
     5
100
AcDbLine
 10
17771.22119274482
 20
-2270.789444074792
 30
-0.0000000000016628
 11
17771.22119274482
 21
-2445.789444074792
 31
-0.0000000000018182
  0
LINE
  5
D3
330
2
100
AcDbEntity
  8
0
370
     5
100
AcDbLine
 10
17771.22119274482
 20
-2445.789444074792
 30
-0.0000000000018182
 11
17861.22119274482
 21
-2445.789444074792
 31
-0.0000000000018182
  0
LINE
  5
D5
102
{ACAD_REACTORS
330
C2C
102
}
330
2
100
AcDbEntity
  8
0
370
     5
100
AcDbLine
 10
17861.22119274482
 20
-2415.789444074792
 30
-0.0000000000017916
 11
17921.22119274482
 21
-2415.789444074792
 31
-0.0000000000017916
  0
LINE
  5
D6
102
{ACAD_REACTORS
330
C1B
102
}
330
2
100
AcDbEntity
  8
0
370
     5
100
AcDbLine
 10
17861.22119274482
 20
-2315.789444074792
 30
-0.0000000000017027
 11
17921.22119274485
 21
-2315.789444074792
 31
-0.0000000000017027
  0
LINE
  5
D7
102
{ACAD_REACTORS
330
C1B
330
C2C
102
}
330
2
100
AcDbEntity
  8
0
370
     5
100
AcDbLine
 10
17861.22119274482
 20
-2600.789444074791
 30
-0.0000000000019559
 11
17861.22119274482
 21
-2270.789444074792
 31
-0.0000000000016628
  0
LINE
  5
D8
102
{ACAD_REACTORS
330
C1B
330
C2C
102
}
330
2
100
AcDbEntity
  8
0
370
     5
100
AcDbLine
 10
17921.22119274482
 20
-2540.789444074792
 30
-0.0000000000019026
 11
17921.22119274482
 21
-2210.789444074792
 31
-0.0000000000016095
  0
LINE
  5
D9
330
2
100
AcDbEntity
  8
0
370
     5
100
AcDbLine
 10
17561.22119246903
 20
-1525.789440544526
 30
-0.0000000000010011
 11
17661.22119246903
 21
-1525.789440544526
 31
-0.0000000000010011
  0
HATCH
  5
DB
330
2
100
AcDbEntity
  8
0
370
     5
100
AcDbHatch
 10
0.0
 20
0.0
 30
0.0000000000003541
210
0.0
220
-0.0000000000000009
230
1.0
  2
SOLID
 70
     1
 71
     1
 91
        1
 92
        7
 72
     1
 73
     1
 93
        2
 10
17710.22119246906
 20
-1154.789444074791
 42
1.0
 10
17740.22119246906
 20
-1154.789444074791
 42
1.0
 97
        1
330
DC
 75
     0
 76
     1
 47
0.7600455990033898
 98
        1
 10
17723.82487567907
 20
-1153.52317107984
1001
ACAD
1010
0.0
1020
0.0
1030
0.0
  0
CIRCLE
  5
DC
102
{ACAD_REACTORS
330
DB
102
}
330
2
100
AcDbEntity
  8
0
370
     5
100
AcDbCircle
 10
17725.22119246906
 20
-1154.789444074791
 30
-0.0000000000006716
 40
15.0
  0
LINE
  5
DD
330
2
100
AcDbEntity
  8
0
370
     5
100
AcDbLine
 10
17661.22119246903
 20
-1525.789444074791
 30
-0.0000000000010011
 11
17501.22119246903
 21
-1525.789444074791
 31
-0.0000000000010011
  0
LINE
  5
DE
330
2
100
AcDbEntity
  8
0
370
     5
100
AcDbLine
 10
18616.22119302061
 20
-1130.789444074791
 30
-0.0000000000006502
 11
18616.22119302061
 21
-780.7894440747913
 31
-0.0000000000003394
  0
LINE
  5
DF
330
2
100
AcDbEntity
  8
0
370
     5
100
AcDbLine
 10
18616.22119302061
 20
-870.7894440748205
 30
-0.0000000000004193
 11
18391.22119302061
 21
-870.7894440747914
 31
-0.0000000000004193
  0
LINE
  5
E0
330
2
100
AcDbEntity
  8
0
370
     5
100
AcDbLine
 10
18416.22119302061
 20
-870.7894440747914
 30
-0.0000000000004193
 11
18416.22119302062
 21
-678.0563011474878
 31
-0.0000000000003616
  0
LINE
  5
E1
330
2
100
AcDbEntity
  8
0
370
     5
100
AcDbLine
 10
18391.22119302061
 20
-870.7894440747914
 30
-0.0000000000004193
 11
18391.22119302061
 21
-805.7894440747913
 31
-0.0000000000003616
  0
LINE
  5
E3
330
2
100
AcDbEntity
  8
0
370
     5
100
AcDbLine
 10
17526.22119246903
 20
-1500.789444074791
 30
-0.0000000000009789
 11
17526.22119246903
 21
-1125.789444074791
 31
-0.0000000000006458
  0
LINE
  5
E4
330
2
100
AcDbEntity
  8
0
370
     5
100
AcDbLine
 10
17756.07400621142
 20
-870.7894440747914
 30
-0.0000000000004193
 11
17591.22119246903
 21
-1035.642257817177
 31
-0.0000000000005657
  0
LINE
  5
E5
330
2
100
AcDbEntity
  8
0
370
     5
100
AcDbLine
 10
17591.22119246903
 20
-1125.789444074791
 30
-0.0000000000006458
 11
17591.22119246903
 21
-1035.642257817177
 31
-0.0000000000005657
  0
LINE
  5
E6
330
2
100
AcDbEntity
  8
0
370
     5
100
AcDbLine
 10
17561.22119246903
 20
-1100.789444074791
 30
-0.0000000000006236
 11
17561.22119246903
 21
-1023.215850945998
 31
-0.0000000000005547
  0
LINE
  5
E7
330
2
100
AcDbEntity
  8
0
370
     5
100
AcDbLine
 10
17531.22119246903
 20
-1100.789444074791
 30
-0.0000000000006236
 11
17531.22119246903
 21
-1010.789444074791
 31
-0.0000000000005437
  0
LINE
  5
E9
330
2
100
AcDbEntity
  8
0
370
     5
100
AcDbLine
 10
17591.22119246903
 20
-1125.789444074791
 30
-0.0000000000006458
 11
17526.22119246903
 21
-1125.789444074791
 31
-0.0000000000006458
  0
LINE
  5
ED
330
2
100
AcDbEntity
  8
0
370
     5
100
AcDbLine
 10
17821.22119246903
 20
-870.7894440748205
 30
-0.0000000000004193
 11
17821.22119246903
 21
-678.0563011474878
 31
-0.0000000000003616
  0
LINE
  5
EE
330
2
100
AcDbEntity
  8
0
370
     5
100
AcDbLine
 10
17756.07400621142
 20
-870.7894440747914
 30
-0.0000000000004193
 11
17846.22119246903
 21
-870.7894440747914
 31
-0.0000000000004193
  0
LINE
  5
EF
330
2
100
AcDbEntity
  8
0
370
     5
100
AcDbLine
 10
17821.22119246903
 20
-810.7894440747914
 30
-0.000000000000366
 11
17731.22119246903
 21
-810.7894440747914
 31
-0.000000000000366
  0
LINE
  5
F0
330
2
100
AcDbEntity
  8
0
370
     5
100
AcDbLine
 10
17821.22119246903
 20
-840.7894440747913
 30
-0.0000000000003927
 11
17743.64759934021
 21
-840.7894440747913
 31
-0.0000000000003927
  0
LINE
  5
F1
330
2
100
AcDbEntity
  8
0
370
     5
100
AcDbLine
 10
18841.22119302061
 20
-1925.789444074791
 30
-0.0000000000013564
 11
18841.22119302061
 21
-1475.789444074791
 31
-0.0000000000009567
  0
LINE
  5
F2
330
2
100
AcDbEntity
  8
0
370
     5
100
AcDbLine
 10
17741.22119274482
 20
-2270.789444074792
 30
-0.0000000000016628
 11
17741.22119274482
 21
-2475.789444074791
 31
-0.0000000000018448
  0
LINE
  5
F3
330
2
100
AcDbEntity
  8
0
370
     5
100
AcDbLine
 10
17741.22119274482
 20
-2475.789444074791
 30
-0.0000000000018448
 11
17861.22119274482
 21
-2475.789444074791
 31
-0.0000000000018448
  0
LINE
  5
149
102
{ACAD_REACTORS
330
BCD
330
BD8
102
}
330
2
100
AcDbEntity
  8
0
370
     5
100
AcDbLine
 10
18641.22119302061
 20
-1645.789444074791
 30
-0.0000000000011077
 11
18581.22119302061
 21
-1645.789444074791
 31
0.0
  0
LINE
  5
14A
330
2
100
AcDbEntity
  8
0
370
     5
100
AcDbLine
 10
18511.22119274482
 20
-2540.789444074792
 30
-0.0000000000019026
 11
18511.22119274482
 21
-2210.789444074792
 31
-0.0000000000016628
  0
LINE
  5
369
330
2
100
AcDbEntity
  8
0
370
     5
100
AcDbLine
 10
17561.22119246906
 20
-1640.789444074791
 30
-0.000000000000453
 11
17561.22119246906
 21
-1760.789444074791
 31
-0.0000000000005596
  0
LINE
  5
36A
330
2
100
AcDbEntity
  8
0
370
     5
100
AcDbLine
 10
17546.22119246906
 20
-1625.789444074791
 30
-0.0000000000004397
 11
17546.22119246906
 21
-1775.789444074791
 31
-0.0000000000005729
  0
LINE
  5
36B
330
2
100
AcDbEntity
  8
0
370
     5
100
AcDbLine
 10
17661.22119246903
 20
-1640.789444074791
 30
-0.000000000000453
 11
17561.22119246903
 21
-1640.789444074791
 31
-0.000000000000453
  0
LINE
  5
36C
330
2
100
AcDbEntity
  8
0
370
     5
100
AcDbLine
 10
17661.22119246903
 20
-1625.789444074791
 30
-0.0000000000004397
 11
17546.22119246906
 21
-1625.789444074791
 31
-0.0000000000004397
  0
LINE
  5
36D
330
2
100
AcDbEntity
  8
0
370
     5
100
AcDbLine
 10
17661.22119246903
 20
-1760.789444074791
 30
-0.0000000000005596
 11
17561.22119246903
 21
-1760.789444074791
 31
-0.0000000000005596
  0
LINE
  5
36E
330
2
100
AcDbEntity
  8
0
370
     5
100
AcDbLine
 10
17661.22119246903
 20
-1775.789444074791
 30
-0.0000000000005729
 11
17546.22119246906
 21
-1775.789444074791
 31
-0.0000000000005729
  0
LINE
  5
36F
330
2
100
AcDbEntity
  8
0
370
     5
100
AcDbLine
 10
17701.22119246903
 20
-2040.789444074762
 30
-0.0000000000008083
 11
17586.22119246906
 21
-2040.789444074762
 31
-0.0000000000008083
  0
LINE
  5
370
330
2
100
AcDbEntity
  8
0
370
     5
100
AcDbLine
 10
17701.22119246903
 20
-2025.789444074762
 30
-0.0000000000007949
 11
17601.22119246906
 21
-2025.789444074762
 31
-0.000000000000795
  0
LINE
  5
371
330
2
100
AcDbEntity
  8
0
370
     5
100
AcDbLine
 10
17586.22119246906
 20
-1885.789444074791
 30
-0.0000000000006706
 11
17586.22119246906
 21
-2040.789444074762
 31
-0.0000000000008083
  0
LINE
  5
372
330
2
100
AcDbEntity
  8
0
370
     5
100
AcDbLine
 10
17601.22119246906
 20
-1900.789444074791
 30
-0.0000000000006839
 11
17601.22119246906
 21
-2025.789444074762
 31
-0.000000000000795
  0
LINE
  5
373
330
2
100
AcDbEntity
  8
0
370
     5
100
AcDbLine
 10
17661.22119246903
 20
-1885.789444074791
 30
-0.0000000000006706
 11
17586.22119246906
 21
-1885.789444074791
 31
-0.0000000000006706
  0
LINE
  5
374
330
2
100
AcDbEntity
  8
0
370
     5
100
AcDbLine
 10
18641.22119302061
 20
-2130.789444074733
 30
-0.0000000000008882
 11
18756.22119302052
 21
-2130.789444074733
 31
-0.0000000000008882
  0
LINE
  5
375
330
2
100
AcDbEntity
  8
0
370
     5
100
AcDbLine
 10
18641.22119302061
 20
-2115.789444074733
 30
-0.0000000000008749
 11
18741.22119302052
 21
-2115.789444074733
 31
-0.0000000000008749
  0
LINE
  5
376
330
2
100
AcDbEntity
  8
0
370
     5
100
AcDbLine
 10
18641.22119302061
 20
-1995.789444074733
 30
-0.0000000000007683
 11
18741.22119302052
 21
-1995.789444074733
 31
-0.0000000000007683
  0
LINE
  5
377
330
2
100
AcDbEntity
  8
0
370
     5
100
AcDbLine
 10
18641.22119302061
 20
-1980.789444074733
 30
-0.000000000000755
 11
18756.22119302052
 21
-1980.789444074733
 31
-0.000000000000755
  0
LINE
  5
378
330
2
100
AcDbEntity
  8
0
370
     5
100
AcDbLine
 10
18756.22119302052
 20
-1980.789444074733
 30
-0.000000000000755
 11
18756.22119302052
 21
-2130.789444074733
 31
-0.0000000000008882
  0
LINE
  5
379
330
2
100
AcDbEntity
  8
0
370
     5
100
AcDbLine
 10
18741.22119302052
 20
-1995.789444074733
 30
-0.0000000000007683
 11
18741.22119302052
 21
-2115.789444074733
 31
-0.0000000000008749
  0
LINE
  5
37A
102
{ACAD_REACTORS
330
C1B
102
}
330
2
100
AcDbEntity
  8
0
370
     5
100
AcDbLine
 10
17601.22119246906
 20
-1900.789444074791
 30
-0.0000000000006839
 11
17701.22119246903
 21
-1900.789444074791
 31
-0.0000000000013341
  0
LINE
  5
37B
330
2
100
AcDbEntity
  8
0
370
     5
100
AcDbLine
 10
18741.22119302052
 20
-1285.789444074849
 30
-0.0000000000001377
 11
18741.22119302052
 21
-1405.789444074849
 31
-0.0000000000002443
  0
LINE
  5
37C
330
2
100
AcDbEntity
  8
0
370
     5
100
AcDbLine
 10
18756.22119302052
 20
-1270.789444074849
 30
-0.0000000000001244
 11
18756.22119302052
 21
-1420.789444074849
 31
-0.0000000000002576
  0
LINE
  5
37D
330
2
100
AcDbEntity
  8
0
370
     5
100
AcDbLine
 10
18641.22119302061
 20
-1405.789444074849
 30
-0.0000000000002443
 11
18741.22119302052
 21
-1405.789444074849
 31
-0.0000000000002443
  0
LINE
  5
37E
330
2
100
AcDbEntity
  8
0
370
     5
100
AcDbLine
 10
18641.22119302061
 20
-1420.789444074849
 30
-0.0000000000002576
 11
18756.22119302052
 21
-1420.789444074849
 31
-0.0000000000002576
  0
LINE
  5
37F
330
2
100
AcDbEntity
  8
0
370
     5
100
AcDbLine
 10
18641.22119302061
 20
-1270.789444074849
 30
-0.0000000000001244
 11
18756.22119302052
 21
-1270.789444074849
 31
-0.0000000000001244
  0
LINE
  5
380
330
2
100
AcDbEntity
  8
0
370
     5
100
AcDbLine
 10
18641.22119302061
 20
-1285.789444074849
 30
-0.0000000000001377
 11
18741.22119302052
 21
-1285.789444074849
 31
-0.0000000000001377
  0
LINE
  5
868
330
2
100
AcDbEntity
  8
0
370
     5
100
AcDbLine
 10
18391.22119302062
 20
-805.7894440747951
 30
-0.0000000000003616
 11
17846.22119246903
 21
-805.7894440747913
 31
-0.0000000000003616
  0
LINE
  5
869
330
2
100
AcDbEntity
  8
0
370
     5
100
AcDbLine
 10
17846.22119246903
 20
-870.7894440747987
 30
-0.0000000000003616
 11
17846.22119246903
 21
-805.7894440747913
 31
-0.0000000000003616
  0
LINE
  5
86C
330
2
100
AcDbEntity
  8
0
370
     5
100
AcDbLine
 10
17931.22119246903
 20
-780.7894440747913
 30
-0.0000000000003616
 11
17931.22119246903
 21
-683.0563011474878
 31
-0.0000000000003616
  0
LINE
  5
86D
330
2
100
AcDbEntity
  8
0
370
     5
100
AcDbLine
 10
17971.22119246903
 20
-780.7894440747913
 30
-0.0000000000003616
 11
17971.22119246903
 21
-683.0563011474878
 31
-0.0000000000003616
  0
LINE
  5
86E
330
2
100
AcDbEntity
  8
0
370
     5
100
AcDbLine
 10
18011.22119246903
 20
-780.7894440747913
 30
-0.0000000000003616
 11
18011.22119246903
 21
-683.0563011474878
 31
-0.0000000000003616
  0
LINE
  5
86F
330
2
100
AcDbEntity
  8
0
370
     5
100
AcDbLine
 10
18051.22119246903
 20
-780.7894440747913
 30
-0.0000000000003616
 11
18051.22119246903
 21
-683.0563011474878
 31
-0.0000000000003616
  0
LINE
  5
870
330
2
100
AcDbEntity
  8
0
370
     5
100
AcDbLine
 10
18091.22119246903
 20
-780.7894440747913
 30
-0.0000000000003616
 11
18091.22119246903
 21
-683.0563011474878
 31
-0.0000000000003616
  0
LINE
  5
871
330
2
100
AcDbEntity
  8
0
370
     5
100
AcDbLine
 10
18131.22119246903
 20
-780.7894440747913
 30
-0.0000000000003616
 11
18131.22119246903
 21
-683.0563011474878
 31
-0.0000000000003616
  0
LINE
  5
872
330
2
100
AcDbEntity
  8
0
370
     5
100
AcDbLine
 10
18171.22119246903
 20
-780.7894440747913
 30
-0.0000000000003616
 11
18171.22119246903
 21
-683.0563011474878
 31
-0.0000000000003616
  0
LINE
  5
873
330
2
100
AcDbEntity
  8
0
370
     5
100
AcDbLine
 10
18211.22119246903
 20
-780.7894440747913
 30
-0.0000000000003616
 11
18211.22119246903
 21
-683.0563011474878
 31
-0.0000000000003616
  0
LINE
  5
874
330
2
100
AcDbEntity
  8
0
370
     5
100
AcDbLine
 10
18251.22119246903
 20
-780.7894440747913
 30
-0.0000000000003616
 11
18251.22119246903
 21
-683.0563011474878
 31
-0.0000000000003616
  0
LINE
  5
875
330
2
100
AcDbEntity
  8
0
370
     5
100
AcDbLine
 10
18291.22119246903
 20
-780.7894440747913
 30
-0.0000000000003616
 11
18291.22119246903
 21
-683.0563011474878
 31
-0.0000000000003616
  0
LINE
  5
876
330
2
100
AcDbEntity
  8
0
370
     5
100
AcDbLine
 10
18331.22119246903
 20
-780.7894440747913
 30
-0.0000000000003616
 11
18331.22119246903
 21
-683.0563011474878
 31
-0.0000000000003616
  0
LINE
  5
877
330
2
100
AcDbEntity
  8
0
370
     5
100
AcDbLine
 10
17396.68434661492
 20
-1100.789444074784
 30
-0.0000000000003616
 11
17591.22119246903
 21
-1100.789444074791
 31
-0.0000000000006236
  0
LINE
  5
878
330
2
100
AcDbEntity
  8
0
370
     5
100
AcDbLine
 10
17501.22119246904
 20
-1525.789444074785
 30
-0.0000000000003616
 11
17478.24839612371
 21
-1592.62152048671
 31
-0.0000000000003616
  0
LINE
  5
879
330
2
100
AcDbEntity
  8
0
370
     5
100
AcDbLine
 10
17546.22119246904
 20
-1525.789444074785
 30
-0.0000000000003616
 11
17546.22119246904
 21
-1603.096227531635
 31
-0.0000000000003616
  0
LINE
  5
87A
330
2
100
AcDbEntity
  8
0
370
     5
100
AcDbLine
 10
17591.22119246904
 20
-1525.789444074785
 30
-0.0000000000003616
 11
17591.22119246904
 21
-1603.096227531635
 31
-0.0000000000003616
  0
LINE
  5
87B
330
2
100
AcDbEntity
  8
0
370
     5
100
AcDbLine
 10
17636.22119246904
 20
-1525.789444074785
 30
-0.0000000000003616
 11
17636.22119246904
 21
-1603.096227531635
 31
-0.0000000000003616
  0
LINE
  5
87C
330
2
100
AcDbEntity
  8
0
370
     5
100
AcDbLine
 10
17501.22119246904
 20
-1525.789444074785
 30
-0.0000000000003616
 11
17396.68434661492
 21
-1602.8574990185
 31
-0.0000000000003616
  0
LINE
  5
87D
330
2
100
AcDbEntity
  8
0
370
     5
100
AcDbLine
 10
17501.22119246904
 20
-1525.789444074785
 30
-0.0000000000003616
 11
17409.71021726083
 21
-1543.83624765087
 31
-0.0000000000003616
  0
LINE
  5
87F
330
2
100
AcDbEntity
  8
0
370
     5
100
AcDbLine
 10
18641.22119302062
 20
-1176.95599961299
 30
-0.0000000000003616
 11
18740.69505569925
 21
-1176.95599961299
 31
-0.0000000000003616
  0
LINE
  5
880
330
2
100
AcDbEntity
  8
0
370
     5
100
AcDbLine
 10
17911.96165037468
 20
-780.7894440747932
 30
-0.0000000000003616
 11
17911.96165037468
 21
-722.1817186474072
 31
-0.0000000000003616
  0
LINE
  5
881
330
2
100
AcDbEntity
  8
0
370
     5
100
AcDbLine
 10
17951.96165037468
 20
-780.7894440747932
 30
-0.0000000000003616
 11
17951.96165037468
 21
-722.1817186474072
 31
-0.0000000000003616
  0
LINE
  5
882
330
2
100
AcDbEntity
  8
0
370
     5
100
AcDbLine
 10
17991.96165037468
 20
-780.7894440747932
 30
-0.0000000000003616
 11
17991.96165037468
 21
-722.1817186474072
 31
-0.0000000000003616
  0
LINE
  5
883
330
2
100
AcDbEntity
  8
0
370
     5
100
AcDbLine
 10
18031.96165037468
 20
-780.7894440747932
 30
-0.0000000000003616
 11
18031.96165037468
 21
-722.1817186474072
 31
-0.0000000000003616
  0
LINE
  5
884
330
2
100
AcDbEntity
  8
0
370
     5
100
AcDbLine
 10
18071.96165037468
 20
-780.7894440747932
 30
-0.0000000000003616
 11
18071.96165037468
 21
-722.1817186474072
 31
-0.0000000000003616
  0
LINE
  5
885
330
2
100
AcDbEntity
  8
0
370
     5
100
AcDbLine
 10
18111.96165037468
 20
-780.7894440747932
 30
-0.0000000000003616
 11
18111.96165037468
 21
-722.1817186474072
 31
-0.0000000000003616
  0
LINE
  5
886
330
2
100
AcDbEntity
  8
0
370
     5
100
AcDbLine
 10
18151.96165037468
 20
-780.7894440747932
 30
-0.0000000000003616
 11
18151.96165037468
 21
-722.1817186474072
 31
-0.0000000000003616
  0
LINE
  5
887
330
2
100
AcDbEntity
  8
0
370
     5
100
AcDbLine
 10
18191.96165037468
 20
-780.7894440747932
 30
-0.0000000000003616
 11
18191.96165037468
 21
-722.1817186474072
 31
-0.0000000000003616
  0
LINE
  5
888
330
2
100
AcDbEntity
  8
0
370
     5
100
AcDbLine
 10
18231.96165037468
 20
-780.7894440747932
 30
-0.0000000000003616
 11
18231.96165037468
 21
-722.1817186474072
 31
-0.0000000000003616
  0
LINE
  5
889
330
2
100
AcDbEntity
  8
0
370
     5
100
AcDbLine
 10
18271.96165037468
 20
-780.7894440747932
 30
-0.0000000000003616
 11
18271.96165037468
 21
-722.1817186474072
 31
-0.0000000000003616
  0
LINE
  5
88A
330
2
100
AcDbEntity
  8
0
370
     5
100
AcDbLine
 10
18311.96165037468
 20
-780.7894440747932
 30
-0.0000000000003616
 11
18311.96165037468
 21
-722.1817186474072
 31
-0.0000000000003616
  0
LINE
  5
88B
330
2
100
AcDbEntity
  8
0
370
     5
100
AcDbLine
 10
18641.22119302062
 20
-860.789444074795
 30
-0.0000000000003616
 11
18735.69505569925
 21
-860.789444074795
 31
-0.0000000000003616
  0
LINE
  5
88C
330
2
100
AcDbEntity
  8
0
370
     5
100
AcDbLine
 10
18641.22119302062
 20
-900.789444074795
 30
-0.0000000000003616
 11
18735.69505569925
 21
-900.789444074795
 31
-0.0000000000003616
  0
LINE
  5
88D
330
2
100
AcDbEntity
  8
0
370
     5
100
AcDbLine
 10
18641.22119302062
 20
-881.4177705982292
 30
-0.0000000000003616
 11
18702.54480198162
 21
-881.4177705982292
 31
-0.0000000000003616
  0
LINE
  5
88E
330
2
100
AcDbEntity
  8
0
370
     5
100
AcDbLine
 10
18641.22119302062
 20
-940.789444074795
 30
-0.0000000000003616
 11
18735.69505569925
 21
-940.789444074795
 31
-0.0000000000003616
  0
LINE
  5
88F
330
2
100
AcDbEntity
  8
0
370
     5
100
AcDbLine
 10
18641.22119302062
 20
-921.4177705982292
 30
-0.0000000000003616
 11
18702.54480198162
 21
-921.4177705982292
 31
-0.0000000000003616
  0
LINE
  5
890
330
2
100
AcDbEntity
  8
0
370
     5
100
AcDbLine
 10
18641.22119302062
 20
-980.7894440747951
 30
-0.0000000000003616
 11
18735.69505569925
 21
-980.7894440747951
 31
-0.0000000000003616
  0
LINE
  5
891
330
2
100
AcDbEntity
  8
0
370
     5
100
AcDbLine
 10
18641.22119302062
 20
-961.4177705982292
 30
-0.0000000000003616
 11
18702.54480198162
 21
-961.4177705982292
 31
-0.0000000000003616
  0
LINE
  5
892
330
2
100
AcDbEntity
  8
0
370
     5
100
AcDbLine
 10
18641.22119302062
 20
-1020.789444074795
 30
-0.0000000000003616
 11
18735.69505569925
 21
-1020.789444074795
 31
-0.0000000000003616
  0
LINE
  5
893
330
2
100
AcDbEntity
  8
0
370
     5
100
AcDbLine
 10
18641.22119302062
 20
-1001.417770598229
 30
-0.0000000000003616
 11
18702.54480198162
 21
-1001.417770598229
 31
-0.0000000000003616
  0
LINE
  5
894
330
2
100
AcDbEntity
  8
0
370
     5
100
AcDbLine
 10
18641.22119302062
 20
-1060.789444074795
 30
-0.0000000000003616
 11
18735.69505569925
 21
-1060.789444074795
 31
-0.0000000000003616
  0
LINE
  5
895
330
2
100
AcDbEntity
  8
0
370
     5
100
AcDbLine
 10
18641.22119302062
 20
-1041.417770598229
 30
-0.0000000000003616
 11
18702.54480198162
 21
-1041.417770598229
 31
-0.0000000000003616
  0
LINE
  5
896
330
2
100
AcDbEntity
  8
0
370
     5
100
AcDbLine
 10
18641.22119302062
 20
-1100.789444074795
 30
-0.0000000000003616
 11
18735.69505569925
 21
-1100.789444074795
 31
-0.0000000000003616
  0
LINE
  5
897
330
2
100
AcDbEntity
  8
0
370
     5
100
AcDbLine
 10
18641.22119302062
 20
-1081.417770598229
 30
-0.0000000000003616
 11
18702.54480198162
 21
-1081.417770598229
 31
-0.0000000000003616
  0
LINE
  5
898
330
2
100
AcDbEntity
  8
0
370
     5
100
AcDbLine
 10
17501.22119246904
 20
-1180.789444074784
 30
-0.0000000000003616
 11
17401.68434661492
 21
-1180.789444074784
 31
-0.0000000000003616
  0
LINE
  5
899
330
2
100
AcDbEntity
  8
0
370
     5
100
AcDbLine
 10
17501.22119246904
 20
-1220.789444074785
 30
-0.0000000000003616
 11
17401.68434661492
 21
-1220.789444074785
 31
-0.0000000000003616
  0
LINE
  5
89A
330
2
100
AcDbEntity
  8
0
370
     5
100
AcDbLine
 10
17501.22119246904
 20
-1200.922810608675
 30
-0.0000000000003616
 11
17426.0192420207
 21
-1200.922810608675
 31
-0.0000000000003616
  0
LINE
  5
89B
330
2
100
AcDbEntity
  8
0
370
     5
100
AcDbLine
 10
17501.22119246904
 20
-1260.789444074785
 30
-0.0000000000003616
 11
17401.68434661492
 21
-1260.789444074785
 31
-0.0000000000003616
  0
LINE
  5
89C
330
2
100
AcDbEntity
  8
0
370
     5
100
AcDbLine
 10
17501.22119246904
 20
-1240.922810608675
 30
-0.0000000000003616
 11
17426.0192420207
 21
-1240.922810608675
 31
-0.0000000000003616
  0
LINE
  5
89D
330
2
100
AcDbEntity
  8
0
370
     5
100
AcDbLine
 10
17501.22119246904
 20
-1300.789444074785
 30
-0.0000000000003616
 11
17401.68434661492
 21
-1300.789444074785
 31
-0.0000000000003616
  0
LINE
  5
89E
330
2
100
AcDbEntity
  8
0
370
     5
100
AcDbLine
 10
17501.22119246904
 20
-1280.922810608675
 30
-0.0000000000003616
 11
17426.0192420207
 21
-1280.922810608675
 31
-0.0000000000003616
  0
LINE
  5
89F
330
2
100
AcDbEntity
  8
0
370
     5
100
AcDbLine
 10
17501.22119246904
 20
-1340.789444074785
 30
-0.0000000000003616
 11
17401.68434661492
 21
-1340.789444074785
 31
-0.0000000000003616
  0
LINE
  5
8A0
330
2
100
AcDbEntity
  8
0
370
     5
100
AcDbLine
 10
17501.22119246904
 20
-1320.922810608675
 30
-0.0000000000003616
 11
17426.0192420207
 21
-1320.922810608675
 31
-0.0000000000003616
  0
LINE
  5
8A1
330
2
100
AcDbEntity
  8
0
370
     5
100
AcDbLine
 10
17501.22119246904
 20
-1380.789444074785
 30
-0.0000000000003616
 11
17401.68434661492
 21
-1380.789444074785
 31
-0.0000000000003616
  0
LINE
  5
8A2
330
2
100
AcDbEntity
  8
0
370
     5
100
AcDbLine
 10
17501.22119246904
 20
-1360.922810608675
 30
-0.0000000000003616
 11
17426.0192420207
 21
-1360.922810608675
 31
-0.0000000000003616
  0
LINE
  5
8A3
330
2
100
AcDbEntity
  8
0
370
     5
100
AcDbLine
 10
17501.22119246904
 20
-1420.789444074785
 30
-0.0000000000003616
 11
17401.68434661493
 21
-1420.789444074785
 31
-0.0000000000003616
  0
LINE
  5
8A4
330
2
100
AcDbEntity
  8
0
370
     5
100
AcDbLine
 10
17501.22119246904
 20
-1400.922810608675
 30
-0.0000000000003616
 11
17426.0192420207
 21
-1400.922810608675
 31
-0.0000000000003616
  0
LINE
  5
8A5
330
2
100
AcDbEntity
  8
0
370
     5
100
AcDbLine
 10
17501.22119246904
 20
-1460.789444074785
 30
-0.0000000000003616
 11
17401.68434661493
 21
-1460.789444074785
 31
-0.0000000000003616
  0
LINE
  5
8A6
330
2
100
AcDbEntity
  8
0
370
     5
100
AcDbLine
 10
17501.22119246904
 20
-1440.922810608675
 30
-0.0000000000003616
 11
17426.0192420207
 21
-1440.922810608675
 31
-0.0000000000003616
  0
LINE
  5
8A7
330
2
100
AcDbEntity
  8
0
370
     5
100
AcDbLine
 10
17501.22119246904
 20
-1500.789444074785
 30
-0.0000000000003616
 11
17401.68434661493
 21
-1500.789444074785
 31
-0.0000000000003616
  0
LINE
  5
8A8
330
2
100
AcDbEntity
  8
0
370
     5
100
AcDbLine
 10
17501.22119246904
 20
-1480.922810608675
 30
-0.0000000000003616
 11
17426.0192420207
 21
-1480.922810608675
 31
-0.0000000000003616
  0
LINE
  5
8A9
330
2
100
AcDbEntity
  8
0
370
     5
100
AcDbLine
 10
17501.22119246904
 20
-1513.90771360197
 30
-0.0000000000003616
 11
17435.93096681859
 21
-1513.90771360197
 31
-0.0000000000003616
  0
LINE
  5
8AA
330
2
100
AcDbEntity
  8
0
370
     5
100
AcDbLine
 10
17519.85512794532
 20
-1525.789444074786
 30
-0.0000000000003616
 11
17519.85512794532
 21
-1568.174436226408
 31
-0.0000000000003616
  0
LINE
  5
8AB
330
2
100
AcDbEntity
  8
0
370
     5
100
AcDbLine
 10
17564.85512794532
 20
-1525.789444074788
 30
-0.0000000000003616
 11
17564.85512794532
 21
-1568.17443622641
 31
-0.0000000000003616
  0
LINE
  5
8AC
330
2
100
AcDbEntity
  8
0
370
     5
100
AcDbLine
 10
17609.85512794532
 20
-1525.789444074789
 30
-0.0000000000003616
 11
17609.85512794532
 21
-1568.174436226412
 31
-0.0000000000003616
  0
LINE
  5
8AD
330
2
100
AcDbEntity
  8
0
370
     5
100
AcDbLine
 10
17654.85512794532
 20
-1525.789444074792
 30
-0.0000000000003616
 11
17654.85512794532
 21
-1568.174436226414
 31
-0.0000000000003616
  0
LINE
  5
8AF
330
2
100
AcDbEntity
  8
0
370
     5
100
AcDbLine
 10
17396.68434661492
 20
-1100.789444074784
 30
-0.0000000000003616
 11
17396.68434661492
 21
-1602.8574990185
 31
-0.0000000000003616
  0
LINE
  5
8B0
330
2
100
AcDbEntity
  8
0
370
     5
100
AcDbLine
 10
17821.22119246903
 20
-678.0563011474878
 30
-0.0000000000003616
 11
18416.22119302062
 21
-678.0563011474851
 31
-0.0000000000003616
  0
LINE
  5
8B1
330
2
100
AcDbEntity
  8
0
370
     5
100
AcDbLine
 10
18740.69505569925
 20
-780.789444074795
 30
-0.0000000000003616
 11
18740.69505569925
 21
-1176.95599961299
 31
-0.0000000000003616
  0
LINE
  5
8B2
330
2
100
AcDbEntity
  8
0
370
     5
100
AcDbLine
 10
17821.22119246903
 20
-678.0563011474878
 30
-0.0000000000003616
 11
17891.22119246903
 21
-780.7894440747913
 31
-0.0000000000003616
  0
LINE
  5
8B3
330
2
100
AcDbEntity
  8
0
370
     5
100
AcDbLine
 10
18416.22119302061
 20
-678.0563011474878
 30
-0.0000000000003616
 11
18346.22119302061
 21
-780.7894440747913
 31
-0.0000000000003616
  0
LINE
  5
8B4
330
2
100
AcDbEntity
  8
0
370
     5
100
AcDbLine
 10
18740.69505569925
 20
-780.789444074795
 30
-0.0000000000003616
 11
18641.22119302062
 21
-841.4177705982293
 31
-0.0000000000003616
  0
LINE
  5
8B5
330
2
100
AcDbEntity
  8
0
370
     5
100
AcDbLine
 10
18740.69505569925
 20
-1176.95599961299
 30
-0.0000000000003616
 11
18641.22119302062
 21
-1116.327673089556
 31
-0.0000000000003616
  0
LINE
  5
8B6
330
2
100
AcDbEntity
  8
0
370
     5
100
AcDbLine
 10
17891.22119246903
 20
-780.7894440747929
 30
-0.0000000000003616
 11
17824.38911605711
 21
-757.8166477294651
 31
-0.0000000000003616
  0
LINE
  5
8B7
330
2
100
AcDbEntity
  8
0
370
     5
100
AcDbLine
 10
17891.22119246903
 20
-780.7894440747929
 30
-0.0000000000003616
 11
17873.17438889295
 21
-689.278468866574
 31
-0.0000000000003616
  0
LINE
  5
8B8
330
2
100
AcDbEntity
  8
0
370
     5
100
AcDbLine
 10
18346.22119302061
 20
-780.7894440747929
 30
-0.0000000000003616
 11
18413.05326943253
 21
-757.8166477294651
 31
-0.0000000000003616
  0
LINE
  5
8B9
330
2
100
AcDbEntity
  8
0
370
     5
100
AcDbLine
 10
18346.22119302061
 20
-780.7894440747929
 30
-0.0000000000003616
 11
18364.26799659669
 21
-689.278468866574
 31
-0.0000000000003616
  0
LINE
  5
8BA
330
2
100
AcDbEntity
  8
0
370
     5
100
AcDbLine
 10
18659.59627255222
 20
-792.3104098358225
 30
-0.0000000000003616
 11
18641.22119302062
 21
-841.4177705982286
 31
-0.0000000000003616
  0
LINE
  5
8BB
330
2
100
AcDbEntity
  8
0
370
     5
100
AcDbLine
 10
18725.54185142025
 20
-824.9552008671917
 30
-0.0000000000003616
 11
18641.22119302062
 21
-841.4177705982288
 31
-0.0000000000003616
  0
LINE
  5
8BC
330
2
100
AcDbEntity
  8
0
370
     5
100
AcDbLine
 10
18659.59627255222
 20
-1165.435033851962
 30
-0.0000000000003616
 11
18641.22119302062
 21
-1116.327673089556
 31
-0.0000000000003616
  0
LINE
  5
8BD
330
2
100
AcDbEntity
  8
0
370
     5
100
AcDbLine
 10
18725.54185142025
 20
-1132.790242820593
 30
-0.0000000000003616
 11
18641.22119302062
 21
-1116.327673089556
 31
-0.0000000000003616
  0
LINE
  5
8BE
330
2
100
AcDbEntity
  8
0
370
     5
100
AcDbLine
 10
17501.22119246904
 20
-1177.857499018499
 30
-0.0000000000003616
 11
17478.24839612371
 21
-1111.025422606573
 31
-0.0000000000003616
  0
LINE
  5
8BF
330
2
100
AcDbEntity
  8
0
370
     5
100
AcDbLine
 10
17501.22119246904
 20
-1177.857499018499
 30
-0.0000000000003616
 11
17396.68434661492
 21
-1100.789444074784
 31
-0.0000000000003616
  0
LINE
  5
8C0
330
2
100
AcDbEntity
  8
0
370
     5
100
AcDbLine
 10
17501.22119246904
 20
-1177.857499018499
 30
-0.0000000000003616
 11
17409.71021726083
 21
-1159.810695442414
 31
-0.0000000000003616
  0
LINE
  5
8C1
330
2
100
AcDbEntity
  8
0
370
     5
100
AcDbLine
 10
17396.68434661492
 20
-1603.096227531635
 30
0.0
 11
17661.22119246904
 21
-1603.096227531635
 31
0.0
  0
DIMENSION
  5
8D3
330
2
100
AcDbEntity
  8
0
370
     5
100
AcDbDimension
  2
*D1
 10
17139.30768234073
 20
-1130.789444074791
 30
0.0
 11
17059.30768234073
 21
-1060.183201399828
 31
0.0
 70
   160
 71
     5
 42
99.9999996413244
  3
500
100
AcDbAlignedDimension
 13
18101.22119274488
 23
-1030.789444433467
 33
-0.0000000000005614
 14
18001.22119310352
 24
-1130.789444074791
 34
-0.0000000000006502
 50
90.0
100
AcDbRotatedDimension
  0
DIMENSION
  5
8DE
330
2
100
AcDbEntity
  8
0
370
     5
100
AcDbDimension
  2
*D2
 10
17139.30768234073
 20
-1500.789444074791
 30
0.0
 11
17059.30768234073
 21
-1315.789444074788
 31
0.0
 70
    32
 71
     5
 42
370.0000000000002
  3
500
100
AcDbAlignedDimension
 13
18001.22119310352
 23
-1130.789444074791
 33
-0.0000000000006502
 14
17661.22119246903
 24
-1500.789444074791
 34
0.0
 50
90.0
100
AcDbRotatedDimension
  0
DIMENSION
  5
8E9
330
2
100
AcDbEntity
  8
0
370
     5
100
AcDbDimension
  2
*D3
 10
17139.30768234073
 20
-1900.789444074791
 30
0.0
 11
17059.30768234073
 21
-1700.789444074789
 31
0.0
 70
    32
 71
     5
 42
400.0
  3
500
100
AcDbAlignedDimension
 13
17661.22119246903
 23
-1500.789444074791
 33
0.0
 14
17661.22119246903
 24
-1900.789444074791
 34
0.0
 50
90.0
100
AcDbRotatedDimension
  0
DIMENSION
  5
8F4
330
2
100
AcDbEntity
  8
0
100
AcDbDimension
  2
*D4
 10
17139.30768234073
 20
-2270.789444074791
 30
0.0
 11
17059.30768234073
 21
-2085.789444074788
 31
0.0
 70
    32
 71
     5
 42
369.9999999999998
  3
500
100
AcDbAlignedDimension
 13
17661.22119246903
 23
-1900.789444074791
 33
0.0
 14
17701.22119246903
 24
-2270.789444074792
 34
0.0
 50
90.0
100
AcDbRotatedDimension
  0
DIMENSION
  5
8FF
330
2
100
AcDbEntity
  8
0
370
     5
100
AcDbDimension
  2
*D5
 10
17139.30768234073
 20
-2600.789444074791
 30
0.0
 11
17059.30768234073
 21
-2435.789444074788
 31
0.0
 70
    32
 71
     5
 42
330.0
  3
500
100
AcDbAlignedDimension
 13
17701.22119246903
 23
-2270.789444074792
 33
0.0
 14
17861.22119274482
 24
-2600.789444074791
 34
0.0
 50
90.0
100
AcDbRotatedDimension
  0
LINE
  5
99D
330
2
100
AcDbEntity
  8
0
370
     5
100
AcDbLine
 10
18783.22119302062
 20
-1496.789444074782
 30
-0.0000000000009567
 11
18783.22119302061
 21
-1491.789444074782
 31
-0.0000000000009567
  0
LINE
  5
99E
330
2
100
AcDbEntity
  8
0
370
     5
100
AcDbLine
 10
18841.22119302062
 20
-1904.7894440748
 30
-0.0000000000009567
 11
18641.22119302062
 21
-1904.7894440748
 31
-0.0000000000009567
  0
LINE
  5
99F
330
2
100
AcDbEntity
  8
0
370
     5
100
AcDbLine
 10
18841.22119302062
 20
-1909.7894440748
 30
-0.0000000000009567
 11
18641.22119302062
 21
-1909.7894440748
 31
-0.0000000000009567
  0
LINE
  5
9A1
330
2
100
AcDbEntity
  8
0
370
     5
100
AcDbLine
 10
18761.08122111341
 20
-2600.789444074802
 30
-0.0000000000009567
 11
18761.08122111341
 21
-2270.7894440748
 31
-0.0000000000009567
  0
LINE
  5
9A3
330
2
100
AcDbEntity
  8
0
370
     5
100
AcDbLine
 10
18761.08122111341
 20
-2270.789444074801
 30
-0.0000000000009567
 11
18571.22119274482
 21
-2428.789444074798
 31
-0.0000000000018031
  0
LINE
  5
9A4
330
2
100
AcDbEntity
  8
0
370
     5
100
AcDbLine
 10
18571.22119274482
 20
-2428.789444074798
 30
-0.0000000000018031
 11
18761.08122111341
 21
-2600.789444074802
 31
-0.0000000000009567
  0
LINE
  5
9A6
330
2
100
AcDbEntity
  8
0
370
     5
100
AcDbLine
 10
18841.22119302062
 20
-1496.789444074782
 30
-0.0000000000009567
 11
18641.22119302062
 21
-1496.789444074782
 31
-0.0000000000009567
  0
LINE
  5
9A7
330
2
100
AcDbEntity
  8
0
370
     5
100
AcDbLine
 10
18841.22119302062
 20
-1491.789444074782
 30
-0.0000000000009567
 11
18641.22119302062
 21
-1491.789444074782
 31
-0.0000000000009567
  0
LINE
  5
9A8
330
2
100
AcDbEntity
  8
0
370
     5
100
AcDbLine
 10
18783.22119302062
 20
-1904.7894440748
 30
-0.0000000000009567
 11
18783.22119302062
 21
-1909.7894440748
 31
-0.0000000000009567
  0
DIMENSION
  5
A93
330
2
100
AcDbEntity
  8
0
370
     5
100
AcDbDimension
  2
*D6
 10
17861.22119274482
 20
-2934.179271838031
 30
0.0
 11
17868.6497640355
 21
-2854.179271838031
 31
0.0
 70
   160
 71
     5
 42
160.0000002757879
  3
500
100
AcDbAlignedDimension
 13
17701.22119246903
 23
-2270.789444074792
 33
0.0
 14
17861.22119274482
 24
-2270.789444074792
 34
-0.0000000000016628
100
AcDbRotatedDimension
  0
DIMENSION
  5
AA0
330
2
100
AcDbEntity
  8
0
370
     5
100
AcDbDimension
  2
*D7
 10
18571.22119274482
 20
-2934.179271838031
 30
0.0
 11
18216.22119274482
 21
-2854.179271838031
 31
0.0
 70
    32
 71
     5
 42
710.0
  3
500
100
AcDbAlignedDimension
 13
17861.22119274482
 23
-2270.789444074792
 33
-0.0000000000016628
 14
18571.22119274482
 24
-2600.789444074802
 34
0.0
100
AcDbRotatedDimension
  0
DIMENSION
  5
AAB
330
2
100
AcDbEntity
  8
0
370
     5
100
AcDbDimension
  2
*D8
 10
18641.22119302061
 20
-2934.179271838031
 30
0.0
 11
18606.22119288271
 21
-2854.179271838031
 31
0.0
 70
    32
 71
     5
 42
70.00000027578789
  3
500
100
AcDbAlignedDimension
 13
18571.22119274482
 23
-2600.789444074802
 33
0.0
 14
18641.22119302061
 24
-2270.789444074801
 34
0.0
100
AcDbRotatedDimension
  0
DIMENSION
  5
AB8
330
2
100
AcDbEntity
  8
0
370
     5
100
AcDbDimension
  2
*D9
 10
17661.22119246903
 20
-3149.905986008511
 30
0.0
 11
18151.22119274482
 21
-3069.905986008511
 31
0.0
 70
    32
 71
     5
 42
980.0000005515757
  3
500
100
AcDbAlignedDimension
 13
18641.22119302061
 23
-2270.789444074801
 33
0.0
 14
17661.22119246903
 24
-1900.789444074791
 34
0.0
100
AcDbRotatedDimension
  0
DIMENSION
  5
AC3
330
2
100
AcDbEntity
  8
0
100
AcDbDimension
  2
*D10
 10
17701.22119246903
 20
-2934.179271838026
 30
0.0
 11
17622.93547818332
 21
-2854.179271838026
 31
0.0
 70
   160
 71
     5
 42
40.0
  3
500
100
AcDbAlignedDimension
 13
17661.22119246903
 23
-1900.789444074791
 33
0.0
 14
17701.22119246903
 24
-1900.789444074791
 34
-0.0000000000013341
100
AcDbRotatedDimension
  0
DIMENSION
  5
B62
330
2
100
AcDbEntity
  8
0
370
     5
100
AcDbDimension
  2
*D11
 10
16899.39761544676
 20
-2540.789444074791
 30
0.0
 11
16819.39761544676
 21
-1785.789444254126
 31
0.0
 70
    32
 71
     5
 42
1509.999999641324
  3
500
100
AcDbAlignedDimension
 13
18171.22119274488
 23
-1030.789444433467
 33
-0.0000000000005614
 14
18246.22119274482
 24
-2540.789444074792
 34
-0.0000000000019559
 50
90.0
100
AcDbRotatedDimension
  0
LINE
  5
B85
102
{ACAD_REACTORS
330
BC8
102
}
330
2
100
AcDbEntity
  8
0
370
     5
100
AcDbLine
 10
18581.22119302059
 20
-1750.78944407481
 30
0.0000000000039257
 11
18641.22119302061
 21
-1750.789444074798
 31
-0.0000000000000178
  0
LINE
  5
B86
102
{ACAD_REACTORS
330
BCD
102
}
330
2
100
AcDbEntity
  8
0
370
     5
100
AcDbLine
 10
18581.22119302059
 20
-1650.789444074806
 30
0.0000000000000178
 11
18641.2211930206
 21
-1650.789444074801
 31
0.0000000000000178
  0
LINE
  5
B87
330
2
100
AcDbEntity
  8
0
370
     5
100
AcDbLine
 10
17861.22119274482
 20
-2415.789444074802
 30
0.0
 11
17900.22119274482
 21
-2415.789444074802
 31
0.0
  0
LINE
  5
B88
102
{ACAD_REACTORS
330
C1B
102
}
330
2
100
AcDbEntity
  8
0
370
     5
100
AcDbLine
 10
17861.22119274482
 20
-2315.789444074801
 30
0.0
 11
17900.22119274482
 21
-2315.789444074801
 31
0.0
  0
HATCH
  5
BC8
330
2
100
AcDbEntity
  8
0
370
     5
100
AcDbHatch
 10
0.0
 20
0.0
 30
0.0
210
0.0
220
0.0
230
1.0
  2
SOLID
 70
     1
 71
     1
 91
        1
 92
        7
 72
     0
 73
     1
 93
        4
 10
18641.22119302061
 20
-1750.789444074798
 10
18581.22119302059
 20
-1750.78944407481
 10
18581.22119302059
 20
-1755.78944407482
 10
18641.22119302061
 20
-1755.789444074791
 97
        4
330
B85
330
90
330
95
330
8F
 75
     0
 76
     1
 47
0.4944452702055133
 98
        1
 10
18610.60069271085
 20
-1752.467611407061
1001
ACAD
1010
0.0
1020
0.0
1030
0.0
  0
HATCH
  5
BCD
330
2
100
AcDbEntity
  8
0
370
     5
100
AcDbHatch
 10
0.0
 20
0.0
 30
0.0
210
0.0
220
0.0
230
1.0
  2
SOLID
 70
     1
 71
     1
 91
        1
 92
        7
 72
     0
 73
     1
 93
        4
 10
18641.22119302061
 20
-1645.789444074791
 10
18581.22119302059
 20
-1645.789444074791
 10
18581.22119302059
 20
-1650.789444074806
 10
18641.22119302061
 20
-1650.789444074801
 97
        4
330
149
330
90
330
B86
330
8F
 75
     0
 76
     1
 47
0.3043820797793104
 98
        1
 10
18605.22942729314
 20
-1648.792202462879
1001
ACAD
1010
0.0
1020
0.0
1030
0.0
  0
HATCH
  5
BD8
330
2
100
AcDbEntity
  8
0
370
     5
100
AcDbHatch
 10
0.0
 20
0.0
 30
0.0
210
0.0
220
0.0
230
1.0
  2
SOLID
 70
     1
 71
     1
 91
        1
 92
        7
 72
     0
 73
     1
 93
        4
 10
18641.22119302061
 20
-1130.789444074791
 10
18581.22119302061
 20
-1130.789444074791
 10
18581.2211930206
 20
-1645.789444074791
 10
18641.22119302061
 20
-1645.789444074791
 97
        4
330
9B
330
90
330
149
330
8F
 75
     0
 76
     1
 47
1.245439833056796
 98
        1
 10
18617.82683014533
 20
-1483.762260158022
1001
ACAD
1010
0.0
1020
0.0
1030
0.0
  0
HATCH
  5
BF0
330
2
100
AcDbEntity
  8
0
370
     5
100
AcDbHatch
 10
0.0
 20
0.0
 30
0.0
210
0.0
220
0.0
230
1.0
  2
SOLID
 70
     1
 71
     1
 91
        1
 92
        7
 72
     0
 73
     1
 93
       12
 10
18581.22119302061
 20
-1130.789444074791
 10
18341.22119238623
 20
-1130.789444074791
 10
18241.22119274488
 20
-1030.789444433467
 10
18101.22119274485
 20
-1030.789444433467
 10
18001.22119310352
 20
-1130.789444074791
 10
17890.22119246907
 20
-1130.789444074791
 10
17890.22119246906
 20
-1190.789444074791
 10
18026.07400684594
 20
-1190.789444074791
 10
18126.07400648729
 20
-1090.789444433467
 10
18216.36837900235
 20
-1090.789444433438
 10
18316.36837864388
 20
-1190.789444074791
 10
18581.22119302061
 20
-1190.789444074791
 97
       12
330
9B
330
9D
330
BE
330
BA
330
B8
330
B4
330
B9
330
BB
330
BF
330
9A
330
9C
330
90
 75
     0
 76
     1
 47
3.186093568317402
 98
        1
 10
18413.3408449202
 20
-1175.042838692403
1001
ACAD
1010
0.0
1020
0.0
1030
0.0
  0
HATCH
  5
C02
330
2
100
AcDbEntity
  8
0
370
     5
100
AcDbHatch
 10
0.0
 20
0.0
 30
0.0
210
0.0
220
0.0
230
1.0
  2
SOLID
 70
     1
 71
     1
 91
        1
 92
        7
 72
     0
 73
     1
 93
        6
 10
17890.22119246907
 20
-1130.789444074791
 10
17830.22119246906
 20
-1130.789444074791
 10
17830.22119246903
 20
-1500.789444074791
 10
17721.22119246903
 20
-1500.789444074791
 10
17721.22119246903
 20
-1560.789444074791
 10
17890.22119246903
 20
-1560.789444074791
 97
        6
330
B8
330
B3
330
B2
330
A0
330
B6
330
B4
 75
     0
 76
     1
 47
3.186093568317402
 98
        1
 10
17880.93556769145
 20
-1232.392517945795
1001
ACAD
1010
0.0
1020
0.0
1030
0.0
  0
HATCH
  5
C1B
330
2
100
AcDbEntity
  8
0
370
     5
100
AcDbHatch
 10
0.0
 20
0.0
 30
0.0
210
0.0
220
0.0
230
1.0
  2
SOLID
 70
     1
 71
     1
 91
        1
 92
        7
 72
     0
 73
     1
 93
       13
 10
17721.22119246903
 20
-1500.789444074791
 10
17661.22119246903
 20
-1500.789444074791
 10
17661.22119246903
 20
-1900.789444074791
 10
17701.22119246903
 20
-1900.789444074791
 10
17701.22119246903
 20
-2270.789444074792
 10
17861.22119274482
 20
-2270.789444074792
 10
17861.22119274482
 20
-2315.789444074801
 10
17900.22119274482
 20
-2315.789444074801
 10
17921.22119274482
 20
-2315.789444074792
 10
17921.22119274482
 20
-2210.789444074792
 10
17761.22119246903
 20
-2210.789444074792
 10
17761.22119246903
 20
-1840.789444074791
 10
17721.22119246903
 20
-1840.789444074791
 97
       13
330
B2
330
9F
330
37A
330
A7
330
A5
330
D7
330
B88
330
D6
330
D8
330
A6
330
A8
330
AE
330
A0
 75
     0
 76
     1
 47
2.231514961355236
 98
        1
 10
17699.14388708955
 20
-1757.120883211304
1001
ACAD
1010
0.0
1020
0.0
1030
0.0
  0
HATCH
  5
C2C
330
2
100
AcDbEntity
  8
0
370
     5
100
AcDbHatch
 10
0.0
 20
0.0
 30
0.0
210
0.0
220
0.0
230
1.0
  2
SOLID
 70
     1
 71
     1
 91
        1
 92
        7
 72
     0
 73
     1
 93
        6
 10
17921.22119274482
 20
-2415.789444074792
 10
17861.22119274482
 20
-2415.789444074792
 10
17861.22119274482
 20
-2600.789444074791
 10
18571.22119274482
 20
-2600.789444074799
 10
18571.22119274482
 20
-2540.789444074792
 10
17921.22119274482
 20
-2540.789444074792
 97
        6
330
D5
330
D7
330
A3
330
89
330
A4
330
D8
 75
     0
 76
     1
 47
2.231514961355231
 98
        1
 10
17906.81132669394
 20
-2531.878479153435
1001
ACAD
1010
0.0
1020
0.0
1030
0.0
  0
LINE
  5
C6B
330
2
100
AcDbEntity
  8
0
370
     5
100
AcDbLine
 10
22367.46511635481
 20
-780.7894440747913
 30
-0.0000000000003394
 11
22585.03870948361
 21
-998.3630372036131
 31
-0.0000000000005326
  0
LINE
  5
C6C
330
2
100
AcDbEntity
  8
0
370
     5
100
AcDbLine
 10
22355.03870948361
 20
-810.7894440747914
 30
-0.000000000000366
 11
22555.03870948361
 21
-1010.789444074791
 31
-0.0000000000005437
  0
LINE
  5
C6D
330
2
100
AcDbEntity
  8
0
370
     5
100
AcDbLine
 10
21470.03870893203
 20
-840.7894440747913
 30
-0.0000000000003927
 11
21670.03870893203
 21
-840.7894440747913
 31
-0.0000000000003927
  0
HATCH
  5
C6E
330
2
100
AcDbEntity
  8
0
370
     5
100
AcDbHatch
 10
0.0
 20
0.0
 30
0.0
210
0.0
220
0.0
230
1.0
  2
SOLID
 70
     1
 71
     0
 91
        1
 92
        7
 72
     0
 73
     1
 93
       10
 10
21445.03870893203
 20
-1930.789444074733
 10
21445.03870893203
 20
-1755.789444074791
 10
21505.03870893203
 20
-1755.78944407482
 10
21505.03870893203
 20
-2180.789444074733
 10
21505.03870893206
 20
-2210.789444074792
 10
21575.03870920782
 20
-2210.789444074792
 10
21575.03870920782
 20
-2308.789444074792
 10
21515.03870920782
 20
-2308.789444074792
 10
21515.03870920782
 20
-2270.789444074792
 10
21445.03870893203
 20
-2270.789444074792
 97
        0
 75
     0
 76
     1
 47
2.549209435828275
 98
        1
 10
21486.67751671799
 20
-2081.231720710726
1001
ACAD
1010
0.0
1020
0.0
1030
0.0
  0
LINE
  5
C6F
330
2
100
AcDbEntity
  8
0
370
     5
100
AcDbLine
 10
21554.03870920782
 20
-2548.789444074792
 30
-0.0000000000019097
 11
21515.03870920782
 21
-2548.789444074792
 31
-0.0000000000019097
  0
HATCH
  5
C70
330
2
100
AcDbEntity
  8
0
370
     5
100
AcDbHatch
 10
0.0
 20
0.0
 30
0.0
210
0.0
220
0.0
230
1.0
  2
SOLID
 70
     1
 71
     1
 91
        1
 92
        7
 72
     0
 73
     1
 93
        6
 10
22165.03870920782
 20
-2540.789444074792
 10
21515.03870920782
 20
-2540.789444074792
 10
21515.03870920782
 20
-2600.789444074799
 10
22225.03870920782
 20
-2600.789444074791
 10
22225.03870920782
 20
-2415.789444074792
 10
22165.03870920782
 20
-2415.789444074792
 97
        6
330
CA8
330
CAA
330
C84
330
C71
330
C85
330
CAB
 75
     0
 76
     1
 47
2.231514961355231
 98
        1
 10
22179.44857525869
 20
-2531.878479153435
1001
ACAD
1010
0.0
1020
0.0
1030
0.0
  0
LINE
  5
C71
102
{ACAD_REACTORS
330
C70
102
}
330
2
100
AcDbEntity
  8
0
370
     5
100
AcDbLine
 10
21515.03870920782
 20
-2600.789444074791
 30
-0.0000000000019559
 11
21515.03870920782
 21
-2270.789444074792
 31
-0.0000000000016628
  0
LINE
  5
C72
330
2
100
AcDbEntity
  8
0
370
     5
100
AcDbLine
 10
21554.03870920782
 20
-2308.789444074792
 30
-0.0000000000016965
 11
21515.03870920782
 21
-2308.789444074792
 31
-0.0000000000016965
  0
LINE
  5
C73
330
2
100
AcDbEntity
  8
0
370
     5
100
AcDbLine
 10
21515.03870920782
 20
-2270.789444074792
 30
-0.0000000000016628
 11
21325.17868083922
 21
-2270.789444074801
 31
-0.0000000000009567
  0
LINE
  5
C74
330
2
100
AcDbEntity
  8
0
370
     5
100
AcDbLine
 10
21505.03870893206
 20
-2210.789444074792
 30
-0.0000000000016628
 11
21575.03870920782
 21
-2210.789444074792
 31
-0.0000000000016628
  0
HATCH
  5
C75
330
2
100
AcDbEntity
  8
0
370
     5
100
AcDbHatch
 10
0.0
 20
0.0
 30
0.0
210
0.0
220
0.0
230
1.0
  2
SOLID
 70
     1
 71
     0
 91
        1
 92
        7
 72
     0
 73
     1
 93
        4
 10
21445.03870893203
 20
-1750.789444074798
 10
21505.03870893205
 20
-1750.78944407481
 10
21505.03870893205
 20
-1755.78944407482
 10
21445.03870893203
 20
-1755.789444074791
 97
        0
 75
     0
 76
     1
 47
0.4944452702055133
 98
        1
 10
21475.65920924179
 20
-1752.467611407061
1001
ACAD
1010
0.0
1020
0.0
1030
0.0
  0
HATCH
  5
C76
330
2
100
AcDbEntity
  8
0
370
     5
100
AcDbHatch
 10
0.0
 20
0.0
 30
0.0
210
0.0
220
0.0
230
1.0
  2
SOLID
 70
     1
 71
     0
 91
        1
 92
        7
 72
     0
 73
     1
 93
        4
 10
21445.03870893203
 20
-1645.789444074791
 10
21505.03870893205
 20
-1645.789444074791
 10
21505.03870893205
 20
-1650.789444074806
 10
21445.03870893203
 20
-1650.789444074801
 97
        0
 75
     0
 76
     1
 47
0.3043820797793104
 98
        1
 10
21481.0304746595
 20
-1648.792202462879
1001
ACAD
1010
0.0
1020
0.0
1030
0.0
  0
HATCH
  5
C77
330
2
100
AcDbEntity
  8
0
370
     5
100
AcDbHatch
 10
0.0
 20
0.0
 30
0.0
210
0.0
220
0.0
230
1.0
  2
SOLID
 70
     1
 71
     1
 91
        1
 92
        7
 72
     0
 73
     1
 93
        4
 10
21445.03870893203
 20
-1645.789444074791
 10
21505.03870893204
 20
-1645.789444074791
 10
21505.03870893202
 20
-1130.789444074791
 10
21445.03870893203
 20
-1130.789444074791
 97
        4
330
C7D
330
C7A
330
CC1
330
C78
 75
     0
 76
     1
 47
1.245439833056796
 98
        1
 10
21468.43307180731
 20
-1483.762260158022
1001
ACAD
1010
0.0
1020
0.0
1030
0.0
  0
LINE
  5
C78
102
{ACAD_REACTORS
330
C77
102
}
330
2
100
AcDbEntity
  8
0
370
     5
100
AcDbLine
 10
21445.03870893203
 20
-2270.789444074792
 30
-0.0000000000016628
 11
21445.03870893203
 21
-780.7894440747913
 31
-0.0000000000003394
  0
HATCH
  5
C79
330
2
100
AcDbEntity
  8
0
370
     5
100
AcDbHatch
 10
0.0
 20
0.0
 30
0.0
210
0.0
220
0.0
230
1.0
  2
SOLID
 70
     1
 71
     1
 91
        1
 92
        7
 72
     0
 73
     1
 93
       12
 10
21769.89152330876
 20
-1190.789444074791
 10
21869.89152295029
 20
-1090.789444433438
 10
21960.18589546534
 20
-1090.789444433467
 10
22060.18589510669
 20
-1190.789444074791
 10
22196.03870948358
 20
-1190.789444074791
 10
22196.03870948357
 20
-1130.789444074791
 10
22085.03870884911
 20
-1130.789444074791
 10
21985.03870920779
 20
-1030.789444433467
 10
21845.03870920776
 20
-1030.789444433467
 10
21745.0387095664
 20
-1130.789444074791
 10
21505.03870893203
 20
-1130.789444074791
 10
21505.03870893203
 20
-1190.789444074791
 97
       12
330
C7D
330
C7F
330
C95
330
C93
330
C91
330
C8E
330
C92
330
C94
330
C96
330
C7C
330
C7E
330
C7A
 75
     0
 76
     1
 47
3.186093568317402
 98
        1
 10
21672.91905703244
 20
-1175.042838692403
1001
ACAD
1010
0.0
1020
0.0
1030
0.0
  0
LINE
  5
C7A
102
{ACAD_REACTORS
330
C77
330
C79
102
}
330
2
100
AcDbEntity
  8
0
370
     5
100
AcDbLine
 10
21505.03870893206
 20
-2210.789444074792
 30
-0.0000000000016095
 11
21505.03870893202
 21
-1130.789444074791
 31
-0.0000000000006502
  0
LINE
  5
C7B
330
2
100
AcDbEntity
  8
0
370
     5
100
AcDbLine
 10
21505.03870893203
 20
-1755.78944407482
 30
-0.0000000000012054
 11
21445.03870893203
 21
-1755.789444074791
 31
-0.0000000000012054
  0
LINE
  5
C7C
102
{ACAD_REACTORS
330
C79
102
}
330
2
100
AcDbEntity
  8
0
370
     5
100
AcDbLine
 10
21869.89152295029
 20
-1090.789444433438
 30
-0.000000000000577
 11
21769.89152330876
 21
-1190.789444074791
 31
-0.0000000000006631
  0
LINE
  5
C7D
102
{ACAD_REACTORS
330
C77
330
C79
102
}
330
2
100
AcDbEntity
  8
0
370
     5
100
AcDbLine
 10
21745.03870956641
 20
-1130.789444074791
 30
-0.0000000000006502
 11
21445.03870893203
 21
-1130.789444074791
 31
-0.0000000000006502
  0
LINE
  5
C7E
102
{ACAD_REACTORS
330
C79
102
}
330
2
100
AcDbEntity
  8
0
370
     5
100
AcDbLine
 10
21769.89152330876
 20
-1190.789444074791
 30
-0.0000000000006502
 11
21505.03870893203
 21
-1190.789444074791
 31
-0.0000000000007035
  0
LINE
  5
C7F
102
{ACAD_REACTORS
330
C79
102
}
330
2
100
AcDbEntity
  8
0
370
     5
100
AcDbLine
 10
21845.03870920776
 20
-1030.789444433467
 30
-0.0000000000005614
 11
21745.03870956641
 21
-1130.789444074791
 31
-0.0000000000006502
  0
HATCH
  5
C80
330
2
100
AcDbEntity
  8
0
370
     5
100
AcDbHatch
 10
0.0
 20
0.0
 30
0.0
210
0.0
220
0.0
230
1.0
  2
SOLID
 70
     1
 71
     0
 91
        1
 92
        7
 72
     0
 73
     1
 93
       13
 10
22365.0387094836
 20
-1500.789444074791
 10
22425.03870948361
 20
-1500.789444074791
 10
22425.03870948361
 20
-1900.789444074791
 10
22385.03870948361
 20
-1900.789444074791
 10
22385.03870948361
 20
-2270.789444074792
 10
22225.03870920782
 20
-2270.789444074792
 10
22225.03870920782
 20
-2315.789444074801
 10
22186.03870920782
 20
-2315.789444074801
 10
22165.03870920782
 20
-2315.789444074792
 10
22165.03870920782
 20
-2210.789444074792
 10
22325.0387094836
 20
-2210.789444074792
 10
22325.0387094836
 20
-1840.789444074791
 10
22365.0387094836
 20
-1840.789444074791
 97
        0
 75
     0
 76
     1
 47
2.231514961355236
 98
        1
 10
22387.11601486309
 20
-1757.120883211304
1001
ACAD
1010
0.0
1020
0.0
1030
0.0
  0
LINE
  5
C81
330
2
100
AcDbEntity
  8
0
370
     5
100
AcDbLine
 10
22425.03870948361
 20
-1500.789444074791
 30
-0.0000000000009789
 11
22425.03870948361
 21
-1900.789444074791
 31
-0.0000000000013341
  0
HATCH
  5
C82
330
2
100
AcDbEntity
  8
0
370
     5
100
AcDbHatch
 10
0.0
 20
0.0
 30
0.0
210
0.0
220
0.0
230
1.0
  2
SOLID
 70
     1
 71
     1
 91
        1
 92
        7
 72
     0
 73
     1
 93
        6
 10
22196.0387094836
 20
-1560.789444074791
 10
22365.0387094836
 20
-1560.789444074791
 10
22365.03870948361
 20
-1500.789444074791
 10
22256.0387094836
 20
-1500.789444074791
 10
22256.03870948357
 20
-1130.789444074791
 10
22196.03870948358
 20
-1130.789444074791
 97
        6
330
C91
330
C8D
330
C8C
330
C83
330
C8F
330
C8E
 75
     0
 76
     1
 47
3.186093568317402
 98
        1
 10
22205.32433426119
 20
-1232.392517945795
1001
ACAD
1010
0.0
1020
0.0
1030
0.0
  0
LINE
  5
C83
102
{ACAD_REACTORS
330
C82
102
}
330
2
100
AcDbEntity
  8
0
370
     5
100
AcDbLine
 10
22365.0387094836
 20
-1500.789444074791
 30
-0.0000000000009789
 11
22365.0387094836
 21
-1840.789444074791
 31
-0.0000000000012809
  0
LINE
  5
C84
102
{ACAD_REACTORS
330
C70
102
}
330
2
100
AcDbEntity
  8
0
370
     5
100
AcDbLine
 10
22225.03870920782
 20
-2600.789444074791
 30
-0.0000000000019559
 11
21325.17868083922
 21
-2600.789444074802
 31
-0.0000000000009567
  0
LINE
  5
C85
102
{ACAD_REACTORS
330
C70
102
}
330
2
100
AcDbEntity
  8
0
370
     5
100
AcDbLine
 10
22165.03870920782
 20
-2540.789444074792
 30
-0.0000000000019559
 11
21515.03870920782
 21
-2540.789444074792
 31
-0.0000000000019559
  0
LINE
  5
C86
330
2
100
AcDbEntity
  8
0
370
     5
100
AcDbLine
 10
22225.03870920782
 20
-2270.789444074792
 30
-0.0000000000016628
 11
22385.03870948361
 21
-2270.789444074792
 31
-0.0000000000016628
  0
LINE
  5
C87
330
2
100
AcDbEntity
  8
0
370
     5
100
AcDbLine
 10
22165.03870920782
 20
-2210.789444074792
 30
-0.0000000000016095
 11
22325.0387094836
 21
-2210.789444074792
 31
-0.0000000000016628
  0
LINE
  5
C88
330
2
100
AcDbEntity
  8
0
370
     5
100
AcDbLine
 10
22385.03870948361
 20
-2270.789444074792
 30
-0.0000000000016628
 11
22385.03870948361
 21
-1900.789444074791
 31
-0.0000000000013341
  0
LINE
  5
C89
330
2
100
AcDbEntity
  8
0
370
     5
100
AcDbLine
 10
22325.0387094836
 20
-2210.789444074792
 30
-0.0000000000016095
 11
22325.0387094836
 21
-1840.789444074791
 31
-0.0000000000012809
  0
LINE
  5
C8A
330
2
100
AcDbEntity
  8
0
370
     5
100
AcDbLine
 10
22325.0387094836
 20
-1840.789444074791
 30
-0.0000000000012809
 11
22365.0387094836
 21
-1840.789444074791
 31
-0.0000000000013022
  0
LINE
  5
C8B
330
2
100
AcDbEntity
  8
0
370
     5
100
AcDbLine
 10
22585.03870948361
 20
-1525.789444074791
 30
-0.0000000000010011
 11
22585.03870948361
 21
-998.3630372036131
 31
-0.0000000000005326
  0
LINE
  5
C8C
102
{ACAD_REACTORS
330
C82
102
}
330
2
100
AcDbEntity
  8
0
370
     5
100
AcDbLine
 10
22560.03870948361
 20
-1500.789444074791
 30
-0.0000000000009789
 11
22256.0387094836
 21
-1500.789444074791
 31
-0.0000000000009789
  0
LINE
  5
C8D
102
{ACAD_REACTORS
330
C82
102
}
330
2
100
AcDbEntity
  8
0
370
     5
100
AcDbLine
 10
22256.0387094836
 20
-1500.789444074791
 30
-0.0000000000009789
 11
22256.03870948357
 21
-1130.789444074791
 31
-0.0000000000006502
  0
LINE
  5
C8E
102
{ACAD_REACTORS
330
C79
330
C82
102
}
330
2
100
AcDbEntity
  8
0
370
     5
100
AcDbLine
 10
22196.0387094836
 20
-1560.789444074791
 30
-0.0000000000010322
 11
22196.03870948357
 21
-1130.789444074791
 31
-0.0000000000006502
  0
LINE
  5
C8F
102
{ACAD_REACTORS
330
C82
102
}
330
2
100
AcDbEntity
  8
0
370
     5
100
AcDbLine
 10
22196.0387094836
 20
-1560.789444074791
 30
-0.0000000000010322
 11
22365.0387094836
 21
-1560.789444074791
 31
-0.0000000000009789
  0
LINE
  5
C90
330
2
100
AcDbEntity
  8
0
370
     5
100
AcDbLine
 10
22342.61230261243
 20
-840.7894440747913
 30
-0.0000000000003927
 11
22525.0387094836
 21
-1023.215850945998
 31
-0.0000000000005547
  0
LINE
  5
C91
102
{ACAD_REACTORS
330
C79
330
C82
102
}
330
2
100
AcDbEntity
  8
0
370
     5
100
AcDbLine
 10
22256.03870948357
 20
-1130.789444074791
 30
-0.0000000000006502
 11
22085.03870884911
 21
-1130.789444074791
 31
-0.0000000000006502
  0
LINE
  5
C92
102
{ACAD_REACTORS
330
C79
102
}
330
2
100
AcDbEntity
  8
0
370
     5
100
AcDbLine
 10
22196.03870948358
 20
-1190.789444074791
 30
-0.0000000000006502
 11
22060.1858951067
 21
-1190.789444074791
 31
-0.0000000000006531
  0
LINE
  5
C93
102
{ACAD_REACTORS
330
C79
102
}
330
2
100
AcDbEntity
  8
0
370
     5
100
AcDbLine
 10
21985.03870920779
 20
-1030.789444433467
 30
-0.0000000000005614
 11
22085.03870884911
 21
-1130.789444074791
 31
-0.0000000000006502
  0
LINE
  5
C94
102
{ACAD_REACTORS
330
C79
102
}
330
2
100
AcDbEntity
  8
0
370
     5
100
AcDbLine
 10
22060.1858951067
 20
-1190.789444074791
 30
-0.0000000000006659
 11
21960.18589546534
 21
-1090.789444433467
 31
-0.000000000000577
  0
LINE
  5
C95
102
{ACAD_REACTORS
330
C79
102
}
330
2
100
AcDbEntity
  8
0
370
     5
100
AcDbLine
 10
21985.03870920776
 20
-1030.789444433467
 30
-0.0000000000005614
 11
21845.03870920776
 21
-1030.789444433467
 31
-0.0000000000005614
  0
LINE
  5
C96
102
{ACAD_REACTORS
330
C79
102
}
330
2
100
AcDbEntity
  8
0
370
     5
100
AcDbLine
 10
21960.18589546534
 20
-1090.789444433467
 30
-0.0000000000005614
 11
21869.89152295023
 21
-1090.789444433438
 31
-0.0000000000005614
  0
LINE
  5
C97
330
2
100
AcDbEntity
  8
0
370
     5
100
AcDbLine
 10
21470.03870893203
 20
-810.7894440747914
 30
-0.000000000000366
 11
21670.03870893203
 21
-810.7894440747914
 31
-0.000000000000366
  0
LINE
  5
C98
330
2
100
AcDbEntity
  8
0
370
     5
100
AcDbLine
 10
22367.46511635481
 20
-780.7894440747913
 30
-0.0000000000003394
 11
21345.56484625339
 21
-780.789444074795
 31
-0.0000000000003616
  0
LINE
  5
C99
330
2
100
AcDbEntity
  8
0
370
     5
100
AcDbLine
 10
21245.03870893203
 20
-1475.789444074791
 30
-0.0000000000009567
 11
21445.03870893203
 21
-1475.789444074791
 31
-0.0000000000009567
  0
LINE
  5
C9A
330
2
100
AcDbEntity
  8
0
370
     5
100
AcDbLine
 10
21245.03870893203
 20
-1505.789444074791
 30
-0.0000000000009833
 11
21445.03870893203
 21
-1505.789444074791
 31
-0.0000000000009833
  0
CIRCLE
  5
C9B
330
2
100
AcDbEntity
  8
0
370
     5
100
AcDbCircle
 10
21355.03870893203
 20
-1565.789444074791
 30
-0.0000000000010366
 40
20.0
  0
HATCH
  5
C9C
330
2
100
AcDbEntity
  8
0
370
     5
100
AcDbHatch
 10
0.0
 20
0.0
 30
0.0000000000003541
210
0.0
220
-0.0000000000000009
230
1.0
  2
SOLID
 70
     1
 71
     1
 91
        1
 92
        7
 72
     1
 73
     1
 93
        2
 10
21370.03870893203
 20
-1565.789444074791
 42
1.0
 10
21340.03870893203
 20
-1565.789444074791
 42
1.0
 97
        1
330
C9D
 75
     0
 76
     1
 47
0.683283654368829
 98
        1
 10
21359.46216557643
 20
-1554.74349506147
1001
ACAD
1010
0.0
1020
0.0
1030
0.0
  0
CIRCLE
  5
C9D
102
{ACAD_REACTORS
330
C9C
102
}
330
2
100
AcDbEntity
  8
0
370
     5
100
AcDbCircle
 10
21355.03870893203
 20
-1565.789444074791
 30
-0.0000000000010366
 40
15.0
  0
LINE
  5
C9E
330
2
100
AcDbEntity
  8
0
370
     5
100
AcDbLine
 10
21335.03870893203
 20
-1895.789444074791
 30
-0.0000000000013297
 11
21335.03870893203
 21
-1505.789444074791
 31
-0.0000000000009833
  0
LINE
  5
C9F
330
2
100
AcDbEntity
  8
0
370
     5
100
AcDbLine
 10
21305.03870893203
 20
-1895.789444074791
 30
-0.0000000000013297
 11
21305.03870893203
 21
-1505.789444074791
 31
-0.0000000000009833
  0
LINE
  5
CA0
330
2
100
AcDbEntity
  8
0
370
     5
100
AcDbLine
 10
21275.03870893203
 20
-1895.789444074791
 30
-0.0000000000013297
 11
21275.03870893203
 21
-1505.789444074791
 31
-0.0000000000009833
  0
HATCH
  5
CA1
330
2
100
AcDbEntity
  8
0
370
     5
100
AcDbHatch
 10
0.0
 20
0.0
 30
0.0000000000003541
210
0.0
220
-0.0000000000000009
230
1.0
  2
SOLID
 70
     1
 71
     1
 91
        1
 92
        7
 72
     1
 73
     1
 93
        2
 10
21370.03870893203
 20
-1835.789444074791
 42
1.0
 10
21340.03870893203
 20
-1835.789444074791
 42
1.0
 97
        1
330
CA2
 75
     0
 76
     1
 47
0.683283654368829
 98
        1
 10
21358.09474983596
 20
-1830.790116141841
1001
ACAD
1010
0.0
1020
0.0
1030
0.0
  0
CIRCLE
  5
CA2
102
{ACAD_REACTORS
330
CA1
102
}
330
2
100
AcDbEntity
  8
0
370
     5
100
AcDbCircle
 10
21355.03870893203
 20
-1835.789444074791
 30
-0.0000000000012764
 40
15.0
  0
CIRCLE
  5
CA3
330
2
100
AcDbEntity
  8
0
370
     5
100
AcDbCircle
 10
21355.03870893203
 20
-1835.789444074791
 30
-0.0000000000012764
 40
20.0
  0
LINE
  5
CA4
330
2
100
AcDbEntity
  8
0
370
     5
100
AcDbLine
 10
21245.03870893203
 20
-1925.789444074791
 30
-0.0000000000013564
 11
21445.03870893203
 21
-1925.789444074791
 31
-0.0000000000013564
  0
LINE
  5
CA5
330
2
100
AcDbEntity
  8
0
370
     5
100
AcDbLine
 10
21245.03870893203
 20
-1895.789444074791
 30
-0.0000000000013297
 11
21445.03870893203
 21
-1895.789444074791
 31
-0.0000000000013297
  0
LINE
  5
CA6
330
2
100
AcDbEntity
  8
0
370
     5
100
AcDbLine
 10
22315.03870920782
 20
-2270.789444074792
 30
-0.0000000000016628
 11
22315.03870920782
 21
-2445.789444074792
 31
-0.0000000000018182
  0
LINE
  5
CA7
330
2
100
AcDbEntity
  8
0
370
     5
100
AcDbLine
 10
22315.03870920782
 20
-2445.789444074792
 30
-0.0000000000018182
 11
22225.03870920782
 21
-2445.789444074792
 31
-0.0000000000018182
  0
LINE
  5
CA8
102
{ACAD_REACTORS
330
C70
102
}
330
2
100
AcDbEntity
  8
0
370
     5
100
AcDbLine
 10
22225.03870920782
 20
-2415.789444074792
 30
-0.0000000000017916
 11
22165.03870920782
 21
-2415.789444074792
 31
-0.0000000000017916
  0
LINE
  5
CA9
330
2
100
AcDbEntity
  8
0
370
     5
100
AcDbLine
 10
22225.03870920782
 20
-2315.789444074792
 30
-0.0000000000017027
 11
22165.03870920779
 21
-2315.789444074792
 31
-0.0000000000017027
  0
LINE
  5
CAA
102
{ACAD_REACTORS
330
C70
102
}
330
2
100
AcDbEntity
  8
0
370
     5
100
AcDbLine
 10
22225.03870920782
 20
-2600.789444074791
 30
-0.0000000000019559
 11
22225.03870920782
 21
-2270.789444074792
 31
-0.0000000000016628
  0
LINE
  5
CAB
102
{ACAD_REACTORS
330
C70
102
}
330
2
100
AcDbEntity
  8
0
370
     5
100
AcDbLine
 10
22165.03870920782
 20
-2540.789444074792
 30
-0.0000000000019026
 11
22165.03870920782
 21
-2210.789444074792
 31
-0.0000000000016095
  0
LINE
  5
CAC
330
2
100
AcDbEntity
  8
0
370
     5
100
AcDbLine
 10
22525.0387094836
 20
-1525.789440544526
 30
-0.0000000000010011
 11
22425.03870948361
 21
-1525.789440544526
 31
-0.0000000000010011
  0
HATCH
  5
CAD
330
2
100
AcDbEntity
  8
0
370
     5
100
AcDbHatch
 10
0.0
 20
0.0
 30
0.0000000000003541
210
0.0
220
-0.0000000000000009
230
1.0
  2
SOLID
 70
     1
 71
     1
 91
        1
 92
        7
 72
     1
 73
     1
 93
        2
 10
22376.03870948357
 20
-1154.789444074791
 42
1.0
 10
22346.03870948358
 20
-1154.789444074791
 42
1.0
 97
        1
330
CAE
 75
     0
 76
     1
 47
0.7600455990033898
 98
        1
 10
22362.43502627357
 20
-1153.52317107984
1001
ACAD
1010
0.0
1020
0.0
1030
0.0
  0
CIRCLE
  5
CAE
102
{ACAD_REACTORS
330
CAD
102
}
330
2
100
AcDbEntity
  8
0
370
     5
100
AcDbCircle
 10
22361.03870948358
 20
-1154.789444074791
 30
-0.0000000000006716
 40
15.0
  0
LINE
  5
CAF
330
2
100
AcDbEntity
  8
0
370
     5
100
AcDbLine
 10
22425.03870948361
 20
-1525.789444074791
 30
-0.0000000000010011
 11
22585.03870948361
 21
-1525.789444074791
 31
-0.0000000000010011
  0
LINE
  5
CB0
330
2
100
AcDbEntity
  8
0
370
     5
100
AcDbLine
 10
21470.03870893203
 20
-1130.789444074791
 30
-0.0000000000006502
 11
21470.03870893203
 21
-780.7894440747913
 31
-0.0000000000003394
  0
LINE
  5
CB1
330
2
100
AcDbEntity
  8
0
370
     5
100
AcDbLine
 10
21470.03870893203
 20
-870.7894440748205
 30
-0.0000000000004193
 11
21695.03870893203
 21
-870.7894440747914
 31
-0.0000000000004193
  0
LINE
  5
CB2
330
2
100
AcDbEntity
  8
0
370
     5
100
AcDbLine
 10
21670.03870893203
 20
-870.7894440747914
 30
-0.0000000000004193
 11
21670.03870893202
 21
-678.0563011474878
 31
-0.0000000000003616
  0
LINE
  5
CB3
330
2
100
AcDbEntity
  8
0
370
     5
100
AcDbLine
 10
21695.03870893203
 20
-870.7894440747914
 30
-0.0000000000004193
 11
21695.03870893203
 21
-805.7894440747913
 31
-0.0000000000003616
  0
LINE
  5
CB4
330
2
100
AcDbEntity
  8
0
370
     5
100
AcDbLine
 10
22560.03870948361
 20
-1500.789444074791
 30
-0.0000000000009789
 11
22560.03870948361
 21
-1125.789444074791
 31
-0.0000000000006458
  0
LINE
  5
CB5
330
2
100
AcDbEntity
  8
0
370
     5
100
AcDbLine
 10
22330.18589574122
 20
-870.7894440747914
 30
-0.0000000000004193
 11
22495.0387094836
 21
-1035.642257817177
 31
-0.0000000000005657
  0
LINE
  5
CB6
330
2
100
AcDbEntity
  8
0
370
     5
100
AcDbLine
 10
22495.0387094836
 20
-1125.789444074791
 30
-0.0000000000006458
 11
22495.0387094836
 21
-1035.642257817177
 31
-0.0000000000005657
  0
LINE
  5
CB7
330
2
100
AcDbEntity
  8
0
370
     5
100
AcDbLine
 10
22525.0387094836
 20
-1100.789444074791
 30
-0.0000000000006236
 11
22525.0387094836
 21
-1023.215850945998
 31
-0.0000000000005547
  0
LINE
  5
CB8
330
2
100
AcDbEntity
  8
0
370
     5
100
AcDbLine
 10
22555.03870948361
 20
-1100.789444074791
 30
-0.0000000000006236
 11
22555.03870948361
 21
-1010.789444074791
 31
-0.0000000000005437
  0
LINE
  5
CB9
330
2
100
AcDbEntity
  8
0
370
     5
100
AcDbLine
 10
22495.0387094836
 20
-1125.789444074791
 30
-0.0000000000006458
 11
22560.03870948361
 21
-1125.789444074791
 31
-0.0000000000006458
  0
LINE
  5
CBA
330
2
100
AcDbEntity
  8
0
370
     5
100
AcDbLine
 10
22265.03870948361
 20
-870.7894440748205
 30
-0.0000000000004193
 11
22265.03870948361
 21
-678.0563011474878
 31
-0.0000000000003616
  0
LINE
  5
CBB
330
2
100
AcDbEntity
  8
0
370
     5
100
AcDbLine
 10
22330.18589574122
 20
-870.7894440747914
 30
-0.0000000000004193
 11
22240.03870948361
 21
-870.7894440747914
 31
-0.0000000000004193
  0
LINE
  5
CBC
330
2
100
AcDbEntity
  8
0
370
     5
100
AcDbLine
 10
22265.03870948361
 20
-810.7894440747914
 30
-0.000000000000366
 11
22355.03870948361
 21
-810.7894440747914
 31
-0.000000000000366
  0
LINE
  5
CBD
330
2
100
AcDbEntity
  8
0
370
     5
100
AcDbLine
 10
22265.03870948361
 20
-840.7894440747913
 30
-0.0000000000003927
 11
22342.61230261243
 21
-840.7894440747913
 31
-0.0000000000003927
  0
LINE
  5
CBE
330
2
100
AcDbEntity
  8
0
370
     5
100
AcDbLine
 10
21245.03870893203
 20
-1925.789444074791
 30
-0.0000000000013564
 11
21245.03870893203
 21
-1475.789444074791
 31
-0.0000000000009567
  0
LINE
  5
CBF
330
2
100
AcDbEntity
  8
0
370
     5
100
AcDbLine
 10
22345.03870920782
 20
-2270.789444074792
 30
-0.0000000000016628
 11
22345.03870920782
 21
-2475.789444074791
 31
-0.0000000000018448
  0
LINE
  5
CC0
330
2
100
AcDbEntity
  8
0
370
     5
100
AcDbLine
 10
22345.03870920782
 20
-2475.789444074791
 30
-0.0000000000018448
 11
22225.03870920782
 21
-2475.789444074791
 31
-0.0000000000018448
  0
LINE
  5
CC1
102
{ACAD_REACTORS
330
C77
102
}
330
2
100
AcDbEntity
  8
0
370
     5
100
AcDbLine
 10
21445.03870893203
 20
-1645.789444074791
 30
-0.0000000000011077
 11
21505.03870893203
 21
-1645.789444074791
 31
0.0
  0
LINE
  5
CC2
330
2
100
AcDbEntity
  8
0
370
     5
100
AcDbLine
 10
21575.03870920782
 20
-2540.789444074792
 30
-0.0000000000019026
 11
21575.03870920782
 21
-2210.789444074792
 31
-0.0000000000016628
  0
LINE
  5
CC3
330
2
100
AcDbEntity
  8
0
370
     5
100
AcDbLine
 10
22525.03870948358
 20
-1640.789444074791
 30
-0.000000000000453
 11
22525.03870948358
 21
-1760.789444074791
 31
-0.0000000000005596
  0
LINE
  5
CC4
330
2
100
AcDbEntity
  8
0
370
     5
100
AcDbLine
 10
22540.03870948357
 20
-1625.789444074791
 30
-0.0000000000004397
 11
22540.03870948357
 21
-1775.789444074791
 31
-0.0000000000005729
  0
LINE
  5
CC5
330
2
100
AcDbEntity
  8
0
370
     5
100
AcDbLine
 10
22425.03870948361
 20
-1640.789444074791
 30
-0.000000000000453
 11
22525.0387094836
 21
-1640.789444074791
 31
-0.000000000000453
  0
LINE
  5
CC6
330
2
100
AcDbEntity
  8
0
370
     5
100
AcDbLine
 10
22425.03870948361
 20
-1625.789444074791
 30
-0.0000000000004397
 11
22540.03870948357
 21
-1625.789444074791
 31
-0.0000000000004397
  0
LINE
  5
CC7
330
2
100
AcDbEntity
  8
0
370
     5
100
AcDbLine
 10
22425.03870948361
 20
-1760.789444074791
 30
-0.0000000000005596
 11
22525.0387094836
 21
-1760.789444074791
 31
-0.0000000000005596
  0
LINE
  5
CC8
330
2
100
AcDbEntity
  8
0
370
     5
100
AcDbLine
 10
22425.03870948361
 20
-1775.789444074791
 30
-0.0000000000005729
 11
22540.03870948357
 21
-1775.789444074791
 31
-0.0000000000005729
  0
LINE
  5
CC9
330
2
100
AcDbEntity
  8
0
370
     5
100
AcDbLine
 10
22385.03870948361
 20
-2040.789444074762
 30
-0.0000000000008083
 11
22500.03870948357
 21
-2040.789444074762
 31
-0.0000000000008083
  0
LINE
  5
CCA
330
2
100
AcDbEntity
  8
0
370
     5
100
AcDbLine
 10
22385.03870948361
 20
-2025.789444074762
 30
-0.0000000000007949
 11
22485.03870948358
 21
-2025.789444074762
 31
-0.000000000000795
  0
LINE
  5
CCB
330
2
100
AcDbEntity
  8
0
370
     5
100
AcDbLine
 10
22500.03870948357
 20
-1885.789444074791
 30
-0.0000000000006706
 11
22500.03870948357
 21
-2040.789444074762
 31
-0.0000000000008083
  0
LINE
  5
CCC
330
2
100
AcDbEntity
  8
0
370
     5
100
AcDbLine
 10
22485.03870948358
 20
-1900.789444074791
 30
-0.0000000000006839
 11
22485.03870948358
 21
-2025.789444074762
 31
-0.000000000000795
  0
LINE
  5
CCD
330
2
100
AcDbEntity
  8
0
370
     5
100
AcDbLine
 10
22425.03870948361
 20
-1885.789444074791
 30
-0.0000000000006706
 11
22500.03870948357
 21
-1885.789444074791
 31
-0.0000000000006706
  0
LINE
  5
CCE
330
2
100
AcDbEntity
  8
0
370
     5
100
AcDbLine
 10
21445.03870893203
 20
-2130.789444074733
 30
-0.0000000000008882
 11
21330.03870893212
 21
-2130.789444074733
 31
-0.0000000000008882
  0
LINE
  5
CCF
330
2
100
AcDbEntity
  8
0
370
     5
100
AcDbLine
 10
21445.03870893203
 20
-2115.789444074733
 30
-0.0000000000008749
 11
21345.03870893212
 21
-2115.789444074733
 31
-0.0000000000008749
  0
LINE
  5
CD0
330
2
100
AcDbEntity
  8
0
370
     5
100
AcDbLine
 10
21445.03870893203
 20
-1995.789444074733
 30
-0.0000000000007683
 11
21345.03870893212
 21
-1995.789444074733
 31
-0.0000000000007683
  0
LINE
  5
CD1
330
2
100
AcDbEntity
  8
0
370
     5
100
AcDbLine
 10
21445.03870893203
 20
-1980.789444074733
 30
-0.000000000000755
 11
21330.03870893212
 21
-1980.789444074733
 31
-0.000000000000755
  0
LINE
  5
CD2
330
2
100
AcDbEntity
  8
0
370
     5
100
AcDbLine
 10
21330.03870893212
 20
-1980.789444074733
 30
-0.000000000000755
 11
21330.03870893212
 21
-2130.789444074733
 31
-0.0000000000008882
  0
LINE
  5
CD3
330
2
100
AcDbEntity
  8
0
370
     5
100
AcDbLine
 10
21345.03870893212
 20
-1995.789444074733
 30
-0.0000000000007683
 11
21345.03870893212
 21
-2115.789444074733
 31
-0.0000000000008749
  0
LINE
  5
CD4
330
2
100
AcDbEntity
  8
0
370
     5
100
AcDbLine
 10
22485.03870948358
 20
-1900.789444074791
 30
-0.0000000000006839
 11
22385.03870948361
 21
-1900.789444074791
 31
-0.0000000000013341
  0
LINE
  5
CD5
330
2
100
AcDbEntity
  8
0
370
     5
100
AcDbLine
 10
21345.03870893212
 20
-1285.789444074849
 30
-0.0000000000001377
 11
21345.03870893212
 21
-1405.789444074849
 31
-0.0000000000002443
  0
LINE
  5
CD6
330
2
100
AcDbEntity
  8
0
370
     5
100
AcDbLine
 10
21330.03870893212
 20
-1270.789444074849
 30
-0.0000000000001244
 11
21330.03870893212
 21
-1420.789444074849
 31
-0.0000000000002576
  0
LINE
  5
CD7
330
2
100
AcDbEntity
  8
0
370
     5
100
AcDbLine
 10
21445.03870893203
 20
-1405.789444074849
 30
-0.0000000000002443
 11
21345.03870893212
 21
-1405.789444074849
 31
-0.0000000000002443
  0
LINE
  5
CD8
330
2
100
AcDbEntity
  8
0
370
     5
100
AcDbLine
 10
21445.03870893203
 20
-1420.789444074849
 30
-0.0000000000002576
 11
21330.03870893212
 21
-1420.789444074849
 31
-0.0000000000002576
  0
LINE
  5
CD9
330
2
100
AcDbEntity
  8
0
370
     5
100
AcDbLine
 10
21445.03870893203
 20
-1270.789444074849
 30
-0.0000000000001244
 11
21330.03870893212
 21
-1270.789444074849
 31
-0.0000000000001244
  0
LINE
  5
CDA
330
2
100
AcDbEntity
  8
0
370
     5
100
AcDbLine
 10
21445.03870893203
 20
-1285.789444074849
 30
-0.0000000000001377
 11
21345.03870893212
 21
-1285.789444074849
 31
-0.0000000000001377
  0
LINE
  5
CDB
330
2
100
AcDbEntity
  8
0
370
     5
100
AcDbLine
 10
21695.03870893202
 20
-805.7894440747951
 30
-0.0000000000003616
 11
22240.03870948361
 21
-805.7894440747913
 31
-0.0000000000003616
  0
LINE
  5
CDC
330
2
100
AcDbEntity
  8
0
370
     5
100
AcDbLine
 10
22240.03870948361
 20
-870.7894440747987
 30
-0.0000000000003616
 11
22240.03870948361
 21
-805.7894440747913
 31
-0.0000000000003616
  0
LINE
  5
CDD
330
2
100
AcDbEntity
  8
0
370
     5
100
AcDbLine
 10
22155.0387094836
 20
-780.7894440747913
 30
-0.0000000000003616
 11
22155.0387094836
 21
-683.0563011474878
 31
-0.0000000000003616
  0
LINE
  5
CDE
330
2
100
AcDbEntity
  8
0
370
     5
100
AcDbLine
 10
22115.0387094836
 20
-780.7894440747913
 30
-0.0000000000003616
 11
22115.0387094836
 21
-683.0563011474878
 31
-0.0000000000003616
  0
LINE
  5
CDF
330
2
100
AcDbEntity
  8
0
370
     5
100
AcDbLine
 10
22075.0387094836
 20
-780.7894440747913
 30
-0.0000000000003616
 11
22075.0387094836
 21
-683.0563011474878
 31
-0.0000000000003616
  0
LINE
  5
CE0
330
2
100
AcDbEntity
  8
0
370
     5
100
AcDbLine
 10
22035.0387094836
 20
-780.7894440747913
 30
-0.0000000000003616
 11
22035.0387094836
 21
-683.0563011474878
 31
-0.0000000000003616
  0
LINE
  5
CE1
330
2
100
AcDbEntity
  8
0
370
     5
100
AcDbLine
 10
21995.0387094836
 20
-780.7894440747913
 30
-0.0000000000003616
 11
21995.0387094836
 21
-683.0563011474878
 31
-0.0000000000003616
  0
LINE
  5
CE2
330
2
100
AcDbEntity
  8
0
370
     5
100
AcDbLine
 10
21955.0387094836
 20
-780.7894440747913
 30
-0.0000000000003616
 11
21955.0387094836
 21
-683.0563011474878
 31
-0.0000000000003616
  0
LINE
  5
CE3
330
2
100
AcDbEntity
  8
0
370
     5
100
AcDbLine
 10
21915.0387094836
 20
-780.7894440747913
 30
-0.0000000000003616
 11
21915.0387094836
 21
-683.0563011474878
 31
-0.0000000000003616
  0
LINE
  5
CE4
330
2
100
AcDbEntity
  8
0
370
     5
100
AcDbLine
 10
21875.0387094836
 20
-780.7894440747913
 30
-0.0000000000003616
 11
21875.0387094836
 21
-683.0563011474878
 31
-0.0000000000003616
  0
LINE
  5
CE5
330
2
100
AcDbEntity
  8
0
370
     5
100
AcDbLine
 10
21835.0387094836
 20
-780.7894440747913
 30
-0.0000000000003616
 11
21835.0387094836
 21
-683.0563011474878
 31
-0.0000000000003616
  0
LINE
  5
CE6
330
2
100
AcDbEntity
  8
0
370
     5
100
AcDbLine
 10
21795.0387094836
 20
-780.7894440747913
 30
-0.0000000000003616
 11
21795.0387094836
 21
-683.0563011474878
 31
-0.0000000000003616
  0
LINE
  5
CE7
330
2
100
AcDbEntity
  8
0
370
     5
100
AcDbLine
 10
21755.0387094836
 20
-780.7894440747913
 30
-0.0000000000003616
 11
21755.0387094836
 21
-683.0563011474878
 31
-0.0000000000003616
  0
LINE
  5
CE8
330
2
100
AcDbEntity
  8
0
370
     5
100
AcDbLine
 10
22689.57555533772
 20
-1100.789444074784
 30
-0.0000000000003616
 11
22495.0387094836
 21
-1100.789444074791
 31
-0.0000000000006236
  0
LINE
  5
CE9
330
2
100
AcDbEntity
  8
0
370
     5
100
AcDbLine
 10
22585.03870948359
 20
-1525.789444074785
 30
-0.0000000000003616
 11
22608.01150582892
 21
-1592.62152048671
 31
-0.0000000000003616
  0
LINE
  5
CEA
330
2
100
AcDbEntity
  8
0
370
     5
100
AcDbLine
 10
22540.0387094836
 20
-1525.789444074785
 30
-0.0000000000003616
 11
22540.0387094836
 21
-1603.096227531635
 31
-0.0000000000003616
  0
LINE
  5
CEB
330
2
100
AcDbEntity
  8
0
370
     5
100
AcDbLine
 10
22495.03870948359
 20
-1525.789444074785
 30
-0.0000000000003616
 11
22495.03870948359
 21
-1603.096227531635
 31
-0.0000000000003616
  0
LINE
  5
CEC
330
2
100
AcDbEntity
  8
0
370
     5
100
AcDbLine
 10
22450.03870948359
 20
-1525.789444074785
 30
-0.0000000000003616
 11
22450.03870948359
 21
-1603.096227531635
 31
-0.0000000000003616
  0
LINE
  5
CED
330
2
100
AcDbEntity
  8
0
370
     5
100
AcDbLine
 10
22585.03870948359
 20
-1525.789444074785
 30
-0.0000000000003616
 11
22689.57555533771
 21
-1602.8574990185
 31
-0.0000000000003616
  0
LINE
  5
CEE
330
2
100
AcDbEntity
  8
0
370
     5
100
AcDbLine
 10
22585.03870948359
 20
-1525.789444074785
 30
-0.0000000000003616
 11
22676.54968469181
 21
-1543.83624765087
 31
-0.0000000000003616
  0
LINE
  5
CEF
330
2
100
AcDbEntity
  8
0
370
     5
100
AcDbLine
 10
21445.03870893202
 20
-1176.95599961299
 30
-0.0000000000003616
 11
21345.56484625339
 21
-1176.95599961299
 31
-0.0000000000003616
  0
LINE
  5
CF0
330
2
100
AcDbEntity
  8
0
370
     5
100
AcDbLine
 10
22174.29825157796
 20
-780.7894440747932
 30
-0.0000000000003616
 11
22174.29825157796
 21
-722.1817186474072
 31
-0.0000000000003616
  0
LINE
  5
CF1
330
2
100
AcDbEntity
  8
0
370
     5
100
AcDbLine
 10
22134.29825157796
 20
-780.7894440747932
 30
-0.0000000000003616
 11
22134.29825157796
 21
-722.1817186474072
 31
-0.0000000000003616
  0
LINE
  5
CF2
330
2
100
AcDbEntity
  8
0
370
     5
100
AcDbLine
 10
22094.29825157796
 20
-780.7894440747932
 30
-0.0000000000003616
 11
22094.29825157796
 21
-722.1817186474072
 31
-0.0000000000003616
  0
LINE
  5
CF3
330
2
100
AcDbEntity
  8
0
370
     5
100
AcDbLine
 10
22054.29825157796
 20
-780.7894440747932
 30
-0.0000000000003616
 11
22054.29825157796
 21
-722.1817186474072
 31
-0.0000000000003616
  0
LINE
  5
CF4
330
2
100
AcDbEntity
  8
0
370
     5
100
AcDbLine
 10
22014.29825157796
 20
-780.7894440747932
 30
-0.0000000000003616
 11
22014.29825157796
 21
-722.1817186474072
 31
-0.0000000000003616
  0
LINE
  5
CF5
330
2
100
AcDbEntity
  8
0
370
     5
100
AcDbLine
 10
21974.29825157796
 20
-780.7894440747932
 30
-0.0000000000003616
 11
21974.29825157796
 21
-722.1817186474072
 31
-0.0000000000003616
  0
LINE
  5
CF6
330
2
100
AcDbEntity
  8
0
370
     5
100
AcDbLine
 10
21934.29825157796
 20
-780.7894440747932
 30
-0.0000000000003616
 11
21934.29825157796
 21
-722.1817186474072
 31
-0.0000000000003616
  0
LINE
  5
CF7
330
2
100
AcDbEntity
  8
0
370
     5
100
AcDbLine
 10
21894.29825157796
 20
-780.7894440747932
 30
-0.0000000000003616
 11
21894.29825157796
 21
-722.1817186474072
 31
-0.0000000000003616
  0
LINE
  5
CF8
330
2
100
AcDbEntity
  8
0
370
     5
100
AcDbLine
 10
21854.29825157796
 20
-780.7894440747932
 30
-0.0000000000003616
 11
21854.29825157796
 21
-722.1817186474072
 31
-0.0000000000003616
  0
LINE
  5
CF9
330
2
100
AcDbEntity
  8
0
370
     5
100
AcDbLine
 10
21814.29825157796
 20
-780.7894440747932
 30
-0.0000000000003616
 11
21814.29825157796
 21
-722.1817186474072
 31
-0.0000000000003616
  0
LINE
  5
CFA
330
2
100
AcDbEntity
  8
0
370
     5
100
AcDbLine
 10
21774.29825157796
 20
-780.7894440747932
 30
-0.0000000000003616
 11
21774.29825157796
 21
-722.1817186474072
 31
-0.0000000000003616
  0
LINE
  5
CFB
330
2
100
AcDbEntity
  8
0
370
     5
100
AcDbLine
 10
21445.03870893202
 20
-860.789444074795
 30
-0.0000000000003616
 11
21350.56484625339
 21
-860.789444074795
 31
-0.0000000000003616
  0
LINE
  5
CFC
330
2
100
AcDbEntity
  8
0
370
     5
100
AcDbLine
 10
21445.03870893202
 20
-900.789444074795
 30
-0.0000000000003616
 11
21350.56484625339
 21
-900.789444074795
 31
-0.0000000000003616
  0
LINE
  5
CFD
330
2
100
AcDbEntity
  8
0
370
     5
100
AcDbLine
 10
21445.03870893202
 20
-881.4177705982292
 30
-0.0000000000003616
 11
21383.71509997102
 21
-881.4177705982292
 31
-0.0000000000003616
  0
LINE
  5
CFE
330
2
100
AcDbEntity
  8
0
370
     5
100
AcDbLine
 10
21445.03870893202
 20
-940.789444074795
 30
-0.0000000000003616
 11
21350.56484625339
 21
-940.789444074795
 31
-0.0000000000003616
  0
LINE
  5
CFF
330
2
100
AcDbEntity
  8
0
370
     5
100
AcDbLine
 10
21445.03870893202
 20
-921.4177705982292
 30
-0.0000000000003616
 11
21383.71509997102
 21
-921.4177705982292
 31
-0.0000000000003616
  0
LINE
  5
D00
330
2
100
AcDbEntity
  8
0
370
     5
100
AcDbLine
 10
21445.03870893202
 20
-980.7894440747951
 30
-0.0000000000003616
 11
21350.56484625339
 21
-980.7894440747951
 31
-0.0000000000003616
  0
LINE
  5
D01
330
2
100
AcDbEntity
  8
0
370
     5
100
AcDbLine
 10
21445.03870893202
 20
-961.4177705982292
 30
-0.0000000000003616
 11
21383.71509997102
 21
-961.4177705982292
 31
-0.0000000000003616
  0
LINE
  5
D02
330
2
100
AcDbEntity
  8
0
370
     5
100
AcDbLine
 10
21445.03870893202
 20
-1020.789444074795
 30
-0.0000000000003616
 11
21350.56484625339
 21
-1020.789444074795
 31
-0.0000000000003616
  0
LINE
  5
D03
330
2
100
AcDbEntity
  8
0
370
     5
100
AcDbLine
 10
21445.03870893202
 20
-1001.417770598229
 30
-0.0000000000003616
 11
21383.71509997102
 21
-1001.417770598229
 31
-0.0000000000003616
  0
LINE
  5
D04
330
2
100
AcDbEntity
  8
0
370
     5
100
AcDbLine
 10
21445.03870893202
 20
-1060.789444074795
 30
-0.0000000000003616
 11
21350.56484625339
 21
-1060.789444074795
 31
-0.0000000000003616
  0
LINE
  5
D05
330
2
100
AcDbEntity
  8
0
370
     5
100
AcDbLine
 10
21445.03870893202
 20
-1041.417770598229
 30
-0.0000000000003616
 11
21383.71509997102
 21
-1041.417770598229
 31
-0.0000000000003616
  0
LINE
  5
D06
330
2
100
AcDbEntity
  8
0
370
     5
100
AcDbLine
 10
21445.03870893202
 20
-1100.789444074795
 30
-0.0000000000003616
 11
21350.56484625339
 21
-1100.789444074795
 31
-0.0000000000003616
  0
LINE
  5
D07
330
2
100
AcDbEntity
  8
0
370
     5
100
AcDbLine
 10
21445.03870893202
 20
-1081.417770598229
 30
-0.0000000000003616
 11
21383.71509997102
 21
-1081.417770598229
 31
-0.0000000000003616
  0
LINE
  5
D08
330
2
100
AcDbEntity
  8
0
370
     5
100
AcDbLine
 10
22585.0387094836
 20
-1180.789444074784
 30
-0.0000000000003616
 11
22684.57555533772
 21
-1180.789444074784
 31
-0.0000000000003616
  0
LINE
  5
D09
330
2
100
AcDbEntity
  8
0
370
     5
100
AcDbLine
 10
22585.0387094836
 20
-1220.789444074785
 30
-0.0000000000003616
 11
22684.57555533772
 21
-1220.789444074785
 31
-0.0000000000003616
  0
LINE
  5
D0A
330
2
100
AcDbEntity
  8
0
370
     5
100
AcDbLine
 10
22585.0387094836
 20
-1200.922810608675
 30
-0.0000000000003616
 11
22660.24065993194
 21
-1200.922810608675
 31
-0.0000000000003616
  0
LINE
  5
D0B
330
2
100
AcDbEntity
  8
0
370
     5
100
AcDbLine
 10
22585.0387094836
 20
-1260.789444074785
 30
-0.0000000000003616
 11
22684.57555533772
 21
-1260.789444074785
 31
-0.0000000000003616
  0
LINE
  5
D0C
330
2
100
AcDbEntity
  8
0
370
     5
100
AcDbLine
 10
22585.0387094836
 20
-1240.922810608675
 30
-0.0000000000003616
 11
22660.24065993194
 21
-1240.922810608675
 31
-0.0000000000003616
  0
LINE
  5
D0D
330
2
100
AcDbEntity
  8
0
370
     5
100
AcDbLine
 10
22585.0387094836
 20
-1300.789444074785
 30
-0.0000000000003616
 11
22684.57555533772
 21
-1300.789444074785
 31
-0.0000000000003616
  0
LINE
  5
D0E
330
2
100
AcDbEntity
  8
0
370
     5
100
AcDbLine
 10
22585.0387094836
 20
-1280.922810608675
 30
-0.0000000000003616
 11
22660.24065993194
 21
-1280.922810608675
 31
-0.0000000000003616
  0
LINE
  5
D0F
330
2
100
AcDbEntity
  8
0
370
     5
100
AcDbLine
 10
22585.0387094836
 20
-1340.789444074785
 30
-0.0000000000003616
 11
22684.57555533772
 21
-1340.789444074785
 31
-0.0000000000003616
  0
LINE
  5
D10
330
2
100
AcDbEntity
  8
0
370
     5
100
AcDbLine
 10
22585.0387094836
 20
-1320.922810608675
 30
-0.0000000000003616
 11
22660.24065993194
 21
-1320.922810608675
 31
-0.0000000000003616
  0
LINE
  5
D11
330
2
100
AcDbEntity
  8
0
370
     5
100
AcDbLine
 10
22585.0387094836
 20
-1380.789444074785
 30
-0.0000000000003616
 11
22684.57555533772
 21
-1380.789444074785
 31
-0.0000000000003616
  0
LINE
  5
D12
330
2
100
AcDbEntity
  8
0
370
     5
100
AcDbLine
 10
22585.0387094836
 20
-1360.922810608675
 30
-0.0000000000003616
 11
22660.24065993194
 21
-1360.922810608675
 31
-0.0000000000003616
  0
LINE
  5
D13
330
2
100
AcDbEntity
  8
0
370
     5
100
AcDbLine
 10
22585.0387094836
 20
-1420.789444074785
 30
-0.0000000000003616
 11
22684.57555533771
 21
-1420.789444074785
 31
-0.0000000000003616
  0
LINE
  5
D14
330
2
100
AcDbEntity
  8
0
370
     5
100
AcDbLine
 10
22585.0387094836
 20
-1400.922810608675
 30
-0.0000000000003616
 11
22660.24065993193
 21
-1400.922810608675
 31
-0.0000000000003616
  0
LINE
  5
D15
330
2
100
AcDbEntity
  8
0
370
     5
100
AcDbLine
 10
22585.0387094836
 20
-1460.789444074785
 30
-0.0000000000003616
 11
22684.57555533771
 21
-1460.789444074785
 31
-0.0000000000003616
  0
LINE
  5
D16
330
2
100
AcDbEntity
  8
0
370
     5
100
AcDbLine
 10
22585.0387094836
 20
-1440.922810608675
 30
-0.0000000000003616
 11
22660.24065993193
 21
-1440.922810608675
 31
-0.0000000000003616
  0
LINE
  5
D17
330
2
100
AcDbEntity
  8
0
370
     5
100
AcDbLine
 10
22585.0387094836
 20
-1500.789444074785
 30
-0.0000000000003616
 11
22684.57555533771
 21
-1500.789444074785
 31
-0.0000000000003616
  0
LINE
  5
D18
330
2
100
AcDbEntity
  8
0
370
     5
100
AcDbLine
 10
22585.0387094836
 20
-1480.922810608675
 30
-0.0000000000003616
 11
22660.24065993193
 21
-1480.922810608675
 31
-0.0000000000003616
  0
LINE
  5
D19
330
2
100
AcDbEntity
  8
0
370
     5
100
AcDbLine
 10
22585.03870948359
 20
-1513.90771360197
 30
-0.0000000000003616
 11
22650.32893513405
 21
-1513.90771360197
 31
-0.0000000000003616
  0
LINE
  5
D1A
330
2
100
AcDbEntity
  8
0
370
     5
100
AcDbLine
 10
22566.40477400731
 20
-1525.789444074786
 30
-0.0000000000003616
 11
22566.40477400731
 21
-1568.174436226408
 31
-0.0000000000003616
  0
LINE
  5
D1B
330
2
100
AcDbEntity
  8
0
370
     5
100
AcDbLine
 10
22521.40477400732
 20
-1525.789444074788
 30
-0.0000000000003616
 11
22521.40477400732
 21
-1568.17443622641
 31
-0.0000000000003616
  0
LINE
  5
D1C
330
2
100
AcDbEntity
  8
0
370
     5
100
AcDbLine
 10
22476.40477400731
 20
-1525.789444074789
 30
-0.0000000000003616
 11
22476.40477400731
 21
-1568.174436226412
 31
-0.0000000000003616
  0
LINE
  5
D1D
330
2
100
AcDbEntity
  8
0
370
     5
100
AcDbLine
 10
22431.40477400732
 20
-1525.789444074792
 30
-0.0000000000003616
 11
22431.40477400732
 21
-1568.174436226414
 31
-0.0000000000003616
  0
LINE
  5
D1E
330
2
100
AcDbEntity
  8
0
370
     5
100
AcDbLine
 10
22689.57555533771
 20
-1603.096227531635
 30
0.0
 11
22425.0387094836
 21
-1603.096227531635
 31
0.0
  0
LINE
  5
D1F
330
2
100
AcDbEntity
  8
0
370
     5
100
AcDbLine
 10
22689.57555533771
 20
-1100.789444074784
 30
-0.0000000000003616
 11
22689.57555533771
 21
-1602.8574990185
 31
-0.0000000000003616
  0
LINE
  5
D20
330
2
100
AcDbEntity
  8
0
370
     5
100
AcDbLine
 10
22265.03870948361
 20
-678.0563011474878
 30
-0.0000000000003616
 11
21670.03870893202
 21
-678.0563011474851
 31
-0.0000000000003616
  0
LINE
  5
D21
330
2
100
AcDbEntity
  8
0
370
     5
100
AcDbLine
 10
21345.56484625339
 20
-780.789444074795
 30
-0.0000000000003616
 11
21345.56484625339
 21
-1176.95599961299
 31
-0.0000000000003616
  0
LINE
  5
D22
330
2
100
AcDbEntity
  8
0
370
     5
100
AcDbLine
 10
22265.03870948361
 20
-678.0563011474878
 30
-0.0000000000003616
 11
22195.0387094836
 21
-780.7894440747913
 31
-0.0000000000003616
  0
LINE
  5
D23
330
2
100
AcDbEntity
  8
0
370
     5
100
AcDbLine
 10
21670.03870893203
 20
-678.0563011474878
 30
-0.0000000000003616
 11
21740.03870893203
 21
-780.7894440747913
 31
-0.0000000000003616
  0
LINE
  5
D24
330
2
100
AcDbEntity
  8
0
370
     5
100
AcDbLine
 10
21345.56484625339
 20
-780.789444074795
 30
-0.0000000000003616
 11
21445.03870893202
 21
-841.4177705982293
 31
-0.0000000000003616
  0
LINE
  5
D25
330
2
100
AcDbEntity
  8
0
370
     5
100
AcDbLine
 10
21345.56484625339
 20
-1176.95599961299
 30
-0.0000000000003616
 11
21445.03870893202
 21
-1116.327673089556
 31
-0.0000000000003616
  0
LINE
  5
D26
330
2
100
AcDbEntity
  8
0
370
     5
100
AcDbLine
 10
22195.0387094836
 20
-780.7894440747929
 30
-0.0000000000003616
 11
22261.87078589553
 21
-757.8166477294651
 31
-0.0000000000003616
  0
LINE
  5
D27
330
2
100
AcDbEntity
  8
0
370
     5
100
AcDbLine
 10
22195.0387094836
 20
-780.7894440747929
 30
-0.0000000000003616
 11
22213.08551305969
 21
-689.278468866574
 31
-0.0000000000003616
  0
LINE
  5
D28
330
2
100
AcDbEntity
  8
0
370
     5
100
AcDbLine
 10
21740.03870893203
 20
-780.7894440747929
 30
-0.0000000000003616
 11
21673.2066325201
 21
-757.8166477294651
 31
-0.0000000000003616
  0
LINE
  5
D29
330
2
100
AcDbEntity
  8
0
370
     5
100
AcDbLine
 10
21740.03870893203
 20
-780.7894440747929
 30
-0.0000000000003616
 11
21721.99190535594
 21
-689.278468866574
 31
-0.0000000000003616
  0
LINE
  5
D2A
330
2
100
AcDbEntity
  8
0
370
     5
100
AcDbLine
 10
21426.66362940041
 20
-792.3104098358225
 30
-0.0000000000003616
 11
21445.03870893202
 21
-841.4177705982286
 31
-0.0000000000003616
  0
LINE
  5
D2B
330
2
100
AcDbEntity
  8
0
370
     5
100
AcDbLine
 10
21360.71805053239
 20
-824.9552008671917
 30
-0.0000000000003616
 11
21445.03870893202
 21
-841.4177705982288
 31
-0.0000000000003616
  0
LINE
  5
D2C
330
2
100
AcDbEntity
  8
0
370
     5
100
AcDbLine
 10
21426.66362940041
 20
-1165.435033851962
 30
-0.0000000000003616
 11
21445.03870893202
 21
-1116.327673089556
 31
-0.0000000000003616
  0
LINE
  5
D2D
330
2
100
AcDbEntity
  8
0
370
     5
100
AcDbLine
 10
21360.71805053239
 20
-1132.790242820593
 30
-0.0000000000003616
 11
21445.03870893202
 21
-1116.327673089556
 31
-0.0000000000003616
  0
LINE
  5
D2E
330
2
100
AcDbEntity
  8
0
370
     5
100
AcDbLine
 10
22585.03870948359
 20
-1177.857499018499
 30
-0.0000000000003616
 11
22608.01150582892
 21
-1111.025422606573
 31
-0.0000000000003616
  0
LINE
  5
D2F
330
2
100
AcDbEntity
  8
0
370
     5
100
AcDbLine
 10
22585.03870948359
 20
-1177.857499018499
 30
-0.0000000000003616
 11
22689.57555533771
 21
-1100.789444074784
 31
-0.0000000000003616
  0
LINE
  5
D30
330
2
100
AcDbEntity
  8
0
370
     5
100
AcDbLine
 10
22585.03870948359
 20
-1177.857499018499
 30
-0.0000000000003616
 11
22676.54968469181
 21
-1159.810695442414
 31
-0.0000000000003616
  0
DIMENSION
  5
D31
330
2
100
AcDbEntity
  8
0
370
     5
100
AcDbDimension
  2
*D13
 10
22946.95221961191
 20
-1130.789444074791
 30
0.0
 11
22866.95221961191
 21
-1047.805758125556
 31
0.0
 70
   160
 71
     5
 42
99.99999964132417
  3
500
100
AcDbAlignedDimension
 13
21985.03870920776
 23
-1030.789444433467
 33
-0.0000000000005614
 14
22085.03870884911
 24
-1130.789444074791
 34
-0.0000000000006502
 50
90.0
100
AcDbRotatedDimension
  0
DIMENSION
  5
D32
330
2
100
AcDbEntity
  8
0
370
     5
100
AcDbDimension
  2
*D14
 10
22946.95221961191
 20
-1500.789444074791
 30
0.0
 11
22866.95221961191
 21
-1315.789444074788
 31
0.0
 70
    32
 71
     5
 42
370.0
  3
500
100
AcDbAlignedDimension
 13
22085.03870884911
 23
-1130.789444074791
 33
-0.0000000000006502
 14
22425.03870948361
 24
-1500.789444074791
 34
0.0
 50
90.0
100
AcDbRotatedDimension
  0
DIMENSION
  5
D33
330
2
100
AcDbEntity
  8
0
370
     5
100
AcDbDimension
  2
*D15
 10
22946.95221961191
 20
-1900.789444074791
 30
0.0
 11
22866.95221961191
 21
-1700.789444074788
 31
0.0
 70
    32
 71
     5
 42
400.0
  3
500
100
AcDbAlignedDimension
 13
22425.03870948361
 23
-1500.789444074791
 33
0.0
 14
22425.03870948361
 24
-1900.789444074791
 34
0.0
 50
90.0
100
AcDbRotatedDimension
  0
DIMENSION
  5
D34
330
2
100
AcDbEntity
  8
0
100
AcDbDimension
  2
*D16
 10
22946.95221961191
 20
-2270.789444074792
 30
0.0
 11
22866.95221961191
 21
-2085.789444074788
 31
0.0
 70
    32
 71
     5
 42
370.0
  3
500
100
AcDbAlignedDimension
 13
22425.03870948361
 23
-1900.789444074791
 33
0.0
 14
22385.03870948361
 24
-2270.789444074792
 34
0.0
 50
90.0
100
AcDbRotatedDimension
  0
DIMENSION
  5
D35
330
2
100
AcDbEntity
  8
0
370
     5
100
AcDbDimension
  2
*D17
 10
22946.95221961191
 20
-2600.789444074791
 30
0.0
 11
22866.95221961191
 21
-2435.789444074788
 31
0.0
 70
    32
 71
     5
 42
330.0
  3
500
100
AcDbAlignedDimension
 13
22385.03870948361
 23
-2270.789444074792
 33
0.0
 14
22225.03870920782
 24
-2600.789444074791
 34
0.0
 50
90.0
100
AcDbRotatedDimension
  0
LINE
  5
D36
330
2
100
AcDbEntity
  8
0
370
     5
100
AcDbLine
 10
21303.03870893202
 20
-1496.789444074782
 30
-0.0000000000009567
 11
21303.03870893202
 21
-1491.789444074782
 31
-0.0000000000009567
  0
LINE
  5
D37
330
2
100
AcDbEntity
  8
0
370
     5
100
AcDbLine
 10
21245.03870893202
 20
-1904.7894440748
 30
-0.0000000000009567
 11
21445.03870893202
 21
-1904.7894440748
 31
-0.0000000000009567
  0
LINE
  5
D38
330
2
100
AcDbEntity
  8
0
370
     5
100
AcDbLine
 10
21245.03870893202
 20
-1909.7894440748
 30
-0.0000000000009567
 11
21445.03870893202
 21
-1909.7894440748
 31
-0.0000000000009567
  0
LINE
  5
D39
330
2
100
AcDbEntity
  8
0
370
     5
100
AcDbLine
 10
21325.17868083922
 20
-2600.789444074802
 30
-0.0000000000009567
 11
21325.17868083923
 21
-2270.7894440748
 31
-0.0000000000009567
  0
LINE
  5
D3A
330
2
100
AcDbEntity
  8
0
370
     5
100
AcDbLine
 10
21325.17868083922
 20
-2270.789444074801
 30
-0.0000000000009567
 11
21515.03870920782
 21
-2428.789444074798
 31
-0.0000000000018031
  0
LINE
  5
D3B
330
2
100
AcDbEntity
  8
0
370
     5
100
AcDbLine
 10
21515.03870920782
 20
-2428.789444074798
 30
-0.0000000000018031
 11
21325.17868083922
 21
-2600.789444074802
 31
-0.0000000000009567
  0
LINE
  5
D3C
330
2
100
AcDbEntity
  8
0
370
     5
100
AcDbLine
 10
21245.03870893202
 20
-1496.789444074782
 30
-0.0000000000009567
 11
21445.03870893202
 21
-1496.789444074782
 31
-0.0000000000009567
  0
LINE
  5
D3D
330
2
100
AcDbEntity
  8
0
370
     5
100
AcDbLine
 10
21245.03870893202
 20
-1491.789444074782
 30
-0.0000000000009567
 11
21445.03870893202
 21
-1491.789444074782
 31
-0.0000000000009567
  0
LINE
  5
D3E
330
2
100
AcDbEntity
  8
0
370
     5
100
AcDbLine
 10
21303.03870893202
 20
-1904.7894440748
 30
-0.0000000000009567
 11
21303.03870893202
 21
-1909.7894440748
 31
-0.0000000000009567
  0
DIMENSION
  5
D3F
330
2
100
AcDbEntity
  8
0
370
     5
100
AcDbDimension
  2
*D18
 10
22225.03870920782
 20
-2934.179271838031
 30
0.0
 11
22217.61013791714
 21
-2854.179271838031
 31
0.0
 70
   160
 71
     5
 42
160.0000002757879
  3
500
100
AcDbAlignedDimension
 13
22385.03870948361
 23
-2270.789444074792
 33
0.0
 14
22225.03870920782
 24
-2270.789444074792
 34
-0.0000000000016628
 50
180.0
100
AcDbRotatedDimension
  0
DIMENSION
  5
D40
330
2
100
AcDbEntity
  8
0
370
     5
100
AcDbDimension
  2
*D19
 10
21515.03870920782
 20
-2934.179271838031
 30
0.0
 11
21870.03870920781
 21
-2854.179271838031
 31
0.0
 70
    32
 71
     5
 42
710.0
  3
500
100
AcDbAlignedDimension
 13
22225.03870920782
 23
-2270.789444074792
 33
-0.0000000000016628
 14
21515.03870920782
 24
-2600.789444074802
 34
0.0
 50
180.0
100
AcDbRotatedDimension
  0
DIMENSION
  5
D41
330
2
100
AcDbEntity
  8
0
370
     5
100
AcDbDimension
  2
*D20
 10
21445.03870893203
 20
-2934.179271838031
 30
0.0
 11
21480.03870906992
 21
-2854.179271838031
 31
0.0
 70
    32
 71
     5
 42
70.00000027578789
  3
500
100
AcDbAlignedDimension
 13
21515.03870920782
 23
-2600.789444074802
 33
0.0
 14
21445.03870893203
 24
-2270.789444074801
 34
0.0
 50
180.0
100
AcDbRotatedDimension
  0
DIMENSION
  5
D42
330
2
100
AcDbEntity
  8
0
370
     5
100
AcDbDimension
  2
*D21
 10
22425.03870948361
 20
-3149.905986008511
 30
0.0
 11
21935.03870920782
 21
-3069.905986008511
 31
0.0
 70
    32
 71
     5
 42
980.0000005515757
  3
500
100
AcDbAlignedDimension
 13
21445.03870893203
 23
-2270.789444074801
 33
0.0
 14
22425.03870948361
 24
-1900.789444074791
 34
0.0
 50
180.0
100
AcDbRotatedDimension
  0
DIMENSION
  5
D43
330
2
100
AcDbEntity
  8
0
100
AcDbDimension
  2
*D22
 10
22385.03870948361
 20
-2934.179271838026
 30
0.0
 11
22463.32442376932
 21
-2854.179271838026
 31
0.0
 70
   160
 71
     5
 42
40.0
  3
500
100
AcDbAlignedDimension
 13
22425.03870948361
 23
-1900.789444074791
 33
0.0
 14
22385.03870948361
 24
-1900.789444074791
 34
-0.0000000000013341
 50
180.0
100
AcDbRotatedDimension
  0
DIMENSION
  5
D44
330
2
100
AcDbEntity
  8
0
370
     5
100
AcDbDimension
  2
*D23
 10
23186.86228650587
 20
-2540.789444074792
 30
0.0
 11
23106.86228650587
 21
-1785.789444254126
 31
0.0
 70
    32
 71
     5
 42
1509.999999641324
  3
500
100
AcDbAlignedDimension
 13
21915.03870920776
 23
-1030.789444433467
 33
-0.0000000000005614
 14
21840.03870920782
 24
-2540.789444074792
 34
-0.0000000000019559
 50
90.0
100
AcDbRotatedDimension
  0
LINE
  5
D45
330
2
100
AcDbEntity
  8
0
370
     5
100
AcDbLine
 10
21505.03870893205
 20
-1750.78944407481
 30
0.0000000000039257
 11
21445.03870893203
 21
-1750.789444074798
 31
-0.0000000000000178
  0
LINE
  5
D46
330
2
100
AcDbEntity
  8
0
370
     5
100
AcDbLine
 10
21505.03870893204
 20
-1650.789444074806
 30
0.0000000000000178
 11
21445.03870893203
 21
-1650.789444074801
 31
0.0000000000000178
  0
LINE
  5
D47
330
2
100
AcDbEntity
  8
0
370
     5
100
AcDbLine
 10
22225.03870920782
 20
-2415.789444074802
 30
0.0
 11
22186.03870920782
 21
-2415.789444074802
 31
0.0
  0
LINE
  5
D48
330
2
100
AcDbEntity
  8
0
370
     5
100
AcDbLine
 10
22225.03870920782
 20
-2315.789444074801
 30
0.0
 11
22186.03870920782
 21
-2315.789444074801
 31
0.0
  0
ENDSEC
  0
SECTION
  2
OBJECTS
  0
DICTIONARY
  5
B
330
0
100
AcDbDictionary
281
     1
  3
ACAD_COLOR
350
4F
  3
ACAD_GROUP
350
4A
  3
ACAD_LAYOUT
350
12
  3
ACAD_MATERIAL
350
D
  3
ACAD_MLEADERSTYLE
350
3B9
  3
ACAD_MLINESTYLE
350
4B
  3
ACAD_PLOTSETTINGS
350
4C
  3
ACAD_PLOTSTYLENAME
350
A
  3
ACAD_SCALELIST
350
50
  3
ACAD_TABLESTYLE
350
51
  3
ACAD_VISUALSTYLE
350
15
  3
ACDB_RECOMPOSE_DATA
350
3A3
  3
AcDbVariableDictionary
350
3A4
  3
AEC_PROPERTY_SET_DEFS
350
806
  3
ASE_INDEX_DICTIONARY
350
B6D
  3
BNS_VARIABLES
350
B5D
  3
DWGPROPS
350
E3D
  0
DICTIONARY
  5
1C
330
1B
100
AcDbDictionary
280
     1
281
     1
  3
ACAD_LAYERSTATES
360
1D
  0
DICTIONARY
  5
7
330
6
100
AcDbDictionary
280
     1
281
     1
  3
ADSK_XREC_LAYER_RECONCILED
360
8
  0
DICTIONARY
  5
3
330
2
100
AcDbDictionary
280
     1
281
     1
  3
ACAD_SORTENTS
360
39A
  0
DICTIONARY
  5
42
330
41
100
AcDbDictionary
280
     1
281
     1
  3
ACAD_SORTENTS
360
399
  0
DICTIONARY
  5
4F
102
{ACAD_REACTORS
330
B
102
}
330
B
100
AcDbDictionary
281
     1
  0
DICTIONARY
  5
4A
102
{ACAD_REACTORS
330
B
102
}
330
B
100
AcDbDictionary
281
     1
  0
DICTIONARY
  5
12
102
{ACAD_REACTORS
330
B
102
}
330
B
100
AcDbDictionary
281
     1
  3
Layout1
350
1A
  3
Model
350
11
  0
DICTIONARY
  5
D
102
{ACAD_REACTORS
330
B
102
}
330
B
100
AcDbDictionary
281
     1
  3
ByBlock
350
4E
  3
ByLayer
350
4D
  3
Global
350
C
  0
DICTIONARY
  5
3B9
102
{ACAD_REACTORS
330
B
102
}
330
B
100
AcDbDictionary
281
     1
  3
Standard
350
3BA
  0
DICTIONARY
  5
4B
102
{ACAD_REACTORS
330
B
102
}
330
B
100
AcDbDictionary
281
     1
  3
Standard
350
53
  0
DICTIONARY
  5
4C
102
{ACAD_REACTORS
330
B
102
}
330
B
100
AcDbDictionary
281
     1
  0
ACDBDICTIONARYWDFLT
  5
A
102
{ACAD_REACTORS
330
B
102
}
330
B
100
AcDbDictionary
281
     1
  3
Normal
350
9
100
AcDbDictionaryWithDefault
340
9
  0
DICTIONARY
  5
50
102
{ACAD_REACTORS
330
B
102
}
330
B
100
AcDbDictionary
281
     1
  3
*A1
350
58
  3
A0
350
59
  3
A1
350
5A
  3
A2
350
5B
  3
A3
350
5C
  3
A4
350
5D
  3
A5
350
5E
  3
A6
350
5F
  3
A7
350
60
  3
A8
350
61
  3
A9
350
62
  3
B0
350
63
  3
B1
350
64
  3
B2
350
65
  3
B3
350
66
  3
B4
350
67
  0
DICTIONARY
  5
51
102
{ACAD_REACTORS
330
B
102
}
330
B
100
AcDbDictionary
281
     1
  3
Standard
350
54
  0
DICTIONARY
  5
15
102
{ACAD_REACTORS
330
B
102
}
330
B
100
AcDbDictionary
281
     1
  3
2dWireframe
350
14
  3
3D Hidden
350
3B1
  3
3dWireframe
350
57
  3
Basic
350
3B0
  3
Brighten
350
3B4
  3
ColorChange
350
3B8
  3
Conceptual
350
3B2
  3
Dim
350
3B3
  3
Facepattern
350
3B7
  3
Flat
350
3AC
  3
FlatWithEdges
350
3AD
  3
Gouraud
350
3AE
  3
GouraudWithEdges
350
3AF
  3
Linepattern
350
3B6
  3
Realistic
350
56
  3
Thicken
350
3B5
  0
XRECORD
  5
3A3
102
{ACAD_REACTORS
330
B
102
}
330
B
100
AcDbXrecord
280
     1
 90
        1
330
54
  0
DICTIONARY
  5
3A4
102
{ACAD_REACTORS
330
B
102
}
330
B
100
AcDbDictionary
281
     1
  3
CANNOSCALE
350
3A7
  3
CMLEADERSTYLE
350
3A6
  3
CTABLESTYLE
350
3A5
  3
DIMASSOC
350
E3B
  3
HIDETEXT
350
E3A
  3
INDEXCTL
350
E39
  3
LAYEREVAL
350
3A9
  3
LAYERNOTIFY
350
3AA
  3
LIGHTINGUNITS
350
3A8
  3
MSLTSCALE
350
E37
  3
SORTENTS
350
E38
  0
DICTIONARY
  5
806
102
{ACAD_REACTORS
330
B
102
}
330
B
100
AcDbDictionary
281
     1
  0
DICTIONARY
  5
B6D
102
{ACAD_REACTORS
330
B
102
}
330
B
100
AcDbDictionary
281
     1
  3
ASEBlockHierarchyIndexRecord
350
B6E
1001
DCO15
1040
1662365081.453
  0
DICTIONARY
  5
B5D
102
{ACAD_REACTORS
330
B
102
}
330
B
100
AcDbDictionary
281
     1
  3
ACET-OVERKILL-FUZZ
350
B5E
  3
ACET-OVERKILL-NO-ENDTOEND
350
B61
  3
ACET-OVERKILL-NO-PARTIAL
350
B60
  3
ACET-OVERKILL-NO-PLINES
350
B5F
  0
XRECORD
  5
E3D
102
{ACAD_REACTORS
330
B
102
}
330
B
100
AcDbXrecord
280
     1
  1
DWGPROPS COOKIE
  2

  3

  4

  6

  7

  8
anna.ciezak
  9

300
=
301
=
302
=
303
=
304
=
305
=
306
=
307
=
308
=
309
=
 40
8.16867835648148
 41
2452027.670547454
 42
2455043.548442743
  1

 90
        0
  0
DICTIONARY
  5
1D
102
{ACAD_REACTORS
330
1C
102
}
330
1C
100
AcDbDictionary
281
     1
  0
XRECORD
  5
8
102
{ACAD_REACTORS
330
7
102
}
330
7
100
AcDbXrecord
280
     1
290
     1
  0
SORTENTSTABLE
  5
39A
102
{ACAD_REACTORS
330
3
102
}
330
3
100
AcDbSortentsTable
330
2
331
8F
  5
9C
331
87B
  5
884
331
36D
  5
375
331
8BA
  5
8DE
331
D6
  5
DF
331
883
  5
88B
331
DE
  5
E7
331
375
  5
37D
331
9F
  5
A8
331
AA0
  5
B88
331
88B
  5
893
331
A7
  5
B7
331
E6
  5
F2
331
37D
  5
86E
331
893
  5
89B
331
AF
  5
BA
331
EE
  5
369
331
68
  5
68
331
C02
  5
AE
331
89B
  5
8A3
331
AB8
  5
BC4
331
B7
  5
C3
331
9A1
  5
AAB
331
86C
  5
874
331
8A3
  5
8AB
331
BF
  5
CA
331
C7
  5
D0
331
874
  5
87C
331
8AB
  5
8B4
331
CF
  5
D8
331
8B3
  5
8BC
331
70
  5
70
331
88
  5
88
331
90
  5
9F
331
8BB
  5
8E9
331
36E
  5
376
331
D7
  5
E0
331
87C
  5
885
331
884
  5
88C
331
376
  5
37E
331
A0
  5
AF
331
DF
  5
E9
331
88C
  5
894
331
37E
  5
86F
331
A8
  5
B8
331
E7
  5
F3
331
8D3
  5
9A1
331
EF
  5
36A
331
894
  5
89C
331
C1B
  5
A7
331
B8
  5
C4
331
89C
  5
8A4
331
8A4
  5
8AC
331
86D
  5
875
331
875
  5
87D
331
8AC
  5
8B5
331
8B4
  5
8BD
331
71
  5
71
331
89
  5
8C
331
D0
  5
D9
331
87D
  5
886
331
D8
  5
E1
331
36F
  5
377
331
8BC
  5
8F4
331
885
  5
88D
331
E0
  5
ED
331
377
  5
37F
331
37F
  5
870
331
88D
  5
895
331
895
  5
89D
331
C2C
  5
89
331
B85
  5
BD9
331
F0
  5
36B
331
89D
  5
8A5
331
B9
  5
C5
331
9A3
  5
AB8
331
86E
  5
876
331
8A5
  5
8AD
331
C9
  5
D1
331
876
  5
87F
331
8AD
  5
8B6
331
8B5
  5
8BE
331
72
  5
72
331
7A
  5
7A
331
BCD
  5
9A
331
D1
  5
DB
331
370
  5
378
331
8BD
  5
8FF
331
9A
  5
A3
331
D9
  5
E3
331
8F4
  5
9A6
331
886
  5
88E
331
378
  5
380
331
A93
  5
B87
331
E1
  5
EE
331
88E
  5
896
331
E9
  5
149
331
380
  5
871
331
AAB
  5
B94
331
896
  5
89E
331
B86
  5
BF1
331
F1
  5
36C
331
B2
  5
BB
331
149
  5
36F
331
BA
  5
C6
331
89E
  5
8A6
331
9A4
  5
AC3
331
8A6
  5
8AF
331
AC3
  5
BC9
331
C2
  5
CB
331
86F
  5
877
331
877
  5
880
331
CA
  5
D2
331
8B6
  5
8BF
331
369
  5
371
331
D2
  5
DC
331
87F
  5
887
331
371
  5
379
331
9B
  5
A4
331
8BE
  5
99D
331
887
  5
88F
331
379
  5
868
331
A3
  5
B2
331
88F
  5
897
331
897
  5
89F
331
B87
  5
C03
331
B3
  5
BE
331
F2
  5
36D
331
99D
  5
9A8
331
868
  5
872
331
89F
  5
8A7
331
14A
  5
370
331
BB
  5
C7
331
8DE
  5
9A3
331
870
  5
878
331
8A7
  5
8B0
331
C3
  5
CC
331
CB
  5
D3
331
8AF
  5
8B8
331
8B7
  5
8C0
331
7C
  5
7C
331
8C
  5
8D
331
878
  5
881
331
D3
  5
DD
331
36A
  5
372
331
8BF
  5
99E
331
372
  5
37A
331
9C
  5
A5
331
DB
  5
E4
331
880
  5
888
331
888
  5
890
331
37A
  5
869
331
A4
  5
B3
331
E3
  5
EF
331
890
  5
898
331
6D
  5
6D
331
F3
  5
36E
331
898
  5
8A0
331
B4
  5
BF
331
99E
  5
A93
331
869
  5
873
331
8A0
  5
8A8
331
9A6
  5
B62
331
871
  5
879
331
8A8
  5
8B1
331
C4
  5
CD
331
8B0
  5
8B9
331
CC
  5
D5
331
7D
  5
7D
331
8D
  5
8E
331
B88
  5
C1C
331
BC8
  5
95
331
BD8
  5
9B
331
BF0
  5
9D
331
879
  5
882
331
36B
  5
373
331
95
  5
A0
331
8B8
  5
8C1
331
881
  5
889
331
DC
  5
E5
331
373
  5
37B
331
9D
  5
A6
331
8C0
  5
99F
331
8FF
  5
9A7
331
889
  5
891
331
A5
  5
B4
331
E4
  5
F0
331
37B
  5
86C
331
891
  5
899
331
899
  5
8A1
331
99F
  5
AA0
331
8A1
  5
8A9
331
9A7
  5
B85
331
872
  5
87A
331
8A9
  5
8B2
331
C5
  5
CE
331
CD
  5
D6
331
8B1
  5
8BA
331
76
  5
76
331
8E
  5
90
331
B62
  5
BCE
331
8B9
  5
8D3
331
87A
  5
883
331
D5
  5
DE
331
36C
  5
374
331
882
  5
88A
331
374
  5
37C
331
8C1
  5
8B7
331
DD
  5
E6
331
88A
  5
892
331
37C
  5
86D
331
A6
  5
B6
331
E5
  5
F1
331
ED
  5
14A
331
892
  5
89A
331
AE
  5
B9
331
6F
  5
6F
331
B6
  5
C2
331
89A
  5
8A2
331
BE
  5
C9
331
8A2
  5
8AA
331
9A8
  5
B86
331
873
  5
87B
331
8AA
  5
8B3
331
C6
  5
CF
331
8E9
  5
9A4
331
8B2
  5
8BB
331
CE
  5
D7
  0
SORTENTSTABLE
  5
399
102
{ACAD_REACTORS
330
42
102
}
330
42
100
AcDbSortentsTable
330
41
  0
LAYOUT
  5
1A
102
{ACAD_XDICTIONARY
360
E42
102
}
102
{ACAD_REACTORS
330
12
102
}
330
12
100
AcDbPlotSettings
  1

  2
C:\PROGRAM FILES\AUTOCAD LT 2000\plotters\DWF ePlot.pc3
  4

  6

 40
0.0
 41
0.0
 42
0.0
 43
0.0
 44
0.0
 45
0.0
 46
0.0
 47
0.0
 48
0.0
 49
0.0
140
0.0
141
0.0
142
1.0
143
1.0
 70
   688
 72
     0
 73
     0
 74
     5
  7
monochrome_140.ctb
 75
    16
147
1.0
148
0.0
149
0.0
100
AcDbLayout
  1
Layout1
 70
     1
 71
     1
 10
0.0
 20
0.0
 11
420.0
 21
297.0
 12
0.0
 22
0.0
 32
0.0
 14
1.000000000000000E+20
 24
1.000000000000000E+20
 34
1.000000000000000E+20
 15
-1.000000000000000E+20
 25
-1.000000000000000E+20
 35
-1.000000000000000E+20
146
0.0
 13
0.0
 23
0.0
 33
0.0
 16
1.0
 26
0.0
 36
0.0
 17
0.0
 27
1.0
 37
0.0
 76
     0
330
17
  0
LAYOUT
  5
11
102
{ACAD_XDICTIONARY
360
E40
102
}
102
{ACAD_REACTORS
330
12
102
}
330
12
100
AcDbPlotSettings
  1

  2
PDFCreator
  4
A4
  6
RODODENDRON 5
 40
3.174999952316284
 41
3.174999952316284
 42
3.175003051757812
 43
3.17498779296875
 44
209.8886566162109
 45
297.0530090332031
 46
0.0
 47
4.0
 48
14830.4407606986
 49
-10811.5725621928
140
25030.44076069864
141
3208.427437807201
142
1.0
143
50.0
 70
 11936
 72
     1
 73
     0
 74
     4
  7
monochrome_140.ctb
 75
     0
147
0.0199547699619742
148
-14830.4407606986
149
10811.5725621928
100
AcDbLayout
  1
Model
 70
     1
 71
     0
 10
0.0
 20
0.0
 11
12.0
 21
9.0
 12
0.0
 22
0.0
 32
0.0
 14
0.0
 24
0.0
 34
0.0
 15
0.0
 25
0.0
 35
0.0
146
0.0
 13
0.0
 23
0.0
 33
0.0
 16
1.0
 26
0.0
 36
0.0
 17
0.0
 27
1.0
 37
0.0
 76
     0
330
2
331
27
1001
ACAD_PSEXT
1000
PDFCreator
1000
PDFCreator
1000
PDFCreator:
1000
eDoc Printer
1070
     0
  0
MATERIAL
  5
4E
102
{ACAD_XDICTIONARY
360
E46
102
}
102
{ACAD_REACTORS
330
D
102
}
330
D
100
AcDbMaterial
  1
ByBlock
 73
     1
 78
     1
172
     1
176
     1
270
     1
274
     1
  0
MATERIAL
  5
4D
102
{ACAD_XDICTIONARY
360
E44
102
}
102
{ACAD_REACTORS
330
D
102
}
330
D
100
AcDbMaterial
  1
ByLayer
 73
     1
 78
     1
172
     1
176
     1
270
     1
274
     1
  0
MATERIAL
  5
C
102
{ACAD_XDICTIONARY
360
E3E
102
}
102
{ACAD_REACTORS
330
D
102
}
330
D
100
AcDbMaterial
  1
Global
 73
     1
 78
     1
172
     1
176
     1
270
     1
274
     1
  0
MLEADERSTYLE
  5
3BA
102
{ACAD_REACTORS
330
3B9
102
}
330
3B9
100
AcDbMLeaderStyle
170
     2
171
     1
172
     0
 90
        2
 40
0.0
 41
0.0
173
     1
 91
-1056964608
340
22
 92
       -2
290
     1
 42
0.09
291
     1
 43
0.36
  3
Standard
 44
0.18
300

342
1F
174
     1
178
     6
175
     1
176
     0
 93
-1056964608
 45
0.18
292
     0
297
     0
 46
0.18
 94
-1056964608
 47
1.0
 49
1.0
140
1.0
293
     1
141
0.0
294
     1
177
     0
142
1.0
295
     0
296
     0
143
0.125
1001
ACAD_MLEADERVER
1070
     2
  0
MLINESTYLE
  5
53
102
{ACAD_REACTORS
330
4B
102
}
330
4B
100
AcDbMlineStyle
  2
STANDARD
 70
     0
  3

 62
   256
 51
90.0
 52
90.0
 71
     2
 49
0.5
 62
   256
  6
BYLAYER
 49
-0.5
 62
   256
  6
BYLAYER
  0
ACDBPLACEHOLDER
  5
9
102
{ACAD_REACTORS
330
A
102
}
330
A
  0
SCALE
  5
58
102
{ACAD_REACTORS
330
50
102
}
330
50
100
AcDbScale
 70
     0
300
1:10
140
1.0
141
1.0
290
     1
  0
SCALE
  5
59
102
{ACAD_REACTORS
330
50
102
}
330
50
100
AcDbScale
 70
     0
300
1/64" = 1'-0"
140
0.015625
141
12.0
290
     0
  0
SCALE
  5
5A
102
{ACAD_REACTORS
330
50
102
}
330
50
100
AcDbScale
 70
     0
300
1/32" = 1'-0"
140
0.03125
141
12.0
290
     0
  0
SCALE
  5
5B
102
{ACAD_REACTORS
330
50
102
}
330
50
100
AcDbScale
 70
     0
300
1/16" = 1'-0"
140
0.0625
141
12.0
290
     0
  0
SCALE
  5
5C
102
{ACAD_REACTORS
330
50
102
}
330
50
100
AcDbScale
 70
     0
300
3/32" = 1'-0"
140
0.09375
141
12.0
290
     0
  0
SCALE
  5
5D
102
{ACAD_REACTORS
330
50
102
}
330
50
100
AcDbScale
 70
     0
300
1/8" = 1'-0"
140
0.125
141
12.0
290
     0
  0
SCALE
  5
5E
102
{ACAD_REACTORS
330
50
102
}
330
50
100
AcDbScale
 70
     0
300
3/16" = 1'-0"
140
0.1875
141
12.0
290
     0
  0
SCALE
  5
5F
102
{ACAD_REACTORS
330
50
102
}
330
50
100
AcDbScale
 70
     0
300
1/4" = 1'-0"
140
0.25
141
12.0
290
     0
  0
SCALE
  5
60
102
{ACAD_REACTORS
330
50
102
}
330
50
100
AcDbScale
 70
     0
300
3/8" = 1'-0"
140
0.375
141
12.0
290
     0
  0
SCALE
  5
61
102
{ACAD_REACTORS
330
50
102
}
330
50
100
AcDbScale
 70
     0
300
1/2" = 1'-0"
140
0.5
141
12.0
290
     0
  0
SCALE
  5
62
102
{ACAD_REACTORS
330
50
102
}
330
50
100
AcDbScale
 70
     0
300
3/4" = 1'-0"
140
0.75
141
12.0
290
     0
  0
SCALE
  5
63
102
{ACAD_REACTORS
330
50
102
}
330
50
100
AcDbScale
 70
     0
300
1" = 1'-0"
140
1.0
141
12.0
290
     0
  0
SCALE
  5
64
102
{ACAD_REACTORS
330
50
102
}
330
50
100
AcDbScale
 70
     0
300
1 1/2" = 1'-0"
140
1.5
141
12.0
290
     0
  0
SCALE
  5
65
102
{ACAD_REACTORS
330
50
102
}
330
50
100
AcDbScale
 70
     0
300
3" = 1'-0"
140
3.0
141
12.0
290
     0
  0
SCALE
  5
66
102
{ACAD_REACTORS
330
50
102
}
330
50
100
AcDbScale
 70
     0
300
6" = 1'-0"
140
6.0
141
12.0
290
     0
  0
SCALE
  5
67
102
{ACAD_REACTORS
330
50
102
}
330
50
100
AcDbScale
 70
     0
300
1'-0" = 1'-0"
140
12.0
141
12.0
290
     0
  0
TABLESTYLE
  5
54
102
{ACAD_XDICTIONARY
360
55
102
}
102
{ACAD_REACTORS
330
51
102
}
330
51
100
AcDbTableStyle
  3
Standard
 70
     0
 71
     0
 40
0.06
 41
0.06
280
     0
281
     0
  7
Standard
140
0.18
170
     2
 62
     0
 63
     7
283
     0
274
    -2
284
     1
 64
     0
275
    -2
285
     1
 65
     0
276
    -2
286
     1
 66
     0
277
    -2
287
     1
 67
     0
278
    -2
288
     1
 68
     0
279
    -2
289
     1
 69
     0
  7
Standard
140
0.25
170
     5
 62
     0
 63
     7
283
     0
274
    -2
284
     1
 64
     0
275
    -2
285
     1
 65
     0
276
    -2
286
     1
 66
     0
277
    -2
287
     1
 67
     0
278
    -2
288
     1
 68
     0
279
    -2
289
     1
 69
     0
  7
Standard
140
0.18
170
     5
 62
     0
 63
     7
283
     0
274
    -2
284
     1
 64
     0
275
    -2
285
     1
 65
     0
276
    -2
286
     1
 66
     0
277
    -2
287
     1
 67
     0
278
    -2
288
     1
 68
     0
279
    -2
289
     1
 69
     0
  0
VISUALSTYLE
  5
14
102
{ACAD_REACTORS
330
15
102
}
330
15
100
AcDbVisualStyle
  2
2dWireframe
 70
     4
 71
     0
 72
     2
 73
     0
 90
        0
 40
-0.6
 41
-30.0
 62
     5
 63
     7
 74
     1
 91
        4
 64
     7
 65
   257
 75
     1
175
     1
 42
1.0
 92
        0
 66
   257
 43
1.0
 76
     1
 77
     6
 78
     2
 67
     7
 79
     5
170
     0
171
     0
290
     0
174
     0
 93
        1
 44
0.0
173
     0
291
     0
 45
0.0
1001
ACAD
1000
AcDbSavedByObjectVersion
1070
     0
  0
VISUALSTYLE
  5
3B1
102
{ACAD_REACTORS
330
15
102
}
330
15
100
AcDbVisualStyle
  2
3D Hidden
 70
     6
 71
     1
 72
     2
 73
     2
 90
        0
 40
-0.6
 41
-30.0
 62
     5
 63
     7
 74
     2
 91
        2
 64
     7
 65
   257
 75
     2
175
     1
 42
40.0
 92
        0
 66
   257
 43
1.0
 76
     1
 77
     6
 78
     2
 67
     7
 79
     3
170
     0
171
     0
290
     0
174
     0
 93
        1
 44
0.0
173
     0
291
     0
 45
0.0
1001
ACAD
1000
AcDbSavedByObjectVersion
1070
     0
  0
VISUALSTYLE
  5
57
102
{ACAD_REACTORS
330
15
102
}
330
15
100
AcDbVisualStyle
  2
3dWireframe
 70
     5
 71
     0
 72
     2
 73
     0
 90
        0
 40
-0.6
 41
-30.0
 62
     5
 63
     7
 74
     1
 91
        4
 64
     7
 65
   257
 75
     1
175
     1
 42
1.0
 92
        0
 66
   257
 43
1.0
 76
     1
 77
     6
 78
     2
 67
     7
 79
     5
170
     0
171
     0
290
     0
174
     0
 93
        1
 44
0.0
173
     0
291
     0
 45
0.0
1001
ACAD
1000
AcDbSavedByObjectVersion
1070
     0
  0
VISUALSTYLE
  5
3B0
102
{ACAD_REACTORS
330
15
102
}
330
15
100
AcDbVisualStyle
  2
Basic
 70
     7
 71
     1
 72
     0
 73
     1
 90
        0
 40
-0.6
 41
-30.0
 62
     5
 63
     7
 74
     0
 91
        4
 64
     7
 65
   257
 75
     1
175
     1
 42
1.0
 92
        8
 66
     7
 43
1.0
 76
     1
 77
     6
 78
     2
 67
     7
 79
     5
170
     0
171
     0
290
     0
174
     0
 93
        1
 44
0.0
173
     0
291
     1
 45
0.0
1001
ACAD
1000
AcDbSavedByObjectVersion
1070
     0
  0
VISUALSTYLE
  5
3B4
102
{ACAD_REACTORS
330
15
102
}
330
15
100
AcDbVisualStyle
  2
Brighten
 70
    12
 71
     2
 72
     2
 73
     0
 90
        0
 40
-0.6
 41
-30.0
 62
     5
 63
     7
 74
     1
 91
        4
 64
     7
 65
   257
 75
     1
175
     1
 42
1.0
 92
        8
 66
     7
 43
1.0
 76
     1
 77
     6
 78
     2
 67
     7
 79
     5
170
     0
171
     0
290
     0
174
     0
 93
        1
 44
50.0
173
     0
291
     1
 45
0.0
1001
ACAD
1000
AcDbSavedByObjectVersion
1070
     0
  0
VISUALSTYLE
  5
3B8
102
{ACAD_REACTORS
330
15
102
}
330
15
100
AcDbVisualStyle
  2
ColorChange
 70
    16
 71
     2
 72
     2
 73
     3
 90
        0
 40
-0.6
 41
-30.0
 62
     5
 63
     8
 74
     1
 91
        4
 64
     7
 65
   257
 75
     1
175
     1
 42
1.0
 92
        8
 66
     8
 43
1.0
 76
     1
 77
     6
 78
     2
 67
     7
 79
     5
170
     0
171
     0
290
     0
174
     0
 93
        1
 44
0.0
173
     0
291
     1
 45
0.0
1001
ACAD
1000
AcDbSavedByObjectVersion
1070
     0
  0
VISUALSTYLE
  5
3B2
102
{ACAD_REACTORS
330
15
102
}
330
15
100
AcDbVisualStyle
  2
Conceptual
 70
     9
 71
     3
 72
     2
 73
     0
 90
        0
 40
-0.6
 41
-30.0
 62
     5
 63
     7
 74
     2
 91
        2
 64
     7
 65
   257
 75
     1
175
     1
 42
40.0
 92
        8
 66
     7
 43
1.0
 76
     1
 77
     6
 78
     2
 67
     7
 79
     3
170
     0
171
     0
290
     0
174
     0
 93
        1
 44
0.0
173
     0
291
     0
 45
0.0
1001
ACAD
1000
AcDbSavedByObjectVersion
1070
     0
  0
VISUALSTYLE
  5
3B3
102
{ACAD_REACTORS
330
15
102
}
330
15
100
AcDbVisualStyle
  2
Dim
 70
    11
 71
     2
 72
     2
 73
     0
 90
        0
 40
-0.6
 41
-30.0
 62
     5
 63
     7
 74
     1
 91
        4
 64
     7
 65
   257
 75
     1
175
     1
 42
1.0
 92
        8
 66
     7
 43
1.0
 76
     1
 77
     6
 78
     2
 67
     7
 79
     5
170
     0
171
     0
290
     0
174
     0
 93
        1
 44
-50.0
173
     0
291
     1
 45
0.0
1001
ACAD
1000
AcDbSavedByObjectVersion
1070
     0
  0
VISUALSTYLE
  5
3B7
102
{ACAD_REACTORS
330
15
102
}
330
15
100
AcDbVisualStyle
  2
Facepattern
 70
    15
 71
     2
 72
     2
 73
     0
 90
        0
 40
-0.6
 41
-30.0
 62
     5
 63
     7
 74
     1
 91
        4
 64
     7
 65
   257
 75
     1
175
     1
 42
1.0
 92
        8
 66
     7
 43
1.0
 76
     1
 77
     6
 78
     2
 67
     7
 79
     5
170
     0
171
     0
290
     0
174
     0
 93
        1
 44
0.0
173
     0
291
     1
 45
0.0
1001
ACAD
1000
AcDbSavedByObjectVersion
1070
     0
  0
VISUALSTYLE
  5
3AC
102
{ACAD_REACTORS
330
15
102
}
330
15
100
AcDbVisualStyle
  2
Flat
 70
     0
 71
     2
 72
     1
 73
     1
 90
        2
 40
-0.6
 41
30.0
 62
     5
 63
     7
 74
     0
 91
        4
 64
     7
 65
   257
 75
     1
175
     1
 42
1.0
 92
        8
 66
     7
 43
1.0
 76
     1
 77
     6
 78
     2
 67
     7
 79
     5
170
     0
171
     0
290
     0
174
     0
 93
       13
 44
0.0
173
     0
291
     1
 45
0.0
1001
ACAD
1000
AcDbSavedByObjectVersion
1070
     0
  0
VISUALSTYLE
  5
3AD
102
{ACAD_REACTORS
330
15
102
}
330
15
100
AcDbVisualStyle
  2
FlatWithEdges
 70
     1
 71
     2
 72
     1
 73
     1
 90
        2
 40
-0.6
 41
30.0
 62
     5
 63
     7
 74
     1
 91
        4
 64
     7
 65
   257
 75
     1
175
     1
 42
1.0
 92
        0
 66
   257
 43
1.0
 76
     1
 77
     6
 78
     2
 67
     7
 79
     5
170
     0
171
     0
290
     0
174
     0
 93
       13
 44
0.0
173
     0
291
     1
 45
0.0
1001
ACAD
1000
AcDbSavedByObjectVersion
1070
     0
  0
VISUALSTYLE
  5
3AE
102
{ACAD_REACTORS
330
15
102
}
330
15
100
AcDbVisualStyle
  2
Gouraud
 70
     2
 71
     2
 72
     2
 73
     1
 90
        2
 40
-0.6
 41
30.0
 62
     5
 63
     7
 74
     0
 91
        4
 64
     7
 65
   257
 75
     1
175
     1
 42
1.0
 92
        0
 66
     7
 43
1.0
 76
     1
 77
     6
 78
     2
 67
     7
 79
     5
170
     0
171
     0
290
     0
174
     0
 93
       13
 44
0.0
173
     0
291
     1
 45
0.0
1001
ACAD
1000
AcDbSavedByObjectVersion
1070
     0
  0
VISUALSTYLE
  5
3AF
102
{ACAD_REACTORS
330
15
102
}
330
15
100
AcDbVisualStyle
  2
GouraudWithEdges
 70
     3
 71
     2
 72
     2
 73
     1
 90
        2
 40
-0.6
 41
30.0
 62
     5
 63
     7
 74
     1
 91
        4
 64
     7
 65
   257
 75
     1
175
     1
 42
1.0
 92
        0
 66
   257
 43
1.0
 76
     1
 77
     6
 78
     2
 67
     7
 79
     5
170
     0
171
     0
290
     0
174
     0
 93
       13
 44
0.0
173
     0
291
     1
 45
0.0
1001
ACAD
1000
AcDbSavedByObjectVersion
1070
     0
  0
VISUALSTYLE
  5
3B6
102
{ACAD_REACTORS
330
15
102
}
330
15
100
AcDbVisualStyle
  2
Linepattern
 70
    14
 71
     2
 72
     2
 73
     0
 90
        0
 40
-0.6
 41
-30.0
 62
     5
 63
     7
 74
     1
 91
        4
 64
     7
 65
   257
 75
     7
175
     7
 42
1.0
 92
        8
 66
     7
 43
1.0
 76
     1
 77
     6
 78
     2
 67
     7
 79
     5
170
     0
171
     0
290
     0
174
     0
 93
        1
 44
0.0
173
     0
291
     1
 45
0.0
1001
ACAD
1000
AcDbSavedByObjectVersion
1070
     0
  0
VISUALSTYLE
  5
56
102
{ACAD_REACTORS
330
15
102
}
330
15
100
AcDbVisualStyle
  2
Realistic
 70
     8
 71
     2
 72
     2
 73
     0
 90
        0
 40
-0.6
 41
-30.0
 62
     5
 63
     7
 74
     1
 91
        0
 64
     7
 65
   257
 75
     1
175
     1
 42
1.0
 92
        8
 66
     8
 43
1.0
 76
     1
 77
     6
 78
     2
 67
     7
 79
     5
170
     0
171
     0
290
     0
174
     0
 93
       13
 44
0.0
173
     0
291
     0
 45
0.0
1001
ACAD
1000
AcDbSavedByObjectVersion
1070
     0
  0
VISUALSTYLE
  5
3B5
102
{ACAD_REACTORS
330
15
102
}
330
15
100
AcDbVisualStyle
  2
Thicken
 70
    13
 71
     2
 72
     2
 73
     0
 90
        0
 40
-0.6
 41
-30.0
 62
     5
 63
     7
 74
     1
 91
        4
 64
     7
 65
   257
 75
     1
175
     1
 42
1.0
 92
       12
 66
     7
 43
1.0
 76
     1
 77
     6
 78
     2
 67
     7
 79
     5
170
     0
171
     0
290
     0
174
     0
 93
        1
 44
0.0
173
     0
291
     1
 45
0.0
1001
ACAD
1000
AcDbSavedByObjectVersion
1070
     0
  0
DICTIONARYVAR
  5
3A7
102
{ACAD_REACTORS
330
3A4
102
}
330
3A4
100
DictionaryVariables
280
     0
  1
1'-0" = 1'-0"
  0
DICTIONARYVAR
  5
3A6
102
{ACAD_REACTORS
330
3A4
102
}
330
3A4
100
DictionaryVariables
280
     0
  1
STANDARD
  0
DICTIONARYVAR
  5
3A5
102
{ACAD_REACTORS
330
3A4
102
}
330
3A4
100
DictionaryVariables
280
     0
  1
STANDARD
  0
DICTIONARYVAR
  5
E3B
102
{ACAD_REACTORS
330
3A4
102
}
330
3A4
100
DictionaryVariables
280
     0
  1
1
  0
DICTIONARYVAR
  5
E3A
102
{ACAD_REACTORS
330
3A4
102
}
330
3A4
100
DictionaryVariables
280
     0
  1
1
  0
DICTIONARYVAR
  5
E39
102
{ACAD_REACTORS
330
3A4
102
}
330
3A4
100
DictionaryVariables
280
     0
  1
0
  0
DICTIONARYVAR
  5
3A9
102
{ACAD_REACTORS
330
3A4
102
}
330
3A4
100
DictionaryVariables
280
     0
  1
1
  0
DICTIONARYVAR
  5
3AA
102
{ACAD_REACTORS
330
3A4
102
}
330
3A4
100
DictionaryVariables
280
     0
  1
15
  0
DICTIONARYVAR
  5
3A8
102
{ACAD_REACTORS
330
3A4
102
}
330
3A4
100
DictionaryVariables
280
     0
  1
0
  0
DICTIONARYVAR
  5
E37
102
{ACAD_REACTORS
330
3A4
102
}
330
3A4
100
DictionaryVariables
280
     0
  1
1
  0
DICTIONARYVAR
  5
E38
102
{ACAD_REACTORS
330
3A4
102
}
330
3A4
100
DictionaryVariables
280
     0
  1
127
  0
XRECORD
  5
B6E
102
{ACAD_REACTORS
330
B6D
102
}
330
B6D
100
AcDbXrecord
280
     1
330
E14
330
E15
330
C2E
330
C2F
330
B19
330
B1A
330
A6F
330
A70
330
C63
330
C64
330
C5D
330
C5E
330
C55
330
C56
330
C4E
330
C4F
330
C45
330
C46
330
ADB
330
ADC
330
C3E
330
C3F
330
E1B
330
E1C
330
DC7
330
DC8
330
DCE
330
DCF
330
DD5
330
DD6
330
DDC
330
DDD
330
DE4
330
DE5
330
DEA
330
DEB
330
DF3
330
DF4
330
DFA
330
DFB
330
E04
330
E05
330
E0A
330
E0B
  0
XRECORD
  5
B5E
102
{ACAD_REACTORS
330
B5D
102
}
330
B5D
100
AcDbXrecord
280
     1
 40
0.000001
  0
XRECORD
  5
B61
102
{ACAD_REACTORS
330
B5D
102
}
330
B5D
100
AcDbXrecord
280
     1
 70
     0
  0
XRECORD
  5
B60
102
{ACAD_REACTORS
330
B5D
102
}
330
B5D
100
AcDbXrecord
280
     1
 70
     0
  0
XRECORD
  5
B5F
102
{ACAD_REACTORS
330
B5D
102
}
330
B5D
100
AcDbXrecord
280
     1
 70
     0
  0
DICTIONARY
  5
E42
330
1A
100
AcDbDictionary
280
     1
281
     1
  3
ACAD_XREC_ROUNDTRIP
360
E43
  0
DICTIONARY
  5
E40
330
11
100
AcDbDictionary
280
     1
281
     1
  3
ACAD_XREC_ROUNDTRIP
360
E41
  0
DICTIONARY
  5
E46
330
4E
100
AcDbDictionary
280
     1
281
     1
  3
ACAD_XREC_ROUNDTRIP
360
E47
  0
DICTIONARY
  5
E44
330
4D
100
AcDbDictionary
280
     1
281
     1
  3
ACAD_XREC_ROUNDTRIP
360
E45
  0
DICTIONARY
  5
E3E
330
C
100
AcDbDictionary
280
     1
281
     1
  3
ACAD_XREC_ROUNDTRIP
360
E3F
  0
DICTIONARY
  5
55
330
54
100
AcDbDictionary
280
     1
281
     1
  3
ACAD_ROUNDTRIP_2008_TABLESTYLE_CELLSTYLEMAP
360
E3C
  3
ACAD_XREC_ROUNDTRIP
360
E48
  0
XRECORD
  5
E43
102
{ACAD_REACTORS
330
E42
102
}
330
E42
100
AcDbXrecord
280
     1
102
SHADEPLOT
 70
     0
102
SHADEPLOTRESLEVEL
 70
     2
102
SHADEPLOTCUSTOMDPI
 70
   300
  0
XRECORD
  5
E41
102
{ACAD_REACTORS
330
E40
102
}
330
E40
100
AcDbXrecord
280
     1
102
SHADEPLOT
 70
     1
102
SHADEPLOTRESLEVEL
 70
     2
102
SHADEPLOTCUSTOMDPI
 70
   300
  0
XRECORD
  5
E47
102
{ACAD_REACTORS
330
E46
102
}
330
E46
100
AcDbXrecord
280
     1
102
MATERIAL
148
0.0
149
0.0
149
0.0
 93
        0
 94
       63
282
     0
 72
     1
 77
     1
171
     1
175
     1
179
     1
273
     0
  0
XRECORD
  5
E45
102
{ACAD_REACTORS
330
E44
102
}
330
E44
100
AcDbXrecord
280
     1
102
MATERIAL
148
0.0
149
0.0
149
0.0
 93
        0
 94
       63
282
     0
 72
     1
 77
     1
171
     1
175
     1
179
     1
273
     0
  0
XRECORD
  5
E3F
102
{ACAD_REACTORS
330
E3E
102
}
330
E3E
100
AcDbXrecord
280
     1
102
MATERIAL
148
0.0
149
0.0
149
0.0
 93
        0
 94
       63
282
     0
 72
     1
 77
     1
171
     1
175
     1
179
     1
273
     0
  0
CELLSTYLEMAP
  5
E3C
102
{ACAD_REACTORS
330
55
102
}
330
55
100
AcDbCellStyleMap
 90
        3
300
CELLSTYLE
  1
TABLEFORMAT_BEGIN
 90
        5
170
     1
 91
        0
 92
    32768
 62
   257
 93
        1
300
CONTENTFORMAT
  1
CONTENTFORMAT_BEGIN
 90
        0
 91
        0
 92
      512
 93
        0
300

 40
0.0
140
1.0
 94
        5
 62
     0
340
1F
144
0.25
309
CONTENTFORMAT_END
171
     1
301
MARGIN
  1
CELLMARGIN_BEGIN
 40
0.06
 40
0.06
 40
0.06
 40
0.06
 40
0.18
 40
0.18
309
CELLMARGIN_END
 94
        6
 95
        1
302
GRIDFORMAT
  1
GRIDFORMAT_BEGIN
 90
        0
 91
        1
 62
     0
 92
       -2
340
0
 93
        0
 40
0.045
309
GRIDFORMAT_END
 95
        2
302
GRIDFORMAT
  1
GRIDFORMAT_BEGIN
 90
        0
 91
        1
 62
     0
 92
       -2
340
0
 93
        0
 40
0.045
309
GRIDFORMAT_END
 95
        4
302
GRIDFORMAT
  1
GRIDFORMAT_BEGIN
 90
        0
 91
        1
 62
     0
 92
       -2
340
0
 93
        0
 40
0.045
309
GRIDFORMAT_END
 95
        8
302
GRIDFORMAT
  1
GRIDFORMAT_BEGIN
 90
        0
 91
        1
 62
     0
 92
       -2
340
0
 93
        0
 40
0.045
309
GRIDFORMAT_END
 95
       16
302
GRIDFORMAT
  1
GRIDFORMAT_BEGIN
 90
        0
 91
        1
 62
     0
 92
       -2
340
0
 93
        0
 40
0.045
309
GRIDFORMAT_END
 95
       32
302
GRIDFORMAT
  1
GRIDFORMAT_BEGIN
 90
        0
 91
        1
 62
     0
 92
       -2
340
0
 93
        0
 40
0.045
309
GRIDFORMAT_END
309
TABLEFORMAT_END
  1
CELLSTYLE_BEGIN
 90
        1
 91
        1
300
_TITLE
309
CELLSTYLE_END
300
CELLSTYLE
  1
TABLEFORMAT_BEGIN
 90
        5
170
     1
 91
        0
 92
        0
 62
   257
 93
        1
300
CONTENTFORMAT
  1
CONTENTFORMAT_BEGIN
 90
        0
 91
        0
 92
      512
 93
        0
300

 40
0.0
140
1.0
 94
        5
 62
     0
340
1F
144
0.18
309
CONTENTFORMAT_END
171
     1
301
MARGIN
  1
CELLMARGIN_BEGIN
 40
0.06
 40
0.06
 40
0.06
 40
0.06
 40
0.18
 40
0.18
309
CELLMARGIN_END
 94
        6
 95
        1
302
GRIDFORMAT
  1
GRIDFORMAT_BEGIN
 90
        0
 91
        1
 62
     0
 92
       -2
340
0
 93
        0
 40
0.045
309
GRIDFORMAT_END
 95
        2
302
GRIDFORMAT
  1
GRIDFORMAT_BEGIN
 90
        0
 91
        1
 62
     0
 92
       -2
340
0
 93
        0
 40
0.045
309
GRIDFORMAT_END
 95
        4
302
GRIDFORMAT
  1
GRIDFORMAT_BEGIN
 90
        0
 91
        1
 62
     0
 92
       -2
340
0
 93
        0
 40
0.045
309
GRIDFORMAT_END
 95
        8
302
GRIDFORMAT
  1
GRIDFORMAT_BEGIN
 90
        0
 91
        1
 62
     0
 92
       -2
340
0
 93
        0
 40
0.045
309
GRIDFORMAT_END
 95
       16
302
GRIDFORMAT
  1
GRIDFORMAT_BEGIN
 90
        0
 91
        1
 62
     0
 92
       -2
340
0
 93
        0
 40
0.045
309
GRIDFORMAT_END
 95
       32
302
GRIDFORMAT
  1
GRIDFORMAT_BEGIN
 90
        0
 91
        1
 62
     0
 92
       -2
340
0
 93
        0
 40
0.045
309
GRIDFORMAT_END
309
TABLEFORMAT_END
  1
CELLSTYLE_BEGIN
 90
        2
 91
        1
300
_HEADER
309
CELLSTYLE_END
300
CELLSTYLE
  1
TABLEFORMAT_BEGIN
 90
        5
170
     1
 91
        0
 92
        0
 62
   257
 93
        1
300
CONTENTFORMAT
  1
CONTENTFORMAT_BEGIN
 90
        0
 91
        0
 92
      512
 93
        0
300

 40
0.0
140
1.0
 94
        2
 62
     0
340
1F
144
0.18
309
CONTENTFORMAT_END
171
     1
301
MARGIN
  1
CELLMARGIN_BEGIN
 40
0.06
 40
0.06
 40
0.06
 40
0.06
 40
0.18
 40
0.18
309
CELLMARGIN_END
 94
        6
 95
        1
302
GRIDFORMAT
  1
GRIDFORMAT_BEGIN
 90
        0
 91
        1
 62
     0
 92
       -2
340
0
 93
        0
 40
0.045
309
GRIDFORMAT_END
 95
        2
302
GRIDFORMAT
  1
GRIDFORMAT_BEGIN
 90
        0
 91
        1
 62
     0
 92
       -2
340
0
 93
        0
 40
0.045
309
GRIDFORMAT_END
 95
        4
302
GRIDFORMAT
  1
GRIDFORMAT_BEGIN
 90
        0
 91
        1
 62
     0
 92
       -2
340
0
 93
        0
 40
0.045
309
GRIDFORMAT_END
 95
        8
302
GRIDFORMAT
  1
GRIDFORMAT_BEGIN
 90
        0
 91
        1
 62
     0
 92
       -2
340
0
 93
        0
 40
0.045
309
GRIDFORMAT_END
 95
       16
302
GRIDFORMAT
  1
GRIDFORMAT_BEGIN
 90
        0
 91
        1
 62
     0
 92
       -2
340
0
 93
        0
 40
0.045
309
GRIDFORMAT_END
 95
       32
302
GRIDFORMAT
  1
GRIDFORMAT_BEGIN
 90
        0
 91
        1
 62
     0
 92
       -2
340
0
 93
        0
 40
0.045
309
GRIDFORMAT_END
309
TABLEFORMAT_END
  1
CELLSTYLE_BEGIN
 90
        3
 91
        2
300
_DATA
309
CELLSTYLE_END
  0
XRECORD
  5
E48
102
{ACAD_REACTORS
330
55
102
}
330
55
100
AcDbXrecord
280
     1
102
ACAD_ROUNDTRIP_PRE2007_TABLESTYLE
 90
      512
 91
        0
  1

 92
      512
 93
        0
  2

 94
      512
 95
        0
  3

  0
ENDSEC
  0
EOF
