  0
SECTION
  2
HEADER
  9
$ACADVER
  1
AC1015
  9
$ACADMAINTVER
 70
    20
  9
$DWGCODEPAGE
  3
ANSI_1250
  9
$INSBASE
 10
215187.233673673
 20
127657.5168525552
 30
0.0
  9
$EXTMIN
 10
215187.2000545948
 20
127657.5157057546
 30
0.0
  9
$EXTMAX
 10
229904.0634332897
 20
141677.5157057546
 30
0.0
  9
$LIMMIN
 10
0.0
 20
0.0
  9
$LIMMAX
 10
420.0
 20
297.0
  9
$ORTHOMODE
 70
     0
  9
$REGENMODE
 70
     1
  9
$FILLMODE
 70
     1
  9
$QTEXTMODE
 70
     0
  9
$MIRRTEXT
 70
     0
  9
$LTSCALE
 40
75.0
  9
$ATTMODE
 70
     1
  9
$TEXTSIZE
 40
20.0
  9
$TRACEWID
 40
1.0
  9
$TEXTSTYLE
  7
ROMANS
  9
$CLAYER
  8
0Wymiary-PL
  9
$CELTYPE
  6
ByLayer
  9
$CECOLOR
 62
   256
  9
$CELTSCALE
 40
1.0
  9
$DISPSILH
 70
     0
  9
$DIMSCALE
 40
1.0
  9
$DIMASZ
 40
30.0
  9
$DIMEXO
 40
43.0
  9
$DIMDLI
 40
0.0
  9
$DIMRND
 40
0.5
  9
$DIMDLE
 40
12.0
  9
$DIMEXE
 40
13.0
  9
$DIMTP
 40
0.0
  9
$DIMTM
 40
0.0
  9
$DIMTXT
 40
80.0
  9
$DIMCEN
 40
0.0
  9
$DIMTSZ
 40
0.0
  9
$DIMTOL
 70
     0
  9
$DIMLIM
 70
     0
  9
$DIMTIH
 70
     0
  9
$DIMTOH
 70
     0
  9
$DIMSE1
 70
     1
  9
$DIMSE2
 70
     1
  9
$DIMTAD
 70
     0
  9
$DIMZIN
 70
    12
  9
$DIMBLK
  1
B-DIM
  9
$DIMASO
 70
     1
  9
$DIMSHO
 70
     1
  9
$DIMPOST
  1

  9
$DIMAPOST
  1

  9
$DIMALT
 70
     0
  9
$DIMALTD
 70
     2
  9
$DIMALTF
 40
25.4
  9
$DIMLFAC
 40
1.0
  9
$DIMTOFL
 70
     1
  9
$DIMTVP
 40
1.0
  9
$DIMTIX
 70
     1
  9
$DIMSOXD
 70
     0
  9
$DIMSAH
 70
     0
  9
$DIMBLK1
  1

  9
$DIMBLK2
  1

  9
$DIMSTYLE
  2
500
  9
$DIMCLRD
 70
     1
  9
$DIMCLRE
 70
     1
  9
$DIMCLRT
 70
    10
  9
$DIMTFAC
 40
1.0
  9
$DIMGAP
 40
0.0
  9
$DIMJUST
 70
     0
  9
$DIMSD1
 70
     0
  9
$DIMSD2
 70
     0
  9
$DIMTOLJ
 70
     1
  9
$DIMTZIN
 70
     0
  9
$DIMALTZ
 70
     0
  9
$DIMALTTZ
 70
     0
  9
$DIMUPT
 70
     0
  9
$DIMDEC
 70
     1
  9
$DIMTDEC
 70
     1
  9
$DIMALTU
 70
     2
  9
$DIMALTTD
 70
     2
  9
$DIMTXSTY
  7
ROMANS
  9
$DIMAUNIT
 70
     0
  9
$DIMADEC
 70
     0
  9
$DIMALTRND
 40
0.0
  9
$DIMAZIN
 70
     0
  9
$DIMDSEP
 70
    46
  9
$DIMATFIT
 70
     3
  9
$DIMFRAC
 70
     0
  9
$DIMLDRBLK
  1
B-DIM
  9
$DIMLUNIT
 70
     2
  9
$DIMLWD
 70
    -2
  9
$DIMLWE
 70
    -2
  9
$DIMTMOVE
 70
     2
  9
$LUNITS
 70
     2
  9
$LUPREC
 70
     1
  9
$SKETCHINC
 40
1.0
  9
$FILLETRAD
 40
0.0
  9
$AUNITS
 70
     0
  9
$AUPREC
 70
     0
  9
$MENU
  1
.
  9
$ELEVATION
 40
0.0
  9
$PELEVATION
 40
0.0
  9
$THICKNESS
 40
0.0
  9
$LIMCHECK
 70
     0
  9
$CHAMFERA
 40
0.0
  9
$CHAMFERB
 40
0.0
  9
$CHAMFERC
 40
20.0
  9
$CHAMFERD
 40
0.0
  9
$SKPOLY
 70
     0
  9
$TDCREATE
 40
2452027.670547454
  9
$TDUCREATE
 40
2452027.587214121
  9
$TDUPDATE
 40
2455065.547039202
  9
$TDUUPDATE
 40
2455065.463705868
  9
$TDINDWG
 40
9.1207294676
  9
$TDUSRTIMER
 40
9.1207294676
  9
$USRTIMER
 70
     1
  9
$ANGBASE
 50
0.0
  9
$ANGDIR
 70
     0
  9
$PDMODE
 70
     0
  9
$PDSIZE
 40
0.0
  9
$PLINEWID
 40
0.0
  9
$SPLFRAME
 70
     0
  9
$SPLINETYPE
 70
     6
  9
$SPLINESEGS
 70
     8
  9
$HANDSEED
  5
1889B
  9
$SURFTAB1
 70
     6
  9
$SURFTAB2
 70
     6
  9
$SURFTYPE
 70
     6
  9
$SURFU
 70
     6
  9
$SURFV
 70
     6
  9
$UCSBASE
  2

  9
$UCSNAME
  2

  9
$UCSORG
 10
0.0
 20
0.0
 30
0.0
  9
$UCSXDIR
 10
1.0
 20
0.0
 30
0.0
  9
$UCSYDIR
 10
0.0
 20
1.0
 30
0.0
  9
$UCSORTHOREF
  2

  9
$UCSORTHOVIEW
 70
     0
  9
$UCSORGTOP
 10
0.0
 20
0.0
 30
0.0
  9
$UCSORGBOTTOM
 10
0.0
 20
0.0
 30
0.0
  9
$UCSORGLEFT
 10
0.0
 20
0.0
 30
0.0
  9
$UCSORGRIGHT
 10
0.0
 20
0.0
 30
0.0
  9
$UCSORGFRONT
 10
0.0
 20
0.0
 30
0.0
  9
$UCSORGBACK
 10
0.0
 20
0.0
 30
0.0
  9
$PUCSBASE
  2

  9
$PUCSNAME
  2

  9
$PUCSORG
 10
0.0
 20
0.0
 30
0.0
  9
$PUCSXDIR
 10
1.0
 20
0.0
 30
0.0
  9
$PUCSYDIR
 10
0.0
 20
1.0
 30
0.0
  9
$PUCSORTHOREF
  2

  9
$PUCSORTHOVIEW
 70
     0
  9
$PUCSORGTOP
 10
0.0
 20
0.0
 30
0.0
  9
$PUCSORGBOTTOM
 10
0.0
 20
0.0
 30
0.0
  9
$PUCSORGLEFT
 10
0.0
 20
0.0
 30
0.0
  9
$PUCSORGRIGHT
 10
0.0
 20
0.0
 30
0.0
  9
$PUCSORGFRONT
 10
0.0
 20
0.0
 30
0.0
  9
$PUCSORGBACK
 10
0.0
 20
0.0
 30
0.0
  9
$USERI1
 70
     0
  9
$USERI2
 70
     0
  9
$USERI3
 70
     0
  9
$USERI4
 70
     0
  9
$USERI5
 70
     0
  9
$USERR1
 40
0.0
  9
$USERR2
 40
0.0
  9
$USERR3
 40
0.0
  9
$USERR4
 40
0.0
  9
$USERR5
 40
0.0
  9
$WORLDVIEW
 70
     1
  9
$SHADEDGE
 70
     3
  9
$SHADEDIF
 70
    70
  9
$TILEMODE
 70
     1
  9
$MAXACTVP
 70
    64
  9
$PINSBASE
 10
0.0
 20
0.0
 30
0.0
  9
$PLIMCHECK
 70
     0
  9
$PEXTMIN
 10
1.000000000000000E+20
 20
1.000000000000000E+20
 30
1.000000000000000E+20
  9
$PEXTMAX
 10
-1.000000000000000E+20
 20
-1.000000000000000E+20
 30
-1.000000000000000E+20
  9
$PLIMMIN
 10
0.0
 20
0.0
  9
$PLIMMAX
 10
420.0
 20
297.0
  9
$UNITMODE
 70
     0
  9
$VISRETAIN
 70
     1
  9
$PLINEGEN
 70
     0
  9
$PSLTSCALE
 70
     1
  9
$TREEDEPTH
 70
  3020
  9
$CMLSTYLE
  2
Standard
  9
$CMLJUST
 70
     0
  9
$CMLSCALE
 40
20.0
  9
$PROXYGRAPHICS
 70
     1
  9
$MEASUREMENT
 70
     0
  9
$CELWEIGHT
370
    -1
  9
$ENDCAPS
280
     0
  9
$JOINSTYLE
280
     0
  9
$LWDISPLAY
290
     1
  9
$INSUNITS
 70
     1
  9
$HYPERLINKBASE
  1

  9
$STYLESHEET
  1
monochrome_140.ctb
  9
$XEDIT
290
     1
  9
$CEPSNTYPE
380
     0
  9
$PSTYLEMODE
290
     1
  9
$FINGERPRINTGUID
  2
{938A2469-3AF5-11D5-BC95-0050BABCE9EC}
  9
$VERSIONGUID
  2
{AD2CAECF-122D-48E0-B848-914B7B271B9E}
  9
$EXTNAMES
290
     1
  9
$PSVPSCALE
 40
0.0
  9
$OLESTARTUP
290
     0
  0
ENDSEC
  0
SECTION
  2
CLASSES
  0
CLASS
  1
ACDBDICTIONARYWDFLT
  2
AcDbDictionaryWithDefault
  3
ObjectDBX Classes
 90
        0
280
     0
281
     0
  0
CLASS
  1
ACDBPLACEHOLDER
  2
AcDbPlaceHolder
  3
ObjectDBX Classes
 90
        0
280
     0
281
     0
  0
CLASS
  1
LAYOUT
  2
AcDbLayout
  3
ObjectDBX Classes
 90
        0
280
     0
281
     0
  0
CLASS
  1
DICTIONARYVAR
  2
AcDbDictionaryVar
  3
ObjectDBX Classes
 90
        0
280
     0
281
     0
  0
CLASS
  1
SORTENTSTABLE
  2
AcDbSortentsTable
  3
ObjectDBX Classes
 90
        0
280
     0
281
     0
  0
CLASS
  1
AEC_VARS_DWG_SETUP
  2
AecDbVarsDwgSetup
  3
AecBase50|Product Desc: Autodesk Architectural Desktop 2007 |Company: Autodesk,Inc. |WEB Address: www.autodesk.com
 90
      129
280
     0
281
     0
  0
CLASS
  1
AEC_DISP_REP_CONFIG
  2
AecDbDispRepConfig
  3
AecBase50|Product Desc: Autodesk Architectural Desktop 2007 |Company: Autodesk,Inc. |WEB Address: www.autodesk.com
 90
      129
280
     0
281
     0
  0
CLASS
  1
AEC_DISP_REP_SET
  2
AecDbDispRepSet
  3
AecBase50|Product Desc: Autodesk Architectural Desktop 2007 |Company: Autodesk,Inc. |WEB Address: www.autodesk.com
 90
      129
280
     0
281
     0
  0
CLASS
  1
AEC_DISP_REP_2D_SECTION
  2
AecDbDispRep2dSection
  3
AecBase50|Product Desc: Autodesk Architectural Desktop 2007 |Company: Autodesk,Inc. |WEB Address: www.autodesk.com
 90
      129
280
     0
281
     0
  0
CLASS
  1
AEC_DISP_REP_ANCHOR_BUB_TO_GRID
  2
AecDbDispRepAnchorBubToGrid
  3
AecStructureBase50|Product Desc: Autodesk Architectural Desktop 2007 |Company: Autodesk,Inc. |WEB Address: www.autodesk.com
 90
      129
280
     0
281
     0
  0
CLASS
  1
AEC_DISP_REP_ANCHOR_BUB_TO_GRID_MODEL
  2
AecDbDispRepAnchorBubToGridMdl
  3
AecStructureBase50|Product Desc: Autodesk Architectural Desktop 2007 |Company: Autodesk,Inc. |WEB Address: www.autodesk.com
 90
      129
280
     0
281
     0
  0
CLASS
  1
AEC_DISP_REP_ANCHOR_ENT_TO_NODE
  2
AecDbDispRepAnchorEntToNode
  3
AecBaseEx50|Product Desc: Autodesk Architectural Desktop 2007 |Company: Autodesk,Inc. |WEB Address: www.autodesk.com
 90
      129
280
     0
281
     0
  0
CLASS
  1
AEC_DISP_REP_ANCHOR_TAG_TO_ENT
  2
AecDbDispRepAnchorTagToEnt
  3
AecScheduleData50|Product Desc: Autodesk Architectural Desktop 2007 |Company: Autodesk,Inc. |WEB Address: www.autodesk.com
 90
      129
280
     0
281
     0
  0
CLASS
  1
AEC_DISP_REP_AREA
  2
AecDbDispRepArea
  3
AecAreaCalculationBase50|Product Desc: Autodesk Architectural Desktop 2007 |Company: Autodesk,Inc. |WEB Address: www.autodesk.com
 90
    32897
280
     0
281
     0
  0
CLASS
  1
AEC_DISP_REP_AREA_DECOMPOSED
  2
AecDbDispRepAreaDecomposed
  3
AecAreaCalculationBase50|Product Desc: Autodesk Architectural Desktop 2007 |Company: Autodesk,Inc. |WEB Address: www.autodesk.com
 90
    32897
280
     0
281
     0
  0
CLASS
  1
AEC_DISP_REP_AREAGROUP
  2
AecDbDispRepAreaGroup
  3
AecAreaCalculationBase50|Product Desc: Autodesk Architectural Desktop 2007 |Company: Autodesk,Inc. |WEB Address: www.autodesk.com
 90
    32897
280
     0
281
     0
  0
CLASS
  1
AEC_DISP_REP_BDG_ELEVLINE_MODEL
  2
AecDbDispRepBdgElevLineModel
  3
AecArchBase50|Product Desc: Autodesk Architectural Desktop 2007 |Company: Autodesk,Inc. |WEB Address: www.autodesk.com
 90
      129
280
     0
281
     0
  0
CLASS
  1
AEC_DISP_REP_BDG_SECTIONLINE_PLAN
  2
AecDbDispRepBdgElevLinePlan
  3
AecArchBase50|Product Desc: Autodesk Architectural Desktop 2007 |Company: Autodesk,Inc. |WEB Address: www.autodesk.com
 90
      129
280
     0
281
     0
  0
CLASS
  1
AEC_DISP_REP_BDG_SECTIONLINE_MODEL
  2
AecDbDispRepBdgSectionLineModel
  3
AecArchBase50|Product Desc: Autodesk Architectural Desktop 2007 |Company: Autodesk,Inc. |WEB Address: www.autodesk.com
 90
      129
280
     0
281
     0
  0
CLASS
  1
AEC_DISP_REP_BDG_SECTIONLINE_PLAN
  2
AecDbDispRepBdgSectionLinePlan
  3
AecArchBase50|Product Desc: Autodesk Architectural Desktop 2007 |Company: Autodesk,Inc. |WEB Address: www.autodesk.com
 90
      129
280
     0
281
     0
  0
CLASS
  1
AEC_DISP_REP_BDG_SECTION_SUBDIV
  2
AecDbDispRepBdgSectionSubDiv
  3
AecArchBase50|Product Desc: Autodesk Architectural Desktop 2007 |Company: Autodesk,Inc. |WEB Address: www.autodesk.com
 90
      129
280
     0
281
     0
  0
CLASS
  1
AEC_DISP_REP_CAMERA
  2
AecDbDispRepCamera
  3
AecBase50|Product Desc: Autodesk Architectural Desktop 2007 |Company: Autodesk,Inc. |WEB Address: www.autodesk.com
 90
    32897
280
     0
281
     0
  0
CLASS
  1
AEC_DISP_REP_CEILING_GRID
  2
AecDbDispRepCeilingGrid
  3
AecArchBase50|Product Desc: Autodesk Architectural Desktop 2007 |Company: Autodesk,Inc. |WEB Address: www.autodesk.com
 90
      893
280
     0
281
     0
  0
CLASS
  1
AEC_DISP_REP_CEILING_GRID_MODEL
  2
AecDbDispRepCeilingGridModel
  3
AecArchBase50|Product Desc: Autodesk Architectural Desktop 2007 |Company: Autodesk,Inc. |WEB Address: www.autodesk.com
 90
      129
280
     0
281
     0
  0
CLASS
  1
AEC_DISP_REP_CEILING_GRID_RCP
  2
AecDbDispRepCeilingGridRcp
  3
AecArchBase50|Product Desc: Autodesk Architectural Desktop 2007 |Company: Autodesk,Inc. |WEB Address: www.autodesk.com
 90
      129
280
     0
281
     0
  0
CLASS
  1
AEC_DISP_REP_CLIP_VOLUME_MODEL
  2
AecDbDispRepClipVolModel
  3
AecBase50|Product Desc: Autodesk Architectural Desktop 2007 |Company: Autodesk,Inc. |WEB Address: www.autodesk.com
 90
      129
280
     0
281
     0
  0
CLASS
  1
AEC_DISP_REP_CLIP_VOLUME_PLAN
  2
AecDbDispRepClipVolPlan
  3
AecBase50|Product Desc: Autodesk Architectural Desktop 2007 |Company: Autodesk,Inc. |WEB Address: www.autodesk.com
 90
      129
280
     0
281
     0
  0
CLASS
  1
AEC_DISP_REP_CLIP_VOLUME_RESULT_SUBDIV
  2
AecDbDispRepClipVolResSubDiv
  3
AecBase50|Product Desc: Autodesk Architectural Desktop 2007 |Company: Autodesk,Inc. |WEB Address: www.autodesk.com
 90
      129
280
     0
281
     0
  0
CLASS
  1
AEC_DISP_REP_CLIP_VOLUME_RESULT
  2
AecDbDispRepClipVolResult
  3
AecBase50|Product Desc: Autodesk Architectural Desktop 2007 |Company: Autodesk,Inc. |WEB Address: www.autodesk.com
 90
      129
280
     0
281
     0
  0
CLASS
  1
AEC_DISP_REP_COLUMN_GRID
  2
AecDbDispRepColumnGrid
  3
AecStructureBase50|Product Desc: Autodesk Architectural Desktop 2007 |Company: Autodesk,Inc. |WEB Address: www.autodesk.com
 90
      129
280
     0
281
     0
  0
CLASS
  1
AEC_DISP_REP_COLUMN_GRID_MODEL
  2
AecDbDispRepColumnGridModel
  3
AecStructureBase50|Product Desc: Autodesk Architectural Desktop 2007 |Company: Autodesk,Inc. |WEB Address: www.autodesk.com
 90
      129
280
     0
281
     0
  0
CLASS
  1
AEC_DISP_REP_CURTAIN_WALL_LAYOUT_MODEL
  2
AecDbDispRepCurtainWallLayoutModel
  3
AecArchBase50|Product Desc: Autodesk Architectural Desktop 2007 |Company: Autodesk,Inc. |WEB Address: www.autodesk.com
 90
      129
280
     0
281
     0
  0
CLASS
  1
AEC_DISP_REP_CURTAIN_WALL_LAYOUT_PLAN
  2
AecDbDispRepCurtainWallLayoutPlan
  3
AecArchBase50|Product Desc: Autodesk Architectural Desktop 2007 |Company: Autodesk,Inc. |WEB Address: www.autodesk.com
 90
      129
280
     0
281
     0
  0
CLASS
  1
AEC_DISP_REP_CURTAIN_WALL_UNIT_MODEL
  2
AecDbDispRepCurtainWallUnitModel
  3
AecArchBase50|Product Desc: Autodesk Architectural Desktop 2007 |Company: Autodesk,Inc. |WEB Address: www.autodesk.com
 90
      129
280
     0
281
     0
  0
CLASS
  1
AEC_DISP_REP_CURTAIN_WALL_UNIT_PLAN
  2
AecDbDispRepCurtainWallUnitPlan
  3
AecArchBase50|Product Desc: Autodesk Architectural Desktop 2007 |Company: Autodesk,Inc. |WEB Address: www.autodesk.com
 90
      129
280
     0
281
     0
  0
CLASS
  1
AEC_DB_DISP_REP_DIM_GROUP_PLAN
  2
AecDbDispRepDimGroupPlan
  3
AecArchDACHBase50|Product Desc: Autodesk Architectural Desktop 2007 |Company: Autodesk,Inc. |WEB Address: www.autodesk.com
 90
      129
280
     0
281
     0
  0
CLASS
  1
AEC_DISP_REP_DOOR_MODEL
  2
AecDbDispRepDoorModel
  3
AecArchBase50|Product Desc: Autodesk Architectural Desktop 2007 |Company: Autodesk,Inc. |WEB Address: www.autodesk.com
 90
      129
280
     0
281
     0
  0
CLASS
  1
AEC_DISP_REP_DOOR_NOMINAL
  2
AecDbDispRepDoorNominal
  3
AecArchBase50|Product Desc: Autodesk Architectural Desktop 2007 |Company: Autodesk,Inc. |WEB Address: www.autodesk.com
 90
      129
280
     0
281
     0
  0
CLASS
  1
AEC_DISP_REP_DOOR_PLAN
  2
AecDbDispRepDoorPlan
  3
AecArchBase50|Product Desc: Autodesk Architectural Desktop 2007 |Company: Autodesk,Inc. |WEB Address: www.autodesk.com
 90
      129
280
     0
281
     0
  0
CLASS
  1
AEC_DISP_REP_EDITINPLACEPROFILE
  2
AecDbDispRepEditInPlaceProfile
  3
AecBase50|Product Desc: Autodesk Architectural Desktop 2007 |Company: Autodesk,Inc. |WEB Address: www.autodesk.com
 90
      129
280
     0
281
     0
  0
CLASS
  1
AEC_DISP_REP_ENT_REF
  2
AecDbDispRepEntRef
  3
AecBase50|Product Desc: Autodesk Architectural Desktop 2007 |Company: Autodesk,Inc. |WEB Address: www.autodesk.com
 90
      129
280
     0
281
     0
  0
CLASS
  1
AEC_DISP_REP_LAYOUT_CURVE
  2
AecDbDispRepLayoutCurve
  3
AecBase50|Product Desc: Autodesk Architectural Desktop 2007 |Company: Autodesk,Inc. |WEB Address: www.autodesk.com
 90
      129
280
     0
281
     0
  0
CLASS
  1
AEC_DISP_REP_LAYOUT_GRID2D
  2
AecDbDispRepLayoutGrid2d
  3
AecBase50|Product Desc: Autodesk Architectural Desktop 2007 |Company: Autodesk,Inc. |WEB Address: www.autodesk.com
 90
      129
280
     0
281
     0
  0
CLASS
  1
AEC_DISP_REP_LAYOUT_GRID3D
  2
AecDbDispRepLayoutGrid3d
  3
AecBase50|Product Desc: Autodesk Architectural Desktop 2007 |Company: Autodesk,Inc. |WEB Address: www.autodesk.com
 90
      129
280
     0
281
     0
  0
CLASS
  1
AEC_DISP_REP_MASKBLOCK_REF
  2
AecDbDispRepMaskBlockRef
  3
AecBase50|Product Desc: Autodesk Architectural Desktop 2007 |Company: Autodesk,Inc. |WEB Address: www.autodesk.com
 90
      129
280
     0
281
     0
  0
CLASS
  1
AEC_DISP_REP_MASKBLOCK_REF_RCP
  2
AecDbDispRepMaskBlockRefRcp
  3
AecArchBase50|Product Desc: Autodesk Architectural Desktop 2007 |Company: Autodesk,Inc. |WEB Address: www.autodesk.com
 90
      129
280
     0
281
     0
  0
CLASS
  1
AEC_DISP_REP_MASS_ELEM_MODEL
  2
AecDbDispRepMassElemModel
  3
AecBaseEx50|Product Desc: Autodesk Architectural Desktop 2007 |Company: Autodesk,Inc. |WEB Address: www.autodesk.com
 90
      129
280
     0
281
     0
  0
CLASS
  1
AEC_DISP_REP_MASS_ELEM_SCHEM
  2
AecDbDispRepMassElemSchem
  3
AecBaseEx50|Product Desc: Autodesk Architectural Desktop 2007 |Company: Autodesk,Inc. |WEB Address: www.autodesk.com
 90
      129
280
     0
281
     0
  0
CLASS
  1
AEC_DISP_REP_MASS_GROUP_MODEL
  2
AecDbDispRepMassGroupModel
  3
AecBaseEx50|Product Desc: Autodesk Architectural Desktop 2007 |Company: Autodesk,Inc. |WEB Address: www.autodesk.com
 90
      129
280
     0
281
     0
  0
CLASS
  1
AEC_DISP_REP_MASS_GROUP_PLAN
  2
AecDbDispRepMassGroupPlan
  3
AecBaseEx50|Product Desc: Autodesk Architectural Desktop 2007 |Company: Autodesk,Inc. |WEB Address: www.autodesk.com
 90
      129
280
     0
281
     0
  0
CLASS
  1
AEC_DISP_REP_MATERIAL
  2
AecDbDispRepMaterial
  3
AecBase50|Product Desc: Autodesk Architectural Desktop 2007 |Company: Autodesk,Inc. |WEB Address: www.autodesk.com
 90
      129
280
     0
281
     0
  0
CLASS
  1
AEC_DISP_REP_MVBLOCK_REF
  2
AecDbDispRepMvBlockRef
  3
AecBase50|Product Desc: Autodesk Architectural Desktop 2007 |Company: Autodesk,Inc. |WEB Address: www.autodesk.com
 90
      129
280
     0
281
     0
  0
CLASS
  1
AEC_DISP_REP_MVBLOCK_REF_MODEL
  2
AecDbDispRepMvBlockRefModel
  3
AecBase50|Product Desc: Autodesk Architectural Desktop 2007 |Company: Autodesk,Inc. |WEB Address: www.autodesk.com
 90
      129
280
     0
281
     0
  0
CLASS
  1
AEC_DISP_REP_OPENING
  2
AecDbDispRepOpening
  3
AecArchBase50|Product Desc: Autodesk Architectural Desktop 2007 |Company: Autodesk,Inc. |WEB Address: www.autodesk.com
 90
      129
280
     0
281
     0
  0
CLASS
  1
AEC_DISP_REP_OPENING_MODEL
  2
AecDbDispRepOpeningModel
  3
AecArchBase50|Product Desc: Autodesk Architectural Desktop 2007 |Company: Autodesk,Inc. |WEB Address: www.autodesk.com
 90
      129
280
     0
281
     0
  0
CLASS
  1
AEC_DISP_REP_POLYGON_MODEL
  2
AecDbDispRepPolygonModel
  3
AecBaseEx50|Product Desc: Autodesk Architectural Desktop 2007 |Company: Autodesk,Inc. |WEB Address: www.autodesk.com
 90
      129
280
     0
281
     0
  0
CLASS
  1
AEC_DISP_REP_RAILING_MODEL
  2
AecDbDispRepRailingModel
  3
AecArchBase50|Product Desc: Autodesk Architectural Desktop 2007 |Company: Autodesk,Inc. |WEB Address: www.autodesk.com
 90
      129
280
     0
281
     0
  0
CLASS
  1
AEC_DISP_REP_RAILING_PLAN
  2
AecDbDispRepRailingPlan
  3
AecArchBase50|Product Desc: Autodesk Architectural Desktop 2007 |Company: Autodesk,Inc. |WEB Address: www.autodesk.com
 90
      129
280
     0
281
     0
  0
CLASS
  1
AEC_DISP_REP_ROOF_MODEL
  2
AecDbDispRepRoofModel
  3
AecArchBase50|Product Desc: Autodesk Architectural Desktop 2007 |Company: Autodesk,Inc. |WEB Address: www.autodesk.com
 90
      129
280
     0
281
     0
  0
CLASS
  1
AEC_DISP_REP_ROOF_PLAN
  2
AecDbDispRepRoofPlan
  3
AecArchBase50|Product Desc: Autodesk Architectural Desktop 2007 |Company: Autodesk,Inc. |WEB Address: www.autodesk.com
 90
      129
280
     0
281
     0
  0
CLASS
  1
AEC_DISP_REP_ROOFSLAB_MODEL
  2
AecDbDispRepRoofSlabModel
  3
AecArchBase50|Product Desc: Autodesk Architectural Desktop 2007 |Company: Autodesk,Inc. |WEB Address: www.autodesk.com
 90
      129
280
     0
281
     0
  0
CLASS
  1
AEC_DISP_REP_ROOFSLAB_PLAN
  2
AecDbDispRepRoofSlabPlan
  3
AecArchBase50|Product Desc: Autodesk Architectural Desktop 2007 |Company: Autodesk,Inc. |WEB Address: www.autodesk.com
 90
      129
280
     0
281
     0
  0
CLASS
  1
AEC_DISP_REP_SCHEDULE_TABLE
  2
AecDbDispRepScheduleTable
  3
AecSchedule50|Product Desc: Autodesk Architectural Desktop 2007 |Company: Autodesk,Inc. |WEB Address: www.autodesk.com
 90
      129
280
     0
281
     0
  0
CLASS
  1
AEC_DISP_REP_SLAB_MODEL
  2
AecDbDispRepSlabModel
  3
AecArchBase50|Product Desc: Autodesk Architectural Desktop 2007 |Company: Autodesk,Inc. |WEB Address: www.autodesk.com
 90
      129
280
     0
281
     0
  0
CLASS
  1
AEC_DISP_REP_SLAB_PLAN
  2
AecDbDispRepSlabPlan
  3
AecArchBase50|Product Desc: Autodesk Architectural Desktop 2007 |Company: Autodesk,Inc. |WEB Address: www.autodesk.com
 90
      129
280
     0
281
     0
  0
CLASS
  1
AEC_DISP_REP_SLICE
  2
AecDbDispRepSlice
  3
AecBase50|Product Desc: Autodesk Architectural Desktop 2007 |Company: Autodesk,Inc. |WEB Address: www.autodesk.com
 90
      129
280
     0
281
     0
  0
CLASS
  1
AEC_DISP_REP_SPACE_BOUNDARY_MODEL
  2
AecDbDispRepSpaceBoundaryModel
  3
AecArchBase50|Product Desc: Autodesk Architectural Desktop 2007 |Company: Autodesk,Inc. |WEB Address: www.autodesk.com
 90
    32897
280
     0
281
     0
  0
CLASS
  1
AEC_DISP_REP_SPACE_BOUNDARY_PLAN
  2
AecDbDispRepSpaceBoundaryPlan
  3
AecArchBase50|Product Desc: Autodesk Architectural Desktop 2007 |Company: Autodesk,Inc. |WEB Address: www.autodesk.com
 90
    32897
280
     0
281
     0
  0
CLASS
  1
AEC_DISP_REP_SPACE_BOUNDARY_SCHEM
  2
AecDbDispRepSpaceBoundarySketch
  3
AecArchBase50|Product Desc: Autodesk Architectural Desktop 2007 |Company: Autodesk,Inc. |WEB Address: www.autodesk.com
 90
    32897
280
     0
281
     0
  0
CLASS
  1
AEC_DISP_REP_SPACE_MODEL
  2
AecDbDispRepSpaceModel
  3
AecArchBase50|Product Desc: Autodesk Architectural Desktop 2007 |Company: Autodesk,Inc. |WEB Address: www.autodesk.com
 90
      129
280
     0
281
     0
  0
CLASS
  1
AEC_DISP_REP_SPACE_PLAN
  2
AecDbDispRepSpacePlan
  3
AecArchBase50|Product Desc: Autodesk Architectural Desktop 2007 |Company: Autodesk,Inc. |WEB Address: www.autodesk.com
 90
      129
280
     0
281
     0
  0
CLASS
  1
AEC_DISP_REP_STAIR_MODEL
  2
AecDbDispRepStairModel
  3
AecArchBase50|Product Desc: Autodesk Architectural Desktop 2007 |Company: Autodesk,Inc. |WEB Address: www.autodesk.com
 90
      129
280
     0
281
     0
  0
CLASS
  1
AEC_DISP_REP_STAIR_PLAN
  2
AecDbDispRepStairPlan
  3
AecArchBase50|Product Desc: Autodesk Architectural Desktop 2007 |Company: Autodesk,Inc. |WEB Address: www.autodesk.com
 90
      129
280
     0
281
     0
  0
CLASS
  1
AEC_DISP_REP_WALL_GRAPH
  2
AecDbDispRepWallGraph
  3
AecArchBase50|Product Desc: Autodesk Architectural Desktop 2007 |Company: Autodesk,Inc. |WEB Address: www.autodesk.com
 90
      129
280
     0
281
     0
  0
CLASS
  1
AEC_DISP_REP_WALL_MODEL
  2
AecDbDispRepWallModel
  3
AecArchBase50|Product Desc: Autodesk Architectural Desktop 2007 |Company: Autodesk,Inc. |WEB Address: www.autodesk.com
 90
      129
280
     0
281
     0
  0
CLASS
  1
AEC_DISP_REP_WALL_PLAN
  2
AecDbDispRepWallPlan
  3
AecArchBase50|Product Desc: Autodesk Architectural Desktop 2007 |Company: Autodesk,Inc. |WEB Address: www.autodesk.com
 90
      129
280
     0
281
     0
  0
CLASS
  1
AEC_DISP_REP_WALL_SCHEM
  2
AecDbDispRepWallSchem
  3
AecArchBase50|Product Desc: Autodesk Architectural Desktop 2007 |Company: Autodesk,Inc. |WEB Address: www.autodesk.com
 90
      129
280
     0
281
     0
  0
CLASS
  1
AEC_DISP_REP_WINDOW_ASSEMBLY_MODEL
  2
AecDbDispRepWindowAssemblyModel
  3
AecArchBase50|Product Desc: Autodesk Architectural Desktop 2007 |Company: Autodesk,Inc. |WEB Address: www.autodesk.com
 90
      129
280
     0
281
     0
  0
CLASS
  1
AEC_DISP_REP_WINDOW_ASSEMBLY_PLAN
  2
AecDbDispRepWindowAssemblyPlan
  3
AecArchBase50|Product Desc: Autodesk Architectural Desktop 2007 |Company: Autodesk,Inc. |WEB Address: www.autodesk.com
 90
      129
280
     0
281
     0
  0
CLASS
  1
AEC_AECDBDISPREPWINDOWASSEMBLYPLAN100
  2
AecDbDispRepWindowAssemblyPlan100
  3
AecArchDACHBase50|Product Desc: Autodesk Architectural Desktop 2007 |Company: Autodesk,Inc. |WEB Address: www.autodesk.com
 90
      129
280
     0
281
     0
  0
CLASS
  1
AEC_DISP_REP_WINDOW_MODEL
  2
AecDbDispRepWindowModel
  3
AecArchBase50|Product Desc: Autodesk Architectural Desktop 2007 |Company: Autodesk,Inc. |WEB Address: www.autodesk.com
 90
      129
280
     0
281
     0
  0
CLASS
  1
AEC_DISP_REP_WINDOW_NOMINAL
  2
AecDbDispRepWindowNominal
  3
AecArchBase50|Product Desc: Autodesk Architectural Desktop 2007 |Company: Autodesk,Inc. |WEB Address: www.autodesk.com
 90
      129
280
     0
281
     0
  0
CLASS
  1
AEC_DISP_REP_WINDOW_PLAN
  2
AecDbDispRepWindowPlan
  3
AecArchBase50|Product Desc: Autodesk Architectural Desktop 2007 |Company: Autodesk,Inc. |WEB Address: www.autodesk.com
 90
      129
280
     0
281
     0
  0
CLASS
  1
AECS_DISP_REP_MEMBER_LOGICAL
  2
AecsDbDispRepMemberLogical
  3
AecStructureBase50|Product Desc: Autodesk Architectural Desktop 2007 |Company: Autodesk,Inc. |WEB Address: www.autodesk.com
 90
      129
280
     0
281
     0
  0
CLASS
  1
AECS_DISP_REP_MEMBER_MODEL_DESIGN
  2
AecsDbDispRepMemberModelDesign
  3
AecStructureBase50|Product Desc: Autodesk Architectural Desktop 2007 |Company: Autodesk,Inc. |WEB Address: www.autodesk.com
 90
      129
280
     0
281
     0
  0
CLASS
  1
AECS_DISP_REP_MEMBER_PLAN_DESIGN
  2
AecsDbDispRepMemberPlanDesign
  3
AecStructureBase50|Product Desc: Autodesk Architectural Desktop 2007 |Company: Autodesk,Inc. |WEB Address: www.autodesk.com
 90
      129
280
     0
281
     0
  0
CLASS
  1
AEC_DISP_PROPS_ENT
  2
AecDbDispPropsEnt
  3
AecBase50|Product Desc: Autodesk Architectural Desktop 2007 |Company: Autodesk,Inc. |WEB Address: www.autodesk.com
 90
      129
280
     0
281
     0
  0
CLASS
  1
AEC_DISP_PROPS_CLIP_VOLUME
  2
AecDbDispPropsClipVol
  3
AecBase50|Product Desc: Autodesk Architectural Desktop 2007 |Company: Autodesk,Inc. |WEB Address: www.autodesk.com
 90
      129
280
     0
281
     0
  0
CLASS
  1
AEC_DISP_PROPS_SLICE
  2
AecDbDispPropsSlice
  3
AecBase50|Product Desc: Autodesk Architectural Desktop 2007 |Company: Autodesk,Inc. |WEB Address: www.autodesk.com
 90
      129
280
     0
281
     0
  0
CLASS
  1
AEC_DISP_PROPS_ROOFSLAB_PLAN
  2
AecDbDispPropsRoofSlabPlan
  3
AecArchBase50|Product Desc: Autodesk Architectural Desktop 2007 |Company: Autodesk,Inc. |WEB Address: www.autodesk.com
 90
      129
280
     0
281
     0
  0
CLASS
  1
AEC_DISP_PROPS_GRID_ASSEMBLY_MODEL
  2
AecDbDispPropsGridAssemblyModel
  3
AecArchBase50|Product Desc: Autodesk Architectural Desktop 2007 |Company: Autodesk,Inc. |WEB Address: www.autodesk.com
 90
      129
280
     0
281
     0
  0
CLASS
  1
AEC_DISP_PROPS_ROOF
  2
AecDbDispPropsRoof
  3
AecArchBase50|Product Desc: Autodesk Architectural Desktop 2007 |Company: Autodesk,Inc. |WEB Address: www.autodesk.com
 90
      129
280
     0
281
     0
  0
CLASS
  1
AEC_DISP_PROPS_SPACE_MODEL
  2
AecDbDispPropsSpaceModel
  3
AecArchBase50|Product Desc: Autodesk Architectural Desktop 2007 |Company: Autodesk,Inc. |WEB Address: www.autodesk.com
 90
      129
280
     0
281
     0
  0
CLASS
  1
AEC_DISP_PROPS_EDITINPLACEPROFILE_MODEL
  2
AecDbDispPropsEditInPlaceProfile
  3
AecBase50|Product Desc: Autodesk Architectural Desktop 2007 |Company: Autodesk,Inc. |WEB Address: www.autodesk.com
 90
      129
280
     0
281
     0
  0
CLASS
  1
AEC_DISP_PROPS_DOOR
  2
AecDbDispPropsDoor
  3
AecArchBase50|Product Desc: Autodesk Architectural Desktop 2007 |Company: Autodesk,Inc. |WEB Address: www.autodesk.com
 90
      129
280
     0
281
     0
  0
CLASS
  1
AEC_DISP_PROPS_MASKBLOCK
  2
AecDbDispPropsMaskBlock
  3
AecBase50|Product Desc: Autodesk Architectural Desktop 2007 |Company: Autodesk,Inc. |WEB Address: www.autodesk.com
 90
      129
280
     0
281
     0
  0
CLASS
  1
AEC_DISP_PROPS_SPACE_PLAN
  2
AecDbDispPropsSpacePlan
  3
AecArchBase50|Product Desc: Autodesk Architectural Desktop 2007 |Company: Autodesk,Inc. |WEB Address: www.autodesk.com
 90
      129
280
     0
281
     0
  0
CLASS
  1
AEC_DISP_PROPS_RAILING_PLAN
  2
AecDbDispPropsRailingPlan
  3
AecArchBase50|Product Desc: Autodesk Architectural Desktop 2007 |Company: Autodesk,Inc. |WEB Address: www.autodesk.com
 90
      129
280
     0
281
     0
  0
CLASS
  1
AEC_DISP_PROPS_LAYOUT_GRID2D
  2
AecDbDispPropsLayoutGrid2d
  3
AecBase50|Product Desc: Autodesk Architectural Desktop 2007 |Company: Autodesk,Inc. |WEB Address: www.autodesk.com
 90
      129
280
     0
281
     0
  0
CLASS
  1
AEC_DISP_PROPS_CLIP_VOLUME_RESULT
  2
AecDbDispPropsClipVolResSubDiv
  3
AecBase50|Product Desc: Autodesk Architectural Desktop 2007 |Company: Autodesk,Inc. |WEB Address: www.autodesk.com
 90
      129
280
     0
281
     0
  0
CLASS
  1
AEC_DISP_PROPS_STAIR_MODEL
  2
AecDbDispPropsStairModel
  3
AecArchBase50|Product Desc: Autodesk Architectural Desktop 2007 |Company: Autodesk,Inc. |WEB Address: www.autodesk.com
 90
      129
280
     0
281
     0
  0
CLASS
  1
AEC_DISP_PROPS_LAYOUT_CURVE
  2
AecDbDispPropsLayoutCurve
  3
AecBase50|Product Desc: Autodesk Architectural Desktop 2007 |Company: Autodesk,Inc. |WEB Address: www.autodesk.com
 90
      129
280
     0
281
     0
  0
CLASS
  1
AEC_DISP_PROPS_POLYGON_MODEL
  2
AecDbDispPropsPolygonModel
  3
AecBaseEx50|Product Desc: Autodesk Architectural Desktop 2007 |Company: Autodesk,Inc. |WEB Address: www.autodesk.com
 90
      129
280
     0
281
     0
  0
CLASS
  1
AEC_DISP_PROPS_MASS_GROUP
  2
AecDbDispPropsMassGroup
  3
AecBaseEx50|Product Desc: Autodesk Architectural Desktop 2007 |Company: Autodesk,Inc. |WEB Address: www.autodesk.com
 90
      129
280
     0
281
     0
  0
CLASS
  1
AEC_DISP_PROPS_STAIR_PLAN
  2
AecDbDispPropsStairPlan
  3
AecArchBase50|Product Desc: Autodesk Architectural Desktop 2007 |Company: Autodesk,Inc. |WEB Address: www.autodesk.com
 90
      129
280
     0
281
     0
  0
CLASS
  1
AEC_DISP_PROPS_OPENING
  2
AecDbDispPropsOpening
  3
AecArchBase50|Product Desc: Autodesk Architectural Desktop 2007 |Company: Autodesk,Inc. |WEB Address: www.autodesk.com
 90
      129
280
     0
281
     0
  0
CLASS
  1
AEC_DISP_PROPS_WALL_GRAPH
  2
AecDbDispPropsWallGraph
  3
AecArchBase50|Product Desc: Autodesk Architectural Desktop 2007 |Company: Autodesk,Inc. |WEB Address: www.autodesk.com
 90
      129
280
     0
281
     0
  0
CLASS
  1
AEC_DISP_PROPS_DOOR_NOMINAL
  2
AecDbDispPropsDoorNominal
  3
AecArchBase50|Product Desc: Autodesk Architectural Desktop 2007 |Company: Autodesk,Inc. |WEB Address: www.autodesk.com
 90
      129
280
     0
281
     0
  0
CLASS
  1
AEC_DISP_PROPS_SLAB
  2
AecDbDispPropsSlab
  3
AecArchBase50|Product Desc: Autodesk Architectural Desktop 2007 |Company: Autodesk,Inc. |WEB Address: www.autodesk.com
 90
      129
280
     0
281
     0
  0
CLASS
  1
AEC_DISP_PROPS_WALL_MODEL
  2
AecDbDispPropsWallModel
  3
AecArchBase50|Product Desc: Autodesk Architectural Desktop 2007 |Company: Autodesk,Inc. |WEB Address: www.autodesk.com
 90
      129
280
     0
281
     0
  0
CLASS
  1
AEC_DISP_PROPS_MATERIAL
  2
AecDbDispPropsMaterial
  3
AecBase50|Product Desc: Autodesk Architectural Desktop 2007 |Company: Autodesk,Inc. |WEB Address: www.autodesk.com
 90
      129
280
     0
281
     0
  0
CLASS
  1
AEC_DISP_PROPS_WINDOW
  2
AecDbDispPropsWindow
  3
AecArchBase50|Product Desc: Autodesk Architectural Desktop 2007 |Company: Autodesk,Inc. |WEB Address: www.autodesk.com
 90
      129
280
     0
281
     0
  0
CLASS
  1
AEC_DISP_PROPS_LAYOUT_GRID3D
  2
AecDbDispPropsLayoutGrid3d
  3
AecBase50|Product Desc: Autodesk Architectural Desktop 2007 |Company: Autodesk,Inc. |WEB Address: www.autodesk.com
 90
      129
280
     0
281
     0
  0
CLASS
  1
AEC_DISP_PROPS_GRID_ASSEMBLY_PLAN
  2
AecDbDispPropsGridAssemblyPlan
  3
AecArchBase50|Product Desc: Autodesk Architectural Desktop 2007 |Company: Autodesk,Inc. |WEB Address: www.autodesk.com
 90
      129
280
     0
281
     0
  0
CLASS
  1
AEC_DISP_PROPS_WALL_SCHEM
  2
AecDbDispPropsWallSchem
  3
AecArchBase50|Product Desc: Autodesk Architectural Desktop 2007 |Company: Autodesk,Inc. |WEB Address: www.autodesk.com
 90
      129
280
     0
281
     0
  0
CLASS
  1
AEC_DISP_PROPS_WALL_PLAN
  2
AecDbDispPropsWallPlan
  3
AecArchBase50|Product Desc: Autodesk Architectural Desktop 2007 |Company: Autodesk,Inc. |WEB Address: www.autodesk.com
 90
      129
280
     0
281
     0
  0
CLASS
  1
AEC_DISP_PROPS_SPACE_BOUNDARY
  2
AecDbDispPropsSpaceBoundary
  3
AecArchBase50|Product Desc: Autodesk Architectural Desktop 2007 |Company: Autodesk,Inc. |WEB Address: www.autodesk.com
 90
    32897
280
     0
281
     0
  0
CLASS
  1
AEC_DISP_PROPS_SLAB_PLAN
  2
AecDbDispPropsSlabPlan
  3
AecArchBase50|Product Desc: Autodesk Architectural Desktop 2007 |Company: Autodesk,Inc. |WEB Address: www.autodesk.com
 90
      129
280
     0
281
     0
  0
CLASS
  1
AEC_DISP_PROPS_RAILING_MODEL
  2
AecDbDispPropsRailingModel
  3
AecArchBase50|Product Desc: Autodesk Architectural Desktop 2007 |Company: Autodesk,Inc. |WEB Address: www.autodesk.com
 90
      129
280
     0
281
     0
  0
CLASS
  1
AEC_DISP_PROPS_MASS_ELEM_MODEL
  2
AecDbDispPropsMassElem
  3
AecBaseEx50|Product Desc: Autodesk Architectural Desktop 2007 |Company: Autodesk,Inc. |WEB Address: www.autodesk.com
 90
      129
280
     0
281
     0
  0
CLASS
  1
AEC_DISP_PROPS_DIM
  2
AecDbDispPropsDimGroup
  3
AecArchDACHBase50|Product Desc: Autodesk Architectural Desktop 2007 |Company: Autodesk,Inc. |WEB Address: www.autodesk.com
 90
      129
280
     0
281
     0
  0
CLASS
  1
AEC_DISP_PROPS_ROOFSLAB
  2
AecDbDispPropsRoofSlab
  3
AecArchBase50|Product Desc: Autodesk Architectural Desktop 2007 |Company: Autodesk,Inc. |WEB Address: www.autodesk.com
 90
      129
280
     0
281
     0
  0
CLASS
  1
AEC_DISP_PROPS_ENT_REF
  2
AecDbDispPropsEntRef
  3
AecBase50|Product Desc: Autodesk Architectural Desktop 2007 |Company: Autodesk,Inc. |WEB Address: www.autodesk.com
 90
      129
280
     0
281
     0
  0
CLASS
  1
AEC_DISP_PROPS_2D_SECTION
  2
AecDbDispProps2dSection
  3
AecBase50|Product Desc: Autodesk Architectural Desktop 2007 |Company: Autodesk,Inc. |WEB Address: www.autodesk.com
 90
      129
280
     0
281
     0
  0
CLASS
  1
AECS_DISP_PROPS_MEMBER_LOGICAL
  2
AecsDbDispPropsMemberLogical
  3
AecStructureBase50|Product Desc: Autodesk Architectural Desktop 2007 |Company: Autodesk,Inc. |WEB Address: www.autodesk.com
 90
      129
280
     0
281
     0
  0
CLASS
  1
AEC_DISP_PROPS_AREA_DECOMPOSED
  2
AecDbDispPropsAreaDecomposed
  3
AecAreaCalculationBase50|Product Desc: Autodesk Architectural Desktop 2007 |Company: Autodesk,Inc. |WEB Address: www.autodesk.com
 90
    32897
280
     0
281
     0
  0
CLASS
  1
AEC_DISP_PROPS_CAMERA
  2
AecDbDispPropsCamera
  3
AecBase50|Product Desc: Autodesk Architectural Desktop 2007 |Company: Autodesk,Inc. |WEB Address: www.autodesk.com
 90
    32897
280
     0
281
     0
  0
CLASS
  1
AECS_DISP_PROPS_MEMBER
  2
AecsDbDispPropsMember
  3
AecStructureBase50|Product Desc: Autodesk Architectural Desktop 2007 |Company: Autodesk,Inc. |WEB Address: www.autodesk.com
 90
      129
280
     0
281
     0
  0
CLASS
  1
AECS_DISP_PROPS_MEMBER_PLAN
  2
AecsDbDispPropsMemberPlan
  3
AecStructureBase50|Product Desc: Autodesk Architectural Desktop 2007 |Company: Autodesk,Inc. |WEB Address: www.autodesk.com
 90
      129
280
     0
281
     0
  0
CLASS
  1
AEC_DISP_PROPS_AREAGROUP
  2
AecDbDispPropsAreaGroup
  3
AecAreaCalculationBase50|Product Desc: Autodesk Architectural Desktop 2007 |Company: Autodesk,Inc. |WEB Address: www.autodesk.com
 90
    32897
280
     0
281
     0
  0
CLASS
  1
AEC_DISP_PROPS_WINDOW_NOMINAL
  2
AecDbDispPropsWindowNominal
  3
AecArchBase50|Product Desc: Autodesk Architectural Desktop 2007 |Company: Autodesk,Inc. |WEB Address: www.autodesk.com
 90
      129
280
     0
281
     0
  0
CLASS
  1
AEC_DISP_PROPS_AREA
  2
AecDbDispPropsArea
  3
AecAreaCalculationBase50|Product Desc: Autodesk Architectural Desktop 2007 |Company: Autodesk,Inc. |WEB Address: www.autodesk.com
 90
    32897
280
     0
281
     0
  0
CLASS
  1
AEC_DISP_PROPS_SCHEDULE_TABLE
  2
AecDbDispPropsScheduleTable
  3
AecSchedule50|Product Desc: Autodesk Architectural Desktop 2007 |Company: Autodesk,Inc. |WEB Address: www.autodesk.com
 90
      129
280
     0
281
     0
  0
CLASS
  1
AEC_LAYERKEY_STYLE
  2
AecDbLayerKeyStyle
  3
AecBase50|Product Desc: Autodesk Architectural Desktop 2007 |Company: Autodesk,Inc. |WEB Address: www.autodesk.com
 90
      129
280
     0
281
     0
  0
CLASS
  1
AEC_VARS_ARCHBASE
  2
AecDbVarsArchBase
  3
AecArchBase50|Product Desc: Autodesk Architectural Desktop 2007 |Company: Autodesk,Inc. |WEB Address: www.autodesk.com
 90
      129
280
     0
281
     0
  0
CLASS
  1
AEC_VARS_MUNICH
  2
AecDbVarsMunich
  3
AecArchDACHBase50|Product Desc: Autodesk Architectural Desktop 2007 |Company: Autodesk,Inc. |WEB Address: www.autodesk.com
 90
      129
280
     0
281
     0
  0
CLASS
  1
AEC_NOTIFICATION_TRACKER
  2
AecDbNotificationTracker
  3
AecBase50|Product Desc: Autodesk Architectural Desktop 2007 |Company: Autodesk,Inc. |WEB Address: www.autodesk.com
 90
      129
280
     0
281
     0
  0
CLASS
  1
AEC_DISP_REP_ANCHOR
  2
AecDbDispRepAnchor
  3
AecBase50|Product Desc: Autodesk Architectural Desktop 2007 |Company: Autodesk,Inc. |WEB Address: www.autodesk.com
 90
      129
280
     0
281
     0
  0
CLASS
  1
AEC_DISP_REP_POLYGON_TRUECOLOUR
  2
AecDbDispRepPolygonTrueColour
  3
AecBaseEx50|Product Desc: Autodesk Architectural Desktop 2007 |Company: Autodesk,Inc. |WEB Address: www.autodesk.com
 90
      129
280
     0
281
     0
  0
CLASS
  1
AEC_DISP_PROPS_POLYGON_TRUECOLOUR
  2
AecDbDispPropsPolygonTrueColour
  3
AecBaseEx50|Product Desc: Autodesk Architectural Desktop 2007 |Company: Autodesk,Inc. |WEB Address: www.autodesk.com
 90
      129
280
     0
281
     0
  0
CLASS
  1
AEC_DISP_REP_BDG_ELEVLINE_RCP
  2
AecDbDispRepBdgElevLineRcp
  3
AecArchBase50|Product Desc: Autodesk Architectural Desktop 2007 |Company: Autodesk,Inc. |WEB Address: www.autodesk.com
 90
      129
280
     0
281
     0
  0
CLASS
  1
AEC_DISP_REP_BDG_SECTIONLINE_RCP
  2
AecDbDispRepBdgSectionLineRcp
  3
AecArchBase50|Product Desc: Autodesk Architectural Desktop 2007 |Company: Autodesk,Inc. |WEB Address: www.autodesk.com
 90
      129
280
     0
281
     0
  0
CLASS
  1
AEC_DISP_REP_BDG_SECTION_MODEL
  2
AecDbDispRepBdgSectionModel
  3
AecArchBase50|Product Desc: Autodesk Architectural Desktop 2007 |Company: Autodesk,Inc. |WEB Address: www.autodesk.com
 90
      129
280
     0
281
     0
  0
CLASS
  1
AEC_DISP_REP_DOOR_ELEV
  2
AecDbDispRepDoorElev
  3
AecArchBase50|Product Desc: Autodesk Architectural Desktop 2007 |Company: Autodesk,Inc. |WEB Address: www.autodesk.com
 90
      129
280
     0
281
     0
  0
CLASS
  1
AEC_DISP_REP_DOOR_RCP
  2
AecDbDispRepDoorRcp
  3
AecArchBase50|Product Desc: Autodesk Architectural Desktop 2007 |Company: Autodesk,Inc. |WEB Address: www.autodesk.com
 90
      129
280
     0
281
     0
  0
CLASS
  1
AEC_DISP_REP_DOOR_THRESHOLD_PLAN
  2
AecDbDispRepDoorThresholdPlan
  3
AecArchBase50|Product Desc: Autodesk Architectural Desktop 2007 |Company: Autodesk,Inc. |WEB Address: www.autodesk.com
 90
      129
280
     0
281
     0
  0
CLASS
  1
AEC_DISP_PROPS_DOOR_THRESHOLD_PLAN
  2
AecDbDispPropsDoorThresholdPlan
  3
AecArchBase50|Product Desc: Autodesk Architectural Desktop 2007 |Company: Autodesk,Inc. |WEB Address: www.autodesk.com
 90
      129
280
     0
281
     0
  0
CLASS
  1
AEC_DISP_REP_MASS_ELEM_RCP
  2
AecDbDispRepMassElemRcp
  3
AecArchBase50|Product Desc: Autodesk Architectural Desktop 2007 |Company: Autodesk,Inc. |WEB Address: www.autodesk.com
 90
      129
280
     0
281
     0
  0
CLASS
  1
AEC_DISP_REP_MASS_GROUP_RCP
  2
AecDbDispRepMassGroupRcp
  3
AecArchBase50|Product Desc: Autodesk Architectural Desktop 2007 |Company: Autodesk,Inc. |WEB Address: www.autodesk.com
 90
      129
280
     0
281
     0
  0
CLASS
  1
AEC_DISP_REP_MVBLOCK_REF_RCP
  2
AecDbDispRepMvBlockRefRcp
  3
AecArchBase50|Product Desc: Autodesk Architectural Desktop 2007 |Company: Autodesk,Inc. |WEB Address: www.autodesk.com
 90
      129
280
     0
281
     0
  0
CLASS
  1
AEC_DISP_REP_ROOF_RCP
  2
AecDbDispRepRoofRcp
  3
AecArchBase50|Product Desc: Autodesk Architectural Desktop 2007 |Company: Autodesk,Inc. |WEB Address: www.autodesk.com
 90
      129
280
     0
281
     0
  0
CLASS
  1
AEC_DISP_REP_SPACE_BOUNDARY_DIAGRAM
  2
AecDbDispRepSpaceBoundaryDgrm
  3
AecArchBase50|Product Desc: Autodesk Architectural Desktop 2007 |Company: Autodesk,Inc. |WEB Address: www.autodesk.com
 90
    32897
280
     0
281
     0
  0
CLASS
  1
AEC_DISP_REP_SPACE_RCP
  2
AecDbDispRepSpaceRcp
  3
AecArchBase50|Product Desc: Autodesk Architectural Desktop 2007 |Company: Autodesk,Inc. |WEB Address: www.autodesk.com
 90
      129
280
     0
281
     0
  0
CLASS
  1
AEC_DISP_REP_SPACE_VOLUME
  2
AecDbDispRepSpaceVolume
  3
AecArchBase50|Product Desc: Autodesk Architectural Desktop 2007 |Company: Autodesk,Inc. |WEB Address: www.autodesk.com
 90
      129
280
     0
281
     0
  0
CLASS
  1
AEC_DISP_REP_STAIR_PLAN_OVERLAPPING
  2
AecDbDispRepStairPlanOverlapping
  3
AecArchBase50|Product Desc: Autodesk Architectural Desktop 2007 |Company: Autodesk,Inc. |WEB Address: www.autodesk.com
 90
      129
280
     0
281
     0
  0
CLASS
  1
AEC_DISP_PROPS_STAIR_PLAN_OVERLAPPING
  2
AecDbDispPropsStairPlanOverlapping
  3
AecArchBase50|Product Desc: Autodesk Architectural Desktop 2007 |Company: Autodesk,Inc. |WEB Address: www.autodesk.com
 90
      129
280
     0
281
     0
  0
CLASS
  1
AEC_DISP_REP_STAIR_RCP
  2
AecDbDispRepStairRcp
  3
AecArchBase50|Product Desc: Autodesk Architectural Desktop 2007 |Company: Autodesk,Inc. |WEB Address: www.autodesk.com
 90
      129
280
     0
281
     0
  0
CLASS
  1
AEC_DISP_REP_WALL_RCP
  2
AecDbDispRepWallRcp
  3
AecArchBase50|Product Desc: Autodesk Architectural Desktop 2007 |Company: Autodesk,Inc. |WEB Address: www.autodesk.com
 90
      129
280
     0
281
     0
  0
CLASS
  1
AEC_DISP_REP_WINDOWASSEMBLY_SILL_PLAN
  2
AecDbDispRepWindowAssemblySillPlan
  3
AecArchBase50|Product Desc: Autodesk Architectural Desktop 2007 |Company: Autodesk,Inc. |WEB Address: www.autodesk.com
 90
      129
280
     0
281
     0
  0
CLASS
  1
AEC_DISP_PROPS_WINDOW_ASSEMBLY_SILL_PLAN
  2
AecDbDispPropsWindowAssemblySillPlan
  3
AecArchBase50|Product Desc: Autodesk Architectural Desktop 2007 |Company: Autodesk,Inc. |WEB Address: www.autodesk.com
 90
      129
280
     0
281
     0
  0
CLASS
  1
AEC_DISP_REP_WINDOW_ELEV
  2
AecDbDispRepWindowElev
  3
AecArchBase50|Product Desc: Autodesk Architectural Desktop 2007 |Company: Autodesk,Inc. |WEB Address: www.autodesk.com
 90
      129
280
     0
281
     0
  0
CLASS
  1
AEC_DISP_REP_WINDOW_RCP
  2
AecDbDispRepWindowRcp
  3
AecArchBase50|Product Desc: Autodesk Architectural Desktop 2007 |Company: Autodesk,Inc. |WEB Address: www.autodesk.com
 90
      129
280
     0
281
     0
  0
CLASS
  1
AEC_DISP_REP_WINDOW_SILL_PLAN
  2
AecDbDispRepWindowSillPlan
  3
AecArchBase50|Product Desc: Autodesk Architectural Desktop 2007 |Company: Autodesk,Inc. |WEB Address: www.autodesk.com
 90
      129
280
     0
281
     0
  0
CLASS
  1
AEC_DISP_PROPS_WINDOW_SILL_PLAN
  2
AecDbDispPropsWindowSillPlan
  3
AecArchBase50|Product Desc: Autodesk Architectural Desktop 2007 |Company: Autodesk,Inc. |WEB Address: www.autodesk.com
 90
      129
280
     0
281
     0
  0
CLASS
  1
AEC_DISP_REP_ANCHOR_BUB_TO_GRID_RCP
  2
AecDbDispRepAnchorBubToGridRcp
  3
AecStructureBase50|Product Desc: Autodesk Architectural Desktop 2007 |Company: Autodesk,Inc. |WEB Address: www.autodesk.com
 90
      129
280
     0
281
     0
  0
CLASS
  1
AEC_DISP_REP_COLUMN_GRID_RCP
  2
AecDbDispRepColumnGridRcp
  3
AecStructureBase50|Product Desc: Autodesk Architectural Desktop 2007 |Company: Autodesk,Inc. |WEB Address: www.autodesk.com
 90
      129
280
     0
281
     0
  0
CLASS
  1
AECS_DISP_REP_MEMBER_ELEVATION_DESIGN
  2
AecsDbDispRepMemberElevationDesign
  3
AecStructureBase50|Product Desc: Autodesk Architectural Desktop 2007 |Company: Autodesk,Inc. |WEB Address: www.autodesk.com
 90
      129
280
     0
281
     0
  0
CLASS
  1
AECS_DISP_PROPS_MEMBER_PROJECTED
  2
AecsDbDispPropsMemberProjected
  3
AecStructureBase50|Product Desc: Autodesk Architectural Desktop 2007 |Company: Autodesk,Inc. |WEB Address: www.autodesk.com
 90
      129
280
     0
281
     0
  0
CLASS
  1
AECS_DISP_REP_MEMBER_ELEVATION_DETAIL
  2
AecsDbDispRepMemberElevationDetail
  3
AecStructureBase50|Product Desc: Autodesk Architectural Desktop 2007 |Company: Autodesk,Inc. |WEB Address: www.autodesk.com
 90
      129
280
     0
281
     0
  0
CLASS
  1
AECS_DISP_REP_MEMBER_MODEL_DETAIL
  2
AecsDbDispRepMemberModelDetail
  3
AecStructureBase50|Product Desc: Autodesk Architectural Desktop 2007 |Company: Autodesk,Inc. |WEB Address: www.autodesk.com
 90
      129
280
     0
281
     0
  0
CLASS
  1
AECS_DISP_REP_MEMBER_PLAN_DETAIL
  2
AecsDbDispRepMemberPlanDetail
  3
AecStructureBase50|Product Desc: Autodesk Architectural Desktop 2007 |Company: Autodesk,Inc. |WEB Address: www.autodesk.com
 90
      129
280
     0
281
     0
  0
CLASS
  1
AECS_DISP_REP_MEMBER_PLAN_SKETCH
  2
AecsDbDispRepMemberPlanSketch
  3
AecStructureBase50|Product Desc: Autodesk Architectural Desktop 2007 |Company: Autodesk,Inc. |WEB Address: www.autodesk.com
 90
      129
280
     0
281
     0
  0
CLASS
  1
AECS_DISP_PROPS_MEMBER_PLAN_SKETCH
  2
AecsDbDispPropsMemberPlanSketch
  3
AecStructureBase50|Product Desc: Autodesk Architectural Desktop 2007 |Company: Autodesk,Inc. |WEB Address: www.autodesk.com
 90
      129
280
     0
281
     0
  0
CLASS
  1
AEC_AECDBDISPREPAREA100
  2
AecDbDispRepArea100
  3
AecArchDACHBase50|Product Desc: Autodesk Architectural Desktop 2007 |Company: Autodesk,Inc. |WEB Address: www.autodesk.com
 90
    32897
280
     0
281
     0
  0
CLASS
  1
AEC_AECDBDISPREPAREAGROUP100
  2
AecDbDispRepAreaGroup100
  3
AecArchDACHBase50|Product Desc: Autodesk Architectural Desktop 2007 |Company: Autodesk,Inc. |WEB Address: www.autodesk.com
 90
    32897
280
     0
281
     0
  0
CLASS
  1
AEC_AECDBDISPREPBDGELEVLINEPLAN100
  2
AecDbDispRepBdgElevLinePlan100
  3
AecArchDACHBase50|Product Desc: Autodesk Architectural Desktop 2007 |Company: Autodesk,Inc. |WEB Address: www.autodesk.com
 90
      129
280
     0
281
     0
  0
CLASS
  1
AEC_AECDBDISPREPBDGSECTIONLINEPLAN100
  2
AecDbDispRepBdgSectionLinePlan100
  3
AecArchDACHBase50|Product Desc: Autodesk Architectural Desktop 2007 |Company: Autodesk,Inc. |WEB Address: www.autodesk.com
 90
      129
280
     0
281
     0
  0
CLASS
  1
AEC_AECDBDISPREPCEILINGGRIDPLAN100
  2
AecDbDispRepCeilingGridPlan100
  3
AecArchDACHBase50|Product Desc: Autodesk Architectural Desktop 2007 |Company: Autodesk,Inc. |WEB Address: www.autodesk.com
 90
      129
280
     0
281
     0
  0
CLASS
  1
AEC_AECDBDISPREPCOLUMNGRIDPLAN100
  2
AecDbDispRepColumnGridPlan100
  3
AecArchDACHBase50|Product Desc: Autodesk Architectural Desktop 2007 |Company: Autodesk,Inc. |WEB Address: www.autodesk.com
 90
      129
280
     0
281
     0
  0
CLASS
  1
AEC_AECDBDISPREPCURTAINWALLLAYOUTPLAN100
  2
AecDbDispRepCurtainWallLayoutPlan100
  3
AecArchDACHBase50|Product Desc: Autodesk Architectural Desktop 2007 |Company: Autodesk,Inc. |WEB Address: www.autodesk.com
 90
      129
280
     0
281
     0
  0
CLASS
  1
AEC_AECDBDISPREPCURTAINWALLUNITPLAN100
  2
AecDbDispRepCurtainWallUnitPlan100
  3
AecArchDACHBase50|Product Desc: Autodesk Architectural Desktop 2007 |Company: Autodesk,Inc. |WEB Address: www.autodesk.com
 90
      129
280
     0
281
     0
  0
CLASS
  1
AEC_AECDBDISPREPMVBLOCKREFPLAN100
  2
AecDbDispRepMvBlockRefPlan100
  3
AecArchDACHBase50|Product Desc: Autodesk Architectural Desktop 2007 |Company: Autodesk,Inc. |WEB Address: www.autodesk.com
 90
      129
280
     0
281
     0
  0
CLASS
  1
AEC_AECDBDISPREPROOFPLAN100
  2
AecDbDispRepRoofPlan100
  3
AecArchDACHBase50|Product Desc: Autodesk Architectural Desktop 2007 |Company: Autodesk,Inc. |WEB Address: www.autodesk.com
 90
      129
280
     0
281
     0
  0
CLASS
  1
AEC_AECDBDISPREPROOFSLABPLAN100
  2
AecDbDispRepRoofSlabPlan100
  3
AecArchDACHBase50|Product Desc: Autodesk Architectural Desktop 2007 |Company: Autodesk,Inc. |WEB Address: www.autodesk.com
 90
      129
280
     0
281
     0
  0
CLASS
  1
AEC_AECDBDISPREPSLABPLAN100
  2
AecDbDispRepSlabPlan100
  3
AecArchDACHBase50|Product Desc: Autodesk Architectural Desktop 2007 |Company: Autodesk,Inc. |WEB Address: www.autodesk.com
 90
      129
280
     0
281
     0
  0
CLASS
  1
AEC_AECDBDISPREPSPACEBOUNDARYPLAN100
  2
AecDbDispRepSpaceBoundaryPlan100
  3
AecArchDACHBase50|Product Desc: Autodesk Architectural Desktop 2007 |Company: Autodesk,Inc. |WEB Address: www.autodesk.com
 90
    32897
280
     0
281
     0
  0
CLASS
  1
AEC_AECDBDISPREPSPACEPLAN100
  2
AecDbDispRepSpacePlan100
  3
AecArchDACHBase50|Product Desc: Autodesk Architectural Desktop 2007 |Company: Autodesk,Inc. |WEB Address: www.autodesk.com
 90
      129
280
     0
281
     0
  0
CLASS
  1
AEC_AECDBDISPREPWALLPLAN100
  2
AecDbDispRepWallPlan100
  3
AecArchDACHBase50|Product Desc: Autodesk Architectural Desktop 2007 |Company: Autodesk,Inc. |WEB Address: www.autodesk.com
 90
      129
280
     0
281
     0
  0
CLASS
  1
AEC_AECDBDISPREPAREA50
  2
AecDbDispRepArea50
  3
AecArchDACHBase50|Product Desc: Autodesk Architectural Desktop 2007 |Company: Autodesk,Inc. |WEB Address: www.autodesk.com
 90
    32897
280
     0
281
     0
  0
CLASS
  1
AEC_AECDBDISPREPAREAGROUP50
  2
AecDbDispRepAreaGroup50
  3
AecArchDACHBase50|Product Desc: Autodesk Architectural Desktop 2007 |Company: Autodesk,Inc. |WEB Address: www.autodesk.com
 90
    32897
280
     0
281
     0
  0
CLASS
  1
AEC_AECDBDISPREPBDGELEVLINEPLAN50
  2
AecDbDispRepBdgElevLinePlan50
  3
AecArchDACHBase50|Product Desc: Autodesk Architectural Desktop 2007 |Company: Autodesk,Inc. |WEB Address: www.autodesk.com
 90
      129
280
     0
281
     0
  0
CLASS
  1
AEC_AECDBDISPREPBDGSECTIONLINEPLAN50
  2
AecDbDispRepBdgSectionLinePlan50
  3
AecArchDACHBase50|Product Desc: Autodesk Architectural Desktop 2007 |Company: Autodesk,Inc. |WEB Address: www.autodesk.com
 90
      129
280
     0
281
     0
  0
CLASS
  1
AEC_AECDBDISPREPCEILINGGRIDPLAN50
  2
AecDbDispRepCeilingGridPlan50
  3
AecArchDACHBase50|Product Desc: Autodesk Architectural Desktop 2007 |Company: Autodesk,Inc. |WEB Address: www.autodesk.com
 90
      129
280
     0
281
     0
  0
CLASS
  1
AEC_AECDBDISPREPCOLUMNGRIDPLAN50
  2
AecDbDispRepColumnGridPlan50
  3
AecArchDACHBase50|Product Desc: Autodesk Architectural Desktop 2007 |Company: Autodesk,Inc. |WEB Address: www.autodesk.com
 90
      129
280
     0
281
     0
  0
CLASS
  1
AEC_AECDBDISPREPCURTAINWALLLAYOUTPLAN50
  2
AecDbDispRepCurtainWallLayoutPlan50
  3
AecArchDACHBase50|Product Desc: Autodesk Architectural Desktop 2007 |Company: Autodesk,Inc. |WEB Address: www.autodesk.com
 90
      129
280
     0
281
     0
  0
CLASS
  1
AEC_AECDBDISPREPCURTAINWALLUNITPLAN50
  2
AecDbDispRepCurtainWallUnitPlan50
  3
AecArchDACHBase50|Product Desc: Autodesk Architectural Desktop 2007 |Company: Autodesk,Inc. |WEB Address: www.autodesk.com
 90
      129
280
     0
281
     0
  0
CLASS
  1
AEC_AECDBDISPREPMVBLOCKREFPLAN50
  2
AecDbDispRepMvBlockRefPlan50
  3
AecArchDACHBase50|Product Desc: Autodesk Architectural Desktop 2007 |Company: Autodesk,Inc. |WEB Address: www.autodesk.com
 90
      129
280
     0
281
     0
  0
CLASS
  1
AEC_AECDBDISPREPROOFPLAN50
  2
AecDbDispRepRoofPlan50
  3
AecArchDACHBase50|Product Desc: Autodesk Architectural Desktop 2007 |Company: Autodesk,Inc. |WEB Address: www.autodesk.com
 90
      129
280
     0
281
     0
  0
CLASS
  1
AEC_AECDBDISPREPROOFSLABPLAN50
  2
AecDbDispRepRoofSlabPlan50
  3
AecArchDACHBase50|Product Desc: Autodesk Architectural Desktop 2007 |Company: Autodesk,Inc. |WEB Address: www.autodesk.com
 90
      129
280
     0
281
     0
  0
CLASS
  1
AEC_AECDBDISPREPSLABPLAN50
  2
AecDbDispRepSlabPlan50
  3
AecArchDACHBase50|Product Desc: Autodesk Architectural Desktop 2007 |Company: Autodesk,Inc. |WEB Address: www.autodesk.com
 90
      129
280
     0
281
     0
  0
CLASS
  1
AEC_AECDBDISPREPSPACEBOUNDARYPLAN50
  2
AecDbDispRepSpaceBoundaryPlan50
  3
AecArchDACHBase50|Product Desc: Autodesk Architectural Desktop 2007 |Company: Autodesk,Inc. |WEB Address: www.autodesk.com
 90
    32897
280
     0
281
     0
  0
CLASS
  1
AEC_AECDBDISPREPSPACEPLAN50
  2
AecDbDispRepSpacePlan50
  3
AecArchDACHBase50|Product Desc: Autodesk Architectural Desktop 2007 |Company: Autodesk,Inc. |WEB Address: www.autodesk.com
 90
      129
280
     0
281
     0
  0
CLASS
  1
AEC_AECDBDISPREPWALLPLAN50
  2
AecDbDispRepWallPlan50
  3
AecArchDACHBase50|Product Desc: Autodesk Architectural Desktop 2007 |Company: Autodesk,Inc. |WEB Address: www.autodesk.com
 90
      129
280
     0
281
     0
  0
CLASS
  1
AEC_AECDBDISPREPWINDOWASSEMBLYPLAN50
  2
AecDbDispRepWindowAssemblyPlan50
  3
AecArchDACHBase50|Product Desc: Autodesk Architectural Desktop 2007 |Company: Autodesk,Inc. |WEB Address: www.autodesk.com
 90
      129
280
     0
281
     0
  0
CLASS
  1
AEC_DB_DISP_REP_DIM_GROUP_PLAN100
  2
AecDbDispRepDimGroupPlan100
  3
AecArchDACHBase50|Product Desc: Autodesk Architectural Desktop 2007 |Company: Autodesk,Inc. |WEB Address: www.autodesk.com
 90
      129
280
     0
281
     0
  0
CLASS
  1
AEC_DB_DISP_REP_DIM_GROUP_PLAN50
  2
AecDbDispRepDimGroupPlan50
  3
AecArchDACHBase50|Product Desc: Autodesk Architectural Desktop 2007 |Company: Autodesk,Inc. |WEB Address: www.autodesk.com
 90
      129
280
     0
281
     0
  0
CLASS
  1
AEC_DISP_REP_DOOR_PLAN_50
  2
AecDbDispRepDoorPlan50
  3
AecArchDACHBase50|Product Desc: Autodesk Architectural Desktop 2007 |Company: Autodesk,Inc. |WEB Address: www.autodesk.com
 90
      129
280
     0
281
     0
  0
CLASS
  1
AEC_DISP_PROPS_DOOR_PLAN_50
  2
AecDbDispPropsDoorPlan50
  3
AecArchDACHBase50|Product Desc: Autodesk Architectural Desktop 2007 |Company: Autodesk,Inc. |WEB Address: www.autodesk.com
 90
      129
280
     0
281
     0
  0
CLASS
  1
AEC_DISP_REP_DOOR_PLAN_HEKTO
  2
AecDbDispRepDoorPlanHekto
  3
AecArchDACHBase50|Product Desc: Autodesk Architectural Desktop 2007 |Company: Autodesk,Inc. |WEB Address: www.autodesk.com
 90
      129
280
     0
281
     0
  0
CLASS
  1
AEC_DISP_PROPS_DOOR_PLAN_100
  2
AecDbDispPropsDoorPlan100
  3
AecArchDACHBase50|Product Desc: Autodesk Architectural Desktop 2007 |Company: Autodesk,Inc. |WEB Address: www.autodesk.com
 90
      129
280
     0
281
     0
  0
CLASS
  1
AEC_DISP_REP_DOOR_THRESHOLD_SYMBOL_PLAN
  2
AecDbDispRepDoorThresholdSymbolPlan
  3
AecArchDACHBase50|Product Desc: Autodesk Architectural Desktop 2007 |Company: Autodesk,Inc. |WEB Address: www.autodesk.com
 90
      129
280
     0
281
     0
  0
CLASS
  1
AEC_DISP_PROPS_DOOR_THRESHOLD_SYMBOL_PLAN
  2
AecDbDispPropsDoorThresholdSymbolPlan
  3
AecArchDACHBase50|Product Desc: Autodesk Architectural Desktop 2007 |Company: Autodesk,Inc. |WEB Address: www.autodesk.com
 90
      129
280
     0
281
     0
  0
CLASS
  1
AEC_DISPREPAECDBDISPREPMASSELEMPLAN100
  2
AecDbDispRepMassElemPlan100
  3
AecArchDACHBase50|Product Desc: Autodesk Architectural Desktop 2007 |Company: Autodesk,Inc. |WEB Address: www.autodesk.com
 90
      129
280
     0
281
     0
  0
CLASS
  1
AEC_DISPROPSMASSELEMPLANCOMMON
  2
AecDbDispPropsMassElemPlanCommon
  3
AecArchDACHBase50|Product Desc: Autodesk Architectural Desktop 2007 |Company: Autodesk,Inc. |WEB Address: www.autodesk.com
 90
      129
280
     0
281
     0
  0
CLASS
  1
AEC_DISPREPAECDBDISPREPMASSELEMPLAN50
  2
AecDbDispRepMassElemPlan50
  3
AecArchDACHBase50|Product Desc: Autodesk Architectural Desktop 2007 |Company: Autodesk,Inc. |WEB Address: www.autodesk.com
 90
      129
280
     0
281
     0
  0
CLASS
  1
AEC_DISPREPAECDBDISPREPMASSGROUPPLAN100
  2
AecDbDispRepMassGroupPlan100
  3
AecArchDACHBase50|Product Desc: Autodesk Architectural Desktop 2007 |Company: Autodesk,Inc. |WEB Address: www.autodesk.com
 90
      129
280
     0
281
     0
  0
CLASS
  1
AEC_DISPROPSMASSGROUPPLANCOMMON
  2
AecDbDispPropsMassGroupPlanCommon
  3
AecArchDACHBase50|Product Desc: Autodesk Architectural Desktop 2007 |Company: Autodesk,Inc. |WEB Address: www.autodesk.com
 90
      129
280
     0
281
     0
  0
CLASS
  1
AEC_DISPREPAECDBDISPREPMASSGROUPPLAN50
  2
AecDbDispRepMassGroupPlan50
  3
AecArchDACHBase50|Product Desc: Autodesk Architectural Desktop 2007 |Company: Autodesk,Inc. |WEB Address: www.autodesk.com
 90
      129
280
     0
281
     0
  0
CLASS
  1
AEC_DISPREPAECDBDISPREPOPENINGPLAN100
  2
AecDbDispRepOpeningPlan100
  3
AecArchDACHBase50|Product Desc: Autodesk Architectural Desktop 2007 |Company: Autodesk,Inc. |WEB Address: www.autodesk.com
 90
      129
280
     0
281
     0
  0
CLASS
  1
AEC_DISPROPSOPENINGPLANCOMMONHATCHED
  2
AecDbDispPropsOpeningPlanCommonHatched
  3
AecArchDACHBase50|Product Desc: Autodesk Architectural Desktop 2007 |Company: Autodesk,Inc. |WEB Address: www.autodesk.com
 90
      129
280
     0
281
     0
  0
CLASS
  1
AEC_DISPREPAECDBDISPREPOPENINGPLAN50
  2
AecDbDispRepOpeningPlan50
  3
AecArchDACHBase50|Product Desc: Autodesk Architectural Desktop 2007 |Company: Autodesk,Inc. |WEB Address: www.autodesk.com
 90
      129
280
     0
281
     0
  0
CLASS
  1
AEC_DISPREPAECDBDISPREPOPENINGPLANREFLECTED
  2
AecDbDispRepOpeningPlanReflected
  3
AecArchDACHBase50|Product Desc: Autodesk Architectural Desktop 2007 |Company: Autodesk,Inc. |WEB Address: www.autodesk.com
 90
      129
280
     0
281
     0
  0
CLASS
  1
AEC_DISPROPSOPENINGPLANCOMMON
  2
AecDbDispPropsOpeningPlanCommon
  3
AecArchDACHBase50|Product Desc: Autodesk Architectural Desktop 2007 |Company: Autodesk,Inc. |WEB Address: www.autodesk.com
 90
      129
280
     0
281
     0
  0
CLASS
  1
AEC_DISPREPAECDBDISPREPOPENINGSILLPLAN
  2
AecDbDispRepOpeningSillPlan
  3
AecArchDACHBase50|Product Desc: Autodesk Architectural Desktop 2007 |Company: Autodesk,Inc. |WEB Address: www.autodesk.com
 90
      129
280
     0
281
     0
  0
CLASS
  1
AEC_DISPROPSOPENINGSILLPLAN
  2
AecDbDispPropsOpeningSillPlan
  3
AecArchDACHBase50|Product Desc: Autodesk Architectural Desktop 2007 |Company: Autodesk,Inc. |WEB Address: www.autodesk.com
 90
      129
280
     0
281
     0
  0
CLASS
  1
AEC_DISP_REP_RAILING_PLAN_100
  2
AecDbDispRepRailingPlan100
  3
AecArchDACHBase50|Product Desc: Autodesk Architectural Desktop 2007 |Company: Autodesk,Inc. |WEB Address: www.autodesk.com
 90
      129
280
     0
281
     0
  0
CLASS
  1
AEC_DISP_ROPS_RAILING_PLAN_100
  2
AecDbDispPropsRailingPlan100
  3
AecArchDACHBase50|Product Desc: Autodesk Architectural Desktop 2007 |Company: Autodesk,Inc. |WEB Address: www.autodesk.com
 90
      129
280
     0
281
     0
  0
CLASS
  1
AEC_DISP_REP_RAILING_PLAN_50
  2
AecDbDispRepRailingPlan50
  3
AecArchDACHBase50|Product Desc: Autodesk Architectural Desktop 2007 |Company: Autodesk,Inc. |WEB Address: www.autodesk.com
 90
      129
280
     0
281
     0
  0
CLASS
  1
AEC_DISP_ROPS_RAILING_PLAN_50
  2
AecDbDispPropsRailingPlan50
  3
AecArchDACHBase50|Product Desc: Autodesk Architectural Desktop 2007 |Company: Autodesk,Inc. |WEB Address: www.autodesk.com
 90
      129
280
     0
281
     0
  0
CLASS
  1
AEC_DISP_REP_STAIR_PLAN_100
  2
AecDbDispRepStairPlan100
  3
AecArchDACHBase50|Product Desc: Autodesk Architectural Desktop 2007 |Company: Autodesk,Inc. |WEB Address: www.autodesk.com
 90
      129
280
     0
281
     0
  0
CLASS
  1
AEC_DISP_ROPS_STAIR_PLAN_100
  2
AecDbDispPropsStairPlan100
  3
AecArchDACHBase50|Product Desc: Autodesk Architectural Desktop 2007 |Company: Autodesk,Inc. |WEB Address: www.autodesk.com
 90
      129
280
     0
281
     0
  0
CLASS
  1
AEC_DISP_REP_STAIR_PLAN_50
  2
AecDbDispRepStairPlan50
  3
AecArchDACHBase50|Product Desc: Autodesk Architectural Desktop 2007 |Company: Autodesk,Inc. |WEB Address: www.autodesk.com
 90
      129
280
     0
281
     0
  0
CLASS
  1
AEC_DISP_ROPS_STAIR_PLAN_50
  2
AecDbDispPropsStairPlan50
  3
AecArchDACHBase50|Product Desc: Autodesk Architectural Desktop 2007 |Company: Autodesk,Inc. |WEB Address: www.autodesk.com
 90
      129
280
     0
281
     0
  0
CLASS
  1
AEC_DISP_REP_WINDOW_PLAN_100
  2
AecDbDispRepWindowPlan100
  3
AecArchDACHBase50|Product Desc: Autodesk Architectural Desktop 2007 |Company: Autodesk,Inc. |WEB Address: www.autodesk.com
 90
      129
280
     0
281
     0
  0
CLASS
  1
AEC_DISP_PROPS_WINDOW_PLAN_100
  2
AecDbDispPropsWindowPlan100
  3
AecArchDACHBase50|Product Desc: Autodesk Architectural Desktop 2007 |Company: Autodesk,Inc. |WEB Address: www.autodesk.com
 90
      129
280
     0
281
     0
  0
CLASS
  1
AEC_DISP_REP_WINDOW_PLAN_50
  2
AecDbDispRepWindowPlan50
  3
AecArchDACHBase50|Product Desc: Autodesk Architectural Desktop 2007 |Company: Autodesk,Inc. |WEB Address: www.autodesk.com
 90
      129
280
     0
281
     0
  0
CLASS
  1
AEC_DISP_PROPS_WINDOW_PLAN_50
  2
AecDbDispPropsWindowPlan50
  3
AecArchDACHBase50|Product Desc: Autodesk Architectural Desktop 2007 |Company: Autodesk,Inc. |WEB Address: www.autodesk.com
 90
      129
280
     0
281
     0
  0
CLASS
  1
BINRECORD
  2
AcAecBinRecord
  3
AecBase50|Product Desc: Autodesk Architectural Desktop 2007 |Company: Autodesk,Inc. |WEB Address: www.autodesk.com
 90
      129
280
     0
281
     0
  0
CLASS
  1
SPATIAL_FILTER
  2
AcDbSpatialFilter
  3
ObjectDBX Classes
 90
    32768
280
     0
281
     0
  0
CLASS
  1
AEC_VARS_STRUCTUREBASE
  2
AecsDbVarsStructureBase
  3
AecStructureBase50|Product Desc: Autodesk Architectural Desktop 2007 |Company: Autodesk,Inc. |WEB Address: www.autodesk.com
 90
      129
280
     0
281
     0
  0
CLASS
  1
DIMASSOC
  2
AcDbDimAssoc
  3
"AcDbDimAssoc|Product Desc:     AcDim ARX App For Dimension|Company:          Autodesk, Inc.|WEB Address:      www.autodesk.com"
 90
    32768
280
     0
281
     0
  0
CLASS
  1
TABLESTYLE
  2
AcDbTableStyle
  3
ObjectDBX Classes
 90
     4095
280
     0
281
     0
  0
CLASS
  1
MATERIAL
  2
AcDbMaterial
  3
ObjectDBX Classes
 90
     1153
280
     0
281
     0
  0
CLASS
  1
VISUALSTYLE
  2
AcDbVisualStyle
  3
ObjectDBX Classes
 90
     4095
280
     0
281
     0
  0
CLASS
  1
EXACXREFPANELOBJECT
  2
ExAcXREFPanelObject
  3
EXAC_ESW
 90
    33793
280
     0
281
     0
  0
CLASS
  1
NPOCOLLECTION
  2
AcDbImpNonPersistentObjectsCollection
  3
ObjectDBX Classes
 90
     1153
280
     0
281
     0
  0
CLASS
  1
AEC_AECDBDISPREPZONE100
  2
AecDbDispRepZonePlan100
  3
AecArchDACHBase50|Product Desc: Autodesk Architectural Desktop 2007 |Company: Autodesk,Inc. |WEB Address: www.autodesk.com
 90
      129
280
     0
281
     0
  0
CLASS
  1
AEC_DISP_PROPS_ZONE
  2
AecDbDispPropsZone
  3
AecArchBase50|Product Desc: Autodesk Architectural Desktop 2007 |Company: Autodesk,Inc. |WEB Address: www.autodesk.com
 90
      129
280
     0
281
     0
  0
CLASS
  1
AEC_AECDBDISPREPZONE50
  2
AecDbDispRepZonePlan50
  3
AecArchDACHBase50|Product Desc: Autodesk Architectural Desktop 2007 |Company: Autodesk,Inc. |WEB Address: www.autodesk.com
 90
      129
280
     0
281
     0
  0
CLASS
  1
AEC_DISP_REP_DISPLAYTHEME
  2
AecDbDispRepDisplayTheme
  3
AecBase50|Product Desc: Autodesk Architectural Desktop 2007 |Company: Autodesk,Inc. |WEB Address: www.autodesk.com
 90
      129
280
     0
281
     0
  0
CLASS
  1
AEC_DISP_PROPS_DISPLAYTHEME
  2
AecDbDispPropsDisplayTheme
  3
AecBase50|Product Desc: Autodesk Architectural Desktop 2007 |Company: Autodesk,Inc. |WEB Address: www.autodesk.com
 90
      129
280
     0
281
     0
  0
CLASS
  1
AEC_DISP_REP_ANCHOR_EXT_TAG_TO_ENT
  2
AecDbDispRepAnchorExtendedTagToEnt
  3
AecScheduleData50|Product Desc: Autodesk Architectural Desktop 2007 |Company: Autodesk,Inc. |WEB Address: www.autodesk.com
 90
      129
280
     0
281
     0
  0
CLASS
  1
AEC_DISP_REP_SPACE_DECOMPOSED
  2
AecDbDispRepSpaceDecomposed
  3
AecArchBase50|Product Desc: Autodesk Architectural Desktop 2007 |Company: Autodesk,Inc. |WEB Address: www.autodesk.com
 90
      129
280
     0
281
     0
  0
CLASS
  1
AEC_DISP_PROPS_SPACE_DECOMPOSED
  2
AecDbDispPropsSpaceDecomposed
  3
AecArchBase50|Product Desc: Autodesk Architectural Desktop 2007 |Company: Autodesk,Inc. |WEB Address: www.autodesk.com
 90
      129
280
     0
281
     0
  0
CLASS
  1
AEC_DISP_REP_ZONE
  2
AecDbDispRepZone
  3
AecArchBase50|Product Desc: Autodesk Architectural Desktop 2007 |Company: Autodesk,Inc. |WEB Address: www.autodesk.com
 90
      129
280
     0
281
     0
  0
CLASS
  1
ACAD_EVALUATION_GRAPH
  2
AcDbEvalGraph
  3
ObjectDBX Classes
 90
     1153
280
     0
281
     0
  0
CLASS
  1
BLOCKFLIPPARAMETER
  2
AcDbBlockFlipParameter
  3
ObjectDBX Classes
 90
    33921
280
     0
281
     0
  0
CLASS
  1
BLOCKFLIPGRIP
  2
AcDbBlockFlipGrip
  3
ObjectDBX Classes
 90
    33921
280
     0
281
     0
  0
CLASS
  1
BLOCKGRIPLOCATIONCOMPONENT
  2
AcDbBlockGripExpr
  3
ObjectDBX Classes
 90
     1153
280
     0
281
     0
  0
CLASS
  1
BLOCKFLIPACTION
  2
AcDbBlockFlipAction
  3
ObjectDBX Classes
 90
    33921
280
     0
281
     0
  0
CLASS
  1
BLOCKROTATIONPARAMETER
  2
AcDbBlockRotationParameter
  3
ObjectDBX Classes
 90
    33921
280
     0
281
     0
  0
CLASS
  1
BLOCKROTATIONGRIP
  2
AcDbBlockRotationGrip
  3
ObjectDBX Classes
 90
    33921
280
     0
281
     0
  0
CLASS
  1
BLOCKROTATEACTION
  2
AcDbBlockRotateAction
  3
ObjectDBX Classes
 90
    33921
280
     0
281
     0
  0
CLASS
  1
BLOCKBASEPOINTPARAMETER
  2
AcDbBlockBasepointParameter
  3
ObjectDBX Classes
 90
     1153
280
     0
281
     0
  0
CLASS
  1
ACDB_DYNAMICBLOCKPURGEPREVENTER_VERSION
  2
AcDbDynamicBlockPurgePreventer
  3
ObjectDBX Classes
 90
     1153
280
     0
281
     0
  0
CLASS
  1
ACDB_BLOCKREPRESENTATION_DATA
  2
AcDbBlockRepresentationData
  3
ObjectDBX Classes
 90
    33921
280
     0
281
     0
  0
CLASS
  1
AEC_SPACE
  2
AecDbSpace
  3
AecArchBase50|Product Desc: Autodesk Architectural Desktop 2007 |Company: Autodesk,Inc. |WEB Address: www.autodesk.com
 90
      893
280
     0
281
     1
  0
CLASS
  1
AecDbPropertySet
  2
AecDbPropertySet
  3
AecScheduleData50|Product Desc: Autodesk Architectural Desktop 2007 |Company: Autodesk,Inc. |WEB Address: www.autodesk.com
 90
      129
280
     0
281
     0
  0
CLASS
  1
AEC_SCHEDULE_TABLE
  2
AecDbScheduleTable
  3
AecSchedule50|Product Desc: Autodesk Architectural Desktop 2007 |Company: Autodesk,Inc. |WEB Address: www.autodesk.com
 90
    33661
280
     0
281
     1
  0
CLASS
  1
AEC_CLEANUP_GROUP_DEF
  2
AecDbCleanupGroupDef
  3
AecArchBase50|Product Desc: Autodesk Architectural Desktop 2007 |Company: Autodesk,Inc. |WEB Address: www.autodesk.com
 90
      129
280
     0
281
     0
  0
CLASS
  1
AEC_ENDCAP_STYLE
  2
AecDbEndcapStyle
  3
AecArchBase50|Product Desc: Autodesk Architectural Desktop 2007 |Company: Autodesk,Inc. |WEB Address: www.autodesk.com
 90
      129
280
     0
281
     0
  0
CLASS
  1
AEC_LIST_DEF
  2
AecDbListDefinition
  3
AecBase50|Product Desc: Autodesk Architectural Desktop 2007 |Company: Autodesk,Inc. |WEB Address: www.autodesk.com
 90
      129
280
     0
281
     0
  0
CLASS
  1
AEC_LIST_DEF
  2
AecDbListItem
  3
AecBase50|Product Desc: Autodesk Architectural Desktop 2007 |Company: Autodesk,Inc. |WEB Address: www.autodesk.com
 90
      129
280
     0
281
     0
  0
CLASS
  1
AEC_MATERIAL_DEF
  2
AecDbMaterialDef
  3
AecBase50|Product Desc: Autodesk Architectural Desktop 2007 |Company: Autodesk,Inc. |WEB Address: www.autodesk.com
 90
      129
280
     0
281
     0
  0
CLASS
  1
AEC_FRAME_DEF
  2
AecDbOpeningEndcapStyle
  3
AecArchBase50|Product Desc: Autodesk Architectural Desktop 2007 |Company: Autodesk,Inc. |WEB Address: www.autodesk.com
 90
      129
280
     0
281
     0
  0
CLASS
  1
AEC_SCHEDULE_DATA_FORMAT
  2
AecDbScheduleDataFormat
  3
AecScheduleData50|Product Desc: Autodesk Architectural Desktop 2007 |Company: Autodesk,Inc. |WEB Address: www.autodesk.com
 90
      129
280
     0
281
     0
  0
CLASS
  1
AEC_PROPERTY_SET_DEF
  2
AecDbPropertySetDef
  3
AecScheduleData50|Product Desc: Autodesk Architectural Desktop 2007 |Company: Autodesk,Inc. |WEB Address: www.autodesk.com
 90
      129
280
     0
281
     0
  0
CLASS
  1
AEC_ROOFSLAB_STYLE
  2
AecDbRoofSlabStyle
  3
AecArchBase50|Product Desc: Autodesk Architectural Desktop 2007 |Company: Autodesk,Inc. |WEB Address: www.autodesk.com
 90
      129
280
     0
281
     0
  0
CLASS
  1
AEC_ROOFSLABEDGE_STYLE
  2
AecDbRoofSlabEdgeStyle
  3
AecArchBase50|Product Desc: Autodesk Architectural Desktop 2007 |Company: Autodesk,Inc. |WEB Address: www.autodesk.com
 90
      129
280
     0
281
     0
  0
CLASS
  1
AEC_SCHEDULE_TABLE_STYLE
  2
AecDbScheduleTableStyle
  3
AecSchedule50|Product Desc: Autodesk Architectural Desktop 2007 |Company: Autodesk,Inc. |WEB Address: www.autodesk.com
 90
      129
280
     0
281
     0
  0
CLASS
  1
AEC_SLAB_STYLE
  2
AecDbSlabStyle
  3
AecArchBase50|Product Desc: Autodesk Architectural Desktop 2007 |Company: Autodesk,Inc. |WEB Address: www.autodesk.com
 90
      129
280
     0
281
     0
  0
CLASS
  1
AEC_SLABEDGE_STYLE
  2
AecDbSlabEdgeStyle
  3
AecArchBase50|Product Desc: Autodesk Architectural Desktop 2007 |Company: Autodesk,Inc. |WEB Address: www.autodesk.com
 90
      129
280
     0
281
     0
  0
CLASS
  1
AEC_SPACE_STYLES
  2
AecDbSpaceStyle
  3
AecArchBase50|Product Desc: Autodesk Architectural Desktop 2007 |Company: Autodesk,Inc. |WEB Address: www.autodesk.com
 90
      129
280
     0
281
     0
  0
CLASS
  1
AEC_WALL_STYLE
  2
AecDbWallStyle
  3
AecArchBase50|Product Desc: Autodesk Architectural Desktop 2007 |Company: Autodesk,Inc. |WEB Address: www.autodesk.com
 90
      129
280
     0
281
     0
  0
CLASS
  1
BLOCKXYPARAMETER
  2
AcDbBlockXYParameter
  3
ObjectDBX Classes
 90
     1153
280
     0
281
     0
  0
CLASS
  1
BLOCKLINEARPARAMETER
  2
AcDbBlockLinearParameter
  3
ObjectDBX Classes
 90
     1153
280
     0
281
     0
  0
CLASS
  1
BLOCKSCALEACTION
  2
AcDbBlockScaleAction
  3
ObjectDBX Classes
 90
     1153
280
     0
281
     0
  0
CLASS
  1
BLOCKMOVEACTION
  2
AcDbBlockMoveAction
  3
ObjectDBX Classes
 90
     1153
280
     0
281
     0
  0
CLASS
  1
BLOCKSTRETCHACTION
  2
AcDbBlockStretchAction
  3
ObjectDBX Classes
 90
     1153
280
     0
281
     0
  0
CLASS
  1
BLOCKLOOKUPPARAMETER
  2
AcDbBlockLookupParameter
  3
ObjectDBX Classes
 90
     1153
280
     0
281
     0
  0
CLASS
  1
BLOCKLOOKUPGRIP
  2
AcDbBlockLookupGrip
  3
ObjectDBX Classes
 90
     1153
280
     0
281
     0
  0
CLASS
  1
BLOCKLOOKUPACTION
  2
AcDbBlockLookupAction
  3
ObjectDBX Classes
 90
     1153
280
     0
281
     0
  0
CLASS
  1
BLOCKVISIBILITYPARAMETER
  2
AcDbBlockVisibilityParameter
  3
ObjectDBX Classes
 90
     1153
280
     0
281
     0
  0
CLASS
  1
BLOCKVISIBILITYGRIP
  2
AcDbBlockVisibilityGrip
  3
ObjectDBX Classes
 90
     1153
280
     0
281
     0
  0
CLASS
  1
SCALE
  2
AcDbScale
  3
ObjectDBX Classes
 90
     1153
280
     0
281
     0
  0
CLASS
  1
MLEADERSTYLE
  2
AcDbMLeaderStyle
  3
ACDB_MLEADERSTYLE_CLASS
 90
     4095
280
     0
281
     0
  0
CLASS
  1
CELLSTYLEMAP
  2
AcDbCellStyleMap
  3
ObjectDBX Classes
 90
     1152
280
     0
281
     0
  0
CLASS
  1
OBJECT_PTR
  2
CAseDLPNTableRecord
  3
ASE-LPNTableRecord
 90
        1
280
     0
281
     0
  0
CLASS
  1
AEC_REFEDIT_STATUS_TRACKER
  2
AecDbRefEditStatusTracker
  3
AecArchBase50|Product Desc: Autodesk Architectural Desktop 2007 |Company: Autodesk,Inc. |WEB Address: www.autodesk.com
 90
      129
280
     0
281
     0
  0
ENDSEC
  0
SECTION
  2
TABLES
  0
TABLE
  2
VPORT
  5
1C
330
0
100
AcDbSymbolTable
 70
     1
  0
VPORT
  5
1728
330
1C
100
AcDbSymbolTableRecord
100
AcDbViewportTableRecord
  2
*Active
 70
     0
 10
0.0
 20
0.0
 11
1.0
 21
1.0
 12
219559.9918622812
 22
132751.3519801042
 13
0.0
 23
0.0
 14
10.0
 24
10.0
 15
10.0
 25
10.0
 16
0.0
 26
0.0
 36
1.0
 17
0.0
 27
0.0
 37
0.0
 40
12522.65712225354
 41
2.246612466124661
 42
50.0
 43
0.0
 44
0.0
 50
0.0
 51
0.0
 71
     0
 72
  1000
 73
     1
 74
     1
 75
     0
 76
     0
 77
     0
 78
     0
281
     0
 65
     1
110
0.0
120
0.0
130
0.0
111
1.0
121
0.0
131
0.0
112
0.0
122
1.0
132
0.0
 79
     0
146
0.0
  0
ENDTAB
  0
TABLE
  2
LTYPE
  5
17
330
0
100
AcDbSymbolTable
 70
    10
  0
LTYPE
  5
18
330
17
100
AcDbSymbolTableRecord
100
AcDbLinetypeTableRecord
  2
ByBlock
 70
     0
  3

 72
    65
 73
     0
 40
0.0
  0
LTYPE
  5
19
330
17
100
AcDbSymbolTableRecord
100
AcDbLinetypeTableRecord
  2
ByLayer
 70
     0
  3

 72
    65
 73
     0
 40
0.0
  0
LTYPE
  5
8
330
17
100
AcDbSymbolTableRecord
100
AcDbLinetypeTableRecord
  2
Continuous
 70
     0
  3
Solid line
 72
    65
 73
     0
 40
0.0
  0
LTYPE
  5
158
330
17
100
AcDbSymbolTableRecord
100
AcDbLinetypeTableRecord
  2
HIDDEN
 70
     0
  3
Hidden __ __ __ __ __ __ __ __ __ __ __ __ __ _
 72
    65
 73
     2
 40
0.375
 49
0.25
 74
     0
 49
-0.125
 74
     0
  0
ENDTAB
  0
TABLE
  2
LAYER
  5
11
102
{ACAD_XDICTIONARY
360
12
102
}
330
0
100
AcDbSymbolTable
 70
    50
  0
LAYER
  5
4
102
{ACAD_XDICTIONARY
360
16AD7
102
}
330
11
100
AcDbSymbolTableRecord
100
AcDbLayerTableRecord
  2
0
 70
     0
 62
     7
  6
Continuous
370
    -3
390
5
1001
RAK
1000
{ACET-LAYISO
1070
     0
1070
     7
1000
Continuous
1071
       -3
1071
        1
1005
5
1000
ACET-LAYISO}
  0
LAYER
  5
65
330
11
100
AcDbSymbolTableRecord
100
AcDbLayerTableRecord
  2
DEFPOINTS
 70
     0
 62
     7
  6
Continuous
290
     0
370
    -3
390
5
1001
RAK
1000
{ACET-LAYISO
1070
     0
1070
     7
1000
Continuous
1071
       -3
1071
        0
1005
5
1000
ACET-LAYISO}
  0
LAYER
  5
15E
102
{ACAD_XDICTIONARY
360
16AD9
102
}
330
11
100
AcDbSymbolTableRecord
100
AcDbLayerTableRecord
  2
RAMKI-A4
 70
     0
 62
     2
  6
Continuous
290
     0
370
    -3
390
5
1001
RAK
1000
{ACET-LAYISO
1070
     0
1070
     2
1000
Continuous
1071
       -3
1071
        0
1005
5
1000
ACET-LAYISO}
  0
LAYER
  5
143
102
{ACAD_XDICTIONARY
360
16ADD
102
}
330
11
100
AcDbSymbolTableRecord
100
AcDbLayerTableRecord
  2
NAPISY
 70
     0
 62
   140
  6
Continuous
370
    -3
390
5
1001
RAK
1000
{ACET-LAYISO
1070
     0
1070
   140
1000
Continuous
1071
       -3
1071
        1
1005
5
1000
ACET-LAYISO}
  0
LAYER
  5
202C
102
{ACAD_XDICTIONARY
360
16AE1
102
}
330
11
100
AcDbSymbolTableRecord
100
AcDbLayerTableRecord
  2
0Hatch
 70
     0
 62
   122
  6
Continuous
370
     5
390
5
  0
LAYER
  5
2081
102
{ACAD_XDICTIONARY
360
16AE3
102
}
330
11
100
AcDbSymbolTableRecord
100
AcDbLayerTableRecord
  2
0Wymiary-PL
 70
     0
 62
     1
  6
Continuous
370
     5
390
5
  0
LAYER
  5
139C3
102
{ACAD_XDICTIONARY
360
16B0D
102
}
330
11
100
AcDbSymbolTableRecord
100
AcDbLayerTableRecord
  2
A-Anno-Scrn
 70
     0
 62
   250
  6
Continuous
370
    25
390
139CA
1001
AcAecLayerStandard
1000
AIA 2nd Edition
1001
RAK
1000
{ACET-LAYISO
1070
     0
1070
   250
1000
CONTINUOUS
1071
       25
1071
        1
1005
139CA
1000
ACET-LAYISO}
  0
LAYER
  5
175B1
102
{ACAD_XDICTIONARY
360
175B2
102
}
330
11
100
AcDbSymbolTableRecord
100
AcDbLayerTableRecord
  2
-widok
 70
     0
 62
   114
  6
Continuous
370
     9
390
5
  0
LAYER
  5
185FE
330
11
100
AcDbSymbolTableRecord
100
AcDbLayerTableRecord
  2
0Widok
 70
     0
 62
   114
  6
Continuous
370
     9
390
5
  0
ENDTAB
  0
TABLE
  2
STYLE
  5
14
330
0
100
AcDbSymbolTable
 70
    11
  0
STYLE
  5
15
330
14
100
AcDbSymbolTableRecord
100
AcDbTextStyleTableRecord
  2
Standard
 70
     0
 40
0.0
 41
1.0
 50
0.0
 71
     0
 42
2.5
  3
txt
  4

  0
STYLE
  5
22
330
14
100
AcDbSymbolTableRecord
100
AcDbTextStyleTableRecord
  2
ROMANS
 70
     0
 40
0.0
 41
0.9
 50
0.0
 71
     0
 42
20.0
  3
romans.shx
  4

  0
STYLE
  5
144
330
14
100
AcDbSymbolTableRecord
100
AcDbTextStyleTableRecord
  2
AVA
 70
     0
 40
0.0
 41
1.0
 50
0.0
 71
     0
 42
158.5644099714409
  3
ARIAL.TTF
  4

1001
ACAD
1000
Arial CE
1071
    60962
  0
ENDTAB
  0
TABLE
  2
VIEW
  5
1A
330
0
100
AcDbSymbolTable
 70
     1
  0
VIEW
  5
C
330
1A
100
AcDbSymbolTableRecord
100
AcDbViewTableRecord
  2
RODODENDRON 5
 70
     0
 40
14020.0
 10
220287.1664355166
 20
148687.514558954
 41
10200.00000000003
 11
0.0
 21
0.0
 31
1.0
 12
0.0
 22
0.0
 32
0.0
 42
50.0
 43
0.0
 44
0.0
 50
0.0
 71
     0
281
     0
 72
     1
110
0.0
120
0.0
130
0.0
111
1.0
121
0.0
131
0.0
112
0.0
122
1.0
132
0.0
 79
     0
146
0.0
  0
ENDTAB
  0
TABLE
  2
UCS
  5
1B
330
0
100
AcDbSymbolTable
 70
     0
  0
ENDTAB
  0
TABLE
  2
APPID
  5
1E
330
0
100
AcDbSymbolTable
 70
    22
  0
APPID
  5
1F
330
1E
100
AcDbSymbolTableRecord
100
AcDbRegAppTableRecord
  2
ACAD
 70
     0
  0
APPID
  5
1E1
330
1E
100
AcDbSymbolTableRecord
100
AcDbRegAppTableRecord
  2
RAK
 70
     0
  0
APPID
  5
1E2
330
1E
100
AcDbSymbolTableRecord
100
AcDbRegAppTableRecord
  2
AcAecLayerStandard
 70
     0
  0
APPID
  5
A87
330
1E
100
AcDbSymbolTableRecord
100
AcDbRegAppTableRecord
  2
ACAD_PSEXT
 70
     0
  0
APPID
  5
C44
330
1E
100
AcDbSymbolTableRecord
100
AcDbRegAppTableRecord
  2
DCO15
 70
     0
  0
APPID
  5
1744
330
1E
100
AcDbSymbolTableRecord
100
AcDbRegAppTableRecord
  2
ACAD_EXEMPT_FROM_CAD_STANDARDS
 70
     0
  0
APPID
  5
1745
330
1E
100
AcDbSymbolTableRecord
100
AcDbRegAppTableRecord
  2
ACAD_DSTYLE_DIM_LINETYPE
 70
     0
  0
APPID
  5
1746
330
1E
100
AcDbSymbolTableRecord
100
AcDbRegAppTableRecord
  2
ACAD_DSTYLE_DIM_EXT1_LINETYPE
 70
     0
  0
APPID
  5
1747
330
1E
100
AcDbSymbolTableRecord
100
AcDbRegAppTableRecord
  2
ACAD_DSTYLE_DIM_EXT2_LINETYPE
 70
     0
  0
APPID
  5
1988
330
1E
100
AcDbSymbolTableRecord
100
AcDbRegAppTableRecord
  2
AcLayerTools
 70
     0
  0
APPID
  5
6A86
330
1E
100
AcDbSymbolTableRecord
100
AcDbRegAppTableRecord
  2
AcDbBlockRepETag
 70
     0
  0
APPID
  5
82FB
330
1E
100
AcDbSymbolTableRecord
100
AcDbRegAppTableRecord
  2
AECBASE
 70
     0
  0
APPID
  5
82FC
330
1E
100
AcDbSymbolTableRecord
100
AcDbRegAppTableRecord
  2
AEC_OBJVER_INFO
 70
     0
  0
APPID
  5
D8C8
330
1E
100
AcDbSymbolTableRecord
100
AcDbRegAppTableRecord
  2
AcDbDynamicBlockGUID
 70
     0
  0
APPID
  5
D8C9
330
1E
100
AcDbSymbolTableRecord
100
AcDbRegAppTableRecord
  2
CADZOOKSMATERIAL
 70
     0
  0
APPID
  5
EFA3
330
1E
100
AcDbSymbolTableRecord
100
AcDbRegAppTableRecord
  2
ACAUTHENVIRON
 70
     0
  0
APPID
  5
EFA4
330
1E
100
AcDbSymbolTableRecord
100
AcDbRegAppTableRecord
  2
AcDbDynamicBlockTrueName
 70
     0
  0
APPID
  5
EFA5
330
1E
100
AcDbSymbolTableRecord
100
AcDbRegAppTableRecord
  2
AcDbBlockRepBTag
 70
     0
  0
APPID
  5
EFA6
330
1E
100
AcDbSymbolTableRecord
100
AcDbRegAppTableRecord
  2
AEC_SCHEDULE_TAG
 70
     0
  0
APPID
  5
139C8
330
1E
100
AcDbSymbolTableRecord
100
AcDbRegAppTableRecord
  2
AEC_SCHEDULEDATA_FORMULA_SAMPLES
 70
     0
  0
APPID
  5
168B2
330
1E
100
AcDbSymbolTableRecord
100
AcDbRegAppTableRecord
  2
ACAD_MLEADERVER
 70
     0
  0
APPID
  5
18899
330
1E
100
AcDbSymbolTableRecord
100
AcDbRegAppTableRecord
  2
AcDbAttr
 70
     0
  0
ENDTAB
  0
TABLE
  2
DIMSTYLE
  5
20
330
0
100
AcDbSymbolTable
 70
    11
100
AcDbDimStyleTable
 71
     2
340
21
340
2B
  0
DIMSTYLE
105
21
102
{ACAD_REACTORS
330
1869A
330
186B3
330
186BE
330
186CB
330
186E8
330
186F3
330
186FE
330
18709
330
18714
330
18752
330
18753
330
18754
330
18755
330
18756
330
18757
330
18758
330
18759
330
1875A
102
}
330
20
100
AcDbSymbolTableRecord
100
AcDbDimStyleTableRecord
  2
500
 70
     0
 41
30.0
 42
43.0
 43
0.0
 44
13.0
 45
0.5
 46
12.0
 73
     0
 74
     0
 75
     1
 76
     1
 78
    12
140
80.0
141
0.0
145
1.0
147
0.0
172
     1
174
     1
176
     1
177
     1
178
    10
271
     1
272
     1
279
     2
340
22
341
23
342
23
  0
DIMSTYLE
105
2B
330
20
100
AcDbSymbolTableRecord
100
AcDbDimStyleTableRecord
  2
Standard
 70
     0
340
15
  0
ENDTAB
  0
TABLE
  2
BLOCK_RECORD
  5
1
330
0
100
AcDbSymbolTable
 70
   316
  0
BLOCK_RECORD
  5
2
102
{ACAD_XDICTIONARY
360
1FEF
102
}
330
1
100
AcDbSymbolTableRecord
100
AcDbBlockTableRecord
  2
*Model_Space
340
A
  0
BLOCK_RECORD
  5
D
330
1
100
AcDbSymbolTableRecord
100
AcDbBlockTableRecord
  2
*Paper_Space
340
10
  0
BLOCK_RECORD
  5
23
102
{ACAD_XDICTIONARY
360
24
102
}
330
1
100
AcDbSymbolTableRecord
100
AcDbBlockTableRecord
  2
B-DIM
340
0
102
{BLKREFS
331
16E92
331
16E93
331
16EA9
331
16EAA
331
16EB2
331
16EB3
331
16EE7
331
16EE8
331
16EF0
331
16EF1
331
16EFE
331
16EFF
331
16F18
331
16F19
331
16F31
331
16F32
331
1728C
331
1728D
331
17297
331
17298
331
172A2
331
172A3
331
172AB
331
172AC
331
172B5
331
172B6
331
172C1
331
172C2
331
172CB
331
172CC
331
172D7
331
172D8
331
172E1
331
172E2
331
172EB
331
172EC
331
172F6
331
172F7
331
17301
331
17302
331
1730A
331
1730B
331
1738C
331
1738D
331
17397
331
17398
331
173A3
331
173A4
331
173AC
331
173AD
331
173B6
331
173B7
331
173C1
331
173C2
331
173CA
331
173CB
331
173D5
331
173D6
331
173DE
331
173DF
331
173E8
331
173E9
331
173F4
331
173F5
331
174CF
331
174D0
331
174D8
331
174D9
331
174E2
331
174E3
331
174EC
331
174ED
331
17314
331
17315
331
1731E
331
1731F
331
17329
331
1732A
331
17332
331
17333
331
1733C
331
1733D
331
17346
331
17347
331
17350
331
17351
331
1735A
331
1735B
331
17364
331
17365
331
1736E
331
1736F
331
17378
331
17379
331
17382
331
17383
331
1718C
331
1718D
331
17196
331
17197
331
171A3
331
171A4
331
171AC
331
171AD
331
171B6
331
171B7
331
171C1
331
171C2
331
171CA
331
171CB
331
171D5
331
171D6
331
171DE
331
171DF
331
171E9
331
171EA
331
171F3
331
171F4
331
171FC
331
171FD
331
17207
331
17208
331
17210
331
17211
331
1721A
331
1721B
331
17225
331
17226
331
17230
331
17231
331
1723B
331
1723C
331
17244
331
17245
331
17250
331
17251
331
1725B
331
1725C
331
17265
331
17266
331
1726E
331
1726F
331
17279
331
1727A
331
17284
331
1757D
331
1757E
331
17589
331
1758A
331
17593
331
17594
331
1759D
331
1759E
331
173FE
331
173FF
331
17408
331
17409
331
17412
331
17413
331
1741E
331
1741F
331
17428
331
17429
331
17432
331
17433
331
1743E
331
1743F
331
17448
331
17449
331
17452
331
17453
331
1745D
331
1745E
331
17466
331
17467
331
17471
331
17472
331
1747B
331
1747C
331
17485
331
17486
331
1748E
331
1748F
331
17499
331
1749A
331
174A2
331
174A3
331
174AF
331
174B0
331
174BB
331
174BC
331
174C5
331
174C6
331
174F8
331
174F9
331
17502
331
17503
331
1750E
331
1750F
331
17518
331
17519
331
17540
331
17541
331
1754A
331
1754B
331
17554
331
17555
331
1755E
331
1755F
331
1756A
331
1756B
331
1716E
331
1716F
331
17178
331
17179
331
17182
331
17183
331
182C7
331
182C8
331
182CE
331
182CF
331
182D5
331
182D6
331
182DC
331
182DD
331
182E3
331
182E4
331
182ED
331
182EE
331
182F3
331
182F4
331
182FA
331
182FB
331
18302
331
18303
331
18308
331
18309
331
18310
331
18311
331
18316
331
18317
331
1831E
331
1831F
331
18325
331
18326
331
1832B
331
1832C
331
18333
331
18334
331
18339
331
1833A
331
18340
331
18341
331
18348
331
18349
331
18350
331
18351
331
18358
331
18359
331
1835E
331
1835F
331
18367
331
18368
331
1836F
331
18370
331
18376
331
18377
331
1837C
331
1837D
331
18384
331
18385
331
1838C
331
18391
331
18392
331
18399
331
1839A
331
183A1
331
183A2
331
183A7
331
183A8
331
183AE
331
183AF
331
183B7
331
183B8
331
183BE
331
183BF
331
183C7
331
183C8
331
183CE
331
183CF
331
183D5
331
183D6
331
183DD
331
183DE
331
183E5
331
183E6
331
183EB
331
183EC
331
183F4
331
183F5
331
183FC
331
183FD
331
18405
331
18406
331
1840B
331
1840C
331
18412
331
18413
331
1841A
331
1841B
331
18420
331
18421
331
18428
331
18429
331
1842E
331
1842F
331
18435
331
18436
331
1843E
331
1843F
331
18445
331
18446
331
1844C
331
1844D
331
18453
331
18454
331
1845C
331
1845D
331
18463
331
18464
331
1846A
331
1846B
331
18473
331
18474
331
1847A
331
1847B
331
18481
331
18482
331
18489
331
1848A
331
1848F
331
18490
331
18497
331
18498
331
1849E
331
1849F
331
184A5
331
184A6
331
184AB
331
184AC
331
184B3
331
184B4
331
184B9
331
184BA
331
184C3
331
184C4
331
184CC
331
184CD
331
184D3
331
184D4
331
184DA
331
184DB
331
184E0
331
184E1
331
184E7
331
184E8
331
184EE
331
184EF
331
184F5
331
184F6
331
184FC
331
184FD
331
18504
331
18505
331
1850A
331
1850B
331
18511
331
18512
331
1851A
331
1851B
331
18521
331
18522
331
1852A
331
1852B
331
18531
331
18532
331
18538
331
18539
331
1853F
331
18540
331
18548
331
18549
331
1855B
331
1855C
331
18562
331
18563
331
1856C
331
1856D
331
18575
331
18576
331
1857D
331
1857E
331
18588
331
18589
331
18591
331
18592
331
18599
331
1859A
331
185A3
331
185A4
331
185AF
331
185B0
331
185B9
331
185BA
331
185C5
331
185C6
331
185D0
331
185D1
331
186AD
331
186AE
331
186B6
331
186B7
331
186C3
331
186C4
331
186D7
331
186D8
331
186E0
331
186E1
331
186EB
331
186EC
331
186F6
331
186F7
331
18701
331
18702
331
1870C
331
1870D
331
18717
331
18718
331
187B8
331
187B9
331
187BF
331
187C0
331
187C8
331
187C9
331
187CF
331
187D0
331
187D6
331
187D7
331
187DD
331
187DE
331
187E4
331
187E5
331
187EB
331
187EC
331
187F2
331
187F3
102
}
  0
BLOCK_RECORD
  5
1869B
330
1
100
AcDbSymbolTableRecord
100
AcDbBlockTableRecord
  2
*D297
340
0
  0
BLOCK_RECORD
  5
186B4
330
1
100
AcDbSymbolTableRecord
100
AcDbBlockTableRecord
  2
*D298
340
0
  0
BLOCK_RECORD
  5
186BF
330
1
100
AcDbSymbolTableRecord
100
AcDbBlockTableRecord
  2
*D299
340
0
  0
BLOCK_RECORD
  5
186CC
330
1
100
AcDbSymbolTableRecord
100
AcDbBlockTableRecord
  2
*D300
340
0
  0
BLOCK_RECORD
  5
186E9
330
1
100
AcDbSymbolTableRecord
100
AcDbBlockTableRecord
  2
*D302
340
0
  0
BLOCK_RECORD
  5
186F4
330
1
100
AcDbSymbolTableRecord
100
AcDbBlockTableRecord
  2
*D303
340
0
  0
BLOCK_RECORD
  5
186FF
330
1
100
AcDbSymbolTableRecord
100
AcDbBlockTableRecord
  2
*D304
340
0
  0
BLOCK_RECORD
  5
1870A
330
1
100
AcDbSymbolTableRecord
100
AcDbBlockTableRecord
  2
*D305
340
0
  0
BLOCK_RECORD
  5
18715
330
1
100
AcDbSymbolTableRecord
100
AcDbBlockTableRecord
  2
*D306
340
0
  0
BLOCK_RECORD
  5
1875B
330
1
100
AcDbSymbolTableRecord
100
AcDbBlockTableRecord
  2
*D307
340
0
  0
BLOCK_RECORD
  5
18765
330
1
100
AcDbSymbolTableRecord
100
AcDbBlockTableRecord
  2
*D308
340
0
  0
BLOCK_RECORD
  5
1876F
330
1
100
AcDbSymbolTableRecord
100
AcDbBlockTableRecord
  2
*D309
340
0
  0
BLOCK_RECORD
  5
1877B
330
1
100
AcDbSymbolTableRecord
100
AcDbBlockTableRecord
  2
*D310
340
0
  0
BLOCK_RECORD
  5
18785
330
1
100
AcDbSymbolTableRecord
100
AcDbBlockTableRecord
  2
*D311
340
0
  0
BLOCK_RECORD
  5
1878F
330
1
100
AcDbSymbolTableRecord
100
AcDbBlockTableRecord
  2
*D312
340
0
  0
BLOCK_RECORD
  5
18799
330
1
100
AcDbSymbolTableRecord
100
AcDbBlockTableRecord
  2
*D313
340
0
  0
BLOCK_RECORD
  5
187A3
330
1
100
AcDbSymbolTableRecord
100
AcDbBlockTableRecord
  2
*D314
340
0
  0
BLOCK_RECORD
  5
187AD
330
1
100
AcDbSymbolTableRecord
100
AcDbBlockTableRecord
  2
*D315
340
0
  0
ENDTAB
  0
ENDSEC
  0
SECTION
  2
BLOCKS
  0
BLOCK
  5
3
330
2
100
AcDbEntity
  8
0
100
AcDbBlockBegin
  2
*Model_Space
 70
     0
 10
0.0
 20
0.0
 30
0.0
  3
*Model_Space
  1

  0
ENDBLK
  5
9
330
2
100
AcDbEntity
  8
0
100
AcDbBlockEnd
  0
BLOCK
  5
E
330
D
100
AcDbEntity
 67
     1
  8
0
100
AcDbBlockBegin
  2
*Paper_Space
 70
     0
 10
0.0
 20
0.0
 30
0.0
  3
*Paper_Space
  1

  0
ENDBLK
  5
F
330
D
100
AcDbEntity
 67
     1
  8
0
100
AcDbBlockEnd
  0
BLOCK
  5
26
330
23
100
AcDbEntity
  8
0
100
AcDbBlockBegin
  2
B-DIM
 70
     0
 10
0.0
 20
0.0
 30
0.0
  3
B-DIM
  1

  0
LINE
  5
27
330
23
100
AcDbEntity
  8
0
 62
     1
100
AcDbLine
 10
0.000000000000091
 20
-1.1
 30
0.0
 11
0.000000000000091
 21
1.1
 31
0.0
  0
LWPOLYLINE
  5
28
330
23
100
AcDbEntity
  8
0
 62
     1
100
AcDbPolyline
 90
        2
 70
     0
 43
0.3
 10
-0.7071067811864851
 20
-0.7071067811864851
 10
0.707106781186576
 20
0.707106781186576
  0
LINE
  5
29
330
23
100
AcDbEntity
  8
0
 62
     1
100
AcDbLine
 10
1.20000000000009
 20
0.0
 30
0.0
 11
-1.199999999999909
 21
0.0
 31
0.0
  0
ENDBLK
  5
2A
330
23
100
AcDbEntity
  8
0
100
AcDbBlockEnd
  0
BLOCK
  5
186A3
330
1869B
100
AcDbEntity
  8
0
100
AcDbBlockBegin
  2
*D297
 70
     1
 10
0.0
 20
0.0
 30
0.0
  3
*D297
  1

  0
LINE
  5
186AC
330
1869B
100
AcDbEntity
  8
0Wymiary-PL
 62
     1
370
    -2
100
AcDbLine
 10
217050.491899238
 20
136427.0538200633
 30
0.0
 11
217050.491899238
 21
136223.0561095594
 31
0.0
  0
INSERT
  5
186AD
330
1869B
100
AcDbEntity
  8
0Wymiary-PL
 62
     1
370
    -2
100
AcDbBlockReference
  2
B-DIM
 10
217050.491899238
 20
136457.0538200633
 30
0.0
 41
30.0
 42
30.0
 43
30.0
 50
90.0
  0
INSERT
  5
186AE
330
1869B
100
AcDbEntity
  8
0Wymiary-PL
 62
     1
370
    -2
100
AcDbBlockReference
  2
B-DIM
 10
217050.491899238
 20
136193.0561095594
 30
0.0
 41
30.0
 42
30.0
 43
30.0
 50
270.0
  0
MTEXT
  5
186AF
330
1869B
100
AcDbEntity
  8
0Wymiary-PL
 62
    10
100
AcDbMText
 10
216970.491899238
 20
136325.0549648114
 30
0.0
 40
80.0
 41
0.0
 71
     5
 72
     1
  1
\A1;264
  7
ROMANS
 11
0.0000000000000001
 21
1.0
 31
0.0
 73
     1
 44
1.0
1001
ACAD
1000
MTEXTBEGIN
1070
    73
1070
     1
1070
    44
1040
1.0
1070
    74
1070
     0
1000
MTEXTEND
  0
POINT
  5
186B0
330
1869B
100
AcDbEntity
  8
DEFPOINTS
 62
     0
100
AcDbPoint
 10
217508.56867651
 20
136457.0538200633
 30
0.0
  0
POINT
  5
186B1
330
1869B
100
AcDbEntity
  8
DEFPOINTS
 62
     0
100
AcDbPoint
 10
217508.56867651
 20
136193.0561095594
 30
0.0
  0
POINT
  5
186B2
330
1869B
100
AcDbEntity
  8
DEFPOINTS
 62
     0
100
AcDbPoint
 10
217050.491899238
 20
136193.0561095594
 30
0.0
  0
ENDBLK
  5
186A4
330
1869B
100
AcDbEntity
  8
0
100
AcDbBlockEnd
  0
BLOCK
  5
186BC
330
186B4
100
AcDbEntity
  8
0
100
AcDbBlockBegin
  2
*D298
 70
     1
 10
0.0
 20
0.0
 30
0.0
  3
*D298
  1

  0
LINE
  5
186B5
330
186B4
100
AcDbEntity
  8
0Wymiary-PL
 62
     1
370
    -2
100
AcDbLine
 10
217050.491899238
 20
136163.0561095594
 30
0.0
 11
217050.491899238
 21
135493.0561095594
 31
0.0
  0
INSERT
  5
186B6
330
186B4
100
AcDbEntity
  8
0Wymiary-PL
 62
     1
370
    -2
100
AcDbBlockReference
  2
B-DIM
 10
217050.491899238
 20
136193.0561095594
 30
0.0
 41
30.0
 42
30.0
 43
30.0
 50
90.0
  0
INSERT
  5
186B7
330
186B4
100
AcDbEntity
  8
0Wymiary-PL
 62
     1
370
    -2
100
AcDbBlockReference
  2
B-DIM
 10
217050.491899238
 20
135463.0561095594
 30
0.0
 41
30.0
 42
30.0
 43
30.0
 50
270.0
  0
MTEXT
  5
186B8
330
186B4
100
AcDbEntity
  8
0Wymiary-PL
 62
    10
100
AcDbMText
 10
216970.491899238
 20
135828.0561095595
 30
0.0
 40
80.0
 41
0.0
 71
     5
 72
     1
  1
\A1;730
  7
ROMANS
 11
0.0000000000000001
 21
1.0
 31
0.0
 73
     1
 44
1.0
1001
ACAD
1000
MTEXTBEGIN
1070
    73
1070
     1
1070
    44
1040
1.0
1070
    74
1070
     0
1000
MTEXTEND
  0
POINT
  5
186B9
330
186B4
100
AcDbEntity
  8
DEFPOINTS
 62
     0
100
AcDbPoint
 10
217508.56867651
 20
136193.0561095594
 30
0.0
  0
POINT
  5
186BA
330
186B4
100
AcDbEntity
  8
DEFPOINTS
 62
     0
100
AcDbPoint
 10
217323.56867651
 20
135463.0561095594
 30
0.0
  0
POINT
  5
186BB
330
186B4
100
AcDbEntity
  8
DEFPOINTS
 62
     0
100
AcDbPoint
 10
217050.491899238
 20
135463.0561095594
 30
0.0
  0
ENDBLK
  5
186BD
330
186B4
100
AcDbEntity
  8
0
100
AcDbBlockEnd
  0
BLOCK
  5
186C9
330
186BF
100
AcDbEntity
  8
0
100
AcDbBlockBegin
  2
*D299
 70
     1
 10
0.0
 20
0.0
 30
0.0
  3
*D299
  1

  0
LINE
  5
186C0
330
186BF
100
AcDbEntity
  8
0Wymiary-PL
 62
     1
370
    -2
100
AcDbLine
 10
217050.491899238
 20
135493.0561095594
 30
0.0
 11
217050.491899238
 21
135523.0561095594
 31
0.0
  0
LINE
  5
186C1
330
186BF
100
AcDbEntity
  8
0Wymiary-PL
 62
     1
370
    -2
100
AcDbLine
 10
217050.491899238
 20
135301.0561095594
 30
0.0
 11
217050.491899238
 21
135271.0561095594
 31
0.0
  0
LINE
  5
186C2
330
186BF
100
AcDbEntity
  8
0Wymiary-PL
 62
     1
370
    -2
100
AcDbLine
 10
217050.491899238
 20
135463.0561095594
 30
0.0
 11
217050.491899238
 21
135331.0561095594
 31
0.0
  0
INSERT
  5
186C3
330
186BF
100
AcDbEntity
  8
0Wymiary-PL
 62
     1
370
    -2
100
AcDbBlockReference
  2
B-DIM
 10
217050.491899238
 20
135463.0561095594
 30
0.0
 41
30.0
 42
30.0
 43
30.0
 50
270.0
  0
INSERT
  5
186C4
330
186BF
100
AcDbEntity
  8
0Wymiary-PL
 62
     1
370
    -2
100
AcDbBlockReference
  2
B-DIM
 10
217050.491899238
 20
135331.0561095594
 30
0.0
 41
30.0
 42
30.0
 43
30.0
 50
90.0
  0
MTEXT
  5
186C5
330
186BF
100
AcDbEntity
  8
0Wymiary-PL
 62
    10
100
AcDbMText
 10
216970.491899238
 20
135397.0561095595
 30
0.0
 40
80.0
 41
0.0
 71
     5
 72
     1
  1
\A1;132
  7
ROMANS
 11
0.0000000000000001
 21
1.0
 31
0.0
 73
     1
 44
1.0
1001
ACAD
1000
MTEXTBEGIN
1070
    73
1070
     1
1070
    44
1040
1.0
1070
    74
1070
     0
1000
MTEXTEND
  0
POINT
  5
186C6
330
186BF
100
AcDbEntity
  8
DEFPOINTS
 62
     0
100
AcDbPoint
 10
217323.56867651
 20
135463.0561095594
 30
0.0
  0
POINT
  5
186C7
330
186BF
100
AcDbEntity
  8
DEFPOINTS
 62
     0
100
AcDbPoint
 10
217713.56867651
 20
135331.0561095594
 30
0.0
  0
POINT
  5
186C8
330
186BF
100
AcDbEntity
  8
DEFPOINTS
 62
     0
100
AcDbPoint
 10
217050.491899238
 20
135331.0561095594
 30
0.0
  0
ENDBLK
  5
186CA
330
186BF
100
AcDbEntity
  8
0
100
AcDbBlockEnd
  0
BLOCK
  5
186D4
330
186CC
100
AcDbEntity
  8
0
100
AcDbBlockBegin
  2
*D300
 70
     1
 10
0.0
 20
0.0
 30
0.0
  3
*D300
  1

  0
LINE
  5
186D6
330
186CC
100
AcDbEntity
  8
0Wymiary-PL
 62
     1
370
    -2
100
AcDbLine
 10
216853.6562995278
 20
136427.0538200633
 30
0.0
 11
216853.6562995278
 21
135361.0561095594
 31
0.0
  0
INSERT
  5
186D7
330
186CC
100
AcDbEntity
  8
0Wymiary-PL
 62
     1
370
    -2
100
AcDbBlockReference
  2
B-DIM
 10
216853.6562995278
 20
136457.0538200633
 30
0.0
 41
30.0
 42
30.0
 43
30.0
 50
90.0
  0
INSERT
  5
186D8
330
186CC
100
AcDbEntity
  8
0Wymiary-PL
 62
     1
370
    -2
100
AcDbBlockReference
  2
B-DIM
 10
216853.6562995278
 20
135331.0561095594
 30
0.0
 41
30.0
 42
30.0
 43
30.0
 50
270.0
  0
MTEXT
  5
186D9
330
186CC
100
AcDbEntity
  8
0Wymiary-PL
 62
    10
100
AcDbMText
 10
216773.6562995278
 20
135894.0549648114
 30
0.0
 40
80.0
 41
0.0
 71
     5
 72
     1
  1
\A1;1126
  7
ROMANS
 11
0.0000000000000001
 21
1.0
 31
0.0
 73
     1
 44
1.0
1001
ACAD
1000
MTEXTBEGIN
1070
    73
1070
     1
1070
    44
1040
1.0
1070
    74
1070
     0
1000
MTEXTEND
  0
POINT
  5
186DA
330
186CC
100
AcDbEntity
  8
DEFPOINTS
 62
     0
100
AcDbPoint
 10
217496.729025346
 20
136457.0538200633
 30
0.0
  0
POINT
  5
186DB
330
186CC
100
AcDbEntity
  8
DEFPOINTS
 62
     0
100
AcDbPoint
 10
217701.729025346
 20
135331.0561095594
 30
0.0
  0
POINT
  5
186DC
330
186CC
100
AcDbEntity
  8
DEFPOINTS
 62
     0
100
AcDbPoint
 10
216853.6562995278
 20
135331.0561095594
 30
0.0
  0
ENDBLK
  5
186D5
330
186CC
100
AcDbEntity
  8
0
100
AcDbBlockEnd
  0
BLOCK
  5
186F1
330
186E9
100
AcDbEntity
  8
0
100
AcDbBlockBegin
  2
*D302
 70
     1
 10
0.0
 20
0.0
 30
0.0
  3
*D302
  1

  0
LINE
  5
186EA
330
186E9
100
AcDbEntity
  8
0Wymiary-PL
 62
     1
370
    -2
100
AcDbLine
 10
217353.5686765101
 20
134859.2548682663
 30
0.0
 11
217683.56867651
 21
134859.2548682663
 31
0.0
  0
INSERT
  5
186EB
330
186E9
100
AcDbEntity
  8
0Wymiary-PL
 62
     1
370
    -2
100
AcDbBlockReference
  2
B-DIM
 10
217323.56867651
 20
134859.2548682663
 30
0.0
 41
30.0
 42
30.0
 43
30.0
 50
180.0
  0
INSERT
  5
186EC
330
186E9
100
AcDbEntity
  8
0Wymiary-PL
 62
     1
370
    -2
100
AcDbBlockReference
  2
B-DIM
 10
217713.56867651
 20
134859.2548682663
 30
0.0
 41
30.0
 42
30.0
 43
30.0
  0
MTEXT
  5
186ED
330
186E9
100
AcDbEntity
  8
0Wymiary-PL
 62
    10
100
AcDbMText
 10
217518.56867651
 20
134939.2548682664
 30
0.0
 40
80.0
 41
0.0
 71
     5
 72
     1
  1
\A1;390
  7
ROMANS
 73
     1
 44
1.0
1001
ACAD
1000
MTEXTBEGIN
1070
    73
1070
     1
1070
    44
1040
1.0
1070
    74
1070
     0
1000
MTEXTEND
  0
POINT
  5
186EE
330
186E9
100
AcDbEntity
  8
DEFPOINTS
 62
     0
100
AcDbPoint
 10
217323.56867651
 20
135463.0561095594
 30
0.0
  0
POINT
  5
186EF
330
186E9
100
AcDbEntity
  8
DEFPOINTS
 62
     0
100
AcDbPoint
 10
217713.56867651
 20
135463.0561095594
 30
0.0
  0
POINT
  5
186F0
330
186E9
100
AcDbEntity
  8
DEFPOINTS
 62
     0
100
AcDbPoint
 10
217713.56867651
 20
134859.2548682663
 30
0.0
  0
ENDBLK
  5
186F2
330
186E9
100
AcDbEntity
  8
0
100
AcDbBlockEnd
  0
BLOCK
  5
186FC
330
186F4
100
AcDbEntity
  8
0
100
AcDbBlockBegin
  2
*D303
 70
     1
 10
0.0
 20
0.0
 30
0.0
  3
*D303
  1

  0
LINE
  5
186F5
330
186F4
100
AcDbEntity
  8
0Wymiary-PL
 62
     1
370
    -2
100
AcDbLine
 10
217743.56867651
 20
134859.2548682663
 30
0.0
 11
218043.56867651
 21
134859.2548682663
 31
0.0
  0
INSERT
  5
186F6
330
186F4
100
AcDbEntity
  8
0Wymiary-PL
 62
     1
370
    -2
100
AcDbBlockReference
  2
B-DIM
 10
217713.56867651
 20
134859.2548682663
 30
0.0
 41
30.0
 42
30.0
 43
30.0
 50
180.0
  0
INSERT
  5
186F7
330
186F4
100
AcDbEntity
  8
0Wymiary-PL
 62
     1
370
    -2
100
AcDbBlockReference
  2
B-DIM
 10
218073.56867651
 20
134859.2548682663
 30
0.0
 41
30.0
 42
30.0
 43
30.0
  0
MTEXT
  5
186F8
330
186F4
100
AcDbEntity
  8
0Wymiary-PL
 62
    10
100
AcDbMText
 10
217893.56867651
 20
134939.2548682664
 30
0.0
 40
80.0
 41
0.0
 71
     5
 72
     1
  1
\A1;360
  7
ROMANS
 73
     1
 44
1.0
1001
ACAD
1000
MTEXTBEGIN
1070
    73
1070
     1
1070
    44
1040
1.0
1070
    74
1070
     0
1000
MTEXTEND
  0
POINT
  5
186F9
330
186F4
100
AcDbEntity
  8
DEFPOINTS
 62
     0
100
AcDbPoint
 10
217713.56867651
 20
135463.0561095594
 30
0.0
  0
POINT
  5
186FA
330
186F4
100
AcDbEntity
  8
DEFPOINTS
 62
     0
100
AcDbPoint
 10
218073.56867651
 20
135331.0561095594
 30
0.0
  0
POINT
  5
186FB
330
186F4
100
AcDbEntity
  8
DEFPOINTS
 62
     0
100
AcDbPoint
 10
218073.56867651
 20
134859.2548682663
 30
0.0
  0
ENDBLK
  5
186FD
330
186F4
100
AcDbEntity
  8
0
100
AcDbBlockEnd
  0
BLOCK
  5
18707
330
186FF
100
AcDbEntity
  8
0
100
AcDbBlockBegin
  2
*D304
 70
     1
 10
0.0
 20
0.0
 30
0.0
  3
*D304
  1

  0
LINE
  5
18700
330
186FF
100
AcDbEntity
  8
0Wymiary-PL
 62
     1
370
    -2
100
AcDbLine
 10
218103.56867651
 20
134859.2548682663
 30
0.0
 11
218433.56867651
 21
134859.2548682663
 31
0.0
  0
INSERT
  5
18701
330
186FF
100
AcDbEntity
  8
0Wymiary-PL
 62
     1
370
    -2
100
AcDbBlockReference
  2
B-DIM
 10
218073.56867651
 20
134859.2548682663
 30
0.0
 41
30.0
 42
30.0
 43
30.0
 50
180.0
  0
INSERT
  5
18702
330
186FF
100
AcDbEntity
  8
0Wymiary-PL
 62
     1
370
    -2
100
AcDbBlockReference
  2
B-DIM
 10
218463.56867651
 20
134859.2548682663
 30
0.0
 41
30.0
 42
30.0
 43
30.0
  0
MTEXT
  5
18703
330
186FF
100
AcDbEntity
  8
0Wymiary-PL
 62
    10
100
AcDbMText
 10
218268.56867651
 20
134939.2548682664
 30
0.0
 40
80.0
 41
0.0
 71
     5
 72
     1
  1
\A1;390
  7
ROMANS
 73
     1
 44
1.0
1001
ACAD
1000
MTEXTBEGIN
1070
    73
1070
     1
1070
    44
1040
1.0
1070
    74
1070
     0
1000
MTEXTEND
  0
POINT
  5
18704
330
186FF
100
AcDbEntity
  8
DEFPOINTS
 62
     0
100
AcDbPoint
 10
218073.56867651
 20
135331.0561095594
 30
0.0
  0
POINT
  5
18705
330
186FF
100
AcDbEntity
  8
DEFPOINTS
 62
     0
100
AcDbPoint
 10
218463.56867651
 20
135463.0561095594
 30
0.0
  0
POINT
  5
18706
330
186FF
100
AcDbEntity
  8
DEFPOINTS
 62
     0
100
AcDbPoint
 10
218463.56867651
 20
134859.2548682663
 30
0.0
  0
ENDBLK
  5
18708
330
186FF
100
AcDbEntity
  8
0
100
AcDbBlockEnd
  0
BLOCK
  5
18712
330
1870A
100
AcDbEntity
  8
0
100
AcDbBlockBegin
  2
*D305
 70
     1
 10
0.0
 20
0.0
 30
0.0
  3
*D305
  1

  0
LINE
  5
1870B
330
1870A
100
AcDbEntity
  8
0Wymiary-PL
 62
     1
370
    -2
100
AcDbLine
 10
218493.5686765101
 20
134859.2548682663
 30
0.0
 11
219053.56867651
 21
134859.2548682663
 31
0.0
  0
INSERT
  5
1870C
330
1870A
100
AcDbEntity
  8
0Wymiary-PL
 62
     1
370
    -2
100
AcDbBlockReference
  2
B-DIM
 10
218463.56867651
 20
134859.2548682663
 30
0.0
 41
30.0
 42
30.0
 43
30.0
 50
180.0
  0
INSERT
  5
1870D
330
1870A
100
AcDbEntity
  8
0Wymiary-PL
 62
     1
370
    -2
100
AcDbBlockReference
  2
B-DIM
 10
219083.56867651
 20
134859.2548682663
 30
0.0
 41
30.0
 42
30.0
 43
30.0
  0
MTEXT
  5
1870E
330
1870A
100
AcDbEntity
  8
0Wymiary-PL
 62
    10
100
AcDbMText
 10
218773.56867651
 20
134939.2548682664
 30
0.0
 40
80.0
 41
0.0
 71
     5
 72
     1
  1
\A1;620
  7
ROMANS
 73
     1
 44
1.0
1001
ACAD
1000
MTEXTBEGIN
1070
    73
1070
     1
1070
    44
1040
1.0
1070
    74
1070
     0
1000
MTEXTEND
  0
POINT
  5
1870F
330
1870A
100
AcDbEntity
  8
DEFPOINTS
 62
     0
100
AcDbPoint
 10
218463.56867651
 20
135463.0561095594
 30
0.0
  0
POINT
  5
18710
330
1870A
100
AcDbEntity
  8
DEFPOINTS
 62
     0
100
AcDbPoint
 10
219083.56867651
 20
135486.0561095594
 30
0.0
  0
POINT
  5
18711
330
1870A
100
AcDbEntity
  8
DEFPOINTS
 62
     0
100
AcDbPoint
 10
219083.56867651
 20
134859.2548682663
 30
0.0
  0
ENDBLK
  5
18713
330
1870A
100
AcDbEntity
  8
0
100
AcDbBlockEnd
  0
BLOCK
  5
1871D
330
18715
100
AcDbEntity
  8
0
100
AcDbBlockBegin
  2
*D306
 70
     1
 10
0.0
 20
0.0
 30
0.0
  3
*D306
  1

  0
LINE
  5
18716
330
18715
100
AcDbEntity
  8
0Wymiary-PL
 62
     1
370
    -2
100
AcDbLine
 10
217353.5686765101
 20
134633.5736215522
 30
0.0
 11
219053.56867651
 21
134633.5736215522
 31
0.0
  0
INSERT
  5
18717
330
18715
100
AcDbEntity
  8
0Wymiary-PL
 62
     1
370
    -2
100
AcDbBlockReference
  2
B-DIM
 10
217323.56867651
 20
134633.5736215522
 30
0.0
 41
30.0
 42
30.0
 43
30.0
 50
180.0
  0
INSERT
  5
18718
330
18715
100
AcDbEntity
  8
0Wymiary-PL
 62
     1
370
    -2
100
AcDbBlockReference
  2
B-DIM
 10
219083.56867651
 20
134633.5736215522
 30
0.0
 41
30.0
 42
30.0
 43
30.0
  0
MTEXT
  5
18719
330
18715
100
AcDbEntity
  8
0Wymiary-PL
 62
    10
100
AcDbMText
 10
218203.56867651
 20
134713.5736215522
 30
0.0
 40
80.0
 41
0.0
 71
     5
 72
     1
  1
\A1;1760
  7
ROMANS
 73
     1
 44
1.0
1001
ACAD
1000
MTEXTBEGIN
1070
    73
1070
     1
1070
    44
1040
1.0
1070
    74
1070
     0
1000
MTEXTEND
  0
POINT
  5
1871A
330
18715
100
AcDbEntity
  8
DEFPOINTS
 62
     0
100
AcDbPoint
 10
217323.56867651
 20
135463.0561095594
 30
0.0
  0
POINT
  5
1871B
330
18715
100
AcDbEntity
  8
DEFPOINTS
 62
     0
100
AcDbPoint
 10
219083.56867651
 20
135486.0561095594
 30
0.0
  0
POINT
  5
1871C
330
18715
100
AcDbEntity
  8
DEFPOINTS
 62
     0
100
AcDbPoint
 10
219083.56867651
 20
134633.5736215522
 30
0.0
  0
ENDBLK
  5
1871E
330
18715
100
AcDbEntity
  8
0
100
AcDbBlockEnd
  0
BLOCK
  5
18763
330
1875B
100
AcDbEntity
  8
0
100
AcDbBlockBegin
  2
*D307
 70
     1
 10
0.0
 20
0.0
 30
0.0
  3
*D307
  1

  0
LINE
  5
187B7
330
1875B
100
AcDbEntity
  8
0Wymiary-PL
 62
     1
370
    -2
100
AcDbLine
 10
223749.2865905071
 20
136427.0538200633
 30
0.0
 11
223749.2865905071
 21
136223.0561095594
 31
0.0
  0
INSERT
  5
187B8
330
1875B
100
AcDbEntity
  8
0Wymiary-PL
 62
     1
370
    -2
100
AcDbBlockReference
  2
B-DIM
 10
223749.2865905071
 20
136457.0538200633
 30
0.0
 41
30.0
 42
30.0
 43
30.0
 50
90.0
  0
INSERT
  5
187B9
330
1875B
100
AcDbEntity
  8
0Wymiary-PL
 62
     1
370
    -2
100
AcDbBlockReference
  2
B-DIM
 10
223749.2865905071
 20
136193.0561095594
 30
0.0
 41
30.0
 42
30.0
 43
30.0
 50
270.0
  0
MTEXT
  5
187BA
330
1875B
100
AcDbEntity
  8
0Wymiary-PL
 62
    10
100
AcDbMText
 10
223669.286590507
 20
136325.0549648114
 30
0.0
 40
80.0
 41
0.0
 71
     5
 72
     1
  1
\A1;264
  7
ROMANS
 11
0.0000000000000001
 21
1.0
 31
0.0
 73
     1
 44
1.0
1001
ACAD
1000
MTEXTBEGIN
1070
    73
1070
     1
1070
    44
1040
1.0
1070
    74
1070
     0
1000
MTEXTEND
  0
POINT
  5
187BB
330
1875B
100
AcDbEntity
  8
DEFPOINTS
 62
     0
100
AcDbPoint
 10
223291.209813235
 20
136457.0538200633
 30
0.0
  0
POINT
  5
187BC
330
1875B
100
AcDbEntity
  8
DEFPOINTS
 62
     0
100
AcDbPoint
 10
223291.209813235
 20
136193.0561095594
 30
0.0
  0
POINT
  5
187BD
330
1875B
100
AcDbEntity
  8
DEFPOINTS
 62
     0
100
AcDbPoint
 10
223749.2865905071
 20
136193.0561095594
 30
0.0
  0
ENDBLK
  5
18764
330
1875B
100
AcDbEntity
  8
0
100
AcDbBlockEnd
  0
BLOCK
  5
1876D
330
18765
100
AcDbEntity
  8
0
100
AcDbBlockBegin
  2
*D308
 70
     1
 10
0.0
 20
0.0
 30
0.0
  3
*D308
  1

  0
LINE
  5
187BE
330
18765
100
AcDbEntity
  8
0Wymiary-PL
 62
     1
370
    -2
100
AcDbLine
 10
223749.2865905071
 20
136163.0561095594
 30
0.0
 11
223749.2865905071
 21
135493.0561095594
 31
0.0
  0
INSERT
  5
187BF
330
18765
100
AcDbEntity
  8
0Wymiary-PL
 62
     1
370
    -2
100
AcDbBlockReference
  2
B-DIM
 10
223749.2865905071
 20
136193.0561095594
 30
0.0
 41
30.0
 42
30.0
 43
30.0
 50
90.0
  0
INSERT
  5
187C0
330
18765
100
AcDbEntity
  8
0Wymiary-PL
 62
     1
370
    -2
100
AcDbBlockReference
  2
B-DIM
 10
223749.2865905071
 20
135463.0561095594
 30
0.0
 41
30.0
 42
30.0
 43
30.0
 50
270.0
  0
MTEXT
  5
187C1
330
18765
100
AcDbEntity
  8
0Wymiary-PL
 62
    10
100
AcDbMText
 10
223669.286590507
 20
135828.0561095595
 30
0.0
 40
80.0
 41
0.0
 71
     5
 72
     1
  1
\A1;730
  7
ROMANS
 11
0.0000000000000001
 21
1.0
 31
0.0
 73
     1
 44
1.0
1001
ACAD
1000
MTEXTBEGIN
1070
    73
1070
     1
1070
    44
1040
1.0
1070
    74
1070
     0
1000
MTEXTEND
  0
POINT
  5
187C2
330
18765
100
AcDbEntity
  8
DEFPOINTS
 62
     0
100
AcDbPoint
 10
223291.209813235
 20
136193.0561095594
 30
0.0
  0
POINT
  5
187C3
330
18765
100
AcDbEntity
  8
DEFPOINTS
 62
     0
100
AcDbPoint
 10
223476.2098132351
 20
135463.0561095594
 30
0.0
  0
POINT
  5
187C4
330
18765
100
AcDbEntity
  8
DEFPOINTS
 62
     0
100
AcDbPoint
 10
223749.2865905071
 20
135463.0561095594
 30
0.0
  0
ENDBLK
  5
1876E
330
18765
100
AcDbEntity
  8
0
100
AcDbBlockEnd
  0
BLOCK
  5
18779
330
1876F
100
AcDbEntity
  8
0
100
AcDbBlockBegin
  2
*D309
 70
     1
 10
0.0
 20
0.0
 30
0.0
  3
*D309
  1

  0
LINE
  5
187C5
330
1876F
100
AcDbEntity
  8
0Wymiary-PL
 62
     1
370
    -2
100
AcDbLine
 10
223749.2865905071
 20
135493.0561095594
 30
0.0
 11
223749.2865905071
 21
135523.0561095594
 31
0.0
  0
LINE
  5
187C6
330
1876F
100
AcDbEntity
  8
0Wymiary-PL
 62
     1
370
    -2
100
AcDbLine
 10
223749.2865905071
 20
135301.0561095594
 30
0.0
 11
223749.2865905071
 21
135271.0561095594
 31
0.0
  0
LINE
  5
187C7
330
1876F
100
AcDbEntity
  8
0Wymiary-PL
 62
     1
370
    -2
100
AcDbLine
 10
223749.2865905071
 20
135463.0561095594
 30
0.0
 11
223749.2865905071
 21
135331.0561095594
 31
0.0
  0
INSERT
  5
187C8
330
1876F
100
AcDbEntity
  8
0Wymiary-PL
 62
     1
370
    -2
100
AcDbBlockReference
  2
B-DIM
 10
223749.2865905071
 20
135463.0561095594
 30
0.0
 41
30.0
 42
30.0
 43
30.0
 50
270.0
  0
INSERT
  5
187C9
330
1876F
100
AcDbEntity
  8
0Wymiary-PL
 62
     1
370
    -2
100
AcDbBlockReference
  2
B-DIM
 10
223749.2865905071
 20
135331.0561095594
 30
0.0
 41
30.0
 42
30.0
 43
30.0
 50
90.0
  0
MTEXT
  5
187CA
330
1876F
100
AcDbEntity
  8
0Wymiary-PL
 62
    10
100
AcDbMText
 10
223669.286590507
 20
135397.0561095595
 30
0.0
 40
80.0
 41
0.0
 71
     5
 72
     1
  1
\A1;132
  7
ROMANS
 11
0.0000000000000001
 21
1.0
 31
0.0
 73
     1
 44
1.0
1001
ACAD
1000
MTEXTBEGIN
1070
    73
1070
     1
1070
    44
1040
1.0
1070
    74
1070
     0
1000
MTEXTEND
  0
POINT
  5
187CB
330
1876F
100
AcDbEntity
  8
DEFPOINTS
 62
     0
100
AcDbPoint
 10
223476.2098132351
 20
135463.0561095594
 30
0.0
  0
POINT
  5
187CC
330
1876F
100
AcDbEntity
  8
DEFPOINTS
 62
     0
100
AcDbPoint
 10
223086.209813235
 20
135331.0561095594
 30
0.0
  0
POINT
  5
187CD
330
1876F
100
AcDbEntity
  8
DEFPOINTS
 62
     0
100
AcDbPoint
 10
223749.2865905071
 20
135331.0561095594
 30
0.0
  0
ENDBLK
  5
1877A
330
1876F
100
AcDbEntity
  8
0
100
AcDbBlockEnd
  0
BLOCK
  5
18783
330
1877B
100
AcDbEntity
  8
0
100
AcDbBlockBegin
  2
*D310
 70
     1
 10
0.0
 20
0.0
 30
0.0
  3
*D310
  1

  0
LINE
  5
187CE
330
1877B
100
AcDbEntity
  8
0Wymiary-PL
 62
     1
370
    -2
100
AcDbLine
 10
223946.1221902173
 20
136427.0538200633
 30
0.0
 11
223946.1221902173
 21
135361.0561095594
 31
0.0
  0
INSERT
  5
187CF
330
1877B
100
AcDbEntity
  8
0Wymiary-PL
 62
     1
370
    -2
100
AcDbBlockReference
  2
B-DIM
 10
223946.1221902173
 20
136457.0538200633
 30
0.0
 41
30.0
 42
30.0
 43
30.0
 50
90.0
  0
INSERT
  5
187D0
330
1877B
100
AcDbEntity
  8
0Wymiary-PL
 62
     1
370
    -2
100
AcDbBlockReference
  2
B-DIM
 10
223946.1221902173
 20
135331.0561095594
 30
0.0
 41
30.0
 42
30.0
 43
30.0
 50
270.0
  0
MTEXT
  5
187D1
330
1877B
100
AcDbEntity
  8
0Wymiary-PL
 62
    10
100
AcDbMText
 10
223866.1221902173
 20
135894.0549648114
 30
0.0
 40
80.0
 41
0.0
 71
     5
 72
     1
  1
\A1;1126
  7
ROMANS
 11
0.0000000000000001
 21
1.0
 31
0.0
 73
     1
 44
1.0
1001
ACAD
1000
MTEXTBEGIN
1070
    73
1070
     1
1070
    44
1040
1.0
1070
    74
1070
     0
1000
MTEXTEND
  0
POINT
  5
187D2
330
1877B
100
AcDbEntity
  8
DEFPOINTS
 62
     0
100
AcDbPoint
 10
223303.049464399
 20
136457.0538200633
 30
0.0
  0
POINT
  5
187D3
330
1877B
100
AcDbEntity
  8
DEFPOINTS
 62
     0
100
AcDbPoint
 10
223098.0494643991
 20
135331.0561095594
 30
0.0
  0
POINT
  5
187D4
330
1877B
100
AcDbEntity
  8
DEFPOINTS
 62
     0
100
AcDbPoint
 10
223946.1221902173
 20
135331.0561095594
 30
0.0
  0
ENDBLK
  5
18784
330
1877B
100
AcDbEntity
  8
0
100
AcDbBlockEnd
  0
BLOCK
  5
1878D
330
18785
100
AcDbEntity
  8
0
100
AcDbBlockBegin
  2
*D311
 70
     1
 10
0.0
 20
0.0
 30
0.0
  3
*D311
  1

  0
LINE
  5
187D5
330
18785
100
AcDbEntity
  8
0Wymiary-PL
 62
     1
370
    -2
100
AcDbLine
 10
223446.209813235
 20
134859.2548682663
 30
0.0
 11
223116.2098132351
 21
134859.2548682663
 31
0.0
  0
INSERT
  5
187D6
330
18785
100
AcDbEntity
  8
0Wymiary-PL
 62
     1
370
    -2
100
AcDbBlockReference
  2
B-DIM
 10
223476.2098132351
 20
134859.2548682663
 30
0.0
 41
30.0
 42
30.0
 43
30.0
  0
INSERT
  5
187D7
330
18785
100
AcDbEntity
  8
0Wymiary-PL
 62
     1
370
    -2
100
AcDbBlockReference
  2
B-DIM
 10
223086.209813235
 20
134859.2548682663
 30
0.0
 41
30.0
 42
30.0
 43
30.0
 50
180.0
  0
MTEXT
  5
187D8
330
18785
100
AcDbEntity
  8
0Wymiary-PL
 62
    10
100
AcDbMText
 10
223281.2098132351
 20
134939.2548682664
 30
0.0
 40
80.0
 41
0.0
 71
     5
 72
     1
  1
\A1;390
  7
ROMANS
 73
     1
 44
1.0
1001
ACAD
1000
MTEXTBEGIN
1070
    73
1070
     1
1070
    44
1040
1.0
1070
    74
1070
     0
1000
MTEXTEND
  0
POINT
  5
187D9
330
18785
100
AcDbEntity
  8
DEFPOINTS
 62
     0
100
AcDbPoint
 10
223476.2098132351
 20
135463.0561095594
 30
0.0
  0
POINT
  5
187DA
330
18785
100
AcDbEntity
  8
DEFPOINTS
 62
     0
100
AcDbPoint
 10
223086.209813235
 20
135463.0561095594
 30
0.0
  0
POINT
  5
187DB
330
18785
100
AcDbEntity
  8
DEFPOINTS
 62
     0
100
AcDbPoint
 10
223086.209813235
 20
134859.2548682663
 30
0.0
  0
ENDBLK
  5
1878E
330
18785
100
AcDbEntity
  8
0
100
AcDbBlockEnd
  0
BLOCK
  5
18797
330
1878F
100
AcDbEntity
  8
0
100
AcDbBlockBegin
  2
*D312
 70
     1
 10
0.0
 20
0.0
 30
0.0
  3
*D312
  1

  0
LINE
  5
187DC
330
1878F
100
AcDbEntity
  8
0Wymiary-PL
 62
     1
370
    -2
100
AcDbLine
 10
223056.2098132351
 20
134859.2548682663
 30
0.0
 11
222756.209813235
 21
134859.2548682663
 31
0.0
  0
INSERT
  5
187DD
330
1878F
100
AcDbEntity
  8
0Wymiary-PL
 62
     1
370
    -2
100
AcDbBlockReference
  2
B-DIM
 10
223086.209813235
 20
134859.2548682663
 30
0.0
 41
30.0
 42
30.0
 43
30.0
  0
INSERT
  5
187DE
330
1878F
100
AcDbEntity
  8
0Wymiary-PL
 62
     1
370
    -2
100
AcDbBlockReference
  2
B-DIM
 10
222726.2098132351
 20
134859.2548682663
 30
0.0
 41
30.0
 42
30.0
 43
30.0
 50
180.0
  0
MTEXT
  5
187DF
330
1878F
100
AcDbEntity
  8
0Wymiary-PL
 62
    10
100
AcDbMText
 10
222906.2098132351
 20
134939.2548682664
 30
0.0
 40
80.0
 41
0.0
 71
     5
 72
     1
  1
\A1;360
  7
ROMANS
 73
     1
 44
1.0
1001
ACAD
1000
MTEXTBEGIN
1070
    73
1070
     1
1070
    44
1040
1.0
1070
    74
1070
     0
1000
MTEXTEND
  0
POINT
  5
187E0
330
1878F
100
AcDbEntity
  8
DEFPOINTS
 62
     0
100
AcDbPoint
 10
223086.209813235
 20
135463.0561095594
 30
0.0
  0
POINT
  5
187E1
330
1878F
100
AcDbEntity
  8
DEFPOINTS
 62
     0
100
AcDbPoint
 10
222726.2098132351
 20
135331.0561095594
 30
0.0
  0
POINT
  5
187E2
330
1878F
100
AcDbEntity
  8
DEFPOINTS
 62
     0
100
AcDbPoint
 10
222726.2098132351
 20
134859.2548682663
 30
0.0
  0
ENDBLK
  5
18798
330
1878F
100
AcDbEntity
  8
0
100
AcDbBlockEnd
  0
BLOCK
  5
187A1
330
18799
100
AcDbEntity
  8
0
100
AcDbBlockBegin
  2
*D313
 70
     1
 10
0.0
 20
0.0
 30
0.0
  3
*D313
  1

  0
LINE
  5
187E3
330
18799
100
AcDbEntity
  8
0Wymiary-PL
 62
     1
370
    -2
100
AcDbLine
 10
222696.2098132351
 20
134859.2548682663
 30
0.0
 11
222366.2098132351
 21
134859.2548682663
 31
0.0
  0
INSERT
  5
187E4
330
18799
100
AcDbEntity
  8
0Wymiary-PL
 62
     1
370
    -2
100
AcDbBlockReference
  2
B-DIM
 10
222726.2098132351
 20
134859.2548682663
 30
0.0
 41
30.0
 42
30.0
 43
30.0
  0
INSERT
  5
187E5
330
18799
100
AcDbEntity
  8
0Wymiary-PL
 62
     1
370
    -2
100
AcDbBlockReference
  2
B-DIM
 10
222336.209813235
 20
134859.2548682663
 30
0.0
 41
30.0
 42
30.0
 43
30.0
 50
180.0
  0
MTEXT
  5
187E6
330
18799
100
AcDbEntity
  8
0Wymiary-PL
 62
    10
100
AcDbMText
 10
222531.209813235
 20
134939.2548682664
 30
0.0
 40
80.0
 41
0.0
 71
     5
 72
     1
  1
\A1;390
  7
ROMANS
 73
     1
 44
1.0
1001
ACAD
1000
MTEXTBEGIN
1070
    73
1070
     1
1070
    44
1040
1.0
1070
    74
1070
     0
1000
MTEXTEND
  0
POINT
  5
187E7
330
18799
100
AcDbEntity
  8
DEFPOINTS
 62
     0
100
AcDbPoint
 10
222726.2098132351
 20
135331.0561095594
 30
0.0
  0
POINT
  5
187E8
330
18799
100
AcDbEntity
  8
DEFPOINTS
 62
     0
100
AcDbPoint
 10
222336.209813235
 20
135463.0561095594
 30
0.0
  0
POINT
  5
187E9
330
18799
100
AcDbEntity
  8
DEFPOINTS
 62
     0
100
AcDbPoint
 10
222336.209813235
 20
134859.2548682663
 30
0.0
  0
ENDBLK
  5
187A2
330
18799
100
AcDbEntity
  8
0
100
AcDbBlockEnd
  0
BLOCK
  5
187AB
330
187A3
100
AcDbEntity
  8
0
100
AcDbBlockBegin
  2
*D314
 70
     1
 10
0.0
 20
0.0
 30
0.0
  3
*D314
  1

  0
LINE
  5
187EA
330
187A3
100
AcDbEntity
  8
0Wymiary-PL
 62
     1
370
    -2
100
AcDbLine
 10
222306.209813235
 20
134859.2548682663
 30
0.0
 11
221746.209813235
 21
134859.2548682663
 31
0.0
  0
INSERT
  5
187EB
330
187A3
100
AcDbEntity
  8
0Wymiary-PL
 62
     1
370
    -2
100
AcDbBlockReference
  2
B-DIM
 10
222336.209813235
 20
134859.2548682663
 30
0.0
 41
30.0
 42
30.0
 43
30.0
  0
INSERT
  5
187EC
330
187A3
100
AcDbEntity
  8
0Wymiary-PL
 62
     1
370
    -2
100
AcDbBlockReference
  2
B-DIM
 10
221716.209813235
 20
134859.2548682663
 30
0.0
 41
30.0
 42
30.0
 43
30.0
 50
180.0
  0
MTEXT
  5
187ED
330
187A3
100
AcDbEntity
  8
0Wymiary-PL
 62
    10
100
AcDbMText
 10
222026.2098132351
 20
134939.2548682664
 30
0.0
 40
80.0
 41
0.0
 71
     5
 72
     1
  1
\A1;620
  7
ROMANS
 73
     1
 44
1.0
1001
ACAD
1000
MTEXTBEGIN
1070
    73
1070
     1
1070
    44
1040
1.0
1070
    74
1070
     0
1000
MTEXTEND
  0
POINT
  5
187EE
330
187A3
100
AcDbEntity
  8
DEFPOINTS
 62
     0
100
AcDbPoint
 10
222336.209813235
 20
135463.0561095594
 30
0.0
  0
POINT
  5
187EF
330
187A3
100
AcDbEntity
  8
DEFPOINTS
 62
     0
100
AcDbPoint
 10
221716.209813235
 20
135486.0561095594
 30
0.0
  0
POINT
  5
187F0
330
187A3
100
AcDbEntity
  8
DEFPOINTS
 62
     0
100
AcDbPoint
 10
221716.209813235
 20
134859.2548682663
 30
0.0
  0
ENDBLK
  5
187AC
330
187A3
100
AcDbEntity
  8
0
100
AcDbBlockEnd
  0
BLOCK
  5
187B5
330
187AD
100
AcDbEntity
  8
0
100
AcDbBlockBegin
  2
*D315
 70
     1
 10
0.0
 20
0.0
 30
0.0
  3
*D315
  1

  0
LINE
  5
187F1
330
187AD
100
AcDbEntity
  8
0Wymiary-PL
 62
     1
370
    -2
100
AcDbLine
 10
223446.209813235
 20
134633.5736215522
 30
0.0
 11
221746.209813235
 21
134633.5736215522
 31
0.0
  0
INSERT
  5
187F2
330
187AD
100
AcDbEntity
  8
0Wymiary-PL
 62
     1
370
    -2
100
AcDbBlockReference
  2
B-DIM
 10
223476.2098132351
 20
134633.5736215522
 30
0.0
 41
30.0
 42
30.0
 43
30.0
  0
INSERT
  5
187F3
330
187AD
100
AcDbEntity
  8
0Wymiary-PL
 62
     1
370
    -2
100
AcDbBlockReference
  2
B-DIM
 10
221716.209813235
 20
134633.5736215522
 30
0.0
 41
30.0
 42
30.0
 43
30.0
 50
180.0
  0
MTEXT
  5
187F4
330
187AD
100
AcDbEntity
  8
0Wymiary-PL
 62
    10
100
AcDbMText
 10
222596.2098132351
 20
134713.5736215522
 30
0.0
 40
80.0
 41
0.0
 71
     5
 72
     1
  1
\A1;1760
  7
ROMANS
 73
     1
 44
1.0
1001
ACAD
1000
MTEXTBEGIN
1070
    73
1070
     1
1070
    44
1040
1.0
1070
    74
1070
     0
1000
MTEXTEND
  0
POINT
  5
187F5
330
187AD
100
AcDbEntity
  8
DEFPOINTS
 62
     0
100
AcDbPoint
 10
223476.2098132351
 20
135463.0561095594
 30
0.0
  0
POINT
  5
187F6
330
187AD
100
AcDbEntity
  8
DEFPOINTS
 62
     0
100
AcDbPoint
 10
221716.209813235
 20
135486.0561095594
 30
0.0
  0
POINT
  5
187F7
330
187AD
100
AcDbEntity
  8
DEFPOINTS
 62
     0
100
AcDbPoint
 10
221716.209813235
 20
134633.5736215522
 30
0.0
  0
ENDBLK
  5
187B6
330
187AD
100
AcDbEntity
  8
0
100
AcDbBlockEnd
  0
ENDSEC
  0
SECTION
  2
ENTITIES
  0
TEXT
  5
142
330
2
100
AcDbEntity
  8
NAPISY
370
     5
100
AcDbText
 10
216646.5520012698
 20
128323.0717886572
 30
0.0
 40
100.0
  1
   O B R Y S   B U D Y N K U           S K A L A   1 : 5 0 0 
  7
AVA
100
AcDbText
  0
LINE
  5
157
330
2
100
AcDbEntity
  8
NAPISY
  6
HIDDEN
 62
     1
 48
8.0
370
     5
100
AcDbLine
 10
220399.8892448725
 20
132297.6012553763
 30
0.0
 11
220399.8892448725
 21
138473.1198157809
 31
0.0
  0
TEXT
  5
159
330
2
100
AcDbEntity
  8
NAPISY
370
     5
100
AcDbText
 10
220340.3680678792
 20
132512.3704586351
 30
0.0
 40
100.0
  1
OŚ ODBICIA LUSTRZANEGO
 50
90.0
  7
AVA
100
AcDbText
  0
TEXT
  5
15B
330
2
100
AcDbEntity
  8
NAPISY
370
     5
100
AcDbText
 10
216742.7650523877
 20
140786.437049539
 30
0.0
 40
150.0
  1
MOŻNA WKLEIĆ DO PROJEKTU ZAGOSPODAROWANIA TERENU
  7
AVA
100
AcDbText
  0
TEXT
  5
15C
330
2
100
AcDbEntity
  8
NAPISY
370
     5
100
AcDbText
 10
216666.4297817526
 20
141116.3055269018
 30
0.0
 40
150.0
  1
"DOM  W  LAWENDZIE (G2)"
  7
AVA
100
AcDbText
  0
LWPOLYLINE
  5
12D9D
330
2
100
AcDbEntity
  8
RAMKI-A4
370
     5
100
AcDbPolyline
 90
        4
 70
     1
 43
0.0
 10
215187.2000545948
 20
127657.5157057546
 10
215187.2000545948
 20
141677.5157057546
 10
225387.2000545948
 20
141677.5157057546
 10
225387.2000545948
 20
127657.5157057546
  0
LINE
  5
185D7
102
{ACAD_REACTORS
330
18611
330
18842
102
}
330
2
100
AcDbEntity
  8
0Widok
100
AcDbLine
 10
217671.06867651
 20
136457.0538200633
 30
0.0
 11
217671.06867651
 21
136397.0538200633
 31
0.0
  0
LINE
  5
185DA
102
{ACAD_REACTORS
330
18621
330
18842
102
}
330
2
100
AcDbEntity
  8
0Widok
100
AcDbLine
 10
217911.06867651
 20
136457.0538200633
 30
0.0
 11
217911.06867651
 21
136397.0538200633
 31
0.0
  0
LINE
  5
185DE
102
{ACAD_REACTORS
330
18611
102
}
330
2
100
AcDbEntity
  8
0Widok
100
AcDbLine
 10
217808.5686765101
 20
135331.0561095594
 30
0.0
 11
217808.5686765101
 21
135391.0561095594
 31
0.0
  0
LINE
  5
185E6
102
{ACAD_REACTORS
330
1862E
102
}
330
2
100
AcDbEntity
  8
0Widok
100
AcDbLine
 10
217978.56867651
 20
135331.0561095594
 30
0.0
 11
217978.56867651
 21
135391.0561095594
 31
0.0
  0
LINE
  5
185E8
102
{ACAD_REACTORS
330
1862E
102
}
330
2
100
AcDbEntity
  8
0Widok
100
AcDbLine
 10
218521.56867651
 20
135486.0561095594
 30
0.0
 11
218521.56867651
 21
135546.0561095594
 31
0.0
  0
LINE
  5
185EB
102
{ACAD_REACTORS
330
18621
102
}
330
2
100
AcDbEntity
  8
0Widok
100
AcDbLine
 10
219023.56867651
 20
135486.0561095594
 30
0.0
 11
219023.56867651
 21
135546.0561095594
 31
0.0
  0
LWPOLYLINE
  5
185FD
102
{ACAD_REACTORS
330
18611
330
18621
330
1862E
330
18842
102
}
330
2
100
AcDbEntity
  8
0Widok
100
AcDbPolyline
 90
       16
 70
     1
 43
0.0
 10
219023.56867651
 20
136110.0561095594
 10
218403.5686765102
 20
136110.0561095594
 10
218403.5686765101
 20
136133.0561095594
 10
218013.5686765099
 20
136133.0561095594
 10
218013.5686765101
 20
136397.0538200633
 10
217568.5686765101
 20
136397.0538200633
 10
217568.5686765099
 20
136133.0561095594
 10
217383.56867651
 20
136133.0561095594
 10
217383.56867651
 20
135523.0561095594
 10
217773.56867651
 20
135523.0561095594
 10
217773.56867651
 20
135391.0561095594
 10
218013.56867651
 20
135391.0561095594
 10
218013.56867651
 20
135523.0561095594
 10
218403.5686765099
 20
135523.0561095594
 10
218403.5686765099
 20
135546.0561095594
 10
219023.56867651
 20
135546.0561095594
  0
LWPOLYLINE
  5
18600
102
{ACAD_REACTORS
330
18611
330
18621
330
1862E
330
18842
102
}
330
2
100
AcDbEntity
  8
0Widok
100
AcDbPolyline
 90
       16
 70
     1
 43
0.0
 10
219083.56867651
 20
136170.0561095594
 10
218463.56867651
 20
136170.0561095594
 10
218463.56867651
 20
136193.0561095594
 10
218073.56867651
 20
136193.0561095594
 10
218073.5686765101
 20
136457.0538200633
 10
217508.5686765101
 20
136457.0538200633
 10
217508.56867651
 20
136193.0561095594
 10
217323.56867651
 20
136193.0561095594
 10
217323.56867651
 20
135463.0561095594
 10
217713.56867651
 20
135463.0561095594
 10
217713.56867651
 20
135331.0561095594
 10
218073.56867651
 20
135331.0561095594
 10
218073.56867651
 20
135463.0561095594
 10
218463.56867651
 20
135463.0561095594
 10
218463.56867651
 20
135486.0561095594
 10
219083.56867651
 20
135486.0561095594
  0
HATCH
  5
18611
330
2
100
AcDbEntity
  8
0Hatch
100
AcDbHatch
 10
0.0
 20
0.0
 30
0.0
210
0.0
220
0.0
230
1.0
  2
SOLID
 70
     1
 71
     1
 91
        1
 92
        7
 72
     0
 73
     1
 93
       16
 10
217568.5686765101
 20
136397.0538200633
 10
217671.0686765101
 20
136397.0538200633
 10
217671.06867651
 20
136457.0538200633
 10
217508.56867651
 20
136457.0538200633
 10
217508.56867651
 20
136193.0561095594
 10
217323.56867651
 20
136193.0561095594
 10
217323.56867651
 20
135463.0561095594
 10
217713.56867651
 20
135463.0561095594
 10
217713.56867651
 20
135331.0561095594
 10
217808.5686765101
 20
135331.0561095594
 10
217808.5686765101
 20
135391.0561095594
 10
217773.56867651
 20
135391.0561095594
 10
217773.56867651
 20
135523.0561095594
 10
217383.56867651
 20
135523.0561095594
 10
217383.56867651
 20
136133.0561095594
 10
217568.56867651
 20
136133.0561095594
 97
        4
330
185FD
330
185D7
330
18600
330
185DE
 75
     0
 76
     1
 47
5.12417033159876
 98
        1
 10
217545.723841633
 20
136310.9735569646
1001
ACAD
1010
0.0
1020
0.0
1030
0.0
  0
HATCH
  5
18621
330
2
100
AcDbEntity
  8
0Hatch
100
AcDbHatch
 10
0.0
 20
0.0
 30
0.0
210
0.0
220
0.0
230
1.0
  2
SOLID
 70
     1
 71
     1
 91
        1
 92
        7
 72
     0
 73
     1
 93
       15
 10
217911.06867651
 20
136457.0538200633
 10
217911.0686765101
 20
136397.0538200633
 10
218013.5686765101
 20
136397.0538200633
 10
218013.5686765099
 20
136133.0561095594
 10
218403.5686765101
 20
136133.0561095594
 10
218403.5686765102
 20
136110.0561095594
 10
219023.5686765101
 20
136110.0561095594
 10
219023.56867651
 20
135546.0561095594
 10
219023.56867651
 20
135486.0561095594
 10
219083.56867651
 20
135486.0561095594
 10
219083.56867651
 20
136170.0561095594
 10
218463.56867651
 20
136170.0561095594
 10
218463.56867651
 20
136193.0561095594
 10
218073.56867651
 20
136193.0561095594
 10
218073.5686765101
 20
136457.0538200633
 97
        4
330
18600
330
185DA
330
185FD
330
185EB
 75
     0
 76
     1
 47
5.12417033159876
 98
        1
 10
218007.1874181376
 20
136433.9536340941
1001
ACAD
1010
0.0
1020
0.0
1030
0.0
  0
HATCH
  5
1862E
330
2
100
AcDbEntity
  8
0Hatch
100
AcDbHatch
 10
0.0
 20
0.0
 30
0.0
210
0.0
220
0.0
230
1.0
  2
SOLID
 70
     1
 71
     1
 91
        1
 92
        7
 72
     0
 73
     1
 93
       12
 10
218463.5686765101
 20
135463.0561095594
 10
218463.56867651
 20
135486.0561095594
 10
218521.56867651
 20
135486.0561095594
 10
218521.56867651
 20
135546.0561095594
 10
218403.5686765099
 20
135546.0561095594
 10
218403.5686765099
 20
135523.0561095594
 10
218013.56867651
 20
135523.0561095594
 10
218013.56867651
 20
135391.0561095594
 10
217978.56867651
 20
135391.0561095594
 10
217978.5686765101
 20
135331.0561095594
 10
218073.56867651
 20
135331.0561095594
 10
218073.56867651
 20
135463.0561095594
 97
        4
330
185FD
330
185E6
330
18600
330
185E8
 75
     0
 76
     1
 47
5.12417033159876
 98
        1
 10
218114.8623172258
 20
135491.1062709892
1001
ACAD
1010
0.0
1020
0.0
1030
0.0
  0
CIRCLE
  5
1864C
102
{ACAD_REACTORS
330
18653
102
}
330
2
100
AcDbEntity
  8
0Widok
100
AcDbCircle
 10
218018.56867651
 20
135251.0561095594
 30
0.0
 40
15.0
  0
CIRCLE
  5
1864D
102
{ACAD_REACTORS
330
18650
102
}
330
2
100
AcDbEntity
  8
0Widok
100
AcDbCircle
 10
217768.56867651
 20
135251.0561095594
 30
0.0
 40
15.0
  0
HATCH
  5
18650
330
2
100
AcDbEntity
  8
0Hatch
100
AcDbHatch
 10
0.0
 20
0.0
 30
0.0
210
0.0
220
0.0
230
1.0
  2
SOLID
 70
     1
 71
     1
 91
        1
 92
        7
 72
     1
 73
     1
 93
        2
 10
217783.56867651
 20
135251.0561095594
 42
1.0
 10
217753.56867651
 20
135251.0561095594
 42
1.0
 97
        1
330
1864D
 75
     0
 76
     1
 47
1.046398679665512
 98
        1
 10
217763.2907494424
 20
135254.1824482596
1001
ACAD
1010
0.0
1020
0.0
1030
0.0
  0
HATCH
  5
18653
330
2
100
AcDbEntity
  8
0Hatch
100
AcDbHatch
 10
0.0
 20
0.0
 30
0.0
210
0.0
220
0.0
230
1.0
  2
SOLID
 70
     1
 71
     1
 91
        1
 92
        7
 72
     1
 73
     1
 93
        2
 10
218033.56867651
 20
135251.0561095594
 42
1.0
 10
218003.56867651
 20
135251.0561095594
 42
1.0
 97
        1
330
1864C
 75
     0
 76
     1
 47
1.046398679665512
 98
        1
 10
218021.9128067039
 20
135249.9968431453
1001
ACAD
1010
0.0
1020
0.0
1030
0.0
  0
LINE
  5
18654
330
2
100
AcDbEntity
  8
-widok
100
AcDbLine
 10
218103.56867651
 20
135231.0561095594
 30
0.0
 11
217683.56867651
 21
135231.0561095594
 31
0.0
  0
LINE
  5
18655
330
2
100
AcDbEntity
  8
-widok
100
AcDbLine
 10
218133.56867651
 20
135201.0561095594
 30
0.0
 11
217653.56867651
 21
135201.0561095594
 31
0.0
  0
LINE
  5
18656
330
2
100
AcDbEntity
  8
-widok
100
AcDbLine
 10
217683.56867651
 20
135231.0561095594
 30
0.0
 11
217683.56867651
 21
135463.0561095594
 31
0.0
  0
LINE
  5
18657
330
2
100
AcDbEntity
  8
-widok
100
AcDbLine
 10
217653.56867651
 20
135201.0561095594
 30
0.0
 11
217653.56867651
 21
135463.0561095594
 31
0.0
  0
LINE
  5
18658
330
2
100
AcDbEntity
  8
-widok
100
AcDbLine
 10
217623.56867651
 20
135171.0561095594
 30
0.0
 11
217623.56867651
 21
135463.0561095594
 31
0.0
  0
LINE
  5
18659
330
2
100
AcDbEntity
  8
-widok
100
AcDbLine
 10
218163.56867651
 20
135171.0561095594
 30
0.0
 11
217623.56867651
 21
135171.0561095594
 31
0.0
  0
LINE
  5
1865A
330
2
100
AcDbEntity
  8
-widok
100
AcDbLine
 10
218103.56867651
 20
135231.0561095594
 30
0.0
 11
218103.56867651
 21
135463.0561095594
 31
0.0
  0
LINE
  5
1865B
330
2
100
AcDbEntity
  8
-widok
100
AcDbLine
 10
218133.56867651
 20
135201.0561095594
 30
0.0
 11
218133.56867651
 21
135463.0561095594
 31
0.0
  0
LINE
  5
1865C
330
2
100
AcDbEntity
  8
-widok
100
AcDbLine
 10
218163.56867651
 20
135171.0561095594
 30
0.0
 11
218163.56867651
 21
135463.0561095594
 31
0.0
  0
LINE
  5
1865D
330
2
100
AcDbEntity
  8
0Widok
100
AcDbLine
 10
218463.56867651
 20
135363.0561095594
 30
0.0
 11
218773.56867651
 21
135463.0561095594
 31
0.0
  0
LINE
  5
1865E
330
2
100
AcDbEntity
  8
0Widok
100
AcDbLine
 10
219083.56867651
 20
135463.0561095594
 30
0.0
 11
218463.56867651
 21
135463.0561095594
 31
0.0
  0
LINE
  5
1865F
330
2
100
AcDbEntity
  8
0Widok
100
AcDbLine
 10
219083.56867651
 20
135363.0561095594
 30
0.0
 11
218463.56867651
 21
135363.0561095594
 31
0.0
  0
LINE
  5
18660
330
2
100
AcDbEntity
  8
0Widok
100
AcDbLine
 10
218463.56867651
 20
135463.0561095594
 30
0.0
 11
218463.56867651
 21
135363.0561095594
 31
0.0
  0
LINE
  5
18661
330
2
100
AcDbEntity
  8
0Widok
100
AcDbLine
 10
218773.56867651
 20
135463.0561095594
 30
0.0
 11
219083.56867651
 21
135363.0561095594
 31
0.0
  0
LINE
  5
18662
330
2
100
AcDbEntity
  8
0Widok
100
AcDbLine
 10
219083.56867651
 20
135486.0561095594
 30
0.0
 11
219083.56867651
 21
135363.0561095594
 31
0.0
  0
LINE
  5
18673
330
2
100
AcDbEntity
  8
-widok
100
AcDbLine
 10
218253.56867651
 20
136637.0538200633
 30
0.0
 11
217448.56867651
 21
136637.0538200633
 31
0.0
  0
LINE
  5
18674
330
2
100
AcDbEntity
  8
-widok
100
AcDbLine
 10
218241.1422696388
 20
136607.0538200633
 30
0.0
 11
217478.56867651
 21
136607.0538200633
 31
0.0
  0
LINE
  5
18675
330
2
100
AcDbEntity
  8
-widok
100
AcDbLine
 10
217448.56867651
 20
136427.0538200633
 30
0.0
 11
217448.56867651
 21
136637.0538200633
 31
0.0
  0
LINE
  5
18676
330
2
100
AcDbEntity
  8
-widok
100
AcDbLine
 10
217478.56867651
 20
136457.0538200633
 30
0.0
 11
217478.56867651
 21
136607.0538200633
 31
0.0
  0
LINE
  5
18677
330
2
100
AcDbEntity
  8
-widok
100
AcDbLine
 10
217508.56867651
 20
136427.0538200633
 30
0.0
 11
217448.56867651
 21
136427.0538200633
 31
0.0
  0
LINE
  5
18678
330
2
100
AcDbEntity
  8
-widok
100
AcDbLine
 10
217508.56867651
 20
136457.0538200633
 30
0.0
 11
217478.56867651
 21
136457.0538200633
 31
0.0
  0
LINE
  5
18679
330
2
100
AcDbEntity
  8
-widok
100
AcDbLine
 10
218403.56867651
 20
136444.6274131921
 30
0.0
 11
218241.1422696388
 21
136607.0538200633
 31
0.0
  0
LINE
  5
1867A
330
2
100
AcDbEntity
  8
-widok
100
AcDbLine
 10
218433.56867651
 20
136193.0561095594
 30
0.0
 11
218433.56867651
 21
136457.0538200633
 31
0.0
  0
LINE
  5
1867B
330
2
100
AcDbEntity
  8
-widok
100
AcDbLine
 10
218403.56867651
 20
136193.0561095594
 30
0.0
 11
218403.56867651
 21
136444.6274131921
 31
0.0
  0
LINE
  5
1867C
330
2
100
AcDbEntity
  8
-widok
100
AcDbLine
 10
218433.56867651
 20
136457.0538200633
 30
0.0
 11
218253.56867651
 21
136637.0538200633
 31
0.0
  0
DIMENSION
  5
1869A
330
2
100
AcDbEntity
  8
0Wymiary-PL
100
AcDbDimension
  2
*D297
 10
217050.491899238
 20
136193.0561095594
 30
0.0
 11
216970.491899238
 21
136325.0549648114
 31
0.0
 70
    32
 71
     5
 42
263.9977105038706
  3
500
100
AcDbAlignedDimension
 13
217508.56867651
 23
136457.0538200633
 33
0.0
 14
217508.56867651
 24
136193.0561095594
 34
0.0
 50
90.0
100
AcDbRotatedDimension
  0
DIMENSION
  5
186B3
330
2
100
AcDbEntity
  8
0Wymiary-PL
100
AcDbDimension
  2
*D298
 10
217050.491899238
 20
135463.0561095594
 30
0.0
 11
216970.491899238
 21
135828.0561095595
 31
0.0
 70
    32
 71
     5
 42
730.0
  3
500
100
AcDbAlignedDimension
 13
217508.56867651
 23
136193.0561095594
 33
0.0
 14
217323.56867651
 24
135463.0561095594
 34
0.0
 50
90.0
100
AcDbRotatedDimension
  0
DIMENSION
  5
186BE
330
2
100
AcDbEntity
  8
0Wymiary-PL
100
AcDbDimension
  2
*D299
 10
217050.491899238
 20
135331.0561095594
 30
0.0
 11
216970.491899238
 21
135397.0561095595
 31
0.0
 70
    32
 71
     5
 42
132.0
  3
500
100
AcDbAlignedDimension
 13
217323.56867651
 23
135463.0561095594
 33
0.0
 14
217713.56867651
 24
135331.0561095594
 34
0.0
 50
90.0
100
AcDbRotatedDimension
  0
DIMENSION
  5
186CB
330
2
100
AcDbEntity
  8
0Wymiary-PL
100
AcDbDimension
  2
*D300
 10
216853.6562995278
 20
135331.0561095594
 30
0.0
 11
216773.6562995278
 21
135894.0549648114
 31
0.0
 70
    32
 71
     5
 42
1125.99771050387
  3
500
100
AcDbAlignedDimension
 13
217496.729025346
 23
136457.0538200633
 33
0.0
 14
217701.729025346
 24
135331.0561095594
 34
0.0
 50
90.0
100
AcDbRotatedDimension
  0
DIMENSION
  5
186E8
330
2
100
AcDbEntity
  8
0Wymiary-PL
100
AcDbDimension
  2
*D302
 10
217713.56867651
 20
134859.2548682663
 30
0.0
 11
217518.56867651
 21
134939.2548682664
 31
0.0
 70
    32
 71
     5
 42
390.0
  3
500
100
AcDbAlignedDimension
 13
217323.56867651
 23
135463.0561095594
 33
0.0
 14
217713.56867651
 24
135463.0561095594
 34
0.0
100
AcDbRotatedDimension
  0
DIMENSION
  5
186F3
330
2
100
AcDbEntity
  8
0Wymiary-PL
100
AcDbDimension
  2
*D303
 10
218073.56867651
 20
134859.2548682663
 30
0.0
 11
217893.56867651
 21
134939.2548682664
 31
0.0
 70
    32
 71
     5
 42
360.0
  3
500
100
AcDbAlignedDimension
 13
217713.56867651
 23
135463.0561095594
 33
0.0
 14
218073.56867651
 24
135331.0561095594
 34
0.0
100
AcDbRotatedDimension
  0
DIMENSION
  5
186FE
330
2
100
AcDbEntity
  8
0Wymiary-PL
100
AcDbDimension
  2
*D304
 10
218463.56867651
 20
134859.2548682663
 30
0.0
 11
218268.56867651
 21
134939.2548682664
 31
0.0
 70
    32
 71
     5
 42
390.0
  3
500
100
AcDbAlignedDimension
 13
218073.56867651
 23
135331.0561095594
 33
0.0
 14
218463.56867651
 24
135463.0561095594
 34
0.0
100
AcDbRotatedDimension
  0
DIMENSION
  5
18709
330
2
100
AcDbEntity
  8
0Wymiary-PL
100
AcDbDimension
  2
*D305
 10
219083.56867651
 20
134859.2548682663
 30
0.0
 11
218773.56867651
 21
134939.2548682664
 31
0.0
 70
    32
 71
     5
 42
620.0
  3
500
100
AcDbAlignedDimension
 13
218463.56867651
 23
135463.0561095594
 33
0.0
 14
219083.56867651
 24
135486.0561095594
 34
0.0
100
AcDbRotatedDimension
  0
DIMENSION
  5
18714
330
2
100
AcDbEntity
  8
0Wymiary-PL
100
AcDbDimension
  2
*D306
 10
219083.56867651
 20
134633.5736215522
 30
0.0
 11
218203.56867651
 21
134713.5736215522
 31
0.0
 70
    32
 71
     5
 42
1760.0
  3
500
100
AcDbAlignedDimension
 13
217323.56867651
 23
135463.0561095594
 33
0.0
 14
219083.56867651
 24
135486.0561095594
 34
0.0
100
AcDbRotatedDimension
  0
HATCH
  5
1872A
330
2
100
AcDbEntity
  8
0Hatch
100
AcDbHatch
 10
0.0
 20
0.0
 30
0.0
210
0.0
220
0.0
230
1.0
  2
SOLID
 70
     1
 71
     1
 91
        1
 92
        7
 72
     0
 73
     1
 93
       16
 10
223231.2098132351
 20
136133.0561095594
 10
223416.2098132351
 20
136133.0561095594
 10
223416.2098132351
 20
135523.0561095594
 10
223026.2098132351
 20
135523.0561095594
 10
223026.2098132351
 20
135391.0561095594
 10
222991.209813235
 20
135391.0561095594
 10
222991.209813235
 20
135331.0561095594
 10
223086.2098132351
 20
135331.0561095594
 10
223086.2098132351
 20
135463.0561095594
 10
223476.2098132351
 20
135463.0561095594
 10
223476.2098132351
 20
136193.0561095594
 10
223291.2098132351
 20
136193.0561095594
 10
223291.209813235
 20
136457.0538200633
 10
223128.7098132351
 20
136457.0538200633
 10
223128.7098132351
 20
136397.0538200633
 10
223231.209813235
 20
136397.0538200633
 97
        4
330
18733
330
1872B
330
18734
330
1872E
 75
     0
 76
     1
 47
5.12417033159876
 98
        1
 10
223254.054648112
 20
136310.9735569646
1001
ACAD
1010
0.0
1020
0.0
1030
0.0
  0
LINE
  5
1872B
102
{ACAD_REACTORS
330
1872A
330
18834
102
}
330
2
100
AcDbEntity
  8
0Widok
100
AcDbLine
 10
223128.7098132351
 20
136457.0538200633
 30
0.0
 11
223128.7098132351
 21
136397.0538200633
 31
0.0
  0
HATCH
  5
1872C
330
2
100
AcDbEntity
  8
0Hatch
100
AcDbHatch
 10
0.0
 20
0.0
 30
0.0
210
0.0
220
0.0
230
1.0
  2
SOLID
 70
     1
 71
     1
 91
        1
 92
        7
 72
     0
 73
     1
 93
       15
 10
222726.2098132349
 20
136457.0538200633
 10
222726.2098132351
 20
136193.0561095594
 10
222336.2098132351
 20
136193.0561095594
 10
222336.209813235
 20
136170.0561095594
 10
221716.2098132351
 20
136170.0561095595
 10
221716.209813235
 20
135486.0561095594
 10
221776.2098132351
 20
135486.0561095594
 10
221776.209813235
 20
135546.0561095594
 10
221776.209813235
 20
136110.0561095594
 10
222396.2098132348
 20
136110.0561095594
 10
222396.209813235
 20
136133.0561095594
 10
222786.2098132351
 20
136133.0561095594
 10
222786.209813235
 20
136397.0538200633
 10
222888.7098132351
 20
136397.0538200633
 10
222888.709813235
 20
136457.0538200633
 97
        4
330
18734
330
1872D
330
18733
330
18732
 75
     0
 76
     1
 47
5.12417033159876
 98
        1
 10
222792.5910716075
 20
136433.9536340941
1001
ACAD
1010
0.0
1020
0.0
1030
0.0
  0
LINE
  5
1872D
102
{ACAD_REACTORS
330
1872C
330
18834
102
}
330
2
100
AcDbEntity
  8
0Widok
100
AcDbLine
 10
222888.709813235
 20
136457.0538200633
 30
0.0
 11
222888.709813235
 21
136397.0538200633
 31
0.0
  0
LINE
  5
1872E
102
{ACAD_REACTORS
330
1872A
102
}
330
2
100
AcDbEntity
  8
0Widok
100
AcDbLine
 10
222991.209813235
 20
135331.0561095594
 30
0.0
 11
222991.209813235
 21
135391.0561095594
 31
0.0
  0
HATCH
  5
1872F
330
2
100
AcDbEntity
  8
0Hatch
100
AcDbHatch
 10
0.0
 20
0.0
 30
0.0
210
0.0
220
0.0
230
1.0
  2
SOLID
 70
     1
 71
     1
 91
        1
 92
        7
 72
     0
 73
     1
 93
       12
 10
222726.2098132351
 20
135463.0561095594
 10
222726.2098132351
 20
135331.0561095594
 10
222821.2098132351
 20
135331.0561095594
 10
222821.2098132351
 20
135391.0561095594
 10
222786.2098132351
 20
135391.0561095594
 10
222786.2098132351
 20
135523.0561095594
 10
222396.2098132352
 20
135523.0561095594
 10
222396.2098132352
 20
135546.0561095594
 10
222278.209813235
 20
135546.0561095594
 10
222278.209813235
 20
135486.0561095594
 10
222336.2098132351
 20
135486.0561095594
 10
222336.209813235
 20
135463.0561095594
 97
        4
330
18733
330
18730
330
18734
330
18731
 75
     0
 76
     1
 47
5.12417033159876
 98
        1
 10
222684.9161725192
 20
135491.1062709892
1001
ACAD
1010
0.0
1020
0.0
1030
0.0
  0
LINE
  5
18730
102
{ACAD_REACTORS
330
1872F
102
}
330
2
100
AcDbEntity
  8
0Widok
100
AcDbLine
 10
222821.2098132351
 20
135331.0561095594
 30
0.0
 11
222821.2098132351
 21
135391.0561095594
 31
0.0
  0
LINE
  5
18731
102
{ACAD_REACTORS
330
1872F
102
}
330
2
100
AcDbEntity
  8
0Widok
100
AcDbLine
 10
222278.209813235
 20
135486.0561095594
 30
0.0
 11
222278.209813235
 21
135546.0561095594
 31
0.0
  0
LINE
  5
18732
102
{ACAD_REACTORS
330
1872C
102
}
330
2
100
AcDbEntity
  8
0Widok
100
AcDbLine
 10
221776.209813235
 20
135486.0561095594
 30
0.0
 11
221776.209813235
 21
135546.0561095594
 31
0.0
  0
LWPOLYLINE
  5
18733
102
{ACAD_REACTORS
330
1872A
330
1872C
330
1872F
330
18834
102
}
330
2
100
AcDbEntity
  8
0Widok
100
AcDbPolyline
 90
       16
 70
     1
 43
0.0
 10
221776.209813235
 20
136110.0561095594
 10
222396.2098132349
 20
136110.0561095594
 10
222396.209813235
 20
136133.0561095594
 10
222786.2098132351
 20
136133.0561095594
 10
222786.209813235
 20
136397.0538200633
 10
223231.209813235
 20
136397.0538200633
 10
223231.2098132351
 20
136133.0561095594
 10
223416.2098132351
 20
136133.0561095594
 10
223416.2098132351
 20
135523.0561095594
 10
223026.209813235
 20
135523.0561095594
 10
223026.209813235
 20
135391.0561095594
 10
222786.2098132351
 20
135391.0561095594
 10
222786.2098132351
 20
135523.0561095594
 10
222396.2098132352
 20
135523.0561095594
 10
222396.2098132352
 20
135546.0561095594
 10
221776.209813235
 20
135546.0561095594
  0
LWPOLYLINE
  5
18734
102
{ACAD_REACTORS
330
1872A
330
1872C
330
1872F
330
18834
102
}
330
2
100
AcDbEntity
  8
0Widok
100
AcDbPolyline
 90
       16
 70
     1
 43
0.0
 10
221716.209813235
 20
136170.0561095594
 10
222336.209813235
 20
136170.0561095594
 10
222336.2098132351
 20
136193.0561095594
 10
222726.2098132351
 20
136193.0561095594
 10
222726.209813235
 20
136457.0538200633
 10
223291.209813235
 20
136457.0538200633
 10
223291.2098132351
 20
136193.0561095594
 10
223476.2098132351
 20
136193.0561095594
 10
223476.2098132351
 20
135463.0561095594
 10
223086.209813235
 20
135463.0561095594
 10
223086.209813235
 20
135331.0561095594
 10
222726.2098132351
 20
135331.0561095594
 10
222726.2098132351
 20
135463.0561095594
 10
222336.209813235
 20
135463.0561095594
 10
222336.2098132351
 20
135486.0561095594
 10
221716.209813235
 20
135486.0561095594
  0
HATCH
  5
18735
330
2
100
AcDbEntity
  8
0Hatch
100
AcDbHatch
 10
0.0
 20
0.0
 30
0.0
210
0.0
220
0.0
230
1.0
  2
SOLID
 70
     1
 71
     1
 91
        1
 92
        7
 72
     1
 73
     1
 93
        2
 10
222796.209813235
 20
135251.0561095594
 42
1.0
 10
222766.209813235
 20
135251.0561095594
 42
1.0
 97
        1
330
18736
 75
     0
 76
     1
 47
1.046398679665512
 98
        1
 10
222777.8656830412
 20
135249.9968431453
1001
ACAD
1010
0.0
1020
0.0
1030
0.0
  0
CIRCLE
  5
18736
102
{ACAD_REACTORS
330
18735
102
}
330
2
100
AcDbEntity
  8
0Widok
100
AcDbCircle
 10
222781.209813235
 20
135251.0561095594
 30
0.0
 40
15.0
  0
HATCH
  5
18737
330
2
100
AcDbEntity
  8
0Hatch
100
AcDbHatch
 10
0.0
 20
0.0
 30
0.0
210
0.0
220
0.0
230
1.0
  2
SOLID
 70
     1
 71
     1
 91
        1
 92
        7
 72
     1
 73
     1
 93
        2
 10
223046.2098132351
 20
135251.0561095594
 42
1.0
 10
223016.2098132351
 20
135251.0561095594
 42
1.0
 97
        1
330
18738
 75
     0
 76
     1
 47
1.046398679665512
 98
        1
 10
223036.4877403026
 20
135254.1824482596
1001
ACAD
1010
0.0
1020
0.0
1030
0.0
  0
CIRCLE
  5
18738
102
{ACAD_REACTORS
330
18737
102
}
330
2
100
AcDbEntity
  8
0Widok
100
AcDbCircle
 10
223031.2098132351
 20
135251.0561095594
 30
0.0
 40
15.0
  0
LINE
  5
18739
330
2
100
AcDbEntity
  8
-widok
100
AcDbLine
 10
222696.2098132351
 20
135231.0561095594
 30
0.0
 11
223116.2098132351
 21
135231.0561095594
 31
0.0
  0
LINE
  5
1873A
330
2
100
AcDbEntity
  8
-widok
100
AcDbLine
 10
222666.2098132351
 20
135201.0561095594
 30
0.0
 11
223146.209813235
 21
135201.0561095594
 31
0.0
  0
LINE
  5
1873B
330
2
100
AcDbEntity
  8
-widok
100
AcDbLine
 10
223116.2098132351
 20
135231.0561095594
 30
0.0
 11
223116.2098132351
 21
135463.0561095594
 31
0.0
  0
LINE
  5
1873C
330
2
100
AcDbEntity
  8
-widok
100
AcDbLine
 10
223146.209813235
 20
135201.0561095594
 30
0.0
 11
223146.209813235
 21
135463.0561095594
 31
0.0
  0
LINE
  5
1873D
330
2
100
AcDbEntity
  8
-widok
100
AcDbLine
 10
223176.209813235
 20
135171.0561095594
 30
0.0
 11
223176.209813235
 21
135463.0561095594
 31
0.0
  0
LINE
  5
1873E
330
2
100
AcDbEntity
  8
-widok
100
AcDbLine
 10
222636.2098132351
 20
135171.0561095594
 30
0.0
 11
223176.209813235
 21
135171.0561095594
 31
0.0
  0
LINE
  5
1873F
330
2
100
AcDbEntity
  8
-widok
100
AcDbLine
 10
222696.2098132351
 20
135231.0561095594
 30
0.0
 11
222696.2098132351
 21
135463.0561095594
 31
0.0
  0
LINE
  5
18740
330
2
100
AcDbEntity
  8
-widok
100
AcDbLine
 10
222666.2098132351
 20
135201.0561095594
 30
0.0
 11
222666.2098132351
 21
135463.0561095594
 31
0.0
  0
LINE
  5
18741
330
2
100
AcDbEntity
  8
-widok
100
AcDbLine
 10
222636.2098132351
 20
135171.0561095594
 30
0.0
 11
222636.2098132351
 21
135463.0561095594
 31
0.0
  0
LINE
  5
18742
330
2
100
AcDbEntity
  8
0Widok
100
AcDbLine
 10
222336.209813235
 20
135363.0561095594
 30
0.0
 11
222026.2098132351
 21
135463.0561095594
 31
0.0
  0
LINE
  5
18743
330
2
100
AcDbEntity
  8
0Widok
100
AcDbLine
 10
221716.209813235
 20
135463.0561095594
 30
0.0
 11
222336.209813235
 21
135463.0561095594
 31
0.0
  0
LINE
  5
18744
330
2
100
AcDbEntity
  8
0Widok
100
AcDbLine
 10
221716.209813235
 20
135363.0561095594
 30
0.0
 11
222336.209813235
 21
135363.0561095594
 31
0.0
  0
LINE
  5
18745
330
2
100
AcDbEntity
  8
0Widok
100
AcDbLine
 10
222336.209813235
 20
135463.0561095594
 30
0.0
 11
222336.209813235
 21
135363.0561095594
 31
0.0
  0
LINE
  5
18746
330
2
100
AcDbEntity
  8
0Widok
100
AcDbLine
 10
222026.2098132351
 20
135463.0561095594
 30
0.0
 11
221716.209813235
 21
135363.0561095594
 31
0.0
  0
LINE
  5
18747
330
2
100
AcDbEntity
  8
0Widok
100
AcDbLine
 10
221716.209813235
 20
135486.0561095594
 30
0.0
 11
221716.209813235
 21
135363.0561095594
 31
0.0
  0
LINE
  5
18748
330
2
100
AcDbEntity
  8
-widok
100
AcDbLine
 10
222546.2098132351
 20
136637.0538200633
 30
0.0
 11
223351.2098132351
 21
136637.0538200633
 31
0.0
  0
LINE
  5
18749
330
2
100
AcDbEntity
  8
-widok
100
AcDbLine
 10
222558.6362201063
 20
136607.0538200633
 30
0.0
 11
223321.2098132351
 21
136607.0538200633
 31
0.0
  0
LINE
  5
1874A
330
2
100
AcDbEntity
  8
-widok
100
AcDbLine
 10
223351.2098132351
 20
136427.0538200633
 30
0.0
 11
223351.2098132351
 21
136637.0538200633
 31
0.0
  0
LINE
  5
1874B
330
2
100
AcDbEntity
  8
-widok
100
AcDbLine
 10
223321.2098132351
 20
136457.0538200633
 30
0.0
 11
223321.2098132351
 21
136607.0538200633
 31
0.0
  0
LINE
  5
1874C
330
2
100
AcDbEntity
  8
-widok
100
AcDbLine
 10
223291.209813235
 20
136427.0538200633
 30
0.0
 11
223351.2098132351
 21
136427.0538200633
 31
0.0
  0
LINE
  5
1874D
330
2
100
AcDbEntity
  8
-widok
100
AcDbLine
 10
223291.209813235
 20
136457.0538200633
 30
0.0
 11
223321.2098132351
 21
136457.0538200633
 31
0.0
  0
LINE
  5
1874E
330
2
100
AcDbEntity
  8
-widok
100
AcDbLine
 10
222396.209813235
 20
136444.6274131921
 30
0.0
 11
222558.6362201063
 21
136607.0538200633
 31
0.0
  0
LINE
  5
1874F
330
2
100
AcDbEntity
  8
-widok
100
AcDbLine
 10
222366.2098132351
 20
136193.0561095594
 30
0.0
 11
222366.2098132351
 21
136457.0538200633
 31
0.0
  0
LINE
  5
18750
330
2
100
AcDbEntity
  8
-widok
100
AcDbLine
 10
222396.209813235
 20
136193.0561095594
 30
0.0
 11
222396.209813235
 21
136444.6274131921
 31
0.0
  0
LINE
  5
18751
330
2
100
AcDbEntity
  8
-widok
100
AcDbLine
 10
222366.2098132351
 20
136457.0538200633
 30
0.0
 11
222546.2098132351
 21
136637.0538200633
 31
0.0
  0
DIMENSION
  5
18752
330
2
100
AcDbEntity
  8
0Wymiary-PL
100
AcDbDimension
  2
*D307
 10
223749.2865905071
 20
136193.0561095594
 30
0.0
 11
223669.286590507
 21
136325.0549648114
 31
0.0
 70
    32
 71
     5
 42
263.9977105038706
  3
500
100
AcDbAlignedDimension
 13
223291.209813235
 23
136457.0538200633
 33
0.0
 14
223291.209813235
 24
136193.0561095594
 34
0.0
 50
90.0
100
AcDbRotatedDimension
  0
DIMENSION
  5
18753
330
2
100
AcDbEntity
  8
0Wymiary-PL
100
AcDbDimension
  2
*D308
 10
223749.2865905071
 20
135463.0561095594
 30
0.0
 11
223669.286590507
 21
135828.0561095595
 31
0.0
 70
    32
 71
     5
 42
730.0
  3
500
100
AcDbAlignedDimension
 13
223291.209813235
 23
136193.0561095594
 33
0.0
 14
223476.2098132351
 24
135463.0561095594
 34
0.0
 50
90.0
100
AcDbRotatedDimension
  0
DIMENSION
  5
18754
330
2
100
AcDbEntity
  8
0Wymiary-PL
100
AcDbDimension
  2
*D309
 10
223749.2865905071
 20
135331.0561095594
 30
0.0
 11
223669.286590507
 21
135397.0561095595
 31
0.0
 70
    32
 71
     5
 42
132.0
  3
500
100
AcDbAlignedDimension
 13
223476.2098132351
 23
135463.0561095594
 33
0.0
 14
223086.209813235
 24
135331.0561095594
 34
0.0
 50
90.0
100
AcDbRotatedDimension
  0
DIMENSION
  5
18755
330
2
100
AcDbEntity
  8
0Wymiary-PL
100
AcDbDimension
  2
*D310
 10
223946.1221902173
 20
135331.0561095594
 30
0.0
 11
223866.1221902173
 21
135894.0549648114
 31
0.0
 70
    32
 71
     5
 42
1125.99771050387
  3
500
100
AcDbAlignedDimension
 13
223303.049464399
 23
136457.0538200633
 33
0.0
 14
223098.0494643991
 24
135331.0561095594
 34
0.0
 50
90.0
100
AcDbRotatedDimension
  0
DIMENSION
  5
18756
330
2
100
AcDbEntity
  8
0Wymiary-PL
100
AcDbDimension
  2
*D311
 10
223086.209813235
 20
134859.2548682663
 30
0.0
 11
223281.2098132351
 21
134939.2548682664
 31
0.0
 70
    32
 71
     5
 42
390.0
  3
500
100
AcDbAlignedDimension
 13
223476.2098132351
 23
135463.0561095594
 33
0.0
 14
223086.209813235
 24
135463.0561095594
 34
0.0
 50
180.0
100
AcDbRotatedDimension
  0
DIMENSION
  5
18757
330
2
100
AcDbEntity
  8
0Wymiary-PL
100
AcDbDimension
  2
*D312
 10
222726.2098132351
 20
134859.2548682663
 30
0.0
 11
222906.2098132351
 21
134939.2548682664
 31
0.0
 70
    32
 71
     5
 42
360.0
  3
500
100
AcDbAlignedDimension
 13
223086.209813235
 23
135463.0561095594
 33
0.0
 14
222726.2098132351
 24
135331.0561095594
 34
0.0
 50
180.0
100
AcDbRotatedDimension
  0
DIMENSION
  5
18758
330
2
100
AcDbEntity
  8
0Wymiary-PL
100
AcDbDimension
  2
*D313
 10
222336.209813235
 20
134859.2548682663
 30
0.0
 11
222531.209813235
 21
134939.2548682664
 31
0.0
 70
    32
 71
     5
 42
390.0
  3
500
100
AcDbAlignedDimension
 13
222726.2098132351
 23
135331.0561095594
 33
0.0
 14
222336.209813235
 24
135463.0561095594
 34
0.0
 50
180.0
100
AcDbRotatedDimension
  0
DIMENSION
  5
18759
330
2
100
AcDbEntity
  8
0Wymiary-PL
100
AcDbDimension
  2
*D314
 10
221716.209813235
 20
134859.2548682663
 30
0.0
 11
222026.2098132351
 21
134939.2548682664
 31
0.0
 70
    32
 71
     5
 42
620.0
  3
500
100
AcDbAlignedDimension
 13
222336.209813235
 23
135463.0561095594
 33
0.0
 14
221716.209813235
 24
135486.0561095594
 34
0.0
 50
180.0
100
AcDbRotatedDimension
  0
DIMENSION
  5
1875A
330
2
100
AcDbEntity
  8
0Wymiary-PL
100
AcDbDimension
  2
*D315
 10
221716.209813235
 20
134633.5736215522
 30
0.0
 11
222596.2098132351
 21
134713.5736215522
 31
0.0
 70
    32
 71
     5
 42
1760.0
  3
500
100
AcDbAlignedDimension
 13
223476.2098132351
 23
135463.0561095594
 33
0.0
 14
221716.209813235
 24
135486.0561095594
 34
0.0
 50
180.0
100
AcDbRotatedDimension
  0
HATCH
  5
18834
330
2
100
AcDbEntity
  8
0Hatch
100
AcDbHatch
 10
0.0
 20
0.0
 30
0.0
210
0.0
220
0.0
230
1.0
  2
SOLID
 70
     1
 71
     1
 91
        1
 92
        7
 72
     0
 73
     1
 93
        4
 10
223128.7098132351
 20
136457.0538200633
 10
222888.7098132351
 20
136457.0538200633
 10
222888.709813235
 20
136397.0538200633
 10
223128.7098132351
 20
136397.0538200633
 97
        4
330
18734
330
1872D
330
18733
330
1872B
 75
     0
 76
     1
 47
2.986181590508448
 98
        1
 10
223029.5333155702
 20
136428.9423515359
1001
ACAD
1010
0.0
1020
0.0
1030
0.0
  0
HATCH
  5
18842
330
2
100
AcDbEntity
  8
0Hatch
100
AcDbHatch
 10
0.0
 20
0.0
 30
0.0
210
0.0
220
0.0
230
1.0
  2
SOLID
 70
     1
 71
     1
 91
        1
 92
        7
 72
     0
 73
     1
 93
        4
 10
217911.06867651
 20
136457.0538200633
 10
217671.06867651
 20
136457.0538200633
 10
217671.0686765101
 20
136397.0538200633
 10
217911.06867651
 20
136397.0538200633
 97
        4
330
18600
330
185D7
330
185FD
330
185DA
 75
     0
 76
     1
 47
3.763925068536792
 98
        1
 10
217725.3924919826
 20
136428.8346213595
1001
ACAD
1010
0.0
1020
0.0
1030
0.0
  0
ENDSEC
  0
SECTION
  2
OBJECTS
  0
DICTIONARY
  5
7
330
0
100
AcDbDictionary
281
     1
  3
ACAD_COLOR
350
31
  3
ACAD_GROUP
350
2D
  3
ACAD_LAYOUT
350
B
  3
ACAD_MATERIAL
350
30
  3
ACAD_MLEADERSTYLE
350
168B0
  3
ACAD_MLINESTYLE
350
2E
  3
ACAD_PLOTSETTINGS
350
2F
  3
ACAD_PLOTSTYLENAME
350
6
  3
ACAD_SCALELIST
350
1688E
  3
ACAD_TABLESTYLE
350
DF2
  3
ACAD_VISUALSTYLE
350
172D
  3
AcAec
350
8309
  3
ACDB_RECOMPOSE_DATA
350
16B2A
  3
AcDbVariableDictionary
350
E04
  3
AEC_2D_SECTION_STYLES
350
6852
  3
AEC_CLASSIFICATION_SYSTEM_DEFS
350
3C3
  3
AEC_CLEANUP_GROUP_DEFS
350
6863
  3
AEC_CURTAIN_WALL_LAYOUT_STYLES
350
6864
  3
AEC_CURTAIN_WALL_UNIT_STYLES
350
6865
  3
AEC_DIM_STYLES
350
6871
  3
AEC_DISP_REP_CONFIGURATIONS
350
69A3
  3
AEC_DISP_REP_SETS
350
6999
  3
AEC_DISP_REPS
350
6873
  3
AEC_DISPLAY_PROPS_DEFAULTS
350
6875
  3
AEC_DISPLAYTHEME_STYLES
350
6870
  3
AEC_DOOR_STYLES
350
685B
  3
AEC_ENDCAP_STYLES
350
685C
  3
AEC_LAYERKEY_STYLES
350
685A
  3
AEC_LIST_DEFINITIONS
350
6855
  3
AEC_MASKBLOCK_DEFS
350
684E
  3
AEC_MASS_ELEM_STYLES
350
6854
  3
AEC_MATERIAL_DEFS
350
6853
  3
AEC_MVBLOCK_DEFS
350
684F
  3
AEC_OPENING_ENDCAP_STYLES
350
686C
  3
AEC_POLYGON_STYLES
350
6851
  3
AEC_PROFILE_DEFS
350
6850
  3
AEC_PROPERTY_FORMAT_DEFS
350
6856
  3
AEC_PROPERTY_SET_DEFS
350
3C4
  3
AEC_RAILING_STYLES
350
6867
  3
AEC_ROOFSLAB_STYLES
350
6868
  3
AEC_ROOFSLABEDGE_STYLES
350
6869
  3
AEC_SCHEDULE_TABLE_STYLES
350
6857
  3
AEC_SLAB_STYLES
350
686A
  3
AEC_SLABEDGE_STYLES
350
686B
  3
AEC_SPACE_MODIFIERS
350
686D
  3
AEC_SPACE_STYLES
350
685D
  3
AEC_STAIR_STYLES
350
685E
  3
AEC_STAIR_WINDER_STYLES
350
685F
  3
AEC_STRUCTURALMEMBER_STYLES
350
6858
  3
AEC_VARS
350
687A
  3
AEC_WALL_STYLES
350
6861
  3
AEC_WALLMOD_STYLES
350
6860
  3
AEC_WINDOW_ASSEMBLY_STYLES
350
6866
  3
AEC_WINDOW_STYLES
350
6862
  3
AEC_ZONE_DEFS
350
686F
  3
AEC_ZONE_STYLES
350
686E
  3
AECS_MEMBER_NODE_SHAPE
350
6859
  3
ASE_INDEX_DICTIONARY
350
1886A
  3
BNS_VARIABLES
350
41C3
  3
CONLABELDictionary
350
17A4A
  3
CONLDEFDictionary
350
17A2E
  3
DWGPROPS
350
1888C
  0
DICTIONARY
  5
12
330
11
100
AcDbDictionary
280
     1
281
     1
  3
ACAD_LAYERFILTERS
360
8311
  3
ACAD_LAYERSTATES
360
13
  3
ACLYDICTIONARY
360
8310
  0
DICTIONARY
  5
16AD7
330
4
100
AcDbDictionary
280
     1
281
     1
  3
ADSK_XREC_LAYER_RECONCILED
360
16AD8
  0
DICTIONARY
  5
16AD9
330
15E
100
AcDbDictionary
280
     1
281
     1
  3
ADSK_XREC_LAYER_RECONCILED
360
16ADA
  0
DICTIONARY
  5
16ADD
330
143
100
AcDbDictionary
280
     1
281
     1
  3
ADSK_XREC_LAYER_RECONCILED
360
16ADE
  0
DICTIONARY
  5
16AE1
330
202C
100
AcDbDictionary
280
     1
281
     1
  3
ADSK_XREC_LAYER_RECONCILED
360
16AE2
  0
DICTIONARY
  5
16AE3
330
2081
100
AcDbDictionary
280
     1
281
     1
  3
ADSK_XREC_LAYER_RECONCILED
360
16AE4
  0
DICTIONARY
  5
16B0D
330
139C3
100
AcDbDictionary
280
     1
281
     1
  3
ADSK_XREC_LAYER_RECONCILED
360
16B0E
  0
DICTIONARY
  5
175B2
330
175B1
100
AcDbDictionary
280
     1
281
     1
  3
ADSK_XREC_LAYER_RECONCILED
360
175B3
  0
DICTIONARY
  5
1FEF
330
2
100
AcDbDictionary
280
     1
281
     1
  3
ACAD_SORTENTS
360
1FF0
  0
DICTIONARY
  5
24
330
23
100
AcDbDictionary
280
     1
281
     1
  3
ACAD_SORTENTS
360
117C
  0
DICTIONARY
  5
31
102
{ACAD_REACTORS
330
7
102
}
330
7
100
AcDbDictionary
281
     1
  0
DICTIONARY
  5
2D
102
{ACAD_REACTORS
330
7
102
}
330
7
100
AcDbDictionary
281
     1
  0
DICTIONARY
  5
B
102
{ACAD_REACTORS
330
7
102
}
330
7
100
AcDbDictionary
281
     1
  3
Layout1
350
10
  3
Model
350
A
  0
DICTIONARY
  5
30
102
{ACAD_REACTORS
330
7
102
}
330
7
100
AcDbDictionary
281
     1
  3
ByBlock
350
172B
  3
ByLayer
350
172A
  3
General.Chip
350
139CC
  3
Global
350
172C
  0
DICTIONARY
  5
168B0
102
{ACAD_REACTORS
330
7
102
}
330
7
100
AcDbDictionary
281
     1
  3
Standard
350
168B1
  0
DICTIONARY
  5
2E
102
{ACAD_REACTORS
330
7
102
}
330
7
100
AcDbDictionary
281
     1
  3
Standard
350
33
  0
DICTIONARY
  5
2F
102
{ACAD_REACTORS
330
7
102
}
330
7
100
AcDbDictionary
281
     1
  0
ACDBDICTIONARYWDFLT
  5
6
102
{ACAD_REACTORS
330
7
102
}
330
7
100
AcDbDictionary
281
     1
  3
Extra Wide
350
139C9
  3
Medium
350
131E6
  3
Normal
350
5
  3
Thin Screened
350
139CA
  3
Wide
350
139CB
100
AcDbDictionaryWithDefault
340
5
  0
DICTIONARY
  5
1688E
102
{ACAD_REACTORS
330
7
102
}
330
7
100
AcDbDictionary
281
     1
  3
*A1
350
16B4A
  3
*A10
350
16B6E
  3
*A11
350
16B6F
  3
*A12
350
16B62
  3
*A13
350
16B70
  3
*A14
350
16B4D
  3
*A15
350
16B71
  3
*A16
350
16B5C
  3
*A17
350
16B72
  3
*A18
350
16B73
  3
*A19
350
16B4E
  3
*A2
350
16B68
  3
*A20
350
16B9E
  3
*A21
350
16B55
  3
*A22
350
16B9F
  3
*A23
350
16B63
  3
*A24
350
16BA0
  3
*A25
350
16B4F
  3
*A26
350
16BA1
  3
*A27
350
16BA2
  3
*A28
350
16B4B
  3
*A29
350
16BA3
  3
*A3
350
16B69
  3
*A30
350
16BA4
  3
*A31
350
16BA5
  3
*A32
350
16BA6
  3
*A33
350
16BA7
  3
*A34
350
16B53
  3
*A35
350
16B56
  3
*A36
350
16BA8
  3
*A37
350
16BA9
  3
*A38
350
16BAA
  3
*A39
350
16B50
  3
*A4
350
16B5B
  3
*A40
350
16B5D
  3
*A41
350
16BAB
  3
*A42
350
16B51
  3
*A43
350
16B52
  3
*A44
350
16D99
  3
*A45
350
16B64
  3
*A46
350
16D9A
  3
*A47
350
16D9B
  3
*A48
350
16B57
  3
*A49
350
16D9C
  3
*A5
350
16B6A
  3
*A50
350
16D9D
  3
*A51
350
16D9E
  3
*A52
350
16B5E
  3
*A53
350
16D9F
  3
*A54
350
16DA0
  3
*A55
350
16DA1
  3
*A56
350
16B65
  3
*A57
350
16DA2
  3
*A58
350
16DA3
  3
*A59
350
16DA4
  3
*A6
350
16B6B
  3
*A60
350
16DA5
  3
*A61
350
16B58
  3
*A62
350
16DA6
  3
*A63
350
16B59
  3
*A64
350
16B5F
  3
*A65
350
16B5A
  3
*A66
350
16B60
  3
*A67
350
16B66
  3
*A68
350
16B61
  3
*A69
350
16B4C
  3
*A7
350
16B6C
  3
*A70
350
16B67
  3
*A8
350
16B54
  3
*A9
350
16B6D
  3
A0
350
1688F
  3
A1
350
16890
  3
A2
350
16891
  3
A3
350
16892
  3
A4
350
16893
  3
A5
350
16894
  3
A6
350
16895
  3
A7
350
16896
  3
A8
350
16897
  3
A9
350
16898
  3
B0
350
16899
  3
B1
350
1689A
  3
B2
350
1689B
  3
B3
350
1689C
  3
B4
350
1689D
  3
B5
350
1689E
  3
B6
350
1689F
  3
B7
350
168A0
  3
B8
350
168A1
  3
B9
350
168A2
  3
C0
350
168A3
  3
C1
350
168A4
  3
C2
350
168A5
  3
C3
350
168A6
  3
C4
350
168A7
  3
C5
350
168A8
  3
C6
350
168A9
  3
C7
350
168AA
  3
C8
350
168AB
  3
C9
350
168AC
  3
D0
350
168AD
  3
D1
350
168AE
  3
D2
350
168AF
  0
DICTIONARY
  5
DF2
102
{ACAD_REACTORS
330
7
102
}
330
7
100
AcDbDictionary
281
     1
  3
Standard
350
DF3
  0
DICTIONARY
  5
172D
102
{ACAD_REACTORS
330
7
102
}
330
7
100
AcDbDictionary
281
     1
  3
2dWireframe
350
1733
  3
3D Hidden
350
12DA2
  3
3dWireframe
350
12DA1
  3
Basic
350
1732
  3
Brighten
350
1739
  3
ColorChange
350
173D
  3
Conceptual
350
12DA3
  3
Dim
350
1738
  3
Facepattern
350
173C
  3
Flat
350
172E
  3
FlatWithEdges
350
172F
  3
Gouraud
350
1730
  3
GouraudWithEdges
350
1731
  3
Linepattern
350
173B
  3
Realistic
350
12DA4
  3
Thicken
350
173A
  0
DICTIONARY
  5
8309
102
{ACAD_REACTORS
330
7
102
}
330
7
100
AcDbDictionary
281
     1
  3
AcAecLayerManager
350
830A
  0
XRECORD
  5
16B2A
102
{ACAD_REACTORS
330
7
102
}
330
7
100
AcDbXrecord
280
     1
 90
        1
330
DF3
  0
DICTIONARY
  5
E04
102
{ACAD_REACTORS
330
7
102
}
330
7
100
AcDbDictionary
281
     1
  3
CANNOSCALE
350
16B2D
  3
CMLEADERSTYLE
350
16B2B
  3
CTABLESTYLE
350
E05
  3
DIMASSOC
350
1888A
  3
HIDETEXT
350
18889
  3
INDEXCTL
350
18888
  3
LIGHTINGUNITS
350
16B2E
  3
MSLTSCALE
350
16B2C
  3
SORTENTS
350
18887
  0
DICTIONARY
  5
6852
102
{ACAD_REACTORS
330
7
102
}
330
7
100
AcDbDictionary
281
     1
  0
DICTIONARY
  5
3C3
102
{ACAD_REACTORS
330
7
102
}
330
7
100
AcDbDictionary
281
     1
  0
DICTIONARY
  5
6863
102
{ACAD_REACTORS
330
7
102
}
330
7
100
AcDbDictionary
281
     1
  3
Standard
350
13CB2
  0
DICTIONARY
  5
6864
102
{ACAD_REACTORS
330
7
102
}
330
7
100
AcDbDictionary
281
     1
  0
DICTIONARY
  5
6865
102
{ACAD_REACTORS
330
7
102
}
330
7
100
AcDbDictionary
281
     1
  0
DICTIONARY
  5
6871
102
{ACAD_REACTORS
330
7
102
}
330
7
100
AcDbDictionary
281
     1
  0
DICTIONARY
  5
69A3
102
{ACAD_REACTORS
330
7
102
}
330
7
100
AcDbDictionary
281
     1
  3
Medium Detail
350
82FE
  3
Standard
350
69A4
  0
DICTIONARY
  5
6999
102
{ACAD_REACTORS
330
7
102
}
330
7
100
AcDbDictionary
281
     1
  3
Elevation
350
699D
  3
Model
350
699A
  3
Model High Detail
350
69A1
  3
Model Low Detail
350
69A0
  3
Plan
350
699B
  3
Plan Diagnostic
350
69A2
  3
Plan High Detail
350
699F
  3
Plan Low Detail
350
699E
  3
Reflected
350
699C
  0
DICTIONARY
  5
6873
102
{ACAD_REACTORS
330
7
102
}
330
7
100
AcDbDictionary
281
     1
  3
AecDbDispRep2dSection
350
68D5
  3
AecDbDispRepAnchor
350
68D7
  3
AecDbDispRepAnchorBubToGrid
350
697D
  3
AecDbDispRepAnchorBubToGridMdl
350
697F
  3
AecDbDispRepAnchorBubToGridRcp
350
6981
  3
AecDbDispRepAnchorEntToNode
350
68D8
  3
AecDbDispRepAnchorExtendedTagToEnt
350
6903
  3
AecDbDispRepAnchorTagToEnt
350
6901
  3
AecDbDispRepBdgElevLineModel
350
6907
  3
AecDbDispRepBdgElevLinePlan
350
6909
  3
AecDbDispRepBdgElevLinePlan100
350
6874
  3
AecDbDispRepBdgElevLinePlan50
350
6892
  3
AecDbDispRepBdgElevLineRcp
350
690B
  3
AecDbDispRepBdgSectionLineModel
350
690D
  3
AecDbDispRepBdgSectionLinePlan
350
690F
  3
AecDbDispRepBdgSectionLinePlan100
350
6877
  3
AecDbDispRepBdgSectionLinePlan50
350
6894
  3
AecDbDispRepBdgSectionLineRcp
350
6911
  3
AecDbDispRepBdgSectionModel
350
6913
  3
AecDbDispRepBdgSectionSubDiv
350
6914
  3
AecDbDispRepCeilingGrid
350
6916
  3
AecDbDispRepCeilingGridModel
350
6918
  3
AecDbDispRepCeilingGridPlan100
350
6879
  3
AecDbDispRepCeilingGridPlan50
350
6896
  3
AecDbDispRepCeilingGridRcp
350
691A
  3
AecDbDispRepClipVolModel
350
68DA
  3
AecDbDispRepClipVolPlan
350
68DC
  3
AecDbDispRepClipVolResSubDiv
350
68DF
  3
AecDbDispRepClipVolResult
350
68DE
  3
AecDbDispRepColumnGrid
350
6983
  3
AecDbDispRepColumnGridModel
350
6985
  3
AecDbDispRepColumnGridPlan100
350
687D
  3
AecDbDispRepColumnGridPlan50
350
6898
  3
AecDbDispRepColumnGridRcp
350
6987
  3
AecDbDispRepCurtainWallLayoutModel
350
691C
  3
AecDbDispRepCurtainWallLayoutPlan
350
691E
  3
AecDbDispRepCurtainWallLayoutPlan100
350
687F
  3
AecDbDispRepCurtainWallLayoutPlan50
350
689A
  3
AecDbDispRepCurtainWallUnitModel
350
6920
  3
AecDbDispRepCurtainWallUnitPlan
350
6922
  3
AecDbDispRepCurtainWallUnitPlan100
350
6881
  3
AecDbDispRepCurtainWallUnitPlan50
350
689C
  3
AecDbDispRepDimGroupPlan
350
68B1
  3
AecDbDispRepDimGroupPlan100
350
68AD
  3
AecDbDispRepDimGroupPlan50
350
68AF
  3
AecDbDispRepDisplayTheme
350
68E1
  3
AecDbDispRepDoorElev
350
6926
  3
AecDbDispRepDoorModel
350
6924
  3
AecDbDispRepDoorNominal
350
692A
  3
AecDbDispRepDoorPlan
350
6928
  3
AecDbDispRepDoorPlan50
350
68B3
  3
AecDbDispRepDoorPlanHekto
350
68B5
  3
AecDbDispRepDoorRcp
350
692C
  3
AecDbDispRepDoorThresholdPlan
350
692E
  3
AecDbDispRepDoorThresholdSymbolPlan
350
68B7
  3
AecDbDispRepEditInPlaceProfile
350
68E3
  3
AecDbDispRepEntRef
350
68E5
  3
AecDbDispRepLayoutCurve
350
68E7
  3
AecDbDispRepLayoutGrid2d
350
68E9
  3
AecDbDispRepLayoutGrid3d
350
68EB
  3
AecDbDispRepMaskBlockRef
350
68ED
  3
AecDbDispRepMaskBlockRefRcp
350
6930
  3
AecDbDispRepMassElemModel
350
68F9
  3
AecDbDispRepMassElemPlan100
350
68B9
  3
AecDbDispRepMassElemPlan50
350
68BB
  3
AecDbDispRepMassElemRcp
350
6932
  3
AecDbDispRepMassElemSchem
350
68FB
  3
AecDbDispRepMassGroupModel
350
68FD
  3
AecDbDispRepMassGroupPlan
350
68FF
  3
AecDbDispRepMassGroupPlan100
350
68BD
  3
AecDbDispRepMassGroupPlan50
350
68BF
  3
AecDbDispRepMassGroupRcp
350
6934
  3
AecDbDispRepMaterial
350
68EF
  3
AecDbDispRepMaterial$General High Detail
350
13CB3
  3
AecDbDispRepMaterial$General Low Detail
350
13CB4
  3
AecDbDispRepMaterial$General Medium Detail
350
13CB5
  3
AecDbDispRepMaterial$General Presentation
350
13CB6
  3
AecDbDispRepMaterial$General Reflected
350
13CB7
  3
AecDbDispRepMaterial$General Reflected Screened
350
13CB8
  3
AecDbDispRepMaterial$General Screened
350
13CB9
  3
AecDbDispRepMvBlockRef
350
68F1
  3
AecDbDispRepMvBlockRef$Plan
350
8301
  3
AecDbDispRepMvBlockRefModel
350
68F2
  3
AecDbDispRepMvBlockRefPlan100
350
6883
  3
AecDbDispRepMvBlockRefPlan50
350
689E
  3
AecDbDispRepMvBlockRefRcp
350
6936
  3
AecDbDispRepOpening
350
6937
  3
AecDbDispRepOpeningModel
350
6939
  3
AecDbDispRepOpeningPlan100
350
68C1
  3
AecDbDispRepOpeningPlan50
350
68C3
  3
AecDbDispRepOpeningPlanReflected
350
68C5
  3
AecDbDispRepOpeningSillPlan
350
68C7
  3
AecDbDispRepPolygonModel
350
68F3
  3
AecDbDispRepPolygonTrueColour
350
68F5
  3
AecDbDispRepRailingModel
350
693B
  3
AecDbDispRepRailingPlan
350
693D
  3
AecDbDispRepRailingPlan100
350
68C9
  3
AecDbDispRepRailingPlan50
350
68CB
  3
AecDbDispRepRoofModel
350
693F
  3
AecDbDispRepRoofPlan
350
6941
  3
AecDbDispRepRoofPlan100
350
6884
  3
AecDbDispRepRoofPlan50
350
689F
  3
AecDbDispRepRoofRcp
350
6943
  3
AecDbDispRepRoofSlabModel
350
6947
  3
AecDbDispRepRoofSlabPlan
350
694B
  3
AecDbDispRepRoofSlabPlan100
350
6886
  3
AecDbDispRepRoofSlabPlan50
350
68A1
  3
AecDbDispRepScheduleTable
350
6905
  3
AecDbDispRepSlabModel
350
6945
  3
AecDbDispRepSlabPlan
350
6949
  3
AecDbDispRepSlabPlan100
350
6888
  3
AecDbDispRepSlabPlan50
350
68A3
  3
AecDbDispRepSlice
350
68F7
  3
AecDbDispRepSpaceDecomposed
350
694D
  3
AecDbDispRepSpaceModel
350
694F
  3
AecDbDispRepSpacePlan
350
6951
  3
AecDbDispRepSpacePlan100
350
688A
  3
AecDbDispRepSpacePlan50
350
68A5
  3
AecDbDispRepSpaceRcp
350
6953
  3
AecDbDispRepSpaceVolume
350
6955
  3
AecDbDispRepStairModel
350
6957
  3
AecDbDispRepStairPlan
350
6959
  3
AecDbDispRepStairPlan100
350
68CD
  3
AecDbDispRepStairPlan50
350
68CF
  3
AecDbDispRepStairPlanOverlapping
350
695B
  3
AecDbDispRepStairRcp
350
695D
  3
AecDbDispRepWallGraph
350
695F
  3
AecDbDispRepWallModel
350
6961
  3
AecDbDispRepWallPlan
350
6963
  3
AecDbDispRepWallPlan100
350
688C
  3
AecDbDispRepWallPlan50
350
68A7
  3
AecDbDispRepWallRcp
350
6965
  3
AecDbDispRepWallSchem
350
6967
  3
AecDbDispRepWindowAssemblyModel
350
6969
  3
AecDbDispRepWindowAssemblyPlan
350
696B
  3
AecDbDispRepWindowAssemblyPlan100
350
688E
  3
AecDbDispRepWindowAssemblyPlan50
350
68A9
  3
AecDbDispRepWindowAssemblySillPlan
350
696D
  3
AecDbDispRepWindowElev
350
6971
  3
AecDbDispRepWindowModel
350
696F
  3
AecDbDispRepWindowNominal
350
6975
  3
AecDbDispRepWindowPlan
350
6973
  3
AecDbDispRepWindowPlan100
350
68D1
  3
AecDbDispRepWindowPlan50
350
68D3
  3
AecDbDispRepWindowRcp
350
6977
  3
AecDbDispRepWindowSillPlan
350
6979
  3
AecDbDispRepZone
350
697B
  3
AecDbDispRepZonePlan100
350
6890
  3
AecDbDispRepZonePlan50
350
68AB
  3
AecsDbDispRepMemberElevationDesign
350
6989
  3
AecsDbDispRepMemberElevationDetail
350
698B
  3
AecsDbDispRepMemberLogical
350
698D
  3
AecsDbDispRepMemberModelDesign
350
698F
  3
AecsDbDispRepMemberModelDetail
350
6991
  3
AecsDbDispRepMemberPlanDesign
350
6993
  3
AecsDbDispRepMemberPlanDetail
350
6995
  3
AecsDbDispRepMemberPlanSketch
350
6997
  0
DICTIONARY
  5
6875
102
{ACAD_REACTORS
330
7
102
}
330
7
100
AcDbDictionary
281
     1
  3
*A1
350
6876
  3
*A10
350
694A
  3
*A100
350
13CBD
  3
*A101
350
13CC0
  3
*A102
350
68B6
  3
*A103
350
6958
  3
*A104
350
696E
  3
*A105
350
695E
  3
*A106
350
692D
  3
*A107
350
68FA
  3
*A108
350
6972
  3
*A109
350
68D6
  3
*A11
350
68AE
  3
*A110
350
6910
  3
*A111
350
13CBF
  3
*A112
350
6917
  3
*A113
350
68FE
  3
*A114
350
6912
  3
*A115
350
697C
  3
*A116
350
68B2
  3
*A117
350
68C8
  3
*A118
350
68BA
  3
*A119
350
13CBE
  3
*A12
350
691F
  3
*A120
350
6968
  3
*A121
350
68CC
  3
*A122
350
694C
  3
*A123
350
68F0
  3
*A124
350
695C
  3
*A125
350
68CA
  3
*A126
350
68D0
  3
*A127
350
6925
  3
*A128
350
6929
  3
*A129
350
6954
  3
*A13
350
6974
  3
*A130
350
68A4
  3
*A131
350
687E
  3
*A132
350
6882
  3
*A133
350
6889
  3
*A134
350
689D
  3
*A135
350
6960
  3
*A136
350
6878
  3
*A137
350
688F
  3
*A138
350
68D2
  3
*A139
350
6906
  3
*A14
350
688B
  3
*A140
350
68C0
  3
*A141
350
6923
  3
*A142
350
6940
  3
*A143
350
68CE
  3
*A144
350
698C
  3
*A145
350
6944
  3
*A146
350
6970
  3
*A147
350
6998
  3
*A148
350
6900
  3
*A15
350
6880
  3
*A16
350
693C
  3
*A17
350
694E
  3
*A18
350
68EC
  3
*A19
350
6899
  3
*A2
350
68F8
  3
*A20
350
68FC
  3
*A21
350
6984
  3
*A22
350
690C
  3
*A23
350
6933
  3
*A24
350
68F6
  3
*A25
350
68A2
  3
*A26
350
6976
  3
*A27
350
6978
  3
*A28
350
6891
  3
*A29
350
6994
  3
*A3
350
6931
  3
*A30
350
6966
  3
*A31
350
68AC
  3
*A32
350
68BC
  3
*A33
350
6915
  3
*A34
350
68D9
  3
*A35
350
689B
  3
*A36
350
6950
  3
*A37
350
68AA
  3
*A38
350
6942
  3
*A39
350
6986
  3
*A4
350
68EA
  3
*A40
350
68E4
  3
*A41
350
6902
  3
*A42
350
68E6
  3
*A43
350
696C
  3
*A44
350
6921
  3
*A45
350
68C2
  3
*A46
350
6927
  3
*A47
350
6988
  3
*A48
350
692B
  3
*A49
350
693A
  3
*A5
350
6956
  3
*A50
350
68E8
  3
*A51
350
68DD
  3
*A52
350
68EE
  3
*A53
350
68BE
  3
*A54
350
693E
  3
*A55
350
68B8
  3
*A56
350
6893
  3
*A57
350
6990
  3
*A58
350
6885
  3
*A59
350
6887
  3
*A6
350
691B
  3
*A60
350
68E0
  3
*A61
350
68B0
  3
*A62
350
6962
  3
*A63
350
6996
  3
*A64
350
68C4
  3
*A65
350
692F
  3
*A66
350
6946
  3
*A67
350
6935
  3
*A68
350
68C6
  3
*A69
350
68B4
  3
*A7
350
6895
  3
*A70
350
698A
  3
*A71
350
697E
  3
*A72
350
6919
  3
*A73
350
68A0
  3
*A74
350
698E
  3
*A75
350
6908
  3
*A76
350
68A8
  3
*A77
350
690A
  3
*A78
350
68E2
  3
*A79
350
6992
  3
*A8
350
6897
  3
*A80
350
68DB
  3
*A81
350
6904
  3
*A82
350
696A
  3
*A83
350
6948
  3
*A84
350
695A
  3
*A85
350
6952
  3
*A86
350
687C
  3
*A87
350
68A6
  3
*A88
350
6964
  3
*A89
350
690E
  3
*A9
350
6980
  3
*A90
350
697A
  3
*A91
350
6982
  3
*A92
350
68D4
  3
*A93
350
13CBA
  3
*A94
350
688D
  3
*A95
350
6938
  3
*A96
350
68F4
  3
*A97
350
691D
  3
*A98
350
13CBB
  3
*A99
350
13CBC
  0
DICTIONARY
  5
6870
102
{ACAD_REACTORS
330
7
102
}
330
7
100
AcDbDictionary
281
     1
  0
DICTIONARY
  5
685B
102
{ACAD_REACTORS
330
7
102
}
330
7
100
AcDbDictionary
281
     1
  0
DICTIONARY
  5
685C
102
{ACAD_REACTORS
330
7
102
}
330
7
100
AcDbDictionary
281
     1
  3
Standard
350
13CC1
  0
DICTIONARY
  5
685A
102
{ACAD_REACTORS
330
7
102
}
330
7
100
AcDbDictionary
281
     1
  3
AIA (256 Color)
350
8304
  0
DICTIONARY
  5
6855
102
{ACAD_REACTORS
330
7
102
}
330
7
100
AcDbDictionary
281
     1
  3
Pomieszczenia
350
13CC2
  3
Posadzka
350
13CEC
  0
DICTIONARY
  5
684E
102
{ACAD_REACTORS
330
7
102
}
330
7
100
AcDbDictionary
281
     1
  0
DICTIONARY
  5
6854
102
{ACAD_REACTORS
330
7
102
}
330
7
100
AcDbDictionary
281
     1
  0
DICTIONARY
  5
6853
102
{ACAD_REACTORS
330
7
102
}
330
7
100
AcDbDictionary
281
     1
  3
Standard
350
13CF5
  0
DICTIONARY
  5
684F
102
{ACAD_REACTORS
330
7
102
}
330
7
100
AcDbDictionary
281
     1
  0
DICTIONARY
  5
686C
102
{ACAD_REACTORS
330
7
102
}
330
7
100
AcDbDictionary
281
     1
  3
Standard
350
13D00
  0
DICTIONARY
  5
6851
102
{ACAD_REACTORS
330
7
102
}
330
7
100
AcDbDictionary
281
     1
  0
DICTIONARY
  5
6850
102
{ACAD_REACTORS
330
7
102
}
330
7
100
AcDbDictionary
281
     1
  0
DICTIONARY
  5
6856
102
{ACAD_REACTORS
330
7
102
}
330
7
100
AcDbDictionary
281
     1
  3
Area
350
13D01
  3
Case - Lower
350
13D02
  3
Case - Upper
350
13D03
  3
Length - Nominal
350
13D04
  3
Number - Object
350
13D05
  3
poziom_bezwzgl
350
13D06
  3
Standard
350
13D07
  3
zaokragl do 1 miejsca po przecinku
350
13D08
  0
DICTIONARY
  5
3C4
102
{ACAD_REACTORS
330
7
102
}
330
7
100
AcDbDictionary
281
     1
  3
Powierzchnie
350
13D09
  3
SpaceObjects_ver3
350
13D0A
  0
DICTIONARY
  5
6867
102
{ACAD_REACTORS
330
7
102
}
330
7
100
AcDbDictionary
281
     1
  0
DICTIONARY
  5
6868
102
{ACAD_REACTORS
330
7
102
}
330
7
100
AcDbDictionary
281
     1
  3
Standard
350
13D0B
  0
DICTIONARY
  5
6869
102
{ACAD_REACTORS
330
7
102
}
330
7
100
AcDbDictionary
281
     1
  3
Standard
350
13D0C
  0
DICTIONARY
  5
6857
102
{ACAD_REACTORS
330
7
102
}
330
7
100
AcDbDictionary
281
     1
  3
pomieszczenia-parter
350
13D0D
  3
pomieszczenia-parter (2)
350
145DD
  0
DICTIONARY
  5
686A
102
{ACAD_REACTORS
330
7
102
}
330
7
100
AcDbDictionary
281
     1
  3
Standard
350
13D11
  0
DICTIONARY
  5
686B
102
{ACAD_REACTORS
330
7
102
}
330
7
100
AcDbDictionary
281
     1
  3
Standard
350
13D12
  0
DICTIONARY
  5
686D
102
{ACAD_REACTORS
330
7
102
}
330
7
100
AcDbDictionary
281
     1
  0
DICTIONARY
  5
685D
102
{ACAD_REACTORS
330
7
102
}
330
7
100
AcDbDictionary
281
     1
  3
SPACE
350
13D13
  3
Standard
350
18869
  0
DICTIONARY
  5
685E
102
{ACAD_REACTORS
330
7
102
}
330
7
100
AcDbDictionary
281
     1
  0
DICTIONARY
  5
685F
102
{ACAD_REACTORS
330
7
102
}
330
7
100
AcDbDictionary
281
     1
  0
DICTIONARY
  5
6858
102
{ACAD_REACTORS
330
7
102
}
330
7
100
AcDbDictionary
281
     1
  0
DICTIONARY
  5
687A
102
{ACAD_REACTORS
330
7
102
}
330
7
100
AcDbDictionary
281
     1
  3
AEC_VARS_ARCHBASE
350
8307
  3
AEC_VARS_DWG_SETUP
350
687B
  3
AEC_VARS_STRUCTUREBASE
350
13D18
  3
AECMX_VARS_MUNICH
350
8308
  0
DICTIONARY
  5
6861
102
{ACAD_REACTORS
330
7
102
}
330
7
100
AcDbDictionary
281
     1
  3
Standard
350
13D19
  0
DICTIONARY
  5
6860
102
{ACAD_REACTORS
330
7
102
}
330
7
100
AcDbDictionary
281
     1
  0
DICTIONARY
  5
6866
102
{ACAD_REACTORS
330
7
102
}
330
7
100
AcDbDictionary
281
     1
  0
DICTIONARY
  5
6862
102
{ACAD_REACTORS
330
7
102
}
330
7
100
AcDbDictionary
281
     1
  0
DICTIONARY
  5
686F
102
{ACAD_REACTORS
330
7
102
}
330
7
100
AcDbDictionary
281
     1
  0
DICTIONARY
  5
686E
102
{ACAD_REACTORS
330
7
102
}
330
7
100
AcDbDictionary
281
     1
  0
DICTIONARY
  5
6859
102
{ACAD_REACTORS
330
7
102
}
330
7
100
AcDbDictionary
281
     1
  0
DICTIONARY
  5
1886A
102
{ACAD_REACTORS
330
7
102
}
330
7
100
AcDbDictionary
281
     1
  3
_elementy_wiezby_Link1
350
18885
  3
_materialy_przegrod_pl_Link1
350
18884
  3
_nazwy_przegrod_pl_Link1
350
18883
  3
_nazwy_rysunkow_Arial37
350
18882
  3
_opisy_rozne_II_Link1
350
18881
  3
_opisy_rozne_II_Link2
350
18880
  3
_posadzki_do_zestawienia_pomieszczen_Link1
350
1887F
  3
_rozne_opisy_rys_Link1
350
1887E
  3
_tabelka_-_inform_i_etykiety_Link1
350
1887D
  3
_uwagi_ogolne_na_arkuszu_Link1
350
1887C
  3
_~TMPCLP122371_Link1
350
1887B
  3
ALFABETLink1
350
1887A
  3
arkusz_nazwyLink1
350
18879
  3
arkusz_nazwyLink2
350
18878
  3
ASEBlockHierarchyIndexRecord
350
18886
  3
jednostkiLink1
350
18877
  3
konstr_drewLink1
350
18876
  3
konstr_stalLink1
350
18875
  3
miesiaceLink1
350
18874
  3
pomieszczeniaLink1
350
18873
  3
schematyLink1
350
18872
  3
stolarkaLink1
350
18871
  3
szczegolyLink1
350
18870
  3
tbl_PRZEGRODYLink1
350
1886F
  3
tbl_uwagi_coLink1
350
1886E
  3
tbl_uwagi_wodkanLink1
350
1886D
  3
uwagi_na_schematachLink1
350
1886C
  3
zbroj_plytyLink1
350
1886B
1001
DCO15
1040
1664265760.187
  0
DICTIONARY
  5
41C3
102
{ACAD_REACTORS
330
7
102
}
330
7
100
AcDbDictionary
281
     1
  3
ACET-OVERKILL-FUZZ
350
12D8D
  3
ACET-OVERKILL-NO-ENDTOEND
350
12D90
  3
ACET-OVERKILL-NO-PARTIAL
350
12D8F
  3
ACET-OVERKILL-NO-PLINES
350
12D8E
  0
DICTIONARY
  5
17A4A
102
{ACAD_REACTORS
330
7
102
}
330
7
100
AcDbDictionary
281
     1
  3
_el_wzb_Left_nazw_romans16
350
17A94
  3
_elementy_wiezby_SKROT_Romans16
350
17A93
  3
_materialy_przegrod_pl_Label1
350
17A92
  3
_nazwy_przegrod_romans18
350
17A91
  3
_nazwy_rysunkow_Arial37
350
17A90
  3
_nazwy_rysunkow_Romans18
350
17A8F
  3
_opisy_rozne_II_Label1
350
17A8E
  3
_opisy_rozne_II_Link1Label1
350
17A8D
  3
_posadzki_do_zestawienia_pomieszczen_Romans17
350
17A8C
  3
_rozne_opisy_rys_R16_right
350
17A8B
  3
_rozne_opisy_rys_Romans12
350
17A8A
  3
_rozne_opisy_rys_Romans16
350
17A89
  3
_tabelka_-_inform_i_etykiety_Romans13
350
17A88
  3
_tabelka_Arial15-center
350
17A87
  3
_tabelka_Arial151
350
17A86
  3
_tabelka_Romans 10
350
17A85
  3
_tabelka_Romans13
350
17A84
  3
_tabelka_Romans19
350
17A83
  3
ALFABET-Arial20
350
17A82
  3
ALFABET-Arial26
350
17A81
  3
ALFABET-Arial37
350
17A80
  3
Arial_27
350
17A7F
  3
arkusz_nazwy_Arial35
350
17A7E
  3
arkusz_nazwy_Arial_35_DwieLinie
350
17A7D
  3
arkusz_nazwy_Romans18
350
17A7C
  3
arkusz_nazwy_Romans_18
350
17A7B
  3
jednostki-Arial18
350
17A7A
  3
jednostki-Arial30
350
17A79
  3
jednostki-Romans16
350
17A78
  3
jednostki_arial6.6kursywa
350
17A77
  3
jednostki_ROMANS11
350
17A76
  3
jednostki_ROMANS15
350
17A75
  3
jednostki_Romans7
350
17A74
  3
jednostkiLabel1
350
17A73
  3
jednostkiRomans22
350
17A72
  3
konstr_drew_arial6.6kursywa
350
17A71
  3
konstr_drew_romans7
350
17A70
  3
konstr_stalarial9kursywa
350
17A6F
  3
konstr_stalLabel1
350
17A6E
  3
konstr_stalLabel2
350
17A6D
  3
miesiace-Romans17
350
17A6C
  3
pomieszczenia-Arial 15
350
17A6B
  3
pomieszczenia-Romans17
350
17A6A
  3
romans16
350
17A69
  3
Romans_17
350
17A68
  3
schematy_arial15
350
17A67
  3
schematy_arial20
350
17A66
  3
schematy_arial37
350
17A65
  3
schematy_romans15
350
17A64
  3
schematy_romans15Right
350
17A63
  3
stolarka-Arial14
350
17A62
  3
stolarka-Romans1607
350
17A61
  3
stolarka-Romans1608
350
17A60
  3
stolarkaLabel1
350
17A5F
  3
szczegoly_arial12kursywa
350
17A5E
  3
szczegoly_arial6.6kursRight
350
17A5D
  3
szczegoly_arial6.6kursywa
350
17A5C
  3
szczegoly_Romans7
350
17A5B
  3
szczegoly_romans7_right
350
17A5A
  3
tbl_PRZEGRODY
350
17A59
  3
tbl_uwagi_coRomans20Right
350
17A58
  3
uwag_og_na_ark_Arial18
350
17A57
  3
uwagi_co_Arial37
350
17A56
  3
uwagi_co_Romans20
350
17A55
  3
uwagi_na_schematachLabel1
350
17A54
  3
uwagi_na_schematachLabel2
350
17A53
  3
uwagi_na_schematachRight
350
17A52
  3
uwagi_wodkan_Romans18
350
17A51
  3
uwagi_wodkanARIAL37
350
17A50
  3
uwagi_wodkanRomans20_Right
350
17A4F
  3
zbroj_plyty_arial22
350
17A4E
  3
zbroj_plyty_romans12
350
17A4D
  3
zbroj_plyty_romans12Right
350
17A4C
  3
zbroj_plyty_romans9
350
17A4B
  0
DICTIONARY
  5
17A2E
102
{ACAD_REACTORS
330
7
102
}
330
7
100
AcDbDictionary
281
     1
  3
_elementy_wiezby_Link1
350
17A49
  3
_materialy_przegrod_pl_Link1
350
17A48
  3
_nazwy_przegrod_pl_Link1
350
17A47
  3
_nazwy_rysunkow_Arial37
350
17A46
  3
_opisy_rozne_II_Link1
350
17A45
  3
_opisy_rozne_II_Link2
350
17A44
  3
_posadzki_do_zestawienia_pomieszczen_Link1
350
17A43
  3
_rozne_opisy_rys_Link1
350
17A42
  3
_tabelka_-_inform_i_etykiety_Link1
350
17A41
  3
_uwagi_ogolne_na_arkuszu_Link1
350
17A40
  3
_~TMPCLP122371_Link1
350
17A3F
  3
ALFABETLink1
350
17A3E
  3
arkusz_nazwyLink1
350
17A3D
  3
arkusz_nazwyLink2
350
17A3C
  3
jednostkiLink1
350
17A3B
  3
konstr_drewLink1
350
17A3A
  3
konstr_stalLink1
350
17A39
  3
miesiaceLink1
350
17A38
  3
pomieszczeniaLink1
350
17A37
  3
schematyLink1
350
17A36
  3
stolarkaLink1
350
17A35
  3
szczegolyLink1
350
17A34
  3
tbl_PRZEGRODYLink1
350
17A33
  3
tbl_uwagi_coLink1
350
17A32
  3
tbl_uwagi_wodkanLink1
350
17A31
  3
uwagi_na_schematachLink1
350
17A30
  3
zbroj_plytyLink1
350
17A2F
  0
XRECORD
  5
1888C
102
{ACAD_REACTORS
330
7
102
}
330
7
100
AcDbXrecord
280
     1
  1
DWGPROPS COOKIE
  2

  3

  4

  6

  7

  8
magdalena.jozwik
  9

300
=
301
=
302
=
303
=
304
=
305
=
306
=
307
=
308
=
309
=
 40
9.120724594907407
 41
2452027.670547454
 42
2455065.547039202
  1

 90
        0
  0
DICTIONARY
  5
8311
102
{ACAD_REACTORS
330
12
102
}
330
12
100
AcDbDictionary
281
     1
  0
DICTIONARY
  5
13
102
{ACAD_REACTORS
330
12
102
}
330
12
100
AcDbDictionary
281
     1
  0
DICTIONARY
  5
8310
102
{ACAD_REACTORS
330
12
102
}
330
12
100
AcDbDictionary
281
     1
1001
ACAD
1000
<All
  0
XRECORD
  5
16AD8
102
{ACAD_REACTORS
330
16AD7
102
}
330
16AD7
100
AcDbXrecord
280
     1
290
     1
  0
XRECORD
  5
16ADA
102
{ACAD_REACTORS
330
16AD9
102
}
330
16AD9
100
AcDbXrecord
280
     1
290
     1
  0
XRECORD
  5
16ADE
102
{ACAD_REACTORS
330
16ADD
102
}
330
16ADD
100
AcDbXrecord
280
     1
290
     1
  0
XRECORD
  5
16AE2
102
{ACAD_REACTORS
330
16AE1
102
}
330
16AE1
100
AcDbXrecord
280
     1
290
     1
  0
XRECORD
  5
16AE4
102
{ACAD_REACTORS
330
16AE3
102
}
330
16AE3
100
AcDbXrecord
280
     1
290
     1
  0
XRECORD
  5
16B0E
102
{ACAD_REACTORS
330
16B0D
102
}
330
16B0D
100
AcDbXrecord
280
     1
290
     1
  0
XRECORD
  5
175B3
102
{ACAD_REACTORS
330
175B2
102
}
330
175B2
100
AcDbXrecord
280
     1
290
     1
  0
SORTENTSTABLE
  5
1FF0
102
{ACAD_REACTORS
330
1FEF
102
}
330
1FEF
100
AcDbSortentsTable
330
2
331
1865D
  5
1865E
331
1874D
  5
1874F
331
1872E
  5
18730
331
1867C
  5
1869A
331
1865E
  5
1865F
331
1874E
  5
18750
331
1872F
  5
18731
331
1865F
  5
18660
331
1874F
  5
18751
331
18730
  5
18732
331
18750
  5
18752
331
18731
  5
18733
331
186F3
  5
186FE
331
18751
  5
18753
331
18732
  5
18734
331
186BE
  5
186CB
331
18752
  5
18754
331
18842
  5
185DA
331
18733
  5
18735
331
18714
  5
1872A
331
185FD
  5
18622
331
18753
  5
18755
331
18734
  5
18736
331
185D7
  5
185DE
331
18754
  5
18756
331
18735
  5
18737
331
1862E
  5
185FD
331
18755
  5
18757
331
18736
  5
18738
331
18756
  5
18758
331
18737
  5
18739
331
18757
  5
18759
331
18738
  5
1873A
331
18739
  5
1873B
331
1873A
  5
1873C
331
142
  5
142
331
1873B
  5
1873D
331
1873C
  5
1873E
331
186FE
  5
18709
331
1873D
  5
1873F
331
1873E
  5
18740
331
1873F
  5
18741
331
18834
  5
1872C
331
157
  5
157
331
159
  5
159
331
15B
  5
15B
331
15C
  5
15C
331
18600
  5
1864C
331
185DA
  5
185E8
331
18660
  5
18661
331
18661
  5
18662
331
18662
  5
18673
331
1864C
  5
1864E
331
185DE
  5
185EB
331
1864D
  5
18654
331
186CB
  5
186E8
331
18650
  5
18651
331
18611
  5
185D7
331
18740
  5
18742
331
18758
  5
1875A
331
18741
  5
18743
331
18759
  5
18825
331
18742
  5
18744
331
18653
  5
1864D
331
1875A
  5
18835
331
18743
  5
18745
331
18654
  5
18655
331
185E6
  5
185FF
331
18744
  5
18746
331
18673
  5
18674
331
18655
  5
18656
331
18745
  5
18747
331
186E8
  5
186F3
331
18674
  5
18675
331
18656
  5
18657
331
185E8
  5
18601
331
18746
  5
18748
331
186B3
  5
186BE
331
18675
  5
18676
331
18657
  5
18658
331
18747
  5
18749
331
18709
  5
18714
331
18676
  5
18677
331
18658
  5
18659
331
18621
  5
185E6
331
18748
  5
1874A
331
18677
  5
18678
331
12D9D
  5
10249
331
18659
  5
1865A
331
185EB
  5
18612
331
18749
  5
1874B
331
1872A
  5
1872B
331
18678
  5
18679
331
1865A
  5
1865B
331
1874A
  5
1874C
331
1872B
  5
1872D
331
18679
  5
1867A
331
1865B
  5
1865C
331
1874B
  5
1874D
331
1872C
  5
1872E
331
1867A
  5
1867B
331
1865C
  5
1865D
331
1874C
  5
1874E
331
1872D
  5
1872F
331
1869A
  5
186B3
331
1867B
  5
1867C
  0
SORTENTSTABLE
  5
117C
102
{ACAD_REACTORS
330
24
102
}
330
24
100
AcDbSortentsTable
330
23
  0
LAYOUT
  5
10
102
{ACAD_XDICTIONARY
360
1888F
102
}
102
{ACAD_REACTORS
330
B
102
}
330
B
100
AcDbPlotSettings
  1

  2
C:\PROGRAM FILES\AUTOCAD LT 2000\plotters\DWF ePlot.pc3
  4

  6

 40
0.0
 41
0.0
 42
0.0
 43
0.0
 44
0.0
 45
0.0
 46
0.0
 47
0.0
 48
0.0
 49
0.0
140
0.0
141
0.0
142
1.0
143
1.0
 70
   688
 72
     0
 73
     0
 74
     5
  7
monochrome_140.ctb
 75
    16
147
1.0
148
0.0
149
0.0
100
AcDbLayout
  1
Layout1
 70
     1
 71
     1
 10
0.0
 20
0.0
 11
420.0
 21
297.0
 12
0.0
 22
0.0
 32
0.0
 14
1.000000000000000E+20
 24
1.000000000000000E+20
 34
1.000000000000000E+20
 15
-1.000000000000000E+20
 25
-1.000000000000000E+20
 35
-1.000000000000000E+20
146
0.0
 13
0.0
 23
0.0
 33
0.0
 16
1.0
 26
0.0
 36
0.0
 17
0.0
 27
1.0
 37
0.0
 76
     0
330
D
  0
LAYOUT
  5
A
102
{ACAD_XDICTIONARY
360
1888D
102
}
102
{ACAD_REACTORS
330
B
102
}
330
B
100
AcDbPlotSettings
  1

  2
CutePDF Writer
  4
A4
  6
RODODENDRON 5
 40
3.174999952316284
 41
3.174999952316284
 42
3.175003051757812
 43
3.17498779296875
 44
209.8886566162109
 45
297.0530090332031
 46
-0.230673193931878
 47
5.151510643959028
 48
215187.2000545948
 49
127657.5157057546
140
225387.2000545948
141
141677.5157057546
142
1.0
143
50.0
 70
 11940
 72
     1
 73
     0
 74
     4
  7
monochrome_140.ctb
 75
     0
147
0.0192512917051128
148
-215187.2000545948
149
-127657.5157057546
100
AcDbLayout
  1
Model
 70
     1
 71
     0
 10
0.0
 20
0.0
 11
12.0
 21
9.0
 12
0.0
 22
0.0
 32
0.0
 14
0.0
 24
0.0
 34
0.0
 15
0.0
 25
0.0
 35
0.0
146
0.0
 13
0.0
 23
0.0
 33
0.0
 16
1.0
 26
0.0
 36
0.0
 17
0.0
 27
1.0
 37
0.0
 76
     0
330
2
331
1728
1001
ACAD_PSEXT
1000
CutePDF Writer
1000
CutePDF Writer
1000
CPW2:
1000

1070
     0
  0
MATERIAL
  5
172B
102
{ACAD_XDICTIONARY
360
18894
102
}
102
{ACAD_REACTORS
330
30
102
}
330
30
100
AcDbMaterial
  1
ByBlock
 73
     1
 78
     1
172
     1
176
     1
270
     1
274
     1
  0
MATERIAL
  5
172A
102
{ACAD_XDICTIONARY
360
18892
102
}
102
{ACAD_REACTORS
330
30
102
}
330
30
100
AcDbMaterial
  1
ByLayer
 73
     1
 78
     1
172
     1
176
     1
270
     1
274
     1
  0
MATERIAL
  5
139CC
102
{ACAD_XDICTIONARY
360
139CD
102
}
102
{ACAD_REACTORS
330
30
102
}
330
30
100
AcDbMaterial
  1
General.Chip
 70
     1
 90
-1029332071
 71
     1
 91
-1029332071
 73
     1
 43
64.51593032277642
 43
0.0
 43
0.0
 43
0.0
 43
0.0
 43
64.51593032277642
 43
0.0
 43
0.0
 43
0.0
 43
0.0
 43
64.51593032277642
 43
0.0
 43
0.0
 43
0.0
 43
0.0
 43
1.0
 44
0.0
 76
     1
 92
-1023410177
 78
     1
172
     1
176
     1
270
     1
273
     1
274
     1
  0
MATERIAL
  5
172C
102
{ACAD_XDICTIONARY
360
18896
102
}
102
{ACAD_REACTORS
330
30
102
}
330
30
100
AcDbMaterial
  1
Global
 73
     1
 78
     1
172
     1
176
     1
270
     1
274
     1
  0
MLEADERSTYLE
  5
168B1
102
{ACAD_REACTORS
330
168B0
102
}
330
168B0
100
AcDbMLeaderStyle
170
     2
171
     1
172
     0
 90
        2
 40
0.0
 41
0.0
173
     1
 91
-1056964608
340
18
 92
       -2
290
     1
 42
0.09
291
     1
 43
0.36
  3
Standard
 44
0.18
300

342
15
174
     1
178
     6
175
     1
176
     0
 93
-1056964608
 45
0.18
292
     0
297
     0
 46
0.18
 94
-1056964608
 47
1.0
 49
1.0
140
1.0
293
     1
141
0.0
294
     1
177
     0
142
1.0
295
     0
296
     0
143
0.125
1001
ACAD_MLEADERVER
1070
     2
  0
MLINESTYLE
  5
33
102
{ACAD_REACTORS
330
2E
102
}
330
2E
100
AcDbMlineStyle
  2
STANDARD
 70
     0
  3

 62
   256
 51
90.0
 52
90.0
 71
     2
 49
0.5
 62
   256
  6
BYLAYER
 49
-0.5
 62
   256
  6
BYLAYER
  0
ACDBPLACEHOLDER
  5
139C9
102
{ACAD_REACTORS
330
6
102
}
330
6
  0
ACDBPLACEHOLDER
  5
131E6
102
{ACAD_REACTORS
330
6
102
}
330
6
  0
ACDBPLACEHOLDER
  5
5
102
{ACAD_REACTORS
330
6
102
}
330
6
  0
ACDBPLACEHOLDER
  5
139CA
102
{ACAD_REACTORS
330
6
102
}
330
6
  0
ACDBPLACEHOLDER
  5
139CB
102
{ACAD_REACTORS
330
6
102
}
330
6
  0
SCALE
  5
16B4A
102
{ACAD_REACTORS
330
1688E
102
}
330
1688E
100
AcDbScale
 70
     0
300
1:10_1
140
1.0
141
1.0
290
     0
  0
SCALE
  5
16B6E
102
{ACAD_REACTORS
330
1688E
102
}
330
1688E
100
AcDbScale
 70
     0
300
1:2_1_2
140
1.0
141
2.0
290
     0
  0
SCALE
  5
16B6F
102
{ACAD_REACTORS
330
1688E
102
}
330
1688E
100
AcDbScale
 70
     0
300
1:5_1_2
140
1.0
141
5.0
290
     0
  0
SCALE
  5
16B62
102
{ACAD_REACTORS
330
1688E
102
}
330
1688E
100
AcDbScale
 70
     0
300
1:20_1
140
1.0
141
2.0
290
     0
  0
SCALE
  5
16B70
102
{ACAD_REACTORS
330
1688E
102
}
330
1688E
100
AcDbScale
 70
     0
300
1:10_1_2
140
1.0
141
10.0
290
     0
  0
SCALE
  5
16B4D
102
{ACAD_REACTORS
330
1688E
102
}
330
1688E
100
AcDbScale
 70
     0
300
1:1_1
140
1.0
141
0.1
290
     0
  0
SCALE
  5
16B71
102
{ACAD_REACTORS
330
1688E
102
}
330
1688E
100
AcDbScale
 70
     0
300
1:20_1_2
140
1.0
141
20.0
290
     0
  0
SCALE
  5
16B5C
102
{ACAD_REACTORS
330
1688E
102
}
330
1688E
100
AcDbScale
 70
     0
300
1:50_1_1_1
140
1.0
141
50.0
290
     0
  0
SCALE
  5
16B72
102
{ACAD_REACTORS
330
1688E
102
}
330
1688E
100
AcDbScale
 70
     0
300
1:50_1_2
140
1.0
141
50.0
290
     0
  0
SCALE
  5
16B73
102
{ACAD_REACTORS
330
1688E
102
}
330
1688E
100
AcDbScale
 70
     0
300
1:100_1_2
140
1.0
141
100.0
290
     0
  0
SCALE
  5
16B4E
102
{ACAD_REACTORS
330
1688E
102
}
330
1688E
100
AcDbScale
 70
     0
300
1:50_XREF
140
1.0
141
50.0
290
     0
  0
SCALE
  5
16B68
102
{ACAD_REACTORS
330
1688E
102
}
330
1688E
100
AcDbScale
 70
     0
300
1:100_2
140
1.0
141
100.0
290
     0
  0
SCALE
  5
16B9E
102
{ACAD_REACTORS
330
1688E
102
}
330
1688E
100
AcDbScale
 70
     0
300
1:10_3
140
1.0
141
1.0
290
     0
  0
SCALE
  5
16B55
102
{ACAD_REACTORS
330
1688E
102
}
330
1688E
100
AcDbScale
 70
     0
300
1:5_1_1
140
1.0
141
0.5
290
     0
  0
SCALE
  5
16B9F
102
{ACAD_REACTORS
330
1688E
102
}
330
1688E
100
AcDbScale
 70
     0
300
1:1_3
140
1.0
141
0.1
290
     0
  0
SCALE
  5
16B63
102
{ACAD_REACTORS
330
1688E
102
}
330
1688E
100
AcDbScale
 70
     0
300
1:50_1
140
1.0
141
5.0
290
     0
  0
SCALE
  5
16BA0
102
{ACAD_REACTORS
330
1688E
102
}
330
1688E
100
AcDbScale
 70
     0
300
1:2_3
140
1.0
141
0.2
290
     0
  0
SCALE
  5
16B4F
102
{ACAD_REACTORS
330
1688E
102
}
330
1688E
100
AcDbScale
 70
     0
300
1:100_XREF
140
1.0
141
100.0
290
     0
  0
SCALE
  5
16BA1
102
{ACAD_REACTORS
330
1688E
102
}
330
1688E
100
AcDbScale
 70
     0
300
1:5_3
140
1.0
141
0.5
290
     0
  0
SCALE
  5
16BA2
102
{ACAD_REACTORS
330
1688E
102
}
330
1688E
100
AcDbScale
 70
     0
300
1:20_3
140
1.0
141
2.0
290
     0
  0
SCALE
  5
16B4B
102
{ACAD_REACTORS
330
1688E
102
}
330
1688E
100
AcDbScale
 70
     0
300
1:5_XREF
140
1.0
141
5.0
290
     0
  0
SCALE
  5
16BA3
102
{ACAD_REACTORS
330
1688E
102
}
330
1688E
100
AcDbScale
 70
     0
300
1:50_3
140
1.0
141
5.0
290
     0
  0
SCALE
  5
16B69
102
{ACAD_REACTORS
330
1688E
102
}
330
1688E
100
AcDbScale
 70
     0
300
1:20_XREF
140
1.0
141
20.0
290
     0
  0
SCALE
  5
16BA4
102
{ACAD_REACTORS
330
1688E
102
}
330
1688E
100
AcDbScale
 70
     0
300
1:100_3
140
1.0
141
10.0
290
     0
  0
SCALE
  5
16BA5
102
{ACAD_REACTORS
330
1688E
102
}
330
1688E
100
AcDbScale
 70
     0
300
1:1_1_3
140
1.0
141
1.0
290
     0
  0
SCALE
  5
16BA6
102
{ACAD_REACTORS
330
1688E
102
}
330
1688E
100
AcDbScale
 70
     0
300
1:2_1_3
140
1.0
141
2.0
290
     0
  0
SCALE
  5
16BA7
102
{ACAD_REACTORS
330
1688E
102
}
330
1688E
100
AcDbScale
 70
     0
300
1:5_1_3
140
1.0
141
5.0
290
     0
  0
SCALE
  5
16B53
102
{ACAD_REACTORS
330
1688E
102
}
330
1688E
100
AcDbScale
 70
     0
300
1:20_1_1_1
140
1.0
141
20.0
290
     0
  0
SCALE
  5
16B56
102
{ACAD_REACTORS
330
1688E
102
}
330
1688E
100
AcDbScale
 70
     0
300
1:100_1_1
140
1.0
141
10.0
290
     0
  0
SCALE
  5
16BA8
102
{ACAD_REACTORS
330
1688E
102
}
330
1688E
100
AcDbScale
 70
     0
300
1:10_1_3
140
1.0
141
10.0
290
     0
  0
SCALE
  5
16BA9
102
{ACAD_REACTORS
330
1688E
102
}
330
1688E
100
AcDbScale
 70
     0
300
1:20_1_3
140
1.0
141
20.0
290
     0
  0
SCALE
  5
16BAA
102
{ACAD_REACTORS
330
1688E
102
}
330
1688E
100
AcDbScale
 70
     0
300
1:50_1_3
140
1.0
141
50.0
290
     0
  0
SCALE
  5
16B50
102
{ACAD_REACTORS
330
1688E
102
}
330
1688E
100
AcDbScale
 70
     0
300
1:10_1_1
140
1.0
141
1.0
290
     0
  0
SCALE
  5
16B5B
102
{ACAD_REACTORS
330
1688E
102
}
330
1688E
100
AcDbScale
 70
     0
300
1:10_XREF
140
1.0
141
10.0
290
     0
  0
SCALE
  5
16B5D
102
{ACAD_REACTORS
330
1688E
102
}
330
1688E
100
AcDbScale
 70
     0
300
1:100_1_1_1
140
1.0
141
100.0
290
     0
  0
SCALE
  5
16BAB
102
{ACAD_REACTORS
330
1688E
102
}
330
1688E
100
AcDbScale
 70
     0
300
1:100_1_3
140
1.0
141
100.0
290
     0
  0
SCALE
  5
16B51
102
{ACAD_REACTORS
330
1688E
102
}
330
1688E
100
AcDbScale
 70
     0
300
1:2_1_1
140
1.0
141
0.2
290
     0
  0
SCALE
  5
16B52
102
{ACAD_REACTORS
330
1688E
102
}
330
1688E
100
AcDbScale
 70
     0
300
1:1_1_1
140
1.0
141
0.1
290
     0
  0
SCALE
  5
16D99
102
{ACAD_REACTORS
330
1688E
102
}
330
1688E
100
AcDbScale
 70
     0
300
1:10_4
140
1.0
141
1.0
290
     0
  0
SCALE
  5
16B64
102
{ACAD_REACTORS
330
1688E
102
}
330
1688E
100
AcDbScale
 70
     0
300
1:100_1
140
1.0
141
10.0
290
     0
  0
SCALE
  5
16D9A
102
{ACAD_REACTORS
330
1688E
102
}
330
1688E
100
AcDbScale
 70
     0
300
1:1_4
140
1.0
141
0.1
290
     0
  0
SCALE
  5
16D9B
102
{ACAD_REACTORS
330
1688E
102
}
330
1688E
100
AcDbScale
 70
     0
300
1:2_4
140
1.0
141
0.2
290
     0
  0
SCALE
  5
16B57
102
{ACAD_REACTORS
330
1688E
102
}
330
1688E
100
AcDbScale
 70
     0
300
1:1_1_1_1
140
1.0
141
1.0
290
     0
  0
SCALE
  5
16D9C
102
{ACAD_REACTORS
330
1688E
102
}
330
1688E
100
AcDbScale
 70
     0
300
1:5_4
140
1.0
141
0.5
290
     0
  0
SCALE
  5
16B6A
102
{ACAD_REACTORS
330
1688E
102
}
330
1688E
100
AcDbScale
 70
     0
300
1:5_1_1_1
140
1.0
141
5.0
290
     0
  0
SCALE
  5
16D9D
102
{ACAD_REACTORS
330
1688E
102
}
330
1688E
100
AcDbScale
 70
     0
300
1:20_4
140
1.0
141
2.0
290
     0
  0
SCALE
  5
16D9E
102
{ACAD_REACTORS
330
1688E
102
}
330
1688E
100
AcDbScale
 70
     0
300
1:50_4
140
1.0
141
5.0
290
     0
  0
SCALE
  5
16B5E
102
{ACAD_REACTORS
330
1688E
102
}
330
1688E
100
AcDbScale
 70
     0
300
1:1_2
140
1.0
141
1.0
290
     0
  0
SCALE
  5
16D9F
102
{ACAD_REACTORS
330
1688E
102
}
330
1688E
100
AcDbScale
 70
     0
300
1:100_4
140
1.0
141
10.0
290
     0
  0
SCALE
  5
16DA0
102
{ACAD_REACTORS
330
1688E
102
}
330
1688E
100
AcDbScale
 70
     0
300
1:1_1_4
140
1.0
141
1.0
290
     0
  0
SCALE
  5
16DA1
102
{ACAD_REACTORS
330
1688E
102
}
330
1688E
100
AcDbScale
 70
     0
300
1:2_1_4
140
1.0
141
2.0
290
     0
  0
SCALE
  5
16B65
102
{ACAD_REACTORS
330
1688E
102
}
330
1688E
100
AcDbScale
 70
     0
300
1:5_2
140
1.0
141
5.0
290
     0
  0
SCALE
  5
16DA2
102
{ACAD_REACTORS
330
1688E
102
}
330
1688E
100
AcDbScale
 70
     0
300
1:5_1_4
140
1.0
141
5.0
290
     0
  0
SCALE
  5
16DA3
102
{ACAD_REACTORS
330
1688E
102
}
330
1688E
100
AcDbScale
 70
     0
300
1:10_1_4
140
1.0
141
10.0
290
     0
  0
SCALE
  5
16DA4
102
{ACAD_REACTORS
330
1688E
102
}
330
1688E
100
AcDbScale
 70
     0
300
1:20_1_4
140
1.0
141
20.0
290
     0
  0
SCALE
  5
16B6B
102
{ACAD_REACTORS
330
1688E
102
}
330
1688E
100
AcDbScale
 70
     0
300
1:1_XREF
140
1.0
141
1.0
290
     0
  0
SCALE
  5
16DA5
102
{ACAD_REACTORS
330
1688E
102
}
330
1688E
100
AcDbScale
 70
     0
300
1:50_1_4
140
1.0
141
50.0
290
     0
  0
SCALE
  5
16B58
102
{ACAD_REACTORS
330
1688E
102
}
330
1688E
100
AcDbScale
 70
     0
300
1:10_1_1_1
140
1.0
141
10.0
290
     0
  0
SCALE
  5
16DA6
102
{ACAD_REACTORS
330
1688E
102
}
330
1688E
100
AcDbScale
 70
     0
300
1:100_1_4
140
1.0
141
100.0
290
     0
  0
SCALE
  5
16B59
102
{ACAD_REACTORS
330
1688E
102
}
330
1688E
100
AcDbScale
 70
     0
300
1:2_1
140
1.0
141
0.2
290
     0
  0
SCALE
  5
16B5F
102
{ACAD_REACTORS
330
1688E
102
}
330
1688E
100
AcDbScale
 70
     0
300
1:2_2
140
1.0
141
2.0
290
     0
  0
SCALE
  5
16B5A
102
{ACAD_REACTORS
330
1688E
102
}
330
1688E
100
AcDbScale
 70
     0
300
1:2_1_1_1
140
1.0
141
2.0
290
     0
  0
SCALE
  5
16B60
102
{ACAD_REACTORS
330
1688E
102
}
330
1688E
100
AcDbScale
 70
     0
300
1:20_2
140
1.0
141
20.0
290
     0
  0
SCALE
  5
16B66
102
{ACAD_REACTORS
330
1688E
102
}
330
1688E
100
AcDbScale
 70
     0
300
1:10_2
140
1.0
141
10.0
290
     0
  0
SCALE
  5
16B61
102
{ACAD_REACTORS
330
1688E
102
}
330
1688E
100
AcDbScale
 70
     0
300
1:5_1
140
1.0
141
0.5
290
     0
  0
SCALE
  5
16B4C
102
{ACAD_REACTORS
330
1688E
102
}
330
1688E
100
AcDbScale
 70
     0
300
1:20_1_1
140
1.0
141
2.0
290
     0
  0
SCALE
  5
16B6C
102
{ACAD_REACTORS
330
1688E
102
}
330
1688E
100
AcDbScale
 70
     0
300
1:2_XREF
140
1.0
141
2.0
290
     0
  0
SCALE
  5
16B67
102
{ACAD_REACTORS
330
1688E
102
}
330
1688E
100
AcDbScale
 70
     0
300
1:50_2
140
1.0
141
50.0
290
     0
  0
SCALE
  5
16B54
102
{ACAD_REACTORS
330
1688E
102
}
330
1688E
100
AcDbScale
 70
     0
300
1:50_1_1
140
1.0
141
5.0
290
     0
  0
SCALE
  5
16B6D
102
{ACAD_REACTORS
330
1688E
102
}
330
1688E
100
AcDbScale
 70
     0
300
1:1_1_2
140
1.0
141
1.0
290
     0
  0
SCALE
  5
1688F
102
{ACAD_REACTORS
330
1688E
102
}
330
1688E
100
AcDbScale
 70
     0
300
1:1
140
1.0
141
1.0
290
     0
  0
SCALE
  5
16890
102
{ACAD_REACTORS
330
1688E
102
}
330
1688E
100
AcDbScale
 70
     0
300
1:2
140
1.0
141
2.0
290
     0
  0
SCALE
  5
16891
102
{ACAD_REACTORS
330
1688E
102
}
330
1688E
100
AcDbScale
 70
     0
300
1:4
140
1.0
141
4.0
290
     0
  0
SCALE
  5
16892
102
{ACAD_REACTORS
330
1688E
102
}
330
1688E
100
AcDbScale
 70
     0
300
1:5
140
1.0
141
5.0
290
     0
  0
SCALE
  5
16893
102
{ACAD_REACTORS
330
1688E
102
}
330
1688E
100
AcDbScale
 70
     0
300
1:8
140
1.0
141
8.0
290
     0
  0
SCALE
  5
16894
102
{ACAD_REACTORS
330
1688E
102
}
330
1688E
100
AcDbScale
 70
     0
300
1:10
140
1.0
141
10.0
290
     0
  0
SCALE
  5
16895
102
{ACAD_REACTORS
330
1688E
102
}
330
1688E
100
AcDbScale
 70
     0
300
1:16
140
1.0
141
16.0
290
     0
  0
SCALE
  5
16896
102
{ACAD_REACTORS
330
1688E
102
}
330
1688E
100
AcDbScale
 70
     0
300
1:20
140
1.0
141
20.0
290
     0
  0
SCALE
  5
16897
102
{ACAD_REACTORS
330
1688E
102
}
330
1688E
100
AcDbScale
 70
     0
300
1:30
140
1.0
141
30.0
290
     0
  0
SCALE
  5
16898
102
{ACAD_REACTORS
330
1688E
102
}
330
1688E
100
AcDbScale
 70
     0
300
1:40
140
1.0
141
40.0
290
     0
  0
SCALE
  5
16899
102
{ACAD_REACTORS
330
1688E
102
}
330
1688E
100
AcDbScale
 70
     0
300
1:50
140
1.0
141
50.0
290
     0
  0
SCALE
  5
1689A
102
{ACAD_REACTORS
330
1688E
102
}
330
1688E
100
AcDbScale
 70
     0
300
1:100
140
1.0
141
100.0
290
     0
  0
SCALE
  5
1689B
102
{ACAD_REACTORS
330
1688E
102
}
330
1688E
100
AcDbScale
 70
     0
300
2:1
140
2.0
141
1.0
290
     0
  0
SCALE
  5
1689C
102
{ACAD_REACTORS
330
1688E
102
}
330
1688E
100
AcDbScale
 70
     0
300
4:1
140
4.0
141
1.0
290
     0
  0
SCALE
  5
1689D
102
{ACAD_REACTORS
330
1688E
102
}
330
1688E
100
AcDbScale
 70
     0
300
8:1
140
8.0
141
1.0
290
     0
  0
SCALE
  5
1689E
102
{ACAD_REACTORS
330
1688E
102
}
330
1688E
100
AcDbScale
 70
     0
300
10:1
140
10.0
141
1.0
290
     0
  0
SCALE
  5
1689F
102
{ACAD_REACTORS
330
1688E
102
}
330
1688E
100
AcDbScale
 70
     0
300
100:1
140
100.0
141
1.0
290
     0
  0
SCALE
  5
168A0
102
{ACAD_REACTORS
330
1688E
102
}
330
1688E
100
AcDbScale
 70
     0
300
1/128" = 1'-0"
140
0.0078125
141
12.0
290
     0
  0
SCALE
  5
168A1
102
{ACAD_REACTORS
330
1688E
102
}
330
1688E
100
AcDbScale
 70
     0
300
1/64" = 1'-0"
140
0.015625
141
12.0
290
     0
  0
SCALE
  5
168A2
102
{ACAD_REACTORS
330
1688E
102
}
330
1688E
100
AcDbScale
 70
     0
300
1/32" = 1'-0"
140
0.03125
141
12.0
290
     0
  0
SCALE
  5
168A3
102
{ACAD_REACTORS
330
1688E
102
}
330
1688E
100
AcDbScale
 70
     0
300
1/16" = 1'-0"
140
0.0625
141
12.0
290
     0
  0
SCALE
  5
168A4
102
{ACAD_REACTORS
330
1688E
102
}
330
1688E
100
AcDbScale
 70
     0
300
3/32" = 1'-0"
140
0.09375
141
12.0
290
     0
  0
SCALE
  5
168A5
102
{ACAD_REACTORS
330
1688E
102
}
330
1688E
100
AcDbScale
 70
     0
300
1/8" = 1'-0"
140
0.125
141
12.0
290
     0
  0
SCALE
  5
168A6
102
{ACAD_REACTORS
330
1688E
102
}
330
1688E
100
AcDbScale
 70
     0
300
3/16" = 1'-0"
140
0.1875
141
12.0
290
     0
  0
SCALE
  5
168A7
102
{ACAD_REACTORS
330
1688E
102
}
330
1688E
100
AcDbScale
 70
     0
300
1/4" = 1'-0"
140
0.25
141
12.0
290
     0
  0
SCALE
  5
168A8
102
{ACAD_REACTORS
330
1688E
102
}
330
1688E
100
AcDbScale
 70
     0
300
3/8" = 1'-0"
140
0.375
141
12.0
290
     0
  0
SCALE
  5
168A9
102
{ACAD_REACTORS
330
1688E
102
}
330
1688E
100
AcDbScale
 70
     0
300
1/2" = 1'-0"
140
0.5
141
12.0
290
     0
  0
SCALE
  5
168AA
102
{ACAD_REACTORS
330
1688E
102
}
330
1688E
100
AcDbScale
 70
     0
300
3/4" = 1'-0"
140
0.75
141
12.0
290
     0
  0
SCALE
  5
168AB
102
{ACAD_REACTORS
330
1688E
102
}
330
1688E
100
AcDbScale
 70
     0
300
1" = 1'-0"
140
1.0
141
12.0
290
     0
  0
SCALE
  5
168AC
102
{ACAD_REACTORS
330
1688E
102
}
330
1688E
100
AcDbScale
 70
     0
300
1-1/2" = 1'-0"
140
1.5
141
12.0
290
     0
  0
SCALE
  5
168AD
102
{ACAD_REACTORS
330
1688E
102
}
330
1688E
100
AcDbScale
 70
     0
300
3" = 1'-0"
140
3.0
141
12.0
290
     0
  0
SCALE
  5
168AE
102
{ACAD_REACTORS
330
1688E
102
}
330
1688E
100
AcDbScale
 70
     0
300
6" = 1'-0"
140
6.0
141
12.0
290
     0
  0
SCALE
  5
168AF
102
{ACAD_REACTORS
330
1688E
102
}
330
1688E
100
AcDbScale
 70
     0
300
1'-0" = 1'-0"
140
12.0
141
12.0
290
     1
  0
TABLESTYLE
  5
DF3
102
{ACAD_XDICTIONARY
360
16B28
102
}
102
{ACAD_REACTORS
330
DF2
102
}
330
DF2
100
AcDbTableStyle
  3
Standard
 70
     0
 71
     0
 40
0.06
 41
0.06
280
     0
281
     0
  7
Standard
140
0.18
170
     2
 62
     0
 63
     7
283
     0
274
    -2
284
     1
 64
     0
275
    -2
285
     1
 65
     0
276
    -2
286
     1
 66
     0
277
    -2
287
     1
 67
     0
278
    -2
288
     1
 68
     0
279
    -2
289
     1
 69
     0
  7
Standard
140
0.25
170
     5
 62
     0
 63
     7
283
     0
274
    -2
284
     1
 64
     0
275
    -2
285
     1
 65
     0
276
    -2
286
     1
 66
     0
277
    -2
287
     1
 67
     0
278
    -2
288
     1
 68
     0
279
    -2
289
     1
 69
     0
  7
Standard
140
0.18
170
     5
 62
     0
 63
     7
283
     0
274
    -2
284
     1
 64
     0
275
    -2
285
     1
 65
     0
276
    -2
286
     1
 66
     0
277
    -2
287
     1
 67
     0
278
    -2
288
     1
 68
     0
279
    -2
289
     1
 69
     0
  0
VISUALSTYLE
  5
1733
102
{ACAD_REACTORS
330
172D
102
}
330
172D
100
AcDbVisualStyle
  2
2dWireframe
 70
     4
 71
     0
 72
     2
 73
     0
 90
        0
 40
-0.6
 41
-30.0
 62
     5
 63
     7
 74
     1
 91
        4
 64
     7
 65
   257
 75
     1
175
     1
 42
1.0
 92
        0
 66
   257
 43
1.0
 76
     1
 77
     6
 78
     2
 67
     7
 79
     5
170
     0
171
     0
290
     0
174
     0
 93
        1
 44
0.0
173
     0
291
     0
 45
0.0
1001
ACAD
1000
AcDbSavedByObjectVersion
1070
     0
  0
VISUALSTYLE
  5
12DA2
102
{ACAD_REACTORS
330
172D
102
}
330
172D
100
AcDbVisualStyle
  2
3D Hidden
 70
     6
 71
     1
 72
     2
 73
     2
 90
        0
 40
-0.6
 41
-30.0
 62
     5
 63
     7
 74
     2
 91
        2
 64
     7
 65
   257
 75
     2
175
     1
 42
40.0
 92
        0
 66
   257
 43
1.0
 76
     1
 77
     6
 78
     2
 67
     7
 79
     3
170
     0
171
     0
290
     0
174
     0
 93
        1
 44
0.0
173
     0
291
     0
 45
0.0
1001
ACAD
1000
AcDbSavedByObjectVersion
1070
     0
  0
VISUALSTYLE
  5
12DA1
102
{ACAD_REACTORS
330
172D
102
}
330
172D
100
AcDbVisualStyle
  2
3dWireframe
 70
     5
 71
     0
 72
     2
 73
     0
 90
        0
 40
-0.6
 41
-30.0
 62
     5
 63
     7
 74
     1
 91
        4
 64
     7
 65
   257
 75
     1
175
     1
 42
1.0
 92
        0
 66
   257
 43
1.0
 76
     1
 77
     6
 78
     2
 67
     7
 79
     5
170
     0
171
     0
290
     0
174
     0
 93
        1
 44
0.0
173
     0
291
     0
 45
0.0
1001
ACAD
1000
AcDbSavedByObjectVersion
1070
     0
  0
VISUALSTYLE
  5
1732
102
{ACAD_REACTORS
330
172D
102
}
330
172D
100
AcDbVisualStyle
  2
Basic
 70
     7
 71
     1
 72
     0
 73
     1
 90
        0
 40
-0.6
 41
-30.0
 62
     5
 63
     7
 74
     0
 91
        4
 64
     7
 65
   257
 75
     1
175
     1
 42
1.0
 92
        8
 66
     7
 43
1.0
 76
     1
 77
     6
 78
     2
 67
     7
 79
     5
170
     0
171
     0
290
     0
174
     0
 93
        1
 44
0.0
173
     0
291
     1
 45
0.0
1001
ACAD
1000
AcDbSavedByObjectVersion
1070
     0
  0
VISUALSTYLE
  5
1739
102
{ACAD_REACTORS
330
172D
102
}
330
172D
100
AcDbVisualStyle
  2
Brighten
 70
    12
 71
     2
 72
     2
 73
     0
 90
        0
 40
-0.6
 41
-30.0
 62
     5
 63
     7
 74
     1
 91
        4
 64
     7
 65
   257
 75
     1
175
     1
 42
1.0
 92
        8
 66
     7
 43
1.0
 76
     1
 77
     6
 78
     2
 67
     7
 79
     5
170
     0
171
     0
290
     0
174
     0
 93
        1
 44
50.0
173
     0
291
     1
 45
0.0
1001
ACAD
1000
AcDbSavedByObjectVersion
1070
     0
  0
VISUALSTYLE
  5
173D
102
{ACAD_REACTORS
330
172D
102
}
330
172D
100
AcDbVisualStyle
  2
ColorChange
 70
    16
 71
     2
 72
     2
 73
     3
 90
        0
 40
-0.6
 41
-30.0
 62
     5
 63
     8
 74
     1
 91
        4
 64
     7
 65
   257
 75
     1
175
     1
 42
1.0
 92
        8
 66
     8
 43
1.0
 76
     1
 77
     6
 78
     2
 67
     7
 79
     5
170
     0
171
     0
290
     0
174
     0
 93
        1
 44
0.0
173
     0
291
     1
 45
0.0
1001
ACAD
1000
AcDbSavedByObjectVersion
1070
     0
  0
VISUALSTYLE
  5
12DA3
102
{ACAD_REACTORS
330
172D
102
}
330
172D
100
AcDbVisualStyle
  2
Conceptual
 70
     9
 71
     3
 72
     2
 73
     0
 90
        0
 40
-0.6
 41
-30.0
 62
     5
 63
     7
 74
     2
 91
        2
 64
     7
 65
   257
 75
     1
175
     1
 42
40.0
 92
        8
 66
     7
 43
1.0
 76
     1
 77
     6
 78
     2
 67
     7
 79
     3
170
     0
171
     0
290
     0
174
     0
 93
        1
 44
0.0
173
     0
291
     0
 45
0.0
1001
ACAD
1000
AcDbSavedByObjectVersion
1070
     0
  0
VISUALSTYLE
  5
1738
102
{ACAD_REACTORS
330
172D
102
}
330
172D
100
AcDbVisualStyle
  2
Dim
 70
    11
 71
     2
 72
     2
 73
     0
 90
        0
 40
-0.6
 41
-30.0
 62
     5
 63
     7
 74
     1
 91
        4
 64
     7
 65
   257
 75
     1
175
     1
 42
1.0
 92
        8
 66
     7
 43
1.0
 76
     1
 77
     6
 78
     2
 67
     7
 79
     5
170
     0
171
     0
290
     0
174
     0
 93
        1
 44
-50.0
173
     0
291
     1
 45
0.0
1001
ACAD
1000
AcDbSavedByObjectVersion
1070
     0
  0
VISUALSTYLE
  5
173C
102
{ACAD_REACTORS
330
172D
102
}
330
172D
100
AcDbVisualStyle
  2
Facepattern
 70
    15
 71
     2
 72
     2
 73
     0
 90
        0
 40
-0.6
 41
-30.0
 62
     5
 63
     7
 74
     1
 91
        4
 64
     7
 65
   257
 75
     1
175
     1
 42
1.0
 92
        8
 66
     7
 43
1.0
 76
     1
 77
     6
 78
     2
 67
     7
 79
     5
170
     0
171
     0
290
     0
174
     0
 93
        1
 44
0.0
173
     0
291
     1
 45
0.0
1001
ACAD
1000
AcDbSavedByObjectVersion
1070
     0
  0
VISUALSTYLE
  5
172E
102
{ACAD_REACTORS
330
172D
102
}
330
172D
100
AcDbVisualStyle
  2
Flat
 70
     0
 71
     2
 72
     1
 73
     1
 90
        2
 40
-0.6
 41
30.0
 62
     5
 63
     7
 74
     0
 91
        4
 64
     7
 65
   257
 75
     1
175
     1
 42
1.0
 92
        8
 66
     7
 43
1.0
 76
     1
 77
     6
 78
     2
 67
     7
 79
     5
170
     0
171
     0
290
     0
174
     0
 93
       13
 44
0.0
173
     0
291
     1
 45
0.0
1001
ACAD
1000
AcDbSavedByObjectVersion
1070
     0
  0
VISUALSTYLE
  5
172F
102
{ACAD_REACTORS
330
172D
102
}
330
172D
100
AcDbVisualStyle
  2
FlatWithEdges
 70
     1
 71
     2
 72
     1
 73
     1
 90
        2
 40
-0.6
 41
30.0
 62
     5
 63
     7
 74
     1
 91
        4
 64
     7
 65
   257
 75
     1
175
     1
 42
1.0
 92
        0
 66
   257
 43
1.0
 76
     1
 77
     6
 78
     2
 67
     7
 79
     5
170
     0
171
     0
290
     0
174
     0
 93
       13
 44
0.0
173
     0
291
     1
 45
0.0
1001
ACAD
1000
AcDbSavedByObjectVersion
1070
     0
  0
VISUALSTYLE
  5
1730
102
{ACAD_REACTORS
330
172D
102
}
330
172D
100
AcDbVisualStyle
  2
Gouraud
 70
     2
 71
     2
 72
     2
 73
     1
 90
        2
 40
-0.6
 41
30.0
 62
     5
 63
     7
 74
     0
 91
        4
 64
     7
 65
   257
 75
     1
175
     1
 42
1.0
 92
        0
 66
     7
 43
1.0
 76
     1
 77
     6
 78
     2
 67
     7
 79
     5
170
     0
171
     0
290
     0
174
     0
 93
       13
 44
0.0
173
     0
291
     1
 45
0.0
1001
ACAD
1000
AcDbSavedByObjectVersion
1070
     0
  0
VISUALSTYLE
  5
1731
102
{ACAD_REACTORS
330
172D
102
}
330
172D
100
AcDbVisualStyle
  2
GouraudWithEdges
 70
     3
 71
     2
 72
     2
 73
     1
 90
        2
 40
-0.6
 41
30.0
 62
     5
 63
     7
 74
     1
 91
        4
 64
     7
 65
   257
 75
     1
175
     1
 42
1.0
 92
        0
 66
   257
 43
1.0
 76
     1
 77
     6
 78
     2
 67
     7
 79
     5
170
     0
171
     0
290
     0
174
     0
 93
       13
 44
0.0
173
     0
291
     1
 45
0.0
1001
ACAD
1000
AcDbSavedByObjectVersion
1070
     0
  0
VISUALSTYLE
  5
173B
102
{ACAD_REACTORS
330
172D
102
}
330
172D
100
AcDbVisualStyle
  2
Linepattern
 70
    14
 71
     2
 72
     2
 73
     0
 90
        0
 40
-0.6
 41
-30.0
 62
     5
 63
     7
 74
     1
 91
        4
 64
     7
 65
   257
 75
     7
175
     7
 42
1.0
 92
        8
 66
     7
 43
1.0
 76
     1
 77
     6
 78
     2
 67
     7
 79
     5
170
     0
171
     0
290
     0
174
     0
 93
        1
 44
0.0
173
     0
291
     1
 45
0.0
1001
ACAD
1000
AcDbSavedByObjectVersion
1070
     0
  0
VISUALSTYLE
  5
12DA4
102
{ACAD_REACTORS
330
172D
102
}
330
172D
100
AcDbVisualStyle
  2
Realistic
 70
     8
 71
     2
 72
     2
 73
     0
 90
        0
 40
-0.6
 41
-30.0
 62
     5
 63
     7
 74
     1
 91
        0
 64
     7
 65
   257
 75
     1
175
     1
 42
1.0
 92
        8
 66
     8
 43
1.0
 76
     1
 77
     6
 78
     2
 67
     7
 79
     5
170
     0
171
     0
290
     0
174
     0
 93
       13
 44
0.0
173
     0
291
     0
 45
0.0
1001
ACAD
1000
AcDbSavedByObjectVersion
1070
     0
  0
VISUALSTYLE
  5
173A
102
{ACAD_REACTORS
330
172D
102
}
330
172D
100
AcDbVisualStyle
  2
Thicken
 70
    13
 71
     2
 72
     2
 73
     0
 90
        0
 40
-0.6
 41
-30.0
 62
     5
 63
     7
 74
     1
 91
        4
 64
     7
 65
   257
 75
     1
175
     1
 42
1.0
 92
       12
 66
     7
 43
1.0
 76
     1
 77
     6
 78
     2
 67
     7
 79
     5
170
     0
171
     0
290
     0
174
     0
 93
        1
 44
0.0
173
     0
291
     1
 45
0.0
1001
ACAD
1000
AcDbSavedByObjectVersion
1070
     0
  0
DICTIONARY
  5
830A
102
{ACAD_REACTORS
330
8309
102
}
330
8309
100
AcDbDictionary
280
     1
281
     1
  3
Standards
360
830B
  0
DICTIONARYVAR
  5
16B2D
102
{ACAD_REACTORS
330
E04
102
}
330
E04
100
DictionaryVariables
280
     0
  1
1/8" = 1'-0"
  0
DICTIONARYVAR
  5
16B2B
102
{ACAD_REACTORS
330
E04
102
}
330
E04
100
DictionaryVariables
280
     0
  1
STANDARD
  0
DICTIONARYVAR
  5
E05
102
{ACAD_REACTORS
330
E04
102
}
330
E04
100
DictionaryVariables
280
     0
  1
STANDARD
  0
DICTIONARYVAR
  5
1888A
102
{ACAD_REACTORS
330
E04
102
}
330
E04
100
DictionaryVariables
280
     0
  1
1
  0
DICTIONARYVAR
  5
18889
102
{ACAD_REACTORS
330
E04
102
}
330
E04
100
DictionaryVariables
280
     0
  1
1
  0
DICTIONARYVAR
  5
18888
102
{ACAD_REACTORS
330
E04
102
}
330
E04
100
DictionaryVariables
280
     0
  1
0
  0
DICTIONARYVAR
  5
16B2E
102
{ACAD_REACTORS
330
E04
102
}
330
E04
100
DictionaryVariables
280
     0
  1
0
  0
DICTIONARYVAR
  5
16B2C
102
{ACAD_REACTORS
330
E04
102
}
330
E04
100
DictionaryVariables
280
     0
  1
0
  0
DICTIONARYVAR
  5
18887
102
{ACAD_REACTORS
330
E04
102
}
330
E04
100
DictionaryVariables
280
     0
  1
127
  0
XRECORD
  5
18885
102
{ACAD_REACTORS
330
1886A
102
}
330
1886A
100
AcDbXrecord
280
     1
  0
XRECORD
  5
18884
102
{ACAD_REACTORS
330
1886A
102
}
330
1886A
100
AcDbXrecord
280
     1
  0
XRECORD
  5
18883
102
{ACAD_REACTORS
330
1886A
102
}
330
1886A
100
AcDbXrecord
280
     1
  0
XRECORD
  5
18882
102
{ACAD_REACTORS
330
1886A
102
}
330
1886A
100
AcDbXrecord
280
     1
  0
XRECORD
  5
18881
102
{ACAD_REACTORS
330
1886A
102
}
330
1886A
100
AcDbXrecord
280
     1
  0
XRECORD
  5
18880
102
{ACAD_REACTORS
330
1886A
102
}
330
1886A
100
AcDbXrecord
280
     1
  0
XRECORD
  5
1887F
102
{ACAD_REACTORS
330
1886A
102
}
330
1886A
100
AcDbXrecord
280
     1
  0
XRECORD
  5
1887E
102
{ACAD_REACTORS
330
1886A
102
}
330
1886A
100
AcDbXrecord
280
     1
  0
XRECORD
  5
1887D
102
{ACAD_REACTORS
330
1886A
102
}
330
1886A
100
AcDbXrecord
280
     1
  0
XRECORD
  5
1887C
102
{ACAD_REACTORS
330
1886A
102
}
330
1886A
100
AcDbXrecord
280
     1
  0
XRECORD
  5
1887B
102
{ACAD_REACTORS
330
1886A
102
}
330
1886A
100
AcDbXrecord
280
     1
  0
XRECORD
  5
1887A
102
{ACAD_REACTORS
330
1886A
102
}
330
1886A
100
AcDbXrecord
280
     1
  0
XRECORD
  5
18879
102
{ACAD_REACTORS
330
1886A
102
}
330
1886A
100
AcDbXrecord
280
     1
  0
XRECORD
  5
18878
102
{ACAD_REACTORS
330
1886A
102
}
330
1886A
100
AcDbXrecord
280
     1
  0
XRECORD
  5
18886
102
{ACAD_REACTORS
330
1886A
102
}
330
1886A
100
AcDbXrecord
280
     1
330
186AD
330
186AE
330
186B6
330
186B7
330
186C3
330
186C4
330
186D7
330
186D8
330
186EB
330
186EC
330
186F6
330
186F7
330
18701
330
18702
330
1870C
330
1870D
330
18717
330
18718
330
187B8
330
187B9
330
187BF
330
187C0
330
187C8
330
187C9
330
187CF
330
187D0
330
187D6
330
187D7
330
187DD
330
187DE
330
187E4
330
187E5
330
187EB
330
187EC
330
187F2
330
187F3
330
16E92
330
16E93
330
16EB2
330
16EB3
330
16F18
330
16F19
330
16EA9
330
16EAA
330
16EE7
330
16EE8
330
16EF0
330
16EF1
330
16EFE
330
16EFF
330
16F31
330
16F32
330
182C7
330
182C8
330
182CE
330
182CF
330
182D5
330
182D6
330
182DC
330
182DD
330
182E3
330
182E4
330
182ED
330
182EE
330
182F3
330
182F4
330
182FA
330
182FB
330
18302
330
18303
330
18308
330
18309
330
18310
330
18311
330
18316
330
18317
330
1831E
330
1831F
330
18325
330
18326
330
1832B
330
1832C
330
18333
330
18334
330
18339
330
1833A
330
18340
330
18341
330
18348
330
18349
330
18350
330
18351
330
18358
330
18359
330
1835E
330
1835F
330
18367
330
18368
330
1836F
330
18370
330
18376
330
18377
330
1837C
330
1837D
330
18384
330
18385
330
1838C
330
18391
330
18392
330
18399
330
1839A
330
183A1
330
183A2
330
183A7
330
183A8
330
183AE
330
183AF
330
183B7
330
183B8
330
183BE
330
183BF
330
183C7
330
183C8
330
183CE
330
183CF
330
183D5
330
183D6
330
183DD
330
183DE
330
183E5
330
183E6
330
183EB
330
183EC
330
183F4
330
183F5
330
183FC
330
183FD
330
18405
330
18406
330
1840B
330
1840C
330
18412
330
18413
330
1841A
330
1841B
330
18420
330
18421
330
18428
330
18429
330
1842E
330
1842F
330
18435
330
18436
330
1843E
330
1843F
330
18445
330
18446
330
1844C
330
1844D
330
18453
330
18454
330
1845C
330
1845D
330
18463
330
18464
330
1846A
330
1846B
330
18473
330
18474
330
1847A
330
1847B
330
18481
330
18482
330
18489
330
1848A
330
1848F
330
18490
330
18497
330
18498
330
1849E
330
1849F
330
184A5
330
184A6
330
184AB
330
184AC
330
184B3
330
184B4
330
184B9
330
184BA
330
184C3
330
184C4
330
184CC
330
184CD
330
184D3
330
184D4
330
184DA
330
184DB
330
184E0
330
184E1
330
184E7
330
184E8
330
184EE
330
184EF
330
184F5
330
184F6
330
184FC
330
184FD
330
18504
330
18505
330
1850A
330
1850B
330
18511
330
18512
330
1851A
330
1851B
330
18521
330
18522
330
1852A
330
1852B
330
18531
330
18532
330
18538
330
18539
330
1853F
330
18540
330
18548
330
18549
330
1855B
330
1855C
330
18562
330
18563
330
18575
330
18576
330
18588
330
18589
330
18591
330
18592
330
185D0
330
185D1
330
1856C
330
1856D
330
1857D
330
1857E
330
18599
330
1859A
330
185A3
330
185A4
330
185AF
330
185B0
330
185B9
330
185BA
330
185C5
330
185C6
330
186E0
330
186E1
  0
XRECORD
  5
18877
102
{ACAD_REACTORS
330
1886A
102
}
330
1886A
100
AcDbXrecord
280
     1
  0
XRECORD
  5
18876
102
{ACAD_REACTORS
330
1886A
102
}
330
1886A
100
AcDbXrecord
280
     1
  0
XRECORD
  5
18875
102
{ACAD_REACTORS
330
1886A
102
}
330
1886A
100
AcDbXrecord
280
     1
  0
XRECORD
  5
18874
102
{ACAD_REACTORS
330
1886A
102
}
330
1886A
100
AcDbXrecord
280
     1
  0
XRECORD
  5
18873
102
{ACAD_REACTORS
330
1886A
102
}
330
1886A
100
AcDbXrecord
280
     1
  0
XRECORD
  5
18872
102
{ACAD_REACTORS
330
1886A
102
}
330
1886A
100
AcDbXrecord
280
     1
  0
XRECORD
  5
18871
102
{ACAD_REACTORS
330
1886A
102
}
330
1886A
100
AcDbXrecord
280
     1
  0
XRECORD
  5
18870
102
{ACAD_REACTORS
330
1886A
102
}
330
1886A
100
AcDbXrecord
280
     1
  0
XRECORD
  5
1886F
102
{ACAD_REACTORS
330
1886A
102
}
330
1886A
100
AcDbXrecord
280
     1
  0
XRECORD
  5
1886E
102
{ACAD_REACTORS
330
1886A
102
}
330
1886A
100
AcDbXrecord
280
     1
  0
XRECORD
  5
1886D
102
{ACAD_REACTORS
330
1886A
102
}
330
1886A
100
AcDbXrecord
280
     1
  0
XRECORD
  5
1886C
102
{ACAD_REACTORS
330
1886A
102
}
330
1886A
100
AcDbXrecord
280
     1
  0
XRECORD
  5
1886B
102
{ACAD_REACTORS
330
1886A
102
}
330
1886A
100
AcDbXrecord
280
     1
  0
XRECORD
  5
12D8D
102
{ACAD_REACTORS
330
41C3
102
}
330
41C3
100
AcDbXrecord
280
     1
 40
0.000001
  0
XRECORD
  5
12D90
102
{ACAD_REACTORS
330
41C3
102
}
330
41C3
100
AcDbXrecord
280
     1
 70
     0
  0
XRECORD
  5
12D8F
102
{ACAD_REACTORS
330
41C3
102
}
330
41C3
100
AcDbXrecord
280
     1
 70
     0
  0
XRECORD
  5
12D8E
102
{ACAD_REACTORS
330
41C3
102
}
330
41C3
100
AcDbXrecord
280
     1
 70
     0
  0
OBJECT_PTR
  5
17A94
102
{ACAD_REACTORS
330
17A4A
102
}
330
17A4A
1001
DCO15
1000
jet_dbsamples..."elementy wiezby"(_el_wzb_Left_nazw_romans16)
1000
nazw_el_wiezb
1040
1.0
1040
1.0
1040
0.0
1040
0.0
1040
0.0
1040
0.0
1040
0.0
1040
15.0
1071
        0
1071
      256
1071
        7
1071
        5
1071
        1
1000
ROMANS
1000
ByLayer
1000
#(nazw_el_wiezb)
  0
OBJECT_PTR
  5
17A93
102
{ACAD_REACTORS
330
17A4A
102
}
330
17A4A
1001
DCO15
1000
jet_dbsamples..."elementy wiezby"(_elementy_wiezby_SKROT_Romans16)
1000
skrot_el_wiezb
1040
1.0
1040
1.0
1040
0.0
1040
0.0
1040
0.0
1040
0.0
1040
0.0
1040
16.0
1071
        0
1071
      256
1071
        9
1071
        5
1071
        1
1000
Romans16
1000
ByLayer
1000
#(skrot_el_wiezb)
  0
OBJECT_PTR
  5
17A92
102
{ACAD_REACTORS
330
17A4A
102
}
330
17A4A
1001
DCO15
1000
jet_dbsamples..."materialy przegrod pl"(_materialy_przegrod_pl_Label1)
1000
nazw_mat
1040
1.0
1040
1.0
1040
0.0
1040
0.0
1040
0.0
1040
0.0
1040
0.0
1040
17.0
1071
        0
1071
      256
1071
        7
1071
        5
1071
        1
1000
Romans16
1000
ByLayer
1000
#(nazw_mat)
  0
OBJECT_PTR
  5
17A91
102
{ACAD_REACTORS
330
17A4A
102
}
330
17A4A
1001
DCO15
1000
jet_dbsamples..."nazwy przegrod pl"(_nazwy_przegrod_romans18)
1000
nzw_przegrody
1040
1.0
1040
1.0
1040
0.0
1040
0.0
1040
0.0
1040
0.0
1040
0.0
1040
17.0
1071
        0
1071
      256
1071
        7
1071
        5
1071
        1
1000
Romans16
1000
ByLayer
1000
{\L\C2;#(nzw_przegrody)}
  0
OBJECT_PTR
  5
17A90
102
{ACAD_REACTORS
330
17A4A
102
}
330
17A4A
1001
DCO15
1000
jet_dbsamples..."nazwy rysunkow"(_nazwy_rysunkow_Arial37)
1000
1linia
1000
2linia
1000
3linia
1040
1.0
1040
1.0
1040
0.0
1040
0.0
1040
0.0
1040
0.0
1040
0.0
1040
37.0
1071
        0
1071
      256
1071
        1
1071
        5
1071
        1
1000
Romans16
1000
ByLayer
1000
{\fArial|b0|i0|c238|p34;#(1linia)\P#(2linia)\P#(3linia)}
  0
OBJECT_PTR
  5
17A8F
102
{ACAD_REACTORS
330
17A4A
102
}
330
17A4A
1001
DCO15
1000
jet_dbsamples..."nazwy rysunkow"(_nazwy_rysunkow_Romans18)
1000
1linia
1000
2linia
1000
3linia
1040
1.0
1040
1.0
1040
0.0
1040
0.0
1040
0.0
1040
0.0
1040
0.0
1040
18.0
1071
        0
1071
      256
1071
        2
1071
        5
1071
        1
1000
Romans16
1000
ByLayer
1000
{\Fromans.shx|c238;#(1linia)\P#(2linia)\P#(3linia)}
  0
OBJECT_PTR
  5
17A8E
102
{ACAD_REACTORS
330
17A4A
102
}
330
17A4A
1001
DCO15
1000
jet_dbsamples..."opisy rozne II"(_opisy_rozne_II_Label1)
1000
opis różny
1040
1.0
1040
1.0
1040
0.0
1040
0.0
1040
0.0
1040
0.0
1040
0.0
1040
10.0
1071
        0
1071
      256
1071
        1
1071
        5
1071
        1
1000
ROMANS
1000
ByLayer
1000
#(opis różny)
  0
OBJECT_PTR
  5
17A8D
102
{ACAD_REACTORS
330
17A4A
102
}
330
17A4A
1001
DCO15
1000
jet_dbsamples..."opisy rozne II"(_opisy_rozne_II_Link1Label1)
1000
opis różny
1040
1.0
1040
1.0
1040
0.0
1040
0.0
1040
0.0
1040
0.0
1040
0.0
1040
10.0
1071
        0
1071
      256
1071
        1
1071
        5
1071
        1
1000
ROMANS
1000
ByLayer
1000
#(opis różny)
  0
OBJECT_PTR
  5
17A8C
102
{ACAD_REACTORS
330
17A4A
102
}
330
17A4A
1001
DCO15
1000
jet_dbsamples..."posadzki do zestawienia pomieszczen"(_posadzki_do_zestawienia_pomieszczen_Romans17)
1000
nazwa_pos
1040
1.0
1040
1.0
1040
0.0
1040
0.0
1040
0.0
1040
0.0
1040
0.0
1040
17.0
1071
        0
1071
      256
1071
        7
1071
        5
1071
        1
1000
ROMANS
1000
ByLayer
1000
#(nazwa_pos)
  0
OBJECT_PTR
  5
17A8B
102
{ACAD_REACTORS
330
17A4A
102
}
330
17A4A
1001
DCO15
1000
jet_dbsamples..."rozne opisy rys"(_rozne_opisy_rys_R16_right)
1000
1L
1000
2L
1000
3L
1000
4L
1000
5L
1040
1.0
1040
1.0
1040
0.0
1040
0.0
1040
0.0
1040
0.0
1040
0.0
1040
16.0
1071
        0
1071
      256
1071
        3
1071
        5
1071
        1
1000
Romans16
1000
ByLayer
1000
#(1L)\P#(2L)\P#(3L)\P#(4L)\P#(5L)
  0
OBJECT_PTR
  5
17A8A
102
{ACAD_REACTORS
330
17A4A
102
}
330
17A4A
1001
DCO15
1000
jet_dbsamples..."rozne opisy rys"(_rozne_opisy_rys_Romans12)
1000
1L
1000
2L
1000
3L
1000
4L
1000
5L
1040
1.0
1040
1.0
1040
0.0
1040
0.0
1040
0.0
1040
0.0
1040
0.0
1040
13.0
1071
        0
1071
      256
1071
        1
1071
        5
1071
        1
1000
Romans16
1000
ByLayer
1000
#(1L)\P#(2L)\P#(3L)\P#(4L)\P#(5L)
  0
OBJECT_PTR
  5
17A89
102
{ACAD_REACTORS
330
17A4A
102
}
330
17A4A
1001
DCO15
1000
jet_dbsamples..."rozne opisy rys"(_rozne_opisy_rys_Romans16)
1000
1L
1000
2L
1000
3L
1000
4L
1000
5L
1040
1.0
1040
1.0
1040
0.0
1040
0.0
1040
0.0
1040
0.0
1040
0.0
1040
16.0
1071
        0
1071
      256
1071
        1
1071
        5
1071
        1
1000
Romans16
1000
ByLayer
1000
#(1L)\P#(2L)\P#(3L)\P#(4L)\P#(5L)
  0
OBJECT_PTR
  5
17A88
102
{ACAD_REACTORS
330
17A4A
102
}
330
17A4A
1001
DCO15
1000
jet_dbsamples..."tabelka - inform i etykiety"(_tabelka_-_inform_i_etykiety_Romans13)
1000
1linia
1000
2linia_ewentualna
1000
3linia_ewentualna
1040
1.0
1040
1.0
1040
0.0
1040
0.0
1040
0.0
1040
0.0
1040
0.0
1040
13.0
1071
        0
1071
      256
1071
        1
1071
        5
1071
        1
1000
Romans16
1000
ByLayer
1000
#(1linia)\P#(2linia_ewentualna)\P#(3linia_ewentualna)
  0
OBJECT_PTR
  5
17A87
102
{ACAD_REACTORS
330
17A4A
102
}
330
17A4A
1001
DCO15
1000
jet_dbsamples..."tabelka - inform i etykiety"(_tabelka_Arial15-center)
1000
1linia
1000
2linia_ewentualna
1000
3linia_ewentualna
1040
1.0
1040
1.0
1040
0.0
1040
0.0
1040
0.0
1040
0.0
1040
0.0
1040
15.0
1071
        0
1071
      256
1071
        2
1071
        5
1071
        1
1000
Romans16
1000
ByLayer
1000
{\fArial|b0|i0|c238|p34;#(1linia)\P#(2linia_ewentualna)\P#(3linia_ewentualna)}
  0
OBJECT_PTR
  5
17A86
102
{ACAD_REACTORS
330
17A4A
102
}
330
17A4A
1001
DCO15
1000
jet_dbsamples..."tabelka - inform i etykiety"(_tabelka_Arial151)
1000
1linia
1040
1.0
1040
1.0
1040
0.0
1040
0.0
1040
0.0
1040
0.0
1040
0.0
1040
15.0
1071
        0
1071
      256
1071
        1
1071
        5
1071
        1
1000
ARIAL
1000
ByLayer
1000
{\fArial|b0|i0|c238|p34;#(1linia)}
  0
OBJECT_PTR
  5
17A85
102
{ACAD_REACTORS
330
17A4A
102
}
330
17A4A
1001
DCO15
1000
jet_dbsamples..."tabelka - inform i etykiety"(_tabelka_Romans 10)
1000
1linia
1000
2linia_ewentualna
1000
3linia_ewentualna
1040
1.0
1040
1.0
1040
0.0
1040
0.0
1040
0.0
1040
0.0
1040
0.0
1040
10.0
1071
        0
1071
      256
1071
        1
1071
        5
1071
        1
1000
ARIAL
1000
ByLayer
1000
#(1linia)\P#(2linia_ewentualna)\P#(3linia_ewentualna)
  0
OBJECT_PTR
  5
17A84
102
{ACAD_REACTORS
330
17A4A
102
}
330
17A4A
1001
DCO15
1000
jet_dbsamples..."tabelka - inform i etykiety"(_tabelka_Romans13)
1000
1linia
1000
2linia_ewentualna
1000
3linia_ewentualna
1040
1.0
1040
1.0
1040
0.0
1040
0.0
1040
0.0
1040
0.0
1040
0.0
1040
13.0
1071
        0
1071
      256
1071
        1
1071
        5
1071
        1
1000
ARIAL
1000
ByLayer
1000
#(1linia)\P#(2linia_ewentualna)\P#(3linia_ewentualna)
  0
OBJECT_PTR
  5
17A83
102
{ACAD_REACTORS
330
17A4A
102
}
330
17A4A
1001
DCO15
1000
jet_dbsamples..."tabelka - inform i etykiety"(_tabelka_Romans19)
1000
1linia
1000
2linia_ewentualna
1000
3linia_ewentualna
1040
1.0
1040
1.0
1040
0.0
1040
0.0
1040
0.0
1040
0.0
1040
0.0
1040
19.0
1071
        0
1071
      256
1071
        2
1071
        5
1071
        1
1000
ARIAL
1000
ByLayer
1000
#(1linia)\P#(2linia_ewentualna)\P#(3linia_ewentualna)
  0
OBJECT_PTR
  5
17A82
102
{ACAD_REACTORS
330
17A4A
102
}
330
17A4A
1001
DCO15
1000
jet_dbsamples...ALFABET(ALFABET-Arial20)
1000
liter_alf
1040
1.0
1040
1.0
1040
0.0
1040
0.0
1040
0.0
1040
0.0
1040
0.0
1040
20.0
1071
        0
1071
      256
1071
        7
1071
        5
1071
        1
1000
Arial20
1000
ByLayer
1000
{\fArial|b0|i0|c238|p34;#(liter_alf)}
  0
OBJECT_PTR
  5
17A81
102
{ACAD_REACTORS
330
17A4A
102
}
330
17A4A
1001
DCO15
1000
jet_dbsamples...ALFABET(ALFABET-Arial26)
1000
liter_alf
1040
1.0
1040
1.0
1040
0.0
1040
0.0
1040
0.0
1040
0.0
1040
0.0
1040
26.0
1071
        0
1071
      256
1071
        7
1071
        5
1071
        1
1000
Arial20
1000
ByLayer
1000
{\fArial|b0|i0|c238|p34;\C140;#(liter_alf)}
  0
OBJECT_PTR
  5
17A80
102
{ACAD_REACTORS
330
17A4A
102
}
330
17A4A
1001
DCO15
1000
jet_dbsamples...ALFABET(ALFABET-Arial37)
1000
liter_alf
1040
1.0
1040
1.0
1040
0.0
1040
0.0
1040
0.0
1040
0.0
1040
0.0
1040
37.0
1071
        0
1071
      256
1071
        7
1071
        5
1071
        1
1000
Arial20
1000
ByLayer
1000
{\fArial|b0|i0|c238|p34;#(liter_alf)}
  0
OBJECT_PTR
  5
17A7F
102
{ACAD_REACTORS
330
17A4A
102
}
330
17A4A
1001
DCO15
1000
jet_dbsamples..."uwagi ogolne na arkuszu"(Arial_27)
1000
1naglowek
1000
1linia
1000
2linia
1000
3linia
1000
4linia
1000
5linia
1000
6linia
1000
7linia
1000
8linia
1000
9linia
1000
10linia
1000
11linia
1000
12linia
1040
1.0
1040
1.0
1040
0.0
1040
0.0
1040
0.0
1040
0.0
1040
0.0
1040
26.0
1071
        0
1071
      256
1071
        1
1071
        5
1071
        1
1000
Arial20
1000
ByLayer
1000
{\fArial|b0|i0|c238|p34;#(1naglowek)\P#(1linia)\P#(2linia)\P#(3linia)\P#(4linia)\P#(5linia)\P#(6linia)\P#(7linia)\P#(8linia)\P#(9linia)\P#(10linia)\P#(11linia)\P#(12linia)}
  0
OBJECT_PTR
  5
17A7E
102
{ACAD_REACTORS
330
17A4A
102
}
330
17A4A
1001
DCO15
1000
wkc...arkusz_nazwy(arkusz_nazwy_Arial35)
1000
Nazwa rysunku
1040
1.0
1040
1.0
1040
0.0
1040
0.0
1040
0.0
1040
0.0
1040
0.0
1040
35.0
1071
        0
1071
      256
1071
        1
1071
        5
1071
        1
1000
Arial20
1000
ByLayer
1000
#(Nazwa rysunku)
  0
OBJECT_PTR
  5
17A7D
102
{ACAD_REACTORS
330
17A4A
102
}
330
17A4A
1001
DCO15
1000
konstr...arkusz_nazwy(arkusz_nazwy_Arial_35_DwieLinie)
1000
Nazwa rysunku
1000
Nazwa rysunku_2
1040
1.0
1040
1.0
1040
0.0
1040
0.0
1040
0.0
1040
0.0
1040
0.0
1040
35.0
1071
        0
1071
      256
1071
        2
1071
        5
1071
        1
1000
Arial20
1000
ByLayer
1000
#(Nazwa rysunku)\P#(Nazwa rysunku_2)
  0
OBJECT_PTR
  5
17A7C
102
{ACAD_REACTORS
330
17A4A
102
}
330
17A4A
1001
DCO15
1000
wkc...arkusz_nazwy(arkusz_nazwy_Romans18)
1000
Nazwa rysunku
1040
1.0
1040
1.0
1040
0.0
1040
0.0
1040
0.0
1040
0.0
1040
0.0
1040
18.0
1071
        0
1071
      256
1071
        1
1071
        5
1071
        1
1000
ROMANS
1000
ByLayer
1000
#(Nazwa rysunku)
  0
OBJECT_PTR
  5
17A7B
102
{ACAD_REACTORS
330
17A4A
102
}
330
17A4A
1001
DCO15
1000
konstr...arkusz_nazwy(arkusz_nazwy_Romans_18)
1000
Nazwa rysunku
1000
Nazwa rysunku_2
1040
1.0
1040
1.0
1040
0.0
1040
0.0
1040
0.0
1040
0.0
1040
0.0
1040
18.0
1071
        0
1071
      256
1071
        2
1071
        5
1071
        1
1000
ROMANS
1000
ByLayer
1000
#(Nazwa rysunku) #(Nazwa rysunku_2)
  0
OBJECT_PTR
  5
17A7A
102
{ACAD_REACTORS
330
17A4A
102
}
330
17A4A
1001
DCO15
1000
jet_dbsamples...jednostki(jednostki-Arial18)
1000
jedn
1040
1.0
1040
1.0
1040
0.0
1040
0.0
1040
0.0
1040
0.0
1040
0.0
1040
18.0
1071
        0
1071
      256
1071
        7
1071
        5
1071
        1
1000
ROMANS
1000
ByLayer
1000
{\fArial|b0|i0|c238|p34;#(jedn)}
  0
OBJECT_PTR
  5
17A79
102
{ACAD_REACTORS
330
17A4A
102
}
330
17A4A
1001
DCO15
1000
jet_dbsamples...jednostki(jednostki-Arial30)
1000
jedn
1040
1.0
1040
1.0
1040
0.0
1040
0.0
1040
0.0
1040
0.0
1040
0.0
1040
30.0
1071
        0
1071
      256
1071
        7
1071
        5
1071
        1
1000
ROMANS
1000
ByLayer
1000
{\fArial|b0|i0|c238|p34;#(jedn)}
  0
OBJECT_PTR
  5
17A78
102
{ACAD_REACTORS
330
17A4A
102
}
330
17A4A
1001
DCO15
1000
jet_dbsamples...jednostki(jednostki-Romans16)
1000
jedn
1040
1.0
1040
1.0
1040
0.0
1040
0.0
1040
0.0
1040
0.0
1040
0.0
1040
16.0
1071
        0
1071
      256
1071
        7
1071
        5
1071
        1
1000
Romans16
1000
ByLayer
1000
#(jedn)
  0
OBJECT_PTR
  5
17A77
102
{ACAD_REACTORS
330
17A4A
102
}
330
17A4A
1001
DCO15
1000
KONSTR...jednostki(jednostki_arial6.6kursywa)
1000
JEDNOSTKI
1040
1.0
1040
1.0
1040
0.0
1040
0.0
1040
0.0
1040
0.0
1040
0.0
1040
6.599999999999999
1071
        0
1071
      256
1071
        1
1071
        5
1071
        1
1000
ROMANS
1000
ByLayer
1000
{\fArial|b0|i1|c0|p34;#(JEDNOSTKI)}
  0
OBJECT_PTR
  5
17A76
102
{ACAD_REACTORS
330
17A4A
102
}
330
17A4A
1001
DCO15
1000
KONSTR...jednostki(jednostki_ROMANS11)
1000
JEDNOSTKI
1040
1.0
1040
1.0
1040
0.0
1040
0.0
1040
0.0
1040
0.0
1040
0.0
1040
11.0
1071
        0
1071
      256
1071
        1
1071
        5
1071
        1
1000
ROMANS
1000
ByLayer
1000
#(JEDNOSTKI)
  0
OBJECT_PTR
  5
17A75
102
{ACAD_REACTORS
330
17A4A
102
}
330
17A4A
1001
DCO15
1000
KONSTR...jednostki(jednostki_ROMANS15)
1000
JEDNOSTKI
1040
1.0
1040
1.0
1040
0.0
1040
0.0
1040
0.0
1040
0.0
1040
0.0
1040
15.0
1071
        0
1071
      256
1071
        1
1071
        5
1071
        1
1000
ROMANS
1000
ByLayer
1000
#(JEDNOSTKI)
  0
OBJECT_PTR
  5
17A74
102
{ACAD_REACTORS
330
17A4A
102
}
330
17A4A
1001
DCO15
1000
KONSTR...jednostki(jednostki_Romans7)
1000
JEDNOSTKI
1040
1.0
1040
1.0
1040
0.0
1040
0.0
1040
0.0
1040
0.0
1040
0.0
1040
7.0
1071
        0
1071
      256
1071
        1
1071
        5
1071
        1
1000
ROMANS
1000
ByLayer
1000
#(JEDNOSTKI)
  0
OBJECT_PTR
  5
17A73
102
{ACAD_REACTORS
330
17A4A
102
}
330
17A4A
1001
DCO15
1000
KONSTR...jednostki(jednostkiLabel1)
1000
JEDNOSTKI
1040
1.0
1040
1.0
1040
0.0
1040
0.0
1040
0.0
1040
0.0
1040
0.0
1040
11.0
1071
        0
1071
      256
1071
        7
1071
        5
1071
        1
1000
ROMANS
1000
ByLayer
1000
#(JEDNOSTKI)
  0
OBJECT_PTR
  5
17A72
102
{ACAD_REACTORS
330
17A4A
102
}
330
17A4A
1001
DCO15
1000
KONSTR...jednostki(jednostkiRomans22)
1000
JEDNOSTKI
1040
1.0
1040
1.0
1040
0.0
1040
0.0
1040
0.0
1040
0.0
1040
0.0
1040
22.4
1071
        0
1071
      256
1071
        7
1071
        5
1071
        1
1000
ROMANS
1000
ByLayer
1000
#(JEDNOSTKI)
  0
OBJECT_PTR
  5
17A71
102
{ACAD_REACTORS
330
17A4A
102
}
330
17A4A
1001
DCO15
1000
KONSTR...konstr_drew(konstr_drew_arial6.6kursywa)
1000
1L
1000
2L
1000
3L
1000
4L
1000
5L
1040
1.0
1040
1.0
1040
0.0
1040
0.0
1040
0.0
1040
0.0
1040
0.0
1040
6.599999999999999
1071
        0
1071
      256
1071
        1
1071
        5
1071
        1
1000
ROMANS
1000
ByLayer
1000
{\fArial|b0|i1|c238|p34;#(1L)\P#(2L)\P#(3L)\P#(4L)\P#(5L)}
  0
OBJECT_PTR
  5
17A70
102
{ACAD_REACTORS
330
17A4A
102
}
330
17A4A
1001
DCO15
1000
KONSTR...konstr_drew(konstr_drew_romans7)
1000
1L
1000
2L
1000
3L
1000
4L
1000
5L
1000
6L
1040
1.0
1040
1.0
1040
0.0
1040
0.0
1040
0.0
1040
0.0
1040
0.0
1040
7.0
1071
        0
1071
      256
1071
        1
1071
        5
1071
        1
1000
ROMANS
1000
ByLayer
1000
#(1L)\P#(2L)\P#(3L)\P#(4L)\P#(5L)\P#(6L)
  0
OBJECT_PTR
  5
17A6F
102
{ACAD_REACTORS
330
17A4A
102
}
330
17A4A
1001
DCO15
1000
KONSTR...konstr_stal(konstr_stalarial9kursywa)
1000
1L
1000
2L
1000
3L
1000
4L
1040
1.0
1040
1.0
1040
0.0
1040
0.0
1040
0.0
1040
0.0
1040
0.0
1040
9.0
1071
        0
1071
      256
1071
        1
1071
        5
1071
        1
1000
ROMANS
1000
ByLayer
1000
{\fArial|b0|i1|c238|p34;#(1L)\P#(2L)\P#(3L)\P#(4L)}
  0
OBJECT_PTR
  5
17A6E
102
{ACAD_REACTORS
330
17A4A
102
}
330
17A4A
1001
DCO15
1000
KONSTR...konstr_stal(konstr_stalLabel1)
1000
1L
1000
2L
1000
3L
1000
4L
1040
1.0
1040
1.0
1040
0.0
1040
0.0
1040
0.0
1040
0.0
1040
0.0
1040
6.0
1071
        0
1071
      256
1071
        1
1071
        5
1071
        1
1000
ROMANS
1000
ByLayer
1000
#(1L)\P#(2L)\P#(3L)\P#(4L)
  0
OBJECT_PTR
  5
17A6D
102
{ACAD_REACTORS
330
17A4A
102
}
330
17A4A
1001
DCO15
1000
KONSTR...konstr_stal(konstr_stalLabel2)
1000
1L
1000
2L
1000
3L
1000
4L
1040
1.0
1040
1.0
1040
0.0
1040
0.0
1040
0.0
1040
0.0
1040
0.0
1040
6.0
1071
        0
1071
      256
1071
        1
1071
        5
1071
        1
1000
ROMANS
1000
ByLayer
1000
#(1L)\P#(2L)\P#(3L)\P#(4L)
  0
OBJECT_PTR
  5
17A6C
102
{ACAD_REACTORS
330
17A4A
102
}
330
17A4A
1001
DCO15
1000
jet_dbsamples...miesiace(miesiace-Romans17)
1000
nzw_mies
1040
1.0
1040
1.0
1040
0.0
1040
0.0
1040
0.0
1040
0.0
1040
0.0
1040
17.0
1071
        0
1071
      256
1071
        1
1071
        5
1071
        1
1000
ROMANS
1000
ByLayer
1000
#(nzw_mies)
  0
OBJECT_PTR
  5
17A6B
102
{ACAD_REACTORS
330
17A4A
102
}
330
17A4A
1001
DCO15
1000
jet_dbsamples...pomieszczenia(pomieszczenia-Arial 15)
1000
nazwa
1040
1.0
1040
1.0
1040
0.0
1040
0.0
1040
0.0
1040
0.0
1040
0.0
1040
15.0
1071
        0
1071
      256
1071
        8
1071
        5
1071
        1
1000
ROMANS
1000
ByLayer
1000
{\fArial|b0|i0|c238|p34;#(nazwa)}
  0
OBJECT_PTR
  5
17A6A
102
{ACAD_REACTORS
330
17A4A
102
}
330
17A4A
1001
DCO15
1000
jet_dbsamples...pomieszczenia(pomieszczenia-Romans17)
1000
nazwa
1040
1.0
1040
1.0
1040
0.0
1040
0.0
1040
0.0
1040
0.0
1040
0.0
1040
17.0
1071
        0
1071
      256
1071
        7
1071
        5
1071
        1
1000
ROMANS
1000
ByLayer
1000
#(nazwa)
  0
OBJECT_PTR
  5
17A69
102
{ACAD_REACTORS
330
17A4A
102
}
330
17A4A
1001
DCO15
1000
jet_dbsamples..."elementy wiezby"(romans16)
1000
nazw_el_wiezb
1040
1.0
1040
1.0
1040
0.0
1040
0.0
1040
0.0
1040
0.0
1040
0.0
1040
16.0
1071
        0
1071
      256
1071
        1
1071
        5
1071
        1
1000
Romans16
1000
ByLayer
1000
#(nazw_el_wiezb)
  0
OBJECT_PTR
  5
17A68
102
{ACAD_REACTORS
330
17A4A
102
}
330
17A4A
1001
DCO15
1000
jet_dbsamples..."uwagi ogolne na arkuszu"(Romans_17)
1000
1naglowek
1000
1linia
1000
2linia
1000
3linia
1000
4linia
1000
5linia
1000
6linia
1000
7linia
1000
8linia
1000
9linia
1000
10linia
1000
11linia
1000
12linia
1040
1.0
1040
1.0
1040
0.0
1040
0.0
1040
0.0
1040
0.0
1040
0.0
1040
17.0
1071
        0
1071
      256
1071
        1
1071
        5
1071
        1
1000
Romans16
1000
ByLayer
1000
#(1naglowek)\P#(1linia)\P#(2linia)\P#(3linia)\P#(4linia)\P#(5linia)\P#(6linia)\P#(7linia)\P#(8linia)\P#(9linia)\P#(10linia)\P#(11linia)\P#(12linia)
  0
OBJECT_PTR
  5
17A67
102
{ACAD_REACTORS
330
17A4A
102
}
330
17A4A
1001
DCO15
1000
KONSTR...schematy(schematy_arial15)
1000
1L
1000
2L
1000
3L
1000
4L
1000
5L
1040
1.0
1040
1.0
1040
0.0
1040
0.0
1040
0.0
1040
0.0
1040
0.0
1040
15.0
1071
        0
1071
      256
1071
        1
1071
        5
1071
        1
1000
ROMANS
1000
ByLayer
1000
{\fArial|b0|i0|c238|p34;#(1L)\P#(2L)\P#(3L)\P#(4L)\P#(5L)\fArial|b0|i0|c0|p34;}
  0
OBJECT_PTR
  5
17A66
102
{ACAD_REACTORS
330
17A4A
102
}
330
17A4A
1001
DCO15
1000
KONSTR...schematy(schematy_arial20)
1000
1L
1000
2L
1000
3L
1000
4L
1000
5L
1040
1.0
1040
1.0
1040
0.0
1040
0.0
1040
0.0
1040
0.0
1040
0.0
1040
22.0
1071
        0
1071
      256
1071
        1
1071
        5
1071
        1
1000
ROMANS
1000
ByLayer
1000
{\fArial|b0|i0|c238|p34;#(1L)\P#(2L)\P#(3L)\P#(4L)\P#(5L)}
  0
OBJECT_PTR
  5
17A65
102
{ACAD_REACTORS
330
17A4A
102
}
330
17A4A
1001
DCO15
1000
KONSTR...schematy(schematy_arial37)
1000
1L
1000
2L
1000
3L
1000
4L
1000
5L
1040
1.0
1040
1.0
1040
0.0
1040
0.0
1040
0.0
1040
0.0
1040
0.0
1040
37.0
1071
        0
1071
      256
1071
        1
1071
        5
1071
        1
1000
ROMANS
1000
ByLayer
1000
{\fArial|b0|i0|c238|p34;#(1L)\P#(2L)\P#(3L)\P#(4L)\P#(5L)}
  0
OBJECT_PTR
  5
17A64
102
{ACAD_REACTORS
330
17A4A
102
}
330
17A4A
1001
DCO15
1000
KONSTR...schematy(schematy_romans15)
1000
1L
1000
2L
1000
3L
1000
4L
1000
5L
1040
1.0
1040
1.0
1040
0.0
1040
0.0
1040
0.0
1040
0.0
1040
0.0
1040
15.0
1071
        0
1071
      256
1071
        1
1071
        5
1071
        1
1000
ROMANS
1000
ByLayer
1000
#(1L)\P#(2L)\P#(3L)\P#(4L)\P#(5L)
  0
OBJECT_PTR
  5
17A63
102
{ACAD_REACTORS
330
17A4A
102
}
330
17A4A
1001
DCO15
1000
KONSTR...schematy(schematy_romans15Right)
1000
1L
1000
2L
1000
3L
1000
4L
1000
5L
1040
1.0
1040
1.0
1040
0.0
1040
0.0
1040
0.0
1040
0.0
1040
0.0
1040
15.0
1071
        0
1071
      256
1071
        3
1071
        5
1071
        1
1000
ROMANS
1000
ByLayer
1000
#(1L)\P#(2L)\P#(3L)\P#(4L)\P#(5L)
  0
OBJECT_PTR
  5
17A62
102
{ACAD_REACTORS
330
17A4A
102
}
330
17A4A
1001
DCO15
1000
jet_dbsamples...stolarka(stolarka-Arial14)
1000
STOL_TKST
1000
STOL_TKST_2linia
1040
1.0
1040
1.0
1040
0.0
1040
0.0
1040
0.0
1040
0.0
1040
0.0
1040
14.0
1071
        0
1071
      256
1071
        1
1071
        5
1071
        1
1000
ROMANS
1000
ByLayer
1000
{\fArial|b0|i0|c238|p34;#(STOL_TKST)\P#(STOL_TKST_2linia)}
  0
OBJECT_PTR
  5
17A61
102
{ACAD_REACTORS
330
17A4A
102
}
330
17A4A
1001
DCO15
1000
jet_dbsamples...stolarka(stolarka-Romans1607)
1000
STOL_TKST
1000
STOL_TKST_2linia
1040
1.0
1040
1.0
1040
0.0
1040
0.0
1040
0.0
1040
0.0
1040
0.0
1040
16.0
1071
        0
1071
      256
1071
        5
1071
        5
1071
        1
1000
Romans16
1000
ByLayer
1000
#(STOL_TKST)\P#(STOL_TKST_2linia)
  0
OBJECT_PTR
  5
17A60
102
{ACAD_REACTORS
330
17A4A
102
}
330
17A4A
1001
DCO15
1000
jet_dbsamples...stolarka(stolarka-Romans1608)
1000
STOL_TKST
1000
STOL_TKST_2linia
1040
1.0
1040
1.0
1040
0.0
1040
0.0
1040
0.0
1040
0.0
1040
0.0
1040
16.0
1071
        0
1071
      256
1071
        5
1071
        5
1071
        1
1000
ROMANS
1000
ByLayer
1000
#(STOL_TKST)\P#(STOL_TKST_2linia)
  0
OBJECT_PTR
  5
17A5F
102
{ACAD_REACTORS
330
17A4A
102
}
330
17A4A
1001
DCO15
1000
jet_dbsamples...stolarka(stolarkaLabel1)
1000
STOL_TKST
1000
STOL_TKST_2linia
1040
1.0
1040
1.0
1040
0.0
1040
0.0
1040
0.0
1040
0.0
1040
0.0
1040
25.0
1071
        0
1071
      256
1071
        1
1071
        5
1071
        1
1000
ROMANS
1000
ByLayer
1000
{\fArial|b0|i0|c238|p34;#(STOL_TKST)\P#(STOL_TKST_2linia)}
  0
OBJECT_PTR
  5
17A5E
102
{ACAD_REACTORS
330
17A4A
102
}
330
17A4A
1001
DCO15
1000
KONSTR...szczegoly(szczegoly_arial12kursywa)
1000
1L
1000
2L
1000
3L
1000
4L
1000
5L
1000
6L
1040
1.0
1040
1.0
1040
0.0
1040
0.0
1040
0.0
1040
0.0
1040
0.0
1040
12.0
1071
        0
1071
      256
1071
        1
1071
        5
1071
        1
1000
ROMANS
1000
ByLayer
1000
{\fArial|b0|i1|c238|p34;#(1L)\P#(2L)\P#(3L)\P#(4L)\P#(5L)\P#(6L)}
  0
OBJECT_PTR
  5
17A5D
102
{ACAD_REACTORS
330
17A4A
102
}
330
17A4A
1001
DCO15
1000
KONSTR...szczegoly(szczegoly_arial6.6kursRight)
1000
1L
1000
2L
1000
3L
1000
4L
1000
5L
1000
6L
1040
1.0
1040
1.0
1040
0.0
1040
0.0
1040
0.0
1040
0.0
1040
0.0
1040
6.599999999999999
1071
        0
1071
      256
1071
        3
1071
        5
1071
        1
1000
ROMANS
1000
ByLayer
1000
{\fArial|b0|i1|c238|p34;#(1L)\P#(2L)\P#(3L)\P#(4L)\P#(5L)\P#(6L)}
  0
OBJECT_PTR
  5
17A5C
102
{ACAD_REACTORS
330
17A4A
102
}
330
17A4A
1001
DCO15
1000
KONSTR...szczegoly(szczegoly_arial6.6kursywa)
1000
1L
1000
2L
1000
3L
1000
4L
1000
5L
1000
6L
1040
1.0
1040
1.0
1040
0.0
1040
0.0
1040
0.0
1040
0.0
1040
0.0
1040
6.599999999999999
1071
        0
1071
      256
1071
        1
1071
        5
1071
        1
1000
ROMANS
1000
ByLayer
1000
{\fArial|b0|i1|c238|p34;#(1L)\P#(2L)\P#(3L)\P#(4L)\P#(5L)\P#(6L)}
  0
OBJECT_PTR
  5
17A5B
102
{ACAD_REACTORS
330
17A4A
102
}
330
17A4A
1001
DCO15
1000
KONSTR...szczegoly(szczegoly_Romans7)
1000
1L
1000
2L
1000
3L
1000
4L
1000
5L
1000
6L
1040
1.0
1040
1.0
1040
0.0
1040
0.0
1040
0.0
1040
0.0
1040
0.0
1040
7.0
1071
        0
1071
      256
1071
        1
1071
        5
1071
        1
1000
ROMANS
1000
ByLayer
1000
#(1L)\P#(2L)\P#(3L)\P#(4L)\P#(5L)\P#(6L)
  0
OBJECT_PTR
  5
17A5A
102
{ACAD_REACTORS
330
17A4A
102
}
330
17A4A
1001
DCO15
1000
KONSTR...szczegoly(szczegoly_romans7_right)
1000
1L
1000
2L
1000
3L
1000
4L
1000
5L
1000
6L
1040
1.0
1040
1.0
1040
0.0
1040
0.0
1040
0.0
1040
0.0
1040
0.0
1040
7.0
1071
        0
1071
      256
1071
        3
1071
        5
1071
        1
1000
ROMANS
1000
ByLayer
1000
#(1L)\P#(2L)\P#(3L)\P#(4L)\P#(5L)\P#(6L)
  0
OBJECT_PTR
  5
17A59
102
{ACAD_REACTORS
330
17A4A
102
}
330
17A4A
1001
DCO15
1000
jet_dbsamples...tbl_PRZEGRODY(tbl_PRZEGRODY)
1000
nazwa przegrody
1000
1w
1000
2w
1000
3w
1000
4w
1000
5w
1000
6w
1000
7w
1000
8w
1000
9w
1000
10w
1000
11w
1000
12w
1000
13w
1000
14w
1000
15w
1000
16w
1040
1.0
1040
1.0
1040
0.0
1040
0.0
1040
0.0
1040
0.0
1040
0.0
1040
17.0
1071
        0
1071
      256
1071
        1
1071
        5
1071
        1
1000
ROMANS
1000
ByLayer
1000
{\Fromans.shx|c238;\L\C2;#(nazwa przegrody)\C4;\P}#(1w)\P#(2w)\P#(3w)\P#(4w)\P#(5w)\P#(6w)\P#(7w)\P#(8w)\P#(9w)\P#(10w)\P#(11w)\P#(12w)\P#(13w)\P#(14w)\P#(15w)\P#(16w)
  0
OBJECT_PTR
  5
17A58
102
{ACAD_REACTORS
330
17A4A
102
}
330
17A4A
1001
DCO15
1000
wkc...tbl_uwagi_co(tbl_uwagi_coRomans20Right)
1000
1L
1000
2L
1000
3L
1000
4L
1000
5L
1040
1.0
1040
1.0
1040
0.0
1040
0.0
1040
0.0
1040
0.0
1040
0.0
1040
20.0
1071
        0
1071
      256
1071
        3
1071
        5
1071
        1
1000
ROMANS
1000
ByLayer
1000
{\Fromans.shx|c238;#(1L)\P#(2L)\P#(3L)\P#(4L)\P#(5L)}
  0
OBJECT_PTR
  5
17A57
102
{ACAD_REACTORS
330
17A4A
102
}
330
17A4A
1001
DCO15
1000
jet_dbsamples..."uwagi ogolne na arkuszu"(uwag_og_na_ark_Arial18)
1000
1naglowek
1000
1linia
1000
2linia
1000
3linia
1000
4linia
1000
5linia
1000
6linia
1000
7linia
1000
8linia
1000
9linia
1000
10linia
1000
11linia
1000
12linia
1040
1.0
1040
1.0
1040
0.0
1040
0.0
1040
0.0
1040
0.0
1040
0.0
1040
18.0
1071
        0
1071
      256
1071
        1
1071
        5
1071
        1
1000
ROMANS
1000
ByLayer
1000
{\fArial|b0|i0|c238|p34;#(1naglowek)\P#(1linia)\P#(2linia)\P#(3linia)\P#(4linia)\P#(5linia)\P#(6linia)\P#(7linia)\P#(8linia)\P#(9linia)\P#(10linia)\P#(11linia)\P#(12linia)}
  0
OBJECT_PTR
  5
17A56
102
{ACAD_REACTORS
330
17A4A
102
}
330
17A4A
1001
DCO15
1000
wkc...tbl_uwagi_co(uwagi_co_Arial37)
1000
1L
1000
2L
1000
3L
1000
4L
1000
5L
1040
1.0
1040
1.0
1040
0.0
1040
0.0
1040
0.0
1040
0.0
1040
0.0
1040
37.0
1071
        0
1071
      256
1071
        1
1071
        5
1071
        1
1000
ROMANS
1000
ByLayer
1000
#(1L)\P#(2L)\P#(3L)\P#(4L)\P#(5L){\fArial|b0|i0|c0|p34;}
  0
OBJECT_PTR
  5
17A55
102
{ACAD_REACTORS
330
17A4A
102
}
330
17A4A
1001
DCO15
1000
wkc...tbl_uwagi_co(uwagi_co_Romans20)
1000
1L
1000
2L
1000
3L
1000
4L
1000
5L
1040
1.0
1040
1.0
1040
0.0
1040
0.0
1040
0.0
1040
0.0
1040
0.0
1040
20.0
1071
        0
1071
      256
1071
        1
1071
        5
1071
        1
1000
ROMANS
1000
ByLayer
1000
{\Fromans.shx|c238;#(1L)\P#(2L)\P#(3L)\P#(4L)\P#(5L)}
  0
OBJECT_PTR
  5
17A54
102
{ACAD_REACTORS
330
17A4A
102
}
330
17A4A
1001
DCO15
1000
KONSTR...uwagi_na_schematach(uwagi_na_schematachLabel1)
1000
1L
1000
2L
1000
3L
1000
4L
1000
5L
1000
6L
1000
7L
1000
8L
1000
9L
1000
10L
1000
11L
1000
12L
1040
1.0
1040
1.0
1040
0.0
1040
0.0
1040
0.0
1040
0.0
1040
0.0
1040
22.4
1071
        0
1071
      256
1071
        1
1071
        5
1071
        1
1000
ROMANS
1000
ByLayer
1000
{\Fromans.shx|c238;#(1L)\P#(2L)\P#(3L)\P#(4L)\P#(5L)\P#(6L)\P#(7L)\P#(8L)\P#(9L)\P#(10L)\P#(11L)\P#(12L)}
  0
OBJECT_PTR
  5
17A53
102
{ACAD_REACTORS
330
17A4A
102
}
330
17A4A
1001
DCO15
1000
KONSTR...uwagi_na_schematach(uwagi_na_schematachLabel2)
1000
1L
1000
2L
1000
3L
1000
4L
1000
5L
1000
6L
1000
7L
1000
8L
1000
9L
1000
10L
1000
11L
1000
12L
1040
1.0
1040
1.0
1040
0.0
1040
0.0
1040
0.0
1040
0.0
1040
0.0
1040
35.0
1071
        0
1071
      256
1071
        1
1071
        5
1071
        1
1000
ROMANS
1000
ByLayer
1000
{\fArial|b0|i1|c0|p34;#(1L)\P#(2L)\P#(3L)\P#(4L)\P#(5L)\P#(6L)\P#(7L)\P#(8L)\P#(9L)\P#(10L)\P#(11L)\P#(12L)}
  0
OBJECT_PTR
  5
17A52
102
{ACAD_REACTORS
330
17A4A
102
}
330
17A4A
1001
DCO15
1000
KONSTR...uwagi_na_schematach(uwagi_na_schematachRight)
1000
1L
1000
2L
1000
3L
1000
4L
1000
5L
1000
6L
1000
7L
1000
8L
1000
9L
1000
10L
1000
11L
1000
12L
1040
1.0
1040
1.0
1040
0.0
1040
0.0
1040
0.0
1040
0.0
1040
0.0
1040
22.4
1071
        0
1071
      256
1071
        3
1071
        5
1071
        1
1000
ROMANS
1000
ByLayer
1000
{\Fromans.shx|c238;#(1L)\P#(2L)\P#(3L)\P#(4L)\P#(5L)\P#(6L)\P#(7L)\P#(8L)\P#(9L)\P#(10L)\P#(11L)\P#(12L)}
  0
OBJECT_PTR
  5
17A51
102
{ACAD_REACTORS
330
17A4A
102
}
330
17A4A
1001
DCO15
1000
wkc...tbl_uwagi_wodkan(uwagi_wodkan_Romans18)
1000
1L
1000
2L
1000
3L
1000
4L
1000
5L
1040
1.0
1040
1.0
1040
0.0
1040
0.0
1040
0.0
1040
0.0
1040
0.0
1040
20.0
1071
        0
1071
      256
1071
        1
1071
        5
1071
        1
1000
ROMANS
1000
ByLayer
1000
#(1L)\P#(2L)\P#(3L)\P#(4L)\P#(5L)
  0
OBJECT_PTR
  5
17A50
102
{ACAD_REACTORS
330
17A4A
102
}
330
17A4A
1001
DCO15
1000
wkc...tbl_uwagi_wodkan(uwagi_wodkanARIAL37)
1000
1L
1000
2L
1000
3L
1000
4L
1000
5L
1040
1.0
1040
1.0
1040
0.0
1040
0.0
1040
0.0
1040
0.0
1040
0.0
1040
37.0
1071
        0
1071
      256
1071
        1
1071
        5
1071
        1
1000
ROMANS
1000
ByLayer
1000
#(1L)\P#(2L)\P#(3L)\P#(4L)\P#(5L)
  0
OBJECT_PTR
  5
17A4F
102
{ACAD_REACTORS
330
17A4A
102
}
330
17A4A
1001
DCO15
1000
wkc...tbl_uwagi_wodkan(uwagi_wodkanRomans20_Right)
1000
1L
1000
2L
1000
3L
1000
4L
1000
5L
1040
1.0
1040
1.0
1040
0.0
1040
0.0
1040
0.0
1040
0.0
1040
0.0
1040
20.0
1071
        0
1071
      256
1071
        3
1071
        5
1071
        1
1000
ROMANS
1000
ByLayer
1000
{\Fromans.shx|c238;#(1L)\P#(2L)\P#(3L)\P#(4L)\P#(5L)}
  0
OBJECT_PTR
  5
17A4E
102
{ACAD_REACTORS
330
17A4A
102
}
330
17A4A
1001
DCO15
1000
KONSTR...zbroj_plyty(zbroj_plyty_arial22)
1000
1L
1000
2L
1000
3L
1040
1.0
1040
1.0
1040
0.0
1040
0.0
1040
0.0
1040
0.0
1040
0.0
1040
22.0
1071
        0
1071
      256
1071
        1
1071
        5
1071
        1
1000
ROMANS
1000
ByLayer
1000
{\fArial|b0|i0|c238|p34;#(1L)\P#(2L)\P#(3L)}
  0
OBJECT_PTR
  5
17A4D
102
{ACAD_REACTORS
330
17A4A
102
}
330
17A4A
1001
DCO15
1000
KONSTR...zbroj_plyty(zbroj_plyty_romans12)
1000
1L
1000
2L
1000
3L
1040
1.0
1040
1.0
1040
0.0
1040
0.0
1040
0.0
1040
0.0
1040
0.0
1040
11.0
1071
        0
1071
      256
1071
        1
1071
        5
1071
        1
1000
ROMANS
1000
ByLayer
1000
#(1L)\P#(2L)\P#(3L)
  0
OBJECT_PTR
  5
17A4C
102
{ACAD_REACTORS
330
17A4A
102
}
330
17A4A
1001
DCO15
1000
KONSTR...zbroj_plyty(zbroj_plyty_romans12Right)
1000
1L
1000
2L
1000
3L
1040
1.0
1040
1.0
1040
0.0
1040
0.0
1040
0.0
1040
0.0
1040
0.0
1040
11.0
1071
        0
1071
      256
1071
        3
1071
        5
1071
        1
1000
ROMANS
1000
ByLayer
1000
#(1L)\P#(2L)\P#(3L)
  0
OBJECT_PTR
  5
17A4B
102
{ACAD_REACTORS
330
17A4A
102
}
330
17A4A
1001
DCO15
1000
KONSTR...zbroj_plyty(zbroj_plyty_romans9)
1000
1L
1000
2L
1000
3L
1040
1.0
1040
1.0
1040
0.0
1040
0.0
1040
0.0
1040
0.0
1040
0.0
1040
9.0
1071
        0
1071
      256
1071
        1
1071
        5
1071
        1
1000
ROMANS
1000
ByLayer
1000
#(1L)\P#(2L)\P#(3L)
  0
OBJECT_PTR
  5
17A49
102
{ACAD_REACTORS
330
17A2E
102
}
330
17A2E
1001
DCO15
1000
jet_dbsamples..."elementy wiezby"(_elementy_wiezby_Link1)
1000
IDENTYFIKATOR
1000

1000

1070
     4
1070
     0
1070
     0
1070
     0
1070
  1024
  0
OBJECT_PTR
  5
17A48
102
{ACAD_REACTORS
330
17A2E
102
}
330
17A2E
1001
DCO15
1000
jet_dbsamples..."materialy przegrod pl"(_materialy_przegrod_pl_Link1)
1000
IDENTYFIKATOR
1000

1000

1070
     4
1070
     0
1070
     0
1070
     0
1070
  1024
  0
OBJECT_PTR
  5
17A47
102
{ACAD_REACTORS
330
17A2E
102
}
330
17A2E
1001
DCO15
1000
jet_dbsamples..."nazwy przegrod pl"(_nazwy_przegrod_pl_Link1)
1000
IDENTYFIKATOR
1000

1000

1070
     4
1070
     0
1070
     0
1070
     0
1070
  1024
  0
OBJECT_PTR
  5
17A46
102
{ACAD_REACTORS
330
17A2E
102
}
330
17A2E
1001
DCO15
1000
jet_dbsamples..."nazwy rysunkow"(_nazwy_rysunkow_Arial37)
1000
IDENTYFIKATOR
1000

1000

1070
     4
1070
     0
1070
     0
1070
     0
1070
  1024
  0
OBJECT_PTR
  5
17A45
102
{ACAD_REACTORS
330
17A2E
102
}
330
17A2E
1001
DCO15
1000
jet_dbsamples..."opisy rozne II"(_opisy_rozne_II_Link1)
1000
"opis różny"
1000
1250
1000
ASCII
1070
    12
1070
   200
1070
     0
1070
     0
1070
  1024
  0
OBJECT_PTR
  5
17A44
102
{ACAD_REACTORS
330
17A2E
102
}
330
17A2E
1001
DCO15
1000
jet_dbsamples..."opisy rozne II"(_opisy_rozne_II_Link2)
1000
IDENTYFIKATOR
1000

1000

1070
     4
1070
     0
1070
     0
1070
     0
1070
  1024
  0
OBJECT_PTR
  5
17A43
102
{ACAD_REACTORS
330
17A2E
102
}
330
17A2E
1001
DCO15
1000
jet_dbsamples..."posadzki do zestawienia pomieszczen"(_posadzki_do_zestawienia_pomieszczen_Link1)
1000
IDENTYFIKATOR
1000

1000

1070
     4
1070
     0
1070
     0
1070
     0
1070
  1024
  0
OBJECT_PTR
  5
17A42
102
{ACAD_REACTORS
330
17A2E
102
}
330
17A2E
1001
DCO15
1000
jet_dbsamples..."rozne opisy rys"(_rozne_opisy_rys_Link1)
1000
IDENTYFIKATOR
1000

1000

1070
     4
1070
     0
1070
     0
1070
     0
1070
  1024
  0
OBJECT_PTR
  5
17A41
102
{ACAD_REACTORS
330
17A2E
102
}
330
17A2E
1001
DCO15
1000
jet_dbsamples..."tabelka - inform i etykiety"(_tabelka_-_inform_i_etykiety_Link1)
1000
IDENTYFIKATOR
1000

1000

1070
     4
1070
     0
1070
     0
1070
     0
1070
  1024
  0
OBJECT_PTR
  5
17A40
102
{ACAD_REACTORS
330
17A2E
102
}
330
17A2E
1001
DCO15
1000
jet_dbsamples..."uwagi ogolne na arkuszu"(_uwagi_ogolne_na_arkuszu_Link1)
1000
IDENTYFIKATOR
1000

1000

1070
     4
1070
     0
1070
     0
1070
     0
1070
  1024
  0
OBJECT_PTR
  5
17A3F
102
{ACAD_REACTORS
330
17A2E
102
}
330
17A2E
1001
DCO15
1000
jet_dbsamples..."~TMPCLP122371"(_~TMPCLP122371_Link1)
1000
IDENTYFIKATOR
1000

1000

1070
     4
1070
     0
1070
     0
1070
     0
1070
  1024
1000
GUPA
1000
1250
1000
ASCII
1070
    12
1070
    50
1070
     0
1070
     0
1070
  1024
1000
NAZW_MAT
1000
1250
1000
ASCII
1070
    12
1070
   100
1070
     0
1070
     0
1070
  1024
  0
OBJECT_PTR
  5
17A3E
102
{ACAD_REACTORS
330
17A2E
102
}
330
17A2E
1001
DCO15
1000
jet_dbsamples...ALFABET(ALFABETLink1)
1000
IDENTYFIKATOR
1000

1000

1070
     4
1070
     0
1070
     0
1070
     0
1070
  1024
  0
OBJECT_PTR
  5
17A3D
102
{ACAD_REACTORS
330
17A2E
102
}
330
17A2E
1001
DCO15
1000
wkc...arkusz_nazwy(arkusz_nazwyLink1)
1000
IDENTYFIKATOR
1000

1000

1070
     4
1070
     0
1070
     0
1070
     0
1070
  1024
  0
OBJECT_PTR
  5
17A3C
102
{ACAD_REACTORS
330
17A2E
102
}
330
17A2E
1001
DCO15
1000
konstr...arkusz_nazwy(arkusz_nazwyLink2)
1000
IDENTYFIKATOR
1000

1000

1070
     4
1070
     0
1070
     0
1070
     0
1070
  1024
  0
OBJECT_PTR
  5
17A3B
102
{ACAD_REACTORS
330
17A2E
102
}
330
17A2E
1001
DCO15
1000
jet_dbsamples...jednostki(jednostkiLink1)
1000
IDENTYFIKATOR
1000

1000

1070
     4
1070
     0
1070
     0
1070
     0
1070
  1024
  0
OBJECT_PTR
  5
17A3A
102
{ACAD_REACTORS
330
17A2E
102
}
330
17A2E
1001
DCO15
1000
KONSTR...konstr_drew(konstr_drewLink1)
1000
IDENTYFIKATOR
1000

1000

1070
     4
1070
     0
1070
     0
1070
     0
1070
  1024
  0
OBJECT_PTR
  5
17A39
102
{ACAD_REACTORS
330
17A2E
102
}
330
17A2E
1001
DCO15
1000
KONSTR...konstr_stal(konstr_stalLink1)
1000
IDENTYFIKATOR
1000

1000

1070
     4
1070
     0
1070
     0
1070
     0
1070
  1024
  0
OBJECT_PTR
  5
17A38
102
{ACAD_REACTORS
330
17A2E
102
}
330
17A2E
1001
DCO15
1000
jet_dbsamples...miesiace(miesiaceLink1)
1000
IDENTYFIKATOR
1000

1000

1070
     4
1070
     0
1070
     0
1070
     0
1070
  1024
  0
OBJECT_PTR
  5
17A37
102
{ACAD_REACTORS
330
17A2E
102
}
330
17A2E
1001
DCO15
1000
jet_dbsamples...pomieszczenia(pomieszczeniaLink1)
1000
IDENTYFIKATOR
1000

1000

1070
     4
1070
     0
1070
     0
1070
     0
1070
  1024
  0
OBJECT_PTR
  5
17A36
102
{ACAD_REACTORS
330
17A2E
102
}
330
17A2E
1001
DCO15
1000
KONSTR...schematy(schematyLink1)
1000
IDENTYFIKATOR
1000

1000

1070
     4
1070
     0
1070
     0
1070
     0
1070
  1024
  0
OBJECT_PTR
  5
17A35
102
{ACAD_REACTORS
330
17A2E
102
}
330
17A2E
1001
DCO15
1000
jet_dbsamples...stolarka(stolarkaLink1)
1000
IDENTYFIKATOR
1000

1000

1070
     4
1070
     0
1070
     0
1070
     0
1070
  1024
  0
OBJECT_PTR
  5
17A34
102
{ACAD_REACTORS
330
17A2E
102
}
330
17A2E
1001
DCO15
1000
KONSTR...szczegoly(szczegolyLink1)
1000
IDENTYFIKATOR
1000

1000

1070
     4
1070
     0
1070
     0
1070
     0
1070
  1024
  0
OBJECT_PTR
  5
17A33
102
{ACAD_REACTORS
330
17A2E
102
}
330
17A2E
1001
DCO15
1000
jet_dbsamples...tbl_PRZEGRODY(tbl_PRZEGRODYLink1)
1000
IDENTYFIKATOR
1000

1000

1070
     4
1070
     0
1070
     0
1070
     0
1070
  1024
  0
OBJECT_PTR
  5
17A32
102
{ACAD_REACTORS
330
17A2E
102
}
330
17A2E
1001
DCO15
1000
wkc...tbl_uwagi_co(tbl_uwagi_coLink1)
1000
IDENTYFIKATOR
1000

1000

1070
     4
1070
     0
1070
     0
1070
     0
1070
  1024
  0
OBJECT_PTR
  5
17A31
102
{ACAD_REACTORS
330
17A2E
102
}
330
17A2E
1001
DCO15
1000
wkc...tbl_uwagi_wodkan(tbl_uwagi_wodkanLink1)
1000
IDENTYFIKATOR
1000

1000

1070
     4
1070
     0
1070
     0
1070
     0
1070
  1024
  0
OBJECT_PTR
  5
17A30
102
{ACAD_REACTORS
330
17A2E
102
}
330
17A2E
1001
DCO15
1000
KONSTR...uwagi_na_schematach(uwagi_na_schematachLink1)
1000
IDENTYFIKATOR
1000

1000

1070
     4
1070
     0
1070
     0
1070
     0
1070
  1024
  0
OBJECT_PTR
  5
17A2F
102
{ACAD_REACTORS
330
17A2E
102
}
330
17A2E
1001
DCO15
1000
KONSTR...zbroj_plyty(zbroj_plytyLink1)
1000
IDENTYFIKATOR
1000

1000

1070
     4
1070
     0
1070
     0
1070
     0
1070
  1024
  0
DICTIONARY
  5
1888F
330
10
100
AcDbDictionary
280
     1
281
     1
  3
ACAD_XREC_ROUNDTRIP
360
18890
  0
DICTIONARY
  5
1888D
330
A
100
AcDbDictionary
280
     1
281
     1
  3
ACAD_XREC_ROUNDTRIP
360
1888E
  0
DICTIONARY
  5
18894
330
172B
100
AcDbDictionary
280
     1
281
     1
  3
ACAD_XREC_ROUNDTRIP
360
18895
  0
DICTIONARY
  5
18892
330
172A
100
AcDbDictionary
280
     1
281
     1
  3
ACAD_XREC_ROUNDTRIP
360
18893
  0
DICTIONARY
  5
139CD
330
139CC
100
AcDbDictionary
280
     1
281
     1
  3
ACAD_XREC_ROUNDTRIP
360
18898
  3
VIZ XML Material Definition
360
139CE
  0
DICTIONARY
  5
18896
330
172C
100
AcDbDictionary
280
     1
281
     1
  3
ACAD_XREC_ROUNDTRIP
360
18897
  0
DICTIONARY
  5
16B28
330
DF3
100
AcDbDictionary
280
     1
281
     1
  3
ACAD_ROUNDTRIP_2008_TABLESTYLE_CELLSTYLEMAP
360
1888B
  3
ACAD_XREC_ROUNDTRIP
360
18891
  0
BINRECORD
  5
830B
102
{ACAD_REACTORS
330
830A
102
}
330
830A
100
AcAecBinRecord
 90
        0
 91
    19403
 70
     0
310
0100FFFEFF0D4100490041002000560065007200730069006F006E00200033000500FFFF01001C004163416563556B4C6179657244657363726970746976654669656C64FFFEFF154400690073006300690070006C0069006E0065002000440065007300690067006E00610074006F0072000102000000007B333637354541
310
46100100002100000070BA406CD0EA76040B00FFFEFF001500FFFEFF01440002000000FFFEFF07500072006F0063006500730073000E00FFFEFF01440002000000FFFEFF12500072006F0063006500730073002000440065006D006F006C006900740069006F006E00000000000000FFFEFF01560002000000FFFEFF0E5000
310
72006F0063006500730073002000560061006300750075006D00000000000000FFFEFF01450002000000FFFEFF12500072006F006300650073007300200045006C0065006300740072006900630061006C00000000000000FFFEFF01570002000000FFFEFF0E500072006F0063006500730073002000570061007400650072
310
007300000000000000FFFEFF01580002000000FFFEFF0F500072006F00630065007300730020004500780068006100750073007400000000000000FFFEFF01470002000000FFFEFF0D500072006F006300650073007300200047006100730065007300000000000000FFFEFF014F0002000000FFFEFF0B500072006F006300
310
65007300730020004F0069006C00000000000000FFFEFF01500002000000FFFEFF0E500072006F006300650073007300200050006900700069006E006700000000000000FFFEFF01510002000000FFFEFF11500072006F0063006500730073002000450071007500690070006D0065006E007400000000000000FFFEFF0152
310
0002000000FFFEFF19500072006F006300650073007300200044007200610069006E0073002000260020005200650063006C00610069006D007300000000000000FFFEFF01410002000000FFFEFF0C500072006F00630065007300730020004100690072007300000000000000FFFEFF01530002000000FFFEFF0C50007200
310
6F00630065007300730020005300690074006500000000000000FFFEFF01540002000000FFFEFF18500072006F006300650073007300200045006E0074007200610069006E0065006400200053006F006C00690064007300000000000000FFFEFF01430002000000FFFEFF11500072006F0063006500730073002000430068
310
0065006D006900630061006C00730000000000000000000000FFFEFF01560002000000FFFEFF1053007500720076006500790020002F0020004D0061007000700069006E0067000500FFFEFF01460002000000FFFEFF0C4600690065006C0064002000530075007200760065007900000000000000FFFEFF01490002000000
310
FFFEFF0E4400690067006900740061006C002000530075007200760065007900000000000000FFFEFF014A0002000000FFFEFF1F53007500720076006500790020002F0020004D0061007000700069006E006700200028005500730065007200200044006500660069006E00650064002900000000000000FFFEFF014B0002
310
000000FFFEFF1F53007500720076006500790020002F0020004D0061007000700069006E006700200028005500730065007200200044006500660069006E00650064002900000000000000FFFEFF01410002000000FFFEFF0D410065007200690061006C00200053007500720076006500790000000000000000000000FFFE
310
FF01450002000000FFFEFF0A45006C0065006300740072006900630061006C000900FFFEFF01440002000000FFFEFF1545006C0065006300740072006900630061006C002000440065006D006F006C006900740069006F006E00000000000000FFFEFF01590002000000FFFEFF1C45006C0065006300740072006900630061
310
006C00200041007500780069006C0069006100720079002000530079007300740065006D007300000000000000FFFEFF01490002000000FFFEFF1A45006C0065006300740072006900630061006C00200049006E0073007400720075006D0065006E0074006100740069006F006E00000000000000FFFEFF014A0002000000
310
FFFEFF1945006C0065006300740072006900630061006C00200028005500730065007200200044006500660069006E00650064002900000000000000FFFEFF014B0002000000FFFEFF1945006C0065006300740072006900630061006C00200028005500730065007200200044006500660069006E00650064002900000000
310
000000FFFEFF014C0002000000FFFEFF1345006C0065006300740072006900630061006C0020004C00690067006800740069006E006700000000000000FFFEFF01500002000000FFFEFF1045006C0065006300740072006900630061006C00200050006F00770065007200000000000000FFFEFF01530002000000FFFEFF0F
310
45006C0065006300740072006900630061006C0020005300690074006500000000000000FFFEFF01540002000000FFFEFF1D45006C0065006300740072006900630061006C002000540065006C00650063006F006D006D0075006E00690063006100740069006F006E00730000000000000000000000FFFEFF015700020000
310
00FFFEFF0B43006900760069006C00200057006F0072006B0073000200FFFEFF014A0002000000FFFEFF1A43006900760069006C00200057006F0072006B007300200028005500730065007200200044006500660069006E00650064002900000000000000FFFEFF014B0002000000FFFEFF1A43006900760069006C002000
310
57006F0072006B007300200028005500730065007200200044006500660069006E0065006400290000000000000000000000FFFEFF01460002000000FFFEFF0F46006900720065002000500072006F00740065006300740069006F006E000400FFFEFF014A0002000000FFFEFF134600690072006500200028005500730065
310
007200200044006500660069006E00650064002900000000000000FFFEFF014B0002000000FFFEFF134600690072006500200028005500730065007200200044006500660069006E00650064002900000000000000FFFEFF01410002000000FFFEFF184600690072006500200044006500740065006300740069006F006E00
310
200061006E006400200041006C00610072006D00000000000000FFFEFF01530002000000FFFEFF10460069007200650020005300750070007000720065007300730069006F006E0000000000000000000000FFFEFF01470002000000FFFEFF07470065006E006500720061006C000500FFFEFF01490002000000FFFEFF1347
310
0065006E006500720061006C00200049006E0066006F0072006D006100740069006F006E00000000000000FFFEFF014A0002000000FFFEFF16470065006E006500720061006C00200028005500730065007200200044006500660069006E00650064002900000000000000FFFEFF014B0002000000FFFEFF16470065006E00
310
6500720061006C00200028005500730065007200200044006500660069006E00650064002900000000000000FFFEFF01520002000000FFFEFF10470065006E006500720061006C0020005200650073006F007500720063006500000000000000FFFEFF01430002000000FFFEFF13470065006E006500720061006C00200043
310
006F006E0074007200610063007400750061006C0000000000000000000000FFFEFF01580002000000FFFEFF114F00740068006500720020004400690073006300690070006C0069006E00650073000200FFFEFF014A0002000000FFFEFF204F00740068006500720020004400690073006300690070006C0069006E006500
310
7300200028005500730065007200200044006500660069006E00650064002900000000000000FFFEFF014B0002000000FFFEFF204F00740068006500720020004400690073006300690070006C0069006E0065007300200028005500730065007200200044006500660069006E0065006400290000000000000000000000FF
310
FEFF01480002000000FFFEFF13480061007A006100720064006F007500730020004D006100740065007200690061006C0073000700FFFEFF014A0002000000FFFEFF22480061007A006100720064006F007500730020004D006100740065007200690061006C00730020002800550073006500720020004400650066006900
310
6E00650064002900000000000000FFFEFF014B0002000000FFFEFF22480061007A006100720064006F007500730020004D006100740065007200690061006C007300200028005500730065007200200044006500660069006E00650064002900000000000000FFFEFF014C0002000000FFFEFF044C00650061006400000000
310
000000FFFEFF01500002000000FFFEFF03500043004200000000000000FFFEFF01520002000000FFFEFF0C5200650066007200690067006500720061006E0074007300000000000000FFFEFF01410002000000FFFEFF084100730062006500730074006F007300000000000000FFFEFF01430002000000FFFEFF0943006800
310
65006D006900630061006C00730000000000000000000000FFFEFF01490002000000FFFEFF0949006E0074006500720069006F00720073000600FFFEFF01440002000000FFFEFF1349006E0074006500720069006F0072002000440065006D006F006C006900740069006F006E00000000000000FFFEFF01460002000000FF
310
FEFF1149006E0074006500720069006F0072002000460069006E0069007300680065007300000000000000FFFEFF01470002000000FFFEFF1249006E0074006500720069006F0072007300200047007200610070006800690063007300000000000000FFFEFF014A0002000000FFFEFF1849006E0074006500720069006F00
310
72007300200028005500730065007200200044006500660069006E00650064002900000000000000FFFEFF014B0002000000FFFEFF1849006E0074006500720069006F0072007300200028005500730065007200200044006500660069006E00650064002900000000000000FFFEFF014E0002000000FFFEFF0F49006E0074
310
006500720069006F0072002000440065007300690067006E0000000000000000000000FFFEFF015A0002000000FFFEFF1A43006F006E00740072006100630074006F00720020002F002000530068006F0070002000440072006100770069006E00670073000200FFFEFF014A0002000000FFFEFF2943006F006E0074007200
310
6100630074006F00720020002F002000530068006F0070002000440072006100770069006E0067007300200028005500730065007200200044006500660069006E00650064002900000000000000FFFEFF014B0002000000FFFEFF2943006F006E00740072006100630074006F00720020002F002000530068006F00700020
310
00440072006100770069006E0067007300200028005500730065007200200044006500660069006E0065006400290000000000000000000000FFFEFF014C0002000000FFFEFF094C0061006E006400730063006100700065000500FFFEFF01440002000000FFFEFF144C0061006E0064007300630061007000650020004400
310
65006D006F006C006900740069006F006E00000000000000FFFEFF01490002000000FFFEFF144C0061006E006400730063006100700065002000490072007200690067006100740069006F006E00000000000000FFFEFF014A0002000000FFFEFF184C0061006E006400730063006100700065002000280055007300650072
310
00200044006500660069006E00650064002900000000000000FFFEFF014B0002000000FFFEFF184C0061006E00640073006300610070006500200028005500730065007200200044006500660069006E00650064002900000000000000FFFEFF01500002000000FFFEFF124C0061006E006400730063006100700065002000
310
50006C0061006E00740069006E00670000000000000000000000FFFEFF014D0002000000FFFEFF0A4D0065006300680061006E006900630061006C000700FFFEFF01440002000000FFFEFF154D0065006300680061006E006900630061006C002000440065006D006F006C006900740069006F006E00000000000000FFFEFF
310
01480002000000FFFEFF0F4D0065006300680061006E006900630061006C0020004800560041004300000000000000FFFEFF01490002000000FFFEFF1A4D0065006300680061006E006900630061006C00200049006E0073007400720075006D0065006E0074006100740069006F006E00000000000000FFFEFF014A000200
310
0000FFFEFF194D0065006300680061006E006900630061006C00200028005500730065007200200044006500660069006E00650064002900000000000000FFFEFF014B0002000000FFFEFF194D0065006300680061006E006900630061006C00200028005500730065007200200044006500660069006E0065006400290000
310
0000000000FFFEFF01500002000000FFFEFF114D0065006300680061006E006900630061006C00200050006900700069006E006700000000000000FFFEFF01530002000000FFFEFF0F4D0065006300680061006E006900630061006C002000530069007400650000000000000000000000FFFEFF014F0002000000FFFEFF0A
310
4F007000650072006100740069006F006E0073000200FFFEFF014A0002000000FFFEFF194F007000650072006100740069006F006E007300200028005500730065007200200044006500660069006E00650064002900000000000000FFFEFF014B0002000000FFFEFF194F007000650072006100740069006F006E00730020
310
0028005500730065007200200044006500660069006E0065006400290000000000000000000000FFFEFF01500002000000FFFEFF0850006C0075006D00620069006E0067000600FFFEFF01440002000000FFFEFF1350006C0075006D00620069006E0067002000440065006D006F006C006900740069006F006E0000000000
310
0000FFFEFF014A0002000000FFFEFF1750006C0075006D00620069006E006700200028005500730065007200200044006500660069006E00650064002900000000000000FFFEFF014B0002000000FFFEFF1750006C0075006D00620069006E006700200028005500730065007200200044006500660069006E006500640029
310
00000000000000FFFEFF01500002000000FFFEFF0F50006C0075006D00620069006E006700200050006900700069006E006700000000000000FFFEFF01510002000000FFFEFF1250006C0075006D00620069006E0067002000450071007500690070006D0065006E007400000000000000FFFEFF01530002000000FFFEFF0D
310
50006C0075006D00620069006E0067002000530069007400650000000000000000000000FFFEFF01510002000000FFFEFF09450071007500690070006D0065006E0074001100FFFEFF01440002000000FFFEFF1344006500740065006E00740069006F006E002000450071007500690070006D0065006E0074000000000000
310
00FFFEFF01560002000000FFFEFF1C56006900640065006F002F00500068006F0074006F0067007200610070006800690063002000450071007500690070006D0065006E007400000000000000FFFEFF01450002000000FFFEFF1545006400750063006100740069006F006E0061006C002000450071007500690070006D00
310
65006E007400000000000000FFFEFF01460002000000FFFEFF1646006F006F006400200053006500720076006900630065002000450071007500690070006D0065006E007400000000000000FFFEFF01590002000000FFFEFF12530065006300750072006900740079002000450071007500690070006D0065006E00740000
310
0000000000FFFEFF01480002000000FFFEFF1248006F00730070006900740061006C002000450071007500690070006D0065006E007400000000000000FFFEFF014A0002000000FFFEFF18450071007500690070006D0065006E007400200028005500730065007200200044006500660069006E0065006400290000000000
310
0000FFFEFF014B0002000000FFFEFF18450071007500690070006D0065006E007400200028005500730065007200200044006500660069006E00650064002900000000000000FFFEFF014C0002000000FFFEFF144C00610062006F007200610074006F00720079002000450071007500690070006D0065006E007400000000
310
000000FFFEFF014D0002000000FFFEFF154D00610069006E00740065006E0061006E00630065002000450071007500690070006D0065006E007400000000000000FFFEFF01500002000000FFFEFF155000610072006B0069006E00670020004C006F0074002000450071007500690070006D0065006E007400000000000000
310
FFFEFF01520002000000FFFEFF10520065007400610069006C002000450071007500690070006D0065006E007400000000000000FFFEFF01410002000000FFFEFF124100740068006C0065007400690063002000450071007500690070006D0065006E007400000000000000FFFEFF01530002000000FFFEFF0E5300690074
310
0065002000450071007500690070006D0065006E007400000000000000FFFEFF01420002000000FFFEFF0E420061006E006B002000450071007500690070006D0065006E007400000000000000FFFEFF01540002000000FFFEFF145400680065006100740072006900630061006C002000450071007500690070006D006500
310
6E007400000000000000FFFEFF01430002000000FFFEFF16440072007900200043006C00650061006E0069006E0067002000450071007500690070006D0065006E00740000000000000000000000FFFEFF01410002000000FFFEFF0D4100720063006800690074006500630074007500720061006C000A00FFFEFF01440002
310
000000FFFEFF184100720063006800690074006500630074007500720061006C002000440065006D006F006C006900740069006F006E00000000000000FFFEFF01450002000000FFFEFF164100720063006800690074006500630074007500720061006C00200045006C0065006D0065006E0074007300000000000000FFFE
310
FF01460002000000FFFEFF164100720063006800690074006500630074007500720061006C002000460069006E0069007300680065007300000000000000FFFEFF01470002000000FFFEFF164100720063006800690074006500630074007500720061006C00200047007200610070006800690063007300000000000000FF
310
FEFF01490002000000FFFEFF164100720063006800690074006500630074007500720061006C00200049006E0074006500720069006F007200000000000000FFFEFF014A0002000000FFFEFF1C4100720063006800690074006500630074007500720061006C00200028005500730065007200200044006500660069006E00
310
650064002900000000000000FFFEFF014B0002000000FFFEFF1C4100720063006800690074006500630074007500720061006C00200028005500730065007200200044006500660069006E00650064002900000000000000FFFEFF01500002000000FFFEFF144100720063006800690074006500630074007500720061006C
310
00200050006100760069006E006700000000000000FFFEFF01530002000000FFFEFF124100720063006800690074006500630074007500720061006C0020005300690074006500000000000000FFFEFF01540002000000FFFEFF1C4100720063006800690074006500630074007500720061006C0020005400720061006E00
310
730070006F00720074006100740069006F006E0000000000000001000000FFFEFF01520002000000FFFEFF085200650073006F0075007200630065000700FFFEFF01450002000000FFFEFF135200650073006F007500720063006500200045006C0065006300740072006900630061006C00000000000000FFFEFF014A0002
310
000000FFFEFF175200650073006F007500720063006500200028005500730065007200200044006500660069006E00650064002900000000000000FFFEFF014B0002000000FFFEFF175200650073006F007500720063006500200028005500730065007200200044006500660069006E00650064002900000000000000FFFE
310
FF014D0002000000FFFEFF135200650073006F00750072006300650020004D0065006300680061006E006900630061006C00000000000000FFFEFF01410002000000FFFEFF165200650073006F00750072006300650020004100720063006800690074006500630074007500720061006C00000000000000FFFEFF01530002
310
000000FFFEFF135200650073006F00750072006300650020005300740072007500630074007500720061006C00000000000000FFFEFF01430002000000FFFEFF0E5200650073006F007500720063006500200043006900760069006C0000000000000000000000FFFEFF01420002000000FFFEFF0C470065006F0074006500
310
630068006E006900630061006C000200FFFEFF014A0002000000FFFEFF1B470065006F0074006500630068006E006900630061006C00200028005500730065007200200044006500660069006E00650064002900000000000000FFFEFF014B0002000000FFFEFF1B470065006F0074006500630068006E006900630061006C
310
00200028005500730065007200200044006500660069006E0065006400290000000000000000000000FFFEFF01530002000000FFFEFF0A5300740072007500630074007500720061006C000600FFFEFF01440002000000FFFEFF155300740072007500630074007500720061006C002000440065006D006F006C0069007400
310
69006F006E00000000000000FFFEFF01460002000000FFFEFF125300740072007500630074007500720061006C0020004600720061006D0069006E006700000000000000FFFEFF014A0002000000FFFEFF195300740072007500630074007500720061006C00200028005500730065007200200044006500660069006E0065
310
0064002900000000000000FFFEFF014B0002000000FFFEFF195300740072007500630074007500720061006C00200028005500730065007200200044006500660069006E00650064002900000000000000FFFEFF01530002000000FFFEFF0F5300740072007500630074007500720061006C00200053006900740065000000
310
00000000FFFEFF01420002000000FFFEFF175300740072007500630074007500720061006C00200053007500620073007400720075006300740075007200650000000000000000000000FFFEFF01430002000000FFFEFF0543006900760069006C000900FFFEFF01440002000000FFFEFF1043006900760069006C00200044
310
0065006D006F006C006900740069006F006E00000000000000FFFEFF01550002000000FFFEFF0F43006900760069006C0020005500740069006C0069007400690065007300000000000000FFFEFF01470002000000FFFEFF0D43006900760069006C002000470072006100640069006E006700000000000000FFFEFF014900
310
02000000FFFEFF1243006900760069006C00200049006D00700072006F00760065006D0065006E0074007300000000000000FFFEFF014A0002000000FFFEFF1443006900760069006C00200028005500730065007200200044006500660069006E00650064002900000000000000FFFEFF014B0002000000FFFEFF14430069
310
00760069006C00200028005500730065007200200044006500660069006E00650064002900000000000000FFFEFF01500002000000FFFEFF0C43006900760069006C00200050006100760069006E006700000000000000FFFEFF01530002000000FFFEFF0A43006900760069006C0020005300690074006500000000000000
310
FFFEFF01540002000000FFFEFF1443006900760069006C0020005400720061006E00730070006F00720074006100740069006F006E0000000000000000000000FFFEFF01540002000000FFFEFF12540065006C00650063006F006D006D0075006E00690063006100740069006F006E0073000900FFFEFF01590002000000FF
310
FEFF0853006500630075007200690074007900000000000000FFFEFF01490002000000FFFEFF0849006E0074006500720063006F006D00000000000000FFFEFF014A0002000000FFFEFF21540065006C00650063006F006D006D0075006E00690063006100740069006F006E00730020002800550073006500720020004400
310
6500660069006E00650064002900000000000000FFFEFF014B0002000000FFFEFF21540065006C00650063006F006D006D0075006E00690063006100740069006F006E007300200028005500730065007200200044006500660069006E00650064002900000000000000FFFEFF014D0002000000FFFEFF0A4D006F006E0069
310
0074006F00720069006E006700000000000000FFFEFF014E0002000000FFFEFF0D440061007400610020004E006500740077006F0072006B007300000000000000FFFEFF01410002000000FFFEFF0E41007500640069006F0020002F002000560069007300750061006C00000000000000FFFEFF01540002000000FFFEFF09
310
540065006C006500700068006F006E006500000000000000FFFEFF01430002000000FFFEFF1143006C006F0063006B00200061006E0064002000500072006F006700720061006D00000000000000000000000180FFFEFF054D0061006A006F0072000300000000000000000000000000000000000000000000000000000000
310
000000FFFEFF002300FFFEFF052D0046006C006F00720002000000FFFEFF0546006C006F006F007200000000000000FFFEFF052D004500710070006D0002000000FFFEFF09450071007500690070006D0065006E007400000000000000FFFEFF052D00530069007400650002000000FFFEFF09530069007400650020007000
310
6C0061006E00000000000000FFFEFF052D0050006C0061006E0002000000FFFEFF154B0065007900200070006C0061006E002000280066006C006F006F007200200070006C0061006E002900000000000000FFFEFF052D004400650074006C0002000000FFFEFF06440065007400610069006C00000000000000FFFEFF052D
310
0054006F0070006F0002000000FFFEFF0A54006F0070006F00670072006100700068007900000000000000FFFEFF052D004300740072006C0002000000FFFEFF0E43006F006E00740072006F006C00200050006F0069006E0074007300000000000000FFFEFF052D004600750072006E0002000000FFFEFF0B460075007200
310
6E0069007300680069006E0067007300000000000000FFFEFF052D0053006C006100620002000000FFFEFF0553006C00610062007300000000000000FFFEFF052D0050006F006C00790002000000FFFEFF0850006F006C00790067006F006E007300000000000000FFFEFF052D0043006F006D006D0002000000FFFEFF1254
310
0065006C00650063006F006D006D0075006E00690063006100740069006F006E007300000000000000FFFEFF052D00570061006C006C0002000000FFFEFF05570061006C006C007300000000000000FFFEFF052D0047006C0061007A0002000000FFFEFF0747006C0061007A0069006E006700000000000000FFFEFF052D00
310
410072006500610002000000FFFEFF044100720065006100000000000000FFFEFF052D0043006F006400650002000000FFFEFF1443006F0064006500200063006F006D0070006C00690061006E0063006500200070006C0061006E00000000000000FFFEFF052D005300740072006D0002000000FFFEFF0844007200610069
310
006E00610067006500000000000000FFFEFF052D0044006F006F00720002000000FFFEFF0544006F006F0072007300000000000000FFFEFF052D0041006E006E006F0002000000FFFEFF0A41006E006E006F0074006100740069006F006E00000000000000FFFEFF052D004200650061006D0002000000FFFEFF0542006500
310
61006D007300000000000000FFFEFF052D004C0069007400650002000000FFFEFF114C00690067006800740069006E006700200066006900780074007500720065007300000000000000FFFEFF052D00480056004100430002000000FFFEFF044800560041004300000000000000FFFEFF052D004100630063007300020000
310
00FFFEFF0B410063006300650073007300200070006C0061006E00000000000000FFFEFF052D0043006F006C00730002000000FFFEFF0743006F006C0075006D006E007300000000000000FFFEFF052D0043006C006E00670002000000FFFEFF074300650069006C0069006E006700000000000000FFFEFF052D0045007600
310
6100630002000000FFFEFF0F450076006100630075006100740069006F006E00200070006C0061006E00000000000000FFFEFF052D0043006F006E00760002000000FFFEFF1143006F006E0076006500790069006E0067002000730079007300740065006D007300000000000000FFFEFF052D005300650063007400020000
310
00FFFEFF07530065006300740069006F006E00000000000000FFFEFF052D00500072006F00700002000000FFFEFF08500072006F0070006500720074007900000000000000FFFEFF052D0052006F006F00660002000000FFFEFF0452006F006F006600000000000000FFFEFF052D0045006C006500630002000000FFFEFF0A
310
45006C0065006300740072006900630061006C00000000000000FFFEFF052D00470072006900640002000000FFFEFF0A470072006900640020006C0069006E0065007300000000000000FFFEFF052D00540069006E006E0002000000FFFEFF1E54007200690061006E00670075006C00610074006500640020006900720072
310
006500670075006C006100720020006E006500740077006F0072006B00000000000000FFFEFF052D00500072006F00740002000000FFFEFF1646006900720065002000700072006F00740065006300740069006F006E002000730079007300740065006D00000000000000FFFEFF052D00460069007200650002000000FFFE
310
FF1446006900720065002000700072006F00740065006300740069006F006E00200070006C0061006E00000000000000FFFEFF052D0045006C006500760002000000FFFEFF0945006C00650076006100740069006F006E000000000000000180FFFEFF074D0069006E006F00720020003100040000000000000000F00E7704
310
00000000000000000000000000000000F00000FFFEFF006A00FFFEFF052D00410062006F00760002000000FFFEFF0E45006C0065006D0065006E00740073002000610062006F0076006500000000000000FFFEFF052D005400610062006C0002000000FFFEFF0B440061007400610020007400610062006C00650073000000
310
00000000FFFEFF052D00420064007200790002000000FFFEFF0842006F0075006E006400610072007900000000000000FFFEFF052D004500710070006D0002000000FFFEFF09450071007500690070006D0065006E007400000000000000FFFEFF052D0043006E007400720002000000FFFEFF0A430065006E007400650072
310
006C0069006E006500000000000000FFFEFF052D0057006B007300660002000000FFFEFF1E530079007300740065006D00200077006F0072006B0020007300750072006600610063006500200063006F006D0070006F006E0065006E0074007300000000000000FFFEFF052D00420072006E00670002000000FFFEFF1A4200
310
65006100720069006E0067007300200026002000640069007300740061006E006300650020006C006100620065006C007300000000000000FFFEFF052D00530077006300680002000000FFFEFF0853007700690074006300680065007300000000000000FFFEFF052D005400680069006E0002000000FFFEFF195400680069
310
006E0020007700650069006700680074002000670072006100700068006900630020006C0069006E0065007300000000000000FFFEFF052D00520061006900730002000000FFFEFF06520061006900730065006400000000000000FFFEFF052D004F00700065006E0002000000FFFEFF084F00700065006E0069006E006700
310
7300000000000000FFFEFF052D004E0070006C00740002000000FFFEFF204E006F006E002D0070006C006F007400740069006E00670020006700720061007000680069006300200069006E0066006F0072006D006100740069006F006E00000000000000FFFEFF052D00500072006F00660002000000FFFEFF08500072006F
310
00660069006C0065007300000000000000FFFEFF052D005200650066006C0002000000FFFEFF0E5200650066006C0065006300740065006400200050006C0061006E00000000000000FFFEFF052D00460069006E00650002000000FFFEFF19460069006E006500200077006500690067006800740020006700720061007000
310
68006900630020006C0069006E0065007300000000000000FFFEFF052D004100700070006C0002000000FFFEFF0A4100700070006C00690061006E00630065007300000000000000FFFEFF052D00440069006D00730002000000FFFEFF0A440069006D0065006E00730069006F006E007300000000000000FFFEFF052D0050
310
006F007700720002000000FFFEFF0550006F00770065007200000000000000FFFEFF052D0053006C006100620002000000FFFEFF0553006C00610062007300000000000000FFFEFF052D0043006F006E006E0002000000FFFEFF0B43006F006E006E0065006300740069006F006E007300000000000000FFFEFF052D005700
310
61006C006C0002000000FFFEFF05570061006C006C007300000000000000FFFEFF052D004100730073006D0002000000FFFEFF0A41007300730065006D0062006C00690065007300000000000000FFFEFF052D005600680063006C0002000000FFFEFF08560065006800690063006C0065007300000000000000FFFEFF052D
310
0043006F006D006D0002000000FFFEFF1A540065006C006500700068006F006E0065002C00200063006F006D006D0075006E00690063006100740069006F006E0073002000000000000000FFFEFF052D00460072006500650002000000FFFEFF0C46007200650065007300740061006E00640069006E006700000000000000
310
FFFEFF052D00530079006D00620002000000FFFEFF07530079006D0062006F006C007300000000000000FFFEFF052D00520064006D00650002000000FFFEFF1B52006500610064002D006D00650020006C006100790065007200200028006E006F007400200070006C006F0074007400650064002900000000000000FFFEFF
310
052D0053006C006300650002000000FFFEFF0653006C006900630065007300000000000000FFFEFF052D00460061007300630002000000FFFEFF074600610073006300690061007300000000000000FFFEFF052D00460069006C00650002000000FFFEFF0D460069006C006500200063006100620069006E00650074007300
310
000000000000FFFEFF052D004D00610073006B0002000000FFFEFF1241004400540020004D00610073006B0069006E00670020004F0062006A00650063007400000000000000FFFEFF052D004A0061006D00620002000000FFFEFF1544006F006F007200200061006E0064002000770069006E0064006F00770020006A0061
310
006D0062007300000000000000FFFEFF052D005300690067006E0002000000FFFEFF055300690067006E007300000000000000FFFEFF052D0046006E007300680002000000FFFEFF08460069006E0069007300680065007300000000000000FFFEFF052D00530063006800640002000000FFFEFF0953006300680065006400
310
75006C0065007300000000000000FFFEFF052D00500072006800740002000000FFFEFF0E5000610072007400690061006C002000680065006900670068007400000000000000FFFEFF052D00470072007000730002000000FFFEFF06470072006F00750070007300000000000000FFFEFF052D00540068006C006400020000
310
00FFFEFF0A5400680072006500730068006F006C0064007300000000000000FFFEFF052D005300630072006E0002000000FFFEFF14530063007200650065006E006500640020004200610063006B00670072006F0075006E0064007300000000000000FFFEFF052D0043006F006D00700002000000FFFEFF1349006E007400
310
650072006E0061006C00200063006F006D0070006F006E0065006E0074007300000000000000FFFEFF052D005400690074006C0002000000FFFEFF18440072006100770069006E00670020006F0072002000640065007400610069006C0020007400690074006C0065007300000000000000FFFEFF052D0054006500780074
310
0002000000FFFEFF045400650078007400000000000000FFFEFF052D004D00610072006B0002000000FFFEFF1D4D00610072006B006500720073002C00200062007200650061006B0020006D00610072006B0073002C0020006C00650061006400650072007300000000000000FFFEFF052D00460075006C006C0002000000
310
FFFEFF0B460075006C006C002D00680065006900670068007400000000000000FFFEFF052D00450076007400720002000000FFFEFF1B45006C0065007600610074006F00720020006300610072007300200061006E0064002000650071007500690070006D0065006E007400000000000000FFFEFF052D0053007000630065
310
0002000000FFFEFF0553007000610063006500000000000000FFFEFF052D00530075007300700002000000FFFEFF12530075007300700065006E00640065006400200065006C0065006D0065006E0074007300000000000000FFFEFF052D00540065006500730002000000FFFEFF094D00610069006E002000740065006500
310
7300000000000000FFFEFF052D00460069007800740002000000FFFEFF1170006C0075006D00620069006E006700200066006900780074007500720065007300000000000000FFFEFF052D00520065006600720002000000FFFEFF195200650066006500720065006E00630065002C002000650078007400650072006E0061
310
006C002000660069006C0065007300000000000000FFFEFF052D004C00610062006C0002000000FFFEFF064C006100620065006C007300000000000000FFFEFF052D004C0069007400650002000000FFFEFF084C00690067006800740069006E006700000000000000FFFEFF052D00480065007600790002000000FFFEFF1A
310
4800650061007600790020007700650069006700680074002000670072006100700068006900630020006C0069006E0065007300000000000000FFFEFF052D00480065006100640002000000FFFEFF1744006F006F007200200061006E0064002000770069006E0064006F0077002000680065006100640065007200730000
310
0000000000FFFEFF052D004C00650067006E0002000000FFFEFF144C006500670065006E00640073002C002000530079006D0062006F006C0020006B00650079007300000000000000FFFEFF052D004B00650079006E0002000000FFFEFF084B00650079006E006F00740065007300000000000000FFFEFF052D0046006900
310
7800640002000000FFFEFF0F460069007800650064002000650071007500690070006D0065006E007400000000000000FFFEFF052D004C00650076006C0002000000FFFEFF274C006500760065006C0020006300680061006E006700650073002C002000720061006D00700073002C00200070006900740073002C00200064
310
0065007000720065007300730069006F006E007300000000000000FFFEFF052D004D00650064006D0002000000FFFEFF1B4D0065006400690075006D0020007700650069006700680074002000670072006100700068006900630020006C0069006E0065007300000000000000FFFEFF052D0042006C006F00770002000000
310
FFFEFF0E45006C0065006D0065006E00740073002000620065006C006F007700000000000000FFFEFF052D00410063006300730002000000FFFEFF06410063006300650073007300000000000000FFFEFF052D004F0063006300700002000000FFFEFF1A4F00630063007500700061006E00740020006F007200200065006D
310
0070006C006F0079006500650020006E0061006D0065007300000000000000FFFEFF052D00430061007300650002000000FFFEFF08430061007300650077006F0072006B00000000000000FFFEFF052D00520065007600730002000000FFFEFF095200650076006900730069006F006E007300000000000000FFFEFF052D00
310
420072006300650002000000FFFEFF06420072006100630065007300000000000000FFFEFF052D00480069006400650002000000FFFEFF0E480069006400640065006E0020006F0062006A006500630074007300000000000000FFFEFF052D0043006C006E00670002000000FFFEFF074300650069006C0069006E00670000
310
0000000000FFFEFF052D005500740069006C0002000000FFFEFF095500740069006C0069007400690065007300000000000000FFFEFF052D00500061007400740002000000FFFEFF19540065007800740075007200650020006F00720020006800610074006300680020007000610074007400650072006E00730000000000
310
0000FFFEFF052D00430061007600690002000000FFFEFF06430061007600690074007900000000000000FFFEFF052D0050006C006E00740002000000FFFEFF0650006C0061006E0074007300000000000000FFFEFF052D00530074007200730002000000FFFEFF215300740061006900720020007400720065006100640073
310
002C00200065007300630061006C00610074006F00720073002C0020006C00610064006400650072007300000000000000FFFEFF052D00520065007600630002000000FFFEFF0F5200650076006900730069006F006E00200063006C006F00750064007300000000000000FFFEFF052D004D006F007600650002000000FFFE
310
FF124D006F0076006500610062006C0065002000650071007500690070006D0065006E007400000000000000FFFEFF052D005000650070006C0002000000FFFEFF06500065006F0070006C006500000000000000FFFEFF052D00440065006D006F0002000000FFFEFF0A440065006D006F006C006900740069006F006E0000
310
0000000000FFFEFF052D00430075007200740002000000FFFEFF0C4300750072007400610069006E002000570061006C006C00000000000000FFFEFF052D005700640077006B0002000000FFFEFF164100720063006800690074006500630074007500720061006C00200077006F006F00640077006F0072006B0000000000
310
0000FFFEFF052D004E006F007400650002000000FFFEFF054E006F00740065007300000000000000FFFEFF052D004F0076006800640002000000FFFEFF084F007600650072006800650061006400000000000000FFFEFF052D00530075006200740002000000FFFEFF14530075006200740072006100630074006900760065
310
00200065006C0065006D0065006E0074007300000000000000FFFEFF052D00530044004600460002000000FFFEFF1053007500700070006C0079002000640069006600660075007300650072007300000000000000FFFEFF052D00530074006F00720002000000FFFEFF19530079007300740065006D002000730074006F00
310
7200610067006500200063006F006D0070006F006E0065006E0074007300000000000000FFFEFF052D004900640065006E0002000000FFFEFF134900640065006E00740069006600690063006100740069006F006E0020005400610067007300000000000000FFFEFF052D004800720061006C0002000000FFFEFF16480061
310
006E0064007200610069006C0073002C0020006700750061007200640020007200610069006C007300000000000000FFFEFF052D00570069006400650002000000FFFEFF19570069006400650020007700650069006700680074002000670072006100700068006900630020006C0069006E0065007300000000000000FFFE
310
FF052D004D0061007300730002000000FFFEFF104D0061007300730069006E006700200045006C0065006D0065006E0074007300000000000000FFFEFF052D004C0069006E00650002000000FFFEFF0D44006500660069006E0069006E00670020004C0069006E006500000000000000FFFEFF052D00560069006500770002
310
000000FFFEFF13560069006500770070006F0072007400200044006500660069006E006900740069006F006E00000000000000FFFEFF052D0050006B006E00670002000000FFFEFF075000610072006B0069006E006700000000000000FFFEFF052D00520044004600460002000000FFFEFF14520065007400750072006E00
310
20006100690072002000640069006600660075007300650072007300000000000000FFFEFF052D00530065006100740002000000FFFEFF07530065006100740069006E006700000000000000FFFEFF052D0050006E006C00730002000000FFFEFF0D530079007300740065006D002000700061006E0065006C007300000000
310
000000FFFEFF052D004D0061007400630002000000FFFEFF0B4D00610074006300680020006C0069006E0065007300000000000000FFFEFF052D00410064007400760002000000FFFEFF1141006400640069007400690076006500200065006C0065006D0065006E0074007300000000000000FFFEFF052D00430068006100
310
730002000000FFFEFF0543006800610073006500000000000000FFFEFF052D005300700063006C0002000000FFFEFF0B5300700065006300690061006C007400690065007300000000000000FFFEFF052D00470072006900640002000000FFFEFF044700720069006400000000000000FFFEFF052D004E00690063006E0002
310
000000FFFEFF0F4E006F007400200069006E00200063006F006E0074007200610063007400000000000000FFFEFF052D004D0063007500740002000000FFFEFF164D00610069006E00200063007500740020006C0069006E006500200065006C0065006D0065006E0074007300000000000000FFFEFF052D00460069007200
310
650002000000FFFEFF0A46006900720065002000770061006C006C007300000000000000FFFEFF052D00530069006C006C0002000000FFFEFF0C570069006E0064006F0077002000730069006C006C007300000000000000FFFEFF052D005400700074006E0002000000FFFEFF1154006F0069006C00650074002000700061
310
00720074006900740069006F006E007300000000000000FFFEFF052D00520069007300720002000000FFFEFF0C530074006100690072002000720069007300650072007300000000000000FFFEFF052D004F0074006C006E0002000000FFFEFF074F00750074006C0069006E006500000000000000FFFEFF052D0054007400
310
6C00620002000000FFFEFF1642006F007200640065007200200061006E00640020007400690074006C006500200062006C006F0063006B000000000000000180FFFEFF074D0069006E006F0072002000320005000000004164642062656C6F77207468652073656C6563746564206974656DFFFEFF001600FFFEFF052D0041
310
0062006F00760002000000FFFEFF0E45006C0065006D0065006E00740073002000610062006F0076006500000000000000FFFEFF052D00420064007200790002000000FFFEFF0D4500640067006500200062006F0075006E006400610072007900000000000000FFFEFF052D005400680069006E0002000000FFFEFF0E4D00
310
69006E006F00720020006C0069006E00650077006F0072006B00000000000000FFFEFF052D004E0070006C00740002000000FFFEFF154E006F006E002D0070006C006F007400740069006E006700200065006C0065006D0065006E0074007300000000000000FFFEFF052D005200650066006C0002000000FFFEFF0F520065
310
0066006C0065006300740065006400200050006C0061006E007300000000000000FFFEFF052D00440069006D00730002000000FFFEFF0A440069006D0065006E00730069006F006E007300000000000000FFFEFF052D005300630061006C0002000000FFFEFF10470072006100700068006900630061006C00200053006300
310
61006C0065007300000000000000FFFEFF052D0053006C006300650002000000FFFEFF0653006C006900630065007300000000000000FFFEFF052D0047006C0061007A0002000000FFFEFF0747006C0061007A0069006E006700000000000000FFFEFF052D00460061007300630002000000FFFEFF06460061007300630069
310
006100000000000000FFFEFF052D00470072007000730002000000FFFEFF06470072006F00750070007300000000000000FFFEFF052D005400690074006C0002000000FFFEFF065400690074006C0065007300000000000000FFFEFF052D00530066006900740002000000FFFEFF0653006F00660066006900740000000000
310
0000FFFEFF052D00500061007400740002000000FFFEFF0E4800610074006300680020007000610074007400650072006E007300000000000000FFFEFF052D00480069006400650002000000FFFEFF0F480069006400640065006E00200065006C0065006D0065006E0074007300000000000000FFFEFF052D004E006F0074
310
00650002000000FFFEFF16470065006E006500720061006C0020005400650078007400200061006E00640020004E006F00740065007300000000000000FFFEFF052D0055006E006900740002000000FFFEFF0455006E0069007400000000000000FFFEFF052D004900640065006E0002000000FFFEFF0A4900640065006E00
310
740069006600690065007200000000000000FFFEFF052D004C0069006E00650002000000FFFEFF10470065006E006500720061006C0020006C0069006E00650077006F0072006B00000000000000FFFEFF052D00530069006C006C0002000000FFFEFF05530069006C006C007300000000000000FFFEFF052D005200690073
310
00720002000000FFFEFF06520069007300650072007300000000000000FFFEFF052D004F0074006C006E0002000000FFFEFF074F00750074006C0069006E0065000000000000000180FFFEFF06530074006100740075007300060000000000000000A434770470040000B10000005073770400000000050000FFFEFF000F00
310
FFFEFF022D00310002000000FFFEFF075000680061007300650020003100000000000000FFFEFF022D00320002000000FFFEFF075000680061007300650020003200000000000000FFFEFF022D00540002000000FFFEFF0E540065006D0070006F007200610072007900200077006F0072006B00000000000000FFFEFF022D
310
00330002000000FFFEFF075000680061007300650020003300000000000000FFFEFF022D00440002000000FFFEFF144500780069007300740069006E006700200074006F002000640065006D006F006C00690073006800000000000000FFFEFF022D00340002000000FFFEFF07500068006100730065002000340000000000
310
0000FFFEFF022D00450002000000FFFEFF124500780069007300740069006E006700200074006F002000720065006D00610069006E00000000000000FFFEFF022D00350002000000FFFEFF075000680061007300650020003500000000000000FFFEFF022D00460002000000FFFEFF0B460075007400750072006500200077
310
006F0072006B00000000000000FFFEFF022D00360002000000FFFEFF075000680061007300650020003600000000000000FFFEFF022D00370002000000FFFEFF075000680061007300650020003700000000000000FFFEFF022D00380002000000FFFEFF075000680061007300650020003800000000000000FFFEFF022D00
310
390002000000FFFEFF075000680061007300650020003900000000000000FFFEFF022D004D0002000000FFFEFF114900740065006D007300200074006F0020006200650020006D006F00760065006400000000000000FFFEFF022D004E0002000000FFFEFF084E0065007700200077006F0072006B000000000000000600FF
310
FF04001A004163416563556B4C61796572436F6D706F6E656E744669656C64FFFEFF174400690073006300690070006C0069006E0065002000440065007300690067006E00610074006F0072002000310001000000FFFEFF0440002C0040004000000000000100000000FFFEFF014100000000000780FFFEFF174400690073
310
006300690070006C0069006E0065002000440065007300690067006E00610074006F0072002000320001000000FFFEFF0440002C0040004000010000000100000000FFFEFF014400000000000780FFFEFF054D0061006A006F00720005000000FFFEFF052D00400040004000400000000000010000002DFFFEFF052D005700
310
61006C006C00000000000780FFFEFF064D0069006E006F007200310005000000FFFEFF022D002A0001000000010000002DFFFEFF052D004900640065006E00000000000780FFFEFF064D0069006E006F007200320005000000FFFEFF022D002A0001000000010000002DFFFEFF052D005400650078007400000000000780FF
310
FEFF0653007400610074007500730002000000FFFEFF022D002A0001000000010000002DFFFEFF022D004E0000000000050000010203040500FFFEFF00FFFEFF0320002D002000FFFEFF022C002000FFFEFF012000FFFEFF0320002D002000FFFEFF00
  0
XRECORD
  5
18890
102
{ACAD_REACTORS
330
1888F
102
}
330
1888F
100
AcDbXrecord
280
     1
102
SHADEPLOT
 70
     0
102
SHADEPLOTRESLEVEL
 70
     2
102
SHADEPLOTCUSTOMDPI
 70
   300
  0
XRECORD
  5
1888E
102
{ACAD_REACTORS
330
1888D
102
}
330
1888D
100
AcDbXrecord
280
     1
102
SHADEPLOT
 70
     1
102
SHADEPLOTRESLEVEL
 70
     2
102
SHADEPLOTCUSTOMDPI
 70
   300
  0
XRECORD
  5
18895
102
{ACAD_REACTORS
330
18894
102
}
330
18894
100
AcDbXrecord
280
     1
102
MATERIAL
148
0.0
149
0.0
149
0.0
 93
        0
 94
       63
282
     0
 72
     1
 77
     1
171
     1
175
     1
179
     1
273
     0
  0
XRECORD
  5
18893
102
{ACAD_REACTORS
330
18892
102
}
330
18892
100
AcDbXrecord
280
     1
102
MATERIAL
148
0.0
149
0.0
149
0.0
 93
        0
 94
       63
282
     0
 72
     1
 77
     1
171
     1
175
     1
179
     1
273
     0
  0
XRECORD
  5
18898
102
{ACAD_REACTORS
330
139CD
102
}
330
139CD
100
AcDbXrecord
280
     1
102
MATERIAL
148
0.0
149
0.0
149
0.0
 93
        0
 94
       63
282
     0
 72
     1
 77
     1
171
     1
175
     1
179
     1
273
     1
  0
XRECORD
  5
139CE
102
{ACAD_REACTORS
330
139CD
102
}
330
139CD
100
AcDbXrecord
280
     1
300
<Material id="{99120C30-EB7F-4CE3-A8EC-E4A5AC8B9576}" app="3DSVIZ">^M^J^I<LinearUnits unitType="m" unitScale="1.0"/>^M^J^I<ArchitecturalMaterial name="General.Chip">^M^J^I^I<ArchTemplateParameters name="Paper" classid_A="1901925249" classid_B="1933333956">^M^J^I^I^I<Arc
300
hShaderType type="Phong"/>^M^J^I^I^I<ArchReflectivity>^M^J^I^I^I^I<RGBf r="0.65" g="0.65" b="0.65"/>^M^J^I^I^I</ArchReflectivity>^M^J^I^I^I<ArchMinReflectivity>0.3</ArchMinReflectivity>^M^J^I^I^I<ArchMaxReflectivity>0.7</ArchMaxReflectivity>^M^J^I^I^I<ArchShininess>0.0</ArchShininess>^M
300
^J^I^I^I<ArchMinShininess>0.0</ArchMinShininess>^M^J^I^I^I<ArchMaxShinness>1.0</ArchMaxShinness>^M^J^I^I^I<ArchTransparency>0.0</ArchTransparency>^M^J^I^I^I<ArchMinTransparency>0.0</ArchMinTransparency>^M^J^I^I^I<ArchMaxTransparency>0.0</ArchMaxTransparency>^M^J^I^I^I<ArchIndexOfRefr
300
action>1.0</ArchIndexOfRefraction>^M^J^I^I^I<ArchMinIndexOfRefraction>1.0</ArchMinIndexOfRefraction>^M^J^I^I^I<ArchMaxIndexOfRefraction>1.0</ArchMaxIndexOfRefraction>^M^J^I^I^I<ArchSetParameters>1</ArchSetParameters>^M^J^I^I</ArchTemplateParameters>^M^J^I^I<ArchMatParameters>^M^J
300
^I^I^I<ArchDiffuseColor>^M^J^I^I^I^I<RGBf r="0.647059" g="0.639216" b="0.6"/>^M^J^I^I^I</ArchDiffuseColor>^M^J^I^I^I<ArchIndexOfRefraction>1.0</ArchIndexOfRefraction>^M^J^I^I^I<ArchTwoSided>0</ArchTwoSided>^M^J^I^I^I<ArchEmitLuminance>0</ArchEmitLuminance>^M^J^I^I^I<ArchColorBleedScale>1.
300
0</ArchColorBleedScale>^M^J^I^I^I<ArchReflectanceScale>1.0</ArchReflectanceScale>^M^J^I^I^I<ArchIndirectBumpAmount>1.0</ArchIndirectBumpAmount>^M^J^I^I^I<ArchTransmittanceScale>1.0</ArchTransmittanceScale>^M^J^I^I^I<ArchUseTextureSize>1</ArchUseTextureSize>^M^J^I^I^I<ArchTextureW
300
idth>40.0</ArchTextureWidth>^M^J^I^I^I<ArchTextureHeight>40.0</ArchTextureHeight>^M^J^I^I^I<ArchTextureUOffset>0.0</ArchTextureUOffset>^M^J^I^I^I<ArchTextureVOffset>0.0</ArchTextureVOffset>^M^J^I^I^I<ArchDiffuseAmount>1.0</ArchDiffuseAmount>^M^J^I^I^I<ArchShininess>0.0</ArchShini
300
ness>^M^J^I^I^I<ArchTransparency>0.0</ArchTransparency>^M^J^I^I^I<ArchLuminance>0.0</ArchLuminance>^M^J^I^I^I<ArchBumpMapAmount>0.15</ArchBumpMapAmount>^M^J^I^I^I<ArchCutoutMapAmount>1.0</ArchCutoutMapAmount>^M^J^I^I^I<ArchDisplayMapInViewport>0</ArchDisplayMapInViewport>^M^J^I^I</Ar
300
chMatParameters>^M^J^I^I<MapSet>^M^J^I^I^I<MapLib>^M^J^I^I^I^I<TextureMap name="Map #8" id="{EBBA9041-9C68-43B4-A7A8-66E4230A8BCD}">^M^J^I^I^I^I^I<DisplayMapInViewport>0</DisplayMapInViewport>^M^J^I^I^I^I^I<BitmapMap>^M^J^I^I^I^I^I^I<TexMapCoords2d>^M^J^I^I^I^I^I^I^I<TextureCoords>^M^J^I^I^I^I^I^I^I^I<Explicit
300
MapChannel CoordPlane="uv">^M^J^I^I^I^I^I^I^I^I^I<MapChannel>1</MapChannel>^M^J^I^I^I^I^I^I^I^I^I<UCoords>^M^J^I^I^I^I^I^I^I^I^I^I<OffsetCoord>19.5</OffsetCoord>^M^J^I^I^I^I^I^I^I^I^I^I<TilingCoord>0.025</TilingCoord>^M^J^I^I^I^I^I^I^I^I^I^I<TextureTiling Tiling="tile"/>^M^J^I^I^I^I^I^I^I^I^I</UCoords>^M^J^I^I^I^I^I^I^I^I^I<VCoords>^M
300
^J^I^I^I^I^I^I^I^I^I^I<OffsetCoord>19.5</OffsetCoord>^M^J^I^I^I^I^I^I^I^I^I^I<TilingCoord>0.025</TilingCoord>^M^J^I^I^I^I^I^I^I^I^I^I<TextureTiling Tiling="tile"/>^M^J^I^I^I^I^I^I^I^I^I</VCoords>^M^J^I^I^I^I^I^I^I^I^I<Angles>^M^J^I^I^I^I^I^I^I^I^I^I<UAngle>0.0</UAngle>^M^J^I^I^I^I^I^I^I^I^I^I<VAngle>0.0</VAngle>^M^J^I^I^I^I^I^I^I^I^I^I<WAngle>0.0
300
</WAngle>^M^J^I^I^I^I^I^I^I^I^I</Angles>^M^J^I^I^I^I^I^I^I^I^I<Blur>1.0</Blur>^M^J^I^I^I^I^I^I^I^I^I<BlurOffset>0.0</BlurOffset>^M^J^I^I^I^I^I^I^I^I</ExplicitMapChannel>^M^J^I^I^I^I^I^I^I</TextureCoords>^M^J^I^I^I^I^I^I</TexMapCoords2d>^M^J^I^I^I^I^I^I<TexMapNoise>^M^J^I^I^I^I^I^I^I<NoiseAmount>1.0</NoiseAmount>^M^J^I^I^I^I^I^I^I<NoiseLeve
300
ls>1</NoiseLevels>^M^J^I^I^I^I^I^I^I<NoiseSize>1.0</NoiseSize>^M^J^I^I^I^I^I^I^I<NoisePhase>0.0</NoisePhase>^M^J^I^I^I^I^I^I</TexMapNoise>^M^J^I^I^I^I^I^I<BitmapParameters>^M^J^I^I^I^I^I^I^I<BitmapFile filename="MEDRUST2.JPG"/>^M^J^I^I^I^I^I^I^I<Cropping on="0" CropType="crop">^M^J^I^I^I^I^I^I^I^I<UCrop>0.0</UCrop>^M
300
^J^I^I^I^I^I^I^I^I<VCrop>0.0</VCrop>^M^J^I^I^I^I^I^I^I^I<WCrop>1.0</WCrop>^M^J^I^I^I^I^I^I^I^I<HCrop>1.0</HCrop>^M^J^I^I^I^I^I^I^I^I<JitterPlacement on="0">1.0</JitterPlacement>^M^J^I^I^I^I^I^I^I</Cropping>^M^J^I^I^I^I^I^I^I<Filtering Type="pyramidal"/>^M^J^I^I^I^I^I^I^I<MonoChannelOutput Output="rgbIntensity"/>^M^J^I^I^I^I^I^I
300
^I<RGBChannelOutput Output="alphaAsGray"/>^M^J^I^I^I^I^I^I^I<AlphaSource Source="none"/>^M^J^I^I^I^I^I^I^I<PremultipliedAlpha>1</PremultipliedAlpha>^M^J^I^I^I^I^I^I</BitmapParameters>^M^J^I^I^I^I^I^I<TexMapOutput>^M^J^I^I^I^I^I^I^I<Invert>0</Invert>^M^J^I^I^I^I^I^I^I<Clamp>0</Clamp>^M^J^I^I^I^I^I^I^I<AlphaFromRGBInt
300
ensity>0</AlphaFromRGBIntensity>^M^J^I^I^I^I^I^I^I<OutputAmount>1.0</OutputAmount>^M^J^I^I^I^I^I^I^I<RGBOffset>0.0</RGBOffset>^M^J^I^I^I^I^I^I^I<RGBLevel>1.0</RGBLevel>^M^J^I^I^I^I^I^I^I<BumpAmount>1.0</BumpAmount>^M^J^I^I^I^I^I^I</TexMapOutput>^M^J^I^I^I^I^I</BitmapMap>^M^J^I^I^I^I</TextureMap>^M^J^I^I^I</MapLib>^M^J
300
^I^I^I<Map on="1" TexMapChannelNum="8" TexMapChannel="Bump Map" Amount="15" TexMapRef="{EBBA9041-9C68-43B4-A7A8-66E4230A8BCD}"/>^M^J^I^I</MapSet>^M^J^I</ArchitecturalMaterial>^M^J</Material>
  0
XRECORD
  5
18897
102
{ACAD_REACTORS
330
18896
102
}
330
18896
100
AcDbXrecord
280
     1
102
MATERIAL
148
0.0
149
0.0
149
0.0
 93
        0
 94
       63
282
     0
 72
     1
 77
     1
171
     1
175
     1
179
     1
273
     0
  0
CELLSTYLEMAP
  5
1888B
102
{ACAD_REACTORS
330
16B28
102
}
330
16B28
100
AcDbCellStyleMap
 90
        3
300
CELLSTYLE
  1
TABLEFORMAT_BEGIN
 90
        5
170
     1
 91
        0
 92
    32768
 62
   257
 93
        1
300
CONTENTFORMAT
  1
CONTENTFORMAT_BEGIN
 90
        0
 91
        0
 92
        4
 93
        0
300

 40
0.0
140
1.0
 94
        5
 62
     0
340
15
144
0.25
309
CONTENTFORMAT_END
171
     1
301
MARGIN
  1
CELLMARGIN_BEGIN
 40
0.06
 40
0.06
 40
0.06
 40
0.06
 40
0.18
 40
0.18
309
CELLMARGIN_END
 94
        6
 95
        1
302
GRIDFORMAT
  1
GRIDFORMAT_BEGIN
 90
        0
 91
        1
 62
     0
 92
       -2
340
0
 93
        0
 40
0.045
309
GRIDFORMAT_END
 95
        2
302
GRIDFORMAT
  1
GRIDFORMAT_BEGIN
 90
        0
 91
        1
 62
     0
 92
       -2
340
0
 93
        0
 40
0.045
309
GRIDFORMAT_END
 95
        4
302
GRIDFORMAT
  1
GRIDFORMAT_BEGIN
 90
        0
 91
        1
 62
     0
 92
       -2
340
0
 93
        0
 40
0.045
309
GRIDFORMAT_END
 95
        8
302
GRIDFORMAT
  1
GRIDFORMAT_BEGIN
 90
        0
 91
        1
 62
     0
 92
       -2
340
0
 93
        0
 40
0.045
309
GRIDFORMAT_END
 95
       16
302
GRIDFORMAT
  1
GRIDFORMAT_BEGIN
 90
        0
 91
        1
 62
     0
 92
       -2
340
0
 93
        0
 40
0.045
309
GRIDFORMAT_END
 95
       32
302
GRIDFORMAT
  1
GRIDFORMAT_BEGIN
 90
        0
 91
        1
 62
     0
 92
       -2
340
0
 93
        0
 40
0.045
309
GRIDFORMAT_END
309
TABLEFORMAT_END
  1
CELLSTYLE_BEGIN
 90
        1
 91
        1
300
_TITLE
309
CELLSTYLE_END
300
CELLSTYLE
  1
TABLEFORMAT_BEGIN
 90
        5
170
     1
 91
        0
 92
        0
 62
   257
 93
        1
300
CONTENTFORMAT
  1
CONTENTFORMAT_BEGIN
 90
        0
 91
        0
 92
        4
 93
        0
300

 40
0.0
140
1.0
 94
        5
 62
     0
340
15
144
0.18
309
CONTENTFORMAT_END
171
     1
301
MARGIN
  1
CELLMARGIN_BEGIN
 40
0.06
 40
0.06
 40
0.06
 40
0.06
 40
0.18
 40
0.18
309
CELLMARGIN_END
 94
        6
 95
        1
302
GRIDFORMAT
  1
GRIDFORMAT_BEGIN
 90
        0
 91
        1
 62
     0
 92
       -2
340
0
 93
        0
 40
0.045
309
GRIDFORMAT_END
 95
        2
302
GRIDFORMAT
  1
GRIDFORMAT_BEGIN
 90
        0
 91
        1
 62
     0
 92
       -2
340
0
 93
        0
 40
0.045
309
GRIDFORMAT_END
 95
        4
302
GRIDFORMAT
  1
GRIDFORMAT_BEGIN
 90
        0
 91
        1
 62
     0
 92
       -2
340
0
 93
        0
 40
0.045
309
GRIDFORMAT_END
 95
        8
302
GRIDFORMAT
  1
GRIDFORMAT_BEGIN
 90
        0
 91
        1
 62
     0
 92
       -2
340
0
 93
        0
 40
0.045
309
GRIDFORMAT_END
 95
       16
302
GRIDFORMAT
  1
GRIDFORMAT_BEGIN
 90
        0
 91
        1
 62
     0
 92
       -2
340
0
 93
        0
 40
0.045
309
GRIDFORMAT_END
 95
       32
302
GRIDFORMAT
  1
GRIDFORMAT_BEGIN
 90
        0
 91
        1
 62
     0
 92
       -2
340
0
 93
        0
 40
0.045
309
GRIDFORMAT_END
309
TABLEFORMAT_END
  1
CELLSTYLE_BEGIN
 90
        2
 91
        1
300
_HEADER
309
CELLSTYLE_END
300
CELLSTYLE
  1
TABLEFORMAT_BEGIN
 90
        5
170
     1
 91
        0
 92
        0
 62
   257
 93
        1
300
CONTENTFORMAT
  1
CONTENTFORMAT_BEGIN
 90
        0
 91
        0
 92
        4
 93
        0
300

 40
0.0
140
1.0
 94
        2
 62
     0
340
15
144
0.18
309
CONTENTFORMAT_END
171
     1
301
MARGIN
  1
CELLMARGIN_BEGIN
 40
0.06
 40
0.06
 40
0.06
 40
0.06
 40
0.18
 40
0.18
309
CELLMARGIN_END
 94
        6
 95
        1
302
GRIDFORMAT
  1
GRIDFORMAT_BEGIN
 90
        0
 91
        1
 62
     0
 92
       -2
340
0
 93
        0
 40
0.045
309
GRIDFORMAT_END
 95
        2
302
GRIDFORMAT
  1
GRIDFORMAT_BEGIN
 90
        0
 91
        1
 62
     0
 92
       -2
340
0
 93
        0
 40
0.045
309
GRIDFORMAT_END
 95
        4
302
GRIDFORMAT
  1
GRIDFORMAT_BEGIN
 90
        0
 91
        1
 62
     0
 92
       -2
340
0
 93
        0
 40
0.045
309
GRIDFORMAT_END
 95
        8
302
GRIDFORMAT
  1
GRIDFORMAT_BEGIN
 90
        0
 91
        1
 62
     0
 92
       -2
340
0
 93
        0
 40
0.045
309
GRIDFORMAT_END
 95
       16
302
GRIDFORMAT
  1
GRIDFORMAT_BEGIN
 90
        0
 91
        1
 62
     0
 92
       -2
340
0
 93
        0
 40
0.045
309
GRIDFORMAT_END
 95
       32
302
GRIDFORMAT
  1
GRIDFORMAT_BEGIN
 90
        0
 91
        1
 62
     0
 92
       -2
340
0
 93
        0
 40
0.045
309
GRIDFORMAT_END
309
TABLEFORMAT_END
  1
CELLSTYLE_BEGIN
 90
        3
 91
        2
300
_DATA
309
CELLSTYLE_END
  0
XRECORD
  5
18891
102
{ACAD_REACTORS
330
16B28
102
}
330
16B28
100
AcDbXrecord
280
     1
102
ACAD_ROUNDTRIP_PRE2007_TABLESTYLE
 90
        4
 91
        0
  1

 92
        4
 93
        0
  2

 94
        4
 95
        0
  3

  0
ENDSEC
  0
EOF
