  0
SECTION
  2
HEADER
  9
$ACADVER
  1
AC1015
  9
$ACADMAINTVER
 70
    20
  9
$DWGCODEPAGE
  3
ANSI_1250
  9
$INSBASE
 10
0.0
 20
0.0
 30
0.0
  9
$EXTMIN
 10
41787.20217807776
 20
15497.51641095816
 30
0.0
  9
$EXTMAX
 10
51987.20217807776
 20
29517.51641095817
 30
0.0
  9
$LIMMIN
 10
0.0
 20
0.0
  9
$LIMMAX
 10
420.0
 20
297.0
  9
$ORTHOMODE
 70
     0
  9
$REGENMODE
 70
     1
  9
$FILLMODE
 70
     1
  9
$QTEXTMODE
 70
     0
  9
$MIRRTEXT
 70
     0
  9
$LTSCALE
 40
75.0
  9
$ATTMODE
 70
     1
  9
$TEXTSIZE
 40
20.0
  9
$TRACEWID
 40
1.0
  9
$TEXTSTYLE
  7
ROMANS
  9
$CLAYER
  8
0Wymiary-PL
  9
$CELTYPE
  6
ByLayer
  9
$CECOLOR
 62
   256
  9
$CELTSCALE
 40
1.0
  9
$DISPSILH
 70
     0
  9
$DIMSCALE
 40
1.0
  9
$DIMASZ
 40
30.0
  9
$DIMEXO
 40
43.0
  9
$DIMDLI
 40
0.0
  9
$DIMRND
 40
0.5
  9
$DIMDLE
 40
12.0
  9
$DIMEXE
 40
13.0
  9
$DIMTP
 40
0.0
  9
$DIMTM
 40
0.0
  9
$DIMTXT
 40
80.0
  9
$DIMCEN
 40
0.0
  9
$DIMTSZ
 40
0.0
  9
$DIMTOL
 70
     0
  9
$DIMLIM
 70
     0
  9
$DIMTIH
 70
     0
  9
$DIMTOH
 70
     0
  9
$DIMSE1
 70
     1
  9
$DIMSE2
 70
     1
  9
$DIMTAD
 70
     0
  9
$DIMZIN
 70
    12
  9
$DIMBLK
  1
B-DIM
  9
$DIMASO
 70
     1
  9
$DIMSHO
 70
     1
  9
$DIMPOST
  1

  9
$DIMAPOST
  1

  9
$DIMALT
 70
     0
  9
$DIMALTD
 70
     2
  9
$DIMALTF
 40
25.4
  9
$DIMLFAC
 40
1.0
  9
$DIMTOFL
 70
     1
  9
$DIMTVP
 40
1.0
  9
$DIMTIX
 70
     1
  9
$DIMSOXD
 70
     0
  9
$DIMSAH
 70
     0
  9
$DIMBLK1
  1

  9
$DIMBLK2
  1

  9
$DIMSTYLE
  2
500
  9
$DIMCLRD
 70
     1
  9
$DIMCLRE
 70
     1
  9
$DIMCLRT
 70
    10
  9
$DIMTFAC
 40
1.0
  9
$DIMGAP
 40
0.0
  9
$DIMJUST
 70
     0
  9
$DIMSD1
 70
     0
  9
$DIMSD2
 70
     0
  9
$DIMTOLJ
 70
     1
  9
$DIMTZIN
 70
     0
  9
$DIMALTZ
 70
     0
  9
$DIMALTTZ
 70
     0
  9
$DIMUPT
 70
     0
  9
$DIMDEC
 70
     1
  9
$DIMTDEC
 70
     1
  9
$DIMALTU
 70
     2
  9
$DIMALTTD
 70
     2
  9
$DIMTXSTY
  7
ROMANS
  9
$DIMAUNIT
 70
     0
  9
$DIMADEC
 70
     0
  9
$DIMALTRND
 40
0.0
  9
$DIMAZIN
 70
     0
  9
$DIMDSEP
 70
    46
  9
$DIMATFIT
 70
     3
  9
$DIMFRAC
 70
     0
  9
$DIMLDRBLK
  1
B-DIM
  9
$DIMLUNIT
 70
     2
  9
$DIMLWD
 70
    -2
  9
$DIMLWE
 70
    -2
  9
$DIMTMOVE
 70
     2
  9
$LUNITS
 70
     2
  9
$LUPREC
 70
     1
  9
$SKETCHINC
 40
1.0
  9
$FILLETRAD
 40
0.0
  9
$AUNITS
 70
     0
  9
$AUPREC
 70
     0
  9
$MENU
  1
.
  9
$ELEVATION
 40
0.0
  9
$PELEVATION
 40
0.0
  9
$THICKNESS
 40
0.0
  9
$LIMCHECK
 70
     0
  9
$CHAMFERA
 40
0.0
  9
$CHAMFERB
 40
0.0
  9
$CHAMFERC
 40
20.0
  9
$CHAMFERD
 40
0.0
  9
$SKPOLY
 70
     0
  9
$TDCREATE
 40
2452027.670547454
  9
$TDUCREATE
 40
2452027.587214121
  9
$TDUPDATE
 40
2455065.540568032
  9
$TDUUPDATE
 40
2455065.457234699
  9
$TDINDWG
 40
8.4721205787
  9
$TDUSRTIMER
 40
8.4721205787
  9
$USRTIMER
 70
     1
  9
$ANGBASE
 50
0.0
  9
$ANGDIR
 70
     0
  9
$PDMODE
 70
     0
  9
$PDSIZE
 40
0.0
  9
$PLINEWID
 40
0.0
  9
$SPLFRAME
 70
     0
  9
$SPLINETYPE
 70
     6
  9
$SPLINESEGS
 70
     8
  9
$HANDSEED
  5
5DD
  9
$SURFTAB1
 70
     6
  9
$SURFTAB2
 70
     6
  9
$SURFTYPE
 70
     6
  9
$SURFU
 70
     6
  9
$SURFV
 70
     6
  9
$UCSBASE
  2

  9
$UCSNAME
  2

  9
$UCSORG
 10
0.0
 20
0.0
 30
0.0
  9
$UCSXDIR
 10
1.0
 20
0.0
 30
0.0
  9
$UCSYDIR
 10
0.0
 20
1.0
 30
0.0
  9
$UCSORTHOREF
  2

  9
$UCSORTHOVIEW
 70
     0
  9
$UCSORGTOP
 10
0.0
 20
0.0
 30
0.0
  9
$UCSORGBOTTOM
 10
0.0
 20
0.0
 30
0.0
  9
$UCSORGLEFT
 10
0.0
 20
0.0
 30
0.0
  9
$UCSORGRIGHT
 10
0.0
 20
0.0
 30
0.0
  9
$UCSORGFRONT
 10
0.0
 20
0.0
 30
0.0
  9
$UCSORGBACK
 10
0.0
 20
0.0
 30
0.0
  9
$PUCSBASE
  2

  9
$PUCSNAME
  2

  9
$PUCSORG
 10
0.0
 20
0.0
 30
0.0
  9
$PUCSXDIR
 10
1.0
 20
0.0
 30
0.0
  9
$PUCSYDIR
 10
0.0
 20
1.0
 30
0.0
  9
$PUCSORTHOREF
  2

  9
$PUCSORTHOVIEW
 70
     0
  9
$PUCSORGTOP
 10
0.0
 20
0.0
 30
0.0
  9
$PUCSORGBOTTOM
 10
0.0
 20
0.0
 30
0.0
  9
$PUCSORGLEFT
 10
0.0
 20
0.0
 30
0.0
  9
$PUCSORGRIGHT
 10
0.0
 20
0.0
 30
0.0
  9
$PUCSORGFRONT
 10
0.0
 20
0.0
 30
0.0
  9
$PUCSORGBACK
 10
0.0
 20
0.0
 30
0.0
  9
$USERI1
 70
     0
  9
$USERI2
 70
     0
  9
$USERI3
 70
     0
  9
$USERI4
 70
     0
  9
$USERI5
 70
     0
  9
$USERR1
 40
0.0
  9
$USERR2
 40
0.0
  9
$USERR3
 40
0.0
  9
$USERR4
 40
0.0
  9
$USERR5
 40
0.0
  9
$WORLDVIEW
 70
     1
  9
$SHADEDGE
 70
     3
  9
$SHADEDIF
 70
    70
  9
$TILEMODE
 70
     1
  9
$MAXACTVP
 70
    64
  9
$PINSBASE
 10
0.0
 20
0.0
 30
0.0
  9
$PLIMCHECK
 70
     0
  9
$PEXTMIN
 10
1.000000000000000E+20
 20
1.000000000000000E+20
 30
1.000000000000000E+20
  9
$PEXTMAX
 10
-1.000000000000000E+20
 20
-1.000000000000000E+20
 30
-1.000000000000000E+20
  9
$PLIMMIN
 10
0.0
 20
0.0
  9
$PLIMMAX
 10
420.0
 20
297.0
  9
$UNITMODE
 70
     0
  9
$VISRETAIN
 70
     1
  9
$PLINEGEN
 70
     0
  9
$PSLTSCALE
 70
     1
  9
$TREEDEPTH
 70
  3020
  9
$CMLSTYLE
  2
Standard
  9
$CMLJUST
 70
     0
  9
$CMLSCALE
 40
20.0
  9
$PROXYGRAPHICS
 70
     1
  9
$MEASUREMENT
 70
     0
  9
$CELWEIGHT
370
    -1
  9
$ENDCAPS
280
     0
  9
$JOINSTYLE
280
     0
  9
$LWDISPLAY
290
     0
  9
$INSUNITS
 70
     1
  9
$HYPERLINKBASE
  1

  9
$STYLESHEET
  1
100.ctb
  9
$XEDIT
290
     1
  9
$CEPSNTYPE
380
     0
  9
$PSTYLEMODE
290
     1
  9
$FINGERPRINTGUID
  2
{484B11DA-8895-4439-BE08-78C3A1008006}
  9
$VERSIONGUID
  2
{9F68F8B3-85D9-46B6-9201-1A63C2FE5060}
  9
$EXTNAMES
290
     1
  9
$PSVPSCALE
 40
0.0
  9
$OLESTARTUP
290
     0
  0
ENDSEC
  0
SECTION
  2
CLASSES
  0
CLASS
  1
ACDBDICTIONARYWDFLT
  2
AcDbDictionaryWithDefault
  3
ObjectDBX Classes
 90
        0
280
     0
281
     0
  0
CLASS
  1
ACDBPLACEHOLDER
  2
AcDbPlaceHolder
  3
ObjectDBX Classes
 90
        0
280
     0
281
     0
  0
CLASS
  1
LAYOUT
  2
AcDbLayout
  3
ObjectDBX Classes
 90
        0
280
     0
281
     0
  0
CLASS
  1
DICTIONARYVAR
  2
AcDbDictionaryVar
  3
ObjectDBX Classes
 90
        0
280
     0
281
     0
  0
CLASS
  1
SORTENTSTABLE
  2
AcDbSortentsTable
  3
ObjectDBX Classes
 90
        0
280
     0
281
     0
  0
CLASS
  1
AEC_VARS_DWG_SETUP
  2
AecDbVarsDwgSetup
  3
AecBase50|Product Desc: Autodesk Architectural Desktop 2007 |Company: Autodesk,Inc. |WEB Address: www.autodesk.com
 90
    32897
280
     0
281
     0
  0
CLASS
  1
AEC_DISP_REP_CONFIG
  2
AecDbDispRepConfig
  3
AecBase50|Product Desc: Autodesk Architectural Desktop 2007 |Company: Autodesk,Inc. |WEB Address: www.autodesk.com
 90
    32897
280
     0
281
     0
  0
CLASS
  1
AEC_DISP_REP_SET
  2
AecDbDispRepSet
  3
AecBase50|Product Desc: Autodesk Architectural Desktop 2007 |Company: Autodesk,Inc. |WEB Address: www.autodesk.com
 90
    32897
280
     0
281
     0
  0
CLASS
  1
AEC_DISP_REP_2D_SECTION
  2
AecDbDispRep2dSection
  3
AecBase50|Product Desc: Autodesk Architectural Desktop 2007 |Company: Autodesk,Inc. |WEB Address: www.autodesk.com
 90
    32897
280
     0
281
     0
  0
CLASS
  1
AEC_DISP_REP_ANCHOR_BUB_TO_GRID
  2
AecDbDispRepAnchorBubToGrid
  3
AecStructureBase50|Product Desc: Autodesk Architectural Desktop 2007 |Company: Autodesk,Inc. |WEB Address: www.autodesk.com
 90
    32897
280
     0
281
     0
  0
CLASS
  1
AEC_DISP_REP_ANCHOR_BUB_TO_GRID_MODEL
  2
AecDbDispRepAnchorBubToGridMdl
  3
AecStructureBase50|Product Desc: Autodesk Architectural Desktop 2007 |Company: Autodesk,Inc. |WEB Address: www.autodesk.com
 90
    32897
280
     0
281
     0
  0
CLASS
  1
AEC_DISP_REP_ANCHOR_ENT_TO_NODE
  2
AecDbDispRepAnchorEntToNode
  3
AecBaseEx50|Product Desc: Autodesk Architectural Desktop 2007 |Company: Autodesk,Inc. |WEB Address: www.autodesk.com
 90
    32897
280
     0
281
     0
  0
CLASS
  1
AEC_DISP_REP_ANCHOR_TAG_TO_ENT
  2
AecDbDispRepAnchorTagToEnt
  3
AecScheduleData50|Product Desc: Autodesk Architectural Desktop 2007 |Company: Autodesk,Inc. |WEB Address: www.autodesk.com
 90
    32897
280
     0
281
     0
  0
CLASS
  1
AEC_DISP_REP_AREA
  2
AecDbDispRepArea
  3
AecAreaCalculationBase50|Product Desc: Autodesk Architectural Desktop 2007 |Company: Autodesk,Inc. |WEB Address: www.autodesk.com
 90
    32897
280
     0
281
     0
  0
CLASS
  1
AEC_DISP_REP_AREA_DECOMPOSED
  2
AecDbDispRepAreaDecomposed
  3
AecAreaCalculationBase50|Product Desc: Autodesk Architectural Desktop 2007 |Company: Autodesk,Inc. |WEB Address: www.autodesk.com
 90
    32897
280
     0
281
     0
  0
CLASS
  1
AEC_DISP_REP_AREAGROUP
  2
AecDbDispRepAreaGroup
  3
AecAreaCalculationBase50|Product Desc: Autodesk Architectural Desktop 2007 |Company: Autodesk,Inc. |WEB Address: www.autodesk.com
 90
    32897
280
     0
281
     0
  0
CLASS
  1
AEC_DISP_REP_BDG_ELEVLINE_MODEL
  2
AecDbDispRepBdgElevLineModel
  3
AecArchBase50|Product Desc: Autodesk Architectural Desktop 2007 |Company: Autodesk,Inc. |WEB Address: www.autodesk.com
 90
    32897
280
     0
281
     0
  0
CLASS
  1
AEC_DISP_REP_BDG_SECTIONLINE_PLAN
  2
AecDbDispRepBdgElevLinePlan
  3
AecArchBase50|Product Desc: Autodesk Architectural Desktop 2007 |Company: Autodesk,Inc. |WEB Address: www.autodesk.com
 90
    32897
280
     0
281
     0
  0
CLASS
  1
AEC_DISP_REP_BDG_SECTIONLINE_MODEL
  2
AecDbDispRepBdgSectionLineModel
  3
AecArchBase50|Product Desc: Autodesk Architectural Desktop 2007 |Company: Autodesk,Inc. |WEB Address: www.autodesk.com
 90
    32897
280
     0
281
     0
  0
CLASS
  1
AEC_DISP_REP_BDG_SECTIONLINE_PLAN
  2
AecDbDispRepBdgSectionLinePlan
  3
AecArchBase50|Product Desc: Autodesk Architectural Desktop 2007 |Company: Autodesk,Inc. |WEB Address: www.autodesk.com
 90
    32897
280
     0
281
     0
  0
CLASS
  1
AEC_DISP_REP_BDG_SECTION_SUBDIV
  2
AecDbDispRepBdgSectionSubDiv
  3
AecArchBase50|Product Desc: Autodesk Architectural Desktop 2007 |Company: Autodesk,Inc. |WEB Address: www.autodesk.com
 90
    32897
280
     0
281
     0
  0
CLASS
  1
AEC_DISP_REP_CAMERA
  2
AecDbDispRepCamera
  3
AecBase50|Product Desc: Autodesk Architectural Desktop 2007 |Company: Autodesk,Inc. |WEB Address: www.autodesk.com
 90
    32897
280
     0
281
     0
  0
CLASS
  1
AEC_DISP_REP_CEILING_GRID
  2
AecDbDispRepCeilingGrid
  3
AecArchBase50|Product Desc: Autodesk Architectural Desktop 2007 |Company: Autodesk,Inc. |WEB Address: www.autodesk.com
 90
    33661
280
     0
281
     0
  0
CLASS
  1
AEC_DISP_REP_CEILING_GRID_MODEL
  2
AecDbDispRepCeilingGridModel
  3
AecArchBase50|Product Desc: Autodesk Architectural Desktop 2007 |Company: Autodesk,Inc. |WEB Address: www.autodesk.com
 90
    32897
280
     0
281
     0
  0
CLASS
  1
AEC_DISP_REP_CEILING_GRID_RCP
  2
AecDbDispRepCeilingGridRcp
  3
AecArchBase50|Product Desc: Autodesk Architectural Desktop 2007 |Company: Autodesk,Inc. |WEB Address: www.autodesk.com
 90
    32897
280
     0
281
     0
  0
CLASS
  1
AEC_DISP_REP_CLIP_VOLUME_MODEL
  2
AecDbDispRepClipVolModel
  3
AecBase50|Product Desc: Autodesk Architectural Desktop 2007 |Company: Autodesk,Inc. |WEB Address: www.autodesk.com
 90
    32897
280
     0
281
     0
  0
CLASS
  1
AEC_DISP_REP_CLIP_VOLUME_PLAN
  2
AecDbDispRepClipVolPlan
  3
AecBase50|Product Desc: Autodesk Architectural Desktop 2007 |Company: Autodesk,Inc. |WEB Address: www.autodesk.com
 90
    32897
280
     0
281
     0
  0
CLASS
  1
AEC_DISP_REP_CLIP_VOLUME_RESULT_SUBDIV
  2
AecDbDispRepClipVolResSubDiv
  3
AecBase50|Product Desc: Autodesk Architectural Desktop 2007 |Company: Autodesk,Inc. |WEB Address: www.autodesk.com
 90
    32897
280
     0
281
     0
  0
CLASS
  1
AEC_DISP_REP_CLIP_VOLUME_RESULT
  2
AecDbDispRepClipVolResult
  3
AecBase50|Product Desc: Autodesk Architectural Desktop 2007 |Company: Autodesk,Inc. |WEB Address: www.autodesk.com
 90
    32897
280
     0
281
     0
  0
CLASS
  1
AEC_DISP_REP_COLUMN_GRID
  2
AecDbDispRepColumnGrid
  3
AecStructureBase50|Product Desc: Autodesk Architectural Desktop 2007 |Company: Autodesk,Inc. |WEB Address: www.autodesk.com
 90
    32897
280
     0
281
     0
  0
CLASS
  1
AEC_DISP_REP_COLUMN_GRID_MODEL
  2
AecDbDispRepColumnGridModel
  3
AecStructureBase50|Product Desc: Autodesk Architectural Desktop 2007 |Company: Autodesk,Inc. |WEB Address: www.autodesk.com
 90
    32897
280
     0
281
     0
  0
CLASS
  1
AEC_DISP_REP_CURTAIN_WALL_LAYOUT_MODEL
  2
AecDbDispRepCurtainWallLayoutModel
  3
AecArchBase50|Product Desc: Autodesk Architectural Desktop 2007 |Company: Autodesk,Inc. |WEB Address: www.autodesk.com
 90
    32897
280
     0
281
     0
  0
CLASS
  1
AEC_DISP_REP_CURTAIN_WALL_LAYOUT_PLAN
  2
AecDbDispRepCurtainWallLayoutPlan
  3
AecArchBase50|Product Desc: Autodesk Architectural Desktop 2007 |Company: Autodesk,Inc. |WEB Address: www.autodesk.com
 90
    32897
280
     0
281
     0
  0
CLASS
  1
AEC_DISP_REP_CURTAIN_WALL_UNIT_MODEL
  2
AecDbDispRepCurtainWallUnitModel
  3
AecArchBase50|Product Desc: Autodesk Architectural Desktop 2007 |Company: Autodesk,Inc. |WEB Address: www.autodesk.com
 90
    32897
280
     0
281
     0
  0
CLASS
  1
AEC_DISP_REP_CURTAIN_WALL_UNIT_PLAN
  2
AecDbDispRepCurtainWallUnitPlan
  3
AecArchBase50|Product Desc: Autodesk Architectural Desktop 2007 |Company: Autodesk,Inc. |WEB Address: www.autodesk.com
 90
    32897
280
     0
281
     0
  0
CLASS
  1
AEC_DB_DISP_REP_DIM_GROUP_PLAN
  2
AecDbDispRepDimGroupPlan
  3
AecArchDACHBase50|Product Desc: Autodesk Architectural Desktop 2007 |Company: Autodesk,Inc. |WEB Address: www.autodesk.com
 90
    32897
280
     0
281
     0
  0
CLASS
  1
AEC_DISP_REP_DOOR_MODEL
  2
AecDbDispRepDoorModel
  3
AecArchBase50|Product Desc: Autodesk Architectural Desktop 2007 |Company: Autodesk,Inc. |WEB Address: www.autodesk.com
 90
    32897
280
     0
281
     0
  0
CLASS
  1
AEC_DISP_REP_DOOR_NOMINAL
  2
AecDbDispRepDoorNominal
  3
AecArchBase50|Product Desc: Autodesk Architectural Desktop 2007 |Company: Autodesk,Inc. |WEB Address: www.autodesk.com
 90
    32897
280
     0
281
     0
  0
CLASS
  1
AEC_DISP_REP_DOOR_PLAN
  2
AecDbDispRepDoorPlan
  3
AecArchBase50|Product Desc: Autodesk Architectural Desktop 2007 |Company: Autodesk,Inc. |WEB Address: www.autodesk.com
 90
    32897
280
     0
281
     0
  0
CLASS
  1
AEC_DISP_REP_EDITINPLACEPROFILE
  2
AecDbDispRepEditInPlaceProfile
  3
AecBase50|Product Desc: Autodesk Architectural Desktop 2007 |Company: Autodesk,Inc. |WEB Address: www.autodesk.com
 90
    32897
280
     0
281
     0
  0
CLASS
  1
AEC_DISP_REP_ENT_REF
  2
AecDbDispRepEntRef
  3
AecBase50|Product Desc: Autodesk Architectural Desktop 2007 |Company: Autodesk,Inc. |WEB Address: www.autodesk.com
 90
    32897
280
     0
281
     0
  0
CLASS
  1
AEC_DISP_REP_LAYOUT_CURVE
  2
AecDbDispRepLayoutCurve
  3
AecBase50|Product Desc: Autodesk Architectural Desktop 2007 |Company: Autodesk,Inc. |WEB Address: www.autodesk.com
 90
    32897
280
     0
281
     0
  0
CLASS
  1
AEC_DISP_REP_LAYOUT_GRID2D
  2
AecDbDispRepLayoutGrid2d
  3
AecBase50|Product Desc: Autodesk Architectural Desktop 2007 |Company: Autodesk,Inc. |WEB Address: www.autodesk.com
 90
    32897
280
     0
281
     0
  0
CLASS
  1
AEC_DISP_REP_LAYOUT_GRID3D
  2
AecDbDispRepLayoutGrid3d
  3
AecBase50|Product Desc: Autodesk Architectural Desktop 2007 |Company: Autodesk,Inc. |WEB Address: www.autodesk.com
 90
    32897
280
     0
281
     0
  0
CLASS
  1
AEC_DISP_REP_MASKBLOCK_REF
  2
AecDbDispRepMaskBlockRef
  3
AecBase50|Product Desc: Autodesk Architectural Desktop 2007 |Company: Autodesk,Inc. |WEB Address: www.autodesk.com
 90
    32897
280
     0
281
     0
  0
CLASS
  1
AEC_DISP_REP_MASKBLOCK_REF_RCP
  2
AecDbDispRepMaskBlockRefRcp
  3
AecArchBase50|Product Desc: Autodesk Architectural Desktop 2007 |Company: Autodesk,Inc. |WEB Address: www.autodesk.com
 90
    32897
280
     0
281
     0
  0
CLASS
  1
AEC_DISP_REP_MASS_ELEM_MODEL
  2
AecDbDispRepMassElemModel
  3
AecBaseEx50|Product Desc: Autodesk Architectural Desktop 2007 |Company: Autodesk,Inc. |WEB Address: www.autodesk.com
 90
    32897
280
     0
281
     0
  0
CLASS
  1
AEC_DISP_REP_MASS_ELEM_SCHEM
  2
AecDbDispRepMassElemSchem
  3
AecBaseEx50|Product Desc: Autodesk Architectural Desktop 2007 |Company: Autodesk,Inc. |WEB Address: www.autodesk.com
 90
    32897
280
     0
281
     0
  0
CLASS
  1
AEC_DISP_REP_MASS_GROUP_MODEL
  2
AecDbDispRepMassGroupModel
  3
AecBaseEx50|Product Desc: Autodesk Architectural Desktop 2007 |Company: Autodesk,Inc. |WEB Address: www.autodesk.com
 90
    32897
280
     0
281
     0
  0
CLASS
  1
AEC_DISP_REP_MASS_GROUP_PLAN
  2
AecDbDispRepMassGroupPlan
  3
AecBaseEx50|Product Desc: Autodesk Architectural Desktop 2007 |Company: Autodesk,Inc. |WEB Address: www.autodesk.com
 90
    32897
280
     0
281
     0
  0
CLASS
  1
AEC_DISP_REP_MATERIAL
  2
AecDbDispRepMaterial
  3
AecBase50|Product Desc: Autodesk Architectural Desktop 2007 |Company: Autodesk,Inc. |WEB Address: www.autodesk.com
 90
    32897
280
     0
281
     0
  0
CLASS
  1
AEC_DISP_REP_MVBLOCK_REF
  2
AecDbDispRepMvBlockRef
  3
AecBase50|Product Desc: Autodesk Architectural Desktop 2007 |Company: Autodesk,Inc. |WEB Address: www.autodesk.com
 90
    32897
280
     0
281
     0
  0
CLASS
  1
AEC_DISP_REP_MVBLOCK_REF_MODEL
  2
AecDbDispRepMvBlockRefModel
  3
AecBase50|Product Desc: Autodesk Architectural Desktop 2007 |Company: Autodesk,Inc. |WEB Address: www.autodesk.com
 90
    32897
280
     0
281
     0
  0
CLASS
  1
AEC_DISP_REP_OPENING
  2
AecDbDispRepOpening
  3
AecArchBase50|Product Desc: Autodesk Architectural Desktop 2007 |Company: Autodesk,Inc. |WEB Address: www.autodesk.com
 90
    32897
280
     0
281
     0
  0
CLASS
  1
AEC_DISP_REP_OPENING_MODEL
  2
AecDbDispRepOpeningModel
  3
AecArchBase50|Product Desc: Autodesk Architectural Desktop 2007 |Company: Autodesk,Inc. |WEB Address: www.autodesk.com
 90
    32897
280
     0
281
     0
  0
CLASS
  1
AEC_DISP_REP_POLYGON_MODEL
  2
AecDbDispRepPolygonModel
  3
AecBaseEx50|Product Desc: Autodesk Architectural Desktop 2007 |Company: Autodesk,Inc. |WEB Address: www.autodesk.com
 90
    32897
280
     0
281
     0
  0
CLASS
  1
AEC_DISP_REP_RAILING_MODEL
  2
AecDbDispRepRailingModel
  3
AecArchBase50|Product Desc: Autodesk Architectural Desktop 2007 |Company: Autodesk,Inc. |WEB Address: www.autodesk.com
 90
    32897
280
     0
281
     0
  0
CLASS
  1
AEC_DISP_REP_RAILING_PLAN
  2
AecDbDispRepRailingPlan
  3
AecArchBase50|Product Desc: Autodesk Architectural Desktop 2007 |Company: Autodesk,Inc. |WEB Address: www.autodesk.com
 90
    32897
280
     0
281
     0
  0
CLASS
  1
AEC_DISP_REP_ROOF_MODEL
  2
AecDbDispRepRoofModel
  3
AecArchBase50|Product Desc: Autodesk Architectural Desktop 2007 |Company: Autodesk,Inc. |WEB Address: www.autodesk.com
 90
    32897
280
     0
281
     0
  0
CLASS
  1
AEC_DISP_REP_ROOF_PLAN
  2
AecDbDispRepRoofPlan
  3
AecArchBase50|Product Desc: Autodesk Architectural Desktop 2007 |Company: Autodesk,Inc. |WEB Address: www.autodesk.com
 90
    32897
280
     0
281
     0
  0
CLASS
  1
AEC_DISP_REP_ROOFSLAB_MODEL
  2
AecDbDispRepRoofSlabModel
  3
AecArchBase50|Product Desc: Autodesk Architectural Desktop 2007 |Company: Autodesk,Inc. |WEB Address: www.autodesk.com
 90
    32897
280
     0
281
     0
  0
CLASS
  1
AEC_DISP_REP_ROOFSLAB_PLAN
  2
AecDbDispRepRoofSlabPlan
  3
AecArchBase50|Product Desc: Autodesk Architectural Desktop 2007 |Company: Autodesk,Inc. |WEB Address: www.autodesk.com
 90
    32897
280
     0
281
     0
  0
CLASS
  1
AEC_DISP_REP_SCHEDULE_TABLE
  2
AecDbDispRepScheduleTable
  3
AecSchedule50|Product Desc: Autodesk Architectural Desktop 2007 |Company: Autodesk,Inc. |WEB Address: www.autodesk.com
 90
    32897
280
     0
281
     0
  0
CLASS
  1
AEC_DISP_REP_SLAB_MODEL
  2
AecDbDispRepSlabModel
  3
AecArchBase50|Product Desc: Autodesk Architectural Desktop 2007 |Company: Autodesk,Inc. |WEB Address: www.autodesk.com
 90
    32897
280
     0
281
     0
  0
CLASS
  1
AEC_DISP_REP_SLAB_PLAN
  2
AecDbDispRepSlabPlan
  3
AecArchBase50|Product Desc: Autodesk Architectural Desktop 2007 |Company: Autodesk,Inc. |WEB Address: www.autodesk.com
 90
    32897
280
     0
281
     0
  0
CLASS
  1
AEC_DISP_REP_SLICE
  2
AecDbDispRepSlice
  3
AecBase50|Product Desc: Autodesk Architectural Desktop 2007 |Company: Autodesk,Inc. |WEB Address: www.autodesk.com
 90
    32897
280
     0
281
     0
  0
CLASS
  1
AEC_DISP_REP_SPACE_BOUNDARY_MODEL
  2
AecDbDispRepSpaceBoundaryModel
  3
AecArchBase50|Product Desc: Autodesk Architectural Desktop 2007 |Company: Autodesk,Inc. |WEB Address: www.autodesk.com
 90
    32897
280
     0
281
     0
  0
CLASS
  1
AEC_DISP_REP_SPACE_BOUNDARY_PLAN
  2
AecDbDispRepSpaceBoundaryPlan
  3
AecArchBase50|Product Desc: Autodesk Architectural Desktop 2007 |Company: Autodesk,Inc. |WEB Address: www.autodesk.com
 90
    32897
280
     0
281
     0
  0
CLASS
  1
AEC_DISP_REP_SPACE_BOUNDARY_SCHEM
  2
AecDbDispRepSpaceBoundarySketch
  3
AecArchBase50|Product Desc: Autodesk Architectural Desktop 2007 |Company: Autodesk,Inc. |WEB Address: www.autodesk.com
 90
    32897
280
     0
281
     0
  0
CLASS
  1
AEC_DISP_REP_SPACE_MODEL
  2
AecDbDispRepSpaceModel
  3
AecArchBase50|Product Desc: Autodesk Architectural Desktop 2007 |Company: Autodesk,Inc. |WEB Address: www.autodesk.com
 90
    32897
280
     0
281
     0
  0
CLASS
  1
AEC_DISP_REP_SPACE_PLAN
  2
AecDbDispRepSpacePlan
  3
AecArchBase50|Product Desc: Autodesk Architectural Desktop 2007 |Company: Autodesk,Inc. |WEB Address: www.autodesk.com
 90
    32897
280
     0
281
     0
  0
CLASS
  1
AEC_DISP_REP_STAIR_MODEL
  2
AecDbDispRepStairModel
  3
AecArchBase50|Product Desc: Autodesk Architectural Desktop 2007 |Company: Autodesk,Inc. |WEB Address: www.autodesk.com
 90
    32897
280
     0
281
     0
  0
CLASS
  1
AEC_DISP_REP_STAIR_PLAN
  2
AecDbDispRepStairPlan
  3
AecArchBase50|Product Desc: Autodesk Architectural Desktop 2007 |Company: Autodesk,Inc. |WEB Address: www.autodesk.com
 90
    32897
280
     0
281
     0
  0
CLASS
  1
AEC_DISP_REP_WALL_GRAPH
  2
AecDbDispRepWallGraph
  3
AecArchBase50|Product Desc: Autodesk Architectural Desktop 2007 |Company: Autodesk,Inc. |WEB Address: www.autodesk.com
 90
    32897
280
     0
281
     0
  0
CLASS
  1
AEC_DISP_REP_WALL_MODEL
  2
AecDbDispRepWallModel
  3
AecArchBase50|Product Desc: Autodesk Architectural Desktop 2007 |Company: Autodesk,Inc. |WEB Address: www.autodesk.com
 90
    32897
280
     0
281
     0
  0
CLASS
  1
AEC_DISP_REP_WALL_PLAN
  2
AecDbDispRepWallPlan
  3
AecArchBase50|Product Desc: Autodesk Architectural Desktop 2007 |Company: Autodesk,Inc. |WEB Address: www.autodesk.com
 90
    32897
280
     0
281
     0
  0
CLASS
  1
AEC_DISP_REP_WALL_SCHEM
  2
AecDbDispRepWallSchem
  3
AecArchBase50|Product Desc: Autodesk Architectural Desktop 2007 |Company: Autodesk,Inc. |WEB Address: www.autodesk.com
 90
    32897
280
     0
281
     0
  0
CLASS
  1
AEC_DISP_REP_WINDOW_ASSEMBLY_MODEL
  2
AecDbDispRepWindowAssemblyModel
  3
AecArchBase50|Product Desc: Autodesk Architectural Desktop 2007 |Company: Autodesk,Inc. |WEB Address: www.autodesk.com
 90
    32897
280
     0
281
     0
  0
CLASS
  1
AEC_DISP_REP_WINDOW_ASSEMBLY_PLAN
  2
AecDbDispRepWindowAssemblyPlan
  3
AecArchBase50|Product Desc: Autodesk Architectural Desktop 2007 |Company: Autodesk,Inc. |WEB Address: www.autodesk.com
 90
    32897
280
     0
281
     0
  0
CLASS
  1
AEC_AECDBDISPREPWINDOWASSEMBLYPLAN100
  2
AecDbDispRepWindowAssemblyPlan100
  3
AecArchDACHBase50|Product Desc: Autodesk Architectural Desktop 2007 |Company: Autodesk,Inc. |WEB Address: www.autodesk.com
 90
    32897
280
     0
281
     0
  0
CLASS
  1
AEC_DISP_REP_WINDOW_MODEL
  2
AecDbDispRepWindowModel
  3
AecArchBase50|Product Desc: Autodesk Architectural Desktop 2007 |Company: Autodesk,Inc. |WEB Address: www.autodesk.com
 90
    32897
280
     0
281
     0
  0
CLASS
  1
AEC_DISP_REP_WINDOW_NOMINAL
  2
AecDbDispRepWindowNominal
  3
AecArchBase50|Product Desc: Autodesk Architectural Desktop 2007 |Company: Autodesk,Inc. |WEB Address: www.autodesk.com
 90
    32897
280
     0
281
     0
  0
CLASS
  1
AEC_DISP_REP_WINDOW_PLAN
  2
AecDbDispRepWindowPlan
  3
AecArchBase50|Product Desc: Autodesk Architectural Desktop 2007 |Company: Autodesk,Inc. |WEB Address: www.autodesk.com
 90
    32897
280
     0
281
     0
  0
CLASS
  1
AECS_DISP_REP_MEMBER_LOGICAL
  2
AecsDbDispRepMemberLogical
  3
AecStructureBase50|Product Desc: Autodesk Architectural Desktop 2007 |Company: Autodesk,Inc. |WEB Address: www.autodesk.com
 90
    32897
280
     0
281
     0
  0
CLASS
  1
AECS_DISP_REP_MEMBER_MODEL_DESIGN
  2
AecsDbDispRepMemberModelDesign
  3
AecStructureBase50|Product Desc: Autodesk Architectural Desktop 2007 |Company: Autodesk,Inc. |WEB Address: www.autodesk.com
 90
    32897
280
     0
281
     0
  0
CLASS
  1
AECS_DISP_REP_MEMBER_PLAN_DESIGN
  2
AecsDbDispRepMemberPlanDesign
  3
AecStructureBase50|Product Desc: Autodesk Architectural Desktop 2007 |Company: Autodesk,Inc. |WEB Address: www.autodesk.com
 90
    32897
280
     0
281
     0
  0
CLASS
  1
AEC_DISP_PROPS_ENT
  2
AecDbDispPropsEnt
  3
AecBase50|Product Desc: Autodesk Architectural Desktop 2007 |Company: Autodesk,Inc. |WEB Address: www.autodesk.com
 90
    32897
280
     0
281
     0
  0
CLASS
  1
AEC_DISP_PROPS_CLIP_VOLUME
  2
AecDbDispPropsClipVol
  3
AecBase50|Product Desc: Autodesk Architectural Desktop 2007 |Company: Autodesk,Inc. |WEB Address: www.autodesk.com
 90
    32897
280
     0
281
     0
  0
CLASS
  1
AEC_DISP_PROPS_SLICE
  2
AecDbDispPropsSlice
  3
AecBase50|Product Desc: Autodesk Architectural Desktop 2007 |Company: Autodesk,Inc. |WEB Address: www.autodesk.com
 90
    32897
280
     0
281
     0
  0
CLASS
  1
AEC_DISP_PROPS_ROOFSLAB_PLAN
  2
AecDbDispPropsRoofSlabPlan
  3
AecArchBase50|Product Desc: Autodesk Architectural Desktop 2007 |Company: Autodesk,Inc. |WEB Address: www.autodesk.com
 90
    32897
280
     0
281
     0
  0
CLASS
  1
AEC_DISP_PROPS_GRID_ASSEMBLY_MODEL
  2
AecDbDispPropsGridAssemblyModel
  3
AecArchBase50|Product Desc: Autodesk Architectural Desktop 2007 |Company: Autodesk,Inc. |WEB Address: www.autodesk.com
 90
    32897
280
     0
281
     0
  0
CLASS
  1
AEC_DISP_PROPS_ROOF
  2
AecDbDispPropsRoof
  3
AecArchBase50|Product Desc: Autodesk Architectural Desktop 2007 |Company: Autodesk,Inc. |WEB Address: www.autodesk.com
 90
    32897
280
     0
281
     0
  0
CLASS
  1
AEC_DISP_PROPS_SPACE_MODEL
  2
AecDbDispPropsSpaceModel
  3
AecArchBase50|Product Desc: Autodesk Architectural Desktop 2007 |Company: Autodesk,Inc. |WEB Address: www.autodesk.com
 90
    32897
280
     0
281
     0
  0
CLASS
  1
AEC_DISP_PROPS_EDITINPLACEPROFILE_MODEL
  2
AecDbDispPropsEditInPlaceProfile
  3
AecBase50|Product Desc: Autodesk Architectural Desktop 2007 |Company: Autodesk,Inc. |WEB Address: www.autodesk.com
 90
    32897
280
     0
281
     0
  0
CLASS
  1
AEC_DISP_PROPS_DOOR
  2
AecDbDispPropsDoor
  3
AecArchBase50|Product Desc: Autodesk Architectural Desktop 2007 |Company: Autodesk,Inc. |WEB Address: www.autodesk.com
 90
    32897
280
     0
281
     0
  0
CLASS
  1
AEC_DISP_PROPS_MASKBLOCK
  2
AecDbDispPropsMaskBlock
  3
AecBase50|Product Desc: Autodesk Architectural Desktop 2007 |Company: Autodesk,Inc. |WEB Address: www.autodesk.com
 90
    32897
280
     0
281
     0
  0
CLASS
  1
AEC_DISP_PROPS_SPACE_PLAN
  2
AecDbDispPropsSpacePlan
  3
AecArchBase50|Product Desc: Autodesk Architectural Desktop 2007 |Company: Autodesk,Inc. |WEB Address: www.autodesk.com
 90
    32897
280
     0
281
     0
  0
CLASS
  1
AEC_DISP_PROPS_RAILING_PLAN
  2
AecDbDispPropsRailingPlan
  3
AecArchBase50|Product Desc: Autodesk Architectural Desktop 2007 |Company: Autodesk,Inc. |WEB Address: www.autodesk.com
 90
    32897
280
     0
281
     0
  0
CLASS
  1
AEC_DISP_PROPS_LAYOUT_GRID2D
  2
AecDbDispPropsLayoutGrid2d
  3
AecBase50|Product Desc: Autodesk Architectural Desktop 2007 |Company: Autodesk,Inc. |WEB Address: www.autodesk.com
 90
    32897
280
     0
281
     0
  0
CLASS
  1
AEC_DISP_PROPS_CLIP_VOLUME_RESULT
  2
AecDbDispPropsClipVolResSubDiv
  3
AecBase50|Product Desc: Autodesk Architectural Desktop 2007 |Company: Autodesk,Inc. |WEB Address: www.autodesk.com
 90
    32897
280
     0
281
     0
  0
CLASS
  1
AEC_DISP_PROPS_STAIR_MODEL
  2
AecDbDispPropsStairModel
  3
AecArchBase50|Product Desc: Autodesk Architectural Desktop 2007 |Company: Autodesk,Inc. |WEB Address: www.autodesk.com
 90
    32897
280
     0
281
     0
  0
CLASS
  1
AEC_DISP_PROPS_LAYOUT_CURVE
  2
AecDbDispPropsLayoutCurve
  3
AecBase50|Product Desc: Autodesk Architectural Desktop 2007 |Company: Autodesk,Inc. |WEB Address: www.autodesk.com
 90
    32897
280
     0
281
     0
  0
CLASS
  1
AEC_DISP_PROPS_POLYGON_MODEL
  2
AecDbDispPropsPolygonModel
  3
AecBaseEx50|Product Desc: Autodesk Architectural Desktop 2007 |Company: Autodesk,Inc. |WEB Address: www.autodesk.com
 90
    32897
280
     0
281
     0
  0
CLASS
  1
AEC_DISP_PROPS_MASS_GROUP
  2
AecDbDispPropsMassGroup
  3
AecBaseEx50|Product Desc: Autodesk Architectural Desktop 2007 |Company: Autodesk,Inc. |WEB Address: www.autodesk.com
 90
    32897
280
     0
281
     0
  0
CLASS
  1
AEC_DISP_PROPS_STAIR_PLAN
  2
AecDbDispPropsStairPlan
  3
AecArchBase50|Product Desc: Autodesk Architectural Desktop 2007 |Company: Autodesk,Inc. |WEB Address: www.autodesk.com
 90
    32897
280
     0
281
     0
  0
CLASS
  1
AEC_DISP_PROPS_OPENING
  2
AecDbDispPropsOpening
  3
AecArchBase50|Product Desc: Autodesk Architectural Desktop 2007 |Company: Autodesk,Inc. |WEB Address: www.autodesk.com
 90
    32897
280
     0
281
     0
  0
CLASS
  1
AEC_DISP_PROPS_WALL_GRAPH
  2
AecDbDispPropsWallGraph
  3
AecArchBase50|Product Desc: Autodesk Architectural Desktop 2007 |Company: Autodesk,Inc. |WEB Address: www.autodesk.com
 90
    32897
280
     0
281
     0
  0
CLASS
  1
AEC_DISP_PROPS_DOOR_NOMINAL
  2
AecDbDispPropsDoorNominal
  3
AecArchBase50|Product Desc: Autodesk Architectural Desktop 2007 |Company: Autodesk,Inc. |WEB Address: www.autodesk.com
 90
    32897
280
     0
281
     0
  0
CLASS
  1
AEC_DISP_PROPS_SLAB
  2
AecDbDispPropsSlab
  3
AecArchBase50|Product Desc: Autodesk Architectural Desktop 2007 |Company: Autodesk,Inc. |WEB Address: www.autodesk.com
 90
    32897
280
     0
281
     0
  0
CLASS
  1
AEC_DISP_PROPS_WALL_MODEL
  2
AecDbDispPropsWallModel
  3
AecArchBase50|Product Desc: Autodesk Architectural Desktop 2007 |Company: Autodesk,Inc. |WEB Address: www.autodesk.com
 90
    32897
280
     0
281
     0
  0
CLASS
  1
AEC_DISP_PROPS_MATERIAL
  2
AecDbDispPropsMaterial
  3
AecBase50|Product Desc: Autodesk Architectural Desktop 2007 |Company: Autodesk,Inc. |WEB Address: www.autodesk.com
 90
    32897
280
     0
281
     0
  0
CLASS
  1
AEC_DISP_PROPS_WINDOW
  2
AecDbDispPropsWindow
  3
AecArchBase50|Product Desc: Autodesk Architectural Desktop 2007 |Company: Autodesk,Inc. |WEB Address: www.autodesk.com
 90
    32897
280
     0
281
     0
  0
CLASS
  1
AEC_DISP_PROPS_LAYOUT_GRID3D
  2
AecDbDispPropsLayoutGrid3d
  3
AecBase50|Product Desc: Autodesk Architectural Desktop 2007 |Company: Autodesk,Inc. |WEB Address: www.autodesk.com
 90
    32897
280
     0
281
     0
  0
CLASS
  1
AEC_DISP_PROPS_GRID_ASSEMBLY_PLAN
  2
AecDbDispPropsGridAssemblyPlan
  3
AecArchBase50|Product Desc: Autodesk Architectural Desktop 2007 |Company: Autodesk,Inc. |WEB Address: www.autodesk.com
 90
    32897
280
     0
281
     0
  0
CLASS
  1
AEC_DISP_PROPS_WALL_SCHEM
  2
AecDbDispPropsWallSchem
  3
AecArchBase50|Product Desc: Autodesk Architectural Desktop 2007 |Company: Autodesk,Inc. |WEB Address: www.autodesk.com
 90
    32897
280
     0
281
     0
  0
CLASS
  1
AEC_DISP_PROPS_WALL_PLAN
  2
AecDbDispPropsWallPlan
  3
AecArchBase50|Product Desc: Autodesk Architectural Desktop 2007 |Company: Autodesk,Inc. |WEB Address: www.autodesk.com
 90
    32897
280
     0
281
     0
  0
CLASS
  1
AEC_DISP_PROPS_SPACE_BOUNDARY
  2
AecDbDispPropsSpaceBoundary
  3
AecArchBase50|Product Desc: Autodesk Architectural Desktop 2007 |Company: Autodesk,Inc. |WEB Address: www.autodesk.com
 90
    32897
280
     0
281
     0
  0
CLASS
  1
AEC_DISP_PROPS_SLAB_PLAN
  2
AecDbDispPropsSlabPlan
  3
AecArchBase50|Product Desc: Autodesk Architectural Desktop 2007 |Company: Autodesk,Inc. |WEB Address: www.autodesk.com
 90
    32897
280
     0
281
     0
  0
CLASS
  1
AEC_DISP_PROPS_RAILING_MODEL
  2
AecDbDispPropsRailingModel
  3
AecArchBase50|Product Desc: Autodesk Architectural Desktop 2007 |Company: Autodesk,Inc. |WEB Address: www.autodesk.com
 90
    32897
280
     0
281
     0
  0
CLASS
  1
AEC_DISP_PROPS_MASS_ELEM_MODEL
  2
AecDbDispPropsMassElem
  3
AecBaseEx50|Product Desc: Autodesk Architectural Desktop 2007 |Company: Autodesk,Inc. |WEB Address: www.autodesk.com
 90
    32897
280
     0
281
     0
  0
CLASS
  1
AEC_DISP_PROPS_DIM
  2
AecDbDispPropsDimGroup
  3
AecArchDACHBase50|Product Desc: Autodesk Architectural Desktop 2007 |Company: Autodesk,Inc. |WEB Address: www.autodesk.com
 90
    32897
280
     0
281
     0
  0
CLASS
  1
AEC_DISP_PROPS_ROOFSLAB
  2
AecDbDispPropsRoofSlab
  3
AecArchBase50|Product Desc: Autodesk Architectural Desktop 2007 |Company: Autodesk,Inc. |WEB Address: www.autodesk.com
 90
    32897
280
     0
281
     0
  0
CLASS
  1
AEC_DISP_PROPS_ENT_REF
  2
AecDbDispPropsEntRef
  3
AecBase50|Product Desc: Autodesk Architectural Desktop 2007 |Company: Autodesk,Inc. |WEB Address: www.autodesk.com
 90
    32897
280
     0
281
     0
  0
CLASS
  1
AEC_DISP_PROPS_2D_SECTION
  2
AecDbDispProps2dSection
  3
AecBase50|Product Desc: Autodesk Architectural Desktop 2007 |Company: Autodesk,Inc. |WEB Address: www.autodesk.com
 90
    32897
280
     0
281
     0
  0
CLASS
  1
AECS_DISP_PROPS_MEMBER_LOGICAL
  2
AecsDbDispPropsMemberLogical
  3
AecStructureBase50|Product Desc: Autodesk Architectural Desktop 2007 |Company: Autodesk,Inc. |WEB Address: www.autodesk.com
 90
    32897
280
     0
281
     0
  0
CLASS
  1
AEC_DISP_PROPS_AREA_DECOMPOSED
  2
AecDbDispPropsAreaDecomposed
  3
AecAreaCalculationBase50|Product Desc: Autodesk Architectural Desktop 2007 |Company: Autodesk,Inc. |WEB Address: www.autodesk.com
 90
    32897
280
     0
281
     0
  0
CLASS
  1
AEC_DISP_PROPS_CAMERA
  2
AecDbDispPropsCamera
  3
AecBase50|Product Desc: Autodesk Architectural Desktop 2007 |Company: Autodesk,Inc. |WEB Address: www.autodesk.com
 90
    32897
280
     0
281
     0
  0
CLASS
  1
AECS_DISP_PROPS_MEMBER
  2
AecsDbDispPropsMember
  3
AecStructureBase50|Product Desc: Autodesk Architectural Desktop 2007 |Company: Autodesk,Inc. |WEB Address: www.autodesk.com
 90
    32897
280
     0
281
     0
  0
CLASS
  1
AECS_DISP_PROPS_MEMBER_PLAN
  2
AecsDbDispPropsMemberPlan
  3
AecStructureBase50|Product Desc: Autodesk Architectural Desktop 2007 |Company: Autodesk,Inc. |WEB Address: www.autodesk.com
 90
    32897
280
     0
281
     0
  0
CLASS
  1
AEC_DISP_PROPS_AREAGROUP
  2
AecDbDispPropsAreaGroup
  3
AecAreaCalculationBase50|Product Desc: Autodesk Architectural Desktop 2007 |Company: Autodesk,Inc. |WEB Address: www.autodesk.com
 90
    32897
280
     0
281
     0
  0
CLASS
  1
AEC_DISP_PROPS_WINDOW_NOMINAL
  2
AecDbDispPropsWindowNominal
  3
AecArchBase50|Product Desc: Autodesk Architectural Desktop 2007 |Company: Autodesk,Inc. |WEB Address: www.autodesk.com
 90
    32897
280
     0
281
     0
  0
CLASS
  1
AEC_DISP_PROPS_AREA
  2
AecDbDispPropsArea
  3
AecAreaCalculationBase50|Product Desc: Autodesk Architectural Desktop 2007 |Company: Autodesk,Inc. |WEB Address: www.autodesk.com
 90
    32897
280
     0
281
     0
  0
CLASS
  1
AEC_DISP_PROPS_SCHEDULE_TABLE
  2
AecDbDispPropsScheduleTable
  3
AecSchedule50|Product Desc: Autodesk Architectural Desktop 2007 |Company: Autodesk,Inc. |WEB Address: www.autodesk.com
 90
    32897
280
     0
281
     0
  0
CLASS
  1
AEC_LAYERKEY_STYLE
  2
AecDbLayerKeyStyle
  3
AecBase50|Product Desc: Autodesk Architectural Desktop 2007 |Company: Autodesk,Inc. |WEB Address: www.autodesk.com
 90
    32897
280
     0
281
     0
  0
CLASS
  1
AEC_VARS_ARCHBASE
  2
AecDbVarsArchBase
  3
AecArchBase50|Product Desc: Autodesk Architectural Desktop 2007 |Company: Autodesk,Inc. |WEB Address: www.autodesk.com
 90
    32897
280
     0
281
     0
  0
CLASS
  1
AEC_VARS_MUNICH
  2
AecDbVarsMunich
  3
AecArchDACHBase50|Product Desc: Autodesk Architectural Desktop 2007 |Company: Autodesk,Inc. |WEB Address: www.autodesk.com
 90
    32897
280
     0
281
     0
  0
CLASS
  1
AEC_NOTIFICATION_TRACKER
  2
AecDbNotificationTracker
  3
AecBase50|Product Desc: Autodesk Architectural Desktop 2007 |Company: Autodesk,Inc. |WEB Address: www.autodesk.com
 90
    32897
280
     0
281
     0
  0
CLASS
  1
AEC_DISP_REP_ANCHOR
  2
AecDbDispRepAnchor
  3
AecBase50|Product Desc: Autodesk Architectural Desktop 2007 |Company: Autodesk,Inc. |WEB Address: www.autodesk.com
 90
    32897
280
     0
281
     0
  0
CLASS
  1
AEC_DISP_REP_POLYGON_TRUECOLOUR
  2
AecDbDispRepPolygonTrueColour
  3
AecBaseEx50|Product Desc: Autodesk Architectural Desktop 2007 |Company: Autodesk,Inc. |WEB Address: www.autodesk.com
 90
    32897
280
     0
281
     0
  0
CLASS
  1
AEC_DISP_PROPS_POLYGON_TRUECOLOUR
  2
AecDbDispPropsPolygonTrueColour
  3
AecBaseEx50|Product Desc: Autodesk Architectural Desktop 2007 |Company: Autodesk,Inc. |WEB Address: www.autodesk.com
 90
    32897
280
     0
281
     0
  0
CLASS
  1
AEC_DISP_REP_BDG_ELEVLINE_RCP
  2
AecDbDispRepBdgElevLineRcp
  3
AecArchBase50|Product Desc: Autodesk Architectural Desktop 2007 |Company: Autodesk,Inc. |WEB Address: www.autodesk.com
 90
    32897
280
     0
281
     0
  0
CLASS
  1
AEC_DISP_REP_BDG_SECTIONLINE_RCP
  2
AecDbDispRepBdgSectionLineRcp
  3
AecArchBase50|Product Desc: Autodesk Architectural Desktop 2007 |Company: Autodesk,Inc. |WEB Address: www.autodesk.com
 90
    32897
280
     0
281
     0
  0
CLASS
  1
AEC_DISP_REP_BDG_SECTION_MODEL
  2
AecDbDispRepBdgSectionModel
  3
AecArchBase50|Product Desc: Autodesk Architectural Desktop 2007 |Company: Autodesk,Inc. |WEB Address: www.autodesk.com
 90
    32897
280
     0
281
     0
  0
CLASS
  1
AEC_DISP_REP_DOOR_ELEV
  2
AecDbDispRepDoorElev
  3
AecArchBase50|Product Desc: Autodesk Architectural Desktop 2007 |Company: Autodesk,Inc. |WEB Address: www.autodesk.com
 90
    32897
280
     0
281
     0
  0
CLASS
  1
AEC_DISP_REP_DOOR_RCP
  2
AecDbDispRepDoorRcp
  3
AecArchBase50|Product Desc: Autodesk Architectural Desktop 2007 |Company: Autodesk,Inc. |WEB Address: www.autodesk.com
 90
    32897
280
     0
281
     0
  0
CLASS
  1
AEC_DISP_REP_DOOR_THRESHOLD_PLAN
  2
AecDbDispRepDoorThresholdPlan
  3
AecArchBase50|Product Desc: Autodesk Architectural Desktop 2007 |Company: Autodesk,Inc. |WEB Address: www.autodesk.com
 90
    32897
280
     0
281
     0
  0
CLASS
  1
AEC_DISP_PROPS_DOOR_THRESHOLD_PLAN
  2
AecDbDispPropsDoorThresholdPlan
  3
AecArchBase50|Product Desc: Autodesk Architectural Desktop 2007 |Company: Autodesk,Inc. |WEB Address: www.autodesk.com
 90
    32897
280
     0
281
     0
  0
CLASS
  1
AEC_DISP_REP_MASS_ELEM_RCP
  2
AecDbDispRepMassElemRcp
  3
AecArchBase50|Product Desc: Autodesk Architectural Desktop 2007 |Company: Autodesk,Inc. |WEB Address: www.autodesk.com
 90
    32897
280
     0
281
     0
  0
CLASS
  1
AEC_DISP_REP_MASS_GROUP_RCP
  2
AecDbDispRepMassGroupRcp
  3
AecArchBase50|Product Desc: Autodesk Architectural Desktop 2007 |Company: Autodesk,Inc. |WEB Address: www.autodesk.com
 90
    32897
280
     0
281
     0
  0
CLASS
  1
AEC_DISP_REP_MVBLOCK_REF_RCP
  2
AecDbDispRepMvBlockRefRcp
  3
AecArchBase50|Product Desc: Autodesk Architectural Desktop 2007 |Company: Autodesk,Inc. |WEB Address: www.autodesk.com
 90
    32897
280
     0
281
     0
  0
CLASS
  1
AEC_DISP_REP_ROOF_RCP
  2
AecDbDispRepRoofRcp
  3
AecArchBase50|Product Desc: Autodesk Architectural Desktop 2007 |Company: Autodesk,Inc. |WEB Address: www.autodesk.com
 90
    32897
280
     0
281
     0
  0
CLASS
  1
AEC_DISP_REP_SPACE_BOUNDARY_DIAGRAM
  2
AecDbDispRepSpaceBoundaryDgrm
  3
AecArchBase50|Product Desc: Autodesk Architectural Desktop 2007 |Company: Autodesk,Inc. |WEB Address: www.autodesk.com
 90
    32897
280
     0
281
     0
  0
CLASS
  1
AEC_DISP_REP_SPACE_RCP
  2
AecDbDispRepSpaceRcp
  3
AecArchBase50|Product Desc: Autodesk Architectural Desktop 2007 |Company: Autodesk,Inc. |WEB Address: www.autodesk.com
 90
    32897
280
     0
281
     0
  0
CLASS
  1
AEC_DISP_REP_SPACE_VOLUME
  2
AecDbDispRepSpaceVolume
  3
AecArchBase50|Product Desc: Autodesk Architectural Desktop 2007 |Company: Autodesk,Inc. |WEB Address: www.autodesk.com
 90
    32897
280
     0
281
     0
  0
CLASS
  1
AEC_DISP_REP_STAIR_PLAN_OVERLAPPING
  2
AecDbDispRepStairPlanOverlapping
  3
AecArchBase50|Product Desc: Autodesk Architectural Desktop 2007 |Company: Autodesk,Inc. |WEB Address: www.autodesk.com
 90
    32897
280
     0
281
     0
  0
CLASS
  1
AEC_DISP_PROPS_STAIR_PLAN_OVERLAPPING
  2
AecDbDispPropsStairPlanOverlapping
  3
AecArchBase50|Product Desc: Autodesk Architectural Desktop 2007 |Company: Autodesk,Inc. |WEB Address: www.autodesk.com
 90
    32897
280
     0
281
     0
  0
CLASS
  1
AEC_DISP_REP_STAIR_RCP
  2
AecDbDispRepStairRcp
  3
AecArchBase50|Product Desc: Autodesk Architectural Desktop 2007 |Company: Autodesk,Inc. |WEB Address: www.autodesk.com
 90
    32897
280
     0
281
     0
  0
CLASS
  1
AEC_DISP_REP_WALL_RCP
  2
AecDbDispRepWallRcp
  3
AecArchBase50|Product Desc: Autodesk Architectural Desktop 2007 |Company: Autodesk,Inc. |WEB Address: www.autodesk.com
 90
    32897
280
     0
281
     0
  0
CLASS
  1
AEC_DISP_REP_WINDOWASSEMBLY_SILL_PLAN
  2
AecDbDispRepWindowAssemblySillPlan
  3
AecArchBase50|Product Desc: Autodesk Architectural Desktop 2007 |Company: Autodesk,Inc. |WEB Address: www.autodesk.com
 90
    32897
280
     0
281
     0
  0
CLASS
  1
AEC_DISP_PROPS_WINDOW_ASSEMBLY_SILL_PLAN
  2
AecDbDispPropsWindowAssemblySillPlan
  3
AecArchBase50|Product Desc: Autodesk Architectural Desktop 2007 |Company: Autodesk,Inc. |WEB Address: www.autodesk.com
 90
    32897
280
     0
281
     0
  0
CLASS
  1
AEC_DISP_REP_WINDOW_ELEV
  2
AecDbDispRepWindowElev
  3
AecArchBase50|Product Desc: Autodesk Architectural Desktop 2007 |Company: Autodesk,Inc. |WEB Address: www.autodesk.com
 90
    32897
280
     0
281
     0
  0
CLASS
  1
AEC_DISP_REP_WINDOW_RCP
  2
AecDbDispRepWindowRcp
  3
AecArchBase50|Product Desc: Autodesk Architectural Desktop 2007 |Company: Autodesk,Inc. |WEB Address: www.autodesk.com
 90
    32897
280
     0
281
     0
  0
CLASS
  1
AEC_DISP_REP_WINDOW_SILL_PLAN
  2
AecDbDispRepWindowSillPlan
  3
AecArchBase50|Product Desc: Autodesk Architectural Desktop 2007 |Company: Autodesk,Inc. |WEB Address: www.autodesk.com
 90
    32897
280
     0
281
     0
  0
CLASS
  1
AEC_DISP_PROPS_WINDOW_SILL_PLAN
  2
AecDbDispPropsWindowSillPlan
  3
AecArchBase50|Product Desc: Autodesk Architectural Desktop 2007 |Company: Autodesk,Inc. |WEB Address: www.autodesk.com
 90
    32897
280
     0
281
     0
  0
CLASS
  1
AEC_DISP_REP_ANCHOR_BUB_TO_GRID_RCP
  2
AecDbDispRepAnchorBubToGridRcp
  3
AecStructureBase50|Product Desc: Autodesk Architectural Desktop 2007 |Company: Autodesk,Inc. |WEB Address: www.autodesk.com
 90
    32897
280
     0
281
     0
  0
CLASS
  1
AEC_DISP_REP_COLUMN_GRID_RCP
  2
AecDbDispRepColumnGridRcp
  3
AecStructureBase50|Product Desc: Autodesk Architectural Desktop 2007 |Company: Autodesk,Inc. |WEB Address: www.autodesk.com
 90
    32897
280
     0
281
     0
  0
CLASS
  1
AECS_DISP_REP_MEMBER_ELEVATION_DESIGN
  2
AecsDbDispRepMemberElevationDesign
  3
AecStructureBase50|Product Desc: Autodesk Architectural Desktop 2007 |Company: Autodesk,Inc. |WEB Address: www.autodesk.com
 90
    32897
280
     0
281
     0
  0
CLASS
  1
AECS_DISP_PROPS_MEMBER_PROJECTED
  2
AecsDbDispPropsMemberProjected
  3
AecStructureBase50|Product Desc: Autodesk Architectural Desktop 2007 |Company: Autodesk,Inc. |WEB Address: www.autodesk.com
 90
    32897
280
     0
281
     0
  0
CLASS
  1
AECS_DISP_REP_MEMBER_ELEVATION_DETAIL
  2
AecsDbDispRepMemberElevationDetail
  3
AecStructureBase50|Product Desc: Autodesk Architectural Desktop 2007 |Company: Autodesk,Inc. |WEB Address: www.autodesk.com
 90
    32897
280
     0
281
     0
  0
CLASS
  1
AECS_DISP_REP_MEMBER_MODEL_DETAIL
  2
AecsDbDispRepMemberModelDetail
  3
AecStructureBase50|Product Desc: Autodesk Architectural Desktop 2007 |Company: Autodesk,Inc. |WEB Address: www.autodesk.com
 90
    32897
280
     0
281
     0
  0
CLASS
  1
AECS_DISP_REP_MEMBER_PLAN_DETAIL
  2
AecsDbDispRepMemberPlanDetail
  3
AecStructureBase50|Product Desc: Autodesk Architectural Desktop 2007 |Company: Autodesk,Inc. |WEB Address: www.autodesk.com
 90
    32897
280
     0
281
     0
  0
CLASS
  1
AECS_DISP_REP_MEMBER_PLAN_SKETCH
  2
AecsDbDispRepMemberPlanSketch
  3
AecStructureBase50|Product Desc: Autodesk Architectural Desktop 2007 |Company: Autodesk,Inc. |WEB Address: www.autodesk.com
 90
    32897
280
     0
281
     0
  0
CLASS
  1
AECS_DISP_PROPS_MEMBER_PLAN_SKETCH
  2
AecsDbDispPropsMemberPlanSketch
  3
AecStructureBase50|Product Desc: Autodesk Architectural Desktop 2007 |Company: Autodesk,Inc. |WEB Address: www.autodesk.com
 90
    32897
280
     0
281
     0
  0
CLASS
  1
AEC_AECDBDISPREPAREA100
  2
AecDbDispRepArea100
  3
AecArchDACHBase50|Product Desc: Autodesk Architectural Desktop 2007 |Company: Autodesk,Inc. |WEB Address: www.autodesk.com
 90
    32897
280
     0
281
     0
  0
CLASS
  1
AEC_AECDBDISPREPAREAGROUP100
  2
AecDbDispRepAreaGroup100
  3
AecArchDACHBase50|Product Desc: Autodesk Architectural Desktop 2007 |Company: Autodesk,Inc. |WEB Address: www.autodesk.com
 90
    32897
280
     0
281
     0
  0
CLASS
  1
AEC_AECDBDISPREPBDGELEVLINEPLAN100
  2
AecDbDispRepBdgElevLinePlan100
  3
AecArchDACHBase50|Product Desc: Autodesk Architectural Desktop 2007 |Company: Autodesk,Inc. |WEB Address: www.autodesk.com
 90
    32897
280
     0
281
     0
  0
CLASS
  1
AEC_AECDBDISPREPBDGSECTIONLINEPLAN100
  2
AecDbDispRepBdgSectionLinePlan100
  3
AecArchDACHBase50|Product Desc: Autodesk Architectural Desktop 2007 |Company: Autodesk,Inc. |WEB Address: www.autodesk.com
 90
    32897
280
     0
281
     0
  0
CLASS
  1
AEC_AECDBDISPREPCEILINGGRIDPLAN100
  2
AecDbDispRepCeilingGridPlan100
  3
AecArchDACHBase50|Product Desc: Autodesk Architectural Desktop 2007 |Company: Autodesk,Inc. |WEB Address: www.autodesk.com
 90
    32897
280
     0
281
     0
  0
CLASS
  1
AEC_AECDBDISPREPCOLUMNGRIDPLAN100
  2
AecDbDispRepColumnGridPlan100
  3
AecArchDACHBase50|Product Desc: Autodesk Architectural Desktop 2007 |Company: Autodesk,Inc. |WEB Address: www.autodesk.com
 90
    32897
280
     0
281
     0
  0
CLASS
  1
AEC_AECDBDISPREPCURTAINWALLLAYOUTPLAN100
  2
AecDbDispRepCurtainWallLayoutPlan100
  3
AecArchDACHBase50|Product Desc: Autodesk Architectural Desktop 2007 |Company: Autodesk,Inc. |WEB Address: www.autodesk.com
 90
    32897
280
     0
281
     0
  0
CLASS
  1
AEC_AECDBDISPREPCURTAINWALLUNITPLAN100
  2
AecDbDispRepCurtainWallUnitPlan100
  3
AecArchDACHBase50|Product Desc: Autodesk Architectural Desktop 2007 |Company: Autodesk,Inc. |WEB Address: www.autodesk.com
 90
    32897
280
     0
281
     0
  0
CLASS
  1
AEC_AECDBDISPREPMVBLOCKREFPLAN100
  2
AecDbDispRepMvBlockRefPlan100
  3
AecArchDACHBase50|Product Desc: Autodesk Architectural Desktop 2007 |Company: Autodesk,Inc. |WEB Address: www.autodesk.com
 90
    32897
280
     0
281
     0
  0
CLASS
  1
AEC_AECDBDISPREPROOFPLAN100
  2
AecDbDispRepRoofPlan100
  3
AecArchDACHBase50|Product Desc: Autodesk Architectural Desktop 2007 |Company: Autodesk,Inc. |WEB Address: www.autodesk.com
 90
    32897
280
     0
281
     0
  0
CLASS
  1
AEC_AECDBDISPREPROOFSLABPLAN100
  2
AecDbDispRepRoofSlabPlan100
  3
AecArchDACHBase50|Product Desc: Autodesk Architectural Desktop 2007 |Company: Autodesk,Inc. |WEB Address: www.autodesk.com
 90
    32897
280
     0
281
     0
  0
CLASS
  1
AEC_AECDBDISPREPSLABPLAN100
  2
AecDbDispRepSlabPlan100
  3
AecArchDACHBase50|Product Desc: Autodesk Architectural Desktop 2007 |Company: Autodesk,Inc. |WEB Address: www.autodesk.com
 90
    32897
280
     0
281
     0
  0
CLASS
  1
AEC_AECDBDISPREPSPACEBOUNDARYPLAN100
  2
AecDbDispRepSpaceBoundaryPlan100
  3
AecArchDACHBase50|Product Desc: Autodesk Architectural Desktop 2007 |Company: Autodesk,Inc. |WEB Address: www.autodesk.com
 90
    32897
280
     0
281
     0
  0
CLASS
  1
AEC_AECDBDISPREPSPACEPLAN100
  2
AecDbDispRepSpacePlan100
  3
AecArchDACHBase50|Product Desc: Autodesk Architectural Desktop 2007 |Company: Autodesk,Inc. |WEB Address: www.autodesk.com
 90
    32897
280
     0
281
     0
  0
CLASS
  1
AEC_AECDBDISPREPWALLPLAN100
  2
AecDbDispRepWallPlan100
  3
AecArchDACHBase50|Product Desc: Autodesk Architectural Desktop 2007 |Company: Autodesk,Inc. |WEB Address: www.autodesk.com
 90
    32897
280
     0
281
     0
  0
CLASS
  1
AEC_AECDBDISPREPAREA50
  2
AecDbDispRepArea50
  3
AecArchDACHBase50|Product Desc: Autodesk Architectural Desktop 2007 |Company: Autodesk,Inc. |WEB Address: www.autodesk.com
 90
    32897
280
     0
281
     0
  0
CLASS
  1
AEC_AECDBDISPREPAREAGROUP50
  2
AecDbDispRepAreaGroup50
  3
AecArchDACHBase50|Product Desc: Autodesk Architectural Desktop 2007 |Company: Autodesk,Inc. |WEB Address: www.autodesk.com
 90
    32897
280
     0
281
     0
  0
CLASS
  1
AEC_AECDBDISPREPBDGELEVLINEPLAN50
  2
AecDbDispRepBdgElevLinePlan50
  3
AecArchDACHBase50|Product Desc: Autodesk Architectural Desktop 2007 |Company: Autodesk,Inc. |WEB Address: www.autodesk.com
 90
    32897
280
     0
281
     0
  0
CLASS
  1
AEC_AECDBDISPREPBDGSECTIONLINEPLAN50
  2
AecDbDispRepBdgSectionLinePlan50
  3
AecArchDACHBase50|Product Desc: Autodesk Architectural Desktop 2007 |Company: Autodesk,Inc. |WEB Address: www.autodesk.com
 90
    32897
280
     0
281
     0
  0
CLASS
  1
AEC_AECDBDISPREPCEILINGGRIDPLAN50
  2
AecDbDispRepCeilingGridPlan50
  3
AecArchDACHBase50|Product Desc: Autodesk Architectural Desktop 2007 |Company: Autodesk,Inc. |WEB Address: www.autodesk.com
 90
    32897
280
     0
281
     0
  0
CLASS
  1
AEC_AECDBDISPREPCOLUMNGRIDPLAN50
  2
AecDbDispRepColumnGridPlan50
  3
AecArchDACHBase50|Product Desc: Autodesk Architectural Desktop 2007 |Company: Autodesk,Inc. |WEB Address: www.autodesk.com
 90
    32897
280
     0
281
     0
  0
CLASS
  1
AEC_AECDBDISPREPCURTAINWALLLAYOUTPLAN50
  2
AecDbDispRepCurtainWallLayoutPlan50
  3
AecArchDACHBase50|Product Desc: Autodesk Architectural Desktop 2007 |Company: Autodesk,Inc. |WEB Address: www.autodesk.com
 90
    32897
280
     0
281
     0
  0
CLASS
  1
AEC_AECDBDISPREPCURTAINWALLUNITPLAN50
  2
AecDbDispRepCurtainWallUnitPlan50
  3
AecArchDACHBase50|Product Desc: Autodesk Architectural Desktop 2007 |Company: Autodesk,Inc. |WEB Address: www.autodesk.com
 90
    32897
280
     0
281
     0
  0
CLASS
  1
AEC_AECDBDISPREPMVBLOCKREFPLAN50
  2
AecDbDispRepMvBlockRefPlan50
  3
AecArchDACHBase50|Product Desc: Autodesk Architectural Desktop 2007 |Company: Autodesk,Inc. |WEB Address: www.autodesk.com
 90
    32897
280
     0
281
     0
  0
CLASS
  1
AEC_AECDBDISPREPROOFPLAN50
  2
AecDbDispRepRoofPlan50
  3
AecArchDACHBase50|Product Desc: Autodesk Architectural Desktop 2007 |Company: Autodesk,Inc. |WEB Address: www.autodesk.com
 90
    32897
280
     0
281
     0
  0
CLASS
  1
AEC_AECDBDISPREPROOFSLABPLAN50
  2
AecDbDispRepRoofSlabPlan50
  3
AecArchDACHBase50|Product Desc: Autodesk Architectural Desktop 2007 |Company: Autodesk,Inc. |WEB Address: www.autodesk.com
 90
    32897
280
     0
281
     0
  0
CLASS
  1
AEC_AECDBDISPREPSLABPLAN50
  2
AecDbDispRepSlabPlan50
  3
AecArchDACHBase50|Product Desc: Autodesk Architectural Desktop 2007 |Company: Autodesk,Inc. |WEB Address: www.autodesk.com
 90
    32897
280
     0
281
     0
  0
CLASS
  1
AEC_AECDBDISPREPSPACEBOUNDARYPLAN50
  2
AecDbDispRepSpaceBoundaryPlan50
  3
AecArchDACHBase50|Product Desc: Autodesk Architectural Desktop 2007 |Company: Autodesk,Inc. |WEB Address: www.autodesk.com
 90
    32897
280
     0
281
     0
  0
CLASS
  1
AEC_AECDBDISPREPSPACEPLAN50
  2
AecDbDispRepSpacePlan50
  3
AecArchDACHBase50|Product Desc: Autodesk Architectural Desktop 2007 |Company: Autodesk,Inc. |WEB Address: www.autodesk.com
 90
    32897
280
     0
281
     0
  0
CLASS
  1
AEC_AECDBDISPREPWALLPLAN50
  2
AecDbDispRepWallPlan50
  3
AecArchDACHBase50|Product Desc: Autodesk Architectural Desktop 2007 |Company: Autodesk,Inc. |WEB Address: www.autodesk.com
 90
    32897
280
     0
281
     0
  0
CLASS
  1
AEC_AECDBDISPREPWINDOWASSEMBLYPLAN50
  2
AecDbDispRepWindowAssemblyPlan50
  3
AecArchDACHBase50|Product Desc: Autodesk Architectural Desktop 2007 |Company: Autodesk,Inc. |WEB Address: www.autodesk.com
 90
    32897
280
     0
281
     0
  0
CLASS
  1
AEC_DB_DISP_REP_DIM_GROUP_PLAN100
  2
AecDbDispRepDimGroupPlan100
  3
AecArchDACHBase50|Product Desc: Autodesk Architectural Desktop 2007 |Company: Autodesk,Inc. |WEB Address: www.autodesk.com
 90
    32897
280
     0
281
     0
  0
CLASS
  1
AEC_DB_DISP_REP_DIM_GROUP_PLAN50
  2
AecDbDispRepDimGroupPlan50
  3
AecArchDACHBase50|Product Desc: Autodesk Architectural Desktop 2007 |Company: Autodesk,Inc. |WEB Address: www.autodesk.com
 90
    32897
280
     0
281
     0
  0
CLASS
  1
AEC_DISP_REP_DOOR_PLAN_50
  2
AecDbDispRepDoorPlan50
  3
AecArchDACHBase50|Product Desc: Autodesk Architectural Desktop 2007 |Company: Autodesk,Inc. |WEB Address: www.autodesk.com
 90
    32897
280
     0
281
     0
  0
CLASS
  1
AEC_DISP_PROPS_DOOR_PLAN_50
  2
AecDbDispPropsDoorPlan50
  3
AecArchDACHBase50|Product Desc: Autodesk Architectural Desktop 2007 |Company: Autodesk,Inc. |WEB Address: www.autodesk.com
 90
    32897
280
     0
281
     0
  0
CLASS
  1
AEC_DISP_REP_DOOR_PLAN_HEKTO
  2
AecDbDispRepDoorPlanHekto
  3
AecArchDACHBase50|Product Desc: Autodesk Architectural Desktop 2007 |Company: Autodesk,Inc. |WEB Address: www.autodesk.com
 90
    32897
280
     0
281
     0
  0
CLASS
  1
AEC_DISP_PROPS_DOOR_PLAN_100
  2
AecDbDispPropsDoorPlan100
  3
AecArchDACHBase50|Product Desc: Autodesk Architectural Desktop 2007 |Company: Autodesk,Inc. |WEB Address: www.autodesk.com
 90
    32897
280
     0
281
     0
  0
CLASS
  1
AEC_DISP_REP_DOOR_THRESHOLD_SYMBOL_PLAN
  2
AecDbDispRepDoorThresholdSymbolPlan
  3
AecArchDACHBase50|Product Desc: Autodesk Architectural Desktop 2007 |Company: Autodesk,Inc. |WEB Address: www.autodesk.com
 90
    32897
280
     0
281
     0
  0
CLASS
  1
AEC_DISP_PROPS_DOOR_THRESHOLD_SYMBOL_PLAN
  2
AecDbDispPropsDoorThresholdSymbolPlan
  3
AecArchDACHBase50|Product Desc: Autodesk Architectural Desktop 2007 |Company: Autodesk,Inc. |WEB Address: www.autodesk.com
 90
    32897
280
     0
281
     0
  0
CLASS
  1
AEC_DISPREPAECDBDISPREPMASSELEMPLAN100
  2
AecDbDispRepMassElemPlan100
  3
AecArchDACHBase50|Product Desc: Autodesk Architectural Desktop 2007 |Company: Autodesk,Inc. |WEB Address: www.autodesk.com
 90
    32897
280
     0
281
     0
  0
CLASS
  1
AEC_DISPROPSMASSELEMPLANCOMMON
  2
AecDbDispPropsMassElemPlanCommon
  3
AecArchDACHBase50|Product Desc: Autodesk Architectural Desktop 2007 |Company: Autodesk,Inc. |WEB Address: www.autodesk.com
 90
    32897
280
     0
281
     0
  0
CLASS
  1
AEC_DISPREPAECDBDISPREPMASSELEMPLAN50
  2
AecDbDispRepMassElemPlan50
  3
AecArchDACHBase50|Product Desc: Autodesk Architectural Desktop 2007 |Company: Autodesk,Inc. |WEB Address: www.autodesk.com
 90
    32897
280
     0
281
     0
  0
CLASS
  1
AEC_DISPREPAECDBDISPREPMASSGROUPPLAN100
  2
AecDbDispRepMassGroupPlan100
  3
AecArchDACHBase50|Product Desc: Autodesk Architectural Desktop 2007 |Company: Autodesk,Inc. |WEB Address: www.autodesk.com
 90
    32897
280
     0
281
     0
  0
CLASS
  1
AEC_DISPROPSMASSGROUPPLANCOMMON
  2
AecDbDispPropsMassGroupPlanCommon
  3
AecArchDACHBase50|Product Desc: Autodesk Architectural Desktop 2007 |Company: Autodesk,Inc. |WEB Address: www.autodesk.com
 90
    32897
280
     0
281
     0
  0
CLASS
  1
AEC_DISPREPAECDBDISPREPMASSGROUPPLAN50
  2
AecDbDispRepMassGroupPlan50
  3
AecArchDACHBase50|Product Desc: Autodesk Architectural Desktop 2007 |Company: Autodesk,Inc. |WEB Address: www.autodesk.com
 90
    32897
280
     0
281
     0
  0
CLASS
  1
AEC_DISPREPAECDBDISPREPOPENINGPLAN100
  2
AecDbDispRepOpeningPlan100
  3
AecArchDACHBase50|Product Desc: Autodesk Architectural Desktop 2007 |Company: Autodesk,Inc. |WEB Address: www.autodesk.com
 90
    32897
280
     0
281
     0
  0
CLASS
  1
AEC_DISPROPSOPENINGPLANCOMMONHATCHED
  2
AecDbDispPropsOpeningPlanCommonHatched
  3
AecArchDACHBase50|Product Desc: Autodesk Architectural Desktop 2007 |Company: Autodesk,Inc. |WEB Address: www.autodesk.com
 90
    32897
280
     0
281
     0
  0
CLASS
  1
AEC_DISPREPAECDBDISPREPOPENINGPLAN50
  2
AecDbDispRepOpeningPlan50
  3
AecArchDACHBase50|Product Desc: Autodesk Architectural Desktop 2007 |Company: Autodesk,Inc. |WEB Address: www.autodesk.com
 90
    32897
280
     0
281
     0
  0
CLASS
  1
AEC_DISPREPAECDBDISPREPOPENINGPLANREFLECTED
  2
AecDbDispRepOpeningPlanReflected
  3
AecArchDACHBase50|Product Desc: Autodesk Architectural Desktop 2007 |Company: Autodesk,Inc. |WEB Address: www.autodesk.com
 90
    32897
280
     0
281
     0
  0
CLASS
  1
AEC_DISPROPSOPENINGPLANCOMMON
  2
AecDbDispPropsOpeningPlanCommon
  3
AecArchDACHBase50|Product Desc: Autodesk Architectural Desktop 2007 |Company: Autodesk,Inc. |WEB Address: www.autodesk.com
 90
    32897
280
     0
281
     0
  0
CLASS
  1
AEC_DISPREPAECDBDISPREPOPENINGSILLPLAN
  2
AecDbDispRepOpeningSillPlan
  3
AecArchDACHBase50|Product Desc: Autodesk Architectural Desktop 2007 |Company: Autodesk,Inc. |WEB Address: www.autodesk.com
 90
    32897
280
     0
281
     0
  0
CLASS
  1
AEC_DISPROPSOPENINGSILLPLAN
  2
AecDbDispPropsOpeningSillPlan
  3
AecArchDACHBase50|Product Desc: Autodesk Architectural Desktop 2007 |Company: Autodesk,Inc. |WEB Address: www.autodesk.com
 90
    32897
280
     0
281
     0
  0
CLASS
  1
AEC_DISP_REP_RAILING_PLAN_100
  2
AecDbDispRepRailingPlan100
  3
AecArchDACHBase50|Product Desc: Autodesk Architectural Desktop 2007 |Company: Autodesk,Inc. |WEB Address: www.autodesk.com
 90
    32897
280
     0
281
     0
  0
CLASS
  1
AEC_DISP_ROPS_RAILING_PLAN_100
  2
AecDbDispPropsRailingPlan100
  3
AecArchDACHBase50|Product Desc: Autodesk Architectural Desktop 2007 |Company: Autodesk,Inc. |WEB Address: www.autodesk.com
 90
    32897
280
     0
281
     0
  0
CLASS
  1
AEC_DISP_REP_RAILING_PLAN_50
  2
AecDbDispRepRailingPlan50
  3
AecArchDACHBase50|Product Desc: Autodesk Architectural Desktop 2007 |Company: Autodesk,Inc. |WEB Address: www.autodesk.com
 90
    32897
280
     0
281
     0
  0
CLASS
  1
AEC_DISP_ROPS_RAILING_PLAN_50
  2
AecDbDispPropsRailingPlan50
  3
AecArchDACHBase50|Product Desc: Autodesk Architectural Desktop 2007 |Company: Autodesk,Inc. |WEB Address: www.autodesk.com
 90
    32897
280
     0
281
     0
  0
CLASS
  1
AEC_DISP_REP_STAIR_PLAN_100
  2
AecDbDispRepStairPlan100
  3
AecArchDACHBase50|Product Desc: Autodesk Architectural Desktop 2007 |Company: Autodesk,Inc. |WEB Address: www.autodesk.com
 90
    32897
280
     0
281
     0
  0
CLASS
  1
AEC_DISP_ROPS_STAIR_PLAN_100
  2
AecDbDispPropsStairPlan100
  3
AecArchDACHBase50|Product Desc: Autodesk Architectural Desktop 2007 |Company: Autodesk,Inc. |WEB Address: www.autodesk.com
 90
    32897
280
     0
281
     0
  0
CLASS
  1
AEC_DISP_REP_STAIR_PLAN_50
  2
AecDbDispRepStairPlan50
  3
AecArchDACHBase50|Product Desc: Autodesk Architectural Desktop 2007 |Company: Autodesk,Inc. |WEB Address: www.autodesk.com
 90
    32897
280
     0
281
     0
  0
CLASS
  1
AEC_DISP_ROPS_STAIR_PLAN_50
  2
AecDbDispPropsStairPlan50
  3
AecArchDACHBase50|Product Desc: Autodesk Architectural Desktop 2007 |Company: Autodesk,Inc. |WEB Address: www.autodesk.com
 90
    32897
280
     0
281
     0
  0
CLASS
  1
AEC_DISP_REP_WINDOW_PLAN_100
  2
AecDbDispRepWindowPlan100
  3
AecArchDACHBase50|Product Desc: Autodesk Architectural Desktop 2007 |Company: Autodesk,Inc. |WEB Address: www.autodesk.com
 90
    32897
280
     0
281
     0
  0
CLASS
  1
AEC_DISP_PROPS_WINDOW_PLAN_100
  2
AecDbDispPropsWindowPlan100
  3
AecArchDACHBase50|Product Desc: Autodesk Architectural Desktop 2007 |Company: Autodesk,Inc. |WEB Address: www.autodesk.com
 90
    32897
280
     0
281
     0
  0
CLASS
  1
AEC_DISP_REP_WINDOW_PLAN_50
  2
AecDbDispRepWindowPlan50
  3
AecArchDACHBase50|Product Desc: Autodesk Architectural Desktop 2007 |Company: Autodesk,Inc. |WEB Address: www.autodesk.com
 90
    32897
280
     0
281
     0
  0
CLASS
  1
AEC_DISP_PROPS_WINDOW_PLAN_50
  2
AecDbDispPropsWindowPlan50
  3
AecArchDACHBase50|Product Desc: Autodesk Architectural Desktop 2007 |Company: Autodesk,Inc. |WEB Address: www.autodesk.com
 90
    32897
280
     0
281
     0
  0
CLASS
  1
BINRECORD
  2
AcAecBinRecord
  3
AecBase50|Product Desc: Autodesk Architectural Desktop 2007 |Company: Autodesk,Inc. |WEB Address: www.autodesk.com
 90
    32897
280
     0
281
     0
  0
CLASS
  1
SPATIAL_FILTER
  2
AcDbSpatialFilter
  3
ObjectDBX Classes
 90
    32768
280
     0
281
     0
  0
CLASS
  1
AEC_VARS_STRUCTUREBASE
  2
AecsDbVarsStructureBase
  3
AecStructureBase50|Product Desc: Autodesk Architectural Desktop 2007 |Company: Autodesk,Inc. |WEB Address: www.autodesk.com
 90
    32897
280
     0
281
     0
  0
CLASS
  1
DIMASSOC
  2
AcDbDimAssoc
  3
"AcDbDimAssoc|Product Desc:     AcDim ARX App For Dimension|Company:          Autodesk, Inc.|WEB Address:      www.autodesk.com"
 90
    32768
280
     0
281
     0
  0
CLASS
  1
TABLESTYLE
  2
AcDbTableStyle
  3
ObjectDBX Classes
 90
     4095
280
     0
281
     0
  0
CLASS
  1
AEC_DISP_REP_DISPLAYTHEME
  2
AecDbDispRepDisplayTheme
  3
AecBase50|Product Desc: Autodesk Architectural Desktop 2007 |Company: Autodesk,Inc. |WEB Address: www.autodesk.com
 90
    32897
280
     0
281
     0
  0
CLASS
  1
AEC_DISP_PROPS_DISPLAYTHEME
  2
AecDbDispPropsDisplayTheme
  3
AecBase50|Product Desc: Autodesk Architectural Desktop 2007 |Company: Autodesk,Inc. |WEB Address: www.autodesk.com
 90
    32897
280
     0
281
     0
  0
CLASS
  1
AEC_DISP_REP_ANCHOR_EXT_TAG_TO_ENT
  2
AecDbDispRepAnchorExtendedTagToEnt
  3
AecScheduleData50|Product Desc: Autodesk Architectural Desktop 2007 |Company: Autodesk,Inc. |WEB Address: www.autodesk.com
 90
    32897
280
     0
281
     0
  0
CLASS
  1
MATERIAL
  2
AcDbMaterial
  3
ObjectDBX Classes
 90
     1153
280
     0
281
     0
  0
CLASS
  1
VISUALSTYLE
  2
AcDbVisualStyle
  3
ObjectDBX Classes
 90
     4095
280
     0
281
     0
  0
CLASS
  1
AEC_AECDBDISPREPZONE100
  2
AecDbDispRepZonePlan100
  3
AecArchDACHBase50|Product Desc: Autodesk Architectural Desktop 2007 |Company: Autodesk,Inc. |WEB Address: www.autodesk.com
 90
    32897
280
     0
281
     0
  0
CLASS
  1
AEC_DISP_PROPS_ZONE
  2
AecDbDispPropsZone
  3
AecArchBase50|Product Desc: Autodesk Architectural Desktop 2007 |Company: Autodesk,Inc. |WEB Address: www.autodesk.com
 90
    32897
280
     0
281
     0
  0
CLASS
  1
AEC_AECDBDISPREPZONE50
  2
AecDbDispRepZonePlan50
  3
AecArchDACHBase50|Product Desc: Autodesk Architectural Desktop 2007 |Company: Autodesk,Inc. |WEB Address: www.autodesk.com
 90
    32897
280
     0
281
     0
  0
CLASS
  1
AEC_DISP_REP_SPACE_DECOMPOSED
  2
AecDbDispRepSpaceDecomposed
  3
AecArchBase50|Product Desc: Autodesk Architectural Desktop 2007 |Company: Autodesk,Inc. |WEB Address: www.autodesk.com
 90
    32897
280
     0
281
     0
  0
CLASS
  1
AEC_DISP_PROPS_SPACE_DECOMPOSED
  2
AecDbDispPropsSpaceDecomposed
  3
AecArchBase50|Product Desc: Autodesk Architectural Desktop 2007 |Company: Autodesk,Inc. |WEB Address: www.autodesk.com
 90
    32897
280
     0
281
     0
  0
CLASS
  1
AEC_DISP_REP_ZONE
  2
AecDbDispRepZone
  3
AecArchBase50|Product Desc: Autodesk Architectural Desktop 2007 |Company: Autodesk,Inc. |WEB Address: www.autodesk.com
 90
    32897
280
     0
281
     0
  0
CLASS
  1
EXACXREFPANELOBJECT
  2
ExAcXREFPanelObject
  3
EXAC_ESW
 90
    33793
280
     1
281
     0
  0
CLASS
  1
NPOCOLLECTION
  2
AcDbImpNonPersistentObjectsCollection
  3
ObjectDBX Classes
 90
     1153
280
     0
281
     0
  0
CLASS
  1
SCALE
  2
AcDbScale
  3
ObjectDBX Classes
 90
     1153
280
     0
281
     0
  0
CLASS
  1
MLEADERSTYLE
  2
AcDbMLeaderStyle
  3
ACDB_MLEADERSTYLE_CLASS
 90
     4095
280
     0
281
     0
  0
CLASS
  1
CELLSTYLEMAP
  2
AcDbCellStyleMap
  3
ObjectDBX Classes
 90
     1152
280
     0
281
     0
  0
CLASS
  1
SOLID_BACKGROUND
  2
AcDbSolidBackground
  3
SCENEOE
 90
    36863
280
     0
281
     0
  0
CLASS
  1
AEC_REFEDIT_STATUS_TRACKER
  2
AecDbRefEditStatusTracker
  3
AecArchBase50|Product Desc: Autodesk Architectural Desktop 2007 |Company: Autodesk,Inc. |WEB Address: www.autodesk.com
 90
      129
280
     0
281
     0
  0
ENDSEC
  0
SECTION
  2
TABLES
  0
TABLE
  2
VPORT
  5
22
330
0
100
AcDbSymbolTable
 70
     1
  0
VPORT
  5
23
330
22
100
AcDbSymbolTableRecord
100
AcDbViewportTableRecord
  2
*Active
 70
     0
 10
0.0
 20
0.0
 11
1.0
 21
1.0
 12
43156.62181665026
 22
23228.52591830373
 13
0.0
 23
0.0
 14
10.0
 24
10.0
 15
10.0
 25
10.0
 16
0.0
 26
0.0
 36
1.0
 17
0.0
 27
0.0
 37
0.0
 40
20892.09776597644
 41
2.246612466124661
 42
50.0
 43
0.0
 44
0.0
 50
0.0
 51
0.0
 71
     0
 72
  1000
 73
     1
 74
     1
 75
     0
 76
     0
 77
     0
 78
     0
281
     0
 65
     1
110
0.0
120
0.0
130
0.0
111
1.0
121
0.0
131
0.0
112
0.0
122
1.0
132
0.0
 79
     0
146
0.0
  0
ENDTAB
  0
TABLE
  2
LTYPE
  5
1D
330
0
100
AcDbSymbolTable
 70
     2
  0
LTYPE
  5
1E
330
1D
100
AcDbSymbolTableRecord
100
AcDbLinetypeTableRecord
  2
ByBlock
 70
     0
  3

 72
    65
 73
     0
 40
0.0
  0
LTYPE
  5
1F
330
1D
100
AcDbSymbolTableRecord
100
AcDbLinetypeTableRecord
  2
ByLayer
 70
     0
  3

 72
    65
 73
     0
 40
0.0
  0
LTYPE
  5
C
330
1D
100
AcDbSymbolTableRecord
100
AcDbLinetypeTableRecord
  2
Continuous
 70
     0
  3
Solid line
 72
    65
 73
     0
 40
0.0
  0
LTYPE
  5
7D
330
1D
100
AcDbSymbolTableRecord
100
AcDbLinetypeTableRecord
  2
HIDDEN
 70
     0
  3
Hidden __ __ __ __ __ __ __ __ __ __ __ __ __ _
 72
    65
 73
     2
 40
0.375
 49
0.25
 74
     0
 49
-0.125
 74
     0
  0
ENDTAB
  0
TABLE
  2
LAYER
  5
17
102
{ACAD_XDICTIONARY
360
18
102
}
330
0
100
AcDbSymbolTable
 70
    11
  0
LAYER
  5
4
102
{ACAD_XDICTIONARY
360
5
102
}
330
17
100
AcDbSymbolTableRecord
100
AcDbLayerTableRecord
  2
0
 70
     0
 62
     7
  6
Continuous
370
    -3
390
7
  0
LAYER
  5
145
102
{ACAD_XDICTIONARY
360
146
102
}
330
17
100
AcDbSymbolTableRecord
100
AcDbLayerTableRecord
  2
WIDOK
 70
     0
 62
   114
  6
Continuous
370
    -3
390
7
  0
LAYER
  5
E8
102
{ACAD_XDICTIONARY
360
E9
102
}
330
17
100
AcDbSymbolTableRecord
100
AcDbLayerTableRecord
  2
SCIANY
 70
     0
 62
   140
  6
Continuous
370
    -3
390
7
  0
LAYER
  5
3B
102
{ACAD_XDICTIONARY
360
3C
102
}
330
17
100
AcDbSymbolTableRecord
100
AcDbLayerTableRecord
  2
WYMIARY
 70
     0
 62
     1
  6
Continuous
370
    -3
390
7
  0
LAYER
  5
89
330
17
100
AcDbSymbolTableRecord
100
AcDbLayerTableRecord
  2
DEFPOINTS
 70
     0
 62
     7
  6
Continuous
290
     0
370
    -3
390
7
  0
LAYER
  5
69
102
{ACAD_XDICTIONARY
360
6A
102
}
330
17
100
AcDbSymbolTableRecord
100
AcDbLayerTableRecord
  2
TABLICZKA
 70
     0
 62
     1
  6
Continuous
370
    -3
390
7
  0
LAYER
  5
65
102
{ACAD_XDICTIONARY
360
66
102
}
330
17
100
AcDbSymbolTableRecord
100
AcDbLayerTableRecord
  2
RAMKI-A4
 70
     0
 62
     2
  6
Continuous
290
     0
370
    -3
390
7
  0
LAYER
  5
76
102
{ACAD_XDICTIONARY
360
77
102
}
330
17
100
AcDbSymbolTableRecord
100
AcDbLayerTableRecord
  2
SZRAF
 70
     0
 62
   100
  6
Continuous
370
    -3
390
7
  0
LAYER
  5
2CB
330
17
100
AcDbSymbolTableRecord
100
AcDbLayerTableRecord
  2
0Wymiary-PL
 70
     0
 62
     1
  6
Continuous
370
     5
390
7
  0
LAYER
  5
2CC
330
17
100
AcDbSymbolTableRecord
100
AcDbLayerTableRecord
  2
0Hatch
 70
     0
 62
   122
  6
Continuous
370
     5
390
7
  0
ENDTAB
  0
TABLE
  2
STYLE
  5
1A
330
0
100
AcDbSymbolTable
 70
     4
  0
STYLE
  5
1B
330
1A
100
AcDbSymbolTableRecord
100
AcDbTextStyleTableRecord
  2
Standard
 70
     0
 40
0.0
 41
1.0
 50
0.0
 71
     0
 42
2.5
  3
txt
  4

  0
STYLE
  5
28
330
1A
100
AcDbSymbolTableRecord
100
AcDbTextStyleTableRecord
  2
ROMANS
 70
     0
 40
0.0
 41
0.9
 50
0.0
 71
     0
 42
20.0
  3
romans.shx
  4

  0
STYLE
  5
6C
330
1A
100
AcDbSymbolTableRecord
100
AcDbTextStyleTableRecord
  2
AVA
 70
     0
 40
0.0
 41
1.0
 50
0.0
 71
     0
 42
158.5644099714409
  3
ARIAL.TTF
  4

1001
ACAD
1000
Arial CE
1071
    60962
  0
ENDTAB
  0
TABLE
  2
VIEW
  5
20
330
0
100
AcDbSymbolTable
 70
     1
  0
VIEW
  5
10
330
20
100
AcDbSymbolTableRecord
100
AcDbViewTableRecord
  2
DALIE_aneks
 70
     0
 40
14020.0
 10
230487.1523167869
 20
176727.5135321109
 41
10200.00000000003
 11
0.0
 21
0.0
 31
1.0
 12
0.0
 22
0.0
 32
0.0
 42
50.0
 43
0.0
 44
0.0
 50
0.0
 71
     0
281
     0
 72
     1
110
0.0
120
0.0
130
0.0
111
1.0
121
0.0
131
0.0
112
0.0
122
1.0
132
0.0
 79
     0
146
0.0
  0
ENDTAB
  0
TABLE
  2
UCS
  5
21
330
0
100
AcDbSymbolTable
 70
     0
  0
ENDTAB
  0
TABLE
  2
APPID
  5
24
330
0
100
AcDbSymbolTable
 70
     5
  0
APPID
  5
25
330
24
100
AcDbSymbolTableRecord
100
AcDbRegAppTableRecord
  2
ACAD
 70
     0
  0
APPID
  5
2A7
330
24
100
AcDbSymbolTableRecord
100
AcDbRegAppTableRecord
  2
DCO15
 70
     0
  0
APPID
  5
2C2
330
24
100
AcDbSymbolTableRecord
100
AcDbRegAppTableRecord
  2
ACAD_MLEADERVER
 70
     0
  0
APPID
  5
2CA
330
24
100
AcDbSymbolTableRecord
100
AcDbRegAppTableRecord
  2
ACAD_EXEMPT_FROM_CAD_STANDARDS
 70
     0
  0
APPID
  5
5CA
330
24
100
AcDbSymbolTableRecord
100
AcDbRegAppTableRecord
  2
ACAD_PSEXT
 70
     0
  0
ENDTAB
  0
TABLE
  2
DIMSTYLE
  5
26
330
0
100
AcDbSymbolTable
 70
     4
100
AcDbDimStyleTable
 71
     2
340
27
340
31
  0
DIMSTYLE
105
27
102
{ACAD_REACTORS
330
10F
330
F7
330
B0
330
81
330
127
330
104
330
11C
330
D1
330
186
330
EC
330
DC
330
C6
330
BB
330
A5
330
98
330
8D
330
1C9
330
1B3
330
1A6
330
272
330
265
330
258
330
24D
330
1EF
330
288
330
27D
330
1BE
330
19B
330
179
330
16E
330
1E1
330
1D4
330
1FA
330
205
330
212
330
296
102
}
330
26
100
AcDbSymbolTableRecord
100
AcDbDimStyleTableRecord
  2
500
 70
     0
 41
30.0
 42
43.0
 43
0.0
 44
13.0
 45
0.5
 46
12.0
 73
     0
 74
     0
 75
     1
 76
     1
 78
    12
140
80.0
141
0.0
145
1.0
147
0.0
172
     1
174
     1
176
     1
177
     1
178
    10
271
     1
272
     1
279
     2
340
28
341
29
342
29
  0
DIMSTYLE
105
31
330
26
100
AcDbSymbolTableRecord
100
AcDbDimStyleTableRecord
  2
Standard
 70
     0
340
1B
  0
ENDTAB
  0
TABLE
  2
BLOCK_RECORD
  5
1
330
0
100
AcDbSymbolTable
 70
    74
  0
BLOCK_RECORD
  5
2
102
{ACAD_XDICTIONARY
360
310
102
}
330
1
100
AcDbSymbolTableRecord
100
AcDbBlockTableRecord
  2
*Model_Space
340
E
  0
BLOCK_RECORD
  5
13
330
1
100
AcDbSymbolTableRecord
100
AcDbBlockTableRecord
  2
*Paper_Space
340
16
  0
BLOCK_RECORD
  5
29
102
{ACAD_XDICTIONARY
360
2A
102
}
330
1
100
AcDbSymbolTableRecord
100
AcDbBlockTableRecord
  2
B-DIM
340
0
102
{BLKREFS
331
85
331
86
331
92
331
93
331
9E
331
9F
331
A9
331
AA
331
B5
331
B6
331
BF
331
C0
331
CA
331
CB
331
D5
331
D6
331
E0
331
E1
331
F0
331
F1
331
FD
331
FE
331
108
331
109
331
113
331
114
331
120
331
121
331
12B
331
12C
331
172
331
173
331
17F
331
180
331
18A
331
18B
331
19F
331
1A0
331
1AC
331
1AD
331
1B7
331
1B8
331
1C2
331
1C3
331
1CD
331
1CE
331
1DA
331
1DB
331
1E5
331
1E6
331
1F3
331
1F4
331
1FF
331
200
331
20B
331
20C
331
217
331
218
331
251
331
252
331
25C
331
25D
331
269
331
26A
331
276
331
277
331
281
331
282
331
28C
331
28D
331
29A
331
29B
331
4BA
331
4BB
331
4C1
331
4C2
331
4C8
331
4C9
331
4CF
331
4D0
331
4D6
331
4D7
331
4DD
331
4DE
331
4E4
331
4E5
331
4EC
331
4ED
331
4F4
331
4F5
331
4FC
331
4FD
331
502
331
503
331
509
331
50A
331
512
331
513
331
519
331
51A
331
520
331
521
331
527
331
528
331
530
331
531
331
537
331
538
331
53E
331
53F
331
547
331
548
331
54E
331
54F
331
555
331
556
331
55C
331
55D
331
563
331
564
331
56A
331
56B
331
573
331
574
331
57A
331
57B
331
581
331
582
331
588
331
589
331
58F
331
590
331
596
331
597
331
59E
331
59F
331
5A4
331
5A5
331
5AD
331
5AE
331
5B5
331
5B6
331
5BB
331
5BC
102
}
  0
BLOCK_RECORD
  5
336
330
1
100
AcDbSymbolTableRecord
100
AcDbBlockTableRecord
  2
*D37
340
0
  0
BLOCK_RECORD
  5
340
330
1
100
AcDbSymbolTableRecord
100
AcDbBlockTableRecord
  2
*D38
340
0
  0
BLOCK_RECORD
  5
34B
330
1
100
AcDbSymbolTableRecord
100
AcDbBlockTableRecord
  2
*D39
340
0
  0
BLOCK_RECORD
  5
355
330
1
100
AcDbSymbolTableRecord
100
AcDbBlockTableRecord
  2
*D40
340
0
  0
BLOCK_RECORD
  5
35F
330
1
100
AcDbSymbolTableRecord
100
AcDbBlockTableRecord
  2
*D41
340
0
  0
BLOCK_RECORD
  5
369
330
1
100
AcDbSymbolTableRecord
100
AcDbBlockTableRecord
  2
*D42
340
0
  0
BLOCK_RECORD
  5
373
330
1
100
AcDbSymbolTableRecord
100
AcDbBlockTableRecord
  2
*D43
340
0
  0
BLOCK_RECORD
  5
37D
330
1
100
AcDbSymbolTableRecord
100
AcDbBlockTableRecord
  2
*D44
340
0
  0
BLOCK_RECORD
  5
387
330
1
100
AcDbSymbolTableRecord
100
AcDbBlockTableRecord
  2
*D45
340
0
  0
BLOCK_RECORD
  5
398
330
1
100
AcDbSymbolTableRecord
100
AcDbBlockTableRecord
  2
*D46
340
0
  0
BLOCK_RECORD
  5
3AB
330
1
100
AcDbSymbolTableRecord
100
AcDbBlockTableRecord
  2
*D47
340
0
  0
BLOCK_RECORD
  5
3B5
330
1
100
AcDbSymbolTableRecord
100
AcDbBlockTableRecord
  2
*D48
340
0
  0
BLOCK_RECORD
  5
3BF
330
1
100
AcDbSymbolTableRecord
100
AcDbBlockTableRecord
  2
*D49
340
0
  0
BLOCK_RECORD
  5
3CB
330
1
100
AcDbSymbolTableRecord
100
AcDbBlockTableRecord
  2
*D50
340
0
  0
BLOCK_RECORD
  5
3D5
330
1
100
AcDbSymbolTableRecord
100
AcDbBlockTableRecord
  2
*D51
340
0
  0
BLOCK_RECORD
  5
3DF
330
1
100
AcDbSymbolTableRecord
100
AcDbBlockTableRecord
  2
*D52
340
0
  0
BLOCK_RECORD
  5
3E9
330
1
100
AcDbSymbolTableRecord
100
AcDbBlockTableRecord
  2
*D53
340
0
  0
BLOCK_RECORD
  5
3F5
330
1
100
AcDbSymbolTableRecord
100
AcDbBlockTableRecord
  2
*D54
340
0
  0
BLOCK_RECORD
  5
3FF
330
1
100
AcDbSymbolTableRecord
100
AcDbBlockTableRecord
  2
*D55
340
0
  0
BLOCK_RECORD
  5
409
330
1
100
AcDbSymbolTableRecord
100
AcDbBlockTableRecord
  2
*D56
340
0
  0
BLOCK_RECORD
  5
415
330
1
100
AcDbSymbolTableRecord
100
AcDbBlockTableRecord
  2
*D57
340
0
  0
BLOCK_RECORD
  5
41F
330
1
100
AcDbSymbolTableRecord
100
AcDbBlockTableRecord
  2
*D58
340
0
  0
BLOCK_RECORD
  5
429
330
1
100
AcDbSymbolTableRecord
100
AcDbBlockTableRecord
  2
*D59
340
0
  0
BLOCK_RECORD
  5
433
330
1
100
AcDbSymbolTableRecord
100
AcDbBlockTableRecord
  2
*D60
340
0
  0
BLOCK_RECORD
  5
43D
330
1
100
AcDbSymbolTableRecord
100
AcDbBlockTableRecord
  2
*D61
340
0
  0
BLOCK_RECORD
  5
447
330
1
100
AcDbSymbolTableRecord
100
AcDbBlockTableRecord
  2
*D62
340
0
  0
BLOCK_RECORD
  5
453
330
1
100
AcDbSymbolTableRecord
100
AcDbBlockTableRecord
  2
*D63
340
0
  0
BLOCK_RECORD
  5
45D
330
1
100
AcDbSymbolTableRecord
100
AcDbBlockTableRecord
  2
*D64
340
0
  0
BLOCK_RECORD
  5
467
330
1
100
AcDbSymbolTableRecord
100
AcDbBlockTableRecord
  2
*D65
340
0
  0
BLOCK_RECORD
  5
471
330
1
100
AcDbSymbolTableRecord
100
AcDbBlockTableRecord
  2
*D66
340
0
  0
BLOCK_RECORD
  5
47B
330
1
100
AcDbSymbolTableRecord
100
AcDbBlockTableRecord
  2
*D67
340
0
  0
BLOCK_RECORD
  5
485
330
1
100
AcDbSymbolTableRecord
100
AcDbBlockTableRecord
  2
*D68
340
0
  0
BLOCK_RECORD
  5
48F
330
1
100
AcDbSymbolTableRecord
100
AcDbBlockTableRecord
  2
*D69
340
0
  0
BLOCK_RECORD
  5
499
330
1
100
AcDbSymbolTableRecord
100
AcDbBlockTableRecord
  2
*D70
340
0
  0
BLOCK_RECORD
  5
4A5
330
1
100
AcDbSymbolTableRecord
100
AcDbBlockTableRecord
  2
*D71
340
0
  0
BLOCK_RECORD
  5
4AF
330
1
100
AcDbSymbolTableRecord
100
AcDbBlockTableRecord
  2
*D72
340
0
  0
ENDTAB
  0
ENDSEC
  0
SECTION
  2
BLOCKS
  0
BLOCK
  5
3
330
2
100
AcDbEntity
  8
0
100
AcDbBlockBegin
  2
*Model_Space
 70
     0
 10
0.0
 20
0.0
 30
0.0
  3
*Model_Space
  1

  0
ENDBLK
  5
D
330
2
100
AcDbEntity
  8
0
100
AcDbBlockEnd
  0
BLOCK
  5
14
330
13
100
AcDbEntity
 67
     1
  8
0
100
AcDbBlockBegin
  2
*Paper_Space
 70
     0
 10
0.0
 20
0.0
 30
0.0
  3
*Paper_Space
  1

  0
ENDBLK
  5
15
330
13
100
AcDbEntity
 67
     1
  8
0
100
AcDbBlockEnd
  0
BLOCK
  5
2C
330
29
100
AcDbEntity
  8
0
100
AcDbBlockBegin
  2
B-DIM
 70
     0
 10
0.0
 20
0.0
 30
0.0
  3
B-DIM
  1

  0
LINE
  5
2D
330
29
100
AcDbEntity
  8
0
 62
     1
100
AcDbLine
 10
0.000000000000091
 20
-1.1
 30
0.0
 11
0.000000000000091
 21
1.1
 31
0.0
  0
LWPOLYLINE
  5
2E
330
29
100
AcDbEntity
  8
0
 62
     1
100
AcDbPolyline
 90
        2
 70
     0
 43
0.3
 10
-0.7071067811864851
 20
-0.7071067811864851
 10
0.707106781186576
 20
0.707106781186576
  0
LINE
  5
2F
330
29
100
AcDbEntity
  8
0
 62
     1
100
AcDbLine
 10
1.20000000000009
 20
0.0
 30
0.0
 11
-1.199999999999909
 21
0.0
 31
0.0
  0
ENDBLK
  5
30
330
29
100
AcDbEntity
  8
0
100
AcDbBlockEnd
  0
BLOCK
  5
337
330
336
100
AcDbEntity
  8
0
100
AcDbBlockBegin
  2
*D37
 70
     1
 10
0.0
 20
0.0
 30
0.0
  3
*D37
  1

  0
LINE
  5
4FA
330
336
100
AcDbEntity
  8
WYMIARY
 62
     1
370
    -2
100
AcDbLine
 10
47802.91779964745
 20
23327.99999999999
 30
0.0
 11
47802.91779964745
 21
23399.99999999998
 31
0.0
  0
MTEXT
  5
4FB
330
336
100
AcDbEntity
  8
WYMIARY
 62
    10
370
     5
100
AcDbMText
 10
47732.03233190237
 20
23222.62370289581
 30
0.0
 40
80.0
 41
0.0
 71
     5
 72
     1
  1
\A1;132
  7
ROMANS
 11
0.0000000000000001
 21
1.0
 31
0.0
 73
     1
 44
1.0
1001
ACAD
1000
MTEXTBEGIN
1070
    73
1070
     1
1070
    44
1040
1.0
1070
    74
1070
     0
1000
MTEXTEND
  0
INSERT
  5
4FC
330
336
100
AcDbEntity
  8
WYMIARY
 62
     1
370
    -2
100
AcDbBlockReference
  2
B-DIM
 10
47802.91779964745
 20
23297.99999999999
 30
0.0
 41
30.0
 42
30.0
 43
30.0
 50
270.0
  0
INSERT
  5
4FD
330
336
100
AcDbEntity
  8
WYMIARY
 62
     1
370
    -2
100
AcDbBlockReference
  2
B-DIM
 10
47802.91779964745
 20
23429.99999999998
 30
0.0
 41
30.0
 42
30.0
 43
30.0
 50
90.0
  0
POINT
  5
4FE
330
336
100
AcDbEntity
  8
DEFPOINTS
 62
     0
100
AcDbPoint
 10
49029.78273671091
 20
23297.99999999999
 30
0.0
  0
POINT
  5
4FF
330
336
100
AcDbEntity
  8
DEFPOINTS
 62
     0
100
AcDbPoint
 10
48314.78273671091
 20
23429.99999999998
 30
0.0
  0
POINT
  5
500
330
336
100
AcDbEntity
  8
DEFPOINTS
 62
     0
100
AcDbPoint
 10
47802.91779964745
 20
23429.99999999998
 30
0.0
  0
ENDBLK
  5
338
330
336
100
AcDbEntity
  8
0
100
AcDbBlockEnd
  0
BLOCK
  5
341
330
340
100
AcDbEntity
  8
0
100
AcDbBlockBegin
  2
*D38
 70
     1
 10
0.0
 20
0.0
 30
0.0
  3
*D38
  1

  0
LINE
  5
4EA
330
340
100
AcDbEntity
  8
WYMIARY
 62
     1
370
    -2
100
AcDbLine
 10
47802.91779964745
 20
24190.0
 30
0.0
 11
47802.91779964745
 21
24393.99771050388
 31
0.0
  0
MTEXT
  5
4EB
330
340
100
AcDbEntity
  8
WYMIARY
 62
    10
370
     5
100
AcDbMText
 10
47723.74192224788
 20
24384.24518284263
 30
0.0
 40
80.0
 41
0.0
 71
     5
 72
     1
  1
\A1;264
  7
ROMANS
 11
0.0000000000000001
 21
1.0
 31
0.0
 73
     1
 44
1.0
1001
ACAD
1000
MTEXTBEGIN
1070
    73
1070
     1
1070
    44
1040
1.0
1070
    74
1070
     0
1000
MTEXTEND
  0
INSERT
  5
4EC
330
340
100
AcDbEntity
  8
WYMIARY
 62
     1
370
    -2
100
AcDbBlockReference
  2
B-DIM
 10
47802.91779964745
 20
24160.0
 30
0.0
 41
30.0
 42
30.0
 43
30.0
 50
270.0
  0
INSERT
  5
4ED
330
340
100
AcDbEntity
  8
WYMIARY
 62
     1
370
    -2
100
AcDbBlockReference
  2
B-DIM
 10
47802.91779964745
 20
24423.99771050388
 30
0.0
 41
30.0
 42
30.0
 43
30.0
 50
90.0
  0
POINT
  5
4EE
330
340
100
AcDbEntity
  8
DEFPOINTS
 62
     0
100
AcDbPoint
 10
48639.78273671091
 20
24160.0
 30
0.0
  0
POINT
  5
4EF
330
340
100
AcDbEntity
  8
DEFPOINTS
 62
     0
100
AcDbPoint
 10
49029.78273671091
 20
24423.99771050388
 30
0.0
  0
POINT
  5
4F0
330
340
100
AcDbEntity
  8
DEFPOINTS
 62
     0
100
AcDbPoint
 10
47802.91779964745
 20
24423.99771050388
 30
0.0
  0
ENDBLK
  5
342
330
340
100
AcDbEntity
  8
0
100
AcDbBlockEnd
  0
BLOCK
  5
34C
330
34B
100
AcDbEntity
  8
0
100
AcDbBlockBegin
  2
*D39
 70
     1
 10
0.0
 20
0.0
 30
0.0
  3
*D39
  1

  0
LINE
  5
4B9
330
34B
100
AcDbEntity
  8
WYMIARY
 62
     1
370
    -2
100
AcDbLine
 10
47802.91779964745
 20
23483.0
 30
0.0
 11
47802.91779964745
 21
24106.99999999999
 31
0.0
  0
INSERT
  5
4BA
330
34B
100
AcDbEntity
  8
WYMIARY
 62
     1
370
    -2
100
AcDbBlockReference
  2
B-DIM
 10
47802.91779964745
 20
23453.0
 30
0.0
 41
30.0
 42
30.0
 43
30.0
 50
270.0
  0
INSERT
  5
4BB
330
34B
100
AcDbEntity
  8
WYMIARY
 62
     1
370
    -2
100
AcDbBlockReference
  2
B-DIM
 10
47802.91779964745
 20
24136.99999999999
 30
0.0
 41
30.0
 42
30.0
 43
30.0
 50
90.0
  0
MTEXT
  5
4BC
330
34B
100
AcDbEntity
  8
WYMIARY
 62
    10
370
     5
100
AcDbMText
 10
47722.91779964744
 20
23795.00000000001
 30
0.0
 40
80.0
 41
0.0
 71
     5
 72
     1
  1
\A1;684
  7
ROMANS
 11
0.0000000000000001
 21
1.0
 31
0.0
 73
     1
 44
1.0
1001
ACAD
1000
MTEXTBEGIN
1070
    73
1070
     1
1070
    44
1040
1.0
1070
    74
1070
     0
1000
MTEXTEND
  0
POINT
  5
4BD
330
34B
100
AcDbEntity
  8
DEFPOINTS
 62
     0
100
AcDbPoint
 10
48314.78273671091
 20
23453.0
 30
0.0
  0
POINT
  5
4BE
330
34B
100
AcDbEntity
  8
DEFPOINTS
 62
     0
100
AcDbPoint
 10
48314.78273671091
 20
24136.99999999999
 30
0.0
  0
POINT
  5
4BF
330
34B
100
AcDbEntity
  8
DEFPOINTS
 62
     0
100
AcDbPoint
 10
47802.91779964745
 20
24136.99999999999
 30
0.0
  0
ENDBLK
  5
34D
330
34B
100
AcDbEntity
  8
0
100
AcDbBlockEnd
  0
BLOCK
  5
356
330
355
100
AcDbEntity
  8
0
100
AcDbBlockBegin
  2
*D40
 70
     1
 10
0.0
 20
0.0
 30
0.0
  3
*D40
  1

  0
LINE
  5
4C0
330
355
100
AcDbEntity
  8
WYMIARY
 62
     1
370
    -2
100
AcDbLine
 10
49049.78273671091
 20
25046.73753941569
 30
0.0
 11
48719.78273671091
 21
25046.73753941569
 31
0.0
  0
INSERT
  5
4C1
330
355
100
AcDbEntity
  8
WYMIARY
 62
     1
370
    -2
100
AcDbBlockReference
  2
B-DIM
 10
49079.78273671091
 20
25046.73753941569
 30
0.0
 41
30.0
 42
30.0
 43
30.0
  0
INSERT
  5
4C2
330
355
100
AcDbEntity
  8
WYMIARY
 62
     1
370
    -2
100
AcDbBlockReference
  2
B-DIM
 10
48689.78273671091
 20
25046.73753941569
 30
0.0
 41
30.0
 42
30.0
 43
30.0
 50
180.0
  0
MTEXT
  5
4C3
330
355
100
AcDbEntity
  8
WYMIARY
 62
    10
370
     5
100
AcDbMText
 10
48884.78273671091
 20
25126.73753941569
 30
0.0
 40
80.0
 41
0.0
 71
     5
 72
     1
  1
\A1;390
  7
ROMANS
 73
     1
 44
1.0
1001
ACAD
1000
MTEXTBEGIN
1070
    73
1070
     1
1070
    44
1040
1.0
1070
    74
1070
     0
1000
MTEXTEND
  0
POINT
  5
4C4
330
355
100
AcDbEntity
  8
DEFPOINTS
 62
     0
100
AcDbPoint
 10
49079.78273671091
 20
24573.99771050388
 30
0.0
  0
POINT
  5
4C5
330
355
100
AcDbEntity
  8
DEFPOINTS
 62
     0
100
AcDbPoint
 10
48689.78273671091
 20
24310.0
 30
0.0
  0
POINT
  5
4C6
330
355
100
AcDbEntity
  8
DEFPOINTS
 62
     0
100
AcDbPoint
 10
48689.78273671091
 20
25046.73753941569
 30
0.0
  0
ENDBLK
  5
357
330
355
100
AcDbEntity
  8
0
100
AcDbBlockEnd
  0
BLOCK
  5
360
330
35F
100
AcDbEntity
  8
0
100
AcDbBlockBegin
  2
*D41
 70
     1
 10
0.0
 20
0.0
 30
0.0
  3
*D41
  1

  0
LINE
  5
4C7
330
35F
100
AcDbEntity
  8
WYMIARY
 62
     1
370
    -2
100
AcDbLine
 10
49614.78273671091
 20
25046.73753941569
 30
0.0
 11
49109.78273671091
 21
25046.73753941569
 31
0.0
  0
INSERT
  5
4C8
330
35F
100
AcDbEntity
  8
WYMIARY
 62
     1
370
    -2
100
AcDbBlockReference
  2
B-DIM
 10
49644.78273671091
 20
25046.73753941569
 30
0.0
 41
30.0
 42
30.0
 43
30.0
  0
INSERT
  5
4C9
330
35F
100
AcDbEntity
  8
WYMIARY
 62
     1
370
    -2
100
AcDbBlockReference
  2
B-DIM
 10
49079.78273671091
 20
25046.73753941569
 30
0.0
 41
30.0
 42
30.0
 43
30.0
 50
180.0
  0
MTEXT
  5
4CA
330
35F
100
AcDbEntity
  8
WYMIARY
 62
    10
370
     5
100
AcDbMText
 10
49362.28273671091
 20
25126.73753941569
 30
0.0
 40
80.0
 41
0.0
 71
     5
 72
     1
  1
\A1;565
  7
ROMANS
 73
     1
 44
1.0
1001
ACAD
1000
MTEXTBEGIN
1070
    73
1070
     1
1070
    44
1040
1.0
1070
    74
1070
     0
1000
MTEXTEND
  0
POINT
  5
4CB
330
35F
100
AcDbEntity
  8
DEFPOINTS
 62
     0
100
AcDbPoint
 10
49644.78273671091
 20
24573.99771050388
 30
0.0
  0
POINT
  5
4CC
330
35F
100
AcDbEntity
  8
DEFPOINTS
 62
     0
100
AcDbPoint
 10
49079.78273671091
 20
24573.99771050388
 30
0.0
  0
POINT
  5
4CD
330
35F
100
AcDbEntity
  8
DEFPOINTS
 62
     0
100
AcDbPoint
 10
49079.78273671091
 20
25046.73753941569
 30
0.0
  0
ENDBLK
  5
361
330
35F
100
AcDbEntity
  8
0
100
AcDbBlockEnd
  0
BLOCK
  5
36A
330
369
100
AcDbEntity
  8
0
100
AcDbBlockBegin
  2
*D42
 70
     1
 10
0.0
 20
0.0
 30
0.0
  3
*D42
  1

  0
LINE
  5
4CE
330
369
100
AcDbEntity
  8
WYMIARY
 62
     1
370
    -2
100
AcDbLine
 10
49799.78273671091
 20
25046.73753941569
 30
0.0
 11
49674.78273671091
 21
25046.73753941569
 31
0.0
  0
INSERT
  5
4CF
330
369
100
AcDbEntity
  8
WYMIARY
 62
     1
370
    -2
100
AcDbBlockReference
  2
B-DIM
 10
49829.78273671091
 20
25046.73753941569
 30
0.0
 41
30.0
 42
30.0
 43
30.0
  0
INSERT
  5
4D0
330
369
100
AcDbEntity
  8
WYMIARY
 62
     1
370
    -2
100
AcDbBlockReference
  2
B-DIM
 10
49644.78273671091
 20
25046.73753941569
 30
0.0
 41
30.0
 42
30.0
 43
30.0
 50
180.0
  0
MTEXT
  5
4D1
330
369
100
AcDbEntity
  8
WYMIARY
 62
    10
370
     5
100
AcDbMText
 10
49737.28273671091
 20
25126.73753941569
 30
0.0
 40
80.0
 41
0.0
 71
     5
 72
     1
  1
\A1;185
  7
ROMANS
 73
     1
 44
1.0
1001
ACAD
1000
MTEXTBEGIN
1070
    73
1070
     1
1070
    44
1040
1.0
1070
    74
1070
     0
1000
MTEXTEND
  0
POINT
  5
4D2
330
369
100
AcDbEntity
  8
DEFPOINTS
 62
     0
100
AcDbPoint
 10
49829.78273671091
 20
24310.0
 30
0.0
  0
POINT
  5
4D3
330
369
100
AcDbEntity
  8
DEFPOINTS
 62
     0
100
AcDbPoint
 10
49644.78273671091
 20
24573.99771050388
 30
0.0
  0
POINT
  5
4D4
330
369
100
AcDbEntity
  8
DEFPOINTS
 62
     0
100
AcDbPoint
 10
49644.78273671091
 20
25046.73753941569
 30
0.0
  0
ENDBLK
  5
36B
330
369
100
AcDbEntity
  8
0
100
AcDbBlockEnd
  0
BLOCK
  5
374
330
373
100
AcDbEntity
  8
0
100
AcDbBlockBegin
  2
*D43
 70
     1
 10
0.0
 20
0.0
 30
0.0
  3
*D43
  1

  0
LINE
  5
4D5
330
373
100
AcDbEntity
  8
WYMIARY
 62
     1
370
    -2
100
AcDbLine
 10
49799.78273671091
 20
22563.80079766781
 30
0.0
 11
49469.78273671089
 21
22563.80079766781
 31
0.0
  0
INSERT
  5
4D6
330
373
100
AcDbEntity
  8
WYMIARY
 62
     1
370
    -2
100
AcDbBlockReference
  2
B-DIM
 10
49829.78273671091
 20
22563.80079766781
 30
0.0
 41
30.0
 42
30.0
 43
30.0
  0
INSERT
  5
4D7
330
373
100
AcDbEntity
  8
WYMIARY
 62
     1
370
    -2
100
AcDbBlockReference
  2
B-DIM
 10
49439.78273671089
 20
22563.80079766781
 30
0.0
 41
30.0
 42
30.0
 43
30.0
 50
180.0
  0
MTEXT
  5
4D8
330
373
100
AcDbEntity
  8
WYMIARY
 62
    10
370
     5
100
AcDbMText
 10
49634.7827367109
 20
22643.80079766781
 30
0.0
 40
80.0
 41
0.0
 71
     5
 72
     1
  1
\A1;390
  7
ROMANS
 73
     1
 44
1.0
1001
ACAD
1000
MTEXTBEGIN
1070
    73
1070
     1
1070
    44
1040
1.0
1070
    74
1070
     0
1000
MTEXTEND
  0
POINT
  5
4D9
330
373
100
AcDbEntity
  8
DEFPOINTS
 62
     0
100
AcDbPoint
 10
49829.78273671091
 20
23210.0
 30
0.0
  0
POINT
  5
4DA
330
373
100
AcDbEntity
  8
DEFPOINTS
 62
     0
100
AcDbPoint
 10
49439.78273671089
 20
23078.0
 30
0.0
  0
POINT
  5
4DB
330
373
100
AcDbEntity
  8
DEFPOINTS
 62
     0
100
AcDbPoint
 10
49439.78273671089
 20
22563.80079766781
 30
0.0
  0
ENDBLK
  5
375
330
373
100
AcDbEntity
  8
0
100
AcDbBlockEnd
  0
BLOCK
  5
37E
330
37D
100
AcDbEntity
  8
0
100
AcDbBlockBegin
  2
*D44
 70
     1
 10
0.0
 20
0.0
 30
0.0
  3
*D44
  1

  0
LINE
  5
4DC
330
37D
100
AcDbEntity
  8
WYMIARY
 62
     1
370
    -2
100
AcDbLine
 10
49049.78273671091
 20
22563.80079766781
 30
0.0
 11
48719.78273671091
 21
22563.80079766781
 31
0.0
  0
INSERT
  5
4DD
330
37D
100
AcDbEntity
  8
WYMIARY
 62
     1
370
    -2
100
AcDbBlockReference
  2
B-DIM
 10
49079.78273671091
 20
22563.80079766781
 30
0.0
 41
30.0
 42
30.0
 43
30.0
  0
INSERT
  5
4DE
330
37D
100
AcDbEntity
  8
WYMIARY
 62
     1
370
    -2
100
AcDbBlockReference
  2
B-DIM
 10
48689.78273671091
 20
22563.80079766781
 30
0.0
 41
30.0
 42
30.0
 43
30.0
 50
180.0
  0
MTEXT
  5
4DF
330
37D
100
AcDbEntity
  8
WYMIARY
 62
    10
370
     5
100
AcDbMText
 10
48884.78273671091
 20
22643.80079766781
 30
0.0
 40
80.0
 41
0.0
 71
     5
 72
     1
  1
\A1;390
  7
ROMANS
 73
     1
 44
1.0
1001
ACAD
1000
MTEXTBEGIN
1070
    73
1070
     1
1070
    44
1040
1.0
1070
    74
1070
     0
1000
MTEXTEND
  0
POINT
  5
4E0
330
37D
100
AcDbEntity
  8
DEFPOINTS
 62
     0
100
AcDbPoint
 10
49079.78273671091
 20
23077.99999999999
 30
0.0
  0
POINT
  5
4E1
330
37D
100
AcDbEntity
  8
DEFPOINTS
 62
     0
100
AcDbPoint
 10
48689.78273671091
 20
23210.0
 30
0.0
  0
POINT
  5
4E2
330
37D
100
AcDbEntity
  8
DEFPOINTS
 62
     0
100
AcDbPoint
 10
48689.78273671091
 20
22563.80079766781
 30
0.0
  0
ENDBLK
  5
37F
330
37D
100
AcDbEntity
  8
0
100
AcDbBlockEnd
  0
BLOCK
  5
388
330
387
100
AcDbEntity
  8
0
100
AcDbBlockBegin
  2
*D45
 70
     1
 10
0.0
 20
0.0
 30
0.0
  3
*D45
  1

  0
LINE
  5
4E3
330
387
100
AcDbEntity
  8
WYMIARY
 62
     1
370
    -2
100
AcDbLine
 10
49409.78273671089
 20
22563.80079766781
 30
0.0
 11
49109.78273671091
 21
22563.80079766781
 31
0.0
  0
INSERT
  5
4E4
330
387
100
AcDbEntity
  8
WYMIARY
 62
     1
370
    -2
100
AcDbBlockReference
  2
B-DIM
 10
49439.78273671089
 20
22563.80079766781
 30
0.0
 41
30.0
 42
30.0
 43
30.0
  0
INSERT
  5
4E5
330
387
100
AcDbEntity
  8
WYMIARY
 62
     1
370
    -2
100
AcDbBlockReference
  2
B-DIM
 10
49079.78273671091
 20
22563.80079766781
 30
0.0
 41
30.0
 42
30.0
 43
30.0
 50
180.0
  0
MTEXT
  5
4E6
330
387
100
AcDbEntity
  8
WYMIARY
 62
    10
370
     5
100
AcDbMText
 10
49259.7827367109
 20
22643.80079766781
 30
0.0
 40
80.0
 41
0.0
 71
     5
 72
     1
  1
\A1;360
  7
ROMANS
 73
     1
 44
1.0
1001
ACAD
1000
MTEXTBEGIN
1070
    73
1070
     1
1070
    44
1040
1.0
1070
    74
1070
     0
1000
MTEXTEND
  0
POINT
  5
4E7
330
387
100
AcDbEntity
  8
DEFPOINTS
 62
     0
100
AcDbPoint
 10
49439.78273671089
 20
23078.0
 30
0.0
  0
POINT
  5
4E8
330
387
100
AcDbEntity
  8
DEFPOINTS
 62
     0
100
AcDbPoint
 10
49079.78273671091
 20
23077.99999999999
 30
0.0
  0
POINT
  5
4E9
330
387
100
AcDbEntity
  8
DEFPOINTS
 62
     0
100
AcDbPoint
 10
49079.78273671091
 20
22563.80079766781
 30
0.0
  0
ENDBLK
  5
389
330
387
100
AcDbEntity
  8
0
100
AcDbBlockEnd
  0
BLOCK
  5
399
330
398
100
AcDbEntity
  8
0
100
AcDbBlockBegin
  2
*D46
 70
     1
 10
0.0
 20
0.0
 30
0.0
  3
*D46
  1

  0
LINE
  5
4F1
330
398
100
AcDbEntity
  8
WYMIARY
 62
     1
370
    -2
100
AcDbLine
 10
47802.91779964745
 20
24106.99999999999
 30
0.0
 11
47802.91779964745
 21
24076.99999999999
 31
0.0
  0
LINE
  5
4F2
330
398
100
AcDbEntity
  8
WYMIARY
 62
     1
370
    -2
100
AcDbLine
 10
47802.91779964745
 20
24190.0
 30
0.0
 11
47802.91779964745
 21
24220.0
 31
0.0
  0
LINE
  5
4F3
330
398
100
AcDbEntity
  8
WYMIARY
 62
     1
370
    -2
100
AcDbLine
 10
47802.91779964745
 20
24136.99999999999
 30
0.0
 11
47802.91779964745
 21
24160.0
 31
0.0
  0
INSERT
  5
4F4
330
398
100
AcDbEntity
  8
WYMIARY
 62
     1
370
    -2
100
AcDbBlockReference
  2
B-DIM
 10
47802.91779964745
 20
24136.99999999999
 30
0.0
 41
30.0
 42
30.0
 43
30.0
 50
90.0
  0
INSERT
  5
4F5
330
398
100
AcDbEntity
  8
WYMIARY
 62
     1
370
    -2
100
AcDbBlockReference
  2
B-DIM
 10
47802.91779964745
 20
24160.0
 30
0.0
 41
30.0
 42
30.0
 43
30.0
 50
270.0
  0
MTEXT
  5
4F6
330
398
100
AcDbEntity
  8
WYMIARY
 62
    10
370
     5
100
AcDbMText
 10
47722.91779964744
 20
24148.5
 30
0.0
 40
80.0
 41
0.0
 71
     5
 72
     1
  1
\A1;23
  7
ROMANS
 11
0.0000000000000001
 21
1.0
 31
0.0
 73
     1
 44
1.0
1001
ACAD
1000
MTEXTBEGIN
1070
    73
1070
     1
1070
    44
1040
1.0
1070
    74
1070
     0
1000
MTEXTEND
  0
POINT
  5
4F7
330
398
100
AcDbEntity
  8
DEFPOINTS
 62
     0
100
AcDbPoint
 10
48314.78273671091
 20
24136.99999999999
 30
0.0
  0
POINT
  5
4F8
330
398
100
AcDbEntity
  8
DEFPOINTS
 62
     0
100
AcDbPoint
 10
48639.78273671091
 20
24160.0
 30
0.0
  0
POINT
  5
4F9
330
398
100
AcDbEntity
  8
DEFPOINTS
 62
     0
100
AcDbPoint
 10
47802.91779964745
 20
24160.0
 30
0.0
  0
ENDBLK
  5
39A
330
398
100
AcDbEntity
  8
0
100
AcDbBlockEnd
  0
BLOCK
  5
3AC
330
3AB
100
AcDbEntity
  8
0
100
AcDbBlockBegin
  2
*D47
 70
     1
 10
0.0
 20
0.0
 30
0.0
  3
*D47
  1

  0
LINE
  5
501
330
3AB
100
AcDbEntity
  8
WYMIARY
 62
     1
370
    -2
100
AcDbLine
 10
48659.78273671091
 20
25046.73753941569
 30
0.0
 11
48394.78273671091
 21
25046.73753941569
 31
0.0
  0
INSERT
  5
502
330
3AB
100
AcDbEntity
  8
WYMIARY
 62
     1
370
    -2
100
AcDbBlockReference
  2
B-DIM
 10
48689.78273671091
 20
25046.73753941569
 30
0.0
 41
30.0
 42
30.0
 43
30.0
  0
INSERT
  5
503
330
3AB
100
AcDbEntity
  8
WYMIARY
 62
     1
370
    -2
100
AcDbBlockReference
  2
B-DIM
 10
48364.78273671091
 20
25046.73753941569
 30
0.0
 41
30.0
 42
30.0
 43
30.0
 50
180.0
  0
MTEXT
  5
504
330
3AB
100
AcDbEntity
  8
WYMIARY
 62
    10
370
     5
100
AcDbMText
 10
48527.28273671091
 20
25126.73753941569
 30
0.0
 40
80.0
 41
0.0
 71
     5
 72
     1
  1
\A1;325
  7
ROMANS
 73
     1
 44
1.0
1001
ACAD
1000
MTEXTBEGIN
1070
    73
1070
     1
1070
    44
1040
1.0
1070
    74
1070
     0
1000
MTEXTEND
  0
POINT
  5
505
330
3AB
100
AcDbEntity
  8
DEFPOINTS
 62
     0
100
AcDbPoint
 10
48689.78273671091
 20
24310.0
 30
0.0
  0
POINT
  5
506
330
3AB
100
AcDbEntity
  8
DEFPOINTS
 62
     0
100
AcDbPoint
 10
48364.78273671091
 20
24286.99999999999
 30
0.0
  0
POINT
  5
507
330
3AB
100
AcDbEntity
  8
DEFPOINTS
 62
     0
100
AcDbPoint
 10
48364.78273671091
 20
25046.73753941569
 30
0.0
  0
ENDBLK
  5
3AD
330
3AB
100
AcDbEntity
  8
0
100
AcDbBlockEnd
  0
BLOCK
  5
3B6
330
3B5
100
AcDbEntity
  8
0
100
AcDbBlockBegin
  2
*D48
 70
     1
 10
0.0
 20
0.0
 30
0.0
  3
*D48
  1

  0
LINE
  5
508
330
3B5
100
AcDbEntity
  8
WYMIARY
 62
     1
370
    -2
100
AcDbLine
 10
48659.78273671091
 20
22563.80079766781
 30
0.0
 11
48394.78273671091
 21
22563.80079766781
 31
0.0
  0
INSERT
  5
509
330
3B5
100
AcDbEntity
  8
WYMIARY
 62
     1
370
    -2
100
AcDbBlockReference
  2
B-DIM
 10
48689.78273671091
 20
22563.80079766781
 30
0.0
 41
30.0
 42
30.0
 43
30.0
  0
INSERT
  5
50A
330
3B5
100
AcDbEntity
  8
WYMIARY
 62
     1
370
    -2
100
AcDbBlockReference
  2
B-DIM
 10
48364.78273671091
 20
22563.80079766781
 30
0.0
 41
30.0
 42
30.0
 43
30.0
 50
180.0
  0
MTEXT
  5
50B
330
3B5
100
AcDbEntity
  8
WYMIARY
 62
    10
370
     5
100
AcDbMText
 10
48527.28273671091
 20
22643.80079766781
 30
0.0
 40
80.0
 41
0.0
 71
     5
 72
     1
  1
\A1;325
  7
ROMANS
 73
     1
 44
1.0
1001
ACAD
1000
MTEXTBEGIN
1070
    73
1070
     1
1070
    44
1040
1.0
1070
    74
1070
     0
1000
MTEXTEND
  0
POINT
  5
50C
330
3B5
100
AcDbEntity
  8
DEFPOINTS
 62
     0
100
AcDbPoint
 10
48689.78273671091
 20
23233.0
 30
0.0
  0
POINT
  5
50D
330
3B5
100
AcDbEntity
  8
DEFPOINTS
 62
     0
100
AcDbPoint
 10
48364.78273671091
 20
23233.0
 30
0.0
  0
POINT
  5
50E
330
3B5
100
AcDbEntity
  8
DEFPOINTS
 62
     0
100
AcDbPoint
 10
48364.78273671091
 20
22563.80079766781
 30
0.0
  0
ENDBLK
  5
3B7
330
3B5
100
AcDbEntity
  8
0
100
AcDbBlockEnd
  0
BLOCK
  5
3C0
330
3BF
100
AcDbEntity
  8
0
100
AcDbBlockBegin
  2
*D49
 70
     1
 10
0.0
 20
0.0
 30
0.0
  3
*D49
  1

  0
LINE
  5
50F
330
3BF
100
AcDbEntity
  8
WYMIARY
 62
     1
370
    -2
100
AcDbLine
 10
47802.91779964745
 20
23399.99999999998
 30
0.0
 11
47802.91779964745
 21
23369.99999999998
 31
0.0
  0
LINE
  5
510
330
3BF
100
AcDbEntity
  8
WYMIARY
 62
     1
370
    -2
100
AcDbLine
 10
47802.91779964745
 20
23483.0
 30
0.0
 11
47802.91779964745
 21
23513.0
 31
0.0
  0
LINE
  5
511
330
3BF
100
AcDbEntity
  8
WYMIARY
 62
     1
370
    -2
100
AcDbLine
 10
47802.91779964745
 20
23429.99999999998
 30
0.0
 11
47802.91779964745
 21
23453.0
 31
0.0
  0
INSERT
  5
512
330
3BF
100
AcDbEntity
  8
WYMIARY
 62
     1
370
    -2
100
AcDbBlockReference
  2
B-DIM
 10
47802.91779964745
 20
23429.99999999998
 30
0.0
 41
30.0
 42
30.0
 43
30.0
 50
90.0
  0
INSERT
  5
513
330
3BF
100
AcDbEntity
  8
WYMIARY
 62
     1
370
    -2
100
AcDbBlockReference
  2
B-DIM
 10
47802.91779964745
 20
23453.0
 30
0.0
 41
30.0
 42
30.0
 43
30.0
 50
270.0
  0
MTEXT
  5
514
330
3BF
100
AcDbEntity
  8
WYMIARY
 62
    10
370
     5
100
AcDbMText
 10
47722.91779964744
 20
23441.5
 30
0.0
 40
80.0
 41
0.0
 71
     5
 72
     1
  1
\A1;23
  7
ROMANS
 11
0.0000000000000001
 21
1.0
 31
0.0
 73
     1
 44
1.0
1001
ACAD
1000
MTEXTBEGIN
1070
    73
1070
     1
1070
    44
1040
1.0
1070
    74
1070
     0
1000
MTEXTEND
  0
POINT
  5
515
330
3BF
100
AcDbEntity
  8
DEFPOINTS
 62
     0
100
AcDbPoint
 10
48639.78273671091
 20
23429.99999999998
 30
0.0
  0
POINT
  5
516
330
3BF
100
AcDbEntity
  8
DEFPOINTS
 62
     0
100
AcDbPoint
 10
48639.78273671091
 20
23453.0
 30
0.0
  0
POINT
  5
517
330
3BF
100
AcDbEntity
  8
DEFPOINTS
 62
     0
100
AcDbPoint
 10
47802.91779964745
 20
23453.0
 30
0.0
  0
ENDBLK
  5
3C1
330
3BF
100
AcDbEntity
  8
0
100
AcDbBlockEnd
  0
BLOCK
  5
3CC
330
3CB
100
AcDbEntity
  8
0
100
AcDbBlockBegin
  2
*D50
 70
     1
 10
0.0
 20
0.0
 30
0.0
  3
*D50
  1

  0
LINE
  5
518
330
3CB
100
AcDbEntity
  8
WYMIARY
 62
     1
370
    -2
100
AcDbLine
 10
49799.78273671091
 20
25280.20987689268
 30
0.0
 11
48394.78273671091
 21
25280.20987689268
 31
0.0
  0
INSERT
  5
519
330
3CB
100
AcDbEntity
  8
WYMIARY
 62
     1
370
    -2
100
AcDbBlockReference
  2
B-DIM
 10
49829.78273671091
 20
25280.20987689268
 30
0.0
 41
30.0
 42
30.0
 43
30.0
  0
INSERT
  5
51A
330
3CB
100
AcDbEntity
  8
WYMIARY
 62
     1
370
    -2
100
AcDbBlockReference
  2
B-DIM
 10
48364.78273671091
 20
25280.20987689268
 30
0.0
 41
30.0
 42
30.0
 43
30.0
 50
180.0
  0
MTEXT
  5
51B
330
3CB
100
AcDbEntity
  8
WYMIARY
 62
    10
370
     5
100
AcDbMText
 10
49097.28273671091
 20
25360.20987689268
 30
0.0
 40
80.0
 41
0.0
 71
     5
 72
     1
  1
\A1;1465
  7
ROMANS
 73
     1
 44
1.0
1001
ACAD
1000
MTEXTBEGIN
1070
    73
1070
     1
1070
    44
1040
1.0
1070
    74
1070
     0
1000
MTEXTEND
  0
POINT
  5
51C
330
3CB
100
AcDbEntity
  8
DEFPOINTS
 62
     0
100
AcDbPoint
 10
49829.78273671091
 20
24543.472337477
 30
0.0
  0
POINT
  5
51D
330
3CB
100
AcDbEntity
  8
DEFPOINTS
 62
     0
100
AcDbPoint
 10
48364.78273671091
 20
24807.47004798088
 30
0.0
  0
POINT
  5
51E
330
3CB
100
AcDbEntity
  8
DEFPOINTS
 62
     0
100
AcDbPoint
 10
48364.78273671091
 20
25280.20987689268
 30
0.0
  0
ENDBLK
  5
3CD
330
3CB
100
AcDbEntity
  8
0
100
AcDbBlockEnd
  0
BLOCK
  5
3D6
330
3D5
100
AcDbEntity
  8
0
100
AcDbBlockBegin
  2
*D51
 70
     1
 10
0.0
 20
0.0
 30
0.0
  3
*D51
  1

  0
LINE
  5
51F
330
3D5
100
AcDbEntity
  8
WYMIARY
 62
     1
370
    -2
100
AcDbLine
 10
50570.0968207277
 20
23327.99999999999
 30
0.0
 11
50570.0968207277
 21
24393.99771050388
 31
0.0
  0
INSERT
  5
520
330
3D5
100
AcDbEntity
  8
WYMIARY
 62
     1
370
    -2
100
AcDbBlockReference
  2
B-DIM
 10
50570.0968207277
 20
23297.99999999999
 30
0.0
 41
30.0
 42
30.0
 43
30.0
 50
270.0
  0
INSERT
  5
521
330
3D5
100
AcDbEntity
  8
WYMIARY
 62
     1
370
    -2
100
AcDbBlockReference
  2
B-DIM
 10
50570.0968207277
 20
24423.99771050388
 30
0.0
 41
30.0
 42
30.0
 43
30.0
 50
90.0
  0
MTEXT
  5
522
330
3D5
100
AcDbEntity
  8
WYMIARY
 62
    10
370
     5
100
AcDbMText
 10
50490.09682072769
 20
23860.99885525194
 30
0.0
 40
80.0
 41
0.0
 71
     5
 72
     1
  1
\A1;1126
  7
ROMANS
 11
0.0000000000000001
 21
1.0
 31
0.0
 73
     1
 44
1.0
1001
ACAD
1000
MTEXTBEGIN
1070
    73
1070
     1
1070
    44
1040
1.0
1070
    74
1070
     0
1000
MTEXTEND
  0
POINT
  5
523
330
3D5
100
AcDbEntity
  8
DEFPOINTS
 62
     0
100
AcDbPoint
 10
50130.46194918117
 20
23297.99999999999
 30
0.0
  0
POINT
  5
524
330
3D5
100
AcDbEntity
  8
DEFPOINTS
 62
     0
100
AcDbPoint
 10
50130.46194918117
 20
24423.99771050388
 30
0.0
  0
POINT
  5
525
330
3D5
100
AcDbEntity
  8
DEFPOINTS
 62
     0
100
AcDbPoint
 10
50570.0968207277
 20
24423.99771050388
 30
0.0
  0
ENDBLK
  5
3D7
330
3D5
100
AcDbEntity
  8
0
100
AcDbBlockEnd
  0
BLOCK
  5
3E0
330
3DF
100
AcDbEntity
  8
0
100
AcDbBlockBegin
  2
*D52
 70
     1
 10
0.0
 20
0.0
 30
0.0
  3
*D52
  1

  0
LINE
  5
526
330
3DF
100
AcDbEntity
  8
WYMIARY
 62
     1
370
    -2
100
AcDbLine
 10
50362.73966329073
 20
24190.0
 30
0.0
 11
50362.73966329073
 21
24393.99771050388
 31
0.0
  0
INSERT
  5
527
330
3DF
100
AcDbEntity
  8
WYMIARY
 62
     1
370
    -2
100
AcDbBlockReference
  2
B-DIM
 10
50362.73966329073
 20
24160.0
 30
0.0
 41
30.0
 42
30.0
 43
30.0
 50
270.0
  0
INSERT
  5
528
330
3DF
100
AcDbEntity
  8
WYMIARY
 62
     1
370
    -2
100
AcDbBlockReference
  2
B-DIM
 10
50362.73966329073
 20
24423.99771050388
 30
0.0
 41
30.0
 42
30.0
 43
30.0
 50
90.0
  0
MTEXT
  5
529
330
3DF
100
AcDbEntity
  8
WYMIARY
 62
    10
370
     5
100
AcDbMText
 10
50282.73966329073
 20
24291.99885525195
 30
0.0
 40
80.0
 41
0.0
 71
     5
 72
     1
  1
\A1;264
  7
ROMANS
 11
0.0000000000000001
 21
1.0
 31
0.0
 73
     1
 44
1.0
1001
ACAD
1000
MTEXTBEGIN
1070
    73
1070
     1
1070
    44
1040
1.0
1070
    74
1070
     0
1000
MTEXTEND
  0
POINT
  5
52A
330
3DF
100
AcDbEntity
  8
DEFPOINTS
 62
     0
100
AcDbPoint
 10
49848.43858892593
 20
24160.0
 30
0.0
  0
POINT
  5
52B
330
3DF
100
AcDbEntity
  8
DEFPOINTS
 62
     0
100
AcDbPoint
 10
49663.43858892592
 20
24423.99771050388
 30
0.0
  0
POINT
  5
52C
330
3DF
100
AcDbEntity
  8
DEFPOINTS
 62
     0
100
AcDbPoint
 10
50362.73966329073
 20
24423.99771050388
 30
0.0
  0
ENDBLK
  5
3E1
330
3DF
100
AcDbEntity
  8
0
100
AcDbBlockEnd
  0
BLOCK
  5
3EA
330
3E9
100
AcDbEntity
  8
0
100
AcDbBlockBegin
  2
*D53
 70
     1
 10
0.0
 20
0.0
 30
0.0
  3
*D53
  1

  0
LINE
  5
52D
330
3E9
100
AcDbEntity
  8
WYMIARY
 62
     1
370
    -2
100
AcDbLine
 10
50362.73966329073
 20
23268.0
 30
0.0
 11
50362.73966329073
 21
23238.0
 31
0.0
  0
LINE
  5
52E
330
3E9
100
AcDbEntity
  8
WYMIARY
 62
     1
370
    -2
100
AcDbLine
 10
50362.73966329073
 20
23460.0
 30
0.0
 11
50362.73966329073
 21
23490.0
 31
0.0
  0
LINE
  5
52F
330
3E9
100
AcDbEntity
  8
WYMIARY
 62
     1
370
    -2
100
AcDbLine
 10
50362.73966329073
 20
23298.0
 30
0.0
 11
50362.73966329073
 21
23430.0
 31
0.0
  0
INSERT
  5
530
330
3E9
100
AcDbEntity
  8
WYMIARY
 62
     1
370
    -2
100
AcDbBlockReference
  2
B-DIM
 10
50362.73966329073
 20
23298.0
 30
0.0
 41
30.0
 42
30.0
 43
30.0
 50
90.0
  0
INSERT
  5
531
330
3E9
100
AcDbEntity
  8
WYMIARY
 62
     1
370
    -2
100
AcDbBlockReference
  2
B-DIM
 10
50362.73966329073
 20
23430.0
 30
0.0
 41
30.0
 42
30.0
 43
30.0
 50
270.0
  0
MTEXT
  5
532
330
3E9
100
AcDbEntity
  8
WYMIARY
 62
    10
370
     5
100
AcDbMText
 10
50282.73966329073
 20
23364.00000000001
 30
0.0
 40
80.0
 41
0.0
 71
     5
 72
     1
  1
\A1;132
  7
ROMANS
 11
0.0000000000000001
 21
1.0
 31
0.0
 73
     1
 44
1.0
1001
ACAD
1000
MTEXTBEGIN
1070
    73
1070
     1
1070
    44
1040
1.0
1070
    74
1070
     0
1000
MTEXTEND
  0
POINT
  5
533
330
3E9
100
AcDbEntity
  8
DEFPOINTS
 62
     0
100
AcDbPoint
 10
49458.43858892591
 20
23298.0
 30
0.0
  0
POINT
  5
534
330
3E9
100
AcDbEntity
  8
DEFPOINTS
 62
     0
100
AcDbPoint
 10
49848.43858892593
 20
23430.0
 30
0.0
  0
POINT
  5
535
330
3E9
100
AcDbEntity
  8
DEFPOINTS
 62
     0
100
AcDbPoint
 10
50362.73966329073
 20
23430.0
 30
0.0
  0
ENDBLK
  5
3EB
330
3E9
100
AcDbEntity
  8
0
100
AcDbBlockEnd
  0
BLOCK
  5
3F6
330
3F5
100
AcDbEntity
  8
0
100
AcDbBlockBegin
  2
*D54
 70
     1
 10
0.0
 20
0.0
 30
0.0
  3
*D54
  1

  0
LINE
  5
536
330
3F5
100
AcDbEntity
  8
WYMIARY
 62
     1
370
    -2
100
AcDbLine
 10
50362.73966329073
 20
23460.0
 30
0.0
 11
50362.73966329073
 21
24130.0
 31
0.0
  0
INSERT
  5
537
330
3F5
100
AcDbEntity
  8
WYMIARY
 62
     1
370
    -2
100
AcDbBlockReference
  2
B-DIM
 10
50362.73966329073
 20
23430.0
 30
0.0
 41
30.0
 42
30.0
 43
30.0
 50
270.0
  0
INSERT
  5
538
330
3F5
100
AcDbEntity
  8
WYMIARY
 62
     1
370
    -2
100
AcDbBlockReference
  2
B-DIM
 10
50362.73966329073
 20
24160.0
 30
0.0
 41
30.0
 42
30.0
 43
30.0
 50
90.0
  0
MTEXT
  5
539
330
3F5
100
AcDbEntity
  8
WYMIARY
 62
    10
370
     5
100
AcDbMText
 10
50282.73966329073
 20
23795.00000000001
 30
0.0
 40
80.0
 41
0.0
 71
     5
 72
     1
  1
\A1;730
  7
ROMANS
 11
0.0000000000000001
 21
1.0
 31
0.0
 73
     1
 44
1.0
1001
ACAD
1000
MTEXTBEGIN
1070
    73
1070
     1
1070
    44
1040
1.0
1070
    74
1070
     0
1000
MTEXTEND
  0
POINT
  5
53A
330
3F5
100
AcDbEntity
  8
DEFPOINTS
 62
     0
100
AcDbPoint
 10
49848.43858892593
 20
23430.0
 30
0.0
  0
POINT
  5
53B
330
3F5
100
AcDbEntity
  8
DEFPOINTS
 62
     0
100
AcDbPoint
 10
49848.43858892593
 20
24160.0
 30
0.0
  0
POINT
  5
53C
330
3F5
100
AcDbEntity
  8
DEFPOINTS
 62
     0
100
AcDbPoint
 10
50362.73966329073
 20
24160.0
 30
0.0
  0
ENDBLK
  5
3F7
330
3F5
100
AcDbEntity
  8
0
100
AcDbBlockEnd
  0
BLOCK
  5
400
330
3FF
100
AcDbEntity
  8
0
100
AcDbBlockBegin
  2
*D55
 70
     1
 10
0.0
 20
0.0
 30
0.0
  3
*D55
  1

  0
LINE
  5
53D
330
3FF
100
AcDbEntity
  8
WYMIARY
 62
     1
370
    -2
100
AcDbLine
 10
44199.99999999999
 20
25280.20987689268
 30
0.0
 11
45604.99999999998
 21
25280.20987689268
 31
0.0
  0
INSERT
  5
53E
330
3FF
100
AcDbEntity
  8
WYMIARY
 62
     1
370
    -2
100
AcDbBlockReference
  2
B-DIM
 10
44169.99999999998
 20
25280.20987689268
 30
0.0
 41
30.0
 42
30.0
 43
30.0
 50
180.0
  0
INSERT
  5
53F
330
3FF
100
AcDbEntity
  8
WYMIARY
 62
     1
370
    -2
100
AcDbBlockReference
  2
B-DIM
 10
45634.99999999998
 20
25280.20987689268
 30
0.0
 41
30.0
 42
30.0
 43
30.0
  0
MTEXT
  5
540
330
3FF
100
AcDbEntity
  8
WYMIARY
 62
    10
370
     5
100
AcDbMText
 10
44902.49999999998
 20
25360.20987689268
 30
0.0
 40
80.0
 41
0.0
 71
     5
 72
     1
  1
\A1;1465
  7
ROMANS
 73
     1
 44
1.0
1001
ACAD
1000
MTEXTBEGIN
1070
    73
1070
     1
1070
    44
1040
1.0
1070
    74
1070
     0
1000
MTEXTEND
  0
POINT
  5
541
330
3FF
100
AcDbEntity
  8
DEFPOINTS
 62
     0
100
AcDbPoint
 10
44169.99999999998
 20
24543.472337477
 30
0.0
  0
POINT
  5
542
330
3FF
100
AcDbEntity
  8
DEFPOINTS
 62
     0
100
AcDbPoint
 10
45634.99999999998
 20
24807.47004798088
 30
0.0
  0
POINT
  5
543
330
3FF
100
AcDbEntity
  8
DEFPOINTS
 62
     0
100
AcDbPoint
 10
45634.99999999998
 20
25280.20987689268
 30
0.0
  0
ENDBLK
  5
401
330
3FF
100
AcDbEntity
  8
0
100
AcDbBlockEnd
  0
BLOCK
  5
40A
330
409
100
AcDbEntity
  8
0
100
AcDbBlockBegin
  2
*D56
 70
     1
 10
0.0
 20
0.0
 30
0.0
  3
*D56
  1

  0
LINE
  5
544
330
409
100
AcDbEntity
  8
WYMIARY
 62
     1
370
    -2
100
AcDbLine
 10
46196.86493706345
 20
23399.99999999998
 30
0.0
 11
46196.86493706345
 21
23369.99999999998
 31
0.0
  0
LINE
  5
545
330
409
100
AcDbEntity
  8
WYMIARY
 62
     1
370
    -2
100
AcDbLine
 10
46196.86493706345
 20
23483.0
 30
0.0
 11
46196.86493706345
 21
23513.0
 31
0.0
  0
LINE
  5
546
330
409
100
AcDbEntity
  8
WYMIARY
 62
     1
370
    -2
100
AcDbLine
 10
46196.86493706345
 20
23429.99999999998
 30
0.0
 11
46196.86493706345
 21
23453.0
 31
0.0
  0
INSERT
  5
547
330
409
100
AcDbEntity
  8
WYMIARY
 62
     1
370
    -2
100
AcDbBlockReference
  2
B-DIM
 10
46196.86493706345
 20
23429.99999999998
 30
0.0
 41
30.0
 42
30.0
 43
30.0
 50
90.0
  0
INSERT
  5
548
330
409
100
AcDbEntity
  8
WYMIARY
 62
     1
370
    -2
100
AcDbBlockReference
  2
B-DIM
 10
46196.86493706345
 20
23453.0
 30
0.0
 41
30.0
 42
30.0
 43
30.0
 50
270.0
  0
MTEXT
  5
549
330
409
100
AcDbEntity
  8
WYMIARY
 62
    10
370
     5
100
AcDbMText
 10
46116.86493706344
 20
23441.5
 30
0.0
 40
80.0
 41
0.0
 71
     5
 72
     1
  1
\A1;23
  7
ROMANS
 11
0.0000000000000001
 21
1.0
 31
0.0
 73
     1
 44
1.0
1001
ACAD
1000
MTEXTBEGIN
1070
    73
1070
     1
1070
    44
1040
1.0
1070
    74
1070
     0
1000
MTEXTEND
  0
POINT
  5
54A
330
409
100
AcDbEntity
  8
DEFPOINTS
 62
     0
100
AcDbPoint
 10
45359.99999999998
 20
23429.99999999998
 30
0.0
  0
POINT
  5
54B
330
409
100
AcDbEntity
  8
DEFPOINTS
 62
     0
100
AcDbPoint
 10
45359.99999999998
 20
23453.0
 30
0.0
  0
POINT
  5
54C
330
409
100
AcDbEntity
  8
DEFPOINTS
 62
     0
100
AcDbPoint
 10
46196.86493706345
 20
23453.0
 30
0.0
  0
ENDBLK
  5
40B
330
409
100
AcDbEntity
  8
0
100
AcDbBlockEnd
  0
BLOCK
  5
416
330
415
100
AcDbEntity
  8
0
100
AcDbBlockBegin
  2
*D57
 70
     1
 10
0.0
 20
0.0
 30
0.0
  3
*D57
  1

  0
LINE
  5
54D
330
415
100
AcDbEntity
  8
WYMIARY
 62
     1
370
    -2
100
AcDbLine
 10
45339.99999999998
 20
22563.80079766781
 30
0.0
 11
45604.99999999998
 21
22563.80079766781
 31
0.0
  0
INSERT
  5
54E
330
415
100
AcDbEntity
  8
WYMIARY
 62
     1
370
    -2
100
AcDbBlockReference
  2
B-DIM
 10
45309.99999999998
 20
22563.80079766781
 30
0.0
 41
30.0
 42
30.0
 43
30.0
 50
180.0
  0
INSERT
  5
54F
330
415
100
AcDbEntity
  8
WYMIARY
 62
     1
370
    -2
100
AcDbBlockReference
  2
B-DIM
 10
45634.99999999998
 20
22563.80079766781
 30
0.0
 41
30.0
 42
30.0
 43
30.0
  0
MTEXT
  5
550
330
415
100
AcDbEntity
  8
WYMIARY
 62
    10
370
     5
100
AcDbMText
 10
45472.49999999999
 20
22643.80079766781
 30
0.0
 40
80.0
 41
0.0
 71
     5
 72
     1
  1
\A1;325
  7
ROMANS
 73
     1
 44
1.0
1001
ACAD
1000
MTEXTBEGIN
1070
    73
1070
     1
1070
    44
1040
1.0
1070
    74
1070
     0
1000
MTEXTEND
  0
POINT
  5
551
330
415
100
AcDbEntity
  8
DEFPOINTS
 62
     0
100
AcDbPoint
 10
45309.99999999998
 20
23233.0
 30
0.0
  0
POINT
  5
552
330
415
100
AcDbEntity
  8
DEFPOINTS
 62
     0
100
AcDbPoint
 10
45634.99999999998
 20
23233.0
 30
0.0
  0
POINT
  5
553
330
415
100
AcDbEntity
  8
DEFPOINTS
 62
     0
100
AcDbPoint
 10
45634.99999999998
 20
22563.80079766781
 30
0.0
  0
ENDBLK
  5
417
330
415
100
AcDbEntity
  8
0
100
AcDbBlockEnd
  0
BLOCK
  5
420
330
41F
100
AcDbEntity
  8
0
100
AcDbBlockBegin
  2
*D58
 70
     1
 10
0.0
 20
0.0
 30
0.0
  3
*D58
  1

  0
LINE
  5
554
330
41F
100
AcDbEntity
  8
WYMIARY
 62
     1
370
    -2
100
AcDbLine
 10
44590.0
 20
22563.80079766781
 30
0.0
 11
44889.99999999998
 21
22563.80079766781
 31
0.0
  0
INSERT
  5
555
330
41F
100
AcDbEntity
  8
WYMIARY
 62
     1
370
    -2
100
AcDbBlockReference
  2
B-DIM
 10
44560.0
 20
22563.80079766781
 30
0.0
 41
30.0
 42
30.0
 43
30.0
 50
180.0
  0
INSERT
  5
556
330
41F
100
AcDbEntity
  8
WYMIARY
 62
     1
370
    -2
100
AcDbBlockReference
  2
B-DIM
 10
44919.99999999999
 20
22563.80079766781
 30
0.0
 41
30.0
 42
30.0
 43
30.0
  0
MTEXT
  5
557
330
41F
100
AcDbEntity
  8
WYMIARY
 62
    10
370
     5
100
AcDbMText
 10
44739.99999999999
 20
22643.80079766781
 30
0.0
 40
80.0
 41
0.0
 71
     5
 72
     1
  1
\A1;360
  7
ROMANS
 73
     1
 44
1.0
1001
ACAD
1000
MTEXTBEGIN
1070
    73
1070
     1
1070
    44
1040
1.0
1070
    74
1070
     0
1000
MTEXTEND
  0
POINT
  5
558
330
41F
100
AcDbEntity
  8
DEFPOINTS
 62
     0
100
AcDbPoint
 10
44560.0
 20
23078.0
 30
0.0
  0
POINT
  5
559
330
41F
100
AcDbEntity
  8
DEFPOINTS
 62
     0
100
AcDbPoint
 10
44919.99999999999
 20
23077.99999999999
 30
0.0
  0
POINT
  5
55A
330
41F
100
AcDbEntity
  8
DEFPOINTS
 62
     0
100
AcDbPoint
 10
44919.99999999999
 20
22563.80079766781
 30
0.0
  0
ENDBLK
  5
421
330
41F
100
AcDbEntity
  8
0
100
AcDbBlockEnd
  0
BLOCK
  5
42A
330
429
100
AcDbEntity
  8
0
100
AcDbBlockBegin
  2
*D59
 70
     1
 10
0.0
 20
0.0
 30
0.0
  3
*D59
  1

  0
LINE
  5
55B
330
429
100
AcDbEntity
  8
WYMIARY
 62
     1
370
    -2
100
AcDbLine
 10
44949.99999999998
 20
22563.80079766781
 30
0.0
 11
45279.99999999998
 21
22563.80079766781
 31
0.0
  0
INSERT
  5
55C
330
429
100
AcDbEntity
  8
WYMIARY
 62
     1
370
    -2
100
AcDbBlockReference
  2
B-DIM
 10
44919.99999999999
 20
22563.80079766781
 30
0.0
 41
30.0
 42
30.0
 43
30.0
 50
180.0
  0
INSERT
  5
55D
330
429
100
AcDbEntity
  8
WYMIARY
 62
     1
370
    -2
100
AcDbBlockReference
  2
B-DIM
 10
45309.99999999998
 20
22563.80079766781
 30
0.0
 41
30.0
 42
30.0
 43
30.0
  0
MTEXT
  5
55E
330
429
100
AcDbEntity
  8
WYMIARY
 62
    10
370
     5
100
AcDbMText
 10
45114.99999999998
 20
22643.80079766781
 30
0.0
 40
80.0
 41
0.0
 71
     5
 72
     1
  1
\A1;390
  7
ROMANS
 73
     1
 44
1.0
1001
ACAD
1000
MTEXTBEGIN
1070
    73
1070
     1
1070
    44
1040
1.0
1070
    74
1070
     0
1000
MTEXTEND
  0
POINT
  5
55F
330
429
100
AcDbEntity
  8
DEFPOINTS
 62
     0
100
AcDbPoint
 10
44919.99999999999
 20
23077.99999999999
 30
0.0
  0
POINT
  5
560
330
429
100
AcDbEntity
  8
DEFPOINTS
 62
     0
100
AcDbPoint
 10
45309.99999999998
 20
23210.0
 30
0.0
  0
POINT
  5
561
330
429
100
AcDbEntity
  8
DEFPOINTS
 62
     0
100
AcDbPoint
 10
45309.99999999998
 20
22563.80079766781
 30
0.0
  0
ENDBLK
  5
42B
330
429
100
AcDbEntity
  8
0
100
AcDbBlockEnd
  0
BLOCK
  5
434
330
433
100
AcDbEntity
  8
0
100
AcDbBlockBegin
  2
*D60
 70
     1
 10
0.0
 20
0.0
 30
0.0
  3
*D60
  1

  0
LINE
  5
562
330
433
100
AcDbEntity
  8
WYMIARY
 62
     1
370
    -2
100
AcDbLine
 10
43637.04307342016
 20
23460.0
 30
0.0
 11
43637.04307342016
 21
24130.0
 31
0.0
  0
INSERT
  5
563
330
433
100
AcDbEntity
  8
WYMIARY
 62
     1
370
    -2
100
AcDbBlockReference
  2
B-DIM
 10
43637.04307342016
 20
23430.0
 30
0.0
 41
30.0
 42
30.0
 43
30.0
 50
270.0
  0
INSERT
  5
564
330
433
100
AcDbEntity
  8
WYMIARY
 62
     1
370
    -2
100
AcDbBlockReference
  2
B-DIM
 10
43637.04307342016
 20
24160.0
 30
0.0
 41
30.0
 42
30.0
 43
30.0
 50
90.0
  0
MTEXT
  5
565
330
433
100
AcDbEntity
  8
WYMIARY
 62
    10
370
     5
100
AcDbMText
 10
43557.04307342016
 20
23795.00000000001
 30
0.0
 40
80.0
 41
0.0
 71
     5
 72
     1
  1
\A1;730
  7
ROMANS
 11
0.0000000000000001
 21
1.0
 31
0.0
 73
     1
 44
1.0
1001
ACAD
1000
MTEXTBEGIN
1070
    73
1070
     1
1070
    44
1040
1.0
1070
    74
1070
     0
1000
MTEXTEND
  0
POINT
  5
566
330
433
100
AcDbEntity
  8
DEFPOINTS
 62
     0
100
AcDbPoint
 10
44151.34414778496
 20
23430.0
 30
0.0
  0
POINT
  5
567
330
433
100
AcDbEntity
  8
DEFPOINTS
 62
     0
100
AcDbPoint
 10
44151.34414778496
 20
24160.0
 30
0.0
  0
POINT
  5
568
330
433
100
AcDbEntity
  8
DEFPOINTS
 62
     0
100
AcDbPoint
 10
43637.04307342016
 20
24160.0
 30
0.0
  0
ENDBLK
  5
435
330
433
100
AcDbEntity
  8
0
100
AcDbBlockEnd
  0
BLOCK
  5
43E
330
43D
100
AcDbEntity
  8
0
100
AcDbBlockBegin
  2
*D61
 70
     1
 10
0.0
 20
0.0
 30
0.0
  3
*D61
  1

  0
LINE
  5
569
330
43D
100
AcDbEntity
  8
WYMIARY
 62
     1
370
    -2
100
AcDbLine
 10
44199.99999999999
 20
22563.80079766781
 30
0.0
 11
44530.0
 21
22563.80079766781
 31
0.0
  0
INSERT
  5
56A
330
43D
100
AcDbEntity
  8
WYMIARY
 62
     1
370
    -2
100
AcDbBlockReference
  2
B-DIM
 10
44169.99999999998
 20
22563.80079766781
 30
0.0
 41
30.0
 42
30.0
 43
30.0
 50
180.0
  0
INSERT
  5
56B
330
43D
100
AcDbEntity
  8
WYMIARY
 62
     1
370
    -2
100
AcDbBlockReference
  2
B-DIM
 10
44560.0
 20
22563.80079766781
 30
0.0
 41
30.0
 42
30.0
 43
30.0
  0
MTEXT
  5
56C
330
43D
100
AcDbEntity
  8
WYMIARY
 62
    10
370
     5
100
AcDbMText
 10
44364.99999999999
 20
22643.80079766781
 30
0.0
 40
80.0
 41
0.0
 71
     5
 72
     1
  1
\A1;390
  7
ROMANS
 73
     1
 44
1.0
1001
ACAD
1000
MTEXTBEGIN
1070
    73
1070
     1
1070
    44
1040
1.0
1070
    74
1070
     0
1000
MTEXTEND
  0
POINT
  5
56D
330
43D
100
AcDbEntity
  8
DEFPOINTS
 62
     0
100
AcDbPoint
 10
44169.99999999998
 20
23210.0
 30
0.0
  0
POINT
  5
56E
330
43D
100
AcDbEntity
  8
DEFPOINTS
 62
     0
100
AcDbPoint
 10
44560.0
 20
23078.0
 30
0.0
  0
POINT
  5
56F
330
43D
100
AcDbEntity
  8
DEFPOINTS
 62
     0
100
AcDbPoint
 10
44560.0
 20
22563.80079766781
 30
0.0
  0
ENDBLK
  5
43F
330
43D
100
AcDbEntity
  8
0
100
AcDbBlockEnd
  0
BLOCK
  5
448
330
447
100
AcDbEntity
  8
0
100
AcDbBlockBegin
  2
*D62
 70
     1
 10
0.0
 20
0.0
 30
0.0
  3
*D62
  1

  0
LINE
  5
570
330
447
100
AcDbEntity
  8
WYMIARY
 62
     1
370
    -2
100
AcDbLine
 10
43637.04307342016
 20
23268.0
 30
0.0
 11
43637.04307342016
 21
23238.0
 31
0.0
  0
LINE
  5
571
330
447
100
AcDbEntity
  8
WYMIARY
 62
     1
370
    -2
100
AcDbLine
 10
43637.04307342016
 20
23460.0
 30
0.0
 11
43637.04307342016
 21
23490.0
 31
0.0
  0
LINE
  5
572
330
447
100
AcDbEntity
  8
WYMIARY
 62
     1
370
    -2
100
AcDbLine
 10
43637.04307342016
 20
23298.0
 30
0.0
 11
43637.04307342016
 21
23430.0
 31
0.0
  0
INSERT
  5
573
330
447
100
AcDbEntity
  8
WYMIARY
 62
     1
370
    -2
100
AcDbBlockReference
  2
B-DIM
 10
43637.04307342016
 20
23298.0
 30
0.0
 41
30.0
 42
30.0
 43
30.0
 50
90.0
  0
INSERT
  5
574
330
447
100
AcDbEntity
  8
WYMIARY
 62
     1
370
    -2
100
AcDbBlockReference
  2
B-DIM
 10
43637.04307342016
 20
23430.0
 30
0.0
 41
30.0
 42
30.0
 43
30.0
 50
270.0
  0
MTEXT
  5
575
330
447
100
AcDbEntity
  8
WYMIARY
 62
    10
370
     5
100
AcDbMText
 10
43557.04307342016
 20
23364.00000000001
 30
0.0
 40
80.0
 41
0.0
 71
     5
 72
     1
  1
\A1;132
  7
ROMANS
 11
0.0000000000000001
 21
1.0
 31
0.0
 73
     1
 44
1.0
1001
ACAD
1000
MTEXTBEGIN
1070
    73
1070
     1
1070
    44
1040
1.0
1070
    74
1070
     0
1000
MTEXTEND
  0
POINT
  5
576
330
447
100
AcDbEntity
  8
DEFPOINTS
 62
     0
100
AcDbPoint
 10
44541.34414778498
 20
23298.0
 30
0.0
  0
POINT
  5
577
330
447
100
AcDbEntity
  8
DEFPOINTS
 62
     0
100
AcDbPoint
 10
44151.34414778496
 20
23430.0
 30
0.0
  0
POINT
  5
578
330
447
100
AcDbEntity
  8
DEFPOINTS
 62
     0
100
AcDbPoint
 10
43637.04307342016
 20
23430.0
 30
0.0
  0
ENDBLK
  5
449
330
447
100
AcDbEntity
  8
0
100
AcDbBlockEnd
  0
BLOCK
  5
454
330
453
100
AcDbEntity
  8
0
100
AcDbBlockBegin
  2
*D63
 70
     1
 10
0.0
 20
0.0
 30
0.0
  3
*D63
  1

  0
LINE
  5
579
330
453
100
AcDbEntity
  8
WYMIARY
 62
     1
370
    -2
100
AcDbLine
 10
43637.04307342016
 20
24190.0
 30
0.0
 11
43637.04307342016
 21
24393.99771050388
 31
0.0
  0
INSERT
  5
57A
330
453
100
AcDbEntity
  8
WYMIARY
 62
     1
370
    -2
100
AcDbBlockReference
  2
B-DIM
 10
43637.04307342016
 20
24160.0
 30
0.0
 41
30.0
 42
30.0
 43
30.0
 50
270.0
  0
INSERT
  5
57B
330
453
100
AcDbEntity
  8
WYMIARY
 62
     1
370
    -2
100
AcDbBlockReference
  2
B-DIM
 10
43637.04307342016
 20
24423.99771050388
 30
0.0
 41
30.0
 42
30.0
 43
30.0
 50
90.0
  0
MTEXT
  5
57C
330
453
100
AcDbEntity
  8
WYMIARY
 62
    10
370
     5
100
AcDbMText
 10
43557.04307342016
 20
24291.99885525195
 30
0.0
 40
80.0
 41
0.0
 71
     5
 72
     1
  1
\A1;264
  7
ROMANS
 11
0.0000000000000001
 21
1.0
 31
0.0
 73
     1
 44
1.0
1001
ACAD
1000
MTEXTBEGIN
1070
    73
1070
     1
1070
    44
1040
1.0
1070
    74
1070
     0
1000
MTEXTEND
  0
POINT
  5
57D
330
453
100
AcDbEntity
  8
DEFPOINTS
 62
     0
100
AcDbPoint
 10
44151.34414778496
 20
24160.0
 30
0.0
  0
POINT
  5
57E
330
453
100
AcDbEntity
  8
DEFPOINTS
 62
     0
100
AcDbPoint
 10
44336.34414778497
 20
24423.99771050388
 30
0.0
  0
POINT
  5
57F
330
453
100
AcDbEntity
  8
DEFPOINTS
 62
     0
100
AcDbPoint
 10
43637.04307342016
 20
24423.99771050388
 30
0.0
  0
ENDBLK
  5
455
330
453
100
AcDbEntity
  8
0
100
AcDbBlockEnd
  0
BLOCK
  5
45E
330
45D
100
AcDbEntity
  8
0
100
AcDbBlockBegin
  2
*D64
 70
     1
 10
0.0
 20
0.0
 30
0.0
  3
*D64
  1

  0
LINE
  5
580
330
45D
100
AcDbEntity
  8
WYMIARY
 62
     1
370
    -2
100
AcDbLine
 10
44199.99999999999
 20
25046.73753941569
 30
0.0
 11
44324.99999999998
 21
25046.73753941569
 31
0.0
  0
INSERT
  5
581
330
45D
100
AcDbEntity
  8
WYMIARY
 62
     1
370
    -2
100
AcDbBlockReference
  2
B-DIM
 10
44169.99999999998
 20
25046.73753941569
 30
0.0
 41
30.0
 42
30.0
 43
30.0
 50
180.0
  0
INSERT
  5
582
330
45D
100
AcDbEntity
  8
WYMIARY
 62
     1
370
    -2
100
AcDbBlockReference
  2
B-DIM
 10
44354.99999999998
 20
25046.73753941569
 30
0.0
 41
30.0
 42
30.0
 43
30.0
  0
MTEXT
  5
583
330
45D
100
AcDbEntity
  8
WYMIARY
 62
    10
370
     5
100
AcDbMText
 10
44262.49999999998
 20
25126.73753941569
 30
0.0
 40
80.0
 41
0.0
 71
     5
 72
     1
  1
\A1;185
  7
ROMANS
 73
     1
 44
1.0
1001
ACAD
1000
MTEXTBEGIN
1070
    73
1070
     1
1070
    44
1040
1.0
1070
    74
1070
     0
1000
MTEXTEND
  0
POINT
  5
584
330
45D
100
AcDbEntity
  8
DEFPOINTS
 62
     0
100
AcDbPoint
 10
44169.99999999998
 20
24310.0
 30
0.0
  0
POINT
  5
585
330
45D
100
AcDbEntity
  8
DEFPOINTS
 62
     0
100
AcDbPoint
 10
44354.99999999998
 20
24573.99771050388
 30
0.0
  0
POINT
  5
586
330
45D
100
AcDbEntity
  8
DEFPOINTS
 62
     0
100
AcDbPoint
 10
44354.99999999998
 20
25046.73753941569
 30
0.0
  0
ENDBLK
  5
45F
330
45D
100
AcDbEntity
  8
0
100
AcDbBlockEnd
  0
BLOCK
  5
468
330
467
100
AcDbEntity
  8
0
100
AcDbBlockBegin
  2
*D65
 70
     1
 10
0.0
 20
0.0
 30
0.0
  3
*D65
  1

  0
LINE
  5
587
330
467
100
AcDbEntity
  8
WYMIARY
 62
     1
370
    -2
100
AcDbLine
 10
44384.99999999998
 20
25046.73753941569
 30
0.0
 11
44889.99999999998
 21
25046.73753941569
 31
0.0
  0
INSERT
  5
588
330
467
100
AcDbEntity
  8
WYMIARY
 62
     1
370
    -2
100
AcDbBlockReference
  2
B-DIM
 10
44354.99999999998
 20
25046.73753941569
 30
0.0
 41
30.0
 42
30.0
 43
30.0
 50
180.0
  0
INSERT
  5
589
330
467
100
AcDbEntity
  8
WYMIARY
 62
     1
370
    -2
100
AcDbBlockReference
  2
B-DIM
 10
44919.99999999999
 20
25046.73753941569
 30
0.0
 41
30.0
 42
30.0
 43
30.0
  0
MTEXT
  5
58A
330
467
100
AcDbEntity
  8
WYMIARY
 62
    10
370
     5
100
AcDbMText
 10
44637.49999999998
 20
25126.73753941569
 30
0.0
 40
80.0
 41
0.0
 71
     5
 72
     1
  1
\A1;565
  7
ROMANS
 73
     1
 44
1.0
1001
ACAD
1000
MTEXTBEGIN
1070
    73
1070
     1
1070
    44
1040
1.0
1070
    74
1070
     0
1000
MTEXTEND
  0
POINT
  5
58B
330
467
100
AcDbEntity
  8
DEFPOINTS
 62
     0
100
AcDbPoint
 10
44354.99999999998
 20
24573.99771050388
 30
0.0
  0
POINT
  5
58C
330
467
100
AcDbEntity
  8
DEFPOINTS
 62
     0
100
AcDbPoint
 10
44919.99999999999
 20
24573.99771050388
 30
0.0
  0
POINT
  5
58D
330
467
100
AcDbEntity
  8
DEFPOINTS
 62
     0
100
AcDbPoint
 10
44919.99999999999
 20
25046.73753941569
 30
0.0
  0
ENDBLK
  5
469
330
467
100
AcDbEntity
  8
0
100
AcDbBlockEnd
  0
BLOCK
  5
472
330
471
100
AcDbEntity
  8
0
100
AcDbBlockBegin
  2
*D66
 70
     1
 10
0.0
 20
0.0
 30
0.0
  3
*D66
  1

  0
LINE
  5
58E
330
471
100
AcDbEntity
  8
WYMIARY
 62
     1
370
    -2
100
AcDbLine
 10
44949.99999999998
 20
25046.73753941569
 30
0.0
 11
45279.99999999998
 21
25046.73753941569
 31
0.0
  0
INSERT
  5
58F
330
471
100
AcDbEntity
  8
WYMIARY
 62
     1
370
    -2
100
AcDbBlockReference
  2
B-DIM
 10
44919.99999999999
 20
25046.73753941569
 30
0.0
 41
30.0
 42
30.0
 43
30.0
 50
180.0
  0
INSERT
  5
590
330
471
100
AcDbEntity
  8
WYMIARY
 62
     1
370
    -2
100
AcDbBlockReference
  2
B-DIM
 10
45309.99999999998
 20
25046.73753941569
 30
0.0
 41
30.0
 42
30.0
 43
30.0
  0
MTEXT
  5
591
330
471
100
AcDbEntity
  8
WYMIARY
 62
    10
370
     5
100
AcDbMText
 10
45114.99999999998
 20
25126.73753941569
 30
0.0
 40
80.0
 41
0.0
 71
     5
 72
     1
  1
\A1;390
  7
ROMANS
 73
     1
 44
1.0
1001
ACAD
1000
MTEXTBEGIN
1070
    73
1070
     1
1070
    44
1040
1.0
1070
    74
1070
     0
1000
MTEXTEND
  0
POINT
  5
592
330
471
100
AcDbEntity
  8
DEFPOINTS
 62
     0
100
AcDbPoint
 10
44919.99999999999
 20
24573.99771050388
 30
0.0
  0
POINT
  5
593
330
471
100
AcDbEntity
  8
DEFPOINTS
 62
     0
100
AcDbPoint
 10
45309.99999999998
 20
24310.0
 30
0.0
  0
POINT
  5
594
330
471
100
AcDbEntity
  8
DEFPOINTS
 62
     0
100
AcDbPoint
 10
45309.99999999998
 20
25046.73753941569
 30
0.0
  0
ENDBLK
  5
473
330
471
100
AcDbEntity
  8
0
100
AcDbBlockEnd
  0
BLOCK
  5
47C
330
47B
100
AcDbEntity
  8
0
100
AcDbBlockBegin
  2
*D67
 70
     1
 10
0.0
 20
0.0
 30
0.0
  3
*D67
  1

  0
LINE
  5
595
330
47B
100
AcDbEntity
  8
WYMIARY
 62
     1
370
    -2
100
AcDbLine
 10
45339.99999999998
 20
25046.73753941569
 30
0.0
 11
45604.99999999998
 21
25046.73753941569
 31
0.0
  0
INSERT
  5
596
330
47B
100
AcDbEntity
  8
WYMIARY
 62
     1
370
    -2
100
AcDbBlockReference
  2
B-DIM
 10
45309.99999999998
 20
25046.73753941569
 30
0.0
 41
30.0
 42
30.0
 43
30.0
 50
180.0
  0
INSERT
  5
597
330
47B
100
AcDbEntity
  8
WYMIARY
 62
     1
370
    -2
100
AcDbBlockReference
  2
B-DIM
 10
45634.99999999998
 20
25046.73753941569
 30
0.0
 41
30.0
 42
30.0
 43
30.0
  0
MTEXT
  5
598
330
47B
100
AcDbEntity
  8
WYMIARY
 62
    10
370
     5
100
AcDbMText
 10
45472.49999999999
 20
25126.73753941569
 30
0.0
 40
80.0
 41
0.0
 71
     5
 72
     1
  1
\A1;325
  7
ROMANS
 73
     1
 44
1.0
1001
ACAD
1000
MTEXTBEGIN
1070
    73
1070
     1
1070
    44
1040
1.0
1070
    74
1070
     0
1000
MTEXTEND
  0
POINT
  5
599
330
47B
100
AcDbEntity
  8
DEFPOINTS
 62
     0
100
AcDbPoint
 10
45309.99999999998
 20
24310.0
 30
0.0
  0
POINT
  5
59A
330
47B
100
AcDbEntity
  8
DEFPOINTS
 62
     0
100
AcDbPoint
 10
45634.99999999998
 20
24286.99999999999
 30
0.0
  0
POINT
  5
59B
330
47B
100
AcDbEntity
  8
DEFPOINTS
 62
     0
100
AcDbPoint
 10
45634.99999999998
 20
25046.73753941569
 30
0.0
  0
ENDBLK
  5
47D
330
47B
100
AcDbEntity
  8
0
100
AcDbBlockEnd
  0
BLOCK
  5
486
330
485
100
AcDbEntity
  8
0
100
AcDbBlockBegin
  2
*D68
 70
     1
 10
0.0
 20
0.0
 30
0.0
  3
*D68
  1

  0
LINE
  5
59C
330
485
100
AcDbEntity
  8
WYMIARY
 62
     1
370
    -2
100
AcDbLine
 10
46196.86493706345
 20
23327.99999999999
 30
0.0
 11
46196.86493706345
 21
23399.99999999998
 31
0.0
  0
MTEXT
  5
59D
330
485
100
AcDbEntity
  8
WYMIARY
 62
    10
370
     5
100
AcDbMText
 10
46116.86493706344
 20
23251.47080852295
 30
0.0
 40
80.0
 41
0.0
 71
     5
 72
     1
  1
\A1;132
  7
ROMANS
 11
0.0000000000000001
 21
1.0
 31
0.0
 73
     1
 44
1.0
1001
ACAD
1000
MTEXTBEGIN
1070
    73
1070
     1
1070
    44
1040
1.0
1070
    74
1070
     0
1000
MTEXTEND
  0
INSERT
  5
59E
330
485
100
AcDbEntity
  8
WYMIARY
 62
     1
370
    -2
100
AcDbBlockReference
  2
B-DIM
 10
46196.86493706345
 20
23297.99999999999
 30
0.0
 41
30.0
 42
30.0
 43
30.0
 50
270.0
  0
INSERT
  5
59F
330
485
100
AcDbEntity
  8
WYMIARY
 62
     1
370
    -2
100
AcDbBlockReference
  2
B-DIM
 10
46196.86493706345
 20
23429.99999999998
 30
0.0
 41
30.0
 42
30.0
 43
30.0
 50
90.0
  0
POINT
  5
5A0
330
485
100
AcDbEntity
  8
DEFPOINTS
 62
     0
100
AcDbPoint
 10
44969.99999999998
 20
23297.99999999999
 30
0.0
  0
POINT
  5
5A1
330
485
100
AcDbEntity
  8
DEFPOINTS
 62
     0
100
AcDbPoint
 10
45684.99999999998
 20
23429.99999999998
 30
0.0
  0
POINT
  5
5A2
330
485
100
AcDbEntity
  8
DEFPOINTS
 62
     0
100
AcDbPoint
 10
46196.86493706345
 20
23429.99999999998
 30
0.0
  0
ENDBLK
  5
487
330
485
100
AcDbEntity
  8
0
100
AcDbBlockEnd
  0
BLOCK
  5
490
330
48F
100
AcDbEntity
  8
0
100
AcDbBlockBegin
  2
*D69
 70
     1
 10
0.0
 20
0.0
 30
0.0
  3
*D69
  1

  0
LINE
  5
5A3
330
48F
100
AcDbEntity
  8
WYMIARY
 62
     1
370
    -2
100
AcDbLine
 10
46196.86493706345
 20
23483.0
 30
0.0
 11
46196.86493706345
 21
24106.99999999999
 31
0.0
  0
INSERT
  5
5A4
330
48F
100
AcDbEntity
  8
WYMIARY
 62
     1
370
    -2
100
AcDbBlockReference
  2
B-DIM
 10
46196.86493706345
 20
23453.0
 30
0.0
 41
30.0
 42
30.0
 43
30.0
 50
270.0
  0
INSERT
  5
5A5
330
48F
100
AcDbEntity
  8
WYMIARY
 62
     1
370
    -2
100
AcDbBlockReference
  2
B-DIM
 10
46196.86493706345
 20
24136.99999999999
 30
0.0
 41
30.0
 42
30.0
 43
30.0
 50
90.0
  0
MTEXT
  5
5A6
330
48F
100
AcDbEntity
  8
WYMIARY
 62
    10
370
     5
100
AcDbMText
 10
46116.86493706344
 20
23795.00000000001
 30
0.0
 40
80.0
 41
0.0
 71
     5
 72
     1
  1
\A1;684
  7
ROMANS
 11
0.0000000000000001
 21
1.0
 31
0.0
 73
     1
 44
1.0
1001
ACAD
1000
MTEXTBEGIN
1070
    73
1070
     1
1070
    44
1040
1.0
1070
    74
1070
     0
1000
MTEXTEND
  0
POINT
  5
5A7
330
48F
100
AcDbEntity
  8
DEFPOINTS
 62
     0
100
AcDbPoint
 10
45684.99999999998
 20
23453.0
 30
0.0
  0
POINT
  5
5A8
330
48F
100
AcDbEntity
  8
DEFPOINTS
 62
     0
100
AcDbPoint
 10
45684.99999999998
 20
24136.99999999999
 30
0.0
  0
POINT
  5
5A9
330
48F
100
AcDbEntity
  8
DEFPOINTS
 62
     0
100
AcDbPoint
 10
46196.86493706345
 20
24136.99999999999
 30
0.0
  0
ENDBLK
  5
491
330
48F
100
AcDbEntity
  8
0
100
AcDbBlockEnd
  0
BLOCK
  5
49A
330
499
100
AcDbEntity
  8
0
100
AcDbBlockBegin
  2
*D70
 70
     1
 10
0.0
 20
0.0
 30
0.0
  3
*D70
  1

  0
LINE
  5
5AA
330
499
100
AcDbEntity
  8
WYMIARY
 62
     1
370
    -2
100
AcDbLine
 10
46196.86493706345
 20
24106.99999999999
 30
0.0
 11
46196.86493706345
 21
24076.99999999999
 31
0.0
  0
LINE
  5
5AB
330
499
100
AcDbEntity
  8
WYMIARY
 62
     1
370
    -2
100
AcDbLine
 10
46196.86493706345
 20
24190.0
 30
0.0
 11
46196.86493706345
 21
24220.0
 31
0.0
  0
LINE
  5
5AC
330
499
100
AcDbEntity
  8
WYMIARY
 62
     1
370
    -2
100
AcDbLine
 10
46196.86493706345
 20
24136.99999999999
 30
0.0
 11
46196.86493706345
 21
24160.0
 31
0.0
  0
INSERT
  5
5AD
330
499
100
AcDbEntity
  8
WYMIARY
 62
     1
370
    -2
100
AcDbBlockReference
  2
B-DIM
 10
46196.86493706345
 20
24136.99999999999
 30
0.0
 41
30.0
 42
30.0
 43
30.0
 50
90.0
  0
INSERT
  5
5AE
330
499
100
AcDbEntity
  8
WYMIARY
 62
     1
370
    -2
100
AcDbBlockReference
  2
B-DIM
 10
46196.86493706345
 20
24160.0
 30
0.0
 41
30.0
 42
30.0
 43
30.0
 50
270.0
  0
MTEXT
  5
5AF
330
499
100
AcDbEntity
  8
WYMIARY
 62
    10
370
     5
100
AcDbMText
 10
46116.86493706344
 20
24148.5
 30
0.0
 40
80.0
 41
0.0
 71
     5
 72
     1
  1
\A1;23
  7
ROMANS
 11
0.0000000000000001
 21
1.0
 31
0.0
 73
     1
 44
1.0
1001
ACAD
1000
MTEXTBEGIN
1070
    73
1070
     1
1070
    44
1040
1.0
1070
    74
1070
     0
1000
MTEXTEND
  0
POINT
  5
5B0
330
499
100
AcDbEntity
  8
DEFPOINTS
 62
     0
100
AcDbPoint
 10
45684.99999999998
 20
24136.99999999999
 30
0.0
  0
POINT
  5
5B1
330
499
100
AcDbEntity
  8
DEFPOINTS
 62
     0
100
AcDbPoint
 10
45359.99999999998
 20
24160.0
 30
0.0
  0
POINT
  5
5B2
330
499
100
AcDbEntity
  8
DEFPOINTS
 62
     0
100
AcDbPoint
 10
46196.86493706345
 20
24160.0
 30
0.0
  0
ENDBLK
  5
49B
330
499
100
AcDbEntity
  8
0
100
AcDbBlockEnd
  0
BLOCK
  5
4A6
330
4A5
100
AcDbEntity
  8
0
100
AcDbBlockBegin
  2
*D71
 70
     1
 10
0.0
 20
0.0
 30
0.0
  3
*D71
  1

  0
LINE
  5
5B3
330
4A5
100
AcDbEntity
  8
WYMIARY
 62
     1
370
    -2
100
AcDbLine
 10
46196.86493706345
 20
24190.0
 30
0.0
 11
46196.86493706345
 21
24393.99771050388
 31
0.0
  0
MTEXT
  5
5B4
330
4A5
100
AcDbEntity
  8
WYMIARY
 62
    10
370
     5
100
AcDbMText
 10
46116.86493706344
 20
24403.0673771856
 30
0.0
 40
80.0
 41
0.0
 71
     5
 72
     1
  1
\A1;264
  7
ROMANS
 11
0.0000000000000001
 21
1.0
 31
0.0
 73
     1
 44
1.0
1001
ACAD
1000
MTEXTBEGIN
1070
    73
1070
     1
1070
    44
1040
1.0
1070
    74
1070
     0
1000
MTEXTEND
  0
INSERT
  5
5B5
330
4A5
100
AcDbEntity
  8
WYMIARY
 62
     1
370
    -2
100
AcDbBlockReference
  2
B-DIM
 10
46196.86493706345
 20
24160.0
 30
0.0
 41
30.0
 42
30.0
 43
30.0
 50
270.0
  0
INSERT
  5
5B6
330
4A5
100
AcDbEntity
  8
WYMIARY
 62
     1
370
    -2
100
AcDbBlockReference
  2
B-DIM
 10
46196.86493706345
 20
24423.99771050388
 30
0.0
 41
30.0
 42
30.0
 43
30.0
 50
90.0
  0
POINT
  5
5B7
330
4A5
100
AcDbEntity
  8
DEFPOINTS
 62
     0
100
AcDbPoint
 10
45359.99999999998
 20
24160.0
 30
0.0
  0
POINT
  5
5B8
330
4A5
100
AcDbEntity
  8
DEFPOINTS
 62
     0
100
AcDbPoint
 10
44969.99999999998
 20
24423.99771050388
 30
0.0
  0
POINT
  5
5B9
330
4A5
100
AcDbEntity
  8
DEFPOINTS
 62
     0
100
AcDbPoint
 10
46196.86493706345
 20
24423.99771050388
 30
0.0
  0
ENDBLK
  5
4A7
330
4A5
100
AcDbEntity
  8
0
100
AcDbBlockEnd
  0
BLOCK
  5
4B0
330
4AF
100
AcDbEntity
  8
0
100
AcDbBlockBegin
  2
*D72
 70
     1
 10
0.0
 20
0.0
 30
0.0
  3
*D72
  1

  0
LINE
  5
5BA
330
4AF
100
AcDbEntity
  8
WYMIARY
 62
     1
370
    -2
100
AcDbLine
 10
43429.68591598319
 20
23327.99999999999
 30
0.0
 11
43429.68591598319
 21
24393.99771050388
 31
0.0
  0
INSERT
  5
5BB
330
4AF
100
AcDbEntity
  8
WYMIARY
 62
     1
370
    -2
100
AcDbBlockReference
  2
B-DIM
 10
43429.68591598319
 20
23297.99999999999
 30
0.0
 41
30.0
 42
30.0
 43
30.0
 50
270.0
  0
INSERT
  5
5BC
330
4AF
100
AcDbEntity
  8
WYMIARY
 62
     1
370
    -2
100
AcDbBlockReference
  2
B-DIM
 10
43429.68591598319
 20
24423.99771050388
 30
0.0
 41
30.0
 42
30.0
 43
30.0
 50
90.0
  0
MTEXT
  5
5BD
330
4AF
100
AcDbEntity
  8
WYMIARY
 62
    10
370
     5
100
AcDbMText
 10
43349.68591598318
 20
23860.99885525194
 30
0.0
 40
80.0
 41
0.0
 71
     5
 72
     1
  1
\A1;1126
  7
ROMANS
 11
0.0000000000000001
 21
1.0
 31
0.0
 73
     1
 44
1.0
1001
ACAD
1000
MTEXTBEGIN
1070
    73
1070
     1
1070
    44
1040
1.0
1070
    74
1070
     0
1000
MTEXTEND
  0
POINT
  5
5BE
330
4AF
100
AcDbEntity
  8
DEFPOINTS
 62
     0
100
AcDbPoint
 10
43869.32078752972
 20
23297.99999999999
 30
0.0
  0
POINT
  5
5BF
330
4AF
100
AcDbEntity
  8
DEFPOINTS
 62
     0
100
AcDbPoint
 10
43869.32078752972
 20
24423.99771050388
 30
0.0
  0
POINT
  5
5C0
330
4AF
100
AcDbEntity
  8
DEFPOINTS
 62
     0
100
AcDbPoint
 10
43429.68591598319
 20
24423.99771050388
 30
0.0
  0
ENDBLK
  5
4B1
330
4AF
100
AcDbEntity
  8
0
100
AcDbBlockEnd
  0
ENDSEC
  0
SECTION
  2
ENTITIES
  0
LWPOLYLINE
  5
64
330
2
100
AcDbEntity
  8
RAMKI-A4
100
AcDbPolyline
 90
        4
 70
     1
 43
0.0
 10
41787.20217807776
 20
15497.51641095816
 10
41787.20217807776
 20
29517.51641095817
 10
51987.20217807776
 20
29517.51641095817
 10
51987.20217807776
 20
15497.51641095816
  0
TEXT
  5
68
330
2
100
AcDbEntity
  8
TABLICZKA
 62
     4
100
AcDbText
 10
43246.55412993944
 20
16163.0724938607
 30
0.0
 40
100.0
  1
   O B R Y S   B U D Y N K U           S K A L A   1 : 5 0 0 
  7
AVA
100
AcDbText
  0
LINE
  5
7C
330
2
100
AcDbEntity
  8
TABLICZKA
  6
HIDDEN
 48
0.1
100
AcDbLine
 10
46999.89136835545
 20
21167.51452559386
 30
0.0
 11
46999.89136835545
 21
25969.9715830712
 31
0.0
  0
TEXT
  5
7E
330
2
100
AcDbEntity
  8
TABLICZKA
 62
     4
100
AcDbText
 10
43352.78543945923
 20
28956.30623210533
 30
0.0
 40
150.0
  1
"D O M  W  L A W E N D Z I E"
  7
AVA
100
AcDbText
  0
TEXT
  5
7F
330
2
100
AcDbEntity
  8
TABLICZKA
 62
     4
100
AcDbText
 10
43342.7671758706
 20
28626.43775474259
 30
0.0
 40
150.0
  1
MOŻNA WKLEIĆ DO PROJEKTU ZAGOSPODAROWANIA TERENU
  7
AVA
100
AcDbText
  0
DIMENSION
  5
81
330
2
100
AcDbEntity
  8
WYMIARY
 62
     3
370
     5
100
AcDbDimension
  2
*D72
 10
43429.68591598319
 20
24423.99771050388
 30
0.0
 11
43349.68591598318
 21
23860.99885525194
 31
0.0
 70
    32
 71
     5
 42
1125.997710503885
  3
500
100
AcDbAlignedDimension
 13
43869.32078752972
 23
23297.99999999999
 33
0.0
 14
43869.32078752972
 24
24423.99771050388
 34
0.0
 50
90.0
100
AcDbRotatedDimension
  0
DIMENSION
  5
8D
330
2
100
AcDbEntity
  8
WYMIARY
 62
     3
370
     5
100
AcDbDimension
  2
*D71
 10
46196.86493706345
 20
24423.99771050388
 30
0.0
 11
46116.86493706344
 21
24403.0673771856
 31
0.0
 70
   160
 71
     5
 42
263.9977105038779
  3
500
100
AcDbAlignedDimension
 13
45359.99999999998
 23
24160.0
 33
0.0
 14
44969.99999999998
 24
24423.99771050388
 34
0.0
 50
90.0
100
AcDbRotatedDimension
  0
DIMENSION
  5
98
330
2
100
AcDbEntity
  8
WYMIARY
 62
     3
370
     5
100
AcDbDimension
  2
*D70
 10
46196.86493706345
 20
24160.0
 30
0.0
 11
46116.86493706344
 21
24148.5
 31
0.0
 70
    32
 71
     5
 42
23.00000000000728
  3
500
100
AcDbAlignedDimension
 13
45684.99999999998
 23
24136.99999999999
 33
0.0
 14
45359.99999999998
 24
24160.0
 34
0.0
 50
90.0
100
AcDbRotatedDimension
  0
DIMENSION
  5
A5
330
2
100
AcDbEntity
  8
WYMIARY
 62
     3
370
     5
100
AcDbDimension
  2
*D69
 10
46196.86493706345
 20
24136.99999999999
 30
0.0
 11
46116.86493706344
 21
23795.00000000001
 31
0.0
 70
    32
 71
     5
 42
683.9999999999927
  3
500
100
AcDbAlignedDimension
 13
45684.99999999998
 23
23453.0
 33
0.0
 14
45684.99999999998
 24
24136.99999999999
 34
0.0
 50
90.0
100
AcDbRotatedDimension
  0
DIMENSION
  5
B0
330
2
100
AcDbEntity
  8
WYMIARY
 62
     3
370
     5
100
AcDbDimension
  2
*D68
 10
46196.86493706345
 20
23429.99999999998
 30
0.0
 11
46116.86493706344
 21
23251.47080852295
 31
0.0
 70
   160
 71
     5
 42
131.9999999999854
  3
500
100
AcDbAlignedDimension
 13
44969.99999999998
 23
23297.99999999999
 33
0.0
 14
45684.99999999998
 24
23429.99999999998
 34
0.0
 50
90.0
100
AcDbRotatedDimension
  0
DIMENSION
  5
BB
330
2
100
AcDbEntity
  8
WYMIARY
 62
     3
370
     5
100
AcDbDimension
  2
*D67
 10
45634.99999999998
 20
25046.73753941569
 30
0.0
 11
45472.49999999999
 21
25126.73753941569
 31
0.0
 70
    32
 71
     5
 42
325.0
  3
500
100
AcDbAlignedDimension
 13
45309.99999999998
 23
24310.0
 33
0.0
 14
45634.99999999998
 24
24286.99999999999
 34
0.0
100
AcDbRotatedDimension
  0
DIMENSION
  5
C6
330
2
100
AcDbEntity
  8
WYMIARY
 62
     3
370
     5
100
AcDbDimension
  2
*D66
 10
45309.99999999998
 20
25046.73753941569
 30
0.0
 11
45114.99999999998
 21
25126.73753941569
 31
0.0
 70
    32
 71
     5
 42
390.0
  3
500
100
AcDbAlignedDimension
 13
44919.99999999999
 23
24573.99771050388
 33
0.0
 14
45309.99999999998
 24
24310.0
 34
0.0
100
AcDbRotatedDimension
  0
DIMENSION
  5
D1
330
2
100
AcDbEntity
  8
WYMIARY
 62
     3
370
     5
100
AcDbDimension
  2
*D65
 10
44919.99999999999
 20
25046.73753941569
 30
0.0
 11
44637.49999999998
 21
25126.73753941569
 31
0.0
 70
    32
 71
     5
 42
565.0
  3
500
100
AcDbAlignedDimension
 13
44354.99999999998
 23
24573.99771050388
 33
0.0
 14
44919.99999999999
 24
24573.99771050388
 34
0.0
100
AcDbRotatedDimension
  0
DIMENSION
  5
DC
330
2
100
AcDbEntity
  8
WYMIARY
 62
     3
370
     5
100
AcDbDimension
  2
*D64
 10
44354.99999999998
 20
25046.73753941569
 30
0.0
 11
44262.49999999998
 21
25126.73753941569
 31
0.0
 70
    32
 71
     5
 42
185.0
  3
500
100
AcDbAlignedDimension
 13
44169.99999999998
 23
24310.0
 33
0.0
 14
44354.99999999998
 24
24573.99771050388
 34
0.0
100
AcDbRotatedDimension
  0
LINE
  5
E7
330
2
100
AcDbEntity
  8
SCIANY
 62
     3
370
     5
100
AcDbLine
 10
45279.99999999998
 20
24423.99771050388
 30
0.0
 11
45099.99999999998
 21
24603.99771050388
 31
0.0
  0
LINE
  5
EB
330
2
100
AcDbEntity
  8
SCIANY
 62
     3
370
     5
100
AcDbLine
 10
44294.99999999999
 20
24393.99771050388
 30
0.0
 11
44294.99999999999
 21
24603.99771050388
 31
0.0
  0
DIMENSION
  5
EC
330
2
100
AcDbEntity
  8
WYMIARY
 62
     3
370
     5
100
AcDbDimension
  2
*D63
 10
43637.04307342016
 20
24423.99771050388
 30
0.0
 11
43557.04307342016
 21
24291.99885525195
 31
0.0
 70
    32
 71
     5
 42
263.9977105038779
  3
500
100
AcDbAlignedDimension
 13
44151.34414778496
 23
24160.0
 33
0.0
 14
44336.34414778497
 24
24423.99771050388
 34
0.0
 50
90.0
100
AcDbRotatedDimension
  0
DIMENSION
  5
F7
330
2
100
AcDbEntity
  8
WYMIARY
 62
     3
370
     5
100
AcDbDimension
  2
*D62
 10
43637.04307342016
 20
23430.0
 30
0.0
 11
43557.04307342016
 21
23364.00000000001
 31
0.0
 70
    32
 71
     5
 42
132.0
  3
500
100
AcDbAlignedDimension
 13
44541.34414778498
 23
23298.0
 33
0.0
 14
44151.34414778496
 24
23430.0
 34
0.0
 50
90.0
100
AcDbRotatedDimension
  0
DIMENSION
  5
104
330
2
100
AcDbEntity
  8
WYMIARY
 62
     3
370
     5
100
AcDbDimension
  2
*D61
 10
44560.0
 20
22563.80079766781
 30
0.0
 11
44364.99999999999
 21
22643.80079766781
 31
0.0
 70
    32
 71
     5
 42
390.0000000000146
  3
500
100
AcDbAlignedDimension
 13
44169.99999999998
 23
23210.0
 33
0.0
 14
44560.0
 24
23078.0
 34
0.0
100
AcDbRotatedDimension
  0
DIMENSION
  5
10F
330
2
100
AcDbEntity
  8
WYMIARY
 62
     3
370
     5
100
AcDbDimension
  2
*D60
 10
43637.04307342016
 20
24160.0
 30
0.0
 11
43557.04307342016
 21
23795.00000000001
 31
0.0
 70
    32
 71
     5
 42
730.0
  3
500
100
AcDbAlignedDimension
 13
44151.34414778496
 23
23430.0
 33
0.0
 14
44151.34414778496
 24
24160.0
 34
0.0
 50
90.0
100
AcDbRotatedDimension
  0
LINE
  5
11A
330
2
100
AcDbEntity
  8
SCIANY
 62
     3
370
     5
100
AcDbLine
 10
44170.0
 20
23430.0
 30
0.0
 11
44169.99999999998
 21
24159.99999999999
 31
0.0
  0
DIMENSION
  5
11C
330
2
100
AcDbEntity
  8
WYMIARY
 62
     3
370
     5
100
AcDbDimension
  2
*D59
 10
45309.99999999998
 20
22563.80079766781
 30
0.0
 11
45114.99999999998
 21
22643.80079766781
 31
0.0
 70
    32
 71
     5
 42
390.0
  3
500
100
AcDbAlignedDimension
 13
44919.99999999999
 23
23077.99999999999
 33
0.0
 14
45309.99999999998
 24
23210.0
 34
0.0
100
AcDbRotatedDimension
  0
DIMENSION
  5
127
330
2
100
AcDbEntity
  8
WYMIARY
 62
     3
370
     5
100
AcDbDimension
  2
*D58
 10
44919.99999999999
 20
22563.80079766781
 30
0.0
 11
44739.99999999999
 21
22643.80079766781
 31
0.0
 70
    32
 71
     5
 42
359.9999999999854
  3
500
100
AcDbAlignedDimension
 13
44560.0
 23
23078.0
 33
0.0
 14
44919.99999999999
 24
23077.99999999999
 34
0.0
100
AcDbRotatedDimension
  0
LINE
  5
132
330
2
100
AcDbEntity
  8
SCIANY
 62
     3
370
     5
100
AcDbLine
 10
44470.0
 20
23137.99999999999
 30
0.0
 11
44469.99999999999
 21
23430.0
 31
0.0
  0
LINE
  5
133
330
2
100
AcDbEntity
  8
SCIANY
 62
     3
370
     5
100
AcDbLine
 10
45009.99999999998
 20
23138.0
 30
0.0
 11
45009.99999999998
 21
23430.0
 31
0.0
  0
LINE
  5
134
330
2
100
AcDbEntity
  8
SCIANY
 62
     3
370
     5
100
AcDbLine
 10
45009.99999999998
 20
23138.0
 30
0.0
 11
44470.0
 21
23137.99999999999
 31
0.0
  0
LINE
  5
135
330
2
100
AcDbEntity
  8
SCIANY
 62
     3
370
     5
100
AcDbLine
 10
44654.99999999998
 20
23298.0
 30
0.0
 11
44560.0
 21
23298.0
 31
0.0
  0
LINE
  5
136
330
2
100
AcDbEntity
  8
SCIANY
 62
     3
370
     5
100
AcDbLine
 10
44979.99999999998
 20
23168.00000000001
 30
0.0
 11
44500.0
 21
23167.99999999999
 31
0.0
  0
LINE
  5
137
330
2
100
AcDbEntity
  8
SCIANY
 62
     3
370
     5
100
AcDbLine
 10
44949.99999999998
 20
23198.0
 30
0.0
 11
44530.0
 21
23197.99999999999
 31
0.0
  0
LINE
  5
138
330
2
100
AcDbEntity
  8
SCIANY
 62
     3
370
     5
100
AcDbLine
 10
44559.99999999998
 20
23430.0
 30
0.0
 11
44170.0
 21
23430.0
 31
0.0
  0
LINE
  5
139
330
2
100
AcDbEntity
  8
SCIANY
 62
     3
370
     5
100
AcDbLine
 10
44560.0
 20
23298.0
 30
0.0
 11
44559.99999999998
 21
23430.0
 31
0.0
  0
LINE
  5
13A
330
2
100
AcDbEntity
  8
SCIANY
 62
     3
370
     5
100
AcDbLine
 10
44500.0
 20
23167.99999999999
 30
0.0
 11
44499.99999999998
 21
23430.0
 31
0.0
  0
LINE
  5
13B
330
2
100
AcDbEntity
  8
SCIANY
 62
     3
370
     5
100
AcDbLine
 10
44530.0
 20
23197.99999999999
 30
0.0
 11
44529.99999999998
 21
23430.0
 31
0.0
  0
LINE
  5
13C
330
2
100
AcDbEntity
  8
SCIANY
 62
     3
370
     5
100
AcDbLine
 10
44824.99999999999
 20
23297.99999999999
 30
0.0
 11
44824.99999999999
 21
23357.99999999999
 31
0.0
  0
LINE
  5
13D
330
2
100
AcDbEntity
  8
SCIANY
 62
     3
370
     5
100
AcDbLine
 10
44919.99999999999
 20
23297.99999999999
 30
0.0
 11
44824.99999999999
 21
23297.99999999999
 31
0.0
  0
LINE
  5
13E
330
2
100
AcDbEntity
  8
SCIANY
 62
     3
370
     5
100
AcDbLine
 10
44919.99999999999
 20
23297.99999999999
 30
0.0
 11
44919.99999999999
 21
23429.99999999999
 31
0.0
  0
LINE
  5
13F
330
2
100
AcDbEntity
  8
SCIANY
 62
     3
370
     5
100
AcDbLine
 10
44919.99999999999
 20
23429.99999999999
 30
0.0
 11
45309.99999999998
 21
23429.99999999998
 31
0.0
  0
LINE
  5
140
330
2
100
AcDbEntity
  8
SCIANY
 62
     3
370
     5
100
AcDbLine
 10
44654.99999999998
 20
23297.99999999999
 30
0.0
 11
44654.99999999998
 21
23358.0
 31
0.0
  0
LINE
  5
141
330
2
100
AcDbEntity
  8
SCIANY
 62
     3
370
     5
100
AcDbLine
 10
44654.99999999998
 20
23297.99999999999
 30
0.0
 11
44824.99999999999
 21
23297.99999999999
 31
0.0
  0
LINE
  5
142
330
2
100
AcDbEntity
  8
SCIANY
 62
     3
370
     5
100
AcDbLine
 10
44979.99999999998
 20
23168.00000000001
 30
0.0
 11
44979.99999999998
 21
23430.0
 31
0.0
  0
LINE
  5
143
330
2
100
AcDbEntity
  8
SCIANY
 62
     3
370
     5
100
AcDbLine
 10
44949.99999999998
 20
23198.0
 30
0.0
 11
44949.99999999998
 21
23430.0
 31
0.0
  0
LINE
  5
144
330
2
100
AcDbEntity
  8
WIDOK
 62
     3
370
     5
100
AcDbLine
 10
45309.99999999998
 20
23142.99999999999
 30
0.0
 11
45309.99999999998
 21
23138.0
 31
0.0
  0
LINE
  5
149
330
2
100
AcDbEntity
  8
SCIANY
 62
     3
370
     5
100
AcDbLine
 10
45309.99999999998
 20
23453.0
 30
0.0
 11
45342.99999999999
 21
23453.0
 31
0.0
  0
LINE
  5
14A
330
2
100
AcDbEntity
  8
SCIANY
 62
     3
370
     5
100
AcDbLine
 10
45309.99999999998
 20
23453.0
 30
0.0
 11
45309.99999999998
 21
23429.99999999998
 31
0.0
  0
LINE
  5
14B
330
2
100
AcDbEntity
  8
SCIANY
 62
     3
370
     5
100
AcDbLine
 10
45342.99999999999
 20
23453.0
 30
0.0
 11
45342.99999999999
 21
23513.0
 31
0.0
  0
LINE
  5
14C
330
2
100
AcDbEntity
  8
SCIANY
 62
     3
370
     5
100
AcDbLine
 10
45582.99999999999
 20
23453.0
 30
0.0
 11
45634.99999999998
 21
23453.0
 31
0.0
  0
LINE
  5
14D
330
2
100
AcDbEntity
  8
SCIANY
 62
     3
370
     5
100
AcDbLine
 10
45574.99999999998
 20
23453.0
 30
0.0
 11
45574.99999999998
 21
23513.0
 31
0.0
  0
LINE
  5
14E
330
2
100
AcDbEntity
  8
SCIANY
 62
     3
370
     5
100
AcDbLine
 10
45087.57359312879
 20
24573.99771050388
 30
0.0
 11
44324.99999999998
 21
24573.99771050388
 31
0.0
  0
LINE
  5
14F
330
2
100
AcDbEntity
  8
SCIANY
 62
     3
370
     5
100
AcDbLine
 10
44354.99999999998
 20
24159.99999999999
 30
0.0
 11
44354.99999999998
 21
24423.99771050388
 31
0.0
  0
LINE
  5
150
330
2
100
AcDbEntity
  8
SCIANY
 62
     3
370
     5
100
AcDbLine
 10
44354.99999999998
 20
24423.99771050388
 30
0.0
 11
44324.99999999998
 21
24423.99771050388
 31
0.0
  0
LINE
  5
151
330
2
100
AcDbEntity
  8
SCIANY
 62
     3
370
     5
100
AcDbLine
 10
44354.99999999998
 20
24393.99771050388
 30
0.0
 11
44294.99999999999
 21
24393.99771050388
 31
0.0
  0
LINE
  5
152
330
2
100
AcDbEntity
  8
SCIANY
 62
     3
370
     5
100
AcDbLine
 10
44324.99999999998
 20
24423.99771050388
 30
0.0
 11
44324.99999999998
 21
24573.99771050388
 31
0.0
  0
LINE
  5
153
330
2
100
AcDbEntity
  8
SCIANY
 62
     3
370
     5
100
AcDbLine
 10
44919.99999999999
 20
24423.99771050388
 30
0.0
 11
44354.99999999998
 21
24423.99771050388
 31
0.0
  0
LINE
  5
154
330
2
100
AcDbEntity
  8
SCIANY
 62
     3
370
     5
100
AcDbLine
 10
44169.99999999998
 20
24159.99999999999
 30
0.0
 11
44354.99999999998
 21
24159.99999999999
 31
0.0
  0
LINE
  5
155
330
2
100
AcDbEntity
  8
SCIANY
 62
     3
370
     5
100
AcDbLine
 10
44919.99999999998
 20
24160.0
 30
0.0
 11
44919.99999999999
 21
24423.99771050388
 31
0.0
  0
LINE
  5
156
330
2
100
AcDbEntity
  8
SCIANY
 62
     3
370
     5
100
AcDbLine
 10
45634.99999999998
 20
24136.99999999999
 30
0.0
 11
45634.99999999998
 21
23453.0
 31
0.0
  0
LINE
  5
160
330
2
100
AcDbEntity
  8
SCIANY
 62
     3
370
     5
100
AcDbLine
 10
45309.99999999998
 20
24137.0
 30
0.0
 11
45634.99999999998
 21
24136.99999999999
 31
0.0
  0
LINE
  5
161
330
2
100
AcDbEntity
  8
SCIANY
 62
     3
370
     5
100
AcDbLine
 10
45249.99999999998
 20
24411.57130363269
 30
0.0
 11
45087.57359312879
 21
24573.99771050388
 31
0.0
  0
LINE
  5
162
330
2
100
AcDbEntity
  8
SCIANY
 62
     3
370
     5
100
AcDbLine
 10
45309.99999999998
 20
24160.0
 30
0.0
 11
45309.99999999998
 21
24137.0
 31
0.0
  0
LINE
  5
163
330
2
100
AcDbEntity
  8
SCIANY
 62
     3
370
     5
100
AcDbLine
 10
44919.99999999998
 20
24160.0
 30
0.0
 11
45309.99999999998
 21
24160.0
 31
0.0
  0
LINE
  5
164
330
2
100
AcDbEntity
  8
SCIANY
 62
     3
370
     5
100
AcDbLine
 10
45279.99999999998
 20
24160.0
 30
0.0
 11
45279.99999999998
 21
24423.99771050388
 31
0.0
  0
LINE
  5
165
330
2
100
AcDbEntity
  8
SCIANY
 62
     3
370
     5
100
AcDbLine
 10
45249.99999999998
 20
24160.0
 30
0.0
 11
45249.99999999998
 21
24411.57130363269
 31
0.0
  0
LINE
  5
166
330
2
100
AcDbEntity
  8
SCIANY
 62
     3
370
     5
100
AcDbLine
 10
45099.99999999998
 20
24603.99771050388
 30
0.0
 11
44294.99999999999
 21
24603.99771050388
 31
0.0
  0
LWPOLYLINE
  5
169
330
2
100
AcDbEntity
  8
SCIANY
 62
     3
370
     5
100
AcDbPolyline
 90
       16
 70
     1
 43
0.0
 10
44354.99999999998
 20
24423.99771050388
 10
44354.99999999998
 20
24159.99999999999
 10
44169.99999999998
 20
24159.99999999999
 10
44170.0
 20
23430.0
 10
44559.99999999998
 20
23430.00000000004
 10
44560.0
 20
23298.0
 10
44919.99999999999
 20
23297.99999999999
 10
44919.99999999999
 20
23429.99999999999
 10
45309.99999999998
 20
23429.99999999998
 10
45309.99999999998
 20
23453.0
 10
45634.99999999998
 20
23453.0
 10
45634.99999999998
 20
24136.99999999999
 10
45309.99999999998
 20
24137.0
 10
45309.99999999998
 20
24160.0
 10
44919.99999999998
 20
24160.00000000002
 10
44919.99999999998
 20
24423.99771050388
  0
LWPOLYLINE
  5
16A
330
2
100
AcDbEntity
  8
SCIANY
 62
     3
370
     5
100
AcDbPolyline
 90
       16
 70
     1
 43
0.0
 10
44414.99999999998
 20
24363.99771050388
 10
44414.99999999998
 20
24099.99999999999
 10
44229.99999999998
 20
24099.99999999999
 10
44230.0
 20
23490.00000000001
 10
44619.99999999997
 20
23490.00000000005
 10
44619.99999999999
 20
23358.0
 10
44859.99999999998
 20
23357.99999999999
 10
44859.99999999998
 20
23489.99999999999
 10
45249.99999999998
 20
23489.99999999998
 10
45249.99999999998
 20
23513.0
 10
45574.99999999998
 20
23513.0
 10
45574.99999999998
 20
24076.99999999999
 10
45249.99999999998
 20
24077.0
 10
45249.99999999998
 20
24100.00000000001
 10
44859.99999999997
 20
24100.00000000002
 10
44859.99999999997
 20
24363.99771050388
  0
HATCH
  5
16B
330
2
100
AcDbEntity
  8
SZRAF
 62
     3
370
     5
100
AcDbHatch
 10
0.0
 20
0.0
 30
0.0
210
0.0
220
0.0
230
1.0
  2
SOLID
 70
     1
 71
     0
 91
        1
 92
        7
 72
     0
 73
     1
 93
       27
 10
44919.99999999998
 20
24423.99771050388
 10
44354.99999999998
 20
24423.99771050387
 10
44354.99999999999
 20
24159.99999999999
 10
44169.99999999998
 20
24159.99999999999
 10
44170.0
 20
23430.0
 10
44559.99999999998
 20
23430.00000000004
 10
44560.0
 20
23298.0
 10
44654.99999999998
 20
23298.0
 10
44654.99999999997
 20
23358.0
 10
44619.99999999999
 20
23358.0
 10
44619.99999999997
 20
23490.00000000005
 10
44230.0
 20
23490.00000000001
 10
44229.99999999999
 20
24099.99999999999
 10
44414.99999999997
 20
24099.99999999999
 10
44414.99999999996
 20
24363.99771050388
 10
44859.99999999997
 20
24363.99771050388
 10
44859.99999999997
 20
24100.00000000002
 10
45249.99999999998
 20
24100.00000000001
 10
45249.99999999998
 20
24077.0
 10
45574.99999999998
 20
24076.99999999999
 10
45574.99999999998
 20
23513.0
 10
45574.99999999999
 20
23453.0
 10
45634.99999999999
 20
23453.0
 10
45634.99999999998
 20
24136.99999999999
 10
45309.99999999998
 20
24137.0
 10
45309.99999999998
 20
24160.0
 10
44919.99999999999
 20
24160.00000000002
 97
        0
 75
     0
 76
     1
 47
2.802093569078525
 98
        1
 10
44874.89256295671
 20
24354.30281610553
  0
HATCH
  5
16C
330
2
100
AcDbEntity
  8
SZRAF
 62
     3
370
     5
100
AcDbHatch
 10
0.0
 20
0.0
 30
0.0
210
0.0
220
0.0
230
1.0
  2
SOLID
 70
     1
 71
     0
 91
        1
 92
        7
 72
     0
 73
     1
 93
       12
 10
44859.99999999998
 20
23489.99999999999
 10
44859.99999999998
 20
23358.0
 10
44824.99999999999
 20
23358.0
 10
44824.99999999999
 20
23298.0
 10
44919.99999999999
 20
23297.99999999999
 10
44919.99999999999
 20
23429.99999999999
 10
45309.99999999998
 20
23429.99999999998
 10
45309.99999999998
 20
23453.0
 10
45342.99999999998
 20
23453.0
 10
45342.99999999999
 20
23513.0
 10
45249.99999999998
 20
23513.0
 10
45249.99999999998
 20
23489.99999999999
 97
        0
 75
     0
 76
     1
 47
2.802093569078525
 98
        1
 10
45216.97734254954
 20
23460.43495713482
  0
DIMENSION
  5
16E
330
2
100
AcDbEntity
  8
WYMIARY
 62
     3
370
     5
100
AcDbDimension
  2
*D57
 10
45634.99999999998
 20
22563.80079766781
 30
0.0
 11
45472.49999999999
 21
22643.80079766781
 31
0.0
 70
    33
 71
     5
 42
325.0
  3
500
100
AcDbAlignedDimension
 13
45309.99999999998
 23
23233.0
 33
0.0
 14
45634.99999999998
 24
23233.0
 34
0.0
  0
DIMENSION
  5
179
330
2
100
AcDbEntity
  8
WYMIARY
 62
     3
370
     5
100
AcDbDimension
  2
*D56
 10
46196.86493706345
 20
23453.0
 30
0.0
 11
46116.86493706344
 21
23441.5
 31
0.0
 70
    33
 71
     5
 42
23.00000000001819
  3
500
100
AcDbAlignedDimension
 13
45359.99999999998
 23
23429.99999999998
 33
0.0
 14
45359.99999999998
 24
23453.0
 34
0.0
  0
DIMENSION
  5
186
330
2
100
AcDbEntity
  8
WYMIARY
 62
     3
370
     5
100
AcDbDimension
  2
*D55
 10
45634.99999999998
 20
25280.20987689268
 30
0.0
 11
44902.49999999998
 21
25360.20987689268
 31
0.0
 70
    32
 71
     5
 42
1465.0
  3
500
100
AcDbAlignedDimension
 13
44169.99999999998
 23
24543.472337477
 33
0.0
 14
45634.99999999998
 24
24807.47004798088
 34
0.0
100
AcDbRotatedDimension
  0
TEXT
  5
19A
330
2
100
AcDbEntity
  8
TABLICZKA
 62
     3
370
     5
100
AcDbText
 10
46940.37019136215
 20
22249.16168841438
 30
0.0
 40
100.0
  1
OŚ ODBICIA LUSTRZANEGO
 50
90.0
  7
AVA
100
AcDbText
  0
DIMENSION
  5
19B
330
2
100
AcDbEntity
  8
WYMIARY
 62
     3
370
     5
100
AcDbDimension
  2
*D54
 10
50362.73966329073
 20
24160.0
 30
0.0
 11
50282.73966329073
 21
23795.00000000001
 31
0.0
 70
    32
 71
     5
 42
730.0
  3
500
100
AcDbAlignedDimension
 13
49848.43858892593
 23
23430.0
 33
0.0
 14
49848.43858892593
 24
24160.0
 34
0.0
 50
90.0
100
AcDbRotatedDimension
  0
DIMENSION
  5
1A6
330
2
100
AcDbEntity
  8
WYMIARY
 62
     3
370
     5
100
AcDbDimension
  2
*D53
 10
50362.73966329073
 20
23430.0
 30
0.0
 11
50282.73966329073
 21
23364.00000000001
 31
0.0
 70
    32
 71
     5
 42
132.0
  3
500
100
AcDbAlignedDimension
 13
49458.43858892591
 23
23298.0
 33
0.0
 14
49848.43858892593
 24
23430.0
 34
0.0
 50
90.0
100
AcDbRotatedDimension
  0
DIMENSION
  5
1B3
330
2
100
AcDbEntity
  8
WYMIARY
 62
     3
370
     5
100
AcDbDimension
  2
*D52
 10
50362.73966329073
 20
24423.99771050388
 30
0.0
 11
50282.73966329073
 21
24291.99885525195
 31
0.0
 70
    32
 71
     5
 42
263.9977105038779
  3
500
100
AcDbAlignedDimension
 13
49848.43858892593
 23
24160.0
 33
0.0
 14
49663.43858892592
 24
24423.99771050388
 34
0.0
 50
90.0
100
AcDbRotatedDimension
  0
DIMENSION
  5
1BE
330
2
100
AcDbEntity
  8
WYMIARY
 62
     3
370
     5
100
AcDbDimension
  2
*D51
 10
50570.0968207277
 20
24423.99771050388
 30
0.0
 11
50490.09682072769
 21
23860.99885525194
 31
0.0
 70
    32
 71
     5
 42
1125.997710503885
  3
500
100
AcDbAlignedDimension
 13
50130.46194918117
 23
23297.99999999999
 33
0.0
 14
50130.46194918117
 24
24423.99771050388
 34
0.0
 50
90.0
100
AcDbRotatedDimension
  0
DIMENSION
  5
1C9
330
2
100
AcDbEntity
  8
WYMIARY
 62
     3
370
     5
100
AcDbDimension
  2
*D50
 10
48364.78273671091
 20
25280.20987689268
 30
0.0
 11
49097.28273671091
 21
25360.20987689268
 31
0.0
 70
    32
 71
     5
 42
1465.0
  3
500
100
AcDbAlignedDimension
 13
49829.78273671091
 23
24543.472337477
 33
0.0
 14
48364.78273671091
 24
24807.47004798088
 34
0.0
 50
180.0
100
AcDbRotatedDimension
  0
DIMENSION
  5
1D4
330
2
100
AcDbEntity
  8
WYMIARY
 62
     3
370
     5
100
AcDbDimension
  2
*D49
 10
47802.91779964745
 20
23453.0
 30
0.0
 11
47722.91779964744
 21
23441.5
 31
0.0
 70
    33
 71
     5
 42
23.00000000001819
  3
500
100
AcDbAlignedDimension
 13
48639.78273671091
 23
23429.99999999998
 33
0.0
 14
48639.78273671091
 24
23453.0
 34
0.0
  0
DIMENSION
  5
1E1
330
2
100
AcDbEntity
  8
WYMIARY
 62
     3
370
     5
100
AcDbDimension
  2
*D48
 10
48364.78273671091
 20
22563.80079766781
 30
0.0
 11
48527.28273671091
 21
22643.80079766781
 31
0.0
 70
    33
 71
     5
 42
325.0
  3
500
100
AcDbAlignedDimension
 13
48689.78273671091
 23
23233.0
 33
0.0
 14
48364.78273671091
 24
23233.0
 34
0.0
  0
LWPOLYLINE
  5
1EC
102
{ACAD_REACTORS
330
30F
330
335
102
}
330
2
100
AcDbEntity
  8
SCIANY
 62
     3
370
     5
100
AcDbPolyline
 90
       16
 70
     1
 43
0.0
 10
49584.78273671091
 20
24363.99771050388
 10
49584.78273671091
 20
24099.99999999999
 10
49769.78273671091
 20
24099.99999999999
 10
49769.7827367109
 20
23490.00000000001
 10
49379.78273671092
 20
23490.00000000005
 10
49379.7827367109
 20
23358.0
 10
49139.78273671091
 20
23357.99999999999
 10
49139.78273671091
 20
23489.99999999999
 10
48749.78273671091
 20
23489.99999999998
 10
48749.78273671091
 20
23513.0
 10
48424.78273671091
 20
23513.0
 10
48424.78273671091
 20
24076.99999999999
 10
48749.78273671091
 20
24077.0
 10
48749.78273671091
 20
24100.00000000001
 10
49139.78273671092
 20
24100.00000000002
 10
49139.78273671092
 20
24363.99771050388
  0
LWPOLYLINE
  5
1ED
102
{ACAD_REACTORS
330
30F
102
}
330
2
100
AcDbEntity
  8
SCIANY
 62
     3
370
     5
100
AcDbPolyline
 90
       16
 70
     1
 43
0.0
 10
49644.78273671091
 20
24423.99771050388
 10
49644.78273671091
 20
24159.99999999999
 10
49829.78273671092
 20
24159.99999999999
 10
49829.7827367109
 20
23430.0
 10
49439.78273671091
 20
23430.00000000004
 10
49439.78273671089
 20
23298.0
 10
49079.78273671091
 20
23297.99999999999
 10
49079.78273671091
 20
23429.99999999999
 10
48689.78273671091
 20
23429.99999999998
 10
48689.78273671091
 20
23453.0
 10
48364.78273671091
 20
23453.0
 10
48364.78273671091
 20
24136.99999999999
 10
48689.78273671091
 20
24137.0
 10
48689.78273671091
 20
24160.0
 10
49079.78273671091
 20
24160.00000000002
 10
49079.78273671091
 20
24423.99771050388
  0
LINE
  5
1EE
102
{ACAD_REACTORS
330
30F
102
}
330
2
100
AcDbEntity
  8
SCIANY
 62
     3
370
     5
100
AcDbLine
 10
48689.78273671091
 20
24137.0
 30
0.0
 11
48364.78273671091
 21
24136.99999999999
 31
0.0
  0
DIMENSION
  5
1EF
330
2
100
AcDbEntity
  8
WYMIARY
 62
     3
370
     5
100
AcDbDimension
  2
*D47
 10
48364.78273671091
 20
25046.73753941569
 30
0.0
 11
48527.28273671091
 21
25126.73753941569
 31
0.0
 70
    32
 71
     5
 42
325.0
  3
500
100
AcDbAlignedDimension
 13
48689.78273671091
 23
24310.0
 33
0.0
 14
48364.78273671091
 24
24286.99999999999
 34
0.0
 50
180.0
100
AcDbRotatedDimension
  0
DIMENSION
  5
1FA
330
2
100
AcDbEntity
  8
WYMIARY
 62
     3
370
     5
100
AcDbDimension
  2
*D37
 10
47802.91779964745
 20
23429.99999999998
 30
0.0
 11
47732.03233190237
 21
23222.62370289581
 31
0.0
 70
   160
 71
     5
 42
131.9999999999854
  3
500
100
AcDbAlignedDimension
 13
49029.78273671091
 23
23297.99999999999
 33
0.0
 14
48314.78273671091
 24
23429.99999999998
 34
0.0
 50
90.0
100
AcDbRotatedDimension
  0
DIMENSION
  5
205
330
2
100
AcDbEntity
  8
WYMIARY
 62
     3
370
     5
100
AcDbDimension
  2
*D46
 10
47802.91779964745
 20
24160.0
 30
0.0
 11
47722.91779964744
 21
24148.5
 31
0.0
 70
    32
 71
     5
 42
23.00000000000728
  3
500
100
AcDbAlignedDimension
 13
48314.78273671091
 23
24136.99999999999
 33
0.0
 14
48639.78273671091
 24
24160.0
 34
0.0
 50
90.0
100
AcDbRotatedDimension
  0
DIMENSION
  5
212
330
2
100
AcDbEntity
  8
WYMIARY
 62
     3
370
     5
100
AcDbDimension
  2
*D38
 10
47802.91779964745
 20
24423.99771050388
 30
0.0
 11
47723.74192224788
 21
24384.24518284263
 31
0.0
 70
   160
 71
     5
 42
263.9977105038779
  3
500
100
AcDbAlignedDimension
 13
48639.78273671091
 23
24160.0
 33
0.0
 14
49029.78273671091
 24
24423.99771050388
 34
0.0
 50
90.0
100
AcDbRotatedDimension
  0
LINE
  5
21F
330
2
100
AcDbEntity
  8
SCIANY
 62
     3
370
     5
100
AcDbLine
 10
48899.78273671091
 20
24603.99771050388
 30
0.0
 11
49704.78273671091
 21
24603.99771050388
 31
0.0
  0
LINE
  5
220
330
2
100
AcDbEntity
  8
SCIANY
 62
     3
370
     5
100
AcDbLine
 10
48749.78273671091
 20
24160.0
 30
0.0
 11
48749.78273671091
 21
24411.57130363269
 31
0.0
  0
LINE
  5
221
330
2
100
AcDbEntity
  8
SCIANY
 62
     3
370
     5
100
AcDbLine
 10
48719.78273671091
 20
24160.0
 30
0.0
 11
48719.78273671091
 21
24423.99771050388
 31
0.0
  0
LINE
  5
222
102
{ACAD_REACTORS
330
30F
102
}
330
2
100
AcDbEntity
  8
SCIANY
 62
     3
370
     5
100
AcDbLine
 10
49079.78273671091
 20
24160.0
 30
0.0
 11
48689.78273671091
 21
24160.0
 31
0.0
  0
LINE
  5
223
102
{ACAD_REACTORS
330
30F
102
}
330
2
100
AcDbEntity
  8
SCIANY
 62
     3
370
     5
100
AcDbLine
 10
48689.78273671091
 20
24160.0
 30
0.0
 11
48689.78273671091
 21
24137.0
 31
0.0
  0
LINE
  5
224
330
2
100
AcDbEntity
  8
SCIANY
 62
     3
370
     5
100
AcDbLine
 10
48749.78273671091
 20
24411.57130363269
 30
0.0
 11
48912.20914358211
 21
24573.99771050388
 31
0.0
  0
LINE
  5
227
330
2
100
AcDbEntity
  8
SCIANY
 62
     3
370
     5
100
AcDbLine
 10
48673.78273671091
 20
23701.0
 30
0.0
 11
48674.78273671091
 21
23701.0
 31
0.0
  0
LINE
  5
22E
102
{ACAD_REACTORS
330
30F
102
}
330
2
100
AcDbEntity
  8
SCIANY
 62
     3
370
     5
100
AcDbLine
 10
49079.78273671091
 20
24160.0
 30
0.0
 11
49079.78273671091
 21
24423.99771050388
 31
0.0
  0
LINE
  5
22F
102
{ACAD_REACTORS
330
30F
102
}
330
2
100
AcDbEntity
  8
SCIANY
 62
     3
370
     5
100
AcDbLine
 10
49829.78273671092
 20
24159.99999999999
 30
0.0
 11
49644.78273671091
 21
24159.99999999999
 31
0.0
  0
LINE
  5
230
102
{ACAD_REACTORS
330
30F
102
}
330
2
100
AcDbEntity
  8
SCIANY
 62
     3
370
     5
100
AcDbLine
 10
49079.78273671091
 20
24423.99771050388
 30
0.0
 11
49644.78273671091
 21
24423.99771050388
 31
0.0
  0
LINE
  5
231
330
2
100
AcDbEntity
  8
SCIANY
 62
     3
370
     5
100
AcDbLine
 10
49674.78273671091
 20
24423.99771050388
 30
0.0
 11
49674.78273671091
 21
24573.99771050388
 31
0.0
  0
LINE
  5
232
330
2
100
AcDbEntity
  8
SCIANY
 62
     3
370
     5
100
AcDbLine
 10
49644.78273671091
 20
24393.99771050388
 30
0.0
 11
49704.78273671091
 21
24393.99771050388
 31
0.0
  0
LINE
  5
233
330
2
100
AcDbEntity
  8
SCIANY
 62
     3
370
     5
100
AcDbLine
 10
49644.78273671091
 20
24423.99771050388
 30
0.0
 11
49674.78273671091
 21
24423.99771050388
 31
0.0
  0
LINE
  5
234
102
{ACAD_REACTORS
330
30F
102
}
330
2
100
AcDbEntity
  8
SCIANY
 62
     3
370
     5
100
AcDbLine
 10
49644.78273671091
 20
24159.99999999999
 30
0.0
 11
49644.78273671091
 21
24423.99771050388
 31
0.0
  0
LINE
  5
235
330
2
100
AcDbEntity
  8
SCIANY
 62
     3
370
     5
100
AcDbLine
 10
48912.20914358211
 20
24573.99771050388
 30
0.0
 11
49674.78273671091
 21
24573.99771050388
 31
0.0
  0
LINE
  5
236
102
{ACAD_REACTORS
330
335
102
}
330
2
100
AcDbEntity
  8
SCIANY
 62
     3
370
     5
100
AcDbLine
 10
48656.78273671091
 20
23453.0
 30
0.0
 11
48656.78273671091
 21
23513.0
 31
0.0
  0
LINE
  5
237
102
{ACAD_REACTORS
330
335
102
}
330
2
100
AcDbEntity
  8
SCIANY
 62
     3
370
     5
100
AcDbLine
 10
48689.78273671091
 20
23453.0
 30
0.0
 11
48689.78273671091
 21
23429.99999999998
 31
0.0
  0
LINE
  5
238
102
{ACAD_REACTORS
330
335
102
}
330
2
100
AcDbEntity
  8
SCIANY
 62
     3
370
     5
100
AcDbLine
 10
48689.78273671091
 20
23453.0
 30
0.0
 11
48656.78273671091
 21
23453.0
 31
0.0
  0
LINE
  5
23A
330
2
100
AcDbEntity
  8
WIDOK
 62
     3
370
     5
100
AcDbLine
 10
48689.78273671091
 20
23142.99999999999
 30
0.0
 11
48689.78273671091
 21
23138.0
 31
0.0
  0
LINE
  5
23B
330
2
100
AcDbEntity
  8
SCIANY
 62
     3
370
     5
100
AcDbLine
 10
49049.78273671091
 20
23198.0
 30
0.0
 11
49049.78273671091
 21
23430.0
 31
0.0
  0
LINE
  5
23C
330
2
100
AcDbEntity
  8
SCIANY
 62
     3
370
     5
100
AcDbLine
 10
49019.78273671091
 20
23168.00000000001
 30
0.0
 11
49019.78273671091
 21
23430.0
 31
0.0
  0
LINE
  5
23D
330
2
100
AcDbEntity
  8
SCIANY
 62
     3
370
     5
100
AcDbLine
 10
49344.78273671091
 20
23297.99999999999
 30
0.0
 11
49174.78273671091
 21
23297.99999999999
 31
0.0
  0
LINE
  5
23E
102
{ACAD_REACTORS
330
30F
102
}
330
2
100
AcDbEntity
  8
SCIANY
 62
     3
370
     5
100
AcDbLine
 10
49344.78273671091
 20
23297.99999999999
 30
0.0
 11
49344.78273671091
 21
23358.0
 31
0.0
  0
LINE
  5
23F
102
{ACAD_REACTORS
330
335
102
}
330
2
100
AcDbEntity
  8
SCIANY
 62
     3
370
     5
100
AcDbLine
 10
49079.78273671091
 20
23429.99999999999
 30
0.0
 11
48689.78273671091
 21
23429.99999999998
 31
0.0
  0
LINE
  5
240
102
{ACAD_REACTORS
330
335
102
}
330
2
100
AcDbEntity
  8
SCIANY
 62
     3
370
     5
100
AcDbLine
 10
49079.78273671091
 20
23297.99999999999
 30
0.0
 11
49079.78273671091
 21
23429.99999999999
 31
0.0
  0
LINE
  5
241
102
{ACAD_REACTORS
330
335
102
}
330
2
100
AcDbEntity
  8
SCIANY
 62
     3
370
     5
100
AcDbLine
 10
49079.78273671091
 20
23297.99999999999
 30
0.0
 11
49174.78273671091
 21
23297.99999999999
 31
0.0
  0
LINE
  5
242
102
{ACAD_REACTORS
330
335
102
}
330
2
100
AcDbEntity
  8
SCIANY
 62
     3
370
     5
100
AcDbLine
 10
49174.78273671091
 20
23297.99999999999
 30
0.0
 11
49174.78273671091
 21
23357.99999999999
 31
0.0
  0
LINE
  5
243
330
2
100
AcDbEntity
  8
SCIANY
 62
     3
370
     5
100
AcDbLine
 10
49469.78273671089
 20
23197.99999999999
 30
0.0
 11
49469.78273671091
 21
23430.0
 31
0.0
  0
LINE
  5
244
330
2
100
AcDbEntity
  8
SCIANY
 62
     3
370
     5
100
AcDbLine
 10
49499.7827367109
 20
23167.99999999999
 30
0.0
 11
49499.78273671091
 21
23430.0
 31
0.0
  0
LINE
  5
245
102
{ACAD_REACTORS
330
30F
102
}
330
2
100
AcDbEntity
  8
SCIANY
 62
     3
370
     5
100
AcDbLine
 10
49439.78273671089
 20
23298.0
 30
0.0
 11
49439.78273671091
 21
23430.0
 31
0.0
  0
LINE
  5
246
102
{ACAD_REACTORS
330
30F
102
}
330
2
100
AcDbEntity
  8
SCIANY
 62
     3
370
     5
100
AcDbLine
 10
49439.78273671091
 20
23430.0
 30
0.0
 11
49829.7827367109
 21
23430.0
 31
0.0
  0
LINE
  5
247
330
2
100
AcDbEntity
  8
SCIANY
 62
     3
370
     5
100
AcDbLine
 10
49049.78273671091
 20
23198.0
 30
0.0
 11
49469.78273671089
 21
23197.99999999999
 31
0.0
  0
LINE
  5
248
330
2
100
AcDbEntity
  8
SCIANY
 62
     3
370
     5
100
AcDbLine
 10
49019.78273671091
 20
23168.00000000001
 30
0.0
 11
49499.7827367109
 21
23167.99999999999
 31
0.0
  0
LINE
  5
249
102
{ACAD_REACTORS
330
30F
102
}
330
2
100
AcDbEntity
  8
SCIANY
 62
     3
370
     5
100
AcDbLine
 10
49344.78273671091
 20
23298.0
 30
0.0
 11
49439.78273671089
 21
23298.0
 31
0.0
  0
LINE
  5
24A
330
2
100
AcDbEntity
  8
SCIANY
 62
     3
370
     5
100
AcDbLine
 10
48989.78273671091
 20
23138.0
 30
0.0
 11
49529.7827367109
 21
23137.99999999999
 31
0.0
  0
LINE
  5
24B
330
2
100
AcDbEntity
  8
SCIANY
 62
     3
370
     5
100
AcDbLine
 10
48989.78273671091
 20
23138.0
 30
0.0
 11
48989.78273671091
 21
23430.0
 31
0.0
  0
LINE
  5
24C
330
2
100
AcDbEntity
  8
SCIANY
 62
     3
370
     5
100
AcDbLine
 10
49529.7827367109
 20
23137.99999999999
 30
0.0
 11
49529.78273671091
 21
23430.0
 31
0.0
  0
DIMENSION
  5
24D
330
2
100
AcDbEntity
  8
WYMIARY
 62
     3
370
     5
100
AcDbDimension
  2
*D45
 10
49079.78273671091
 20
22563.80079766781
 30
0.0
 11
49259.7827367109
 21
22643.80079766781
 31
0.0
 70
    32
 71
     5
 42
359.9999999999854
  3
500
100
AcDbAlignedDimension
 13
49439.78273671089
 23
23078.0
 33
0.0
 14
49079.78273671091
 24
23077.99999999999
 34
0.0
 50
180.0
100
AcDbRotatedDimension
  0
DIMENSION
  5
258
330
2
100
AcDbEntity
  8
WYMIARY
 62
     3
370
     5
100
AcDbDimension
  2
*D44
 10
48689.78273671091
 20
22563.80079766781
 30
0.0
 11
48884.78273671091
 21
22643.80079766781
 31
0.0
 70
    32
 71
     5
 42
390.0
  3
500
100
AcDbAlignedDimension
 13
49079.78273671091
 23
23077.99999999999
 33
0.0
 14
48689.78273671091
 24
23210.0
 34
0.0
 50
180.0
100
AcDbRotatedDimension
  0
LINE
  5
264
102
{ACAD_REACTORS
330
30F
102
}
330
2
100
AcDbEntity
  8
SCIANY
 62
     3
370
     5
100
AcDbLine
 10
49829.7827367109
 20
23430.0
 30
0.0
 11
49829.78273671092
 21
24159.99999999999
 31
0.0
  0
DIMENSION
  5
265
330
2
100
AcDbEntity
  8
WYMIARY
 62
     3
370
     5
100
AcDbDimension
  2
*D43
 10
49439.78273671089
 20
22563.80079766781
 30
0.0
 11
49634.7827367109
 21
22643.80079766781
 31
0.0
 70
    32
 71
     5
 42
390.0000000000146
  3
500
100
AcDbAlignedDimension
 13
49829.78273671091
 23
23210.0
 33
0.0
 14
49439.78273671089
 24
23078.0
 34
0.0
 50
180.0
100
AcDbRotatedDimension
  0
LINE
  5
270
330
2
100
AcDbEntity
  8
SCIANY
 62
     3
370
     5
100
AcDbLine
 10
49704.78273671091
 20
24393.99771050388
 30
0.0
 11
49704.78273671091
 21
24603.99771050388
 31
0.0
  0
LINE
  5
271
330
2
100
AcDbEntity
  8
SCIANY
 62
     3
370
     5
100
AcDbLine
 10
48719.78273671091
 20
24423.99771050388
 30
0.0
 11
48899.78273671091
 21
24603.99771050388
 31
0.0
  0
DIMENSION
  5
272
330
2
100
AcDbEntity
  8
WYMIARY
 62
     3
370
     5
100
AcDbDimension
  2
*D42
 10
49644.78273671091
 20
25046.73753941569
 30
0.0
 11
49737.28273671091
 21
25126.73753941569
 31
0.0
 70
    32
 71
     5
 42
185.0
  3
500
100
AcDbAlignedDimension
 13
49829.78273671091
 23
24310.0
 33
0.0
 14
49644.78273671091
 24
24573.99771050388
 34
0.0
 50
180.0
100
AcDbRotatedDimension
  0
DIMENSION
  5
27D
330
2
100
AcDbEntity
  8
WYMIARY
 62
     3
370
     5
100
AcDbDimension
  2
*D41
 10
49079.78273671091
 20
25046.73753941569
 30
0.0
 11
49362.28273671091
 21
25126.73753941569
 31
0.0
 70
    32
 71
     5
 42
565.0
  3
500
100
AcDbAlignedDimension
 13
49644.78273671091
 23
24573.99771050388
 33
0.0
 14
49079.78273671091
 24
24573.99771050388
 34
0.0
 50
180.0
100
AcDbRotatedDimension
  0
DIMENSION
  5
288
330
2
100
AcDbEntity
  8
WYMIARY
 62
     3
370
     5
100
AcDbDimension
  2
*D40
 10
48689.78273671091
 20
25046.73753941569
 30
0.0
 11
48884.78273671091
 21
25126.73753941569
 31
0.0
 70
    32
 71
     5
 42
390.0
  3
500
100
AcDbAlignedDimension
 13
49079.78273671091
 23
24573.99771050388
 33
0.0
 14
48689.78273671091
 24
24310.0
 34
0.0
 50
180.0
100
AcDbRotatedDimension
  0
LINE
  5
293
102
{ACAD_REACTORS
330
30F
102
}
330
2
100
AcDbEntity
  8
SCIANY
 62
     3
370
     5
100
AcDbLine
 10
48364.78273671091
 20
24136.99999999999
 30
0.0
 11
48364.78273671091
 21
23453.0
 31
0.0
  0
LINE
  5
294
102
{ACAD_REACTORS
330
30F
102
}
330
2
100
AcDbEntity
  8
SCIANY
 62
     3
370
     5
100
AcDbLine
 10
48424.78273671091
 20
23453.0
 30
0.0
 11
48424.78273671091
 21
23513.0
 31
0.0
  0
LINE
  5
295
102
{ACAD_REACTORS
330
30F
102
}
330
2
100
AcDbEntity
  8
SCIANY
 62
     3
370
     5
100
AcDbLine
 10
48416.78273671091
 20
23453.0
 30
0.0
 11
48364.78273671091
 21
23453.0
 31
0.0
  0
DIMENSION
  5
296
330
2
100
AcDbEntity
  8
WYMIARY
 62
     3
370
     5
100
AcDbDimension
  2
*D39
 10
47802.91779964745
 20
24136.99999999999
 30
0.0
 11
47722.91779964744
 21
23795.00000000001
 31
0.0
 70
    32
 71
     5
 42
683.9999999999927
  3
500
100
AcDbAlignedDimension
 13
48314.78273671091
 23
23453.0
 33
0.0
 14
48314.78273671091
 24
24136.99999999999
 34
0.0
 50
90.0
100
AcDbRotatedDimension
  0
HATCH
  5
30F
330
2
100
AcDbEntity
  8
0Hatch
 62
     3
370
     5
100
AcDbHatch
 10
0.0
 20
0.0
 30
0.0
210
0.0
220
0.0
230
1.0
  2
SOLID
 70
     1
 71
     1
 91
        1
 92
        7
 72
     0
 73
     1
 93
       28
 10
49139.78273671092
 20
24363.99771050388
 10
49584.7827367109
 20
24363.99771050388
 10
49584.7827367109
 20
24100.0
 10
49769.78273671091
 20
24099.99999999999
 10
49769.7827367109
 20
23490.0
 10
49379.78273671093
 20
23490.00000000005
 10
49379.7827367109
 20
23358.0
 10
49344.78273671092
 20
23358.0
 10
49344.78273671091
 20
23298.0
 10
49439.7827367109
 20
23298.0
 10
49439.78273671091
 20
23430.0
 10
49829.78273671089
 20
23429.99999999999
 10
49829.78273671091
 20
24160.0
 10
49644.7827367109
 20
24159.99999999999
 10
49644.78273671092
 20
24423.99771050388
 10
49079.78273671091
 20
24423.99771050388
 10
49079.78273671091
 20
24160.0
 10
48689.78273671091
 20
24160.0
 10
48689.78273671091
 20
24137.0
 10
48364.78273671091
 20
24136.99999999999
 10
48364.78273671091
 20
23453.0
 10
48416.78273671091
 20
23453.0
 10
48424.78273671091
 20
23453.0
 10
48424.78273671091
 20
23513.0
 10
48424.78273671091
 20
24076.99999999999
 10
48749.78273671091
 20
24077.0
 10
48749.78273671091
 20
24100.00000000001
 10
49139.78273671093
 20
24100.00000000002
 97
       17
330
1EC
330
23E
330
249
330
245
330
246
330
264
330
22F
330
234
330
230
330
22E
330
222
330
223
330
1EE
330
293
330
295
330
1ED
330
294
 75
     0
 76
     1
 47
7.194278800534195
 98
        1
 10
48911.70689489015
 20
24129.53629701307
1001
ACAD
1010
0.0
1020
0.0
1030
0.0
  0
HATCH
  5
335
330
2
100
AcDbEntity
  8
0Hatch
 62
     3
370
     5
100
AcDbHatch
 10
0.0
 20
0.0
 30
0.0
210
0.0
220
0.0
230
1.0
  2
SOLID
 70
     1
 71
     1
 91
        1
 92
        7
 72
     0
 73
     1
 93
       12
 10
49139.78273671091
 20
23489.99999999999
 10
48749.78273671091
 20
23489.99999999998
 10
48749.78273671091
 20
23513.0
 10
48656.78273671091
 20
23513.0
 10
48656.78273671091
 20
23453.0
 10
48689.78273671091
 20
23453.0
 10
48689.78273671091
 20
23429.99999999998
 10
49079.78273671091
 20
23429.99999999999
 10
49079.78273671091
 20
23298.0
 10
49174.78273671091
 20
23297.99999999999
 10
49174.78273671091
 20
23358.0
 10
49139.78273671091
 20
23357.99999999999
 97
        8
330
1EC
330
236
330
238
330
237
330
23F
330
240
330
241
330
242
 75
     0
 76
     1
 47
2.792993026191227
 98
        1
 10
48938.58544979805
 20
23465.14221052921
1001
ACAD
1010
0.0
1020
0.0
1030
0.0
  0
ENDSEC
  0
SECTION
  2
OBJECTS
  0
DICTIONARY
  5
9
330
0
100
AcDbDictionary
281
     1
  3
ACAD_COLOR
350
38
  3
ACAD_GROUP
350
33
  3
ACAD_LAYOUT
350
F
  3
ACAD_MATERIAL
350
B
  3
ACAD_MLEADERSTYLE
350
2C0
  3
ACAD_MLINESTYLE
350
34
  3
ACAD_PLOTSETTINGS
350
35
  3
ACAD_PLOTSTYLENAME
350
8
  3
ACAD_SCALELIST
350
39
  3
ACAD_TABLESTYLE
350
3A
  3
ACAD_VISUALSTYLE
350
12
  3
ACDB_RECOMPOSE_DATA
350
2AA
  3
AcDbVariableDictionary
350
2AB
  3
ASE_INDEX_DICTIONARY
350
2A6
  3
DWGPROPS
350
5D1
  0
DICTIONARY
  5
18
330
17
100
AcDbDictionary
280
     1
281
     1
  3
ACAD_LAYERSTATES
360
19
  0
DICTIONARY
  5
5
330
4
100
AcDbDictionary
280
     1
281
     1
  3
ADSK_XREC_LAYER_RECONCILED
360
6
  0
DICTIONARY
  5
146
330
145
100
AcDbDictionary
280
     1
281
     1
  3
ADSK_XREC_LAYER_RECONCILED
360
147
  0
DICTIONARY
  5
E9
330
E8
100
AcDbDictionary
280
     1
281
     1
  3
ADSK_XREC_LAYER_RECONCILED
360
EA
  0
DICTIONARY
  5
3C
330
3B
100
AcDbDictionary
280
     1
281
     1
  3
ADSK_XREC_LAYER_RECONCILED
360
3D
  0
DICTIONARY
  5
6A
330
69
100
AcDbDictionary
280
     1
281
     1
  3
ADSK_XREC_LAYER_RECONCILED
360
6B
  0
DICTIONARY
  5
66
330
65
100
AcDbDictionary
280
     1
281
     1
  3
ADSK_XREC_LAYER_RECONCILED
360
67
  0
DICTIONARY
  5
77
330
76
100
AcDbDictionary
280
     1
281
     1
  3
ADSK_XREC_LAYER_RECONCILED
360
78
  0
DICTIONARY
  5
310
330
2
100
AcDbDictionary
280
     1
281
     1
  3
ACAD_SORTENTS
360
311
  0
DICTIONARY
  5
2A
330
29
100
AcDbDictionary
280
     1
281
     1
  3
ACAD_SORTENTS
360
2B
  0
DICTIONARY
  5
38
102
{ACAD_REACTORS
330
9
102
}
330
9
100
AcDbDictionary
281
     1
  0
DICTIONARY
  5
33
102
{ACAD_REACTORS
330
9
102
}
330
9
100
AcDbDictionary
281
     1
  0
DICTIONARY
  5
F
102
{ACAD_REACTORS
330
9
102
}
330
9
100
AcDbDictionary
281
     1
  3
Layout1
350
16
  3
Model
350
E
  0
DICTIONARY
  5
B
102
{ACAD_REACTORS
330
9
102
}
330
9
100
AcDbDictionary
281
     1
  3
ByBlock
350
37
  3
ByLayer
350
36
  3
Global
350
A
  0
DICTIONARY
  5
2C0
102
{ACAD_REACTORS
330
9
102
}
330
9
100
AcDbDictionary
281
     1
  3
Standard
350
2C1
  0
DICTIONARY
  5
34
102
{ACAD_REACTORS
330
9
102
}
330
9
100
AcDbDictionary
281
     1
  3
Standard
350
3E
  0
DICTIONARY
  5
35
102
{ACAD_REACTORS
330
9
102
}
330
9
100
AcDbDictionary
281
     1
  0
ACDBDICTIONARYWDFLT
  5
8
102
{ACAD_REACTORS
330
9
102
}
330
9
100
AcDbDictionary
281
     1
  3
Normal
350
7
100
AcDbDictionaryWithDefault
340
7
  0
DICTIONARY
  5
39
102
{ACAD_REACTORS
330
9
102
}
330
9
100
AcDbDictionary
281
     1
  3
A0
350
43
  3
A1
350
44
  3
A2
350
45
  3
A3
350
46
  3
A4
350
47
  3
A5
350
48
  3
A6
350
49
  3
A7
350
4A
  3
A8
350
4B
  3
A9
350
4C
  3
B0
350
4D
  3
B1
350
4E
  3
B2
350
4F
  3
B3
350
50
  3
B4
350
51
  3
B5
350
52
  3
B6
350
53
  3
B7
350
54
  3
B8
350
55
  3
B9
350
56
  3
C0
350
57
  3
C1
350
58
  3
C2
350
59
  3
C3
350
5A
  3
C4
350
5B
  3
C5
350
5C
  3
C6
350
5D
  3
C7
350
5E
  3
C8
350
5F
  3
C9
350
60
  3
D0
350
61
  3
D1
350
62
  3
D2
350
63
  0
DICTIONARY
  5
3A
102
{ACAD_REACTORS
330
9
102
}
330
9
100
AcDbDictionary
281
     1
  3
Standard
350
3F
  0
DICTIONARY
  5
12
102
{ACAD_REACTORS
330
9
102
}
330
9
100
AcDbDictionary
281
     1
  3
2dWireframe
350
11
  3
3D Hidden
350
2B8
  3
3dWireframe
350
42
  3
Basic
350
2B7
  3
Brighten
350
2BB
  3
ColorChange
350
2BF
  3
Conceptual
350
2B9
  3
Dim
350
2BA
  3
Facepattern
350
2BE
  3
Flat
350
2B3
  3
FlatWithEdges
350
2B4
  3
Gouraud
350
2B5
  3
GouraudWithEdges
350
2B6
  3
Linepattern
350
2BD
  3
Realistic
350
41
  3
Thicken
350
2BC
  0
XRECORD
  5
2AA
102
{ACAD_REACTORS
330
9
102
}
330
9
100
AcDbXrecord
280
     1
 90
        1
330
3F
  0
DICTIONARY
  5
2AB
102
{ACAD_REACTORS
330
9
102
}
330
9
100
AcDbDictionary
281
     1
  3
CANNOSCALE
350
2AE
  3
CMLEADERSTYLE
350
2AD
  3
CTABLESTYLE
350
2AC
  3
DIMASSOC
350
5CF
  3
HIDETEXT
350
5CE
  3
INDEXCTL
350
5CD
  3
LAYEREVAL
350
2B0
  3
LAYERNOTIFY
350
2B1
  3
LIGHTINGUNITS
350
2AF
  3
MSLTSCALE
350
5CB
  3
SORTENTS
350
5CC
  0
DICTIONARY
  5
2A6
102
{ACAD_REACTORS
330
9
102
}
330
9
100
AcDbDictionary
281
     1
  3
ASEBlockHierarchyIndexRecord
350
2A8
1001
DCO15
1040
1664265201.078
  0
XRECORD
  5
5D1
102
{ACAD_REACTORS
330
9
102
}
330
9
100
AcDbXrecord
280
     1
  1
DWGPROPS COOKIE
  2

  3

  4

  6

  7

  8
magdalena.jozwik
  9

300
=
301
=
302
=
303
=
304
=
305
=
306
=
307
=
308
=
309
=
 40
8.472120034722221
 41
2452027.670547454
 42
2455065.540568032
  1

 90
        0
  0
DICTIONARY
  5
19
102
{ACAD_REACTORS
330
18
102
}
330
18
100
AcDbDictionary
281
     1
  0
XRECORD
  5
6
102
{ACAD_REACTORS
330
5
102
}
330
5
100
AcDbXrecord
280
     1
290
     1
  0
XRECORD
  5
147
102
{ACAD_REACTORS
330
146
102
}
330
146
100
AcDbXrecord
280
     1
290
     1
  0
XRECORD
  5
EA
102
{ACAD_REACTORS
330
E9
102
}
330
E9
100
AcDbXrecord
280
     1
290
     1
  0
XRECORD
  5
3D
102
{ACAD_REACTORS
330
3C
102
}
330
3C
100
AcDbXrecord
280
     1
290
     1
  0
XRECORD
  5
6B
102
{ACAD_REACTORS
330
6A
102
}
330
6A
100
AcDbXrecord
280
     1
290
     1
  0
XRECORD
  5
67
102
{ACAD_REACTORS
330
66
102
}
330
66
100
AcDbXrecord
280
     1
290
     1
  0
XRECORD
  5
78
102
{ACAD_REACTORS
330
77
102
}
330
77
100
AcDbXrecord
280
     1
290
     1
  0
SORTENTSTABLE
  5
311
102
{ACAD_REACTORS
330
310
102
}
330
310
100
AcDbSortentsTable
330
2
331
27D
  5
293
331
DC
  5
DC
331
98
  5
98
331
24B
  5
24D
331
23A
  5
23C
331
14B
  5
14B
331
13A
  5
13A
331
68
  5
68
331
227
  5
22F
331
205
  5
21F
331
1C9
  5
1C9
331
249
  5
24B
331
138
  5
138
331
238
  5
23B
331
149
  5
149
331
127
  5
127
331
EB
  5
EB
331
1E1
  5
1E1
331
247
  5
249
331
136
  5
136
331
236
  5
238
331
A5
  5
A5
331
64
  5
64
331
223
  5
227
331
245
  5
247
331
156
  5
156
331
134
  5
134
331
288
  5
294
331
234
  5
236
331
212
  5
220
331
E7
  5
E7
331
81
  5
81
331
221
  5
223
331
243
  5
245
331
16E
  5
16E
331
154
  5
154
331
132
  5
132
331
264
  5
270
331
232
  5
234
331
1EE
  5
1FA
331
1D4
  5
1D4
331
165
  5
165
331
143
  5
143
331
7F
  5
7F
331
241
  5
243
331
230
  5
232
331
1EC
  5
1EE
331
16C
  5
16C
331
152
  5
152
331
163
  5
163
331
141
  5
141
331
295
  5
2CD
331
21F
  5
221
331
B0
  5
B0
331
22E
  5
230
331
335
  5
1ED
331
16A
  5
16A
331
150
  5
150
331
293
  5
295
331
271
  5
27D
331
23F
  5
241
331
161
  5
161
331
13F
  5
13F
331
23D
  5
23F
331
19B
  5
19B
331
179
  5
179
331
14E
  5
14E
331
13D
  5
13D
331
24C
  5
258
331
23B
  5
23D
331
30F
  5
1EC
331
14C
  5
14C
331
13B
  5
13B
331
F7
  5
F7
331
BB
  5
BB
331
24A
  5
24C
331
139
  5
139
331
186
  5
186
331
14A
  5
14A
331
EC
  5
EC
331
258
  5
265
331
248
  5
24A
331
137
  5
137
331
237
  5
23A
331
1A6
  5
1A6
331
104
  5
104
331
224
  5
22E
331
246
  5
248
331
135
  5
135
331
235
  5
237
331
C6
  5
C6
331
222
  5
224
331
244
  5
246
331
265
  5
271
331
233
  5
235
331
1EF
  5
205
331
1B3
  5
1B3
331
155
  5
155
331
166
  5
166
331
144
  5
144
331
133
  5
133
331
242
  5
244
331
220
  5
222
331
153
  5
153
331
231
  5
233
331
1ED
  5
1EF
331
296
  5
312
331
164
  5
164
331
142
  5
142
331
10F
  5
10F
331
7E
  5
7E
331
240
  5
242
331
16B
  5
16B
331
151
  5
151
331
22F
  5
231
331
162
  5
162
331
140
  5
140
331
294
  5
296
331
272
  5
288
331
D1
  5
D1
331
8D
  5
8D
331
7C
  5
7C
331
169
  5
169
331
270
  5
272
331
23E
  5
240
331
1FA
  5
212
331
1BE
  5
1BE
331
160
  5
160
331
14F
  5
14F
331
13E
  5
13E
331
11C
  5
11C
331
24D
  5
264
331
23C
  5
23E
331
19A
  5
19A
331
14D
  5
14D
331
13C
  5
13C
331
11A
  5
11A
  0
SORTENTSTABLE
  5
2B
102
{ACAD_REACTORS
330
2A
102
}
330
2A
100
AcDbSortentsTable
330
29
  0
LAYOUT
  5
16
102
{ACAD_XDICTIONARY
360
5D6
102
}
102
{ACAD_REACTORS
330
F
102
}
330
F
100
AcDbPlotSettings
  1

  2
C:\PROGRAM FILES\AUTOCAD LT 2000\plotters\DWF ePlot.pc3
  4

  6

 40
0.0
 41
0.0
 42
0.0
 43
0.0
 44
0.0
 45
0.0
 46
0.0
 47
0.0
 48
0.0
 49
0.0
140
0.0
141
0.0
142
1.0
143
1.0
 70
   688
 72
     0
 73
     0
 74
     5
  7
100.ctb
 75
    16
147
1.0
148
0.0
149
0.0
100
AcDbLayout
  1
Layout1
 70
     1
 71
     1
 10
0.0
 20
0.0
 11
420.0
 21
297.0
 12
0.0
 22
0.0
 32
0.0
 14
1.000000000000000E+20
 24
1.000000000000000E+20
 34
1.000000000000000E+20
 15
-1.000000000000000E+20
 25
-1.000000000000000E+20
 35
-1.000000000000000E+20
146
0.0
 13
0.0
 23
0.0
 33
0.0
 16
1.0
 26
0.0
 36
0.0
 17
0.0
 27
1.0
 37
0.0
 76
     0
330
13
  0
LAYOUT
  5
E
102
{ACAD_XDICTIONARY
360
5D4
102
}
102
{ACAD_REACTORS
330
F
102
}
330
F
100
AcDbPlotSettings
  1

  2
PDFCreator
  4
A4
  6
DALIE_aneks
 40
3.174999952316284
 41
3.174999952316284
 42
3.175003051757812
 43
3.17498779296875
 44
209.8886566162109
 45
297.0530090332031
 46
0.0
 47
4.0
 48
41787.20217807776
 49
15497.51641095816
140
51987.20217807776
141
29517.51641095817
142
1.0
143
50.0
 70
 11952
 72
     1
 73
     0
 74
     4
  7
100.ctb
 75
    25
147
0.02
148
-41787.20217807776
149
-15497.51641095816
100
AcDbLayout
  1
Model
 70
     1
 71
     0
 10
0.0
 20
0.0
 11
12.0
 21
9.0
 12
0.0
 22
0.0
 32
0.0
 14
0.0
 24
0.0
 34
0.0
 15
0.0
 25
0.0
 35
0.0
146
0.0
 13
0.0
 23
0.0
 33
0.0
 16
1.0
 26
0.0
 36
0.0
 17
0.0
 27
1.0
 37
0.0
 76
     0
330
2
331
23
1001
ACAD_PSEXT
1000
PDFCreator
1000
PDFCreator
1000
PDFCreator:
1000
eDoc Printer
1070
     0
  0
MATERIAL
  5
37
102
{ACAD_XDICTIONARY
360
5DA
102
}
102
{ACAD_REACTORS
330
B
102
}
330
B
100
AcDbMaterial
  1
ByBlock
 73
     1
 78
     1
172
     1
176
     1
270
     1
274
     1
  0
MATERIAL
  5
36
102
{ACAD_XDICTIONARY
360
5D8
102
}
102
{ACAD_REACTORS
330
B
102
}
330
B
100
AcDbMaterial
  1
ByLayer
 73
     1
 78
     1
172
     1
176
     1
270
     1
274
     1
  0
MATERIAL
  5
A
102
{ACAD_XDICTIONARY
360
5D2
102
}
102
{ACAD_REACTORS
330
B
102
}
330
B
100
AcDbMaterial
  1
Global
 73
     1
 78
     1
172
     1
176
     1
270
     1
274
     1
  0
MLEADERSTYLE
  5
2C1
102
{ACAD_REACTORS
330
2C0
102
}
330
2C0
100
AcDbMLeaderStyle
170
     2
171
     1
172
     0
 90
        2
 40
0.0
 41
0.0
173
     1
 91
-1056964608
340
1E
 92
       -2
290
     1
 42
0.09
291
     1
 43
0.36
  3
Standard
 44
0.18
300

342
1B
174
     1
178
     6
175
     1
176
     0
 93
-1056964608
 45
0.18
292
     0
297
     0
 46
0.18
 94
-1056964608
 47
1.0
 49
1.0
140
1.0
293
     1
141
0.0
294
     1
177
     0
142
1.0
295
     0
296
     0
143
0.125
1001
ACAD_MLEADERVER
1070
     2
  0
MLINESTYLE
  5
3E
102
{ACAD_REACTORS
330
34
102
}
330
34
100
AcDbMlineStyle
  2
STANDARD
 70
     0
  3

 62
   256
 51
90.0
 52
90.0
 71
     2
 49
0.5
 62
   256
  6
BYLAYER
 49
-0.5
 62
   256
  6
BYLAYER
  0
ACDBPLACEHOLDER
  5
7
102
{ACAD_REACTORS
330
8
102
}
330
8
  0
SCALE
  5
43
102
{ACAD_REACTORS
330
39
102
}
330
39
100
AcDbScale
 70
     0
300
1:1
140
1.0
141
1.0
290
     0
  0
SCALE
  5
44
102
{ACAD_REACTORS
330
39
102
}
330
39
100
AcDbScale
 70
     0
300
1:2
140
1.0
141
2.0
290
     0
  0
SCALE
  5
45
102
{ACAD_REACTORS
330
39
102
}
330
39
100
AcDbScale
 70
     0
300
1:4
140
1.0
141
4.0
290
     0
  0
SCALE
  5
46
102
{ACAD_REACTORS
330
39
102
}
330
39
100
AcDbScale
 70
     0
300
1:5
140
1.0
141
5.0
290
     0
  0
SCALE
  5
47
102
{ACAD_REACTORS
330
39
102
}
330
39
100
AcDbScale
 70
     0
300
1:8
140
1.0
141
8.0
290
     0
  0
SCALE
  5
48
102
{ACAD_REACTORS
330
39
102
}
330
39
100
AcDbScale
 70
     0
300
1:10
140
1.0
141
10.0
290
     0
  0
SCALE
  5
49
102
{ACAD_REACTORS
330
39
102
}
330
39
100
AcDbScale
 70
     0
300
1:16
140
1.0
141
16.0
290
     0
  0
SCALE
  5
4A
102
{ACAD_REACTORS
330
39
102
}
330
39
100
AcDbScale
 70
     0
300
1:20
140
1.0
141
20.0
290
     0
  0
SCALE
  5
4B
102
{ACAD_REACTORS
330
39
102
}
330
39
100
AcDbScale
 70
     0
300
1:30
140
1.0
141
30.0
290
     0
  0
SCALE
  5
4C
102
{ACAD_REACTORS
330
39
102
}
330
39
100
AcDbScale
 70
     0
300
1:40
140
1.0
141
40.0
290
     0
  0
SCALE
  5
4D
102
{ACAD_REACTORS
330
39
102
}
330
39
100
AcDbScale
 70
     0
300
1:50
140
1.0
141
50.0
290
     0
  0
SCALE
  5
4E
102
{ACAD_REACTORS
330
39
102
}
330
39
100
AcDbScale
 70
     0
300
1:100
140
1.0
141
100.0
290
     0
  0
SCALE
  5
4F
102
{ACAD_REACTORS
330
39
102
}
330
39
100
AcDbScale
 70
     0
300
2:1
140
2.0
141
1.0
290
     0
  0
SCALE
  5
50
102
{ACAD_REACTORS
330
39
102
}
330
39
100
AcDbScale
 70
     0
300
4:1
140
4.0
141
1.0
290
     0
  0
SCALE
  5
51
102
{ACAD_REACTORS
330
39
102
}
330
39
100
AcDbScale
 70
     0
300
8:1
140
8.0
141
1.0
290
     0
  0
SCALE
  5
52
102
{ACAD_REACTORS
330
39
102
}
330
39
100
AcDbScale
 70
     0
300
10:1
140
10.0
141
1.0
290
     0
  0
SCALE
  5
53
102
{ACAD_REACTORS
330
39
102
}
330
39
100
AcDbScale
 70
     0
300
100:1
140
100.0
141
1.0
290
     0
  0
SCALE
  5
54
102
{ACAD_REACTORS
330
39
102
}
330
39
100
AcDbScale
 70
     0
300
1/128" = 1'-0"
140
0.0078125
141
12.0
290
     0
  0
SCALE
  5
55
102
{ACAD_REACTORS
330
39
102
}
330
39
100
AcDbScale
 70
     0
300
1/64" = 1'-0"
140
0.015625
141
12.0
290
     0
  0
SCALE
  5
56
102
{ACAD_REACTORS
330
39
102
}
330
39
100
AcDbScale
 70
     0
300
1/32" = 1'-0"
140
0.03125
141
12.0
290
     0
  0
SCALE
  5
57
102
{ACAD_REACTORS
330
39
102
}
330
39
100
AcDbScale
 70
     0
300
1/16" = 1'-0"
140
0.0625
141
12.0
290
     0
  0
SCALE
  5
58
102
{ACAD_REACTORS
330
39
102
}
330
39
100
AcDbScale
 70
     0
300
3/32" = 1'-0"
140
0.09375
141
12.0
290
     0
  0
SCALE
  5
59
102
{ACAD_REACTORS
330
39
102
}
330
39
100
AcDbScale
 70
     0
300
1/8" = 1'-0"
140
0.125
141
12.0
290
     0
  0
SCALE
  5
5A
102
{ACAD_REACTORS
330
39
102
}
330
39
100
AcDbScale
 70
     0
300
3/16" = 1'-0"
140
0.1875
141
12.0
290
     0
  0
SCALE
  5
5B
102
{ACAD_REACTORS
330
39
102
}
330
39
100
AcDbScale
 70
     0
300
1/4" = 1'-0"
140
0.25
141
12.0
290
     0
  0
SCALE
  5
5C
102
{ACAD_REACTORS
330
39
102
}
330
39
100
AcDbScale
 70
     0
300
3/8" = 1'-0"
140
0.375
141
12.0
290
     0
  0
SCALE
  5
5D
102
{ACAD_REACTORS
330
39
102
}
330
39
100
AcDbScale
 70
     0
300
1/2" = 1'-0"
140
0.5
141
12.0
290
     0
  0
SCALE
  5
5E
102
{ACAD_REACTORS
330
39
102
}
330
39
100
AcDbScale
 70
     0
300
3/4" = 1'-0"
140
0.75
141
12.0
290
     0
  0
SCALE
  5
5F
102
{ACAD_REACTORS
330
39
102
}
330
39
100
AcDbScale
 70
     0
300
1" = 1'-0"
140
1.0
141
12.0
290
     0
  0
SCALE
  5
60
102
{ACAD_REACTORS
330
39
102
}
330
39
100
AcDbScale
 70
     0
300
1-1/2" = 1'-0"
140
1.5
141
12.0
290
     0
  0
SCALE
  5
61
102
{ACAD_REACTORS
330
39
102
}
330
39
100
AcDbScale
 70
     0
300
3" = 1'-0"
140
3.0
141
12.0
290
     0
  0
SCALE
  5
62
102
{ACAD_REACTORS
330
39
102
}
330
39
100
AcDbScale
 70
     0
300
6" = 1'-0"
140
6.0
141
12.0
290
     0
  0
SCALE
  5
63
102
{ACAD_REACTORS
330
39
102
}
330
39
100
AcDbScale
 70
     0
300
1'-0" = 1'-0"
140
12.0
141
12.0
290
     1
  0
TABLESTYLE
  5
3F
102
{ACAD_XDICTIONARY
360
40
102
}
102
{ACAD_REACTORS
330
3A
102
}
330
3A
100
AcDbTableStyle
  3
Standard
 70
     0
 71
     0
 40
0.06
 41
0.06
280
     0
281
     0
  7
Standard
140
0.18
170
     2
 62
     0
 63
     7
283
     0
274
    -2
284
     1
 64
     0
275
    -2
285
     1
 65
     0
276
    -2
286
     1
 66
     0
277
    -2
287
     1
 67
     0
278
    -2
288
     1
 68
     0
279
    -2
289
     1
 69
     0
  7
Standard
140
0.25
170
     5
 62
     0
 63
     7
283
     0
274
    -2
284
     1
 64
     0
275
    -2
285
     1
 65
     0
276
    -2
286
     1
 66
     0
277
    -2
287
     1
 67
     0
278
    -2
288
     1
 68
     0
279
    -2
289
     1
 69
     0
  7
Standard
140
0.18
170
     5
 62
     0
 63
     7
283
     0
274
    -2
284
     1
 64
     0
275
    -2
285
     1
 65
     0
276
    -2
286
     1
 66
     0
277
    -2
287
     1
 67
     0
278
    -2
288
     1
 68
     0
279
    -2
289
     1
 69
     0
  0
VISUALSTYLE
  5
11
102
{ACAD_REACTORS
330
12
102
}
330
12
100
AcDbVisualStyle
  2
2dWireframe
 70
     4
 71
     0
 72
     2
 73
     0
 90
        0
 40
-0.6
 41
-30.0
 62
     5
 63
     7
 74
     1
 91
        4
 64
     7
 65
   257
 75
     1
175
     1
 42
1.0
 92
        0
 66
   257
 43
1.0
 76
     1
 77
     6
 78
     2
 67
     7
 79
     5
170
     0
171
     0
290
     0
174
     0
 93
        1
 44
0.0
173
     0
291
     0
 45
0.0
1001
ACAD
1000
AcDbSavedByObjectVersion
1070
     0
  0
VISUALSTYLE
  5
2B8
102
{ACAD_REACTORS
330
12
102
}
330
12
100
AcDbVisualStyle
  2
3D Hidden
 70
     6
 71
     1
 72
     2
 73
     2
 90
        0
 40
-0.6
 41
-30.0
 62
     5
 63
     7
 74
     2
 91
        2
 64
     7
 65
   257
 75
     2
175
     1
 42
40.0
 92
        0
 66
   257
 43
1.0
 76
     1
 77
     6
 78
     2
 67
     7
 79
     3
170
     0
171
     0
290
     0
174
     0
 93
        1
 44
0.0
173
     0
291
     0
 45
0.0
1001
ACAD
1000
AcDbSavedByObjectVersion
1070
     0
  0
VISUALSTYLE
  5
42
102
{ACAD_REACTORS
330
12
102
}
330
12
100
AcDbVisualStyle
  2
3dWireframe
 70
     5
 71
     0
 72
     2
 73
     0
 90
        0
 40
-0.6
 41
-30.0
 62
     5
 63
     7
 74
     1
 91
        4
 64
     7
 65
   257
 75
     1
175
     1
 42
1.0
 92
        0
 66
   257
 43
1.0
 76
     1
 77
     6
 78
     2
 67
     7
 79
     5
170
     0
171
     0
290
     0
174
     0
 93
        1
 44
0.0
173
     0
291
     0
 45
0.0
1001
ACAD
1000
AcDbSavedByObjectVersion
1070
     0
  0
VISUALSTYLE
  5
2B7
102
{ACAD_REACTORS
330
12
102
}
330
12
100
AcDbVisualStyle
  2
Basic
 70
     7
 71
     1
 72
     0
 73
     1
 90
        0
 40
-0.6
 41
-30.0
 62
     5
 63
     7
 74
     0
 91
        4
 64
     7
 65
   257
 75
     1
175
     1
 42
1.0
 92
        8
 66
     7
 43
1.0
 76
     1
 77
     6
 78
     2
 67
     7
 79
     5
170
     0
171
     0
290
     0
174
     0
 93
        1
 44
0.0
173
     0
291
     1
 45
0.0
1001
ACAD
1000
AcDbSavedByObjectVersion
1070
     0
  0
VISUALSTYLE
  5
2BB
102
{ACAD_REACTORS
330
12
102
}
330
12
100
AcDbVisualStyle
  2
Brighten
 70
    12
 71
     2
 72
     2
 73
     0
 90
        0
 40
-0.6
 41
-30.0
 62
     5
 63
     7
 74
     1
 91
        4
 64
     7
 65
   257
 75
     1
175
     1
 42
1.0
 92
        8
 66
     7
 43
1.0
 76
     1
 77
     6
 78
     2
 67
     7
 79
     5
170
     0
171
     0
290
     0
174
     0
 93
        1
 44
50.0
173
     0
291
     1
 45
0.0
1001
ACAD
1000
AcDbSavedByObjectVersion
1070
     0
  0
VISUALSTYLE
  5
2BF
102
{ACAD_REACTORS
330
12
102
}
330
12
100
AcDbVisualStyle
  2
ColorChange
 70
    16
 71
     2
 72
     2
 73
     3
 90
        0
 40
-0.6
 41
-30.0
 62
     5
 63
     8
 74
     1
 91
        4
 64
     7
 65
   257
 75
     1
175
     1
 42
1.0
 92
        8
 66
     8
 43
1.0
 76
     1
 77
     6
 78
     2
 67
     7
 79
     5
170
     0
171
     0
290
     0
174
     0
 93
        1
 44
0.0
173
     0
291
     1
 45
0.0
1001
ACAD
1000
AcDbSavedByObjectVersion
1070
     0
  0
VISUALSTYLE
  5
2B9
102
{ACAD_REACTORS
330
12
102
}
330
12
100
AcDbVisualStyle
  2
Conceptual
 70
     9
 71
     3
 72
     2
 73
     0
 90
        0
 40
-0.6
 41
-30.0
 62
     5
 63
     7
 74
     2
 91
        2
 64
     7
 65
   257
 75
     1
175
     1
 42
40.0
 92
        8
 66
     7
 43
1.0
 76
     1
 77
     6
 78
     2
 67
     7
 79
     3
170
     0
171
     0
290
     0
174
     0
 93
        1
 44
0.0
173
     0
291
     0
 45
0.0
1001
ACAD
1000
AcDbSavedByObjectVersion
1070
     0
  0
VISUALSTYLE
  5
2BA
102
{ACAD_REACTORS
330
12
102
}
330
12
100
AcDbVisualStyle
  2
Dim
 70
    11
 71
     2
 72
     2
 73
     0
 90
        0
 40
-0.6
 41
-30.0
 62
     5
 63
     7
 74
     1
 91
        4
 64
     7
 65
   257
 75
     1
175
     1
 42
1.0
 92
        8
 66
     7
 43
1.0
 76
     1
 77
     6
 78
     2
 67
     7
 79
     5
170
     0
171
     0
290
     0
174
     0
 93
        1
 44
-50.0
173
     0
291
     1
 45
0.0
1001
ACAD
1000
AcDbSavedByObjectVersion
1070
     0
  0
VISUALSTYLE
  5
2BE
102
{ACAD_REACTORS
330
12
102
}
330
12
100
AcDbVisualStyle
  2
Facepattern
 70
    15
 71
     2
 72
     2
 73
     0
 90
        0
 40
-0.6
 41
-30.0
 62
     5
 63
     7
 74
     1
 91
        4
 64
     7
 65
   257
 75
     1
175
     1
 42
1.0
 92
        8
 66
     7
 43
1.0
 76
     1
 77
     6
 78
     2
 67
     7
 79
     5
170
     0
171
     0
290
     0
174
     0
 93
        1
 44
0.0
173
     0
291
     1
 45
0.0
1001
ACAD
1000
AcDbSavedByObjectVersion
1070
     0
  0
VISUALSTYLE
  5
2B3
102
{ACAD_REACTORS
330
12
102
}
330
12
100
AcDbVisualStyle
  2
Flat
 70
     0
 71
     2
 72
     1
 73
     1
 90
        2
 40
-0.6
 41
30.0
 62
     5
 63
     7
 74
     0
 91
        4
 64
     7
 65
   257
 75
     1
175
     1
 42
1.0
 92
        8
 66
     7
 43
1.0
 76
     1
 77
     6
 78
     2
 67
     7
 79
     5
170
     0
171
     0
290
     0
174
     0
 93
       13
 44
0.0
173
     0
291
     1
 45
0.0
1001
ACAD
1000
AcDbSavedByObjectVersion
1070
     0
  0
VISUALSTYLE
  5
2B4
102
{ACAD_REACTORS
330
12
102
}
330
12
100
AcDbVisualStyle
  2
FlatWithEdges
 70
     1
 71
     2
 72
     1
 73
     1
 90
        2
 40
-0.6
 41
30.0
 62
     5
 63
     7
 74
     1
 91
        4
 64
     7
 65
   257
 75
     1
175
     1
 42
1.0
 92
        0
 66
   257
 43
1.0
 76
     1
 77
     6
 78
     2
 67
     7
 79
     5
170
     0
171
     0
290
     0
174
     0
 93
       13
 44
0.0
173
     0
291
     1
 45
0.0
1001
ACAD
1000
AcDbSavedByObjectVersion
1070
     0
  0
VISUALSTYLE
  5
2B5
102
{ACAD_REACTORS
330
12
102
}
330
12
100
AcDbVisualStyle
  2
Gouraud
 70
     2
 71
     2
 72
     2
 73
     1
 90
        2
 40
-0.6
 41
30.0
 62
     5
 63
     7
 74
     0
 91
        4
 64
     7
 65
   257
 75
     1
175
     1
 42
1.0
 92
        0
 66
     7
 43
1.0
 76
     1
 77
     6
 78
     2
 67
     7
 79
     5
170
     0
171
     0
290
     0
174
     0
 93
       13
 44
0.0
173
     0
291
     1
 45
0.0
1001
ACAD
1000
AcDbSavedByObjectVersion
1070
     0
  0
VISUALSTYLE
  5
2B6
102
{ACAD_REACTORS
330
12
102
}
330
12
100
AcDbVisualStyle
  2
GouraudWithEdges
 70
     3
 71
     2
 72
     2
 73
     1
 90
        2
 40
-0.6
 41
30.0
 62
     5
 63
     7
 74
     1
 91
        4
 64
     7
 65
   257
 75
     1
175
     1
 42
1.0
 92
        0
 66
   257
 43
1.0
 76
     1
 77
     6
 78
     2
 67
     7
 79
     5
170
     0
171
     0
290
     0
174
     0
 93
       13
 44
0.0
173
     0
291
     1
 45
0.0
1001
ACAD
1000
AcDbSavedByObjectVersion
1070
     0
  0
VISUALSTYLE
  5
2BD
102
{ACAD_REACTORS
330
12
102
}
330
12
100
AcDbVisualStyle
  2
Linepattern
 70
    14
 71
     2
 72
     2
 73
     0
 90
        0
 40
-0.6
 41
-30.0
 62
     5
 63
     7
 74
     1
 91
        4
 64
     7
 65
   257
 75
     7
175
     7
 42
1.0
 92
        8
 66
     7
 43
1.0
 76
     1
 77
     6
 78
     2
 67
     7
 79
     5
170
     0
171
     0
290
     0
174
     0
 93
        1
 44
0.0
173
     0
291
     1
 45
0.0
1001
ACAD
1000
AcDbSavedByObjectVersion
1070
     0
  0
VISUALSTYLE
  5
41
102
{ACAD_REACTORS
330
12
102
}
330
12
100
AcDbVisualStyle
  2
Realistic
 70
     8
 71
     2
 72
     2
 73
     0
 90
        0
 40
-0.6
 41
-30.0
 62
     5
 63
     7
 74
     1
 91
        0
 64
     7
 65
   257
 75
     1
175
     1
 42
1.0
 92
        8
 66
     8
 43
1.0
 76
     1
 77
     6
 78
     2
 67
     7
 79
     5
170
     0
171
     0
290
     0
174
     0
 93
       13
 44
0.0
173
     0
291
     0
 45
0.0
1001
ACAD
1000
AcDbSavedByObjectVersion
1070
     0
  0
VISUALSTYLE
  5
2BC
102
{ACAD_REACTORS
330
12
102
}
330
12
100
AcDbVisualStyle
  2
Thicken
 70
    13
 71
     2
 72
     2
 73
     0
 90
        0
 40
-0.6
 41
-30.0
 62
     5
 63
     7
 74
     1
 91
        4
 64
     7
 65
   257
 75
     1
175
     1
 42
1.0
 92
       12
 66
     7
 43
1.0
 76
     1
 77
     6
 78
     2
 67
     7
 79
     5
170
     0
171
     0
290
     0
174
     0
 93
        1
 44
0.0
173
     0
291
     1
 45
0.0
1001
ACAD
1000
AcDbSavedByObjectVersion
1070
     0
  0
DICTIONARYVAR
  5
2AE
102
{ACAD_REACTORS
330
2AB
102
}
330
2AB
100
DictionaryVariables
280
     0
  1
1/8" = 1'-0"
  0
DICTIONARYVAR
  5
2AD
102
{ACAD_REACTORS
330
2AB
102
}
330
2AB
100
DictionaryVariables
280
     0
  1
STANDARD
  0
DICTIONARYVAR
  5
2AC
102
{ACAD_REACTORS
330
2AB
102
}
330
2AB
100
DictionaryVariables
280
     0
  1
STANDARD
  0
DICTIONARYVAR
  5
5CF
102
{ACAD_REACTORS
330
2AB
102
}
330
2AB
100
DictionaryVariables
280
     0
  1
1
  0
DICTIONARYVAR
  5
5CE
102
{ACAD_REACTORS
330
2AB
102
}
330
2AB
100
DictionaryVariables
280
     0
  1
1
  0
DICTIONARYVAR
  5
5CD
102
{ACAD_REACTORS
330
2AB
102
}
330
2AB
100
DictionaryVariables
280
     0
  1
0
  0
DICTIONARYVAR
  5
2B0
102
{ACAD_REACTORS
330
2AB
102
}
330
2AB
100
DictionaryVariables
280
     0
  1
1
  0
DICTIONARYVAR
  5
2B1
102
{ACAD_REACTORS
330
2AB
102
}
330
2AB
100
DictionaryVariables
280
     0
  1
15
  0
DICTIONARYVAR
  5
2AF
102
{ACAD_REACTORS
330
2AB
102
}
330
2AB
100
DictionaryVariables
280
     0
  1
0
  0
DICTIONARYVAR
  5
5CB
102
{ACAD_REACTORS
330
2AB
102
}
330
2AB
100
DictionaryVariables
280
     0
  1
1
  0
DICTIONARYVAR
  5
5CC
102
{ACAD_REACTORS
330
2AB
102
}
330
2AB
100
DictionaryVariables
280
     0
  1
127
  0
XRECORD
  5
2A8
102
{ACAD_REACTORS
330
2A6
102
}
330
2A6
100
AcDbXrecord
280
     1
330
4FC
330
4FD
330
4EC
330
4ED
330
4BA
330
4BB
330
4C1
330
4C2
330
4C8
330
4C9
330
4CF
330
4D0
330
4D6
330
4D7
330
4DD
330
4DE
330
4E4
330
4E5
330
4F4
330
4F5
330
502
330
503
330
509
330
50A
330
512
330
513
330
519
330
51A
330
520
330
521
330
527
330
528
330
530
330
531
330
537
330
538
330
53E
330
53F
330
547
330
548
330
54E
330
54F
330
555
330
556
330
55C
330
55D
330
563
330
564
330
56A
330
56B
330
573
330
574
330
57A
330
57B
330
581
330
582
330
588
330
589
330
58F
330
590
330
596
330
597
330
59E
330
59F
330
5A4
330
5A5
330
5AD
330
5AE
330
5B5
330
5B6
330
5BB
330
5BC
  0
DICTIONARY
  5
5D6
330
16
100
AcDbDictionary
280
     1
281
     1
  3
ACAD_XREC_ROUNDTRIP
360
5D7
  0
DICTIONARY
  5
5D4
330
E
100
AcDbDictionary
280
     1
281
     1
  3
ACAD_XREC_ROUNDTRIP
360
5D5
  0
DICTIONARY
  5
5DA
330
37
100
AcDbDictionary
280
     1
281
     1
  3
ACAD_XREC_ROUNDTRIP
360
5DB
  0
DICTIONARY
  5
5D8
330
36
100
AcDbDictionary
280
     1
281
     1
  3
ACAD_XREC_ROUNDTRIP
360
5D9
  0
DICTIONARY
  5
5D2
330
A
100
AcDbDictionary
280
     1
281
     1
  3
ACAD_XREC_ROUNDTRIP
360
5D3
  0
DICTIONARY
  5
40
330
3F
100
AcDbDictionary
280
     1
281
     1
  3
ACAD_ROUNDTRIP_2008_TABLESTYLE_CELLSTYLEMAP
360
5D0
  3
ACAD_XREC_ROUNDTRIP
360
5DC
  0
XRECORD
  5
5D7
102
{ACAD_REACTORS
330
5D6
102
}
330
5D6
100
AcDbXrecord
280
     1
102
SHADEPLOT
 70
     0
102
SHADEPLOTRESLEVEL
 70
     2
102
SHADEPLOTCUSTOMDPI
 70
   300
  0
XRECORD
  5
5D5
102
{ACAD_REACTORS
330
5D4
102
}
330
5D4
100
AcDbXrecord
280
     1
102
SHADEPLOT
 70
     1
102
SHADEPLOTRESLEVEL
 70
     2
102
SHADEPLOTCUSTOMDPI
 70
   300
  0
XRECORD
  5
5DB
102
{ACAD_REACTORS
330
5DA
102
}
330
5DA
100
AcDbXrecord
280
     1
102
MATERIAL
148
0.0
149
0.0
149
0.0
 93
        0
 94
       63
282
     0
 72
     1
 77
     1
171
     1
175
     1
179
     1
273
     0
  0
XRECORD
  5
5D9
102
{ACAD_REACTORS
330
5D8
102
}
330
5D8
100
AcDbXrecord
280
     1
102
MATERIAL
148
0.0
149
0.0
149
0.0
 93
        0
 94
       63
282
     0
 72
     1
 77
     1
171
     1
175
     1
179
     1
273
     0
  0
XRECORD
  5
5D3
102
{ACAD_REACTORS
330
5D2
102
}
330
5D2
100
AcDbXrecord
280
     1
102
MATERIAL
148
0.0
149
0.0
149
0.0
 93
        0
 94
       63
282
     0
 72
     1
 77
     1
171
     1
175
     1
179
     1
273
     0
  0
CELLSTYLEMAP
  5
5D0
102
{ACAD_REACTORS
330
40
102
}
330
40
100
AcDbCellStyleMap
 90
        3
300
CELLSTYLE
  1
TABLEFORMAT_BEGIN
 90
        5
170
     1
 91
        0
 92
    32768
 62
   257
 93
        1
300
CONTENTFORMAT
  1
CONTENTFORMAT_BEGIN
 90
        0
 91
        0
 92
        4
 93
        0
300

 40
0.0
140
1.0
 94
        5
 62
     0
340
1B
144
0.25
309
CONTENTFORMAT_END
171
     0
 94
        6
 95
        1
302
GRIDFORMAT
  1
GRIDFORMAT_BEGIN
 90
        0
 91
        1
 62
     0
 92
       -2
340
0
 93
        0
 40
0.045
309
GRIDFORMAT_END
 95
        2
302
GRIDFORMAT
  1
GRIDFORMAT_BEGIN
 90
        0
 91
        1
 62
     0
 92
       -2
340
0
 93
        0
 40
0.045
309
GRIDFORMAT_END
 95
        4
302
GRIDFORMAT
  1
GRIDFORMAT_BEGIN
 90
        0
 91
        1
 62
     0
 92
       -2
340
0
 93
        0
 40
0.045
309
GRIDFORMAT_END
 95
        8
302
GRIDFORMAT
  1
GRIDFORMAT_BEGIN
 90
        0
 91
        1
 62
     0
 92
       -2
340
0
 93
        0
 40
0.045
309
GRIDFORMAT_END
 95
       16
302
GRIDFORMAT
  1
GRIDFORMAT_BEGIN
 90
        0
 91
        1
 62
     0
 92
       -2
340
0
 93
        0
 40
0.045
309
GRIDFORMAT_END
 95
       32
302
GRIDFORMAT
  1
GRIDFORMAT_BEGIN
 90
        0
 91
        1
 62
     0
 92
       -2
340
0
 93
        0
 40
0.045
309
GRIDFORMAT_END
309
TABLEFORMAT_END
  1
CELLSTYLE_BEGIN
 90
        1
 91
        1
300
_TITLE
309
CELLSTYLE_END
300
CELLSTYLE
  1
TABLEFORMAT_BEGIN
 90
        5
170
     1
 91
        0
 92
        0
 62
   257
 93
        1
300
CONTENTFORMAT
  1
CONTENTFORMAT_BEGIN
 90
        0
 91
        0
 92
        4
 93
        0
300

 40
0.0
140
1.0
 94
        5
 62
     0
340
1B
144
0.18
309
CONTENTFORMAT_END
171
     0
 94
        6
 95
        1
302
GRIDFORMAT
  1
GRIDFORMAT_BEGIN
 90
        0
 91
        1
 62
     0
 92
       -2
340
0
 93
        0
 40
0.045
309
GRIDFORMAT_END
 95
        2
302
GRIDFORMAT
  1
GRIDFORMAT_BEGIN
 90
        0
 91
        1
 62
     0
 92
       -2
340
0
 93
        0
 40
0.045
309
GRIDFORMAT_END
 95
        4
302
GRIDFORMAT
  1
GRIDFORMAT_BEGIN
 90
        0
 91
        1
 62
     0
 92
       -2
340
0
 93
        0
 40
0.045
309
GRIDFORMAT_END
 95
        8
302
GRIDFORMAT
  1
GRIDFORMAT_BEGIN
 90
        0
 91
        1
 62
     0
 92
       -2
340
0
 93
        0
 40
0.045
309
GRIDFORMAT_END
 95
       16
302
GRIDFORMAT
  1
GRIDFORMAT_BEGIN
 90
        0
 91
        1
 62
     0
 92
       -2
340
0
 93
        0
 40
0.045
309
GRIDFORMAT_END
 95
       32
302
GRIDFORMAT
  1
GRIDFORMAT_BEGIN
 90
        0
 91
        1
 62
     0
 92
       -2
340
0
 93
        0
 40
0.045
309
GRIDFORMAT_END
309
TABLEFORMAT_END
  1
CELLSTYLE_BEGIN
 90
        2
 91
        1
300
_HEADER
309
CELLSTYLE_END
300
CELLSTYLE
  1
TABLEFORMAT_BEGIN
 90
        5
170
     1
 91
        0
 92
        0
 62
   257
 93
        1
300
CONTENTFORMAT
  1
CONTENTFORMAT_BEGIN
 90
        0
 91
        0
 92
        4
 93
        0
300

 40
0.0
140
1.0
 94
        2
 62
     0
340
1B
144
0.18
309
CONTENTFORMAT_END
171
     0
 94
        6
 95
        1
302
GRIDFORMAT
  1
GRIDFORMAT_BEGIN
 90
        0
 91
        1
 62
     0
 92
       -2
340
0
 93
        0
 40
0.045
309
GRIDFORMAT_END
 95
        2
302
GRIDFORMAT
  1
GRIDFORMAT_BEGIN
 90
        0
 91
        1
 62
     0
 92
       -2
340
0
 93
        0
 40
0.045
309
GRIDFORMAT_END
 95
        4
302
GRIDFORMAT
  1
GRIDFORMAT_BEGIN
 90
        0
 91
        1
 62
     0
 92
       -2
340
0
 93
        0
 40
0.045
309
GRIDFORMAT_END
 95
        8
302
GRIDFORMAT
  1
GRIDFORMAT_BEGIN
 90
        0
 91
        1
 62
     0
 92
       -2
340
0
 93
        0
 40
0.045
309
GRIDFORMAT_END
 95
       16
302
GRIDFORMAT
  1
GRIDFORMAT_BEGIN
 90
        0
 91
        1
 62
     0
 92
       -2
340
0
 93
        0
 40
0.045
309
GRIDFORMAT_END
 95
       32
302
GRIDFORMAT
  1
GRIDFORMAT_BEGIN
 90
        0
 91
        1
 62
     0
 92
       -2
340
0
 93
        0
 40
0.045
309
GRIDFORMAT_END
309
TABLEFORMAT_END
  1
CELLSTYLE_BEGIN
 90
        3
 91
        2
300
_DATA
309
CELLSTYLE_END
  0
XRECORD
  5
5DC
102
{ACAD_REACTORS
330
40
102
}
330
40
100
AcDbXrecord
280
     1
102
ACAD_ROUNDTRIP_PRE2007_TABLESTYLE
 90
        4
 91
        0
  1

 92
        4
 93
        0
  2

 94
        4
 95
        0
  3

  0
ENDSEC
  0
EOF
