  0
SECTION
  2
HEADER
  9
$ACADVER
  1
AC1015
  9
$ACADMAINTVER
 70
    20
  9
$DWGCODEPAGE
  3
ANSI_1250
  9
$INSBASE
 10
9677.351579171606
 20
1189.596440029025
 30
0.0000000000031697
  9
$EXTMIN
 10
67877.80441687119
 20
-12830.83167067901
 30
-0.0000000000000151
  9
$EXTMAX
 10
78083.71400943477
 20
1190.024042212615
 30
0.0000000000000001
  9
$LIMMIN
 10
0.0
 20
0.0
  9
$LIMMAX
 10
12.0
 20
9.0
  9
$ORTHOMODE
 70
     1
  9
$REGENMODE
 70
     1
  9
$FILLMODE
 70
     1
  9
$QTEXTMODE
 70
     0
  9
$MIRRTEXT
 70
     0
  9
$LTSCALE
 40
75.0
  9
$ATTMODE
 70
     1
  9
$TEXTSIZE
 40
0.2
  9
$TRACEWID
 40
40.0
  9
$TEXTSTYLE
  7
STANDARD
  9
$CLAYER
  8
0Wymiary-PL
  9
$CELTYPE
  6
BYLAYER
  9
$CECOLOR
 62
    54
  9
$CELTSCALE
 40
4.0
  9
$DISPSILH
 70
     0
  9
$DIMSCALE
 40
1.0
  9
$DIMASZ
 40
30.0
  9
$DIMEXO
 40
43.0
  9
$DIMDLI
 40
0.0
  9
$DIMRND
 40
0.5
  9
$DIMDLE
 40
12.0
  9
$DIMEXE
 40
13.0
  9
$DIMTP
 40
0.0
  9
$DIMTM
 40
0.0
  9
$DIMTXT
 40
80.0
  9
$DIMCEN
 40
0.0
  9
$DIMTSZ
 40
0.0
  9
$DIMTOL
 70
     0
  9
$DIMLIM
 70
     0
  9
$DIMTIH
 70
     0
  9
$DIMTOH
 70
     0
  9
$DIMSE1
 70
     1
  9
$DIMSE2
 70
     1
  9
$DIMTAD
 70
     0
  9
$DIMZIN
 70
    12
  9
$DIMBLK
  1
B-DIM
  9
$DIMASO
 70
     1
  9
$DIMSHO
 70
     1
  9
$DIMPOST
  1

  9
$DIMAPOST
  1

  9
$DIMALT
 70
     0
  9
$DIMALTD
 70
     2
  9
$DIMALTF
 40
25.4
  9
$DIMLFAC
 40
1.0
  9
$DIMTOFL
 70
     1
  9
$DIMTVP
 40
1.0
  9
$DIMTIX
 70
     1
  9
$DIMSOXD
 70
     0
  9
$DIMSAH
 70
     0
  9
$DIMBLK1
  1

  9
$DIMBLK2
  1

  9
$DIMSTYLE
  2
500
  9
$DIMCLRD
 70
     1
  9
$DIMCLRE
 70
     1
  9
$DIMCLRT
 70
   140
  9
$DIMTFAC
 40
1.0
  9
$DIMGAP
 40
0.0
  9
$DIMJUST
 70
     0
  9
$DIMSD1
 70
     0
  9
$DIMSD2
 70
     0
  9
$DIMTOLJ
 70
     1
  9
$DIMTZIN
 70
     0
  9
$DIMALTZ
 70
     0
  9
$DIMALTTZ
 70
     0
  9
$DIMUPT
 70
     0
  9
$DIMDEC
 70
     1
  9
$DIMTDEC
 70
     1
  9
$DIMALTU
 70
     2
  9
$DIMALTTD
 70
     2
  9
$DIMTXSTY
  7
ROMANS
  9
$DIMAUNIT
 70
     0
  9
$DIMADEC
 70
     0
  9
$DIMALTRND
 40
0.0
  9
$DIMAZIN
 70
     0
  9
$DIMDSEP
 70
    46
  9
$DIMATFIT
 70
     3
  9
$DIMFRAC
 70
     0
  9
$DIMLDRBLK
  1
B-DIM
  9
$DIMLUNIT
 70
     2
  9
$DIMLWD
 70
    -2
  9
$DIMLWE
 70
    -2
  9
$DIMTMOVE
 70
     2
  9
$LUNITS
 70
     2
  9
$LUPREC
 70
     2
  9
$SKETCHINC
 40
0.1
  9
$FILLETRAD
 40
0.0
  9
$AUNITS
 70
     0
  9
$AUPREC
 70
     1
  9
$MENU
  1
acad
  9
$ELEVATION
 40
0.0
  9
$PELEVATION
 40
0.0
  9
$THICKNESS
 40
0.0
  9
$LIMCHECK
 70
     0
  9
$CHAMFERA
 40
30.0
  9
$CHAMFERB
 40
30.0
  9
$CHAMFERC
 40
0.0
  9
$CHAMFERD
 40
0.0
  9
$SKPOLY
 70
     0
  9
$TDCREATE
 40
2450817.525937848
  9
$TDUCREATE
 40
2450817.442604514
  9
$TDUPDATE
 40
2454974.696012187
  9
$TDUUPDATE
 40
2454974.612678854
  9
$TDINDWG
 40
21.7516477662
  9
$TDUSRTIMER
 40
21.7516477662
  9
$USRTIMER
 70
     1
  9
$ANGBASE
 50
0.0
  9
$ANGDIR
 70
     0
  9
$PDMODE
 70
     3
  9
$PDSIZE
 40
10.0
  9
$PLINEWID
 40
60.0
  9
$SPLFRAME
 70
     0
  9
$SPLINETYPE
 70
     6
  9
$SPLINESEGS
 70
     8
  9
$HANDSEED
  5
2921
  9
$SURFTAB1
 70
     6
  9
$SURFTAB2
 70
     6
  9
$SURFTYPE
 70
     6
  9
$SURFU
 70
     6
  9
$SURFV
 70
     6
  9
$UCSBASE
  2

  9
$UCSNAME
  2

  9
$UCSORG
 10
0.0
 20
0.0
 30
0.0
  9
$UCSXDIR
 10
1.0
 20
0.0
 30
0.0
  9
$UCSYDIR
 10
0.0
 20
1.0
 30
0.0
  9
$UCSORTHOREF
  2

  9
$UCSORTHOVIEW
 70
     0
  9
$UCSORGTOP
 10
0.0
 20
0.0
 30
0.0
  9
$UCSORGBOTTOM
 10
0.0
 20
0.0
 30
0.0
  9
$UCSORGLEFT
 10
0.0
 20
0.0
 30
0.0
  9
$UCSORGRIGHT
 10
0.0
 20
0.0
 30
0.0
  9
$UCSORGFRONT
 10
0.0
 20
0.0
 30
0.0
  9
$UCSORGBACK
 10
0.0
 20
0.0
 30
0.0
  9
$PUCSBASE
  2

  9
$PUCSNAME
  2

  9
$PUCSORG
 10
0.0
 20
0.0
 30
0.0
  9
$PUCSXDIR
 10
1.0
 20
0.0
 30
0.0
  9
$PUCSYDIR
 10
0.0
 20
1.0
 30
0.0
  9
$PUCSORTHOREF
  2

  9
$PUCSORTHOVIEW
 70
     0
  9
$PUCSORGTOP
 10
0.0
 20
0.0
 30
0.0
  9
$PUCSORGBOTTOM
 10
0.0
 20
0.0
 30
0.0
  9
$PUCSORGLEFT
 10
0.0
 20
0.0
 30
0.0
  9
$PUCSORGRIGHT
 10
0.0
 20
0.0
 30
0.0
  9
$PUCSORGFRONT
 10
0.0
 20
0.0
 30
0.0
  9
$PUCSORGBACK
 10
0.0
 20
0.0
 30
0.0
  9
$USERI1
 70
     0
  9
$USERI2
 70
     0
  9
$USERI3
 70
     0
  9
$USERI4
 70
     0
  9
$USERI5
 70
     0
  9
$USERR1
 40
0.0
  9
$USERR2
 40
0.0
  9
$USERR3
 40
0.0
  9
$USERR4
 40
0.0
  9
$USERR5
 40
0.0
  9
$WORLDVIEW
 70
     1
  9
$SHADEDGE
 70
     3
  9
$SHADEDIF
 70
    70
  9
$TILEMODE
 70
     1
  9
$MAXACTVP
 70
    16
  9
$PINSBASE
 10
0.0
 20
0.0
 30
0.0
  9
$PLIMCHECK
 70
     0
  9
$PEXTMIN
 10
0.0
 20
0.0
 30
0.0
  9
$PEXTMAX
 10
0.0
 20
0.0
 30
0.0
  9
$PLIMMIN
 10
0.0
 20
0.0
  9
$PLIMMAX
 10
12.0
 20
9.0
  9
$UNITMODE
 70
     0
  9
$VISRETAIN
 70
     0
  9
$PLINEGEN
 70
     0
  9
$PSLTSCALE
 70
     1
  9
$TREEDEPTH
 70
  3020
  9
$CMLSTYLE
  2
STANDARD
  9
$CMLJUST
 70
     0
  9
$CMLSCALE
 40
1.0
  9
$PROXYGRAPHICS
 70
     1
  9
$MEASUREMENT
 70
     0
  9
$CELWEIGHT
370
    -1
  9
$ENDCAPS
280
     0
  9
$JOINSTYLE
280
     0
  9
$LWDISPLAY
290
     0
  9
$INSUNITS
 70
     0
  9
$HYPERLINKBASE
  1

  9
$STYLESHEET
  1
monochrome_140.ctb
  9
$XEDIT
290
     1
  9
$CEPSNTYPE
380
     0
  9
$PSTYLEMODE
290
     1
  9
$FINGERPRINTGUID
  2
{2D5E65A9-1F91-4A53-BA94-481E1C74241D}
  9
$VERSIONGUID
  2
{78E347AF-9CB3-4442-9FAD-7DF287F27AC3}
  9
$EXTNAMES
290
     1
  9
$PSVPSCALE
 40
0.0
  9
$OLESTARTUP
290
     0
  0
ENDSEC
  0
SECTION
  2
CLASSES
  0
CLASS
  1
DICTIONARYVAR
  2
AcDbDictionaryVar
  3
ObjectDBX Classes
 90
        0
280
     0
281
     0
  0
CLASS
  1
ACDBDICTIONARYWDFLT
  2
AcDbDictionaryWithDefault
  3
ObjectDBX Classes
 90
        0
280
     0
281
     0
  0
CLASS
  1
ACDBPLACEHOLDER
  2
AcDbPlaceHolder
  3
ObjectDBX Classes
 90
        0
280
     0
281
     0
  0
CLASS
  1
LAYOUT
  2
AcDbLayout
  3
ObjectDBX Classes
 90
        0
280
     0
281
     0
  0
CLASS
  1
AEC_VARS_DWG_SETUP
  2
AecDbVarsDwgSetup
  3
AecBase50|Product Desc: Autodesk Architectural Desktop 2007 |Company: Autodesk,Inc. |WEB Address: www.autodesk.com
 90
    32897
280
     0
281
     0
  0
CLASS
  1
AEC_DISP_REP_CONFIG
  2
AecDbDispRepConfig
  3
AecBase50|Product Desc: Autodesk Architectural Desktop 2007 |Company: Autodesk,Inc. |WEB Address: www.autodesk.com
 90
    32897
280
     0
281
     0
  0
CLASS
  1
AEC_DISP_REP_SET
  2
AecDbDispRepSet
  3
AecBase50|Product Desc: Autodesk Architectural Desktop 2007 |Company: Autodesk,Inc. |WEB Address: www.autodesk.com
 90
    32897
280
     0
281
     0
  0
CLASS
  1
AEC_DISP_REP_2D_SECTION
  2
AecDbDispRep2dSection
  3
AecBase50|Product Desc: Autodesk Architectural Desktop 2007 |Company: Autodesk,Inc. |WEB Address: www.autodesk.com
 90
    32897
280
     0
281
     0
  0
CLASS
  1
AEC_DISP_REP_ANCHOR_BUB_TO_GRID
  2
AecDbDispRepAnchorBubToGrid
  3
AecStructureBase50|Product Desc: Autodesk Architectural Desktop 2007 |Company: Autodesk,Inc. |WEB Address: www.autodesk.com
 90
    32897
280
     0
281
     0
  0
CLASS
  1
AEC_DISP_REP_ANCHOR_BUB_TO_GRID_MODEL
  2
AecDbDispRepAnchorBubToGridMdl
  3
AecStructureBase50|Product Desc: Autodesk Architectural Desktop 2007 |Company: Autodesk,Inc. |WEB Address: www.autodesk.com
 90
    32897
280
     0
281
     0
  0
CLASS
  1
AEC_DISP_REP_ANCHOR_ENT_TO_NODE
  2
AecDbDispRepAnchorEntToNode
  3
AecBase50|Product Desc: Autodesk Architectural Desktop 2007 |Company: Autodesk,Inc. |WEB Address: www.autodesk.com
 90
    32897
280
     0
281
     0
  0
CLASS
  1
AEC_DISP_REP_ANCHOR_TAG_TO_ENT
  2
AecDbDispRepAnchorTagToEnt
  3
AecScheduleData50|Product Desc: Autodesk Architectural Desktop 2007 |Company: Autodesk,Inc. |WEB Address: www.autodesk.com
 90
    32897
280
     0
281
     0
  0
CLASS
  1
AEC_DISP_REP_AREA
  2
AecDbDispRepArea
  3
AecAreaCalculationBase50|Product Desc: Autodesk Architectural Desktop 2007 |Company: Autodesk,Inc. |WEB Address: www.autodesk.com
 90
    32897
280
     0
281
     0
  0
CLASS
  1
AEC_DISP_REP_AREA_DECOMPOSED
  2
AecDbDispRepAreaDecomposed
  3
AecAreaCalculationBase50|Product Desc: Autodesk Architectural Desktop 2007 |Company: Autodesk,Inc. |WEB Address: www.autodesk.com
 90
    32897
280
     0
281
     0
  0
CLASS
  1
AEC_DISP_REP_AREAGROUP
  2
AecDbDispRepAreaGroup
  3
AecAreaCalculationBase50|Product Desc: Autodesk Architectural Desktop 2007 |Company: Autodesk,Inc. |WEB Address: www.autodesk.com
 90
    32897
280
     0
281
     0
  0
CLASS
  1
AEC_DISP_REP_BDG_ELEVLINE_MODEL
  2
AecDbDispRepBdgElevLineModel
  3
AecArchBase50|Product Desc: Autodesk Architectural Desktop 2007 |Company: Autodesk,Inc. |WEB Address: www.autodesk.com
 90
    32897
280
     0
281
     0
  0
CLASS
  1
AEC_DISP_REP_BDG_SECTIONLINE_PLAN
  2
AecDbDispRepBdgElevLinePlan
  3
AecArchBase50|Product Desc: Autodesk Architectural Desktop 2007 |Company: Autodesk,Inc. |WEB Address: www.autodesk.com
 90
    32897
280
     0
281
     0
  0
CLASS
  1
AEC_DISP_REP_BDG_SECTIONLINE_MODEL
  2
AecDbDispRepBdgSectionLineModel
  3
AecArchBase50|Product Desc: Autodesk Architectural Desktop 2007 |Company: Autodesk,Inc. |WEB Address: www.autodesk.com
 90
    32897
280
     0
281
     0
  0
CLASS
  1
AEC_DISP_REP_BDG_SECTIONLINE_PLAN
  2
AecDbDispRepBdgSectionLinePlan
  3
AecArchBase50|Product Desc: Autodesk Architectural Desktop 2007 |Company: Autodesk,Inc. |WEB Address: www.autodesk.com
 90
    32897
280
     0
281
     0
  0
CLASS
  1
AEC_DISP_REP_BDG_SECTION_SUBDIV
  2
AecDbDispRepBdgSectionSubDiv
  3
AecArchBase50|Product Desc: Autodesk Architectural Desktop 2007 |Company: Autodesk,Inc. |WEB Address: www.autodesk.com
 90
    32897
280
     0
281
     0
  0
CLASS
  1
AEC_DISP_REP_CAMERA
  2
AecDbDispRepCamera
  3
AecBase50|Product Desc: Autodesk Architectural Desktop 2007 |Company: Autodesk,Inc. |WEB Address: www.autodesk.com
 90
    32897
280
     0
281
     0
  0
CLASS
  1
AEC_DISP_REP_CEILING_GRID
  2
AecDbDispRepCeilingGrid
  3
AecArchBase50|Product Desc: Autodesk Architectural Desktop 2007 |Company: Autodesk,Inc. |WEB Address: www.autodesk.com
 90
    33661
280
     0
281
     0
  0
CLASS
  1
AEC_DISP_REP_CEILING_GRID_MODEL
  2
AecDbDispRepCeilingGridModel
  3
AecArchBase50|Product Desc: Autodesk Architectural Desktop 2007 |Company: Autodesk,Inc. |WEB Address: www.autodesk.com
 90
    32897
280
     0
281
     0
  0
CLASS
  1
AEC_DISP_REP_CEILING_GRID_RCP
  2
AecDbDispRepCeilingGridRcp
  3
AecArchBase50|Product Desc: Autodesk Architectural Desktop 2007 |Company: Autodesk,Inc. |WEB Address: www.autodesk.com
 90
    32897
280
     0
281
     0
  0
CLASS
  1
AEC_DISP_REP_CLIP_VOLUME_MODEL
  2
AecDbDispRepClipVolModel
  3
AecBase50|Product Desc: Autodesk Architectural Desktop 2007 |Company: Autodesk,Inc. |WEB Address: www.autodesk.com
 90
    32897
280
     0
281
     0
  0
CLASS
  1
AEC_DISP_REP_CLIP_VOLUME_PLAN
  2
AecDbDispRepClipVolPlan
  3
AecBase50|Product Desc: Autodesk Architectural Desktop 2007 |Company: Autodesk,Inc. |WEB Address: www.autodesk.com
 90
    32897
280
     0
281
     0
  0
CLASS
  1
AEC_DISP_REP_CLIP_VOLUME_RESULT_SUBDIV
  2
AecDbDispRepClipVolResSubDiv
  3
AecBase50|Product Desc: Autodesk Architectural Desktop 2007 |Company: Autodesk,Inc. |WEB Address: www.autodesk.com
 90
    32897
280
     0
281
     0
  0
CLASS
  1
AEC_DISP_REP_CLIP_VOLUME_RESULT
  2
AecDbDispRepClipVolResult
  3
AecBase50|Product Desc: Autodesk Architectural Desktop 2007 |Company: Autodesk,Inc. |WEB Address: www.autodesk.com
 90
    32897
280
     0
281
     0
  0
CLASS
  1
AEC_DISP_REP_COLUMN_GRID
  2
AecDbDispRepColumnGrid
  3
AecStructureBase50|Product Desc: Autodesk Architectural Desktop 2007 |Company: Autodesk,Inc. |WEB Address: www.autodesk.com
 90
    32897
280
     0
281
     0
  0
CLASS
  1
AEC_DISP_REP_COLUMN_GRID_MODEL
  2
AecDbDispRepColumnGridModel
  3
AecStructureBase50|Product Desc: Autodesk Architectural Desktop 2007 |Company: Autodesk,Inc. |WEB Address: www.autodesk.com
 90
    32897
280
     0
281
     0
  0
CLASS
  1
AEC_DISP_REP_CURTAIN_WALL_LAYOUT_MODEL
  2
AecDbDispRepCurtainWallLayoutModel
  3
AecArchBase50|Product Desc: Autodesk Architectural Desktop 2007 |Company: Autodesk,Inc. |WEB Address: www.autodesk.com
 90
    32897
280
     0
281
     0
  0
CLASS
  1
AEC_DISP_REP_CURTAIN_WALL_LAYOUT_PLAN
  2
AecDbDispRepCurtainWallLayoutPlan
  3
AecArchBase50|Product Desc: Autodesk Architectural Desktop 2007 |Company: Autodesk,Inc. |WEB Address: www.autodesk.com
 90
    32897
280
     0
281
     0
  0
CLASS
  1
AEC_DISP_REP_CURTAIN_WALL_UNIT_MODEL
  2
AecDbDispRepCurtainWallUnitModel
  3
AecArchBase50|Product Desc: Autodesk Architectural Desktop 2007 |Company: Autodesk,Inc. |WEB Address: www.autodesk.com
 90
    32897
280
     0
281
     0
  0
CLASS
  1
AEC_DISP_REP_CURTAIN_WALL_UNIT_PLAN
  2
AecDbDispRepCurtainWallUnitPlan
  3
AecArchBase50|Product Desc: Autodesk Architectural Desktop 2007 |Company: Autodesk,Inc. |WEB Address: www.autodesk.com
 90
    32897
280
     0
281
     0
  0
CLASS
  1
AEC_DB_DISP_REP_DIM_GROUP_PLAN
  2
AecDbDispRepDimGroupPlan
  3
AecArchDACHBase50|Product Desc: Autodesk Architectural Desktop 2007 |Company: Autodesk,Inc. |WEB Address: www.autodesk.com
 90
    32897
280
     0
281
     0
  0
CLASS
  1
AEC_DISP_REP_DOOR_MODEL
  2
AecDbDispRepDoorModel
  3
AecArchBase50|Product Desc: Autodesk Architectural Desktop 2007 |Company: Autodesk,Inc. |WEB Address: www.autodesk.com
 90
    32897
280
     0
281
     0
  0
CLASS
  1
AEC_DISP_REP_DOOR_NOMINAL
  2
AecDbDispRepDoorNominal
  3
AecArchBase50|Product Desc: Autodesk Architectural Desktop 2007 |Company: Autodesk,Inc. |WEB Address: www.autodesk.com
 90
    32897
280
     0
281
     0
  0
CLASS
  1
AEC_DISP_REP_DOOR_PLAN
  2
AecDbDispRepDoorPlan
  3
AecArchBase50|Product Desc: Autodesk Architectural Desktop 2007 |Company: Autodesk,Inc. |WEB Address: www.autodesk.com
 90
    32897
280
     0
281
     0
  0
CLASS
  1
AEC_DISP_REP_EDITINPLACEPROFILE
  2
AecDbDispRepEditInPlaceProfile
  3
AecBase50|Product Desc: Autodesk Architectural Desktop 2007 |Company: Autodesk,Inc. |WEB Address: www.autodesk.com
 90
    32897
280
     0
281
     0
  0
CLASS
  1
AEC_DISP_REP_ENT_REF
  2
AecDbDispRepEntRef
  3
AecBase50|Product Desc: Autodesk Architectural Desktop 2007 |Company: Autodesk,Inc. |WEB Address: www.autodesk.com
 90
    32897
280
     0
281
     0
  0
CLASS
  1
AEC_DISP_REP_LAYOUT_CURVE
  2
AecDbDispRepLayoutCurve
  3
AecBase50|Product Desc: Autodesk Architectural Desktop 2007 |Company: Autodesk,Inc. |WEB Address: www.autodesk.com
 90
    32897
280
     0
281
     0
  0
CLASS
  1
AEC_DISP_REP_LAYOUT_GRID2D
  2
AecDbDispRepLayoutGrid2d
  3
AecBase50|Product Desc: Autodesk Architectural Desktop 2007 |Company: Autodesk,Inc. |WEB Address: www.autodesk.com
 90
    32897
280
     0
281
     0
  0
CLASS
  1
AEC_DISP_REP_LAYOUT_GRID3D
  2
AecDbDispRepLayoutGrid3d
  3
AecBase50|Product Desc: Autodesk Architectural Desktop 2007 |Company: Autodesk,Inc. |WEB Address: www.autodesk.com
 90
    32897
280
     0
281
     0
  0
CLASS
  1
AEC_DISP_REP_MASKBLOCK_REF
  2
AecDbDispRepMaskBlockRef
  3
AecBase50|Product Desc: Autodesk Architectural Desktop 2007 |Company: Autodesk,Inc. |WEB Address: www.autodesk.com
 90
    32897
280
     0
281
     0
  0
CLASS
  1
AEC_DISP_REP_MASKBLOCK_REF_RCP
  2
AecDbDispRepMaskBlockRefRcp
  3
AecArchBase50|Product Desc: Autodesk Architectural Desktop 2007 |Company: Autodesk,Inc. |WEB Address: www.autodesk.com
 90
    32897
280
     0
281
     0
  0
CLASS
  1
AEC_DISP_REP_MASS_ELEM_MODEL
  2
AecDbDispRepMassElemModel
  3
AecBaseEx50|Product Desc: Autodesk Architectural Desktop 2007 |Company: Autodesk,Inc. |WEB Address: www.autodesk.com
 90
    32897
280
     0
281
     0
  0
CLASS
  1
AEC_DISP_REP_MASS_ELEM_SCHEM
  2
AecDbDispRepMassElemSchem
  3
AecBaseEx50|Product Desc: Autodesk Architectural Desktop 2007 |Company: Autodesk,Inc. |WEB Address: www.autodesk.com
 90
    32897
280
     0
281
     0
  0
CLASS
  1
AEC_DISP_REP_MASS_GROUP_MODEL
  2
AecDbDispRepMassGroupModel
  3
AecBaseEx50|Product Desc: Autodesk Architectural Desktop 2007 |Company: Autodesk,Inc. |WEB Address: www.autodesk.com
 90
    32897
280
     0
281
     0
  0
CLASS
  1
AEC_DISP_REP_MASS_GROUP_PLAN
  2
AecDbDispRepMassGroupPlan
  3
AecBaseEx50|Product Desc: Autodesk Architectural Desktop 2007 |Company: Autodesk,Inc. |WEB Address: www.autodesk.com
 90
    32897
280
     0
281
     0
  0
CLASS
  1
AEC_DISP_REP_MATERIAL
  2
AecDbDispRepMaterial
  3
AecBase50|Product Desc: Autodesk Architectural Desktop 2007 |Company: Autodesk,Inc. |WEB Address: www.autodesk.com
 90
    32897
280
     0
281
     0
  0
CLASS
  1
AEC_DISP_REP_MVBLOCK_REF
  2
AecDbDispRepMvBlockRef
  3
AecBase50|Product Desc: Autodesk Architectural Desktop 2007 |Company: Autodesk,Inc. |WEB Address: www.autodesk.com
 90
    32897
280
     0
281
     0
  0
CLASS
  1
AEC_DISP_REP_MVBLOCK_REF_MODEL
  2
AecDbDispRepMvBlockRefModel
  3
AecBase50|Product Desc: Autodesk Architectural Desktop 2007 |Company: Autodesk,Inc. |WEB Address: www.autodesk.com
 90
    32897
280
     0
281
     0
  0
CLASS
  1
AEC_DISP_REP_OPENING
  2
AecDbDispRepOpening
  3
AecArchBase50|Product Desc: Autodesk Architectural Desktop 2007 |Company: Autodesk,Inc. |WEB Address: www.autodesk.com
 90
    32897
280
     0
281
     0
  0
CLASS
  1
AEC_DISP_REP_OPENING_MODEL
  2
AecDbDispRepOpeningModel
  3
AecArchBase50|Product Desc: Autodesk Architectural Desktop 2007 |Company: Autodesk,Inc. |WEB Address: www.autodesk.com
 90
    32897
280
     0
281
     0
  0
CLASS
  1
AEC_DISP_REP_POLYGON_MODEL
  2
AecDbDispRepPolygonModel
  3
AecBase50|Product Desc: Autodesk Architectural Desktop 2007 |Company: Autodesk,Inc. |WEB Address: www.autodesk.com
 90
    32897
280
     0
281
     0
  0
CLASS
  1
AEC_DISP_REP_RAILING_MODEL
  2
AecDbDispRepRailingModel
  3
AecArchBase50|Product Desc: Autodesk Architectural Desktop 2007 |Company: Autodesk,Inc. |WEB Address: www.autodesk.com
 90
    32897
280
     0
281
     0
  0
CLASS
  1
AEC_DISP_REP_RAILING_PLAN
  2
AecDbDispRepRailingPlan
  3
AecArchBase50|Product Desc: Autodesk Architectural Desktop 2007 |Company: Autodesk,Inc. |WEB Address: www.autodesk.com
 90
    32897
280
     0
281
     0
  0
CLASS
  1
AEC_DISP_REP_ROOF_MODEL
  2
AecDbDispRepRoofModel
  3
AecArchBase50|Product Desc: Autodesk Architectural Desktop 2007 |Company: Autodesk,Inc. |WEB Address: www.autodesk.com
 90
    32897
280
     0
281
     0
  0
CLASS
  1
AEC_DISP_REP_ROOF_PLAN
  2
AecDbDispRepRoofPlan
  3
AecArchBase50|Product Desc: Autodesk Architectural Desktop 2007 |Company: Autodesk,Inc. |WEB Address: www.autodesk.com
 90
    32897
280
     0
281
     0
  0
CLASS
  1
AEC_DISP_REP_ROOFSLAB_MODEL
  2
AecDbDispRepRoofSlabModel
  3
AecArchBase50|Product Desc: Autodesk Architectural Desktop 2007 |Company: Autodesk,Inc. |WEB Address: www.autodesk.com
 90
    32897
280
     0
281
     0
  0
CLASS
  1
AEC_DISP_REP_ROOFSLAB_PLAN
  2
AecDbDispRepRoofSlabPlan
  3
AecArchBase50|Product Desc: Autodesk Architectural Desktop 2007 |Company: Autodesk,Inc. |WEB Address: www.autodesk.com
 90
    32897
280
     0
281
     0
  0
CLASS
  1
AEC_DISP_REP_SCHEDULE_TABLE
  2
AecDbDispRepScheduleTable
  3
AecSchedule50|Product Desc: Autodesk Architectural Desktop 2007 |Company: Autodesk,Inc. |WEB Address: www.autodesk.com
 90
    32897
280
     0
281
     0
  0
CLASS
  1
AEC_DISP_REP_SLAB_MODEL
  2
AecDbDispRepSlabModel
  3
AecArchBase50|Product Desc: Autodesk Architectural Desktop 2007 |Company: Autodesk,Inc. |WEB Address: www.autodesk.com
 90
    32897
280
     0
281
     0
  0
CLASS
  1
AEC_DISP_REP_SLAB_PLAN
  2
AecDbDispRepSlabPlan
  3
AecArchBase50|Product Desc: Autodesk Architectural Desktop 2007 |Company: Autodesk,Inc. |WEB Address: www.autodesk.com
 90
    32897
280
     0
281
     0
  0
CLASS
  1
AEC_DISP_REP_SLICE
  2
AecDbDispRepSlice
  3
AecBase50|Product Desc: Autodesk Architectural Desktop 2007 |Company: Autodesk,Inc. |WEB Address: www.autodesk.com
 90
    32897
280
     0
281
     0
  0
CLASS
  1
AEC_DISP_REP_SPACE_BOUNDARY_MODEL
  2
AecDbDispRepSpaceBoundaryModel
  3
AecArchBase50|Product Desc: Autodesk Architectural Desktop 2007 |Company: Autodesk,Inc. |WEB Address: www.autodesk.com
 90
    32897
280
     0
281
     0
  0
CLASS
  1
AEC_DISP_REP_SPACE_BOUNDARY_PLAN
  2
AecDbDispRepSpaceBoundaryPlan
  3
AecArchBase50|Product Desc: Autodesk Architectural Desktop 2007 |Company: Autodesk,Inc. |WEB Address: www.autodesk.com
 90
    32897
280
     0
281
     0
  0
CLASS
  1
AEC_DISP_REP_SPACE_BOUNDARY_SCHEM
  2
AecDbDispRepSpaceBoundarySketch
  3
AecArchBase50|Product Desc: Autodesk Architectural Desktop 2007 |Company: Autodesk,Inc. |WEB Address: www.autodesk.com
 90
    32897
280
     0
281
     0
  0
CLASS
  1
AEC_DISP_REP_SPACE_MODEL
  2
AecDbDispRepSpaceModel
  3
AecArchBase50|Product Desc: Autodesk Architectural Desktop 2007 |Company: Autodesk,Inc. |WEB Address: www.autodesk.com
 90
    32897
280
     0
281
     0
  0
CLASS
  1
AEC_DISP_REP_SPACE_PLAN
  2
AecDbDispRepSpacePlan
  3
AecArchBase50|Product Desc: Autodesk Architectural Desktop 2007 |Company: Autodesk,Inc. |WEB Address: www.autodesk.com
 90
    32897
280
     0
281
     0
  0
CLASS
  1
AEC_DISP_REP_STAIR_MODEL
  2
AecDbDispRepStairModel
  3
AecArchBase50|Product Desc: Autodesk Architectural Desktop 2007 |Company: Autodesk,Inc. |WEB Address: www.autodesk.com
 90
    32897
280
     0
281
     0
  0
CLASS
  1
AEC_DISP_REP_STAIR_PLAN
  2
AecDbDispRepStairPlan
  3
AecArchBase50|Product Desc: Autodesk Architectural Desktop 2007 |Company: Autodesk,Inc. |WEB Address: www.autodesk.com
 90
    32897
280
     0
281
     0
  0
CLASS
  1
AEC_DISP_REP_WALL_GRAPH
  2
AecDbDispRepWallGraph
  3
AecArchBase50|Product Desc: Autodesk Architectural Desktop 2007 |Company: Autodesk,Inc. |WEB Address: www.autodesk.com
 90
    32897
280
     0
281
     0
  0
CLASS
  1
AEC_DISP_REP_WALL_MODEL
  2
AecDbDispRepWallModel
  3
AecArchBase50|Product Desc: Autodesk Architectural Desktop 2007 |Company: Autodesk,Inc. |WEB Address: www.autodesk.com
 90
    32897
280
     0
281
     0
  0
CLASS
  1
AEC_DISP_REP_WALL_PLAN
  2
AecDbDispRepWallPlan
  3
AecArchBase50|Product Desc: Autodesk Architectural Desktop 2007 |Company: Autodesk,Inc. |WEB Address: www.autodesk.com
 90
    32897
280
     0
281
     0
  0
CLASS
  1
AEC_DISP_REP_WALL_SCHEM
  2
AecDbDispRepWallSchem
  3
AecArchBase50|Product Desc: Autodesk Architectural Desktop 2007 |Company: Autodesk,Inc. |WEB Address: www.autodesk.com
 90
    32897
280
     0
281
     0
  0
CLASS
  1
AEC_DISP_REP_WINDOW_ASSEMBLY_MODEL
  2
AecDbDispRepWindowAssemblyModel
  3
AecArchBase50|Product Desc: Autodesk Architectural Desktop 2007 |Company: Autodesk,Inc. |WEB Address: www.autodesk.com
 90
    32897
280
     0
281
     0
  0
CLASS
  1
AEC_DISP_REP_WINDOW_ASSEMBLY_PLAN
  2
AecDbDispRepWindowAssemblyPlan
  3
AecArchBase50|Product Desc: Autodesk Architectural Desktop 2007 |Company: Autodesk,Inc. |WEB Address: www.autodesk.com
 90
    32897
280
     0
281
     0
  0
CLASS
  1
AEC_AECDBDISPREPWINDOWASSEMBLYPLAN100
  2
AecDbDispRepWindowAssemblyPlan100
  3
AecArchDACHBase50|Product Desc: Autodesk Architectural Desktop 2007 |Company: Autodesk,Inc. |WEB Address: www.autodesk.com
 90
    32897
280
     0
281
     0
  0
CLASS
  1
AEC_DISP_REP_WINDOW_MODEL
  2
AecDbDispRepWindowModel
  3
AecArchBase50|Product Desc: Autodesk Architectural Desktop 2007 |Company: Autodesk,Inc. |WEB Address: www.autodesk.com
 90
    32897
280
     0
281
     0
  0
CLASS
  1
AEC_DISP_REP_WINDOW_NOMINAL
  2
AecDbDispRepWindowNominal
  3
AecArchBase50|Product Desc: Autodesk Architectural Desktop 2007 |Company: Autodesk,Inc. |WEB Address: www.autodesk.com
 90
    32897
280
     0
281
     0
  0
CLASS
  1
AEC_DISP_REP_WINDOW_PLAN
  2
AecDbDispRepWindowPlan
  3
AecArchBase50|Product Desc: Autodesk Architectural Desktop 2007 |Company: Autodesk,Inc. |WEB Address: www.autodesk.com
 90
    32897
280
     0
281
     0
  0
CLASS
  1
AECS_DISP_REP_MEMBER_LOGICAL
  2
AecsDbDispRepMemberLogical
  3
AecStructureBase50|Product Desc: Autodesk Architectural Desktop 2007 |Company: Autodesk,Inc. |WEB Address: www.autodesk.com
 90
    32897
280
     0
281
     0
  0
CLASS
  1
AECS_DISP_REP_MEMBER_MODEL_DESIGN
  2
AecsDbDispRepMemberModelDesign
  3
AecStructureBase50|Product Desc: Autodesk Architectural Desktop 2007 |Company: Autodesk,Inc. |WEB Address: www.autodesk.com
 90
    32897
280
     0
281
     0
  0
CLASS
  1
AECS_DISP_REP_MEMBER_PLAN_DESIGN
  2
AecsDbDispRepMemberPlanDesign
  3
AecStructureBase50|Product Desc: Autodesk Architectural Desktop 2007 |Company: Autodesk,Inc. |WEB Address: www.autodesk.com
 90
    32897
280
     0
281
     0
  0
CLASS
  1
AEC_DISP_PROPS_ENT
  2
AecDbDispPropsEnt
  3
AecBase50|Product Desc: Autodesk Architectural Desktop 2007 |Company: Autodesk,Inc. |WEB Address: www.autodesk.com
 90
    32897
280
     0
281
     0
  0
CLASS
  1
AEC_DISP_PROPS_CLIP_VOLUME
  2
AecDbDispPropsClipVol
  3
AecBase50|Product Desc: Autodesk Architectural Desktop 2007 |Company: Autodesk,Inc. |WEB Address: www.autodesk.com
 90
    32897
280
     0
281
     0
  0
CLASS
  1
AEC_DISP_PROPS_SLICE
  2
AecDbDispPropsSlice
  3
AecBase50|Product Desc: Autodesk Architectural Desktop 2007 |Company: Autodesk,Inc. |WEB Address: www.autodesk.com
 90
    32897
280
     0
281
     0
  0
CLASS
  1
AEC_DISP_PROPS_ROOFSLAB_PLAN
  2
AecDbDispPropsRoofSlabPlan
  3
AecArchBase50|Product Desc: Autodesk Architectural Desktop 2007 |Company: Autodesk,Inc. |WEB Address: www.autodesk.com
 90
    32897
280
     0
281
     0
  0
CLASS
  1
AEC_DISP_PROPS_GRID_ASSEMBLY_MODEL
  2
AecDbDispPropsGridAssemblyModel
  3
AecArchBase50|Product Desc: Autodesk Architectural Desktop 2007 |Company: Autodesk,Inc. |WEB Address: www.autodesk.com
 90
    32897
280
     0
281
     0
  0
CLASS
  1
AEC_DISP_PROPS_ROOF
  2
AecDbDispPropsRoof
  3
AecArchBase50|Product Desc: Autodesk Architectural Desktop 2007 |Company: Autodesk,Inc. |WEB Address: www.autodesk.com
 90
    32897
280
     0
281
     0
  0
CLASS
  1
AEC_DISP_PROPS_SPACE_MODEL
  2
AecDbDispPropsSpaceModel
  3
AecArchBase50|Product Desc: Autodesk Architectural Desktop 2007 |Company: Autodesk,Inc. |WEB Address: www.autodesk.com
 90
    32897
280
     0
281
     0
  0
CLASS
  1
AEC_DISP_PROPS_EDITINPLACEPROFILE_MODEL
  2
AecDbDispPropsEditInPlaceProfile
  3
AecBase50|Product Desc: Autodesk Architectural Desktop 2007 |Company: Autodesk,Inc. |WEB Address: www.autodesk.com
 90
    32897
280
     0
281
     0
  0
CLASS
  1
AEC_DISP_PROPS_DOOR
  2
AecDbDispPropsDoor
  3
AecArchBase50|Product Desc: Autodesk Architectural Desktop 2007 |Company: Autodesk,Inc. |WEB Address: www.autodesk.com
 90
    32897
280
     0
281
     0
  0
CLASS
  1
AEC_DISP_PROPS_MASKBLOCK
  2
AecDbDispPropsMaskBlock
  3
AecBase50|Product Desc: Autodesk Architectural Desktop 2007 |Company: Autodesk,Inc. |WEB Address: www.autodesk.com
 90
    32897
280
     0
281
     0
  0
CLASS
  1
AEC_DISP_PROPS_SPACE_PLAN
  2
AecDbDispPropsSpacePlan
  3
AecArchBase50|Product Desc: Autodesk Architectural Desktop 2007 |Company: Autodesk,Inc. |WEB Address: www.autodesk.com
 90
    32897
280
     0
281
     0
  0
CLASS
  1
AEC_DISP_PROPS_RAILING_PLAN
  2
AecDbDispPropsRailingPlan
  3
AecArchBase50|Product Desc: Autodesk Architectural Desktop 2007 |Company: Autodesk,Inc. |WEB Address: www.autodesk.com
 90
    32897
280
     0
281
     0
  0
CLASS
  1
AEC_DISP_PROPS_LAYOUT_GRID2D
  2
AecDbDispPropsLayoutGrid2d
  3
AecBase50|Product Desc: Autodesk Architectural Desktop 2007 |Company: Autodesk,Inc. |WEB Address: www.autodesk.com
 90
    32897
280
     0
281
     0
  0
CLASS
  1
AEC_DISP_PROPS_CLIP_VOLUME_RESULT
  2
AecDbDispPropsClipVolResSubDiv
  3
AecBase50|Product Desc: Autodesk Architectural Desktop 2007 |Company: Autodesk,Inc. |WEB Address: www.autodesk.com
 90
    32897
280
     0
281
     0
  0
CLASS
  1
AEC_DISP_PROPS_STAIR_MODEL
  2
AecDbDispPropsStairModel
  3
AecArchBase50|Product Desc: Autodesk Architectural Desktop 2007 |Company: Autodesk,Inc. |WEB Address: www.autodesk.com
 90
    32897
280
     0
281
     0
  0
CLASS
  1
AEC_DISP_PROPS_LAYOUT_CURVE
  2
AecDbDispPropsLayoutCurve
  3
AecBase50|Product Desc: Autodesk Architectural Desktop 2007 |Company: Autodesk,Inc. |WEB Address: www.autodesk.com
 90
    32897
280
     0
281
     0
  0
CLASS
  1
AEC_DISP_PROPS_POLYGON_MODEL
  2
AecDbDispPropsPolygonModel
  3
AecBase50|Product Desc: Autodesk Architectural Desktop 2007 |Company: Autodesk,Inc. |WEB Address: www.autodesk.com
 90
    32897
280
     0
281
     0
  0
CLASS
  1
AEC_DISP_PROPS_MASS_GROUP
  2
AecDbDispPropsMassGroup
  3
AecBaseEx50|Product Desc: Autodesk Architectural Desktop 2007 |Company: Autodesk,Inc. |WEB Address: www.autodesk.com
 90
    32897
280
     0
281
     0
  0
CLASS
  1
AEC_DISP_PROPS_STAIR_PLAN
  2
AecDbDispPropsStairPlan
  3
AecArchBase50|Product Desc: Autodesk Architectural Desktop 2007 |Company: Autodesk,Inc. |WEB Address: www.autodesk.com
 90
    32897
280
     0
281
     0
  0
CLASS
  1
AEC_DISP_PROPS_OPENING
  2
AecDbDispPropsOpening
  3
AecArchBase50|Product Desc: Autodesk Architectural Desktop 2007 |Company: Autodesk,Inc. |WEB Address: www.autodesk.com
 90
    32897
280
     0
281
     0
  0
CLASS
  1
AEC_DISP_PROPS_WALL_GRAPH
  2
AecDbDispPropsWallGraph
  3
AecArchBase50|Product Desc: Autodesk Architectural Desktop 2007 |Company: Autodesk,Inc. |WEB Address: www.autodesk.com
 90
    32897
280
     0
281
     0
  0
CLASS
  1
AEC_DISP_PROPS_DOOR_NOMINAL
  2
AecDbDispPropsDoorNominal
  3
AecArchBase50|Product Desc: Autodesk Architectural Desktop 2007 |Company: Autodesk,Inc. |WEB Address: www.autodesk.com
 90
    32897
280
     0
281
     0
  0
CLASS
  1
AEC_DISP_PROPS_SLAB
  2
AecDbDispPropsSlab
  3
AecArchBase50|Product Desc: Autodesk Architectural Desktop 2007 |Company: Autodesk,Inc. |WEB Address: www.autodesk.com
 90
    32897
280
     0
281
     0
  0
CLASS
  1
AEC_DISP_PROPS_WALL_MODEL
  2
AecDbDispPropsWallModel
  3
AecArchBase50|Product Desc: Autodesk Architectural Desktop 2007 |Company: Autodesk,Inc. |WEB Address: www.autodesk.com
 90
    32897
280
     0
281
     0
  0
CLASS
  1
AEC_DISP_PROPS_MATERIAL
  2
AecDbDispPropsMaterial
  3
AecBase50|Product Desc: Autodesk Architectural Desktop 2007 |Company: Autodesk,Inc. |WEB Address: www.autodesk.com
 90
    32897
280
     0
281
     0
  0
CLASS
  1
AEC_DISP_PROPS_WINDOW
  2
AecDbDispPropsWindow
  3
AecArchBase50|Product Desc: Autodesk Architectural Desktop 2007 |Company: Autodesk,Inc. |WEB Address: www.autodesk.com
 90
    32897
280
     0
281
     0
  0
CLASS
  1
AEC_DISP_PROPS_LAYOUT_GRID3D
  2
AecDbDispPropsLayoutGrid3d
  3
AecBase50|Product Desc: Autodesk Architectural Desktop 2007 |Company: Autodesk,Inc. |WEB Address: www.autodesk.com
 90
    32897
280
     0
281
     0
  0
CLASS
  1
AEC_DISP_PROPS_GRID_ASSEMBLY_PLAN
  2
AecDbDispPropsGridAssemblyPlan
  3
AecArchBase50|Product Desc: Autodesk Architectural Desktop 2007 |Company: Autodesk,Inc. |WEB Address: www.autodesk.com
 90
    32897
280
     0
281
     0
  0
CLASS
  1
AEC_DISP_PROPS_WALL_SCHEM
  2
AecDbDispPropsWallSchem
  3
AecArchBase50|Product Desc: Autodesk Architectural Desktop 2007 |Company: Autodesk,Inc. |WEB Address: www.autodesk.com
 90
    32897
280
     0
281
     0
  0
CLASS
  1
AEC_DISP_PROPS_WALL_PLAN
  2
AecDbDispPropsWallPlan
  3
AecArchBase50|Product Desc: Autodesk Architectural Desktop 2007 |Company: Autodesk,Inc. |WEB Address: www.autodesk.com
 90
    32897
280
     0
281
     0
  0
CLASS
  1
AEC_DISP_PROPS_SPACE_BOUNDARY
  2
AecDbDispPropsSpaceBoundary
  3
AecArchBase50|Product Desc: Autodesk Architectural Desktop 2007 |Company: Autodesk,Inc. |WEB Address: www.autodesk.com
 90
    32897
280
     0
281
     0
  0
CLASS
  1
AEC_DISP_PROPS_SLAB_PLAN
  2
AecDbDispPropsSlabPlan
  3
AecArchBase50|Product Desc: Autodesk Architectural Desktop 2007 |Company: Autodesk,Inc. |WEB Address: www.autodesk.com
 90
    32897
280
     0
281
     0
  0
CLASS
  1
AEC_DISP_PROPS_RAILING_MODEL
  2
AecDbDispPropsRailingModel
  3
AecArchBase50|Product Desc: Autodesk Architectural Desktop 2007 |Company: Autodesk,Inc. |WEB Address: www.autodesk.com
 90
    32897
280
     0
281
     0
  0
CLASS
  1
AEC_DISP_PROPS_MASS_ELEM_MODEL
  2
AecDbDispPropsMassElem
  3
AecBaseEx50|Product Desc: Autodesk Architectural Desktop 2007 |Company: Autodesk,Inc. |WEB Address: www.autodesk.com
 90
    32897
280
     0
281
     0
  0
CLASS
  1
AEC_DISP_PROPS_DIM
  2
AecDbDispPropsDimGroup
  3
AecArchDACHBase50|Product Desc: Autodesk Architectural Desktop 2007 |Company: Autodesk,Inc. |WEB Address: www.autodesk.com
 90
    32897
280
     0
281
     0
  0
CLASS
  1
AEC_DISP_PROPS_ROOFSLAB
  2
AecDbDispPropsRoofSlab
  3
AecArchBase50|Product Desc: Autodesk Architectural Desktop 2007 |Company: Autodesk,Inc. |WEB Address: www.autodesk.com
 90
    32897
280
     0
281
     0
  0
CLASS
  1
AEC_DISP_PROPS_ENT_REF
  2
AecDbDispPropsEntRef
  3
AecBase50|Product Desc: Autodesk Architectural Desktop 2007 |Company: Autodesk,Inc. |WEB Address: www.autodesk.com
 90
    32897
280
     0
281
     0
  0
CLASS
  1
AEC_DISP_PROPS_2D_SECTION
  2
AecDbDispProps2dSection
  3
AecBase50|Product Desc: Autodesk Architectural Desktop 2007 |Company: Autodesk,Inc. |WEB Address: www.autodesk.com
 90
    32897
280
     0
281
     0
  0
CLASS
  1
AECS_DISP_PROPS_MEMBER_LOGICAL
  2
AecsDbDispPropsMemberLogical
  3
AecStructureBase50|Product Desc: Autodesk Architectural Desktop 2007 |Company: Autodesk,Inc. |WEB Address: www.autodesk.com
 90
    32897
280
     0
281
     0
  0
CLASS
  1
AEC_DISP_PROPS_AREA_DECOMPOSED
  2
AecDbDispPropsAreaDecomposed
  3
AecAreaCalculationBase50|Product Desc: Autodesk Architectural Desktop 2007 |Company: Autodesk,Inc. |WEB Address: www.autodesk.com
 90
    32897
280
     0
281
     0
  0
CLASS
  1
AEC_DISP_PROPS_CAMERA
  2
AecDbDispPropsCamera
  3
AecBase50|Product Desc: Autodesk Architectural Desktop 2007 |Company: Autodesk,Inc. |WEB Address: www.autodesk.com
 90
    32897
280
     0
281
     0
  0
CLASS
  1
AECS_DISP_PROPS_MEMBER
  2
AecsDbDispPropsMember
  3
AecStructureBase50|Product Desc: Autodesk Architectural Desktop 2007 |Company: Autodesk,Inc. |WEB Address: www.autodesk.com
 90
    32897
280
     0
281
     0
  0
CLASS
  1
AECS_DISP_PROPS_MEMBER_PLAN
  2
AecsDbDispPropsMemberPlan
  3
AecStructureBase50|Product Desc: Autodesk Architectural Desktop 2007 |Company: Autodesk,Inc. |WEB Address: www.autodesk.com
 90
    32897
280
     0
281
     0
  0
CLASS
  1
AEC_DISP_PROPS_AREAGROUP
  2
AecDbDispPropsAreaGroup
  3
AecAreaCalculationBase50|Product Desc: Autodesk Architectural Desktop 2007 |Company: Autodesk,Inc. |WEB Address: www.autodesk.com
 90
    32897
280
     0
281
     0
  0
CLASS
  1
AEC_DISP_PROPS_WINDOW_NOMINAL
  2
AecDbDispPropsWindowNominal
  3
AecArchBase50|Product Desc: Autodesk Architectural Desktop 2007 |Company: Autodesk,Inc. |WEB Address: www.autodesk.com
 90
    32897
280
     0
281
     0
  0
CLASS
  1
AEC_DISP_PROPS_AREA
  2
AecDbDispPropsArea
  3
AecAreaCalculationBase50|Product Desc: Autodesk Architectural Desktop 2007 |Company: Autodesk,Inc. |WEB Address: www.autodesk.com
 90
    32897
280
     0
281
     0
  0
CLASS
  1
AEC_DISP_PROPS_SCHEDULE_TABLE
  2
AecDbDispPropsScheduleTable
  3
AecSchedule50|Product Desc: Autodesk Architectural Desktop 2007 |Company: Autodesk,Inc. |WEB Address: www.autodesk.com
 90
    32897
280
     0
281
     0
  0
CLASS
  1
AEC_LAYERKEY_STYLE
  2
AecDbLayerKeyStyle
  3
AecBase50|Product Desc: Autodesk Architectural Desktop 2007 |Company: Autodesk,Inc. |WEB Address: www.autodesk.com
 90
    32897
280
     0
281
     0
  0
CLASS
  1
AEC_VARS_ARCHBASE
  2
AecDbVarsArchBase
  3
AecArchBase50|Product Desc: Autodesk Architectural Desktop 2007 |Company: Autodesk,Inc. |WEB Address: www.autodesk.com
 90
    32897
280
     0
281
     0
  0
CLASS
  1
AEC_VARS_MUNICH
  2
AecDbVarsMunich
  3
AecArchDACHBase50|Product Desc: Autodesk Architectural Desktop 2007 |Company: Autodesk,Inc. |WEB Address: www.autodesk.com
 90
    32897
280
     0
281
     0
  0
CLASS
  1
AEC_NOTIFICATION_TRACKER
  2
AecDbNotificationTracker
  3
AecBase50|Product Desc: Autodesk Architectural Desktop 2007 |Company: Autodesk,Inc. |WEB Address: www.autodesk.com
 90
    32897
280
     0
281
     0
  0
CLASS
  1
AEC_DISP_REP_ANCHOR
  2
AecDbDispRepAnchor
  3
AecBase50|Product Desc: Autodesk Architectural Desktop 2007 |Company: Autodesk,Inc. |WEB Address: www.autodesk.com
 90
    32897
280
     0
281
     0
  0
CLASS
  1
AEC_DISP_REP_POLYGON_TRUECOLOUR
  2
AecDbDispRepPolygonTrueColour
  3
AecBase50|Product Desc: Autodesk Architectural Desktop 2007 |Company: Autodesk,Inc. |WEB Address: www.autodesk.com
 90
    32897
280
     0
281
     0
  0
CLASS
  1
AEC_DISP_PROPS_POLYGON_TRUECOLOUR
  2
AecDbDispPropsPolygonTrueColour
  3
AecBase50|Product Desc: Autodesk Architectural Desktop 2007 |Company: Autodesk,Inc. |WEB Address: www.autodesk.com
 90
    32897
280
     0
281
     0
  0
CLASS
  1
AEC_DISP_REP_BDG_ELEVLINE_RCP
  2
AecDbDispRepBdgElevLineRcp
  3
AecArchBase50|Product Desc: Autodesk Architectural Desktop 2007 |Company: Autodesk,Inc. |WEB Address: www.autodesk.com
 90
    32897
280
     0
281
     0
  0
CLASS
  1
AEC_DISP_REP_BDG_SECTIONLINE_RCP
  2
AecDbDispRepBdgSectionLineRcp
  3
AecArchBase50|Product Desc: Autodesk Architectural Desktop 2007 |Company: Autodesk,Inc. |WEB Address: www.autodesk.com
 90
    32897
280
     0
281
     0
  0
CLASS
  1
AEC_DISP_REP_BDG_SECTION_MODEL
  2
AecDbDispRepBdgSectionModel
  3
AecArchBase50|Product Desc: Autodesk Architectural Desktop 2007 |Company: Autodesk,Inc. |WEB Address: www.autodesk.com
 90
    32897
280
     0
281
     0
  0
CLASS
  1
AEC_DISP_REP_DOOR_ELEV
  2
AecDbDispRepDoorElev
  3
AecArchBase50|Product Desc: Autodesk Architectural Desktop 2007 |Company: Autodesk,Inc. |WEB Address: www.autodesk.com
 90
    32897
280
     0
281
     0
  0
CLASS
  1
AEC_DISP_REP_DOOR_RCP
  2
AecDbDispRepDoorRcp
  3
AecArchBase50|Product Desc: Autodesk Architectural Desktop 2007 |Company: Autodesk,Inc. |WEB Address: www.autodesk.com
 90
    32897
280
     0
281
     0
  0
CLASS
  1
AEC_DISP_REP_DOOR_THRESHOLD_PLAN
  2
AecDbDispRepDoorThresholdPlan
  3
AecArchBase50|Product Desc: Autodesk Architectural Desktop 2007 |Company: Autodesk,Inc. |WEB Address: www.autodesk.com
 90
    32897
280
     0
281
     0
  0
CLASS
  1
AEC_DISP_PROPS_DOOR_THRESHOLD_PLAN
  2
AecDbDispPropsDoorThresholdPlan
  3
AecArchBase50|Product Desc: Autodesk Architectural Desktop 2007 |Company: Autodesk,Inc. |WEB Address: www.autodesk.com
 90
    32897
280
     0
281
     0
  0
CLASS
  1
AEC_DISP_REP_MASS_ELEM_RCP
  2
AecDbDispRepMassElemRcp
  3
AecArchBase50|Product Desc: Autodesk Architectural Desktop 2007 |Company: Autodesk,Inc. |WEB Address: www.autodesk.com
 90
    32897
280
     0
281
     0
  0
CLASS
  1
AEC_DISP_REP_MASS_GROUP_RCP
  2
AecDbDispRepMassGroupRcp
  3
AecArchBase50|Product Desc: Autodesk Architectural Desktop 2007 |Company: Autodesk,Inc. |WEB Address: www.autodesk.com
 90
    32897
280
     0
281
     0
  0
CLASS
  1
AEC_DISP_REP_MVBLOCK_REF_RCP
  2
AecDbDispRepMvBlockRefRcp
  3
AecArchBase50|Product Desc: Autodesk Architectural Desktop 2007 |Company: Autodesk,Inc. |WEB Address: www.autodesk.com
 90
    32897
280
     0
281
     0
  0
CLASS
  1
AEC_DISP_REP_ROOF_RCP
  2
AecDbDispRepRoofRcp
  3
AecArchBase50|Product Desc: Autodesk Architectural Desktop 2007 |Company: Autodesk,Inc. |WEB Address: www.autodesk.com
 90
    32897
280
     0
281
     0
  0
CLASS
  1
AEC_DISP_REP_SPACE_BOUNDARY_DIAGRAM
  2
AecDbDispRepSpaceBoundaryDgrm
  3
AecArchBase50|Product Desc: Autodesk Architectural Desktop 2007 |Company: Autodesk,Inc. |WEB Address: www.autodesk.com
 90
    32897
280
     0
281
     0
  0
CLASS
  1
AEC_DISP_REP_SPACE_RCP
  2
AecDbDispRepSpaceRcp
  3
AecArchBase50|Product Desc: Autodesk Architectural Desktop 2007 |Company: Autodesk,Inc. |WEB Address: www.autodesk.com
 90
    32897
280
     0
281
     0
  0
CLASS
  1
AEC_DISP_REP_SPACE_VOLUME
  2
AecDbDispRepSpaceVolume
  3
AecArchBase50|Product Desc: Autodesk Architectural Desktop 2007 |Company: Autodesk,Inc. |WEB Address: www.autodesk.com
 90
    32897
280
     0
281
     0
  0
CLASS
  1
AEC_DISP_REP_STAIR_PLAN_OVERLAPPING
  2
AecDbDispRepStairPlanOverlapping
  3
AecArchBase50|Product Desc: Autodesk Architectural Desktop 2007 |Company: Autodesk,Inc. |WEB Address: www.autodesk.com
 90
    32897
280
     0
281
     0
  0
CLASS
  1
AEC_DISP_PROPS_STAIR_PLAN_OVERLAPPING
  2
AecDbDispPropsStairPlanOverlapping
  3
AecArchBase50|Product Desc: Autodesk Architectural Desktop 2007 |Company: Autodesk,Inc. |WEB Address: www.autodesk.com
 90
    32897
280
     0
281
     0
  0
CLASS
  1
AEC_DISP_REP_STAIR_RCP
  2
AecDbDispRepStairRcp
  3
AecArchBase50|Product Desc: Autodesk Architectural Desktop 2007 |Company: Autodesk,Inc. |WEB Address: www.autodesk.com
 90
    32897
280
     0
281
     0
  0
CLASS
  1
AEC_DISP_REP_WALL_RCP
  2
AecDbDispRepWallRcp
  3
AecArchBase50|Product Desc: Autodesk Architectural Desktop 2007 |Company: Autodesk,Inc. |WEB Address: www.autodesk.com
 90
    32897
280
     0
281
     0
  0
CLASS
  1
AEC_DISP_REP_WINDOWASSEMBLY_SILL_PLAN
  2
AecDbDispRepWindowAssemblySillPlan
  3
AecArchBase50|Product Desc: Autodesk Architectural Desktop 2007 |Company: Autodesk,Inc. |WEB Address: www.autodesk.com
 90
    32897
280
     0
281
     0
  0
CLASS
  1
AEC_DISP_PROPS_WINDOW_ASSEMBLY_SILL_PLAN
  2
AecDbDispPropsWindowAssemblySillPlan
  3
AecArchBase50|Product Desc: Autodesk Architectural Desktop 2007 |Company: Autodesk,Inc. |WEB Address: www.autodesk.com
 90
    32897
280
     0
281
     0
  0
CLASS
  1
AEC_DISP_REP_WINDOW_ELEV
  2
AecDbDispRepWindowElev
  3
AecArchBase50|Product Desc: Autodesk Architectural Desktop 2007 |Company: Autodesk,Inc. |WEB Address: www.autodesk.com
 90
    32897
280
     0
281
     0
  0
CLASS
  1
AEC_DISP_REP_WINDOW_RCP
  2
AecDbDispRepWindowRcp
  3
AecArchBase50|Product Desc: Autodesk Architectural Desktop 2007 |Company: Autodesk,Inc. |WEB Address: www.autodesk.com
 90
    32897
280
     0
281
     0
  0
CLASS
  1
AEC_DISP_REP_WINDOW_SILL_PLAN
  2
AecDbDispRepWindowSillPlan
  3
AecArchBase50|Product Desc: Autodesk Architectural Desktop 2007 |Company: Autodesk,Inc. |WEB Address: www.autodesk.com
 90
    32897
280
     0
281
     0
  0
CLASS
  1
AEC_DISP_PROPS_WINDOW_SILL_PLAN
  2
AecDbDispPropsWindowSillPlan
  3
AecArchBase50|Product Desc: Autodesk Architectural Desktop 2007 |Company: Autodesk,Inc. |WEB Address: www.autodesk.com
 90
    32897
280
     0
281
     0
  0
CLASS
  1
AEC_DISP_REP_ANCHOR_BUB_TO_GRID_RCP
  2
AecDbDispRepAnchorBubToGridRcp
  3
AecStructureBase50|Product Desc: Autodesk Architectural Desktop 2007 |Company: Autodesk,Inc. |WEB Address: www.autodesk.com
 90
    32897
280
     0
281
     0
  0
CLASS
  1
AEC_DISP_REP_COLUMN_GRID_RCP
  2
AecDbDispRepColumnGridRcp
  3
AecStructureBase50|Product Desc: Autodesk Architectural Desktop 2007 |Company: Autodesk,Inc. |WEB Address: www.autodesk.com
 90
    32897
280
     0
281
     0
  0
CLASS
  1
AECS_DISP_REP_MEMBER_ELEVATION_DESIGN
  2
AecsDbDispRepMemberElevationDesign
  3
AecStructureBase50|Product Desc: Autodesk Architectural Desktop 2007 |Company: Autodesk,Inc. |WEB Address: www.autodesk.com
 90
    32897
280
     0
281
     0
  0
CLASS
  1
AECS_DISP_PROPS_MEMBER_PROJECTED
  2
AecsDbDispPropsMemberProjected
  3
AecStructureBase50|Product Desc: Autodesk Architectural Desktop 2007 |Company: Autodesk,Inc. |WEB Address: www.autodesk.com
 90
    32897
280
     0
281
     0
  0
CLASS
  1
AECS_DISP_REP_MEMBER_ELEVATION_DETAIL
  2
AecsDbDispRepMemberElevationDetail
  3
AecStructureBase50|Product Desc: Autodesk Architectural Desktop 2007 |Company: Autodesk,Inc. |WEB Address: www.autodesk.com
 90
    32897
280
     0
281
     0
  0
CLASS
  1
AECS_DISP_REP_MEMBER_MODEL_DETAIL
  2
AecsDbDispRepMemberModelDetail
  3
AecStructureBase50|Product Desc: Autodesk Architectural Desktop 2007 |Company: Autodesk,Inc. |WEB Address: www.autodesk.com
 90
    32897
280
     0
281
     0
  0
CLASS
  1
AECS_DISP_REP_MEMBER_PLAN_DETAIL
  2
AecsDbDispRepMemberPlanDetail
  3
AecStructureBase50|Product Desc: Autodesk Architectural Desktop 2007 |Company: Autodesk,Inc. |WEB Address: www.autodesk.com
 90
    32897
280
     0
281
     0
  0
CLASS
  1
AECS_DISP_REP_MEMBER_PLAN_SKETCH
  2
AecsDbDispRepMemberPlanSketch
  3
AecStructureBase50|Product Desc: Autodesk Architectural Desktop 2007 |Company: Autodesk,Inc. |WEB Address: www.autodesk.com
 90
    32897
280
     0
281
     0
  0
CLASS
  1
AECS_DISP_PROPS_MEMBER_PLAN_SKETCH
  2
AecsDbDispPropsMemberPlanSketch
  3
AecStructureBase50|Product Desc: Autodesk Architectural Desktop 2007 |Company: Autodesk,Inc. |WEB Address: www.autodesk.com
 90
    32897
280
     0
281
     0
  0
CLASS
  1
AEC_AECDBDISPREPAREA100
  2
AecDbDispRepArea100
  3
AecArchDACHBase50|Product Desc: Autodesk Architectural Desktop 2007 |Company: Autodesk,Inc. |WEB Address: www.autodesk.com
 90
    32897
280
     0
281
     0
  0
CLASS
  1
AEC_AECDBDISPREPAREAGROUP100
  2
AecDbDispRepAreaGroup100
  3
AecArchDACHBase50|Product Desc: Autodesk Architectural Desktop 2007 |Company: Autodesk,Inc. |WEB Address: www.autodesk.com
 90
    32897
280
     0
281
     0
  0
CLASS
  1
AEC_AECDBDISPREPBDGELEVLINEPLAN100
  2
AecDbDispRepBdgElevLinePlan100
  3
AecArchDACHBase50|Product Desc: Autodesk Architectural Desktop 2007 |Company: Autodesk,Inc. |WEB Address: www.autodesk.com
 90
    32897
280
     0
281
     0
  0
CLASS
  1
AEC_AECDBDISPREPBDGSECTIONLINEPLAN100
  2
AecDbDispRepBdgSectionLinePlan100
  3
AecArchDACHBase50|Product Desc: Autodesk Architectural Desktop 2007 |Company: Autodesk,Inc. |WEB Address: www.autodesk.com
 90
    32897
280
     0
281
     0
  0
CLASS
  1
AEC_AECDBDISPREPCEILINGGRIDPLAN100
  2
AecDbDispRepCeilingGridPlan100
  3
AecArchDACHBase50|Product Desc: Autodesk Architectural Desktop 2007 |Company: Autodesk,Inc. |WEB Address: www.autodesk.com
 90
    32897
280
     0
281
     0
  0
CLASS
  1
AEC_AECDBDISPREPCOLUMNGRIDPLAN100
  2
AecDbDispRepColumnGridPlan100
  3
AecArchDACHBase50|Product Desc: Autodesk Architectural Desktop 2007 |Company: Autodesk,Inc. |WEB Address: www.autodesk.com
 90
    32897
280
     0
281
     0
  0
CLASS
  1
AEC_AECDBDISPREPCURTAINWALLLAYOUTPLAN100
  2
AecDbDispRepCurtainWallLayoutPlan100
  3
AecArchDACHBase50|Product Desc: Autodesk Architectural Desktop 2007 |Company: Autodesk,Inc. |WEB Address: www.autodesk.com
 90
    32897
280
     0
281
     0
  0
CLASS
  1
AEC_AECDBDISPREPCURTAINWALLUNITPLAN100
  2
AecDbDispRepCurtainWallUnitPlan100
  3
AecArchDACHBase50|Product Desc: Autodesk Architectural Desktop 2007 |Company: Autodesk,Inc. |WEB Address: www.autodesk.com
 90
    32897
280
     0
281
     0
  0
CLASS
  1
AEC_AECDBDISPREPMVBLOCKREFPLAN100
  2
AecDbDispRepMvBlockRefPlan100
  3
AecArchDACHBase50|Product Desc: Autodesk Architectural Desktop 2007 |Company: Autodesk,Inc. |WEB Address: www.autodesk.com
 90
    32897
280
     0
281
     0
  0
CLASS
  1
AEC_AECDBDISPREPROOFPLAN100
  2
AecDbDispRepRoofPlan100
  3
AecArchDACHBase50|Product Desc: Autodesk Architectural Desktop 2007 |Company: Autodesk,Inc. |WEB Address: www.autodesk.com
 90
    32897
280
     0
281
     0
  0
CLASS
  1
AEC_AECDBDISPREPROOFSLABPLAN100
  2
AecDbDispRepRoofSlabPlan100
  3
AecArchDACHBase50|Product Desc: Autodesk Architectural Desktop 2007 |Company: Autodesk,Inc. |WEB Address: www.autodesk.com
 90
    32897
280
     0
281
     0
  0
CLASS
  1
AEC_AECDBDISPREPSLABPLAN100
  2
AecDbDispRepSlabPlan100
  3
AecArchDACHBase50|Product Desc: Autodesk Architectural Desktop 2007 |Company: Autodesk,Inc. |WEB Address: www.autodesk.com
 90
    32897
280
     0
281
     0
  0
CLASS
  1
AEC_AECDBDISPREPSPACEBOUNDARYPLAN100
  2
AecDbDispRepSpaceBoundaryPlan100
  3
AecArchDACHBase50|Product Desc: Autodesk Architectural Desktop 2007 |Company: Autodesk,Inc. |WEB Address: www.autodesk.com
 90
    32897
280
     0
281
     0
  0
CLASS
  1
AEC_AECDBDISPREPSPACEPLAN100
  2
AecDbDispRepSpacePlan100
  3
AecArchDACHBase50|Product Desc: Autodesk Architectural Desktop 2007 |Company: Autodesk,Inc. |WEB Address: www.autodesk.com
 90
    32897
280
     0
281
     0
  0
CLASS
  1
AEC_AECDBDISPREPWALLPLAN100
  2
AecDbDispRepWallPlan100
  3
AecArchDACHBase50|Product Desc: Autodesk Architectural Desktop 2007 |Company: Autodesk,Inc. |WEB Address: www.autodesk.com
 90
    32897
280
     0
281
     0
  0
CLASS
  1
AEC_AECDBDISPREPAREA50
  2
AecDbDispRepArea50
  3
AecArchDACHBase50|Product Desc: Autodesk Architectural Desktop 2007 |Company: Autodesk,Inc. |WEB Address: www.autodesk.com
 90
    32897
280
     0
281
     0
  0
CLASS
  1
AEC_AECDBDISPREPAREAGROUP50
  2
AecDbDispRepAreaGroup50
  3
AecArchDACHBase50|Product Desc: Autodesk Architectural Desktop 2007 |Company: Autodesk,Inc. |WEB Address: www.autodesk.com
 90
    32897
280
     0
281
     0
  0
CLASS
  1
AEC_AECDBDISPREPBDGELEVLINEPLAN50
  2
AecDbDispRepBdgElevLinePlan50
  3
AecArchDACHBase50|Product Desc: Autodesk Architectural Desktop 2007 |Company: Autodesk,Inc. |WEB Address: www.autodesk.com
 90
    32897
280
     0
281
     0
  0
CLASS
  1
AEC_AECDBDISPREPBDGSECTIONLINEPLAN50
  2
AecDbDispRepBdgSectionLinePlan50
  3
AecArchDACHBase50|Product Desc: Autodesk Architectural Desktop 2007 |Company: Autodesk,Inc. |WEB Address: www.autodesk.com
 90
    32897
280
     0
281
     0
  0
CLASS
  1
AEC_AECDBDISPREPCEILINGGRIDPLAN50
  2
AecDbDispRepCeilingGridPlan50
  3
AecArchDACHBase50|Product Desc: Autodesk Architectural Desktop 2007 |Company: Autodesk,Inc. |WEB Address: www.autodesk.com
 90
    32897
280
     0
281
     0
  0
CLASS
  1
AEC_AECDBDISPREPCOLUMNGRIDPLAN50
  2
AecDbDispRepColumnGridPlan50
  3
AecArchDACHBase50|Product Desc: Autodesk Architectural Desktop 2007 |Company: Autodesk,Inc. |WEB Address: www.autodesk.com
 90
    32897
280
     0
281
     0
  0
CLASS
  1
AEC_AECDBDISPREPCURTAINWALLLAYOUTPLAN50
  2
AecDbDispRepCurtainWallLayoutPlan50
  3
AecArchDACHBase50|Product Desc: Autodesk Architectural Desktop 2007 |Company: Autodesk,Inc. |WEB Address: www.autodesk.com
 90
    32897
280
     0
281
     0
  0
CLASS
  1
AEC_AECDBDISPREPCURTAINWALLUNITPLAN50
  2
AecDbDispRepCurtainWallUnitPlan50
  3
AecArchDACHBase50|Product Desc: Autodesk Architectural Desktop 2007 |Company: Autodesk,Inc. |WEB Address: www.autodesk.com
 90
    32897
280
     0
281
     0
  0
CLASS
  1
AEC_AECDBDISPREPMVBLOCKREFPLAN50
  2
AecDbDispRepMvBlockRefPlan50
  3
AecArchDACHBase50|Product Desc: Autodesk Architectural Desktop 2007 |Company: Autodesk,Inc. |WEB Address: www.autodesk.com
 90
    32897
280
     0
281
     0
  0
CLASS
  1
AEC_AECDBDISPREPROOFPLAN50
  2
AecDbDispRepRoofPlan50
  3
AecArchDACHBase50|Product Desc: Autodesk Architectural Desktop 2007 |Company: Autodesk,Inc. |WEB Address: www.autodesk.com
 90
    32897
280
     0
281
     0
  0
CLASS
  1
AEC_AECDBDISPREPROOFSLABPLAN50
  2
AecDbDispRepRoofSlabPlan50
  3
AecArchDACHBase50|Product Desc: Autodesk Architectural Desktop 2007 |Company: Autodesk,Inc. |WEB Address: www.autodesk.com
 90
    32897
280
     0
281
     0
  0
CLASS
  1
AEC_AECDBDISPREPSLABPLAN50
  2
AecDbDispRepSlabPlan50
  3
AecArchDACHBase50|Product Desc: Autodesk Architectural Desktop 2007 |Company: Autodesk,Inc. |WEB Address: www.autodesk.com
 90
    32897
280
     0
281
     0
  0
CLASS
  1
AEC_AECDBDISPREPSPACEBOUNDARYPLAN50
  2
AecDbDispRepSpaceBoundaryPlan50
  3
AecArchDACHBase50|Product Desc: Autodesk Architectural Desktop 2007 |Company: Autodesk,Inc. |WEB Address: www.autodesk.com
 90
    32897
280
     0
281
     0
  0
CLASS
  1
AEC_AECDBDISPREPSPACEPLAN50
  2
AecDbDispRepSpacePlan50
  3
AecArchDACHBase50|Product Desc: Autodesk Architectural Desktop 2007 |Company: Autodesk,Inc. |WEB Address: www.autodesk.com
 90
    32897
280
     0
281
     0
  0
CLASS
  1
AEC_AECDBDISPREPWALLPLAN50
  2
AecDbDispRepWallPlan50
  3
AecArchDACHBase50|Product Desc: Autodesk Architectural Desktop 2007 |Company: Autodesk,Inc. |WEB Address: www.autodesk.com
 90
    32897
280
     0
281
     0
  0
CLASS
  1
AEC_AECDBDISPREPWINDOWASSEMBLYPLAN50
  2
AecDbDispRepWindowAssemblyPlan50
  3
AecArchDACHBase50|Product Desc: Autodesk Architectural Desktop 2007 |Company: Autodesk,Inc. |WEB Address: www.autodesk.com
 90
    32897
280
     0
281
     0
  0
CLASS
  1
AEC_DB_DISP_REP_DIM_GROUP_PLAN100
  2
AecDbDispRepDimGroupPlan100
  3
AecArchDACHBase50|Product Desc: Autodesk Architectural Desktop 2007 |Company: Autodesk,Inc. |WEB Address: www.autodesk.com
 90
    32897
280
     0
281
     0
  0
CLASS
  1
AEC_DB_DISP_REP_DIM_GROUP_PLAN50
  2
AecDbDispRepDimGroupPlan50
  3
AecArchDACHBase50|Product Desc: Autodesk Architectural Desktop 2007 |Company: Autodesk,Inc. |WEB Address: www.autodesk.com
 90
    32897
280
     0
281
     0
  0
CLASS
  1
AEC_DISP_REP_DOOR_PLAN_50
  2
AecDbDispRepDoorPlan50
  3
AecArchDACHBase50|Product Desc: Autodesk Architectural Desktop 2007 |Company: Autodesk,Inc. |WEB Address: www.autodesk.com
 90
    32897
280
     0
281
     0
  0
CLASS
  1
AEC_DISP_PROPS_DOOR_PLAN_50
  2
AecDbDispPropsDoorPlan50
  3
AecArchDACHBase50|Product Desc: Autodesk Architectural Desktop 2007 |Company: Autodesk,Inc. |WEB Address: www.autodesk.com
 90
    32897
280
     0
281
     0
  0
CLASS
  1
AEC_DISP_REP_DOOR_PLAN_HEKTO
  2
AecDbDispRepDoorPlanHekto
  3
AecArchDACHBase50|Product Desc: Autodesk Architectural Desktop 2007 |Company: Autodesk,Inc. |WEB Address: www.autodesk.com
 90
    32897
280
     0
281
     0
  0
CLASS
  1
AEC_DISP_PROPS_DOOR_PLAN_100
  2
AecDbDispPropsDoorPlan100
  3
AecArchDACHBase50|Product Desc: Autodesk Architectural Desktop 2007 |Company: Autodesk,Inc. |WEB Address: www.autodesk.com
 90
    32897
280
     0
281
     0
  0
CLASS
  1
AEC_DISP_REP_DOOR_THRESHOLD_SYMBOL_PLAN
  2
AecDbDispRepDoorThresholdSymbolPlan
  3
AecArchDACHBase50|Product Desc: Autodesk Architectural Desktop 2007 |Company: Autodesk,Inc. |WEB Address: www.autodesk.com
 90
    32897
280
     0
281
     0
  0
CLASS
  1
AEC_DISP_PROPS_DOOR_THRESHOLD_SYMBOL_PLAN
  2
AecDbDispPropsDoorThresholdSymbolPlan
  3
AecArchDACHBase50|Product Desc: Autodesk Architectural Desktop 2007 |Company: Autodesk,Inc. |WEB Address: www.autodesk.com
 90
    32897
280
     0
281
     0
  0
CLASS
  1
AEC_DISPREPAECDBDISPREPMASSELEMPLAN100
  2
AecDbDispRepMassElemPlan100
  3
AecArchDACHBase50|Product Desc: Autodesk Architectural Desktop 2007 |Company: Autodesk,Inc. |WEB Address: www.autodesk.com
 90
    32897
280
     0
281
     0
  0
CLASS
  1
AEC_DISPROPSMASSELEMPLANCOMMON
  2
AecDbDispPropsMassElemPlanCommon
  3
AecArchDACHBase50|Product Desc: Autodesk Architectural Desktop 2007 |Company: Autodesk,Inc. |WEB Address: www.autodesk.com
 90
    32897
280
     0
281
     0
  0
CLASS
  1
AEC_DISPREPAECDBDISPREPMASSELEMPLAN50
  2
AecDbDispRepMassElemPlan50
  3
AecArchDACHBase50|Product Desc: Autodesk Architectural Desktop 2007 |Company: Autodesk,Inc. |WEB Address: www.autodesk.com
 90
    32897
280
     0
281
     0
  0
CLASS
  1
AEC_DISPREPAECDBDISPREPMASSGROUPPLAN100
  2
AecDbDispRepMassGroupPlan100
  3
AecArchDACHBase50|Product Desc: Autodesk Architectural Desktop 2007 |Company: Autodesk,Inc. |WEB Address: www.autodesk.com
 90
    32897
280
     0
281
     0
  0
CLASS
  1
AEC_DISPROPSMASSGROUPPLANCOMMON
  2
AecDbDispPropsMassGroupPlanCommon
  3
AecArchDACHBase50|Product Desc: Autodesk Architectural Desktop 2007 |Company: Autodesk,Inc. |WEB Address: www.autodesk.com
 90
    32897
280
     0
281
     0
  0
CLASS
  1
AEC_DISPREPAECDBDISPREPMASSGROUPPLAN50
  2
AecDbDispRepMassGroupPlan50
  3
AecArchDACHBase50|Product Desc: Autodesk Architectural Desktop 2007 |Company: Autodesk,Inc. |WEB Address: www.autodesk.com
 90
    32897
280
     0
281
     0
  0
CLASS
  1
AEC_DISPREPAECDBDISPREPOPENINGPLAN100
  2
AecDbDispRepOpeningPlan100
  3
AecArchDACHBase50|Product Desc: Autodesk Architectural Desktop 2007 |Company: Autodesk,Inc. |WEB Address: www.autodesk.com
 90
    32897
280
     0
281
     0
  0
CLASS
  1
AEC_DISPROPSOPENINGPLANCOMMONHATCHED
  2
AecDbDispPropsOpeningPlanCommonHatched
  3
AecArchDACHBase50|Product Desc: Autodesk Architectural Desktop 2007 |Company: Autodesk,Inc. |WEB Address: www.autodesk.com
 90
    32897
280
     0
281
     0
  0
CLASS
  1
AEC_DISPREPAECDBDISPREPOPENINGPLAN50
  2
AecDbDispRepOpeningPlan50
  3
AecArchDACHBase50|Product Desc: Autodesk Architectural Desktop 2007 |Company: Autodesk,Inc. |WEB Address: www.autodesk.com
 90
    32897
280
     0
281
     0
  0
CLASS
  1
AEC_DISPREPAECDBDISPREPOPENINGPLANREFLECTED
  2
AecDbDispRepOpeningPlanReflected
  3
AecArchDACHBase50|Product Desc: Autodesk Architectural Desktop 2007 |Company: Autodesk,Inc. |WEB Address: www.autodesk.com
 90
    32897
280
     0
281
     0
  0
CLASS
  1
AEC_DISPROPSOPENINGPLANCOMMON
  2
AecDbDispPropsOpeningPlanCommon
  3
AecArchDACHBase50|Product Desc: Autodesk Architectural Desktop 2007 |Company: Autodesk,Inc. |WEB Address: www.autodesk.com
 90
    32897
280
     0
281
     0
  0
CLASS
  1
AEC_DISPREPAECDBDISPREPOPENINGSILLPLAN
  2
AecDbDispRepOpeningSillPlan
  3
AecArchDACHBase50|Product Desc: Autodesk Architectural Desktop 2007 |Company: Autodesk,Inc. |WEB Address: www.autodesk.com
 90
    32897
280
     0
281
     0
  0
CLASS
  1
AEC_DISPROPSOPENINGSILLPLAN
  2
AecDbDispPropsOpeningSillPlan
  3
AecArchDACHBase50|Product Desc: Autodesk Architectural Desktop 2007 |Company: Autodesk,Inc. |WEB Address: www.autodesk.com
 90
    32897
280
     0
281
     0
  0
CLASS
  1
AEC_DISP_REP_RAILING_PLAN_100
  2
AecDbDispRepRailingPlan100
  3
AecArchDACHBase50|Product Desc: Autodesk Architectural Desktop 2007 |Company: Autodesk,Inc. |WEB Address: www.autodesk.com
 90
    32897
280
     0
281
     0
  0
CLASS
  1
AEC_DISP_ROPS_RAILING_PLAN_100
  2
AecDbDispPropsRailingPlan100
  3
AecArchDACHBase50|Product Desc: Autodesk Architectural Desktop 2007 |Company: Autodesk,Inc. |WEB Address: www.autodesk.com
 90
    32897
280
     0
281
     0
  0
CLASS
  1
AEC_DISP_REP_RAILING_PLAN_50
  2
AecDbDispRepRailingPlan50
  3
AecArchDACHBase50|Product Desc: Autodesk Architectural Desktop 2007 |Company: Autodesk,Inc. |WEB Address: www.autodesk.com
 90
    32897
280
     0
281
     0
  0
CLASS
  1
AEC_DISP_ROPS_RAILING_PLAN_50
  2
AecDbDispPropsRailingPlan50
  3
AecArchDACHBase50|Product Desc: Autodesk Architectural Desktop 2007 |Company: Autodesk,Inc. |WEB Address: www.autodesk.com
 90
    32897
280
     0
281
     0
  0
CLASS
  1
AEC_DISP_REP_STAIR_PLAN_100
  2
AecDbDispRepStairPlan100
  3
AecArchDACHBase50|Product Desc: Autodesk Architectural Desktop 2007 |Company: Autodesk,Inc. |WEB Address: www.autodesk.com
 90
    32897
280
     0
281
     0
  0
CLASS
  1
AEC_DISP_ROPS_STAIR_PLAN_100
  2
AecDbDispPropsStairPlan100
  3
AecArchDACHBase50|Product Desc: Autodesk Architectural Desktop 2007 |Company: Autodesk,Inc. |WEB Address: www.autodesk.com
 90
    32897
280
     0
281
     0
  0
CLASS
  1
AEC_DISP_REP_STAIR_PLAN_50
  2
AecDbDispRepStairPlan50
  3
AecArchDACHBase50|Product Desc: Autodesk Architectural Desktop 2007 |Company: Autodesk,Inc. |WEB Address: www.autodesk.com
 90
    32897
280
     0
281
     0
  0
CLASS
  1
AEC_DISP_ROPS_STAIR_PLAN_50
  2
AecDbDispPropsStairPlan50
  3
AecArchDACHBase50|Product Desc: Autodesk Architectural Desktop 2007 |Company: Autodesk,Inc. |WEB Address: www.autodesk.com
 90
    32897
280
     0
281
     0
  0
CLASS
  1
AEC_DISP_REP_WINDOW_PLAN_100
  2
AecDbDispRepWindowPlan100
  3
AecArchDACHBase50|Product Desc: Autodesk Architectural Desktop 2007 |Company: Autodesk,Inc. |WEB Address: www.autodesk.com
 90
    32897
280
     0
281
     0
  0
CLASS
  1
AEC_DISP_PROPS_WINDOW_PLAN_100
  2
AecDbDispPropsWindowPlan100
  3
AecArchDACHBase50|Product Desc: Autodesk Architectural Desktop 2007 |Company: Autodesk,Inc. |WEB Address: www.autodesk.com
 90
    32897
280
     0
281
     0
  0
CLASS
  1
AEC_DISP_REP_WINDOW_PLAN_50
  2
AecDbDispRepWindowPlan50
  3
AecArchDACHBase50|Product Desc: Autodesk Architectural Desktop 2007 |Company: Autodesk,Inc. |WEB Address: www.autodesk.com
 90
    32897
280
     0
281
     0
  0
CLASS
  1
AEC_DISP_PROPS_WINDOW_PLAN_50
  2
AecDbDispPropsWindowPlan50
  3
AecArchDACHBase50|Product Desc: Autodesk Architectural Desktop 2007 |Company: Autodesk,Inc. |WEB Address: www.autodesk.com
 90
    32897
280
     0
281
     0
  0
CLASS
  1
BINRECORD
  2
AcAecBinRecord
  3
AecBase50|Product Desc: Autodesk Architectural Desktop 2007 |Company: Autodesk,Inc. |WEB Address: www.autodesk.com
 90
    32897
280
     0
281
     0
  0
CLASS
  1
SORTENTSTABLE
  2
AcDbSortentsTable
  3
ObjectDBX Classes
 90
        0
280
     0
281
     0
  0
CLASS
  1
AEC_MASS_ELEM
  2
AecDbMassElem
  3
AecBaseEx50|Product Desc: Autodesk Architectural Desktop 2007 |Company: Autodesk,Inc. |WEB Address: www.autodesk.com
 90
    33661
280
     0
281
     1
  0
CLASS
  1
MATERIAL
  2
AcDbMaterial
  3
ObjectDBX Classes
 90
     1153
280
     0
281
     0
  0
CLASS
  1
AECS_MEMBER
  2
AecsDbMember
  3
AecStructureBase50|Product Desc: Autodesk Architectural Desktop 2007 |Company: Autodesk,Inc. |WEB Address: www.autodesk.com
 90
    33661
280
     0
281
     1
  0
CLASS
  1
AEC_WALL
  2
AecDbWall
  3
AecArchBase50|Product Desc: Autodesk Architectural Desktop 2007 |Company: Autodesk,Inc. |WEB Address: www.autodesk.com
 90
    33661
280
     0
281
     1
  0
CLASS
  1
AEC_DOOR
  2
AecDbDoor
  3
AecArchBase50|Product Desc: Autodesk Architectural Desktop 2007 |Company: Autodesk,Inc. |WEB Address: www.autodesk.com
 90
    33661
280
     0
281
     1
  0
CLASS
  1
AEC_ANCHOR_OPENINGBASE_TO_WALL
  2
AecDbAnchorOpeningBaseToWall
  3
AecArchBase50|Product Desc: Autodesk Architectural Desktop 2007 |Company: Autodesk,Inc. |WEB Address: www.autodesk.com
 90
    32897
280
     0
281
     0
  0
CLASS
  1
AEC_SPACE_BOUNDARY
  2
AecDbSpaceBoundary
  3
AecArchBase50|Product Desc: Autodesk Architectural Desktop 2007 |Company: Autodesk,Inc. |WEB Address: www.autodesk.com
 90
    33661
280
     0
281
     1
  0
CLASS
  1
AEC_SPACE
  2
AecDbSpace
  3
AecArchBase50|Product Desc: Autodesk Architectural Desktop 2007 |Company: Autodesk,Inc. |WEB Address: www.autodesk.com
 90
    33661
280
     0
281
     1
  0
CLASS
  1
AecDbPropertySet
  2
AecDbPropertySet
  3
AecScheduleData50|Product Desc: Autodesk Architectural Desktop 2007 |Company: Autodesk,Inc. |WEB Address: www.autodesk.com
 90
    32897
280
     0
281
     0
  0
CLASS
  1
AEC_MVBLOCK_REF
  2
AecDbMvBlockRef
  3
AecBase50|Product Desc: Autodesk Architectural Desktop 2007 |Company: Autodesk,Inc. |WEB Address: www.autodesk.com
 90
    33661
280
     0
281
     1
  0
CLASS
  1
AEC_ANCHOR_TAG_TO_ENT
  2
AecDbAnchorTagToEnt
  3
AecScheduleData50|Product Desc: Autodesk Architectural Desktop 2007 |Company: Autodesk,Inc. |WEB Address: www.autodesk.com
 90
    32897
280
     0
281
     0
  0
CLASS
  1
AEC_WINDOW
  2
AecDbWindow
  3
AecArchBase50|Product Desc: Autodesk Architectural Desktop 2007 |Company: Autodesk,Inc. |WEB Address: www.autodesk.com
 90
    33661
280
     0
281
     1
  0
CLASS
  1
AEC_OPENING
  2
AecDbOpening
  3
AecArchBase50|Product Desc: Autodesk Architectural Desktop 2007 |Company: Autodesk,Inc. |WEB Address: www.autodesk.com
 90
    33661
280
     0
281
     1
  0
CLASS
  1
AEC_CLASSIFICATION_SYSTEM_DEF
  2
AecDbClassificationSystemDef
  3
AecBase50|Product Desc: Autodesk Architectural Desktop 2007 |Company: Autodesk,Inc. |WEB Address: www.autodesk.com
 90
    32897
280
     0
281
     0
  0
CLASS
  1
AEC_CLASSIFICATION_DEF
  2
AecDbClassificationDef
  3
AecBase50|Product Desc: Autodesk Architectural Desktop 2007 |Company: Autodesk,Inc. |WEB Address: www.autodesk.com
 90
    32897
280
     0
281
     0
  0
CLASS
  1
AEC_CLEANUP_GROUP_DEF
  2
AecDbCleanupGroupDef
  3
AecArchBase50|Product Desc: Autodesk Architectural Desktop 2007 |Company: Autodesk,Inc. |WEB Address: www.autodesk.com
 90
    32897
280
     0
281
     0
  0
CLASS
  1
AEC_DOOR_STYLE
  2
AecDbDoorStyle
  3
AecArchBase50|Product Desc: Autodesk Architectural Desktop 2007 |Company: Autodesk,Inc. |WEB Address: www.autodesk.com
 90
    32897
280
     0
281
     0
  0
CLASS
  1
AEC_STDSIZE_OPENINGS
  2
AecDbStdSizeOpeningList
  3
AecArchBase50|Product Desc: Autodesk Architectural Desktop 2007 |Company: Autodesk,Inc. |WEB Address: www.autodesk.com
 90
    32897
280
     0
281
     0
  0
CLASS
  1
AEC_ENDCAP_STYLE
  2
AecDbEndcapStyle
  3
AecArchBase50|Product Desc: Autodesk Architectural Desktop 2007 |Company: Autodesk,Inc. |WEB Address: www.autodesk.com
 90
    32897
280
     0
281
     0
  0
CLASS
  1
AEC_MASS_ELEM_STYLE
  2
AecDbMassElemStyle
  3
AecBaseEx50|Product Desc: Autodesk Architectural Desktop 2007 |Company: Autodesk,Inc. |WEB Address: www.autodesk.com
 90
    32897
280
     0
281
     0
  0
CLASS
  1
AEC_MATERIAL_DEF
  2
AecDbMaterialDef
  3
AecBase50|Product Desc: Autodesk Architectural Desktop 2007 |Company: Autodesk,Inc. |WEB Address: www.autodesk.com
 90
    32897
280
     0
281
     0
  0
CLASS
  1
AEC_MVBLOCK_DEF
  2
AecDbMvBlockDef
  3
AecBase50|Product Desc: Autodesk Architectural Desktop 2007 |Company: Autodesk,Inc. |WEB Address: www.autodesk.com
 90
    32897
280
     0
281
     0
  0
CLASS
  1
AEC_FRAME_DEF
  2
AecDbOpeningEndcapStyle
  3
AecArchBase50|Product Desc: Autodesk Architectural Desktop 2007 |Company: Autodesk,Inc. |WEB Address: www.autodesk.com
 90
    32897
280
     0
281
     0
  0
CLASS
  1
AEC_PROFILE_DEF
  2
AecDbProfileDef
  3
AecBase50|Product Desc: Autodesk Architectural Desktop 2007 |Company: Autodesk,Inc. |WEB Address: www.autodesk.com
 90
    32897
280
     0
281
     0
  0
CLASS
  1
AEC_SCHEDULE_DATA_FORMAT
  2
AecDbScheduleDataFormat
  3
AecScheduleData50|Product Desc: Autodesk Architectural Desktop 2007 |Company: Autodesk,Inc. |WEB Address: www.autodesk.com
 90
    32897
280
     0
281
     0
  0
CLASS
  1
AEC_PROPERTY_SET_DEF
  2
AecDbPropertySetDef
  3
AecScheduleData50|Product Desc: Autodesk Architectural Desktop 2007 |Company: Autodesk,Inc. |WEB Address: www.autodesk.com
 90
    32897
280
     0
281
     0
  0
CLASS
  1
AEC_SPACE_STYLES
  2
AecDbSpaceStyle
  3
AecArchBase50|Product Desc: Autodesk Architectural Desktop 2007 |Company: Autodesk,Inc. |WEB Address: www.autodesk.com
 90
    32897
280
     0
281
     0
  0
CLASS
  1
AEC_TEXT_NOTE
  2
AecDbTextNote
  3
AecBase50|Product Desc: Autodesk Architectural Desktop 2007 |Company: Autodesk,Inc. |WEB Address: www.autodesk.com
 90
    32897
280
     0
281
     0
  0
CLASS
  1
AECS_MEMBER_STYLE
  2
AecsDbMemberStyle
  3
AecStructureBase50|Product Desc: Autodesk Architectural Desktop 2007 |Company: Autodesk,Inc. |WEB Address: www.autodesk.com
 90
    32897
280
     0
281
     0
  0
CLASS
  1
AEC_VARS_STRUCTUREBASE
  2
AecsDbVarsStructureBase
  3
AecStructureBase50|Product Desc: Autodesk Architectural Desktop 2007 |Company: Autodesk,Inc. |WEB Address: www.autodesk.com
 90
    32897
280
     0
281
     0
  0
CLASS
  1
AEC_WALL_STYLE
  2
AecDbWallStyle
  3
AecArchBase50|Product Desc: Autodesk Architectural Desktop 2007 |Company: Autodesk,Inc. |WEB Address: www.autodesk.com
 90
    32897
280
     0
281
     0
  0
CLASS
  1
AEC_WINDOW_STYLE
  2
AecDbWindowStyle
  3
AecArchBase50|Product Desc: Autodesk Architectural Desktop 2007 |Company: Autodesk,Inc. |WEB Address: www.autodesk.com
 90
    32897
280
     0
281
     0
  0
CLASS
  1
AECS_MEMBER_NODE_SHAPE
  2
AecsDbMemberNodeShape
  3
AecStructureBase50|Product Desc: Autodesk Architectural Desktop 2007 |Company: Autodesk,Inc. |WEB Address: www.autodesk.com
 90
    32897
280
     0
281
     0
  0
CLASS
  1
AEC_SCHEDULE_TABLE
  2
AecDbScheduleTable
  3
AecSchedule50|Product Desc: Autodesk Architectural Desktop 2007 |Company: Autodesk,Inc. |WEB Address: www.autodesk.com
 90
    33661
280
     0
281
     1
  0
CLASS
  1
AEC_SCHEDULE_TABLE_STYLE
  2
AecDbScheduleTableStyle
  3
AecSchedule50|Product Desc: Autodesk Architectural Desktop 2007 |Company: Autodesk,Inc. |WEB Address: www.autodesk.com
 90
    32897
280
     0
281
     0
  0
CLASS
  1
AEC_ANCHOR_MVB_TO_UCS
  2
AecDbAnchorMVBToUCS
  3
AecBase50|Product Desc: Autodesk Architectural Desktop 2007 |Company: Autodesk,Inc. |WEB Address: www.autodesk.com
 90
    32897
280
     0
281
     0
  0
CLASS
  1
IMAGEDEF
  2
AcDbRasterImageDef
  3
ISM
 90
    32768
280
     0
281
     0
  0
CLASS
  1
AEC_ANCHOR_ENT_TO_GRID_ASSEMBLY
  2
AecDbAnchorEntToGridAssembly
  3
AecBase50|Product Desc: Autodesk Architectural Desktop 2007 |Company: Autodesk,Inc. |WEB Address: www.autodesk.com
 90
    32897
280
     0
281
     0
  0
CLASS
  1
AEC_WINDOW_ASSEMBLY
  2
AecDbWindowAssembly
  3
AecArchBase50|Product Desc: Autodesk Architectural Desktop 2007 |Company: Autodesk,Inc. |WEB Address: www.autodesk.com
 90
    33661
280
     0
281
     1
  0
CLASS
  1
AEC_ANCHOR_WINASSEMBLY_TO_WALL
  2
AecDbAnchorWinAssemblyToWall
  3
AecArchBase50|Product Desc: Autodesk Architectural Desktop 2007 |Company: Autodesk,Inc. |WEB Address: www.autodesk.com
 90
    32897
280
     0
281
     0
  0
CLASS
  1
AEC_STAIR
  2
AecDbStair
  3
AecArchBase50|Product Desc: Autodesk Architectural Desktop 2007 |Company: Autodesk,Inc. |WEB Address: www.autodesk.com
 90
    33661
280
     0
281
     1
  0
CLASS
  1
AEC_RAILING
  2
AecDbRailing
  3
AecArchBase50|Product Desc: Autodesk Architectural Desktop 2007 |Company: Autodesk,Inc. |WEB Address: www.autodesk.com
 90
    33661
280
     0
281
     1
  0
CLASS
  1
AEC_ANCHOR_RAILING_TO_STAIR
  2
AecDbAnchorRailingToStair
  3
AecArchBase50|Product Desc: Autodesk Architectural Desktop 2007 |Company: Autodesk,Inc. |WEB Address: www.autodesk.com
 90
    32897
280
     0
281
     0
  0
CLASS
  1
AEC_RAILING_STYLE
  2
AecDbRailingStyle
  3
AecArchBase50|Product Desc: Autodesk Architectural Desktop 2007 |Company: Autodesk,Inc. |WEB Address: www.autodesk.com
 90
    32897
280
     0
281
     0
  0
CLASS
  1
AEC_STAIR_STYLE
  2
AecDbStairStyle
  3
AecArchBase50|Product Desc: Autodesk Architectural Desktop 2007 |Company: Autodesk,Inc. |WEB Address: www.autodesk.com
 90
    32897
280
     0
281
     0
  0
CLASS
  1
AEC_STAIR_WINDER_STYLE
  2
AecDbStairWinderStyle
  3
AecArchBase50|Product Desc: Autodesk Architectural Desktop 2007 |Company: Autodesk,Inc. |WEB Address: www.autodesk.com
 90
    32897
280
     0
281
     0
  0
CLASS
  1
AEC_STAIR_WINDER_TYPE_SINGLE_POINT
  2
AecDbStairWinderTypeSinglePoint
  3
AecArchBase50|Product Desc: Autodesk Architectural Desktop 2007 |Company: Autodesk,Inc. |WEB Address: www.autodesk.com
 90
    32897
280
     0
281
     0
  0
CLASS
  1
AEC_WINDOW_ASSEMBLY_STYLE
  2
AecDbWindowAssemblyStyle
  3
AecArchBase50|Product Desc: Autodesk Architectural Desktop 2007 |Company: Autodesk,Inc. |WEB Address: www.autodesk.com
 90
    32897
280
     0
281
     0
  0
CLASS
  1
AEC_AECDBAREASTYLE
  2
AecDbAreaStyle
  3
AecAreaCalculationBase50|Product Desc: Autodesk Architectural Desktop 2007 |Company: Autodesk,Inc. |WEB Address: www.autodesk.com
 90
    32897
280
     0
281
     0
  0
CLASS
  1
AEC_AECDBAREAPROPOSALNAMES
  2
AecDbAreaProposalNames
  3
AecAreaCalculationBase50|Product Desc: Autodesk Architectural Desktop 2007 |Company: Autodesk,Inc. |WEB Address: www.autodesk.com
 90
    32897
280
     0
281
     0
  0
CLASS
  1
AEC_AREA
  2
AecDbArea
  3
AecAreaCalculationBase50|Product Desc: Autodesk Architectural Desktop 2007 |Company: Autodesk,Inc. |WEB Address: www.autodesk.com
 90
    33661
280
     0
281
     1
  0
CLASS
  1
OBJECT_PTR
  2
CAseDLPNTableRecord
  3
ASE-LPNTableRecord
 90
    32769
280
     1
281
     0
  0
CLASS
  1
TABLESTYLE
  2
AcDbTableStyle
  3
ObjectDBX Classes
 90
     4095
280
     0
281
     0
  0
CLASS
  1
AEC_DISP_REP_DISPLAYTHEME
  2
AecDbDispRepDisplayTheme
  3
AecBase50|Product Desc: Autodesk Architectural Desktop 2007 |Company: Autodesk,Inc. |WEB Address: www.autodesk.com
 90
    32897
280
     0
281
     0
  0
CLASS
  1
AEC_DISP_PROPS_DISPLAYTHEME
  2
AecDbDispPropsDisplayTheme
  3
AecBase50|Product Desc: Autodesk Architectural Desktop 2007 |Company: Autodesk,Inc. |WEB Address: www.autodesk.com
 90
    32897
280
     0
281
     0
  0
CLASS
  1
AEC_DISP_REP_ANCHOR_EXT_TAG_TO_ENT
  2
AecDbDispRepAnchorExtendedTagToEnt
  3
AecScheduleData50|Product Desc: Autodesk Architectural Desktop 2007 |Company: Autodesk,Inc. |WEB Address: www.autodesk.com
 90
    32897
280
     0
281
     0
  0
CLASS
  1
VISUALSTYLE
  2
AcDbVisualStyle
  3
ObjectDBX Classes
 90
     4095
280
     0
281
     0
  0
CLASS
  1
AEC_AECDBDISPREPZONE100
  2
AecDbDispRepZonePlan100
  3
AecArchDACHBase50|Product Desc: Autodesk Architectural Desktop 2007 |Company: Autodesk,Inc. |WEB Address: www.autodesk.com
 90
    32897
280
     0
281
     0
  0
CLASS
  1
AEC_DISP_PROPS_ZONE
  2
AecDbDispPropsZone
  3
AecArchBase50|Product Desc: Autodesk Architectural Desktop 2007 |Company: Autodesk,Inc. |WEB Address: www.autodesk.com
 90
    32897
280
     0
281
     0
  0
CLASS
  1
AEC_AECDBDISPREPZONE50
  2
AecDbDispRepZonePlan50
  3
AecArchDACHBase50|Product Desc: Autodesk Architectural Desktop 2007 |Company: Autodesk,Inc. |WEB Address: www.autodesk.com
 90
    32897
280
     0
281
     0
  0
CLASS
  1
AEC_DISP_REP_SPACE_DECOMPOSED
  2
AecDbDispRepSpaceDecomposed
  3
AecArchBase50|Product Desc: Autodesk Architectural Desktop 2007 |Company: Autodesk,Inc. |WEB Address: www.autodesk.com
 90
    32897
280
     0
281
     0
  0
CLASS
  1
AEC_DISP_PROPS_SPACE_DECOMPOSED
  2
AecDbDispPropsSpaceDecomposed
  3
AecArchBase50|Product Desc: Autodesk Architectural Desktop 2007 |Company: Autodesk,Inc. |WEB Address: www.autodesk.com
 90
    32897
280
     0
281
     0
  0
CLASS
  1
AEC_DISP_REP_ZONE
  2
AecDbDispRepZone
  3
AecArchBase50|Product Desc: Autodesk Architectural Desktop 2007 |Company: Autodesk,Inc. |WEB Address: www.autodesk.com
 90
    32897
280
     0
281
     0
  0
CLASS
  1
AEC_LIST_DEF
  2
AecDbListDefinition
  3
AecBase50|Product Desc: Autodesk Architectural Desktop 2007 |Company: Autodesk,Inc. |WEB Address: www.autodesk.com
 90
    32897
280
     0
281
     0
  0
CLASS
  1
EXACXREFPANELOBJECT
  2
ExAcXREFPanelObject
  3
EXAC_ESW
 90
    33793
280
     1
281
     0
  0
CLASS
  1
NPOCOLLECTION
  2
AcDbImpNonPersistentObjectsCollection
  3
ObjectDBX Classes
 90
    33921
280
     0
281
     0
  0
CLASS
  1
ACAD_EVALUATION_GRAPH
  2
AcDbEvalGraph
  3
ObjectDBX Classes
 90
    33921
280
     0
281
     0
  0
CLASS
  1
BLOCKLINEARPARAMETER
  2
AcDbBlockLinearParameter
  3
ObjectDBX Classes
 90
    33921
280
     0
281
     0
  0
CLASS
  1
BLOCKLINEARGRIP
  2
AcDbBlockLinearGrip
  3
ObjectDBX Classes
 90
    33921
280
     0
281
     0
  0
CLASS
  1
BLOCKGRIPLOCATIONCOMPONENT
  2
AcDbBlockGripExpr
  3
ObjectDBX Classes
 90
    33921
280
     0
281
     0
  0
CLASS
  1
BLOCKSTRETCHACTION
  2
AcDbBlockStretchAction
  3
ObjectDBX Classes
 90
    33921
280
     0
281
     0
  0
CLASS
  1
BLOCKFLIPPARAMETER
  2
AcDbBlockFlipParameter
  3
ObjectDBX Classes
 90
    33921
280
     0
281
     0
  0
CLASS
  1
BLOCKFLIPGRIP
  2
AcDbBlockFlipGrip
  3
ObjectDBX Classes
 90
    33921
280
     0
281
     0
  0
CLASS
  1
BLOCKFLIPACTION
  2
AcDbBlockFlipAction
  3
ObjectDBX Classes
 90
    33921
280
     0
281
     0
  0
CLASS
  1
ACDB_DYNAMICBLOCKPURGEPREVENTER_VERSION
  2
AcDbDynamicBlockPurgePreventer
  3
ObjectDBX Classes
 90
    33921
280
     0
281
     0
  0
CLASS
  1
ACDB_BLOCKREPRESENTATION_DATA
  2
AcDbBlockRepresentationData
  3
ObjectDBX Classes
 90
    33921
280
     0
281
     0
  0
CLASS
  1
AEC_SLAB
  2
AecDbSlab
  3
AecArchBase50|Product Desc: Autodesk Architectural Desktop 2007 |Company: Autodesk,Inc. |WEB Address: www.autodesk.com
 90
    33661
280
     0
281
     1
  0
CLASS
  1
AEC_LIST_DEF
  2
AecDbListItem
  3
AecBase50|Product Desc: Autodesk Architectural Desktop 2007 |Company: Autodesk,Inc. |WEB Address: www.autodesk.com
 90
    32897
280
     0
281
     0
  0
CLASS
  1
AEC_ROOFSLAB_STYLE
  2
AecDbRoofSlabStyle
  3
AecArchBase50|Product Desc: Autodesk Architectural Desktop 2007 |Company: Autodesk,Inc. |WEB Address: www.autodesk.com
 90
    32897
280
     0
281
     0
  0
CLASS
  1
AEC_ROOFSLABEDGE_STYLE
  2
AecDbRoofSlabEdgeStyle
  3
AecArchBase50|Product Desc: Autodesk Architectural Desktop 2007 |Company: Autodesk,Inc. |WEB Address: www.autodesk.com
 90
    32897
280
     0
281
     0
  0
CLASS
  1
AEC_SLAB_STYLE
  2
AecDbSlabStyle
  3
AecArchBase50|Product Desc: Autodesk Architectural Desktop 2007 |Company: Autodesk,Inc. |WEB Address: www.autodesk.com
 90
    32897
280
     0
281
     0
  0
CLASS
  1
AEC_SLABEDGE_STYLE
  2
AecDbSlabEdgeStyle
  3
AecArchBase50|Product Desc: Autodesk Architectural Desktop 2007 |Company: Autodesk,Inc. |WEB Address: www.autodesk.com
 90
    32897
280
     0
281
     0
  0
CLASS
  1
EXACTERMXREFMAP
  2
ExAcTermXrefMap
  3
EXAC_SERVICE
 90
    33793
280
     1
281
     0
  0
CLASS
  1
AEC_AECDBZONESTYLE
  2
AecDbZoneStyle
  3
AecArchBase50|Product Desc: Autodesk Architectural Desktop 2007 |Company: Autodesk,Inc. |WEB Address: www.autodesk.com
 90
    32897
280
     0
281
     0
  0
CLASS
  1
AEC_ZONE
  2
AecDbZone
  3
AecArchBase50|Product Desc: Autodesk Architectural Desktop 2007 |Company: Autodesk,Inc. |WEB Address: www.autodesk.com
 90
    33661
280
     0
281
     1
  0
CLASS
  1
ACAD_TABLE
  2
AcDbTable
  3
ObjectDBX Classes
 90
    33793
280
     0
281
     1
  0
CLASS
  1
AEC_DISPLAYTHEME_STYLE
  2
AecDbDisplayThemeStyle
  3
AecBase50|Product Desc: Autodesk Architectural Desktop 2007 |Company: Autodesk,Inc. |WEB Address: www.autodesk.com
 90
    32897
280
     0
281
     0
  0
CLASS
  1
DIMASSOC
  2
AcDbDimAssoc
  3
"AcDbDimAssoc|Product Desc:     AcDim ARX App For Dimension|Company:          Autodesk, Inc.|WEB Address:      www.autodesk.com"
 90
        0
280
     0
281
     0
  0
CLASS
  1
AEC_MASS_GROUP
  2
AecDbMassGroup
  3
AecBaseEx50|Product Desc: Autodesk Architectural Desktop 2007 |Company: Autodesk,Inc. |WEB Address: www.autodesk.com
 90
    33661
280
     0
281
     1
  0
CLASS
  1
AEC_ANCHOR_ENT_TO_ENT
  2
AecDbAnchorEntToEnt
  3
AecBase50|Product Desc: Autodesk Architectural Desktop 2007 |Company: Autodesk,Inc. |WEB Address: www.autodesk.com
 90
    32897
280
     0
281
     0
  0
CLASS
  1
AEC_2D_SECTION
  2
AecDb2dSection
  3
AecBase50|Product Desc: Autodesk Architectural Desktop 2007 |Company: Autodesk,Inc. |WEB Address: www.autodesk.com
 90
    33661
280
     0
281
     1
  0
CLASS
  1
AEC_2DSECTION_STYLE
  2
AecDb2dSectionStyle
  3
AecBase50|Product Desc: Autodesk Architectural Desktop 2007 |Company: Autodesk,Inc. |WEB Address: www.autodesk.com
 90
    32897
280
     0
281
     0
  0
CLASS
  1
SCALE
  2
AcDbScale
  3
ObjectDBX Classes
 90
     1153
280
     0
281
     0
  0
CLASS
  1
MLEADERSTYLE
  2
AcDbMLeaderStyle
  3
ACDB_MLEADERSTYLE_CLASS
 90
     4095
280
     0
281
     0
  0
CLASS
  1
AEC_REFEDIT_STATUS_TRACKER
  2
AecDbRefEditStatusTracker
  3
AecArchBase50|Product Desc: Autodesk Architectural Desktop 2007 |Company: Autodesk,Inc. |WEB Address: www.autodesk.com
 90
    32897
280
     0
281
     0
  0
CLASS
  1
CELLSTYLEMAP
  2
AcDbCellStyleMap
  3
ObjectDBX Classes
 90
     1152
280
     0
281
     0
  0
CLASS
  1
BLOCKARRAYACTION
  2
AcDbBlockArrayAction
  3
ObjectDBX Classes
 90
    33921
280
     0
281
     0
  0
CLASS
  1
BLOCKBASEPOINTPARAMETER
  2
AcDbBlockBasepointParameter
  3
ObjectDBX Classes
 90
    33921
280
     0
281
     0
  0
CLASS
  1
SOLID_BACKGROUND
  2
AcDbSolidBackground
  3
SCENEOE
 90
    36863
280
     0
281
     0
  0
ENDSEC
  0
SECTION
  2
TABLES
  0
TABLE
  2
VPORT
  5
28
330
0
100
AcDbSymbolTable
 70
     1
  0
VPORT
  5
29
330
28
100
AcDbSymbolTableRecord
100
AcDbViewportTableRecord
  2
*Active
 70
     0
 10
0.0
 20
0.0
 11
1.0
 21
1.0
 12
74155.95394530712
 22
-5440.844532464969
 13
-3534.953416816247
 23
4038.000000000049
 14
1.0
 24
1.0
 15
1.0
 25
1.0
 16
0.0
 26
0.0
 36
1.0
 17
0.0
 27
0.0
 37
0.0
 40
19329.15065182039
 41
1.513774104683195
 42
50.0
 43
0.0
 44
0.0
 50
0.0
 51
0.0
 71
     0
 72
  2000
 73
     1
 74
     1
 75
     0
 76
     0
 77
     0
 78
     0
281
     0
 65
     1
110
0.0
120
0.0
130
0.0
111
1.0
121
0.0
131
0.0
112
0.0
122
1.0
132
0.0
 79
     0
146
0.0
  0
ENDTAB
  0
TABLE
  2
LTYPE
  5
23
330
0
100
AcDbSymbolTable
 70
     3
  0
LTYPE
  5
24
330
23
100
AcDbSymbolTableRecord
100
AcDbLinetypeTableRecord
  2
BYBLOCK
 70
     0
  3

 72
    65
 73
     0
 40
0.0
  0
LTYPE
  5
25
330
23
100
AcDbSymbolTableRecord
100
AcDbLinetypeTableRecord
  2
BYLAYER
 70
     0
  3

 72
    65
 73
     0
 40
0.0
  0
LTYPE
  5
E
330
23
100
AcDbSymbolTableRecord
100
AcDbLinetypeTableRecord
  2
CONTINUOUS
 70
     0
  3
Solid line
 72
    65
 73
     0
 40
0.0
  0
LTYPE
  5
77
330
23
100
AcDbSymbolTableRecord
100
AcDbLinetypeTableRecord
  2
DASHED
 70
     0
  3
Dashed __ __ __ __ __ __ __ __ __ __ __ __ __ _
 72
    65
 73
     2
 40
0.75
 49
0.5
 74
     0
 49
-0.25
 74
     0
  0
ENDTAB
  0
TABLE
  2
LAYER
  5
1D
102
{ACAD_XDICTIONARY
360
1E
102
}
330
0
100
AcDbSymbolTable
 70
    14
  0
LAYER
  5
6
102
{ACAD_XDICTIONARY
360
7
102
}
330
1D
100
AcDbSymbolTableRecord
100
AcDbLayerTableRecord
  2
0
 70
     0
 62
     7
  6
CONTINUOUS
370
    -3
390
9
1001
RAK
1000
{ACET-LAYISO
1070
     0
1070
     7
1000
CONTINUOUS
1070
     1
1071
       -3
1071
        1
1005
9
1000
ACET-LAYISO}
  0
LAYER
  5
74
102
{ACAD_XDICTIONARY
360
75
102
}
330
1D
100
AcDbSymbolTableRecord
100
AcDbLayerTableRecord
  2
NAPISY
 70
     0
 62
   140
  6
CONTINUOUS
370
    -3
390
9
1001
RAK
1000
{ACET-LAYISO
1070
     0
1070
   140
1000
CONTINUOUS
1071
       -3
1071
        1
1005
9
1000
ACET-LAYISO}
  0
LAYER
  5
3B5
330
1D
100
AcDbSymbolTableRecord
100
AcDbLayerTableRecord
  2
Defpoints
 70
     0
 62
     7
  6
CONTINUOUS
290
     0
370
    -3
390
9
1001
RAK
1000
{ACET-LAYISO
1070
     0
1070
     7
1000
CONTINUOUS
1071
       -3
1071
        0
1005
9
1000
ACET-LAYISO}
  0
LAYER
  5
56
102
{ACAD_XDICTIONARY
360
57
102
}
330
1D
100
AcDbSymbolTableRecord
100
AcDbLayerTableRecord
  2
0Wymiary-PL
 70
     0
 62
     1
  6
CONTINUOUS
370
     5
390
9
  0
LAYER
  5
3A3
102
{ACAD_XDICTIONARY
360
3A4
102
}
330
1D
100
AcDbSymbolTableRecord
100
AcDbLayerTableRecord
  2
0Hatch
 70
     0
 62
   122
  6
CONTINUOUS
370
     5
390
9
  0
LAYER
  5
7E
102
{ACAD_XDICTIONARY
360
7F
102
}
330
1D
100
AcDbSymbolTableRecord
100
AcDbLayerTableRecord
  2
RAMKI-A4
 70
     0
 62
     2
  6
CONTINUOUS
290
     0
370
    -3
390
9
1001
RAK
1000
{ACET-LAYISO
1070
     0
1070
     2
1000
Continuous
1071
       -3
1071
        0
1005
9
1000
ACET-LAYISO}
  0
LAYER
  5
1326
330
1D
100
AcDbSymbolTableRecord
100
AcDbLayerTableRecord
  2
TEREN$0$A-MassElement-G
 70
     0
 62
   210
  6
CONTINUOUS
370
     9
390
9
1001
AcAecLayerStandard
1000
BS1192 - Descriptive
1001
RAK
1000
{ACET-LAYISO
1070
     0
1070
   210
1000
Continuous
1071
        9
1071
        1
1005
9
1000
ACET-LAYISO}
  0
ENDTAB
  0
TABLE
  2
STYLE
  5
20
330
0
100
AcDbSymbolTable
 70
     6
  0
STYLE
  5
21
330
20
100
AcDbSymbolTableRecord
100
AcDbTextStyleTableRecord
  2
STANDARD
 70
     0
 40
0.0
 41
1.0
 50
0.0
 71
     0
 42
0.2
  3
txt
  4

  0
STYLE
  5
2E
330
20
100
AcDbSymbolTableRecord
100
AcDbTextStyleTableRecord
  2
ROMANS
 70
     0
 40
0.0
 41
0.9
 50
0.0
 71
     0
 42
5.0
  3
romans.shx
  4

  0
STYLE
  5
79
330
20
100
AcDbSymbolTableRecord
100
AcDbTextStyleTableRecord
  2
AVA
 70
     0
 40
0.0
 41
1.0
 50
0.0
 71
     0
 42
20.0
  3
ARIAL.TTF
  4

1001
ACAD
1000
Arial CE
1071
    60962
  0
STYLE
  5
237C
330
20
100
AcDbSymbolTableRecord
100
AcDbTextStyleTableRecord
  2
ARIAL
 70
     0
 40
0.0
 41
1.0
 50
0.0
 71
     0
 42
15.0
  3
ARIAL.TTF
  4

1001
ACAD
1000
Arial CE
1071
    60962
  0
ENDTAB
  0
TABLE
  2
VIEW
  5
26
330
0
100
AcDbSymbolTable
 70
     1
  0
VIEW
  5
13
330
26
100
AcDbSymbolTableRecord
100
AcDbViewTableRecord
  2
10-ele
 70
     0
 40
2040.000000000001
 10
597.6361962217097
 20
4133.999999999996
 41
2803.999999999998
 11
0.0
 21
0.0
 31
1.0
 12
0.0
 22
0.0
 32
0.0
 42
50.0
 43
0.0
 44
0.0
 50
0.0
 71
     0
281
     0
 72
     1
110
0.0
120
0.0
130
0.0
111
1.0
121
0.0
131
0.0
112
0.0
122
1.0
132
0.0
 79
     0
146
0.0
  0
ENDTAB
  0
TABLE
  2
UCS
  5
27
330
0
100
AcDbSymbolTable
 70
     0
  0
ENDTAB
  0
TABLE
  2
APPID
  5
2A
330
0
100
AcDbSymbolTable
 70
     7
  0
APPID
  5
2B
330
2A
100
AcDbSymbolTableRecord
100
AcDbRegAppTableRecord
  2
ACAD
 70
     0
  0
APPID
  5
F
330
2A
100
AcDbSymbolTableRecord
100
AcDbRegAppTableRecord
  2
RAK
 70
     0
  0
APPID
  5
16
330
2A
100
AcDbSymbolTableRecord
100
AcDbRegAppTableRecord
  2
ACAD_PSEXT
 70
     0
  0
APPID
  5
7AA
330
2A
100
AcDbSymbolTableRecord
100
AcDbRegAppTableRecord
  2
ACAD_MLEADERVER
 70
     0
  0
APPID
  5
B8E
330
2A
100
AcDbSymbolTableRecord
100
AcDbRegAppTableRecord
  2
ACAD_EXEMPT_FROM_CAD_STANDARDS
 70
     0
  0
APPID
  5
132A
330
2A
100
AcDbSymbolTableRecord
100
AcDbRegAppTableRecord
  2
AcAecLayerStandard
 70
     0
  0
APPID
  5
2020
330
2A
100
AcDbSymbolTableRecord
100
AcDbRegAppTableRecord
  2
AcLayerTools
 70
     0
  0
ENDTAB
  0
TABLE
  2
DIMSTYLE
  5
2C
330
0
100
AcDbSymbolTable
 70
     7
100
AcDbDimStyleTable
 71
     2
340
2D
340
4C
  0
DIMSTYLE
105
4C
330
2C
100
AcDbSymbolTableRecord
100
AcDbDimStyleTableRecord
  2
Standard
 70
     0
340
21
  0
DIMSTYLE
105
2D
102
{ACAD_REACTORS
330
24D6
330
24D9
330
24DC
330
24DF
330
24E2
330
24E5
330
24E8
330
2551
330
2554
330
2557
330
255A
330
255D
330
2560
330
26F9
330
285C
330
285F
330
2838
330
283B
330
283E
330
2841
330
2844
330
2847
330
284A
330
284D
330
2850
330
2853
330
2856
330
2859
102
}
330
2C
100
AcDbSymbolTableRecord
100
AcDbDimStyleTableRecord
  2
500
 70
     0
 41
30.0
 42
43.0
 43
0.0
 44
13.0
 45
0.5
 46
12.0
 73
     0
 74
     0
 75
     1
 76
     1
 78
    12
140
80.0
141
0.0
145
1.0
147
0.0
172
     1
174
     1
176
     1
177
     1
178
   140
271
     1
272
     1
279
     2
340
2E
341
2F
342
2F
  0
ENDTAB
  0
TABLE
  2
BLOCK_RECORD
  5
1
330
0
100
AcDbSymbolTable
 70
   116
  0
BLOCK_RECORD
  5
2
102
{ACAD_XDICTIONARY
360
3
102
}
330
1
100
AcDbSymbolTableRecord
100
AcDbBlockTableRecord
  2
*MODEL_SPACE
340
11
  0
BLOCK_RECORD
  5
1942
330
1
100
AcDbSymbolTableRecord
100
AcDbBlockTableRecord
  2
*Paper_Space
340
1943
  0
BLOCK_RECORD
  5
2F
102
{ACAD_XDICTIONARY
360
30
102
}
330
1
100
AcDbSymbolTableRecord
100
AcDbBlockTableRecord
  2
B-DIM
340
0
102
{BLKREFS
331
1BB3
331
1BB4
331
1BBA
331
1BBB
331
1BC1
331
1BC2
331
1BCF
331
1BD0
331
1BD6
331
1BD7
331
1BDD
331
1BDE
331
1BE6
331
1BE7
331
1BF6
331
1BF7
331
1BFD
331
1BFE
331
1C04
331
1C05
331
1C0B
331
1C0C
331
1C14
331
1C15
331
1C22
331
1C23
331
1C29
331
1C2A
331
1C34
331
1C35
331
1C3D
331
1C3E
331
1C46
331
1C47
331
1C4D
331
1C4E
331
2008
331
2009
331
2012
331
2013
331
20A3
331
20A4
331
20AA
331
20AB
331
2112
331
2113
331
211D
331
211E
331
212A
331
212B
331
2149
331
214A
331
2150
331
2151
331
2157
331
2158
331
215E
331
215F
331
2165
331
2166
331
216C
331
216D
331
2175
331
2176
331
217C
331
217D
331
220D
331
220E
331
2214
331
2215
331
221B
331
221C
331
2222
331
2223
331
2229
331
222A
331
2230
331
2231
331
2239
331
223A
331
2240
331
2241
331
2252
331
2253
331
225C
331
225D
331
2268
331
2269
331
2272
331
2273
331
227C
331
227D
331
2286
331
2287
331
2292
331
2293
331
229C
331
229D
331
22B0
331
22B1
331
22BA
331
22BB
331
22C6
331
22C7
331
22D0
331
22D1
331
22DA
331
22DB
331
22E4
331
22E5
331
22F0
331
22F1
331
22A6
331
22A7
331
22FC
331
22FD
331
2306
331
2307
331
2312
331
2313
331
231E
331
231F
331
2328
331
2329
331
2332
331
2333
331
233E
331
233F
331
2348
331
2349
331
2354
331
2355
331
2360
331
2361
331
236A
331
236B
331
2374
331
2375
331
263B
331
263C
331
2642
331
2643
331
264B
331
264C
331
2652
331
2653
331
265C
331
265D
331
2666
331
2667
331
2672
331
2673
331
2679
331
267A
331
2685
331
2686
331
26C4
331
26C5
331
26CB
331
26CC
331
26D4
331
26D5
331
26DD
331
26DE
331
26E4
331
26E5
331
26EB
331
26EC
331
26F2
331
26F3
331
2733
331
2734
331
273A
331
273B
331
2797
331
2798
331
279E
331
279F
331
27B0
331
27B1
331
27B7
331
27B8
331
27BE
331
27BF
331
27C7
331
27C8
331
27CE
331
27CF
331
27D5
331
27D6
331
27DC
331
27DD
331
27E3
331
27E4
331
27EC
331
27ED
331
2878
331
2879
331
287F
331
2880
331
2889
331
288A
331
2895
331
2896
331
289F
331
28A0
331
28A9
331
28AA
331
28B3
331
28B4
331
28BF
331
28C0
331
28C6
331
28C7
331
28D2
331
28D3
331
28DC
331
28DD
331
28E8
331
28E9
331
28F4
331
28F5
331
28FE
331
28FF
102
}
  0
BLOCK_RECORD
  5
2569
330
1
100
AcDbSymbolTableRecord
100
AcDbBlockTableRecord
  2
*D72
340
0
  0
BLOCK_RECORD
  5
25F3
330
1
100
AcDbSymbolTableRecord
100
AcDbBlockTableRecord
  2
*D85
340
0
  0
BLOCK_RECORD
  5
25FD
330
1
100
AcDbSymbolTableRecord
100
AcDbBlockTableRecord
  2
*D86
340
0
  0
BLOCK_RECORD
  5
2609
330
1
100
AcDbSymbolTableRecord
100
AcDbBlockTableRecord
  2
*D87
340
0
  0
BLOCK_RECORD
  5
2613
330
1
100
AcDbSymbolTableRecord
100
AcDbBlockTableRecord
  2
*D88
340
0
  0
BLOCK_RECORD
  5
261D
330
1
100
AcDbSymbolTableRecord
100
AcDbBlockTableRecord
  2
*D89
340
0
  0
BLOCK_RECORD
  5
2627
330
1
100
AcDbSymbolTableRecord
100
AcDbBlockTableRecord
  2
*D90
340
0
  0
BLOCK_RECORD
  5
267F
330
1
100
AcDbSymbolTableRecord
100
AcDbBlockTableRecord
  2
*D94
340
0
  0
BLOCK_RECORD
  5
268B
330
1
100
AcDbSymbolTableRecord
100
AcDbBlockTableRecord
  2
*D95
340
0
  0
BLOCK_RECORD
  5
2695
330
1
100
AcDbSymbolTableRecord
100
AcDbBlockTableRecord
  2
*D96
340
0
  0
BLOCK_RECORD
  5
26A1
330
1
100
AcDbSymbolTableRecord
100
AcDbBlockTableRecord
  2
*D97
340
0
  0
BLOCK_RECORD
  5
26AD
330
1
100
AcDbSymbolTableRecord
100
AcDbBlockTableRecord
  2
*D98
340
0
  0
BLOCK_RECORD
  5
26B7
330
1
100
AcDbSymbolTableRecord
100
AcDbBlockTableRecord
  2
*D99
340
0
  0
BLOCK_RECORD
  5
26FA
330
1
100
AcDbSymbolTableRecord
100
AcDbBlockTableRecord
  2
*D100
340
0
  0
BLOCK_RECORD
  5
2860
330
1
100
AcDbSymbolTableRecord
100
AcDbBlockTableRecord
  2
*D101
340
0
  0
BLOCK_RECORD
  5
286A
330
1
100
AcDbSymbolTableRecord
100
AcDbBlockTableRecord
  2
*D102
340
0
  0
BLOCK_RECORD
  5
2874
330
1
100
AcDbSymbolTableRecord
100
AcDbBlockTableRecord
  2
*D103
340
0
  0
BLOCK_RECORD
  5
2885
330
1
100
AcDbSymbolTableRecord
100
AcDbBlockTableRecord
  2
*D104
340
0
  0
BLOCK_RECORD
  5
288F
330
1
100
AcDbSymbolTableRecord
100
AcDbBlockTableRecord
  2
*D105
340
0
  0
BLOCK_RECORD
  5
289B
330
1
100
AcDbSymbolTableRecord
100
AcDbBlockTableRecord
  2
*D106
340
0
  0
BLOCK_RECORD
  5
28A5
330
1
100
AcDbSymbolTableRecord
100
AcDbBlockTableRecord
  2
*D107
340
0
  0
BLOCK_RECORD
  5
28AF
330
1
100
AcDbSymbolTableRecord
100
AcDbBlockTableRecord
  2
*D108
340
0
  0
BLOCK_RECORD
  5
28B9
330
1
100
AcDbSymbolTableRecord
100
AcDbBlockTableRecord
  2
*D109
340
0
  0
BLOCK_RECORD
  5
28CC
330
1
100
AcDbSymbolTableRecord
100
AcDbBlockTableRecord
  2
*D110
340
0
  0
BLOCK_RECORD
  5
28D8
330
1
100
AcDbSymbolTableRecord
100
AcDbBlockTableRecord
  2
*D111
340
0
  0
BLOCK_RECORD
  5
28E2
330
1
100
AcDbSymbolTableRecord
100
AcDbBlockTableRecord
  2
*D112
340
0
  0
BLOCK_RECORD
  5
28EE
330
1
100
AcDbSymbolTableRecord
100
AcDbBlockTableRecord
  2
*D113
340
0
  0
BLOCK_RECORD
  5
28FA
330
1
100
AcDbSymbolTableRecord
100
AcDbBlockTableRecord
  2
*D114
340
0
  0
ENDTAB
  0
ENDSEC
  0
SECTION
  2
BLOCKS
  0
BLOCK
  5
5
330
2
100
AcDbEntity
  8
0
100
AcDbBlockBegin
  2
*MODEL_SPACE
 70
     0
 10
0.0
 20
0.0
 30
0.0
  3
*MODEL_SPACE
  1

  0
ENDBLK
  5
10
330
2
100
AcDbEntity
  8
0
100
AcDbBlockEnd
  0
BLOCK
  5
1944
330
1942
100
AcDbEntity
 67
     1
  8
0
 48
4.0
100
AcDbBlockBegin
  2
*Paper_Space
 70
     0
 10
0.0
 20
0.0
 30
0.0
  3
*Paper_Space
  1

  0
ENDBLK
  5
1945
330
1942
100
AcDbEntity
 67
     1
  8
0
 48
4.0
100
AcDbBlockEnd
  0
BLOCK
  5
32
330
2F
100
AcDbEntity
  8
0
100
AcDbBlockBegin
  2
B-DIM
 70
     0
 10
0.0
 20
0.0
 30
0.0
  3
B-DIM
  1

  0
LINE
  5
33
330
2F
100
AcDbEntity
  8
0
 62
     1
100
AcDbLine
 10
0.000000000000091
 20
-1.1
 30
0.0
 11
0.000000000000091
 21
1.1
 31
0.0
  0
LWPOLYLINE
  5
34
330
2F
100
AcDbEntity
  8
0
 62
     1
100
AcDbPolyline
 90
        2
 70
     0
 43
0.3
 10
-0.7071067811864851
 20
-0.7071067811864851
 10
0.707106781186576
 20
0.707106781186576
  0
LINE
  5
35
330
2F
100
AcDbEntity
  8
0
 62
     1
100
AcDbLine
 10
1.20000000000009
 20
0.0
 30
0.0
 11
-1.199999999999909
 21
0.0
 31
0.0
  0
ENDBLK
  5
36
330
2F
100
AcDbEntity
  8
0
100
AcDbBlockEnd
  0
BLOCK
  5
256A
330
2569
100
AcDbEntity
  8
0
 62
    54
 48
4.0
100
AcDbBlockBegin
  2
*D72
 70
     1
 10
0.0
 20
0.0
 30
0.0
  3
*D72
  1

  0
LINE
  5
27CD
330
2569
100
AcDbEntity
  8
0Wymiary-PL
 62
     1
370
    -2
100
AcDbLine
 10
70610.51092769719
 20
-4890.900165774528
 30
0.0
 11
71800.51092769722
 21
-4890.900165774528
 31
0.0
  0
INSERT
  5
27CE
330
2569
100
AcDbEntity
  8
0Wymiary-PL
 62
     1
370
    -2
100
AcDbBlockReference
  2
B-DIM
 10
70580.51092769719
 20
-4890.900165774528
 30
0.0
 41
30.0
 42
30.0
 43
30.0
 50
180.0
  0
INSERT
  5
27CF
330
2569
100
AcDbEntity
  8
0Wymiary-PL
 62
     1
370
    -2
100
AcDbBlockReference
  2
B-DIM
 10
71830.51092769722
 20
-4890.900165774528
 30
0.0
 41
30.0
 42
30.0
 43
30.0
  0
MTEXT
  5
27D0
330
2569
100
AcDbEntity
  8
0Wymiary-PL
 62
   140
100
AcDbMText
 10
71205.5109276972
 20
-4810.900165774529
 30
0.0
 40
80.0
 41
0.0
 71
     5
 72
     1
  1
\A1;1250
  7
ROMANS
 73
     1
 44
1.0
1001
ACAD
1000
MTEXTBEGIN
1070
    73
1070
     1
1070
    44
1040
1.0
1070
    74
1070
     0
1000
MTEXTEND
  0
POINT
  5
27D1
330
2569
100
AcDbEntity
  8
Defpoints
 62
     0
100
AcDbPoint
 10
70580.51092769719
 20
-4705.853966878363
 30
0.0
  0
POINT
  5
27D2
330
2569
100
AcDbEntity
  8
Defpoints
 62
     0
100
AcDbPoint
 10
71830.51092769722
 20
-4705.853966878363
 30
0.0
  0
POINT
  5
27D3
330
2569
100
AcDbEntity
  8
Defpoints
 62
     0
100
AcDbPoint
 10
71830.51092769722
 20
-4890.900165774528
 30
0.0
  0
ENDBLK
  5
256B
330
2569
100
AcDbEntity
  8
0
 62
    54
 48
4.0
100
AcDbBlockEnd
  0
BLOCK
  5
25F4
330
25F3
100
AcDbEntity
  8
0
 62
    54
 48
4.0
100
AcDbBlockBegin
  2
*D85
 70
     1
 10
0.0
 20
0.0
 30
0.0
  3
*D85
  1

  0
LINE
  5
27E2
330
25F3
100
AcDbEntity
  8
0Wymiary-PL
 62
     1
370
    -2
100
AcDbLine
 10
70376.51092769719
 20
-3602.900836842088
 30
0.0
 11
70376.51092769719
 21
-2957.900165774477
 31
0.0
  0
INSERT
  5
27E3
330
25F3
100
AcDbEntity
  8
0Wymiary-PL
 62
     1
370
    -2
100
AcDbBlockReference
  2
B-DIM
 10
70376.51092769719
 20
-3632.900836842087
 30
0.0
 41
30.0
 42
30.0
 43
30.0
 50
270.0
  0
INSERT
  5
27E4
330
25F3
100
AcDbEntity
  8
0Wymiary-PL
 62
     1
370
    -2
100
AcDbBlockReference
  2
B-DIM
 10
70376.51092769719
 20
-2927.900165774477
 30
0.0
 41
30.0
 42
30.0
 43
30.0
 50
90.0
  0
MTEXT
  5
27E5
330
25F3
100
AcDbEntity
  8
0Wymiary-PL
 62
   140
100
AcDbMText
 10
70296.51092769719
 20
-3280.400501308271
 30
0.0
 40
80.0
 41
0.0
 71
     5
 72
     1
  1
\A1;705
  7
ROMANS
 11
0.0000000000000001
 21
1.0
 31
0.0
 73
     1
 44
1.0
1001
ACAD
1000
MTEXTBEGIN
1070
    73
1070
     1
1070
    44
1040
1.0
1070
    74
1070
     0
1000
MTEXTEND
  0
POINT
  5
27E6
330
25F3
100
AcDbEntity
  8
Defpoints
 62
     0
100
AcDbPoint
 10
70580.51092769719
 20
-3632.900836842087
 30
0.0
  0
POINT
  5
27E7
330
25F3
100
AcDbEntity
  8
Defpoints
 62
     0
100
AcDbPoint
 10
70730.51092769703
 20
-2927.900165774478
 30
0.0
  0
POINT
  5
27E8
330
25F3
100
AcDbEntity
  8
Defpoints
 62
     0
100
AcDbPoint
 10
70376.51092769719
 20
-2927.900165774477
 30
0.0
  0
ENDBLK
  5
25F5
330
25F3
100
AcDbEntity
  8
0
 62
    54
 48
4.0
100
AcDbBlockEnd
  0
BLOCK
  5
25FE
330
25FD
100
AcDbEntity
  8
0
 62
    54
 48
4.0
100
AcDbBlockBegin
  2
*D86
 70
     1
 10
0.0
 20
0.0
 30
0.0
  3
*D86
  1

  0
LINE
  5
27E9
330
25FD
100
AcDbEntity
  8
0Wymiary-PL
 62
     1
370
    -2
100
AcDbLine
 10
70376.51092769719
 20
-2957.900165774477
 30
0.0
 11
70376.51092769719
 21
-2987.900165774477
 31
0.0
  0
LINE
  5
27EA
330
25FD
100
AcDbEntity
  8
0Wymiary-PL
 62
     1
370
    -2
100
AcDbLine
 10
70376.51092769719
 20
-2857.900165774535
 30
0.0
 11
70376.51092769719
 21
-2827.900165774535
 31
0.0
  0
LINE
  5
27EB
330
25FD
100
AcDbEntity
  8
0Wymiary-PL
 62
     1
370
    -2
100
AcDbLine
 10
70376.51092769719
 20
-2927.900165774477
 30
0.0
 11
70376.51092769719
 21
-2887.900165774535
 31
0.0
  0
INSERT
  5
27EC
330
25FD
100
AcDbEntity
  8
0Wymiary-PL
 62
     1
370
    -2
100
AcDbBlockReference
  2
B-DIM
 10
70376.51092769719
 20
-2927.900165774477
 30
0.0
 41
30.0
 42
30.0
 43
30.0
 50
90.0
  0
INSERT
  5
27ED
330
25FD
100
AcDbEntity
  8
0Wymiary-PL
 62
     1
370
    -2
100
AcDbBlockReference
  2
B-DIM
 10
70376.51092769719
 20
-2887.900165774535
 30
0.0
 41
30.0
 42
30.0
 43
30.0
 50
270.0
  0
MTEXT
  5
27EE
330
25FD
100
AcDbEntity
  8
0Wymiary-PL
 62
   140
100
AcDbMText
 10
70296.51092769719
 20
-2907.900165774495
 30
0.0
 40
80.0
 41
0.0
 71
     5
 72
     1
  1
\A1;40
  7
ROMANS
 11
0.0000000000000001
 21
1.0
 31
0.0
 73
     1
 44
1.0
1001
ACAD
1000
MTEXTBEGIN
1070
    73
1070
     1
1070
    44
1040
1.0
1070
    74
1070
     0
1000
MTEXTEND
  0
POINT
  5
27EF
330
25FD
100
AcDbEntity
  8
Defpoints
 62
     0
100
AcDbPoint
 10
70730.51092769703
 20
-2927.900165774478
 30
0.0
  0
POINT
  5
27F0
330
25FD
100
AcDbEntity
  8
Defpoints
 62
     0
100
AcDbPoint
 10
70944.51127947145
 20
-2887.900165774536
 30
0.0
  0
POINT
  5
27F1
330
25FD
100
AcDbEntity
  8
Defpoints
 62
     0
100
AcDbPoint
 10
70376.51092769719
 20
-2887.900165774535
 30
0.0
  0
ENDBLK
  5
25FF
330
25FD
100
AcDbEntity
  8
0
 62
    54
 48
4.0
100
AcDbBlockEnd
  0
BLOCK
  5
260A
330
2609
100
AcDbEntity
  8
0
 62
    54
 48
4.0
100
AcDbBlockBegin
  2
*D87
 70
     1
 10
0.0
 20
0.0
 30
0.0
  3
*D87
  1

  0
LINE
  5
27DB
330
2609
100
AcDbEntity
  8
0Hatch
 62
     1
370
    -2
100
AcDbLine
 10
70176.51092769719
 20
-2917.900165774535
 30
0.0
 11
70176.51092769719
 21
-4460.900165774528
 31
0.0
  0
INSERT
  5
27DC
330
2609
100
AcDbEntity
  8
0Hatch
 62
     1
370
    -2
100
AcDbBlockReference
  2
B-DIM
 10
70176.51092769719
 20
-2887.900165774535
 30
0.0
 41
30.0
 42
30.0
 43
30.0
 50
90.0
  0
INSERT
  5
27DD
330
2609
100
AcDbEntity
  8
0Hatch
 62
     1
370
    -2
100
AcDbBlockReference
  2
B-DIM
 10
70176.51092769719
 20
-4490.900165774529
 30
0.0
 41
30.0
 42
30.0
 43
30.0
 50
270.0
  0
MTEXT
  5
27DE
330
2609
100
AcDbEntity
  8
0Hatch
 62
   140
100
AcDbMText
 10
70096.51092769719
 20
-3689.400165774521
 30
0.0
 40
80.0
 41
0.0
 71
     5
 72
     1
  1
\A1;1603
  7
ROMANS
 11
0.0000000000000001
 21
1.0
 31
0.0
 73
     1
 44
1.0
1001
ACAD
1000
MTEXTBEGIN
1070
    73
1070
     1
1070
    44
1040
1.0
1070
    74
1070
     0
1000
MTEXTEND
  0
POINT
  5
27DF
330
2609
100
AcDbEntity
  8
Defpoints
 62
     0
100
AcDbPoint
 10
70944.51127947145
 20
-2887.900165774536
 30
0.0
  0
POINT
  5
27E0
330
2609
100
AcDbEntity
  8
Defpoints
 62
     0
100
AcDbPoint
 10
70944.51127947145
 20
-4490.900165774529
 30
0.0
  0
POINT
  5
27E1
330
2609
100
AcDbEntity
  8
Defpoints
 62
     0
100
AcDbPoint
 10
70176.51092769719
 20
-4490.900165774529
 30
0.0
  0
ENDBLK
  5
260B
330
2609
100
AcDbEntity
  8
0
 62
    54
 48
4.0
100
AcDbBlockEnd
  0
BLOCK
  5
2614
330
2613
100
AcDbEntity
  8
0
 62
    54
 48
4.0
100
AcDbBlockBegin
  2
*D88
 70
     1
 10
0.0
 20
0.0
 30
0.0
  3
*D88
  1

  0
LINE
  5
27B6
330
2613
100
AcDbEntity
  8
0Hatch
 62
     1
370
    -2
100
AcDbLine
 10
70610.51092769719
 20
-4690.900165774528
 30
0.0
 11
71198.51092769719
 21
-4690.900165774528
 31
0.0
  0
INSERT
  5
27B7
330
2613
100
AcDbEntity
  8
0Hatch
 62
     1
370
    -2
100
AcDbBlockReference
  2
B-DIM
 10
70580.51092769719
 20
-4690.900165774528
 30
0.0
 41
30.0
 42
30.0
 43
30.0
 50
180.0
  0
INSERT
  5
27B8
330
2613
100
AcDbEntity
  8
0Hatch
 62
     1
370
    -2
100
AcDbBlockReference
  2
B-DIM
 10
71228.51092769719
 20
-4690.900165774528
 30
0.0
 41
30.0
 42
30.0
 43
30.0
  0
MTEXT
  5
27B9
330
2613
100
AcDbEntity
  8
0Hatch
 62
   140
100
AcDbMText
 10
70904.51092769719
 20
-4610.900165774529
 30
0.0
 40
80.0
 41
0.0
 71
     5
 72
     1
  1
\A1;648
  7
ROMANS
 73
     1
 44
1.0
1001
ACAD
1000
MTEXTBEGIN
1070
    73
1070
     1
1070
    44
1040
1.0
1070
    74
1070
     0
1000
MTEXTEND
  0
POINT
  5
27BA
330
2613
100
AcDbEntity
  8
Defpoints
 62
     0
100
AcDbPoint
 10
70580.51092769719
 20
-4490.900165774529
 30
0.0
  0
POINT
  5
27BB
330
2613
100
AcDbEntity
  8
Defpoints
 62
     0
100
AcDbPoint
 10
71228.51092769719
 20
-4490.900165774529
 30
0.0
  0
POINT
  5
27BC
330
2613
100
AcDbEntity
  8
Defpoints
 62
     0
100
AcDbPoint
 10
71228.51092769719
 20
-4690.900165774528
 30
0.0
  0
ENDBLK
  5
2615
330
2613
100
AcDbEntity
  8
0
 62
    54
 48
4.0
100
AcDbBlockEnd
  0
BLOCK
  5
261E
330
261D
100
AcDbEntity
  8
0
 62
    54
 48
4.0
100
AcDbBlockBegin
  2
*D89
 70
     1
 10
0.0
 20
0.0
 30
0.0
  3
*D89
  1

  0
LINE
  5
27BD
330
261D
100
AcDbEntity
  8
0Wymiary-PL
 62
     1
370
    -2
100
AcDbLine
 10
71258.51092769719
 20
-4690.900165774528
 30
0.0
 11
71720.51092769732
 21
-4690.900165774528
 31
0.0
  0
INSERT
  5
27BE
330
261D
100
AcDbEntity
  8
0Wymiary-PL
 62
     1
370
    -2
100
AcDbBlockReference
  2
B-DIM
 10
71228.51092769719
 20
-4690.900165774528
 30
0.0
 41
30.0
 42
30.0
 43
30.0
 50
180.0
  0
INSERT
  5
27BF
330
261D
100
AcDbEntity
  8
0Wymiary-PL
 62
     1
370
    -2
100
AcDbBlockReference
  2
B-DIM
 10
71750.51092769733
 20
-4690.900165774528
 30
0.0
 41
30.0
 42
30.0
 43
30.0
  0
MTEXT
  5
27C0
330
261D
100
AcDbEntity
  8
0Wymiary-PL
 62
   140
100
AcDbMText
 10
71489.51092769727
 20
-4610.900165774529
 30
0.0
 40
80.0
 41
0.0
 71
     5
 72
     1
  1
\A1;522
  7
ROMANS
 73
     1
 44
1.0
1001
ACAD
1000
MTEXTBEGIN
1070
    73
1070
     1
1070
    44
1040
1.0
1070
    74
1070
     0
1000
MTEXTEND
  0
POINT
  5
27C1
330
261D
100
AcDbEntity
  8
Defpoints
 62
     0
100
AcDbPoint
 10
71228.51092769719
 20
-4490.900165774529
 30
0.0
  0
POINT
  5
27C2
330
261D
100
AcDbEntity
  8
Defpoints
 62
     0
100
AcDbPoint
 10
71750.51092769733
 20
-4067.900165774283
 30
0.0
  0
POINT
  5
27C3
330
261D
100
AcDbEntity
  8
Defpoints
 62
     0
100
AcDbPoint
 10
71750.51092769733
 20
-4690.900165774528
 30
0.0
  0
ENDBLK
  5
261F
330
261D
100
AcDbEntity
  8
0
 62
    54
 48
4.0
100
AcDbBlockEnd
  0
BLOCK
  5
2628
330
2627
100
AcDbEntity
  8
0
 62
    54
 48
4.0
100
AcDbBlockBegin
  2
*D90
 70
     1
 10
0.0
 20
0.0
 30
0.0
  3
*D90
  1

  0
LINE
  5
27C4
330
2627
100
AcDbEntity
  8
0Wymiary-PL
 62
     1
370
    -2
100
AcDbLine
 10
71720.51092769732
 20
-4690.900165774528
 30
0.0
 11
71690.51092769732
 21
-4690.900165774528
 31
0.0
  0
LINE
  5
27C5
330
2627
100
AcDbEntity
  8
0Wymiary-PL
 62
     1
370
    -2
100
AcDbLine
 10
71860.51092769722
 20
-4690.900165774528
 30
0.0
 11
71890.51092769722
 21
-4690.900165774528
 31
0.0
  0
LINE
  5
27C6
330
2627
100
AcDbEntity
  8
0Wymiary-PL
 62
     1
370
    -2
100
AcDbLine
 10
71750.51092769733
 20
-4690.900165774528
 30
0.0
 11
71830.51092769722
 21
-4690.900165774528
 31
0.0
  0
INSERT
  5
27C7
330
2627
100
AcDbEntity
  8
0Wymiary-PL
 62
     1
370
    -2
100
AcDbBlockReference
  2
B-DIM
 10
71750.51092769733
 20
-4690.900165774528
 30
0.0
 41
30.0
 42
30.0
 43
30.0
  0
INSERT
  5
27C8
330
2627
100
AcDbEntity
  8
0Wymiary-PL
 62
     1
370
    -2
100
AcDbBlockReference
  2
B-DIM
 10
71830.51092769722
 20
-4690.900165774528
 30
0.0
 41
30.0
 42
30.0
 43
30.0
 50
180.0
  0
MTEXT
  5
27C9
330
2627
100
AcDbEntity
  8
0Wymiary-PL
 62
   140
100
AcDbMText
 10
71790.51092769727
 20
-4610.900165774529
 30
0.0
 40
80.0
 41
0.0
 71
     5
 72
     1
  1
\A1;80
  7
ROMANS
 73
     1
 44
1.0
1001
ACAD
1000
MTEXTBEGIN
1070
    73
1070
     1
1070
    44
1040
1.0
1070
    74
1070
     0
1000
MTEXTEND
  0
POINT
  5
27CA
330
2627
100
AcDbEntity
  8
Defpoints
 62
     0
100
AcDbPoint
 10
71750.51092769733
 20
-4067.900165774283
 30
0.0
  0
POINT
  5
27CB
330
2627
100
AcDbEntity
  8
Defpoints
 62
     0
100
AcDbPoint
 10
71830.51092769722
 20
-3583.05516577462
 30
0.0
  0
POINT
  5
27CC
330
2627
100
AcDbEntity
  8
Defpoints
 62
     0
100
AcDbPoint
 10
71830.51092769722
 20
-4690.900165774528
 30
0.0
  0
ENDBLK
  5
2629
330
2627
100
AcDbEntity
  8
0
 62
    54
 48
4.0
100
AcDbBlockEnd
  0
BLOCK
  5
2680
330
267F
100
AcDbEntity
  8
0
 62
    54
 48
4.0
100
AcDbBlockBegin
  2
*D94
 70
     1
 10
0.0
 20
0.0
 30
0.0
  3
*D94
  1

  0
LINE
  5
2682
330
267F
100
AcDbEntity
  8
0Wymiary-PL
 62
     1
370
    -2
100
AcDbLine
 10
70550.51092769719
 20
-2580.028999646478
 30
0.0
 11
70520.51092769719
 21
-2580.028999646478
 31
0.0
  0
LINE
  5
2683
330
267F
100
AcDbEntity
  8
0Wymiary-PL
 62
     1
370
    -2
100
AcDbLine
 10
70760.51092769717
 20
-2580.028999646478
 30
0.0
 11
70790.51092769717
 21
-2580.028999646478
 31
0.0
  0
LINE
  5
2684
330
267F
100
AcDbEntity
  8
0Wymiary-PL
 62
     1
370
    -2
100
AcDbLine
 10
70580.51092769719
 20
-2580.028999646478
 30
0.0
 11
70730.51092769718
 21
-2580.028999646478
 31
0.0
  0
INSERT
  5
2685
330
267F
100
AcDbEntity
  8
0Wymiary-PL
 62
     1
370
    -2
100
AcDbBlockReference
  2
B-DIM
 10
70580.51092769719
 20
-2580.028999646478
 30
0.0
 41
30.0
 42
30.0
 43
30.0
  0
INSERT
  5
2686
330
267F
100
AcDbEntity
  8
0Wymiary-PL
 62
     1
370
    -2
100
AcDbBlockReference
  2
B-DIM
 10
70730.51092769718
 20
-2580.028999646478
 30
0.0
 41
30.0
 42
30.0
 43
30.0
 50
180.0
  0
MTEXT
  5
2687
330
267F
100
AcDbEntity
  8
0Wymiary-PL
 62
   140
100
AcDbMText
 10
70655.51092769718
 20
-2500.028999646478
 30
0.0
 40
80.0
 41
0.0
 71
     5
 72
     1
  1
\A1;150
  7
ROMANS
 73
     1
 44
1.0
1001
ACAD
1000
MTEXTBEGIN
1070
    73
1070
     1
1070
    44
1040
1.0
1070
    74
1070
     0
1000
MTEXTEND
  0
POINT
  5
2688
330
267F
100
AcDbEntity
  8
Defpoints
 62
     0
100
AcDbPoint
 10
70580.51092769719
 20
-3632.900836842087
 30
0.0
  0
POINT
  5
2689
330
267F
100
AcDbEntity
  8
Defpoints
 62
     0
100
AcDbPoint
 10
70730.51092769718
 20
-3632.900836842087
 30
0.0
  0
POINT
  5
268A
330
267F
100
AcDbEntity
  8
Defpoints
 62
     0
100
AcDbPoint
 10
70730.51092769718
 20
-2580.028999646478
 30
0.0
  0
ENDBLK
  5
2681
330
267F
100
AcDbEntity
  8
0
 62
    54
 48
4.0
100
AcDbBlockEnd
  0
BLOCK
  5
268C
330
268B
100
AcDbEntity
  8
0
 62
    54
 48
4.0
100
AcDbBlockBegin
  2
*D95
 70
     1
 10
0.0
 20
0.0
 30
0.0
  3
*D95
  1

  0
LINE
  5
2739
330
268B
100
AcDbEntity
  8
0Hatch
 62
     1
370
    -2
100
AcDbLine
 10
70760.51092769717
 20
-2580.028999646478
 30
0.0
 11
71720.51092769733
 21
-2580.028999646478
 31
0.0
  0
INSERT
  5
273A
330
268B
100
AcDbEntity
  8
0Hatch
 62
     1
370
    -2
100
AcDbBlockReference
  2
B-DIM
 10
70730.51092769718
 20
-2580.028999646478
 30
0.0
 41
30.0
 42
30.0
 43
30.0
 50
180.0
  0
INSERT
  5
273B
330
268B
100
AcDbEntity
  8
0Hatch
 62
     1
370
    -2
100
AcDbBlockReference
  2
B-DIM
 10
71750.51092769733
 20
-2580.028999646478
 30
0.0
 41
30.0
 42
30.0
 43
30.0
  0
MTEXT
  5
273C
330
268B
100
AcDbEntity
  8
0Hatch
 62
   140
100
AcDbMText
 10
71240.51092769726
 20
-2500.028999646478
 30
0.0
 40
80.0
 41
0.0
 71
     5
 72
     1
  1
\A1;1020
  7
ROMANS
 73
     1
 44
1.0
1001
ACAD
1000
MTEXTBEGIN
1070
    73
1070
     1
1070
    44
1040
1.0
1070
    74
1070
     0
1000
MTEXTEND
  0
POINT
  5
273D
330
268B
100
AcDbEntity
  8
Defpoints
 62
     0
100
AcDbPoint
 10
70730.51092769718
 20
-3632.900836842087
 30
0.0
  0
POINT
  5
273E
330
268B
100
AcDbEntity
  8
Defpoints
 62
     0
100
AcDbPoint
 10
71750.51092769733
 20
-3027.900165774572
 30
0.0
  0
POINT
  5
273F
330
268B
100
AcDbEntity
  8
Defpoints
 62
     0
100
AcDbPoint
 10
71750.51092769733
 20
-2580.028999646478
 30
0.0
  0
ENDBLK
  5
268D
330
268B
100
AcDbEntity
  8
0
 62
    54
 48
4.0
100
AcDbBlockEnd
  0
BLOCK
  5
2696
330
2695
100
AcDbEntity
  8
0
 62
    54
 48
4.0
100
AcDbBlockBegin
  2
*D96
 70
     1
 10
0.0
 20
0.0
 30
0.0
  3
*D96
  1

  0
LINE
  5
2730
330
2695
100
AcDbEntity
  8
0Hatch
 62
     1
370
    -2
100
AcDbLine
 10
71720.51092769733
 20
-2580.028999646478
 30
0.0
 11
71690.51092769733
 21
-2580.028999646478
 31
0.0
  0
LINE
  5
2731
330
2695
100
AcDbEntity
  8
0Hatch
 62
     1
370
    -2
100
AcDbLine
 10
71860.51092769732
 20
-2580.028999646478
 30
0.0
 11
71890.51092769732
 21
-2580.028999646478
 31
0.0
  0
LINE
  5
2732
330
2695
100
AcDbEntity
  8
0Hatch
 62
     1
370
    -2
100
AcDbLine
 10
71750.51092769733
 20
-2580.028999646478
 30
0.0
 11
71830.51092769733
 21
-2580.028999646478
 31
0.0
  0
INSERT
  5
2733
330
2695
100
AcDbEntity
  8
0Hatch
 62
     1
370
    -2
100
AcDbBlockReference
  2
B-DIM
 10
71750.51092769733
 20
-2580.028999646478
 30
0.0
 41
30.0
 42
30.0
 43
30.0
  0
INSERT
  5
2734
330
2695
100
AcDbEntity
  8
0Hatch
 62
     1
370
    -2
100
AcDbBlockReference
  2
B-DIM
 10
71830.51092769733
 20
-2580.028999646478
 30
0.0
 41
30.0
 42
30.0
 43
30.0
 50
180.0
  0
MTEXT
  5
2735
330
2695
100
AcDbEntity
  8
0Hatch
 62
   140
100
AcDbMText
 10
71790.51092769732
 20
-2500.028999646478
 30
0.0
 40
80.0
 41
0.0
 71
     5
 72
     1
  1
\A1;80
  7
ROMANS
 73
     1
 44
1.0
1001
ACAD
1000
MTEXTBEGIN
1070
    73
1070
     1
1070
    44
1040
1.0
1070
    74
1070
     0
1000
MTEXTEND
  0
POINT
  5
2736
330
2695
100
AcDbEntity
  8
Defpoints
 62
     0
100
AcDbPoint
 10
71750.51092769733
 20
-3027.900165774572
 30
0.0
  0
POINT
  5
2737
330
2695
100
AcDbEntity
  8
Defpoints
 62
     0
100
AcDbPoint
 10
71830.51092769733
 20
-3412.745165774531
 30
0.0
  0
POINT
  5
2738
330
2695
100
AcDbEntity
  8
Defpoints
 62
     0
100
AcDbPoint
 10
71830.51092769733
 20
-2580.028999646478
 30
0.0
  0
ENDBLK
  5
2697
330
2695
100
AcDbEntity
  8
0
 62
    54
 48
4.0
100
AcDbBlockEnd
  0
BLOCK
  5
26A2
330
26A1
100
AcDbEntity
  8
0
 62
    54
 48
4.0
100
AcDbBlockBegin
  2
*D97
 70
     1
 10
0.0
 20
0.0
 30
0.0
  3
*D97
  1

  0
LINE
  5
27AD
330
26A1
100
AcDbEntity
  8
0Hatch
 62
     1
370
    -2
100
AcDbLine
 10
72230.51092769722
 20
-2857.900165774481
 30
0.0
 11
72230.51092769722
 21
-2827.900165774481
 31
0.0
  0
LINE
  5
27AE
330
26A1
100
AcDbEntity
  8
0Hatch
 62
     1
370
    -2
100
AcDbLine
 10
72230.51092769722
 20
-3057.900165774467
 30
0.0
 11
72230.51092769722
 21
-3087.900165774467
 31
0.0
  0
LINE
  5
27AF
330
26A1
100
AcDbEntity
  8
0Hatch
 62
     1
370
    -2
100
AcDbLine
 10
72230.51092769722
 20
-2887.900165774481
 30
0.0
 11
72230.51092769722
 21
-3027.900165774467
 31
0.0
  0
INSERT
  5
27B0
330
26A1
100
AcDbEntity
  8
0Hatch
 62
     1
370
    -2
100
AcDbBlockReference
  2
B-DIM
 10
72230.51092769722
 20
-2887.900165774481
 30
0.0
 41
30.0
 42
30.0
 43
30.0
 50
270.0
  0
INSERT
  5
27B1
330
26A1
100
AcDbEntity
  8
0Hatch
 62
     1
370
    -2
100
AcDbBlockReference
  2
B-DIM
 10
72230.51092769722
 20
-3027.900165774467
 30
0.0
 41
30.0
 42
30.0
 43
30.0
 50
90.0
  0
MTEXT
  5
27B2
330
26A1
100
AcDbEntity
  8
0Hatch
 62
   140
100
AcDbMText
 10
72150.51092769722
 20
-2957.900165774463
 30
0.0
 40
80.0
 41
0.0
 71
     5
 72
     1
  1
\A1;140
  7
ROMANS
 11
0.0000000000000001
 21
1.0
 31
0.0
 73
     1
 44
1.0
1001
ACAD
1000
MTEXTBEGIN
1070
    73
1070
     1
1070
    44
1040
1.0
1070
    74
1070
     0
1000
MTEXTEND
  0
POINT
  5
27B3
330
26A1
100
AcDbEntity
  8
Defpoints
 62
     0
100
AcDbPoint
 10
71244.51127947145
 20
-2887.900165774481
 30
0.0
  0
POINT
  5
27B4
330
26A1
100
AcDbEntity
  8
Defpoints
 62
     0
100
AcDbPoint
 10
71244.51127947142
 20
-3027.900165774467
 30
0.0
  0
POINT
  5
27B5
330
26A1
100
AcDbEntity
  8
Defpoints
 62
     0
100
AcDbPoint
 10
72230.51092769722
 20
-3027.900165774467
 30
0.0
  0
ENDBLK
  5
26A3
330
26A1
100
AcDbEntity
  8
0
 62
    54
 48
4.0
100
AcDbBlockEnd
  0
BLOCK
  5
26AE
330
26AD
100
AcDbEntity
  8
0
 62
    54
 48
4.0
100
AcDbBlockBegin
  2
*D98
 70
     1
 10
0.0
 20
0.0
 30
0.0
  3
*D98
  1

  0
LINE
  5
2796
330
26AD
100
AcDbEntity
  8
0Hatch
 62
     1
370
    -2
100
AcDbLine
 10
72230.51092769722
 20
-3057.900165774467
 30
0.0
 11
72230.51092769722
 21
-4037.900165774282
 31
0.0
  0
INSERT
  5
2797
330
26AD
100
AcDbEntity
  8
0Hatch
 62
     1
370
    -2
100
AcDbBlockReference
  2
B-DIM
 10
72230.51092769722
 20
-3027.900165774467
 30
0.0
 41
30.0
 42
30.0
 43
30.0
 50
90.0
  0
INSERT
  5
2798
330
26AD
100
AcDbEntity
  8
0Hatch
 62
     1
370
    -2
100
AcDbBlockReference
  2
B-DIM
 10
72230.51092769722
 20
-4067.900165774283
 30
0.0
 41
30.0
 42
30.0
 43
30.0
 50
270.0
  0
MTEXT
  5
2799
330
26AD
100
AcDbEntity
  8
0Hatch
 62
   140
100
AcDbMText
 10
72150.51092769722
 20
-3547.900165774364
 30
0.0
 40
80.0
 41
0.0
 71
     5
 72
     1
  1
\A1;1040
  7
ROMANS
 11
0.0000000000000001
 21
1.0
 31
0.0
 73
     1
 44
1.0
1001
ACAD
1000
MTEXTBEGIN
1070
    73
1070
     1
1070
    44
1040
1.0
1070
    74
1070
     0
1000
MTEXTEND
  0
POINT
  5
279A
330
26AD
100
AcDbEntity
  8
Defpoints
 62
     0
100
AcDbPoint
 10
71244.51127947142
 20
-3027.900165774467
 30
0.0
  0
POINT
  5
279B
330
26AD
100
AcDbEntity
  8
Defpoints
 62
     0
100
AcDbPoint
 10
71750.51092769733
 20
-4067.900165774283
 30
0.0
  0
POINT
  5
279C
330
26AD
100
AcDbEntity
  8
Defpoints
 62
     0
100
AcDbPoint
 10
72230.51092769722
 20
-4067.900165774283
 30
0.0
  0
ENDBLK
  5
26AF
330
26AD
100
AcDbEntity
  8
0
 62
    54
 48
4.0
100
AcDbBlockEnd
  0
BLOCK
  5
26B8
330
26B7
100
AcDbEntity
  8
0
 62
    54
 48
4.0
100
AcDbBlockBegin
  2
*D99
 70
     1
 10
0.0
 20
0.0
 30
0.0
  3
*D99
  1

  0
LINE
  5
279D
330
26B7
100
AcDbEntity
  8
0Wymiary-PL
 62
     1
370
    -2
100
AcDbLine
 10
72230.51092769722
 20
-4097.900165774283
 30
0.0
 11
72230.51092769722
 21
-4460.900165774529
 31
0.0
  0
INSERT
  5
279E
330
26B7
100
AcDbEntity
  8
0Wymiary-PL
 62
     1
370
    -2
100
AcDbBlockReference
  2
B-DIM
 10
72230.51092769722
 20
-4067.900165774283
 30
0.0
 41
30.0
 42
30.0
 43
30.0
 50
90.0
  0
INSERT
  5
279F
330
26B7
100
AcDbEntity
  8
0Wymiary-PL
 62
     1
370
    -2
100
AcDbBlockReference
  2
B-DIM
 10
72230.51092769722
 20
-4490.900165774529
 30
0.0
 41
30.0
 42
30.0
 43
30.0
 50
270.0
  0
MTEXT
  5
27A0
330
26B7
100
AcDbEntity
  8
0Wymiary-PL
 62
   140
100
AcDbMText
 10
72150.51092769722
 20
-4279.400165774394
 30
0.0
 40
80.0
 41
0.0
 71
     5
 72
     1
  1
\A1;423
  7
ROMANS
 11
0.0000000000000001
 21
1.0
 31
0.0
 73
     1
 44
1.0
1001
ACAD
1000
MTEXTBEGIN
1070
    73
1070
     1
1070
    44
1040
1.0
1070
    74
1070
     0
1000
MTEXTEND
  0
POINT
  5
27A1
330
26B7
100
AcDbEntity
  8
Defpoints
 62
     0
100
AcDbPoint
 10
71750.51092769733
 20
-4067.900165774283
 30
0.0
  0
POINT
  5
27A2
330
26B7
100
AcDbEntity
  8
Defpoints
 62
     0
100
AcDbPoint
 10
71228.51092769719
 20
-4490.900165774529
 30
0.0
  0
POINT
  5
27A3
330
26B7
100
AcDbEntity
  8
Defpoints
 62
     0
100
AcDbPoint
 10
72230.51092769722
 20
-4490.900165774529
 30
0.0
  0
ENDBLK
  5
26B9
330
26B7
100
AcDbEntity
  8
0
 62
    54
 48
4.0
100
AcDbBlockEnd
  0
BLOCK
  5
26FB
330
26FA
100
AcDbEntity
  8
0
 62
    54
 48
4.0
100
AcDbBlockBegin
  2
*D100
 70
     1
 10
0.0
 20
0.0
 30
0.0
  3
*D100
  1

  0
LINE
  5
27D4
330
26FA
100
AcDbEntity
  8
0Hatch
 62
     1
370
    -2
100
AcDbLine
 10
70376.51092769719
 20
-3662.900836842088
 30
0.0
 11
70376.51092769719
 21
-4460.900165774528
 31
0.0
  0
INSERT
  5
27D5
330
26FA
100
AcDbEntity
  8
0Hatch
 62
     1
370
    -2
100
AcDbBlockReference
  2
B-DIM
 10
70376.51092769719
 20
-3632.900836842087
 30
0.0
 41
30.0
 42
30.0
 43
30.0
 50
90.0
  0
INSERT
  5
27D6
330
26FA
100
AcDbEntity
  8
0Hatch
 62
     1
370
    -2
100
AcDbBlockReference
  2
B-DIM
 10
70376.51092769719
 20
-4490.900165774529
 30
0.0
 41
30.0
 42
30.0
 43
30.0
 50
270.0
  0
MTEXT
  5
27D7
330
26FA
100
AcDbEntity
  8
0Hatch
 62
   140
100
AcDbMText
 10
70296.51092769719
 20
-4061.900501308296
 30
0.0
 40
80.0
 41
0.0
 71
     5
 72
     1
  1
\A1;858
  7
ROMANS
 11
0.0000000000000001
 21
1.0
 31
0.0
 73
     1
 44
1.0
1001
ACAD
1000
MTEXTBEGIN
1070
    73
1070
     1
1070
    44
1040
1.0
1070
    74
1070
     0
1000
MTEXTEND
  0
POINT
  5
27D8
330
26FA
100
AcDbEntity
  8
Defpoints
 62
     0
100
AcDbPoint
 10
70655.51092769718
 20
-3632.900836842087
 30
0.0
  0
POINT
  5
27D9
330
26FA
100
AcDbEntity
  8
Defpoints
 62
     0
100
AcDbPoint
 10
70655.51092769718
 20
-4490.900165774529
 30
0.0
  0
POINT
  5
27DA
330
26FA
100
AcDbEntity
  8
Defpoints
 62
     0
100
AcDbPoint
 10
70376.51092769719
 20
-4490.900165774529
 30
0.0
  0
ENDBLK
  5
26FC
330
26FA
100
AcDbEntity
  8
0
 62
    54
 48
4.0
100
AcDbBlockEnd
  0
BLOCK
  5
2861
330
2860
100
AcDbEntity
  8
0
 62
    54
 48
4.0
100
AcDbBlockBegin
  2
*D101
 70
     1
 10
0.0
 20
0.0
 30
0.0
  3
*D101
  1

  0
LINE
  5
287E
330
2860
100
AcDbEntity
  8
0Hatch
 62
     1
370
    -2
100
AcDbLine
 10
75807.06374727525
 20
-3662.900836842088
 30
0.0
 11
75807.06374727525
 21
-4460.900165774529
 31
0.0
  0
INSERT
  5
287F
330
2860
100
AcDbEntity
  8
0Hatch
 62
     1
370
    -2
100
AcDbBlockReference
  2
B-DIM
 10
75807.06374727525
 20
-3632.900836842087
 30
0.0
 41
30.0
 42
30.0
 43
30.0
 50
90.0
  0
INSERT
  5
2880
330
2860
100
AcDbEntity
  8
0Hatch
 62
     1
370
    -2
100
AcDbBlockReference
  2
B-DIM
 10
75807.06374727525
 20
-4490.900165774529
 30
0.0
 41
30.0
 42
30.0
 43
30.0
 50
270.0
  0
MTEXT
  5
2881
330
2860
100
AcDbEntity
  8
0Hatch
 62
   140
100
AcDbMText
 10
75727.06374727525
 20
-4061.900501308296
 30
0.0
 40
80.0
 41
0.0
 71
     5
 72
     1
  1
\A1;858
  7
ROMANS
 11
0.0000000000000001
 21
1.0
 31
0.0
 73
     1
 44
1.0
1001
ACAD
1000
MTEXTBEGIN
1070
    73
1070
     1
1070
    44
1040
1.0
1070
    74
1070
     0
1000
MTEXTEND
  0
POINT
  5
2882
330
2860
100
AcDbEntity
  8
Defpoints
 62
     0
100
AcDbPoint
 10
75528.06374727527
 20
-3632.900836842087
 30
0.0
  0
POINT
  5
2883
330
2860
100
AcDbEntity
  8
Defpoints
 62
     0
100
AcDbPoint
 10
75528.06374727527
 20
-4490.900165774529
 30
0.0
  0
POINT
  5
2884
330
2860
100
AcDbEntity
  8
Defpoints
 62
     0
100
AcDbPoint
 10
75807.06374727525
 20
-4490.900165774529
 30
0.0
  0
ENDBLK
  5
2862
330
2860
100
AcDbEntity
  8
0
 62
    54
 48
4.0
100
AcDbBlockEnd
  0
BLOCK
  5
286B
330
286A
100
AcDbEntity
  8
0
 62
    54
 48
4.0
100
AcDbBlockBegin
  2
*D102
 70
     1
 10
0.0
 20
0.0
 30
0.0
  3
*D102
  1

  0
LINE
  5
28C5
330
286A
100
AcDbEntity
  8
0Wymiary-PL
 62
     1
370
    -2
100
AcDbLine
 10
75573.06374727525
 20
-4890.900165774528
 30
0.0
 11
74383.06374727523
 21
-4890.900165774528
 31
0.0
  0
INSERT
  5
28C6
330
286A
100
AcDbEntity
  8
0Wymiary-PL
 62
     1
370
    -2
100
AcDbBlockReference
  2
B-DIM
 10
75603.06374727526
 20
-4890.900165774528
 30
0.0
 41
30.0
 42
30.0
 43
30.0
  0
INSERT
  5
28C7
330
286A
100
AcDbEntity
  8
0Wymiary-PL
 62
     1
370
    -2
100
AcDbBlockReference
  2
B-DIM
 10
74353.06374727523
 20
-4890.900165774528
 30
0.0
 41
30.0
 42
30.0
 43
30.0
 50
180.0
  0
MTEXT
  5
28C8
330
286A
100
AcDbEntity
  8
0Wymiary-PL
 62
   140
100
AcDbMText
 10
74978.06374727524
 20
-4810.900165774529
 30
0.0
 40
80.0
 41
0.0
 71
     5
 72
     1
  1
\A1;1250
  7
ROMANS
 73
     1
 44
1.0
1001
ACAD
1000
MTEXTBEGIN
1070
    73
1070
     1
1070
    44
1040
1.0
1070
    74
1070
     0
1000
MTEXTEND
  0
POINT
  5
28C9
330
286A
100
AcDbEntity
  8
Defpoints
 62
     0
100
AcDbPoint
 10
75603.06374727526
 20
-4705.853966878363
 30
0.0
  0
POINT
  5
28CA
330
286A
100
AcDbEntity
  8
Defpoints
 62
     0
100
AcDbPoint
 10
74353.06374727523
 20
-4705.853966878363
 30
0.0
  0
POINT
  5
28CB
330
286A
100
AcDbEntity
  8
Defpoints
 62
     0
100
AcDbPoint
 10
74353.06374727523
 20
-4890.900165774528
 30
0.0
  0
ENDBLK
  5
286C
330
286A
100
AcDbEntity
  8
0
 62
    54
 48
4.0
100
AcDbBlockEnd
  0
BLOCK
  5
2875
330
2874
100
AcDbEntity
  8
0
 62
    54
 48
4.0
100
AcDbBlockBegin
  2
*D103
 70
     1
 10
0.0
 20
0.0
 30
0.0
  3
*D103
  1

  0
LINE
  5
2877
330
2874
100
AcDbEntity
  8
0Wymiary-PL
 62
     1
370
    -2
100
AcDbLine
 10
73953.06374727523
 20
-4097.900165774283
 30
0.0
 11
73953.06374727523
 21
-4460.900165774528
 31
0.0
  0
INSERT
  5
2878
330
2874
100
AcDbEntity
  8
0Wymiary-PL
 62
     1
370
    -2
100
AcDbBlockReference
  2
B-DIM
 10
73953.06374727523
 20
-4067.900165774283
 30
0.0
 41
30.0
 42
30.0
 43
30.0
 50
90.0
  0
INSERT
  5
2879
330
2874
100
AcDbEntity
  8
0Wymiary-PL
 62
     1
370
    -2
100
AcDbBlockReference
  2
B-DIM
 10
73953.06374727523
 20
-4490.900165774529
 30
0.0
 41
30.0
 42
30.0
 43
30.0
 50
270.0
  0
MTEXT
  5
287A
330
2874
100
AcDbEntity
  8
0Wymiary-PL
 62
   140
100
AcDbMText
 10
73873.06374727523
 20
-4279.400165774394
 30
0.0
 40
80.0
 41
0.0
 71
     5
 72
     1
  1
\A1;423
  7
ROMANS
 11
0.0000000000000001
 21
1.0
 31
0.0
 73
     1
 44
1.0
1001
ACAD
1000
MTEXTBEGIN
1070
    73
1070
     1
1070
    44
1040
1.0
1070
    74
1070
     0
1000
MTEXTEND
  0
POINT
  5
287B
330
2874
100
AcDbEntity
  8
Defpoints
 62
     0
100
AcDbPoint
 10
74433.06374727512
 20
-4067.900165774283
 30
0.0
  0
POINT
  5
287C
330
2874
100
AcDbEntity
  8
Defpoints
 62
     0
100
AcDbPoint
 10
74955.06374727526
 20
-4490.900165774529
 30
0.0
  0
POINT
  5
287D
330
2874
100
AcDbEntity
  8
Defpoints
 62
     0
100
AcDbPoint
 10
73953.06374727523
 20
-4490.900165774529
 30
0.0
  0
ENDBLK
  5
2876
330
2874
100
AcDbEntity
  8
0
 62
    54
 48
4.0
100
AcDbBlockEnd
  0
BLOCK
  5
2886
330
2885
100
AcDbEntity
  8
0
 62
    54
 48
4.0
100
AcDbBlockBegin
  2
*D104
 70
     1
 10
0.0
 20
0.0
 30
0.0
  3
*D104
  1

  0
LINE
  5
2888
330
2885
100
AcDbEntity
  8
0Wymiary-PL
 62
     1
370
    -2
100
AcDbLine
 10
75807.06374727525
 20
-3602.900836842088
 30
0.0
 11
75807.06374727525
 21
-2957.900165774478
 31
0.0
  0
INSERT
  5
2889
330
2885
100
AcDbEntity
  8
0Wymiary-PL
 62
     1
370
    -2
100
AcDbBlockReference
  2
B-DIM
 10
75807.06374727525
 20
-3632.900836842087
 30
0.0
 41
30.0
 42
30.0
 43
30.0
 50
270.0
  0
INSERT
  5
288A
330
2885
100
AcDbEntity
  8
0Wymiary-PL
 62
     1
370
    -2
100
AcDbBlockReference
  2
B-DIM
 10
75807.06374727525
 20
-2927.900165774478
 30
0.0
 41
30.0
 42
30.0
 43
30.0
 50
90.0
  0
MTEXT
  5
288B
330
2885
100
AcDbEntity
  8
0Wymiary-PL
 62
   140
100
AcDbMText
 10
75727.06374727525
 20
-3280.40050130827
 30
0.0
 40
80.0
 41
0.0
 71
     5
 72
     1
  1
\A1;705
  7
ROMANS
 11
0.0000000000000001
 21
1.0
 31
0.0
 73
     1
 44
1.0
1001
ACAD
1000
MTEXTBEGIN
1070
    73
1070
     1
1070
    44
1040
1.0
1070
    74
1070
     0
1000
MTEXTEND
  0
POINT
  5
288C
330
2885
100
AcDbEntity
  8
Defpoints
 62
     0
100
AcDbPoint
 10
75603.06374727526
 20
-3632.900836842087
 30
0.0
  0
POINT
  5
288D
330
2885
100
AcDbEntity
  8
Defpoints
 62
     0
100
AcDbPoint
 10
75453.06374727542
 20
-2927.900165774478
 30
0.0
  0
POINT
  5
288E
330
2885
100
AcDbEntity
  8
Defpoints
 62
     0
100
AcDbPoint
 10
75807.06374727525
 20
-2927.900165774478
 30
0.0
  0
ENDBLK
  5
2887
330
2885
100
AcDbEntity
  8
0
 62
    54
 48
4.0
100
AcDbBlockEnd
  0
BLOCK
  5
2890
330
288F
100
AcDbEntity
  8
0
 62
    54
 48
4.0
100
AcDbBlockBegin
  2
*D105
 70
     1
 10
0.0
 20
0.0
 30
0.0
  3
*D105
  1

  0
LINE
  5
2892
330
288F
100
AcDbEntity
  8
0Wymiary-PL
 62
     1
370
    -2
100
AcDbLine
 10
75807.06374727525
 20
-2957.900165774478
 30
0.0
 11
75807.06374727525
 21
-2987.900165774478
 31
0.0
  0
LINE
  5
2893
330
288F
100
AcDbEntity
  8
0Wymiary-PL
 62
     1
370
    -2
100
AcDbLine
 10
75807.06374727525
 20
-2857.900165774536
 30
0.0
 11
75807.06374727525
 21
-2827.900165774536
 31
0.0
  0
LINE
  5
2894
330
288F
100
AcDbEntity
  8
0Wymiary-PL
 62
     1
370
    -2
100
AcDbLine
 10
75807.06374727525
 20
-2927.900165774478
 30
0.0
 11
75807.06374727525
 21
-2887.900165774536
 31
0.0
  0
INSERT
  5
2895
330
288F
100
AcDbEntity
  8
0Wymiary-PL
 62
     1
370
    -2
100
AcDbBlockReference
  2
B-DIM
 10
75807.06374727525
 20
-2927.900165774478
 30
0.0
 41
30.0
 42
30.0
 43
30.0
 50
90.0
  0
INSERT
  5
2896
330
288F
100
AcDbEntity
  8
0Wymiary-PL
 62
     1
370
    -2
100
AcDbBlockReference
  2
B-DIM
 10
75807.06374727525
 20
-2887.900165774536
 30
0.0
 41
30.0
 42
30.0
 43
30.0
 50
270.0
  0
MTEXT
  5
2897
330
288F
100
AcDbEntity
  8
0Wymiary-PL
 62
   140
100
AcDbMText
 10
75727.06374727525
 20
-2907.900165774494
 30
0.0
 40
80.0
 41
0.0
 71
     5
 72
     1
  1
\A1;40
  7
ROMANS
 11
0.0000000000000001
 21
1.0
 31
0.0
 73
     1
 44
1.0
1001
ACAD
1000
MTEXTBEGIN
1070
    73
1070
     1
1070
    44
1040
1.0
1070
    74
1070
     0
1000
MTEXTEND
  0
POINT
  5
2898
330
288F
100
AcDbEntity
  8
Defpoints
 62
     0
100
AcDbPoint
 10
75453.06374727542
 20
-2927.900165774478
 30
0.0
  0
POINT
  5
2899
330
288F
100
AcDbEntity
  8
Defpoints
 62
     0
100
AcDbPoint
 10
75239.063395501
 20
-2887.900165774536
 30
0.0
  0
POINT
  5
289A
330
288F
100
AcDbEntity
  8
Defpoints
 62
     0
100
AcDbPoint
 10
75807.06374727525
 20
-2887.900165774536
 30
0.0
  0
ENDBLK
  5
2891
330
288F
100
AcDbEntity
  8
0
 62
    54
 48
4.0
100
AcDbBlockEnd
  0
BLOCK
  5
289C
330
289B
100
AcDbEntity
  8
0
 62
    54
 48
4.0
100
AcDbBlockBegin
  2
*D106
 70
     1
 10
0.0
 20
0.0
 30
0.0
  3
*D106
  1

  0
LINE
  5
289E
330
289B
100
AcDbEntity
  8
0Hatch
 62
     1
370
    -2
100
AcDbLine
 10
76007.06374727526
 20
-2917.900165774536
 30
0.0
 11
76007.06374727526
 21
-4460.900165774529
 31
0.0
  0
INSERT
  5
289F
330
289B
100
AcDbEntity
  8
0Hatch
 62
     1
370
    -2
100
AcDbBlockReference
  2
B-DIM
 10
76007.06374727526
 20
-2887.900165774536
 30
0.0
 41
30.0
 42
30.0
 43
30.0
 50
90.0
  0
INSERT
  5
28A0
330
289B
100
AcDbEntity
  8
0Hatch
 62
     1
370
    -2
100
AcDbBlockReference
  2
B-DIM
 10
76007.06374727526
 20
-4490.900165774529
 30
0.0
 41
30.0
 42
30.0
 43
30.0
 50
270.0
  0
MTEXT
  5
28A1
330
289B
100
AcDbEntity
  8
0Hatch
 62
   140
100
AcDbMText
 10
75927.06374727526
 20
-3689.40016577452
 30
0.0
 40
80.0
 41
0.0
 71
     5
 72
     1
  1
\A1;1603
  7
ROMANS
 11
0.0000000000000001
 21
1.0
 31
0.0
 73
     1
 44
1.0
1001
ACAD
1000
MTEXTBEGIN
1070
    73
1070
     1
1070
    44
1040
1.0
1070
    74
1070
     0
1000
MTEXTEND
  0
POINT
  5
28A2
330
289B
100
AcDbEntity
  8
Defpoints
 62
     0
100
AcDbPoint
 10
75239.063395501
 20
-2887.900165774536
 30
0.0
  0
POINT
  5
28A3
330
289B
100
AcDbEntity
  8
Defpoints
 62
     0
100
AcDbPoint
 10
75239.063395501
 20
-4490.900165774529
 30
0.0
  0
POINT
  5
28A4
330
289B
100
AcDbEntity
  8
Defpoints
 62
     0
100
AcDbPoint
 10
76007.06374727526
 20
-4490.900165774529
 30
0.0
  0
ENDBLK
  5
289D
330
289B
100
AcDbEntity
  8
0
 62
    54
 48
4.0
100
AcDbBlockEnd
  0
BLOCK
  5
28A6
330
28A5
100
AcDbEntity
  8
0
 62
    54
 48
4.0
100
AcDbBlockBegin
  2
*D107
 70
     1
 10
0.0
 20
0.0
 30
0.0
  3
*D107
  1

  0
LINE
  5
28A8
330
28A5
100
AcDbEntity
  8
0Hatch
 62
     1
370
    -2
100
AcDbLine
 10
75573.06374727525
 20
-4690.900165774528
 30
0.0
 11
74985.06374727526
 21
-4690.900165774528
 31
0.0
  0
INSERT
  5
28A9
330
28A5
100
AcDbEntity
  8
0Hatch
 62
     1
370
    -2
100
AcDbBlockReference
  2
B-DIM
 10
75603.06374727526
 20
-4690.900165774528
 30
0.0
 41
30.0
 42
30.0
 43
30.0
  0
INSERT
  5
28AA
330
28A5
100
AcDbEntity
  8
0Hatch
 62
     1
370
    -2
100
AcDbBlockReference
  2
B-DIM
 10
74955.06374727526
 20
-4690.900165774528
 30
0.0
 41
30.0
 42
30.0
 43
30.0
 50
180.0
  0
MTEXT
  5
28AB
330
28A5
100
AcDbEntity
  8
0Hatch
 62
   140
100
AcDbMText
 10
75279.06374727526
 20
-4610.900165774529
 30
0.0
 40
80.0
 41
0.0
 71
     5
 72
     1
  1
\A1;648
  7
ROMANS
 73
     1
 44
1.0
1001
ACAD
1000
MTEXTBEGIN
1070
    73
1070
     1
1070
    44
1040
1.0
1070
    74
1070
     0
1000
MTEXTEND
  0
POINT
  5
28AC
330
28A5
100
AcDbEntity
  8
Defpoints
 62
     0
100
AcDbPoint
 10
75603.06374727526
 20
-4490.900165774529
 30
0.0
  0
POINT
  5
28AD
330
28A5
100
AcDbEntity
  8
Defpoints
 62
     0
100
AcDbPoint
 10
74955.06374727526
 20
-4490.900165774529
 30
0.0
  0
POINT
  5
28AE
330
28A5
100
AcDbEntity
  8
Defpoints
 62
     0
100
AcDbPoint
 10
74955.06374727526
 20
-4690.900165774528
 30
0.0
  0
ENDBLK
  5
28A7
330
28A5
100
AcDbEntity
  8
0
 62
    54
 48
4.0
100
AcDbBlockEnd
  0
BLOCK
  5
28B0
330
28AF
100
AcDbEntity
  8
0
 62
    54
 48
4.0
100
AcDbBlockBegin
  2
*D108
 70
     1
 10
0.0
 20
0.0
 30
0.0
  3
*D108
  1

  0
LINE
  5
28B2
330
28AF
100
AcDbEntity
  8
0Wymiary-PL
 62
     1
370
    -2
100
AcDbLine
 10
74925.06374727526
 20
-4690.900165774528
 30
0.0
 11
74463.06374727512
 21
-4690.900165774528
 31
0.0
  0
INSERT
  5
28B3
330
28AF
100
AcDbEntity
  8
0Wymiary-PL
 62
     1
370
    -2
100
AcDbBlockReference
  2
B-DIM
 10
74955.06374727526
 20
-4690.900165774528
 30
0.0
 41
30.0
 42
30.0
 43
30.0
  0
INSERT
  5
28B4
330
28AF
100
AcDbEntity
  8
0Wymiary-PL
 62
     1
370
    -2
100
AcDbBlockReference
  2
B-DIM
 10
74433.06374727512
 20
-4690.900165774528
 30
0.0
 41
30.0
 42
30.0
 43
30.0
 50
180.0
  0
MTEXT
  5
28B5
330
28AF
100
AcDbEntity
  8
0Wymiary-PL
 62
   140
100
AcDbMText
 10
74694.06374727518
 20
-4610.900165774529
 30
0.0
 40
80.0
 41
0.0
 71
     5
 72
     1
  1
\A1;522
  7
ROMANS
 73
     1
 44
1.0
1001
ACAD
1000
MTEXTBEGIN
1070
    73
1070
     1
1070
    44
1040
1.0
1070
    74
1070
     0
1000
MTEXTEND
  0
POINT
  5
28B6
330
28AF
100
AcDbEntity
  8
Defpoints
 62
     0
100
AcDbPoint
 10
74955.06374727526
 20
-4490.900165774529
 30
0.0
  0
POINT
  5
28B7
330
28AF
100
AcDbEntity
  8
Defpoints
 62
     0
100
AcDbPoint
 10
74433.06374727512
 20
-4067.900165774283
 30
0.0
  0
POINT
  5
28B8
330
28AF
100
AcDbEntity
  8
Defpoints
 62
     0
100
AcDbPoint
 10
74433.06374727512
 20
-4690.900165774528
 30
0.0
  0
ENDBLK
  5
28B1
330
28AF
100
AcDbEntity
  8
0
 62
    54
 48
4.0
100
AcDbBlockEnd
  0
BLOCK
  5
28BA
330
28B9
100
AcDbEntity
  8
0
 62
    54
 48
4.0
100
AcDbBlockBegin
  2
*D109
 70
     1
 10
0.0
 20
0.0
 30
0.0
  3
*D109
  1

  0
LINE
  5
28BC
330
28B9
100
AcDbEntity
  8
0Wymiary-PL
 62
     1
370
    -2
100
AcDbLine
 10
74463.06374727512
 20
-4690.900165774528
 30
0.0
 11
74493.06374727513
 21
-4690.900165774528
 31
0.0
  0
LINE
  5
28BD
330
28B9
100
AcDbEntity
  8
0Wymiary-PL
 62
     1
370
    -2
100
AcDbLine
 10
74323.06374727523
 20
-4690.900165774528
 30
0.0
 11
74293.06374727523
 21
-4690.900165774528
 31
0.0
  0
LINE
  5
28BE
330
28B9
100
AcDbEntity
  8
0Wymiary-PL
 62
     1
370
    -2
100
AcDbLine
 10
74433.06374727512
 20
-4690.900165774528
 30
0.0
 11
74353.06374727523
 21
-4690.900165774528
 31
0.0
  0
INSERT
  5
28BF
330
28B9
100
AcDbEntity
  8
0Wymiary-PL
 62
     1
370
    -2
100
AcDbBlockReference
  2
B-DIM
 10
74433.06374727512
 20
-4690.900165774528
 30
0.0
 41
30.0
 42
30.0
 43
30.0
 50
180.0
  0
INSERT
  5
28C0
330
28B9
100
AcDbEntity
  8
0Wymiary-PL
 62
     1
370
    -2
100
AcDbBlockReference
  2
B-DIM
 10
74353.06374727523
 20
-4690.900165774528
 30
0.0
 41
30.0
 42
30.0
 43
30.0
  0
MTEXT
  5
28C1
330
28B9
100
AcDbEntity
  8
0Wymiary-PL
 62
   140
100
AcDbMText
 10
74393.06374727518
 20
-4610.900165774529
 30
0.0
 40
80.0
 41
0.0
 71
     5
 72
     1
  1
\A1;80
  7
ROMANS
 73
     1
 44
1.0
1001
ACAD
1000
MTEXTBEGIN
1070
    73
1070
     1
1070
    44
1040
1.0
1070
    74
1070
     0
1000
MTEXTEND
  0
POINT
  5
28C2
330
28B9
100
AcDbEntity
  8
Defpoints
 62
     0
100
AcDbPoint
 10
74433.06374727512
 20
-4067.900165774283
 30
0.0
  0
POINT
  5
28C3
330
28B9
100
AcDbEntity
  8
Defpoints
 62
     0
100
AcDbPoint
 10
74353.06374727523
 20
-3583.05516577462
 30
0.0
  0
POINT
  5
28C4
330
28B9
100
AcDbEntity
  8
Defpoints
 62
     0
100
AcDbPoint
 10
74353.06374727523
 20
-4690.900165774528
 30
0.0
  0
ENDBLK
  5
28BB
330
28B9
100
AcDbEntity
  8
0
 62
    54
 48
4.0
100
AcDbBlockEnd
  0
BLOCK
  5
28CD
330
28CC
100
AcDbEntity
  8
0
 62
    54
 48
4.0
100
AcDbBlockBegin
  2
*D110
 70
     1
 10
0.0
 20
0.0
 30
0.0
  3
*D110
  1

  0
LINE
  5
28CF
330
28CC
100
AcDbEntity
  8
0Wymiary-PL
 62
     1
370
    -2
100
AcDbLine
 10
75633.06374727526
 20
-2580.028999646478
 30
0.0
 11
75663.06374727526
 21
-2580.028999646478
 31
0.0
  0
LINE
  5
28D0
330
28CC
100
AcDbEntity
  8
0Wymiary-PL
 62
     1
370
    -2
100
AcDbLine
 10
75423.06374727527
 20
-2580.028999646478
 30
0.0
 11
75393.06374727527
 21
-2580.028999646478
 31
0.0
  0
LINE
  5
28D1
330
28CC
100
AcDbEntity
  8
0Wymiary-PL
 62
     1
370
    -2
100
AcDbLine
 10
75603.06374727526
 20
-2580.028999646478
 30
0.0
 11
75453.06374727527
 21
-2580.028999646478
 31
0.0
  0
INSERT
  5
28D2
330
28CC
100
AcDbEntity
  8
0Wymiary-PL
 62
     1
370
    -2
100
AcDbBlockReference
  2
B-DIM
 10
75603.06374727526
 20
-2580.028999646478
 30
0.0
 41
30.0
 42
30.0
 43
30.0
 50
180.0
  0
INSERT
  5
28D3
330
28CC
100
AcDbEntity
  8
0Wymiary-PL
 62
     1
370
    -2
100
AcDbBlockReference
  2
B-DIM
 10
75453.06374727527
 20
-2580.028999646478
 30
0.0
 41
30.0
 42
30.0
 43
30.0
  0
MTEXT
  5
28D4
330
28CC
100
AcDbEntity
  8
0Wymiary-PL
 62
   140
100
AcDbMText
 10
75528.06374727527
 20
-2500.028999646478
 30
0.0
 40
80.0
 41
0.0
 71
     5
 72
     1
  1
\A1;150
  7
ROMANS
 73
     1
 44
1.0
1001
ACAD
1000
MTEXTBEGIN
1070
    73
1070
     1
1070
    44
1040
1.0
1070
    74
1070
     0
1000
MTEXTEND
  0
POINT
  5
28D5
330
28CC
100
AcDbEntity
  8
Defpoints
 62
     0
100
AcDbPoint
 10
75603.06374727526
 20
-3632.900836842087
 30
0.0
  0
POINT
  5
28D6
330
28CC
100
AcDbEntity
  8
Defpoints
 62
     0
100
AcDbPoint
 10
75453.06374727527
 20
-3632.900836842087
 30
0.0
  0
POINT
  5
28D7
330
28CC
100
AcDbEntity
  8
Defpoints
 62
     0
100
AcDbPoint
 10
75453.06374727527
 20
-2580.028999646478
 30
0.0
  0
ENDBLK
  5
28CE
330
28CC
100
AcDbEntity
  8
0
 62
    54
 48
4.0
100
AcDbBlockEnd
  0
BLOCK
  5
28D9
330
28D8
100
AcDbEntity
  8
0
 62
    54
 48
4.0
100
AcDbBlockBegin
  2
*D111
 70
     1
 10
0.0
 20
0.0
 30
0.0
  3
*D111
  1

  0
LINE
  5
28DB
330
28D8
100
AcDbEntity
  8
0Hatch
 62
     1
370
    -2
100
AcDbLine
 10
75423.06374727527
 20
-2580.028999646478
 30
0.0
 11
74463.06374727511
 21
-2580.028999646478
 31
0.0
  0
INSERT
  5
28DC
330
28D8
100
AcDbEntity
  8
0Hatch
 62
     1
370
    -2
100
AcDbBlockReference
  2
B-DIM
 10
75453.06374727527
 20
-2580.028999646478
 30
0.0
 41
30.0
 42
30.0
 43
30.0
  0
INSERT
  5
28DD
330
28D8
100
AcDbEntity
  8
0Hatch
 62
     1
370
    -2
100
AcDbBlockReference
  2
B-DIM
 10
74433.06374727511
 20
-2580.028999646478
 30
0.0
 41
30.0
 42
30.0
 43
30.0
 50
180.0
  0
MTEXT
  5
28DE
330
28D8
100
AcDbEntity
  8
0Hatch
 62
   140
100
AcDbMText
 10
74943.06374727519
 20
-2500.028999646478
 30
0.0
 40
80.0
 41
0.0
 71
     5
 72
     1
  1
\A1;1020
  7
ROMANS
 73
     1
 44
1.0
1001
ACAD
1000
MTEXTBEGIN
1070
    73
1070
     1
1070
    44
1040
1.0
1070
    74
1070
     0
1000
MTEXTEND
  0
POINT
  5
28DF
330
28D8
100
AcDbEntity
  8
Defpoints
 62
     0
100
AcDbPoint
 10
75453.06374727527
 20
-3632.900836842087
 30
0.0
  0
POINT
  5
28E0
330
28D8
100
AcDbEntity
  8
Defpoints
 62
     0
100
AcDbPoint
 10
74433.06374727511
 20
-3027.900165774572
 30
0.0
  0
POINT
  5
28E1
330
28D8
100
AcDbEntity
  8
Defpoints
 62
     0
100
AcDbPoint
 10
74433.06374727511
 20
-2580.028999646478
 30
0.0
  0
ENDBLK
  5
28DA
330
28D8
100
AcDbEntity
  8
0
 62
    54
 48
4.0
100
AcDbBlockEnd
  0
BLOCK
  5
28E3
330
28E2
100
AcDbEntity
  8
0
 62
    54
 48
4.0
100
AcDbBlockBegin
  2
*D112
 70
     1
 10
0.0
 20
0.0
 30
0.0
  3
*D112
  1

  0
LINE
  5
28E5
330
28E2
100
AcDbEntity
  8
0Hatch
 62
     1
370
    -2
100
AcDbLine
 10
74463.06374727511
 20
-2580.028999646478
 30
0.0
 11
74493.06374727511
 21
-2580.028999646478
 31
0.0
  0
LINE
  5
28E6
330
28E2
100
AcDbEntity
  8
0Hatch
 62
     1
370
    -2
100
AcDbLine
 10
74323.06374727512
 20
-2580.028999646478
 30
0.0
 11
74293.06374727512
 21
-2580.028999646478
 31
0.0
  0
LINE
  5
28E7
330
28E2
100
AcDbEntity
  8
0Hatch
 62
     1
370
    -2
100
AcDbLine
 10
74433.06374727511
 20
-2580.028999646478
 30
0.0
 11
74353.06374727512
 21
-2580.028999646478
 31
0.0
  0
INSERT
  5
28E8
330
28E2
100
AcDbEntity
  8
0Hatch
 62
     1
370
    -2
100
AcDbBlockReference
  2
B-DIM
 10
74433.06374727511
 20
-2580.028999646478
 30
0.0
 41
30.0
 42
30.0
 43
30.0
 50
180.0
  0
INSERT
  5
28E9
330
28E2
100
AcDbEntity
  8
0Hatch
 62
     1
370
    -2
100
AcDbBlockReference
  2
B-DIM
 10
74353.06374727512
 20
-2580.028999646478
 30
0.0
 41
30.0
 42
30.0
 43
30.0
  0
MTEXT
  5
28EA
330
28E2
100
AcDbEntity
  8
0Hatch
 62
   140
100
AcDbMText
 10
74393.06374727513
 20
-2500.028999646478
 30
0.0
 40
80.0
 41
0.0
 71
     5
 72
     1
  1
\A1;80
  7
ROMANS
 73
     1
 44
1.0
1001
ACAD
1000
MTEXTBEGIN
1070
    73
1070
     1
1070
    44
1040
1.0
1070
    74
1070
     0
1000
MTEXTEND
  0
POINT
  5
28EB
330
28E2
100
AcDbEntity
  8
Defpoints
 62
     0
100
AcDbPoint
 10
74433.06374727511
 20
-3027.900165774572
 30
0.0
  0
POINT
  5
28EC
330
28E2
100
AcDbEntity
  8
Defpoints
 62
     0
100
AcDbPoint
 10
74353.06374727512
 20
-3412.745165774531
 30
0.0
  0
POINT
  5
28ED
330
28E2
100
AcDbEntity
  8
Defpoints
 62
     0
100
AcDbPoint
 10
74353.06374727512
 20
-2580.028999646478
 30
0.0
  0
ENDBLK
  5
28E4
330
28E2
100
AcDbEntity
  8
0
 62
    54
 48
4.0
100
AcDbBlockEnd
  0
BLOCK
  5
28EF
330
28EE
100
AcDbEntity
  8
0
 62
    54
 48
4.0
100
AcDbBlockBegin
  2
*D113
 70
     1
 10
0.0
 20
0.0
 30
0.0
  3
*D113
  1

  0
LINE
  5
28F1
330
28EE
100
AcDbEntity
  8
0Hatch
 62
     1
370
    -2
100
AcDbLine
 10
73953.06374727523
 20
-2857.900165774481
 30
0.0
 11
73953.06374727523
 21
-2827.900165774481
 31
0.0
  0
LINE
  5
28F2
330
28EE
100
AcDbEntity
  8
0Hatch
 62
     1
370
    -2
100
AcDbLine
 10
73953.06374727523
 20
-3057.900165774466
 30
0.0
 11
73953.06374727523
 21
-3087.900165774466
 31
0.0
  0
LINE
  5
28F3
330
28EE
100
AcDbEntity
  8
0Hatch
 62
     1
370
    -2
100
AcDbLine
 10
73953.06374727523
 20
-2887.900165774481
 30
0.0
 11
73953.06374727523
 21
-3027.900165774466
 31
0.0
  0
INSERT
  5
28F4
330
28EE
100
AcDbEntity
  8
0Hatch
 62
     1
370
    -2
100
AcDbBlockReference
  2
B-DIM
 10
73953.06374727523
 20
-2887.900165774481
 30
0.0
 41
30.0
 42
30.0
 43
30.0
 50
270.0
  0
INSERT
  5
28F5
330
28EE
100
AcDbEntity
  8
0Hatch
 62
     1
370
    -2
100
AcDbBlockReference
  2
B-DIM
 10
73953.06374727523
 20
-3027.900165774466
 30
0.0
 41
30.0
 42
30.0
 43
30.0
 50
90.0
  0
MTEXT
  5
28F6
330
28EE
100
AcDbEntity
  8
0Hatch
 62
   140
100
AcDbMText
 10
73873.06374727523
 20
-2957.900165774462
 30
0.0
 40
80.0
 41
0.0
 71
     5
 72
     1
  1
\A1;140
  7
ROMANS
 11
0.0000000000000001
 21
1.0
 31
0.0
 73
     1
 44
1.0
1001
ACAD
1000
MTEXTBEGIN
1070
    73
1070
     1
1070
    44
1040
1.0
1070
    74
1070
     0
1000
MTEXTEND
  0
POINT
  5
28F7
330
28EE
100
AcDbEntity
  8
Defpoints
 62
     0
100
AcDbPoint
 10
74939.06339550099
 20
-2887.900165774481
 30
0.0
  0
POINT
  5
28F8
330
28EE
100
AcDbEntity
  8
Defpoints
 62
     0
100
AcDbPoint
 10
74939.06339550102
 20
-3027.900165774467
 30
0.0
  0
POINT
  5
28F9
330
28EE
100
AcDbEntity
  8
Defpoints
 62
     0
100
AcDbPoint
 10
73953.06374727523
 20
-3027.900165774466
 30
0.0
  0
ENDBLK
  5
28F0
330
28EE
100
AcDbEntity
  8
0
 62
    54
 48
4.0
100
AcDbBlockEnd
  0
BLOCK
  5
28FB
330
28FA
100
AcDbEntity
  8
0
 62
    54
 48
4.0
100
AcDbBlockBegin
  2
*D114
 70
     1
 10
0.0
 20
0.0
 30
0.0
  3
*D114
  1

  0
LINE
  5
28FD
330
28FA
100
AcDbEntity
  8
0Hatch
 62
     1
370
    -2
100
AcDbLine
 10
73953.06374727523
 20
-3057.900165774466
 30
0.0
 11
73953.06374727523
 21
-4037.900165774282
 31
0.0
  0
INSERT
  5
28FE
330
28FA
100
AcDbEntity
  8
0Hatch
 62
     1
370
    -2
100
AcDbBlockReference
  2
B-DIM
 10
73953.06374727523
 20
-3027.900165774466
 30
0.0
 41
30.0
 42
30.0
 43
30.0
 50
90.0
  0
INSERT
  5
28FF
330
28FA
100
AcDbEntity
  8
0Hatch
 62
     1
370
    -2
100
AcDbBlockReference
  2
B-DIM
 10
73953.06374727523
 20
-4067.900165774283
 30
0.0
 41
30.0
 42
30.0
 43
30.0
 50
270.0
  0
MTEXT
  5
2900
330
28FA
100
AcDbEntity
  8
0Hatch
 62
   140
100
AcDbMText
 10
73873.06374727523
 20
-3547.900165774363
 30
0.0
 40
80.0
 41
0.0
 71
     5
 72
     1
  1
\A1;1040
  7
ROMANS
 11
0.0000000000000001
 21
1.0
 31
0.0
 73
     1
 44
1.0
1001
ACAD
1000
MTEXTBEGIN
1070
    73
1070
     1
1070
    44
1040
1.0
1070
    74
1070
     0
1000
MTEXTEND
  0
POINT
  5
2901
330
28FA
100
AcDbEntity
  8
Defpoints
 62
     0
100
AcDbPoint
 10
74939.06339550102
 20
-3027.900165774467
 30
0.0
  0
POINT
  5
2902
330
28FA
100
AcDbEntity
  8
Defpoints
 62
     0
100
AcDbPoint
 10
74433.06374727512
 20
-4067.900165774283
 30
0.0
  0
POINT
  5
2903
330
28FA
100
AcDbEntity
  8
Defpoints
 62
     0
100
AcDbPoint
 10
73953.06374727523
 20
-4067.900165774283
 30
0.0
  0
ENDBLK
  5
28FC
330
28FA
100
AcDbEntity
  8
0
 62
    54
 48
4.0
100
AcDbBlockEnd
  0
ENDSEC
  0
SECTION
  2
ENTITIES
  0
LINE
  5
2476
330
2
100
AcDbEntity
  8
TEREN$0$A-MassElement-G
  6
Continuous
 62
   210
370
     5
100
AcDbLine
 10
71228.51092769719
 20
-4228.900165774523
 30
0.0
 11
71351.51092769717
 21
-4228.900165774523
 31
0.0
  0
ARC
  5
2477
330
2
100
AcDbEntity
  8
TEREN$0$A-MassElement-G
  6
Continuous
 62
   210
370
     5
100
AcDbCircle
 10
71351.51092769716
 20
-4028.900165774479
 30
0.0
 40
200.000000000043
100
AcDbArc
 50
270.0
 51
348.7552764075201
  0
LINE
  5
2478
330
2
100
AcDbEntity
  8
TEREN$0$A-MassElement-G
  6
Continuous
 62
   210
370
     5
100
AcDbLine
 10
71228.51092769719
 20
-4263.900165774523
 30
0.0
 11
71351.51092769717
 21
-4263.900165774523
 31
0.0
  0
ARC
  5
2479
330
2
100
AcDbEntity
  8
TEREN$0$A-MassElement-G
  6
Continuous
 62
   210
370
     5
100
AcDbCircle
 10
71351.51092769719
 20
-4028.900165774524
 30
0.0
 40
234.9999999999976
100
AcDbArc
 50
270.0
 51
350.4471409924244
  0
LINE
  5
247A
330
2
100
AcDbEntity
  8
TEREN$0$A-MassElement-G
  6
Continuous
 62
   210
370
     5
100
AcDbLine
 10
71228.51092769719
 20
-4298.900165774522
 30
0.0
 11
71351.51092769717
 21
-4298.900165774522
 31
0.0
  0
ARC
  5
247B
330
2
100
AcDbEntity
  8
TEREN$0$A-MassElement-G
  6
Continuous
 62
   210
370
     5
100
AcDbCircle
 10
71351.17837024474
 20
-4028.515538626765
 30
0.0
 40
270.3848316608956
100
AcDbArc
 50
270.0704704586772
 51
351.6244200126191
  0
LINE
  5
247C
330
2
100
AcDbEntity
  8
TEREN$0$A-MassElement-G
  6
Continuous
 62
   210
370
     5
100
AcDbLine
 10
71830.51092769728
 20
-3511.740115140632
 30
0.0
 11
72030.51092769732
 21
-3311.740115140499
 31
0.0
  0
LINE
  5
247D
330
2
100
AcDbEntity
  8
TEREN$0$A-MassElement-G
  6
Continuous
 62
   210
370
     5
100
AcDbLine
 10
72030.51092769732
 20
-3311.740115140499
 30
0.0
 11
72030.51092769732
 21
-2717.900165774481
 31
0.0
  0
LINE
  5
247E
330
2
100
AcDbEntity
  8
TEREN$0$A-MassElement-G
  6
Continuous
 62
   210
370
     5
100
AcDbLine
 10
72030.51092769732
 20
-2717.900165774481
 30
0.0
 11
71256.76108686737
 21
-2717.900165774481
 31
0.0
  0
ARC
  5
247F
330
2
100
AcDbEntity
  8
TEREN$0$A-MassElement-G
  6
Continuous
 62
   210
370
     5
100
AcDbCircle
 10
71094.51127947145
 20
-2887.900165774457
 30
0.0
 40
235.0000000000001
100
AcDbArc
 50
46.33626206405988
 51
189.800189945161
  0
LINE
  5
2480
330
2
100
AcDbEntity
  8
TEREN$0$A-MassElement-G
  6
Continuous
 62
   210
370
     5
100
AcDbLine
 10
71830.51092769729
 20
-3462.242640457544
 30
0.0
 11
71995.51092769732
 21
-3297.242640457446
 31
0.0
  0
LINE
  5
2481
330
2
100
AcDbEntity
  8
TEREN$0$A-MassElement-G
  6
Continuous
 62
   210
370
     5
100
AcDbLine
 10
71995.51092769732
 20
-3297.242640457446
 30
0.0
 11
71995.51092769732
 21
-2752.900165774481
 31
0.0
  0
LINE
  5
2482
330
2
100
AcDbEntity
  8
TEREN$0$A-MassElement-G
  6
Continuous
 62
   210
370
     5
100
AcDbLine
 10
71995.51092769732
 20
-2752.900165774481
 30
0.0
 11
71242.07482510521
 21
-2752.900165774481
 31
0.0
  0
ARC
  5
2483
330
2
100
AcDbEntity
  8
TEREN$0$A-MassElement-G
  6
Continuous
 62
   210
370
     5
100
AcDbCircle
 10
71094.6367821109
 20
-2888.146525824188
 30
0.0
 40
200.0738724288833
100
AcDbArc
 50
42.53046382266417
 51
191.4606454146291
  0
LINE
  5
2484
330
2
100
AcDbEntity
  8
TEREN$0$A-MassElement-G
  6
Continuous
 62
   210
370
     5
100
AcDbLine
 10
71830.51092769733
 20
-3412.745165774531
 30
0.0
 11
71960.51092769732
 21
-3282.745165774392
 31
0.0
  0
LINE
  5
2485
330
2
100
AcDbEntity
  8
TEREN$0$A-MassElement-G
  6
Continuous
 62
   210
370
     5
100
AcDbLine
 10
71960.51092769732
 20
-3282.745165774392
 30
0.0
 11
71960.51092769732
 21
-2787.900165774481
 31
0.0
  0
LINE
  5
2486
330
2
100
AcDbEntity
  8
TEREN$0$A-MassElement-G
  6
Continuous
 62
   210
370
     5
100
AcDbLine
 10
71960.51092769732
 20
-2787.900165774481
 30
0.0
 11
71267.71636022835
 21
-2787.900165774481
 31
0.0
  0
ARC
  5
2487
330
2
100
AcDbEntity
  8
TEREN$0$A-MassElement-G
  6
Continuous
 62
   210
370
     5
100
AcDbCircle
 10
-71094.51127947145
 20
-2887.900165774454
 30
0.0
 40
199.9999999999917
210
0.0
220
0.0
230
-1.0
100
AcDbArc
 50
149.9999999998473
 51
180.0
  0
LINE
  5
2488
330
2
100
AcDbEntity
  8
TEREN$0$A-MassElement-G
  6
Continuous
 62
   210
370
     5
100
AcDbLine
 10
70730.51092769714
 20
-3520.900165774528
 30
0.0
 11
70576.51092769719
 21
-3520.900165774528
 31
0.0
  0
LINE
  5
2489
330
2
100
AcDbEntity
  8
TEREN$0$A-MassElement-G
  6
Continuous
 62
   210
370
     5
100
AcDbLine
 10
70576.51092769719
 20
-3520.900165774528
 30
0.0
 11
70576.51092769719
 21
-3632.900836842087
 31
0.0
  0
LINE
  5
248A
330
2
100
AcDbEntity
  8
TEREN$0$A-MassElement-G
  6
Continuous
 62
   210
370
     5
100
AcDbLine
 10
70541.51092769719
 20
-3485.900165774529
 30
0.0
 11
70541.51092769719
 21
-3667.900836842088
 31
0.0
  0
LINE
  5
248B
330
2
100
AcDbEntity
  8
TEREN$0$A-MassElement-G
  6
Continuous
 62
   210
370
     5
100
AcDbLine
 10
70541.51092769719
 20
-3667.900836842088
 30
0.0
 11
70580.51092769719
 21
-3667.900836842088
 31
0.0
  0
LINE
  5
248C
330
2
100
AcDbEntity
  8
TEREN$0$A-MassElement-G
  6
Continuous
 62
   210
370
     5
100
AcDbLine
 10
70730.51092769714
 20
-3485.900165774529
 30
0.0
 11
70541.51092769719
 21
-3485.900165774529
 31
0.0
  0
LINE
  5
248D
330
2
100
AcDbEntity
  8
0Hatch
100
AcDbLine
 10
71711.51092769732
 20
-2927.90016577448
 30
0.0
 11
71750.51092769733
 21
-2927.90016577448
 31
0.0
  0
LINE
  5
248E
330
2
100
AcDbEntity
  8
0Hatch
100
AcDbLine
 10
71750.51092769733
 20
-2927.90016577448
 30
0.0
 11
71750.51092769733
 21
-2966.900165774479
 31
0.0
  0
LINE
  5
248F
330
2
100
AcDbEntity
  8
0Hatch
100
AcDbLine
 10
71750.51092769733
 20
-2966.900165774479
 30
0.0
 11
71711.51092769732
 21
-2966.900165774479
 31
0.0
  0
LINE
  5
2490
330
2
100
AcDbEntity
  8
0Hatch
100
AcDbLine
 10
71711.51092769732
 20
-2966.900165774479
 30
0.0
 11
71711.51092769732
 21
-2927.90016577448
 31
0.0
  0
LINE
  5
2491
330
2
100
AcDbEntity
  8
0Hatch
100
AcDbLine
 10
71247.51127947145
 20
-2927.90016577448
 30
0.0
 11
71286.51127947145
 21
-2927.90016577448
 31
0.0
  0
LINE
  5
2492
330
2
100
AcDbEntity
  8
0Hatch
100
AcDbLine
 10
71286.51127947145
 20
-2927.90016577448
 30
0.0
 11
71286.51127947145
 21
-2966.900165774479
 31
0.0
  0
LINE
  5
2493
330
2
100
AcDbEntity
  8
0Hatch
100
AcDbLine
 10
71286.51127947145
 20
-2966.900165774479
 30
0.0
 11
71247.51127947145
 21
-2966.900165774479
 31
0.0
  0
LINE
  5
2494
330
2
100
AcDbEntity
  8
0Hatch
100
AcDbLine
 10
71707.51092769732
 20
-2923.90016577448
 30
0.0
 11
71707.51092769732
 21
-2970.900165774479
 31
0.0
  0
LINE
  5
2495
330
2
100
AcDbEntity
  8
0Hatch
100
AcDbLine
 10
71707.51092769732
 20
-2970.900165774479
 30
0.0
 11
71754.51092769733
 21
-2970.900165774479
 31
0.0
  0
LINE
  5
2496
330
2
100
AcDbEntity
  8
0Hatch
100
AcDbLine
 10
71754.51092769733
 20
-2970.900165774479
 30
0.0
 11
71754.51092769733
 21
-2923.90016577448
 31
0.0
  0
LINE
  5
2497
330
2
100
AcDbEntity
  8
0Hatch
100
AcDbLine
 10
71754.51092769733
 20
-2923.90016577448
 30
0.0
 11
71707.51092769732
 21
-2923.90016577448
 31
0.0
  0
LINE
  5
2498
330
2
100
AcDbEntity
  8
0Hatch
100
AcDbLine
 10
70576.51092769719
 20
-3567.900165774528
 30
0.0
 11
70623.51092769719
 21
-3567.900165774528
 31
0.0
  0
LINE
  5
2499
330
2
100
AcDbEntity
  8
0Hatch
100
AcDbLine
 10
70623.51092769719
 20
-3567.900165774528
 30
0.0
 11
70623.51092769719
 21
-3520.900165774528
 31
0.0
  0
LINE
  5
249A
330
2
100
AcDbEntity
  8
0Hatch
100
AcDbLine
 10
71244.51127947144
 20
-2970.900165774479
 30
0.0
 11
71290.51127947145
 21
-2970.900165774479
 31
0.0
  0
LINE
  5
249B
330
2
100
AcDbEntity
  8
0Hatch
100
AcDbLine
 10
71290.51127947145
 20
-2970.900165774479
 30
0.0
 11
71290.51127947145
 21
-2923.90016577448
 31
0.0
  0
LINE
  5
249C
330
2
100
AcDbEntity
  8
0Hatch
100
AcDbLine
 10
71290.51127947145
 20
-2923.90016577448
 30
0.0
 11
71244.51127947145
 21
-2923.90016577448
 31
0.0
  0
LINE
  5
249D
102
{ACAD_REACTORS
330
2787
102
}
330
2
100
AcDbEntity
  8
0Hatch
100
AcDbLine
 10
70929.5104889855
 20
-4490.900165774529
 30
0.0
 11
70929.5104889855
 21
-4430.900165774528
 31
0.0
  0
LINE
  5
249E
102
{ACAD_REACTORS
330
2787
102
}
330
2
100
AcDbEntity
  8
0Hatch
100
AcDbLine
 10
70879.51136640887
 20
-4430.90016577453
 30
0.0
 11
70879.51136640889
 21
-4490.900165774529
 31
0.0
  0
LINE
  5
24A0
102
{ACAD_REACTORS
330
2787
102
}
330
2
100
AcDbEntity
  8
0Hatch
100
AcDbLine
 10
70649.51136640888
 20
-4490.900165774529
 30
0.0
 11
70649.51136640888
 21
-4430.900165774528
 31
0.0
  0
LINE
  5
24A1
330
2
100
AcDbEntity
  8
0Hatch
100
AcDbLine
 10
71750.51092769733
 20
-2966.900165774479
 30
0.0
 11
71750.51092769733
 21
-2927.90016577448
 31
0.0
  0
LINE
  5
24A2
330
2
100
AcDbEntity
  8
0Hatch
100
AcDbLine
 10
71750.51092769733
 20
-2927.90016577448
 30
0.0
 11
71711.51092769732
 21
-2927.90016577448
 31
0.0
  0
LINE
  5
24A3
330
2
100
AcDbEntity
  8
0Hatch
100
AcDbLine
 10
71711.51092769732
 20
-2927.90016577448
 30
0.0
 11
71711.51092769732
 21
-2966.900165774479
 31
0.0
  0
LINE
  5
24A4
330
2
100
AcDbEntity
  8
0Hatch
100
AcDbLine
 10
71711.51092769732
 20
-2966.900165774479
 30
0.0
 11
71750.51092769733
 21
-2966.900165774479
 31
0.0
  0
HATCH
  5
24A5
330
2
100
AcDbEntity
  8
0Hatch
100
AcDbHatch
 10
0.0
 20
0.0
 30
0.0
210
0.0
220
0.0
230
1.0
  2
SOLID
 70
     1
 71
     0
 91
        3
 92
        7
 72
     0
 73
     1
 93
        4
 10
71750.51092769733
 20
-2927.90016577448
 10
71711.51092769732
 20
-2927.90016577448
 10
71711.51092769734
 20
-2966.900165774479
 10
71750.51092769733
 20
-2966.900165774479
 97
        0
 92
        7
 72
     0
 73
     1
 93
        4
 10
71286.51127947145
 20
-2927.90016577448
 10
71247.51127947145
 20
-2927.90016577448
 10
71247.51127947145
 20
-2966.900165774479
 10
71286.51127947145
 20
-2966.900165774479
 97
        0
 92
        7
 72
     0
 73
     1
 93
        4
 10
70619.51092769719
 20
-3524.900165774528
 10
70580.51092769719
 20
-3524.900165774528
 10
70580.51092769719
 20
-3563.900165774529
 10
70619.51092769719
 20
-3563.900165774529
 97
        0
 75
     0
 76
     1
 47
2.597467320352833
 98
        3
 10
71734.92412566747
 20
-2958.371793297736
 10
71264.63797313293
 20
-2951.029841588525
 10
70600.41664439062
 20
-3552.714564233558
1001
ACAD
1010
0.0
1020
0.0
1030
0.0
  0
LINE
  5
24A6
330
2
100
AcDbEntity
  8
0Hatch
100
AcDbLine
 10
70619.51092769719
 20
-3563.900165774529
 30
0.0
 11
70619.51092769719
 21
-3524.900165774528
 31
0.0
  0
LINE
  5
24A7
330
2
100
AcDbEntity
  8
0Hatch
100
AcDbLine
 10
70619.51092769719
 20
-3524.900165774528
 30
0.0
 11
70580.51092769719
 21
-3524.900165774528
 31
0.0
  0
LINE
  5
24A8
330
2
100
AcDbEntity
  8
0Hatch
100
AcDbLine
 10
70580.51092769719
 20
-3524.900165774528
 30
0.0
 11
70580.51092769719
 21
-3563.900165774529
 31
0.0
  0
LINE
  5
24A9
330
2
100
AcDbEntity
  8
0Hatch
100
AcDbLine
 10
70580.51092769719
 20
-3563.900165774529
 30
0.0
 11
70619.51092769719
 21
-3563.900165774529
 31
0.0
  0
LINE
  5
24AA
330
2
100
AcDbEntity
  8
0Hatch
100
AcDbLine
 10
71286.51127947145
 20
-2966.900165774479
 30
0.0
 11
71286.51127947145
 21
-2927.90016577448
 31
0.0
  0
LINE
  5
24AB
330
2
100
AcDbEntity
  8
0Hatch
100
AcDbLine
 10
71286.51127947145
 20
-2927.90016577448
 30
0.0
 11
71247.51127947145
 21
-2927.90016577448
 31
0.0
  0
LINE
  5
24AC
330
2
100
AcDbEntity
  8
0Hatch
100
AcDbLine
 10
71247.51127947145
 20
-2966.900165774479
 30
0.0
 11
71286.51127947145
 21
-2966.900165774479
 31
0.0
  0
LINE
  5
24AD
330
2
100
AcDbEntity
  8
TEREN$0$A-MassElement-G
  6
Continuous
 62
   210
370
     5
100
AcDbLine
 10
71294.51127947145
 20
-2887.900165774481
 30
0.0
 11
71244.51127947145
 21
-2887.900165774472
 31
0.0
  0
LWPOLYLINE
  5
24AE
102
{ACAD_REACTORS
330
2787
102
}
330
2
100
AcDbEntity
  8
0Hatch
100
AcDbPolyline
 90
        2
 70
     0
 43
0.0
 10
70580.51092769719
 20
-4490.900165774529
 10
70649.51136640888
 20
-4490.900165774529
  0
LWPOLYLINE
  5
24AF
102
{ACAD_REACTORS
330
2787
102
}
330
2
100
AcDbEntity
  8
0Hatch
100
AcDbPolyline
 90
        2
 70
     0
 43
0.0
 10
70879.51136640889
 20
-4490.900165774529
 10
70929.5104889855
 20
-4490.900165774529
  0
LWPOLYLINE
  5
24B1
102
{ACAD_REACTORS
330
24E1
330
24E4
330
2562
330
2787
102
}
330
2
100
AcDbEntity
  8
0Hatch
100
AcDbPolyline
 90
        4
 70
     0
 43
0.0
 10
71159.51048898551
 20
-4490.900165774529
 10
71228.51092769719
 20
-4490.900165774529
 10
71228.51092769733
 20
-4067.900165774479
 10
71301.51092769717
 20
-4067.900165774452
  0
HATCH
  5
24B2
330
2
100
AcDbEntity
  8
0Hatch
100
AcDbHatch
 10
0.0
 20
0.0
 30
0.0
210
0.0
220
0.0
230
1.0
  2
SOLID
 70
     1
 71
     0
 91
        1
 92
        7
 72
     0
 73
     1
 93
        4
 10
71247.51127947145
 20
-2927.90016577448
 10
71244.51127947145
 20
-2927.90016577448
 10
71244.51127947144
 20
-2966.900165774479
 10
71247.51127947145
 20
-2966.900165774479
 97
        0
 75
     0
 76
     1
 47
0.3048029869203697
 98
        1
 10
71246.24964310291
 20
-2949.520281585479
1001
ACAD
1010
0.0
1020
0.0
1030
0.0
  0
LWPOLYLINE
  5
24B3
102
{ACAD_REACTORS
330
24D8
330
24DB
330
24DE
330
24E1
330
24E4
330
24E7
330
2553
330
2556
330
2559
330
255C
330
255F
330
2562
330
2787
102
}
330
2
100
AcDbEntity
  8
0Hatch
100
AcDbPolyline
 90
       15
 70
     0
 43
0.0
 10
71401.51092769718
 20
-4067.900165774413
 10
71750.51092769733
 20
-4067.900165774283
 10
71750.51092769717
 20
-3663.055165774637
 10
71830.51092769722
 20
-3583.05516577462
 10
71830.51092769733
 20
-3412.745165774531
 10
71750.51092769725
 20
-3332.745165774499
 10
71750.51092769733
 20
-3027.900165774572
 10
71244.51127947142
 20
-3027.900165774467
 10
71244.51127947145
 20
-2887.900165774481
 10
70944.51127947145
 20
-2887.900165774536
 10
70944.51127947145
 20
-2927.90016577443
 10
70730.51092769703
 20
-2927.900165774478
 10
70730.51092769718
 20
-3632.900836842087
 10
70580.51092769719
 20
-3632.900836842087
 10
70580.51092769719
 20
-4490.900165774529
  0
LWPOLYLINE
  5
24B6
102
{ACAD_REACTORS
330
2787
102
}
330
2
100
AcDbEntity
  8
0Hatch
100
AcDbPolyline
 90
       22
 70
     1
 43
0.0
 10
71401.51092769721
 20
-4007.900165774413
 10
71690.5109276973
 20
-4007.900165774304
 10
71690.51092769716
 20
-3638.202352032253
 10
71770.51092769723
 20
-3558.202352032213
 10
71770.51092769731
 20
-3437.597979516912
 10
71690.51092769725
 20
-3357.597979516886
 10
71690.51092769732
 20
-3087.90016577456
 10
71184.51127947142
 20
-3087.900165774456
 10
71184.51127947145
 20
-2947.900165774492
 10
71004.51127947145
 20
-2947.900165774525
 10
71004.51127947145
 20
-2987.900165774418
 10
70790.51092769705
 20
-2987.900165774465
 10
70790.51092769719
 20
-3692.900836842087
 10
70640.51092769719
 20
-3692.900836842087
 10
70640.51092769719
 20
-4430.900165774528
 10
70649.51136640888
 20
-4430.900165774528
 10
70879.51136640887
 20
-4430.900165774528
 10
70929.5104889855
 20
-4430.900165774528
 10
71159.51048898551
 20
-4430.900165774528
 10
71168.51092769721
 20
-4430.900165774528
 10
71168.51092769735
 20
-4007.900165774503
 10
71301.51092769721
 20
-4007.900165774452
  0
LINE
  5
24B7
330
2
100
AcDbEntity
  8
TEREN$0$A-MassElement-G
  6
Continuous
 62
   210
370
     5
100
AcDbLine
 10
70580.51092769719
 20
-3632.900836842087
 30
0.0
 11
70576.51092769719
 21
-3632.900836842087
 31
0.0
  0
LINE
  5
24B8
102
{ACAD_REACTORS
330
2787
102
}
330
2
100
AcDbEntity
  8
0Hatch
100
AcDbLine
 10
71159.51048898551
 20
-4430.900165774528
 30
0.0
 11
71159.51048898551
 21
-4490.900165774529
 31
0.0
  0
LINE
  5
24B9
102
{ACAD_REACTORS
330
2787
102
}
330
2
100
AcDbEntity
  8
0Hatch
100
AcDbLine
 10
71401.51092769721
 20
-4007.900165774413
 30
0.0
 11
71401.51092769718
 21
-4067.900165774413
 31
0.0
  0
LINE
  5
24BA
102
{ACAD_REACTORS
330
2787
102
}
330
2
100
AcDbEntity
  8
0Hatch
100
AcDbLine
 10
71301.51092769717
 20
-4067.900165774452
 30
0.0
 11
71301.51092769721
 21
-4007.900165774452
 31
0.0
  0
LINE
  5
24BB
330
2
100
AcDbEntity
  8
0Hatch
100
AcDbLine
 10
71247.51127947145
 20
-2966.900165774479
 30
0.0
 11
71247.51127947145
 21
-2927.90016577448
 31
0.0
  0
LINE
  5
24BE
330
2
100
AcDbEntity
  8
0Hatch
100
AcDbLine
 10
70649.51136640888
 20
-4490.900165774529
 30
0.0
 11
70879.51136640889
 21
-4490.900165774529
 31
0.0
  0
LINE
  5
24BF
102
{ACAD_REACTORS
330
24DE
102
}
330
2
100
AcDbEntity
  8
0Hatch
100
AcDbLine
 10
70929.5104889855
 20
-4490.900165774529
 30
0.0
 11
71159.51048898551
 21
-4490.900165774529
 31
0.0
  0
LINE
  5
24C0
330
2
100
AcDbEntity
  8
0Hatch
100
AcDbLine
 10
71301.51092769717
 20
-4067.900165774452
 30
0.0
 11
71401.51092769718
 21
-4067.900165774413
 31
0.0
  0
TEXT
  5
24C2
330
2
100
AcDbEntity
  8
NAPISY
100
AcDbText
 10
69338.4500938835
 20
-12164.84778204288
 30
0.0
 40
150.0
  1
   O B R Y S   B U D Y N K U           S K A L A   1 : 5 0 0 
  7
ARIAL
100
AcDbText
  0
LWPOLYLINE
  5
24C3
330
2
100
AcDbEntity
  8
RAMKI-A4
100
AcDbPolyline
 90
        4
 70
     1
 43
0.0
 10
67879.09814720851
 20
-12830.40386494541
 10
67879.09814720851
 20
1189.596135054584
 10
78079.09814720854
 20
1189.596135054584
 10
78079.09814720854
 20
-12830.40386494541
  0
LINE
  5
24CE
330
2
100
AcDbEntity
  8
NAPISY
  6
DASHED
 62
     1
 48
25.0
370
     5
100
AcDbLine
 10
73091.78733748622
 20
-6817.256812396504
 30
0.0
 11
73091.78733748622
 21
-2014.79975491912
 31
0.0
  0
TEXT
  5
24CF
330
2
100
AcDbEntity
  8
NAPISY
100
AcDbText
 10
73032.2661604929
 20
-5735.60964957597
 30
0.0
 40
100.0
  1
OŚ ODBICIA LUSTRZANEGO
 50
90.0
  7
AVA
100
AcDbText
  0
TEXT
  5
24D0
330
2
100
AcDbEntity
  8
NAPISY
100
AcDbText
 10
69369.03591055028
 20
637.6718177514922
 30
0.0
 40
150.0
  1
"DOM W KOKOSACH"
  7
ARIAL
100
AcDbText
  0
TEXT
  5
24D2
330
2
100
AcDbEntity
  8
NAPISY
100
AcDbText
 10
69434.66314500139
 20
298.517478838985
 30
0.0
 40
150.0
  1
MOŻNA WKLEIĆ DO PROJEKTU ZAGOSPODAROWANIA TERENU
  7
ARIAL
100
AcDbText
  0
DIMENSION
  5
24D6
102
{ACAD_XDICTIONARY
360
24D7
102
}
102
{ACAD_REACTORS
330
24D8
102
}
330
2
100
AcDbEntity
  8
0Wymiary-PL
100
AcDbDimension
  2
*D85
 10
70376.51092769719
 20
-2927.900165774477
 30
0.0
 11
70296.51092769719
 21
-3280.400501308271
 31
0.0
 70
    32
 71
     5
 42
705.0006710676102
  3
500
100
AcDbAlignedDimension
 13
70580.51092769719
 23
-3632.900836842087
 33
0.0
 14
70730.51092769703
 24
-2927.900165774478
 34
0.0
 50
270.0
100
AcDbRotatedDimension
  0
DIMENSION
  5
24D9
102
{ACAD_XDICTIONARY
360
24DA
102
}
102
{ACAD_REACTORS
330
24DB
102
}
330
2
100
AcDbEntity
  8
0Wymiary-PL
100
AcDbDimension
  2
*D86
 10
70376.51092769719
 20
-2887.900165774535
 30
0.0
 11
70296.51092769719
 21
-2907.900165774495
 31
0.0
 70
    32
 71
     5
 42
39.99999999994179
  3
500
100
AcDbAlignedDimension
 13
70730.51092769703
 23
-2927.900165774478
 33
0.0
 14
70944.51127947145
 24
-2887.900165774536
 34
0.0
 50
270.0
100
AcDbRotatedDimension
  0
DIMENSION
  5
24DC
102
{ACAD_XDICTIONARY
360
24DD
102
}
102
{ACAD_REACTORS
330
24DE
102
}
330
2
100
AcDbEntity
  8
0Hatch
100
AcDbDimension
  2
*D87
 10
70176.51092769719
 20
-4490.900165774529
 30
0.0
 11
70096.51092769719
 21
-3689.400165774521
 31
0.0
 70
    33
 71
     5
 42
1602.999999999993
  3
500
100
AcDbAlignedDimension
 13
70944.51127947145
 23
-2887.900165774536
 33
0.0
 14
70944.51127947145
 24
-4490.900165774529
 34
0.0
  0
DIMENSION
  5
24DF
102
{ACAD_XDICTIONARY
360
24E0
102
}
102
{ACAD_REACTORS
330
24E1
102
}
330
2
100
AcDbEntity
  8
0Hatch
100
AcDbDimension
  2
*D88
 10
71228.51092769719
 20
-4690.900165774528
 30
0.0
 11
70904.51092769719
 21
-4610.900165774529
 31
0.0
 70
    33
 71
     5
 42
648.0
  3
500
100
AcDbAlignedDimension
 13
70580.51092769719
 23
-4490.900165774529
 33
0.0
 14
71228.51092769719
 24
-4490.900165774529
 34
0.0
  0
DIMENSION
  5
24E2
102
{ACAD_XDICTIONARY
360
24E3
102
}
102
{ACAD_REACTORS
330
24E4
102
}
330
2
100
AcDbEntity
  8
0Wymiary-PL
100
AcDbDimension
  2
*D89
 10
71750.51092769733
 20
-4690.900165774528
 30
0.0
 11
71489.51092769727
 21
-4610.900165774529
 31
0.0
 70
    32
 71
     5
 42
522.0000000001309
  3
500
100
AcDbAlignedDimension
 13
71228.51092769719
 23
-4490.900165774529
 33
0.0
 14
71750.51092769733
 24
-4067.900165774283
 34
0.0
 50
180.0
100
AcDbRotatedDimension
  0
DIMENSION
  5
24E5
102
{ACAD_XDICTIONARY
360
24E6
102
}
102
{ACAD_REACTORS
330
24E7
102
}
330
2
100
AcDbEntity
  8
0Wymiary-PL
100
AcDbDimension
  2
*D90
 10
71830.51092769722
 20
-4690.900165774528
 30
0.0
 11
71790.51092769727
 21
-4610.900165774529
 31
0.0
 70
    32
 71
     5
 42
79.99999999989814
  3
500
100
AcDbAlignedDimension
 13
71750.51092769733
 23
-4067.900165774283
 33
0.0
 14
71830.51092769722
 24
-3583.05516577462
 34
0.0
 50
180.0
100
AcDbRotatedDimension
  0
DIMENSION
  5
24E8
330
2
100
AcDbEntity
  8
0Wymiary-PL
100
AcDbDimension
  2
*D72
 10
71830.51092769722
 20
-4890.900165774528
 30
0.0
 11
71205.5109276972
 21
-4810.900165774529
 31
0.0
 70
    33
 71
     5
 42
1250.000000000029
  3
500
100
AcDbAlignedDimension
 13
70580.51092769719
 23
-4705.853966878363
 33
0.0
 14
71830.51092769722
 24
-4705.853966878363
 34
0.0
  0
LINE
  5
254D
330
2
100
AcDbEntity
  8
0Hatch
100
AcDbLine
 10
71247.51127947145
 20
-2966.900165774479
 30
0.0
 11
71244.51127947144
 21
-2966.900165774479
 31
0.0
  0
LINE
  5
254E
330
2
100
AcDbEntity
  8
0Hatch
100
AcDbLine
 10
71247.51127947145
 20
-2927.90016577448
 30
0.0
 11
71244.51127947145
 21
-2927.90016577448
 31
0.0
  0
DIMENSION
  5
2551
102
{ACAD_XDICTIONARY
360
2552
102
}
102
{ACAD_REACTORS
330
2553
102
}
330
2
100
AcDbEntity
  8
0Wymiary-PL
100
AcDbDimension
  2
*D94
 10
70730.51092769718
 20
-2580.028999646478
 30
0.0
 11
70655.51092769718
 21
-2500.028999646478
 31
0.0
 70
    33
 71
     5
 42
149.9999999999854
  3
500
100
AcDbAlignedDimension
 13
70580.51092769719
 23
-3632.900836842087
 33
0.0
 14
70730.51092769718
 24
-3632.900836842087
 34
0.0
  0
DIMENSION
  5
2554
102
{ACAD_XDICTIONARY
360
2555
102
}
102
{ACAD_REACTORS
330
2556
102
}
330
2
100
AcDbEntity
  8
0Hatch
100
AcDbDimension
  2
*D95
 10
71750.51092769733
 20
-2580.028999646478
 30
0.0
 11
71240.51092769726
 21
-2500.028999646478
 31
0.0
 70
    32
 71
     5
 42
1020.00000000016
  3
500
100
AcDbAlignedDimension
 13
70730.51092769718
 23
-3632.900836842087
 33
0.0
 14
71750.51092769733
 24
-3027.900165774572
 34
0.0
 50
180.0
100
AcDbRotatedDimension
  0
DIMENSION
  5
2557
102
{ACAD_XDICTIONARY
360
2558
102
}
102
{ACAD_REACTORS
330
2559
102
}
330
2
100
AcDbEntity
  8
0Hatch
100
AcDbDimension
  2
*D96
 10
71830.51092769733
 20
-2580.028999646478
 30
0.0
 11
71790.51092769732
 21
-2500.028999646478
 31
0.0
 70
    32
 71
     5
 42
79.99999999998545
  3
500
100
AcDbAlignedDimension
 13
71750.51092769733
 23
-3027.900165774572
 33
0.0
 14
71830.51092769733
 24
-3412.745165774531
 34
0.0
 50
180.0
100
AcDbRotatedDimension
  0
DIMENSION
  5
255A
102
{ACAD_XDICTIONARY
360
255B
102
}
102
{ACAD_REACTORS
330
255C
102
}
330
2
100
AcDbEntity
  8
0Hatch
100
AcDbDimension
  2
*D97
 10
72230.51092769722
 20
-3027.900165774467
 30
0.0
 11
72150.51092769722
 21
-2957.900165774463
 31
0.0
 70
    33
 71
     5
 42
139.9999999999854
  3
500
100
AcDbAlignedDimension
 13
71244.51127947145
 23
-2887.900165774481
 33
0.0
 14
71244.51127947142
 24
-3027.900165774467
 34
0.0
  0
DIMENSION
  5
255D
102
{ACAD_XDICTIONARY
360
255E
102
}
102
{ACAD_REACTORS
330
255F
102
}
330
2
100
AcDbEntity
  8
0Hatch
100
AcDbDimension
  2
*D98
 10
72230.51092769722
 20
-4067.900165774283
 30
0.0
 11
72150.51092769722
 21
-3547.900165774364
 31
0.0
 70
    32
 71
     5
 42
1039.999999999816
  3
500
100
AcDbAlignedDimension
 13
71244.51127947142
 23
-3027.900165774467
 33
0.0
 14
71750.51092769733
 24
-4067.900165774283
 34
0.0
 50
90.0
100
AcDbRotatedDimension
  0
DIMENSION
  5
2560
102
{ACAD_XDICTIONARY
360
2561
102
}
102
{ACAD_REACTORS
330
2562
102
}
330
2
100
AcDbEntity
  8
0Wymiary-PL
100
AcDbDimension
  2
*D99
 10
72230.51092769722
 20
-4490.900165774529
 30
0.0
 11
72150.51092769722
 21
-4279.400165774394
 31
0.0
 70
    32
 71
     5
 42
423.000000000246
  3
500
100
AcDbAlignedDimension
 13
71750.51092769733
 23
-4067.900165774283
 33
0.0
 14
71228.51092769719
 24
-4490.900165774529
 34
0.0
 50
90.0
100
AcDbRotatedDimension
  0
DIMENSION
  5
26F9
330
2
100
AcDbEntity
  8
0Hatch
100
AcDbDimension
  2
*D100
 10
70376.51092769719
 20
-4490.900165774529
 30
0.0
 11
70296.51092769719
 21
-4061.900501308296
 31
0.0
 70
    32
 71
     5
 42
857.9993289324411
  3
500
100
AcDbAlignedDimension
 13
70655.51092769718
 23
-3632.900836842087
 33
0.0
 14
70655.51092769718
 24
-4490.900165774529
 34
0.0
 50
90.0
100
AcDbRotatedDimension
  0
HATCH
  5
2787
330
2
100
AcDbEntity
  8
0Hatch
100
AcDbHatch
 10
0.0
 20
0.0
 30
0.0
210
0.0
220
0.0
230
1.0
  2
SOLID
 70
     1
 71
     1
 91
        3
 92
        7
 72
     0
 73
     1
 93
       32
 10
71004.51127947145
 20
-2987.900165774417
 10
71004.51127947145
 20
-2947.900165774525
 10
71184.51127947143
 20
-2947.900165774492
 10
71184.51127947142
 20
-3087.900165774456
 10
71690.51092769732
 20
-3087.90016577456
 10
71690.51092769725
 20
-3357.597979516886
 10
71770.51092769732
 20
-3437.597979516914
 10
71770.51092769723
 20
-3558.202352032215
 10
71690.51092769715
 20
-3638.202352032266
 10
71690.5109276973
 20
-4007.900165774304
 10
71401.51092769722
 20
-4007.900165774413
 10
71401.51092769718
 20
-4067.900165774413
 10
71750.51092769731
 20
-4067.900165774282
 10
71750.51092769717
 20
-3663.055165774635
 10
71830.51092769722
 20
-3583.055165774617
 10
71830.51092769733
 20
-3412.745165774531
 10
71750.51092769725
 20
-3332.745165774488
 10
71750.51092769733
 20
-3027.900165774572
 10
71244.51127947142
 20
-3027.900165774467
 10
71244.51127947145
 20
-2887.900165774481
 10
70944.51127947145
 20
-2887.900165774535
 10
70944.51127947145
 20
-2927.90016577443
 10
70730.51092769705
 20
-2927.900165774478
 10
70730.51092769719
 20
-3632.900836842087
 10
70580.51092769719
 20
-3632.900836842087
 10
70580.51092769719
 20
-4490.900165774529
 10
70649.51136640888
 20
-4490.900165774529
 10
70649.5113664089
 20
-4430.900165774528
 10
70640.51092769719
 20
-4430.900165774528
 10
70640.51092769719
 20
-3692.900836842087
 10
70790.51092769721
 20
-3692.900836842087
 10
70790.51092769705
 20
-2987.900165774465
 97
        5
330
24B6
330
24B9
330
24B3
330
24AE
330
24A0
 92
       23
 72
     0
 73
     1
 93
        8
 10
71228.51092769735
 20
-4067.900165774479
 10
71301.51092769717
 20
-4067.900165774452
 10
71301.51092769721
 20
-4007.900165774452
 10
71168.51092769735
 20
-4007.900165774503
 10
71168.51092769722
 20
-4430.900165774527
 10
71159.5104889855
 20
-4430.900165774528
 10
71159.51048898551
 20
-4490.900165774529
 10
71228.51092769719
 20
-4490.900165774529
 97
        4
330
24B6
330
24B8
330
24B1
330
24BA
 92
       23
 72
     0
 73
     1
 93
        4
 10
70879.51136640889
 20
-4430.900165774528
 10
70879.51136640889
 20
-4490.900165774529
 10
70929.51048898548
 20
-4490.900165774529
 10
70929.51048898548
 20
-4430.900165774528
 97
        4
330
24B6
330
249E
330
24AF
330
249D
 75
     0
 76
     1
 47
3.078713694656836
 98
        3
 10
70954.45758030344
 20
-2980.136392035594
 10
71208.10144832107
 20
-4053.380697460823
 10
70903.16642852908
 20
-4447.456057987031
1001
ACAD
1010
0.0
1020
0.0
1030
0.0
  0
LINE
  5
27F2
330
2
100
AcDbEntity
  8
TEREN$0$A-MassElement-G
  6
Continuous
 62
   210
370
     5
100
AcDbLine
 10
74955.06374727526
 20
-4228.900165774523
 30
0.0
 11
74832.06374727527
 21
-4228.900165774523
 31
0.0
  0
ARC
  5
27F3
330
2
100
AcDbEntity
  8
TEREN$0$A-MassElement-G
  6
Continuous
 62
   210
370
     5
100
AcDbCircle
 10
74832.06374727529
 20
-4028.900165774479
 30
0.0
 40
200.000000000043
100
AcDbArc
 50
191.2447235924935
 51
270.0
  0
LINE
  5
27F4
330
2
100
AcDbEntity
  8
TEREN$0$A-MassElement-G
  6
Continuous
 62
   210
370
     5
100
AcDbLine
 10
74955.06374727526
 20
-4263.900165774523
 30
0.0
 11
74832.06374727527
 21
-4263.900165774523
 31
0.0
  0
ARC
  5
27F5
330
2
100
AcDbEntity
  8
TEREN$0$A-MassElement-G
  6
Continuous
 62
   210
370
     5
100
AcDbCircle
 10
74832.06374727526
 20
-4028.900165774524
 30
0.0
 40
234.9999999999976
100
AcDbArc
 50
189.5528590075838
 51
270.0
  0
LINE
  5
27F6
330
2
100
AcDbEntity
  8
TEREN$0$A-MassElement-G
  6
Continuous
 62
   210
370
     5
100
AcDbLine
 10
74955.06374727526
 20
-4298.900165774522
 30
0.0
 11
74832.06374727527
 21
-4298.900165774522
 31
0.0
  0
ARC
  5
27F7
330
2
100
AcDbEntity
  8
TEREN$0$A-MassElement-G
  6
Continuous
 62
   210
370
     5
100
AcDbCircle
 10
74832.39630472771
 20
-4028.515538626765
 30
0.0
 40
270.3848316608956
100
AcDbArc
 50
188.3755799873073
 51
269.9295295421566
  0
LINE
  5
27F8
330
2
100
AcDbEntity
  8
TEREN$0$A-MassElement-G
  6
Continuous
 62
   210
370
     5
100
AcDbLine
 10
74353.06374727517
 20
-3511.740115140632
 30
0.0
 11
74153.06374727513
 21
-3311.740115140499
 31
0.0
  0
LINE
  5
27F9
330
2
100
AcDbEntity
  8
TEREN$0$A-MassElement-G
  6
Continuous
 62
   210
370
     5
100
AcDbLine
 10
74153.06374727513
 20
-3311.740115140499
 30
0.0
 11
74153.06374727513
 21
-2717.900165774481
 31
0.0
  0
LINE
  5
27FA
330
2
100
AcDbEntity
  8
TEREN$0$A-MassElement-G
  6
Continuous
 62
   210
370
     5
100
AcDbLine
 10
74153.06374727513
 20
-2717.900165774481
 30
0.0
 11
74926.81358810508
 21
-2717.900165774481
 31
0.0
  0
ARC
  5
27FB
330
2
100
AcDbEntity
  8
TEREN$0$A-MassElement-G
  6
Continuous
 62
   210
370
     5
100
AcDbCircle
 10
75089.063395501
 20
-2887.900165774457
 30
0.0
 40
235.0000000000001
100
AcDbArc
 50
350.1998100547853
 51
133.663737935815
  0
LINE
  5
27FC
330
2
100
AcDbEntity
  8
TEREN$0$A-MassElement-G
  6
Continuous
 62
   210
370
     5
100
AcDbLine
 10
74353.06374727515
 20
-3462.242640457544
 30
0.0
 11
74188.06374727513
 21
-3297.242640457446
 31
0.0
  0
LINE
  5
27FD
330
2
100
AcDbEntity
  8
TEREN$0$A-MassElement-G
  6
Continuous
 62
   210
370
     5
100
AcDbLine
 10
74188.06374727513
 20
-3297.242640457446
 30
0.0
 11
74188.06374727513
 21
-2752.900165774481
 31
0.0
  0
LINE
  5
27FE
330
2
100
AcDbEntity
  8
TEREN$0$A-MassElement-G
  6
Continuous
 62
   210
370
     5
100
AcDbLine
 10
74188.06374727513
 20
-2752.900165774481
 30
0.0
 11
74941.49984986724
 21
-2752.900165774481
 31
0.0
  0
ARC
  5
27FF
330
2
100
AcDbEntity
  8
TEREN$0$A-MassElement-G
  6
Continuous
 62
   210
370
     5
100
AcDbCircle
 10
75088.93789286155
 20
-2888.146525824188
 30
0.0
 40
200.0738724288833
100
AcDbArc
 50
348.5393545854298
 51
137.4695361777622
  0
LINE
  5
2800
330
2
100
AcDbEntity
  8
TEREN$0$A-MassElement-G
  6
Continuous
 62
   210
370
     5
100
AcDbLine
 10
74353.06374727512
 20
-3412.745165774531
 30
0.0
 11
74223.06374727512
 21
-3282.745165774392
 31
0.0
  0
LINE
  5
2801
330
2
100
AcDbEntity
  8
TEREN$0$A-MassElement-G
  6
Continuous
 62
   210
370
     5
100
AcDbLine
 10
74223.06374727512
 20
-3282.745165774392
 30
0.0
 11
74223.06374727512
 21
-2787.900165774481
 31
0.0
  0
LINE
  5
2802
330
2
100
AcDbEntity
  8
TEREN$0$A-MassElement-G
  6
Continuous
 62
   210
370
     5
100
AcDbLine
 10
74223.06374727512
 20
-2787.900165774481
 30
0.0
 11
74915.85831474409
 21
-2787.900165774481
 31
0.0
  0
ARC
  5
2803
330
2
100
AcDbEntity
  8
TEREN$0$A-MassElement-G
  6
Continuous
 62
   210
370
     5
100
AcDbCircle
 10
-75089.063395501
 20
-2887.900165774454
 30
0.0
 40
199.9999999999917
210
0.0
220
0.0
230
-1.0
100
AcDbArc
 50
0.000000000000007
 51
30.00000000017695
  0
LINE
  5
2804
330
2
100
AcDbEntity
  8
TEREN$0$A-MassElement-G
  6
Continuous
 62
   210
370
     5
100
AcDbLine
 10
75453.0637472753
 20
-3520.900165774528
 30
0.0
 11
75607.06374727526
 21
-3520.900165774528
 31
0.0
  0
LINE
  5
2805
330
2
100
AcDbEntity
  8
TEREN$0$A-MassElement-G
  6
Continuous
 62
   210
370
     5
100
AcDbLine
 10
75607.06374727526
 20
-3520.900165774528
 30
0.0
 11
75607.06374727526
 21
-3632.900836842087
 31
0.0
  0
LINE
  5
2806
330
2
100
AcDbEntity
  8
TEREN$0$A-MassElement-G
  6
Continuous
 62
   210
370
     5
100
AcDbLine
 10
75642.06374727525
 20
-3485.900165774529
 30
0.0
 11
75642.06374727525
 21
-3667.900836842088
 31
0.0
  0
LINE
  5
2807
330
2
100
AcDbEntity
  8
TEREN$0$A-MassElement-G
  6
Continuous
 62
   210
370
     5
100
AcDbLine
 10
75642.06374727525
 20
-3667.900836842088
 30
0.0
 11
75603.06374727526
 21
-3667.900836842088
 31
0.0
  0
LINE
  5
2808
330
2
100
AcDbEntity
  8
TEREN$0$A-MassElement-G
  6
Continuous
 62
   210
370
     5
100
AcDbLine
 10
75453.0637472753
 20
-3485.900165774529
 30
0.0
 11
75642.06374727525
 21
-3485.900165774529
 31
0.0
  0
LINE
  5
2809
330
2
100
AcDbEntity
  8
0Hatch
100
AcDbLine
 10
74472.06374727512
 20
-2927.90016577448
 30
0.0
 11
74433.06374727512
 21
-2927.90016577448
 31
0.0
  0
LINE
  5
280A
330
2
100
AcDbEntity
  8
0Hatch
100
AcDbLine
 10
74433.06374727512
 20
-2927.90016577448
 30
0.0
 11
74433.06374727512
 21
-2966.900165774479
 31
0.0
  0
LINE
  5
280B
330
2
100
AcDbEntity
  8
0Hatch
100
AcDbLine
 10
74433.06374727512
 20
-2966.900165774479
 30
0.0
 11
74472.06374727512
 21
-2966.900165774479
 31
0.0
  0
LINE
  5
280C
330
2
100
AcDbEntity
  8
0Hatch
100
AcDbLine
 10
74472.06374727512
 20
-2966.900165774479
 30
0.0
 11
74472.06374727512
 21
-2927.90016577448
 31
0.0
  0
LINE
  5
280D
330
2
100
AcDbEntity
  8
0Hatch
100
AcDbLine
 10
74936.06339550099
 20
-2927.90016577448
 30
0.0
 11
74897.063395501
 21
-2927.90016577448
 31
0.0
  0
LINE
  5
280E
330
2
100
AcDbEntity
  8
0Hatch
100
AcDbLine
 10
74897.063395501
 20
-2927.90016577448
 30
0.0
 11
74897.063395501
 21
-2966.900165774479
 31
0.0
  0
LINE
  5
280F
330
2
100
AcDbEntity
  8
0Hatch
100
AcDbLine
 10
74897.063395501
 20
-2966.900165774479
 30
0.0
 11
74936.06339550099
 21
-2966.900165774479
 31
0.0
  0
LINE
  5
2810
330
2
100
AcDbEntity
  8
0Hatch
100
AcDbLine
 10
74476.06374727512
 20
-2923.90016577448
 30
0.0
 11
74476.06374727512
 21
-2970.900165774479
 31
0.0
  0
LINE
  5
2811
330
2
100
AcDbEntity
  8
0Hatch
100
AcDbLine
 10
74476.06374727512
 20
-2970.900165774479
 30
0.0
 11
74429.06374727512
 21
-2970.900165774479
 31
0.0
  0
LINE
  5
2812
330
2
100
AcDbEntity
  8
0Hatch
100
AcDbLine
 10
74429.06374727512
 20
-2970.900165774479
 30
0.0
 11
74429.06374727512
 21
-2923.90016577448
 31
0.0
  0
LINE
  5
2813
330
2
100
AcDbEntity
  8
0Hatch
100
AcDbLine
 10
74429.06374727512
 20
-2923.90016577448
 30
0.0
 11
74476.06374727512
 21
-2923.90016577448
 31
0.0
  0
LINE
  5
2814
330
2
100
AcDbEntity
  8
0Hatch
100
AcDbLine
 10
75607.06374727526
 20
-3567.900165774528
 30
0.0
 11
75560.06374727526
 21
-3567.900165774528
 31
0.0
  0
LINE
  5
2815
330
2
100
AcDbEntity
  8
0Hatch
100
AcDbLine
 10
75560.06374727526
 20
-3567.900165774528
 30
0.0
 11
75560.06374727526
 21
-3520.900165774528
 31
0.0
  0
LINE
  5
2816
330
2
100
AcDbEntity
  8
0Hatch
100
AcDbLine
 10
74939.06339550101
 20
-2970.900165774479
 30
0.0
 11
74893.063395501
 21
-2970.900165774479
 31
0.0
  0
LINE
  5
2817
330
2
100
AcDbEntity
  8
0Hatch
100
AcDbLine
 10
74893.063395501
 20
-2970.900165774479
 30
0.0
 11
74893.063395501
 21
-2923.90016577448
 31
0.0
  0
LINE
  5
2818
330
2
100
AcDbEntity
  8
0Hatch
100
AcDbLine
 10
74893.063395501
 20
-2923.90016577448
 30
0.0
 11
74939.06339550099
 21
-2923.90016577448
 31
0.0
  0
HATCH
  5
2819
330
2
100
AcDbEntity
  8
0Hatch
100
AcDbHatch
 10
0.0
 20
0.0
 30
0.0
210
0.0
220
0.0
230
1.0
  2
SOLID
 70
     1
 71
     0
 91
        3
 92
        7
 72
     0
 73
     1
 93
       32
 10
75179.063395501
 20
-2987.900165774417
 10
75179.063395501
 20
-2947.900165774525
 10
74999.06339550101
 20
-2947.900165774492
 10
74999.06339550102
 20
-3087.900165774456
 10
74493.06374727513
 20
-3087.90016577456
 10
74493.0637472752
 20
-3357.597979516886
 10
74413.06374727512
 20
-3437.597979516914
 10
74413.06374727521
 20
-3558.202352032215
 10
74493.0637472753
 20
-3638.202352032266
 10
74493.06374727515
 20
-4007.900165774304
 10
74782.06374727522
 20
-4007.900165774413
 10
74782.06374727527
 20
-4067.900165774413
 10
74433.06374727514
 20
-4067.900165774282
 10
74433.06374727527
 20
-3663.055165774635
 10
74353.06374727523
 20
-3583.055165774617
 10
74353.06374727511
 20
-3412.745165774531
 10
74433.06374727519
 20
-3332.745165774488
 10
74433.06374727511
 20
-3027.900165774572
 10
74939.06339550102
 20
-3027.900165774467
 10
74939.06339550099
 20
-2887.900165774481
 10
75239.063395501
 20
-2887.900165774535
 10
75239.063395501
 20
-2927.90016577443
 10
75453.0637472754
 20
-2927.900165774478
 10
75453.06374727526
 20
-3632.900836842087
 10
75603.06374727526
 20
-3632.900836842087
 10
75603.06374727526
 20
-4490.900165774529
 10
75534.06330856356
 20
-4490.900165774529
 10
75534.06330856355
 20
-4430.900165774528
 10
75543.06374727525
 20
-4430.900165774528
 10
75543.06374727525
 20
-3692.900836842087
 10
75393.06374727524
 20
-3692.900836842087
 10
75393.0637472754
 20
-2987.900165774465
 97
        0
 92
       23
 72
     0
 73
     1
 93
        8
 10
74955.0637472751
 20
-4067.900165774479
 10
74882.06374727527
 20
-4067.900165774452
 10
74882.06374727524
 20
-4007.900165774452
 10
75015.0637472751
 20
-4007.900165774503
 10
75015.06374727522
 20
-4430.900165774527
 10
75024.06418598694
 20
-4430.900165774528
 10
75024.06418598694
 20
-4490.900165774529
 10
74955.06374727526
 20
-4490.900165774529
 97
        0
 92
       23
 72
     0
 73
     1
 93
        4
 10
75304.06330856356
 20
-4430.900165774528
 10
75304.06330856356
 20
-4490.900165774529
 10
75254.06418598696
 20
-4490.900165774529
 10
75254.06418598696
 20
-4430.900165774528
 97
        0
 75
     0
 76
     1
 47
3.078713694656836
 98
        3
 10
75229.11709466901
 20
-2980.136392035594
 10
74975.47322665138
 20
-4053.380697460823
 10
75280.40824644337
 20
-4447.456057987031
1001
ACAD
1010
0.0
1020
0.0
1030
0.0
  0
LINE
  5
281A
330
2
100
AcDbEntity
  8
0Hatch
100
AcDbLine
 10
75254.06418598695
 20
-4490.900165774529
 30
0.0
 11
75254.06418598695
 21
-4430.900165774528
 31
0.0
  0
LINE
  5
281B
330
2
100
AcDbEntity
  8
0Hatch
100
AcDbLine
 10
75304.06330856358
 20
-4430.90016577453
 30
0.0
 11
75304.06330856356
 21
-4490.900165774529
 31
0.0
  0
LINE
  5
281C
330
2
100
AcDbEntity
  8
0Hatch
100
AcDbLine
 10
75534.06330856356
 20
-4490.900165774529
 30
0.0
 11
75534.06330856356
 21
-4430.900165774528
 31
0.0
  0
LINE
  5
281D
330
2
100
AcDbEntity
  8
0Hatch
100
AcDbLine
 10
74433.06374727512
 20
-2966.900165774479
 30
0.0
 11
74433.06374727512
 21
-2927.90016577448
 31
0.0
  0
LINE
  5
281E
330
2
100
AcDbEntity
  8
0Hatch
100
AcDbLine
 10
74433.06374727512
 20
-2927.90016577448
 30
0.0
 11
74472.06374727512
 21
-2927.90016577448
 31
0.0
  0
LINE
  5
281F
330
2
100
AcDbEntity
  8
0Hatch
100
AcDbLine
 10
74472.06374727512
 20
-2927.90016577448
 30
0.0
 11
74472.06374727512
 21
-2966.900165774479
 31
0.0
  0
LINE
  5
2820
330
2
100
AcDbEntity
  8
0Hatch
100
AcDbLine
 10
74472.06374727512
 20
-2966.900165774479
 30
0.0
 11
74433.06374727512
 21
-2966.900165774479
 31
0.0
  0
HATCH
  5
2821
330
2
100
AcDbEntity
  8
0Hatch
100
AcDbHatch
 10
0.0
 20
0.0
 30
0.0
210
0.0
220
0.0
230
1.0
  2
SOLID
 70
     1
 71
     0
 91
        3
 92
        7
 72
     0
 73
     1
 93
        4
 10
74433.06374727512
 20
-2927.90016577448
 10
74472.06374727512
 20
-2927.90016577448
 10
74472.06374727511
 20
-2966.900165774479
 10
74433.06374727512
 20
-2966.900165774479
 97
        0
 92
        7
 72
     0
 73
     1
 93
        4
 10
74897.063395501
 20
-2927.90016577448
 10
74936.06339550099
 20
-2927.90016577448
 10
74936.06339550099
 20
-2966.900165774479
 10
74897.063395501
 20
-2966.900165774479
 97
        0
 92
        7
 72
     0
 73
     1
 93
        4
 10
75564.06374727526
 20
-3524.900165774528
 10
75603.06374727526
 20
-3524.900165774528
 10
75603.06374727526
 20
-3563.900165774529
 10
75564.06374727526
 20
-3563.900165774529
 97
        0
 75
     0
 76
     1
 47
2.597467320352833
 98
        3
 10
74448.65054930498
 20
-2958.371793297736
 10
74918.93670183952
 20
-2951.029841588525
 10
75583.15803058182
 20
-3552.714564233558
1001
ACAD
1010
0.0
1020
0.0
1030
0.0
  0
LINE
  5
2822
330
2
100
AcDbEntity
  8
0Hatch
100
AcDbLine
 10
75564.06374727526
 20
-3563.900165774529
 30
0.0
 11
75564.06374727526
 21
-3524.900165774528
 31
0.0
  0
LINE
  5
2823
330
2
100
AcDbEntity
  8
0Hatch
100
AcDbLine
 10
75564.06374727526
 20
-3524.900165774528
 30
0.0
 11
75603.06374727526
 21
-3524.900165774528
 31
0.0
  0
LINE
  5
2824
330
2
100
AcDbEntity
  8
0Hatch
100
AcDbLine
 10
75603.06374727526
 20
-3524.900165774528
 30
0.0
 11
75603.06374727526
 21
-3563.900165774529
 31
0.0
  0
LINE
  5
2825
330
2
100
AcDbEntity
  8
0Hatch
100
AcDbLine
 10
75603.06374727526
 20
-3563.900165774529
 30
0.0
 11
75564.06374727526
 21
-3563.900165774529
 31
0.0
  0
LINE
  5
2826
330
2
100
AcDbEntity
  8
0Hatch
100
AcDbLine
 10
74897.063395501
 20
-2966.900165774479
 30
0.0
 11
74897.063395501
 21
-2927.90016577448
 31
0.0
  0
LINE
  5
2827
330
2
100
AcDbEntity
  8
0Hatch
100
AcDbLine
 10
74897.063395501
 20
-2927.90016577448
 30
0.0
 11
74936.06339550099
 21
-2927.90016577448
 31
0.0
  0
LINE
  5
2828
330
2
100
AcDbEntity
  8
0Hatch
100
AcDbLine
 10
74936.06339550099
 20
-2966.900165774479
 30
0.0
 11
74897.063395501
 21
-2966.900165774479
 31
0.0
  0
LINE
  5
2829
330
2
100
AcDbEntity
  8
TEREN$0$A-MassElement-G
  6
Continuous
 62
   210
370
     5
100
AcDbLine
 10
74889.063395501
 20
-2887.900165774481
 30
0.0
 11
74939.06339550099
 21
-2887.900165774472
 31
0.0
  0
LWPOLYLINE
  5
282A
330
2
100
AcDbEntity
  8
0Hatch
100
AcDbPolyline
 90
        2
 70
     0
 43
0.0
 10
75603.06374727526
 20
-4490.900165774529
 10
75534.06330856356
 20
-4490.900165774529
  0
LWPOLYLINE
  5
282B
330
2
100
AcDbEntity
  8
0Hatch
100
AcDbPolyline
 90
        2
 70
     0
 43
0.0
 10
75304.06330856356
 20
-4490.900165774529
 10
75254.06418598695
 20
-4490.900165774529
  0
LWPOLYLINE
  5
282C
102
{ACAD_REACTORS
330
2843
330
2846
330
285E
102
}
330
2
100
AcDbEntity
  8
0Hatch
100
AcDbPolyline
 90
        4
 70
     0
 43
0.0
 10
75024.06418598694
 20
-4490.900165774529
 10
74955.06374727526
 20
-4490.900165774529
 10
74955.06374727511
 20
-4067.900165774479
 10
74882.06374727527
 20
-4067.900165774452
  0
HATCH
  5
282D
330
2
100
AcDbEntity
  8
0Hatch
100
AcDbHatch
 10
0.0
 20
0.0
 30
0.0
210
0.0
220
0.0
230
1.0
  2
SOLID
 70
     1
 71
     0
 91
        1
 92
        7
 72
     0
 73
     1
 93
        4
 10
74936.06339550099
 20
-2927.90016577448
 10
74939.06339550099
 20
-2927.90016577448
 10
74939.06339550101
 20
-2966.900165774479
 10
74936.06339550099
 20
-2966.900165774479
 97
        0
 75
     0
 76
     1
 47
0.3048029869203697
 98
        1
 10
74937.32503186953
 20
-2949.520281585479
1001
ACAD
1010
0.0
1020
0.0
1030
0.0
  0
LWPOLYLINE
  5
282E
102
{ACAD_REACTORS
330
283A
330
283D
330
2840
330
2843
330
2846
330
2849
330
284F
330
2852
330
2855
330
2858
330
285B
330
285E
102
}
330
2
100
AcDbEntity
  8
0Hatch
100
AcDbPolyline
 90
       15
 70
     0
 43
0.0
 10
74782.06374727527
 20
-4067.900165774413
 10
74433.06374727512
 20
-4067.900165774283
 10
74433.06374727527
 20
-3663.055165774637
 10
74353.06374727523
 20
-3583.05516577462
 10
74353.06374727512
 20
-3412.745165774531
 10
74433.06374727519
 20
-3332.745165774499
 10
74433.06374727511
 20
-3027.900165774572
 10
74939.06339550102
 20
-3027.900165774467
 10
74939.06339550099
 20
-2887.900165774481
 10
75239.063395501
 20
-2887.900165774536
 10
75239.063395501
 20
-2927.90016577443
 10
75453.06374727542
 20
-2927.900165774478
 10
75453.06374727527
 20
-3632.900836842087
 10
75603.06374727526
 20
-3632.900836842087
 10
75603.06374727526
 20
-4490.900165774529
  0
LWPOLYLINE
  5
282F
330
2
100
AcDbEntity
  8
0Hatch
100
AcDbPolyline
 90
       22
 70
     1
 43
0.0
 10
74782.06374727524
 20
-4007.900165774413
 10
74493.06374727515
 20
-4007.900165774304
 10
74493.06374727528
 20
-3638.202352032253
 10
74413.06374727521
 20
-3558.202352032213
 10
74413.06374727514
 20
-3437.597979516912
 10
74493.0637472752
 20
-3357.597979516886
 10
74493.06374727513
 20
-3087.90016577456
 10
74999.06339550102
 20
-3087.900165774456
 10
74999.063395501
 20
-2947.900165774492
 10
75179.063395501
 20
-2947.900165774525
 10
75179.063395501
 20
-2987.900165774418
 10
75393.0637472754
 20
-2987.900165774465
 10
75393.06374727526
 20
-3692.900836842087
 10
75543.06374727525
 20
-3692.900836842087
 10
75543.06374727525
 20
-4430.900165774528
 10
75534.06330856356
 20
-4430.900165774528
 10
75304.06330856358
 20
-4430.900165774528
 10
75254.06418598695
 20
-4430.900165774528
 10
75024.06418598694
 20
-4430.900165774528
 10
75015.06374727524
 20
-4430.900165774528
 10
75015.0637472751
 20
-4007.900165774503
 10
74882.06374727524
 20
-4007.900165774452
  0
LINE
  5
2830
330
2
100
AcDbEntity
  8
TEREN$0$A-MassElement-G
  6
Continuous
 62
   210
370
     5
100
AcDbLine
 10
75603.06374727526
 20
-3632.900836842087
 30
0.0
 11
75607.06374727526
 21
-3632.900836842087
 31
0.0
  0
LINE
  5
2831
330
2
100
AcDbEntity
  8
0Hatch
100
AcDbLine
 10
75024.06418598694
 20
-4430.900165774528
 30
0.0
 11
75024.06418598694
 21
-4490.900165774529
 31
0.0
  0
LINE
  5
2832
330
2
100
AcDbEntity
  8
0Hatch
100
AcDbLine
 10
74782.06374727524
 20
-4007.900165774413
 30
0.0
 11
74782.06374727527
 21
-4067.900165774413
 31
0.0
  0
LINE
  5
2833
330
2
100
AcDbEntity
  8
0Hatch
100
AcDbLine
 10
74882.06374727527
 20
-4067.900165774452
 30
0.0
 11
74882.06374727524
 21
-4007.900165774452
 31
0.0
  0
LINE
  5
2834
330
2
100
AcDbEntity
  8
0Hatch
100
AcDbLine
 10
74936.06339550099
 20
-2966.900165774479
 30
0.0
 11
74936.06339550099
 21
-2927.90016577448
 31
0.0
  0
LINE
  5
2835
330
2
100
AcDbEntity
  8
0Hatch
100
AcDbLine
 10
75534.06330856356
 20
-4490.900165774529
 30
0.0
 11
75304.06330856356
 21
-4490.900165774529
 31
0.0
  0
LINE
  5
2836
102
{ACAD_REACTORS
330
2840
102
}
330
2
100
AcDbEntity
  8
0Hatch
100
AcDbLine
 10
75254.06418598695
 20
-4490.900165774529
 30
0.0
 11
75024.06418598694
 21
-4490.900165774529
 31
0.0
  0
LINE
  5
2837
330
2
100
AcDbEntity
  8
0Hatch
100
AcDbLine
 10
74882.06374727527
 20
-4067.900165774452
 30
0.0
 11
74782.06374727527
 21
-4067.900165774413
 31
0.0
  0
DIMENSION
  5
2838
102
{ACAD_XDICTIONARY
360
2839
102
}
102
{ACAD_REACTORS
330
283A
102
}
330
2
100
AcDbEntity
  8
0Wymiary-PL
100
AcDbDimension
  2
*D104
 10
75807.06374727525
 20
-2927.900165774478
 30
0.0
 11
75727.06374727525
 21
-3280.40050130827
 31
0.0
 70
    32
 71
     5
 42
705.0006710676098
  3
500
100
AcDbAlignedDimension
 13
75603.06374727526
 23
-3632.900836842087
 33
0.0
 14
75453.06374727542
 24
-2927.900165774478
 34
0.0
 50
270.0
100
AcDbRotatedDimension
  0
DIMENSION
  5
283B
102
{ACAD_XDICTIONARY
360
283C
102
}
102
{ACAD_REACTORS
330
283D
102
}
330
2
100
AcDbEntity
  8
0Wymiary-PL
100
AcDbDimension
  2
*D105
 10
75807.06374727525
 20
-2887.900165774536
 30
0.0
 11
75727.06374727525
 21
-2907.900165774494
 31
0.0
 70
    32
 71
     5
 42
39.99999999994179
  3
500
100
AcDbAlignedDimension
 13
75453.06374727542
 23
-2927.900165774478
 33
0.0
 14
75239.063395501
 24
-2887.900165774536
 34
0.0
 50
270.0
100
AcDbRotatedDimension
  0
DIMENSION
  5
283E
102
{ACAD_XDICTIONARY
360
283F
102
}
102
{ACAD_REACTORS
330
2840
102
}
330
2
100
AcDbEntity
  8
0Hatch
100
AcDbDimension
  2
*D106
 10
76007.06374727526
 20
-4490.900165774529
 30
0.0
 11
75927.06374727526
 21
-3689.40016577452
 31
0.0
 70
    33
 71
     5
 42
1602.999999999993
  3
500
100
AcDbAlignedDimension
 13
75239.063395501
 23
-2887.900165774536
 33
0.0
 14
75239.063395501
 24
-4490.900165774529
 34
0.0
  0
DIMENSION
  5
2841
102
{ACAD_XDICTIONARY
360
2842
102
}
102
{ACAD_REACTORS
330
2843
102
}
330
2
100
AcDbEntity
  8
0Hatch
100
AcDbDimension
  2
*D107
 10
74955.06374727526
 20
-4690.900165774528
 30
0.0
 11
75279.06374727526
 21
-4610.900165774529
 31
0.0
 70
    33
 71
     5
 42
648.0
  3
500
100
AcDbAlignedDimension
 13
75603.06374727526
 23
-4490.900165774529
 33
0.0
 14
74955.06374727526
 24
-4490.900165774529
 34
0.0
  0
DIMENSION
  5
2844
102
{ACAD_XDICTIONARY
360
2845
102
}
102
{ACAD_REACTORS
330
2846
102
}
330
2
100
AcDbEntity
  8
0Wymiary-PL
100
AcDbDimension
  2
*D108
 10
74433.06374727512
 20
-4690.900165774528
 30
0.0
 11
74694.06374727518
 21
-4610.900165774529
 31
0.0
 70
    32
 71
     5
 42
522.0000000001309
  3
500
100
AcDbAlignedDimension
 13
74955.06374727526
 23
-4490.900165774529
 33
0.0
 14
74433.06374727512
 24
-4067.900165774283
 34
0.0
 50
0.000000000000007
100
AcDbRotatedDimension
  0
DIMENSION
  5
2847
102
{ACAD_XDICTIONARY
360
2848
102
}
102
{ACAD_REACTORS
330
2849
102
}
330
2
100
AcDbEntity
  8
0Wymiary-PL
100
AcDbDimension
  2
*D109
 10
74353.06374727523
 20
-4690.900165774528
 30
0.0
 11
74393.06374727518
 21
-4610.900165774529
 31
0.0
 70
    32
 71
     5
 42
79.99999999989814
  3
500
100
AcDbAlignedDimension
 13
74433.06374727512
 23
-4067.900165774283
 33
0.0
 14
74353.06374727523
 24
-3583.05516577462
 34
0.0
 50
0.000000000000007
100
AcDbRotatedDimension
  0
DIMENSION
  5
284A
330
2
100
AcDbEntity
  8
0Wymiary-PL
100
AcDbDimension
  2
*D102
 10
74353.06374727523
 20
-4890.900165774528
 30
0.0
 11
74978.06374727524
 21
-4810.900165774529
 31
0.0
 70
    33
 71
     5
 42
1250.000000000029
  3
500
100
AcDbAlignedDimension
 13
75603.06374727526
 23
-4705.853966878363
 33
0.0
 14
74353.06374727523
 24
-4705.853966878363
 34
0.0
  0
LINE
  5
284B
330
2
100
AcDbEntity
  8
0Hatch
100
AcDbLine
 10
74936.06339550099
 20
-2966.900165774479
 30
0.0
 11
74939.06339550101
 21
-2966.900165774479
 31
0.0
  0
LINE
  5
284C
330
2
100
AcDbEntity
  8
0Hatch
100
AcDbLine
 10
74936.06339550099
 20
-2927.90016577448
 30
0.0
 11
74939.06339550099
 21
-2927.90016577448
 31
0.0
  0
DIMENSION
  5
284D
102
{ACAD_XDICTIONARY
360
284E
102
}
102
{ACAD_REACTORS
330
284F
102
}
330
2
100
AcDbEntity
  8
0Wymiary-PL
100
AcDbDimension
  2
*D110
 10
75453.06374727527
 20
-2580.028999646478
 30
0.0
 11
75528.06374727527
 21
-2500.028999646478
 31
0.0
 70
    33
 71
     5
 42
149.9999999999854
  3
500
100
AcDbAlignedDimension
 13
75603.06374727526
 23
-3632.900836842087
 33
0.0
 14
75453.06374727527
 24
-3632.900836842087
 34
0.0
  0
DIMENSION
  5
2850
102
{ACAD_XDICTIONARY
360
2851
102
}
102
{ACAD_REACTORS
330
2852
102
}
330
2
100
AcDbEntity
  8
0Hatch
100
AcDbDimension
  2
*D111
 10
74433.06374727511
 20
-2580.028999646478
 30
0.0
 11
74943.06374727519
 21
-2500.028999646478
 31
0.0
 70
    32
 71
     5
 42
1020.00000000016
  3
500
100
AcDbAlignedDimension
 13
75453.06374727527
 23
-3632.900836842087
 33
0.0
 14
74433.06374727511
 24
-3027.900165774572
 34
0.0
 50
0.000000000000007
100
AcDbRotatedDimension
  0
DIMENSION
  5
2853
102
{ACAD_XDICTIONARY
360
2854
102
}
102
{ACAD_REACTORS
330
2855
102
}
330
2
100
AcDbEntity
  8
0Hatch
100
AcDbDimension
  2
*D112
 10
74353.06374727512
 20
-2580.028999646478
 30
0.0
 11
74393.06374727513
 21
-2500.028999646478
 31
0.0
 70
    32
 71
     5
 42
79.99999999998545
  3
500
100
AcDbAlignedDimension
 13
74433.06374727511
 23
-3027.900165774572
 33
0.0
 14
74353.06374727512
 24
-3412.745165774531
 34
0.0
 50
0.000000000000007
100
AcDbRotatedDimension
  0
DIMENSION
  5
2856
102
{ACAD_XDICTIONARY
360
2857
102
}
102
{ACAD_REACTORS
330
2858
102
}
330
2
100
AcDbEntity
  8
0Hatch
100
AcDbDimension
  2
*D113
 10
73953.06374727523
 20
-3027.900165774466
 30
0.0
 11
73873.06374727523
 21
-2957.900165774462
 31
0.0
 70
    33
 71
     5
 42
139.9999999999854
  3
500
100
AcDbAlignedDimension
 13
74939.06339550099
 23
-2887.900165774481
 33
0.0
 14
74939.06339550102
 24
-3027.900165774467
 34
0.0
  0
DIMENSION
  5
2859
102
{ACAD_XDICTIONARY
360
285A
102
}
102
{ACAD_REACTORS
330
285B
102
}
330
2
100
AcDbEntity
  8
0Hatch
100
AcDbDimension
  2
*D114
 10
73953.06374727523
 20
-4067.900165774283
 30
0.0
 11
73873.06374727523
 21
-3547.900165774363
 31
0.0
 70
    32
 71
     5
 42
1039.999999999817
  3
500
100
AcDbAlignedDimension
 13
74939.06339550102
 23
-3027.900165774467
 33
0.0
 14
74433.06374727512
 24
-4067.900165774283
 34
0.0
 50
90.0
100
AcDbRotatedDimension
  0
DIMENSION
  5
285C
102
{ACAD_XDICTIONARY
360
285D
102
}
102
{ACAD_REACTORS
330
285E
102
}
330
2
100
AcDbEntity
  8
0Wymiary-PL
100
AcDbDimension
  2
*D103
 10
73953.06374727523
 20
-4490.900165774529
 30
0.0
 11
73873.06374727523
 21
-4279.400165774394
 31
0.0
 70
    32
 71
     5
 42
423.0000000002455
  3
500
100
AcDbAlignedDimension
 13
74433.06374727512
 23
-4067.900165774283
 33
0.0
 14
74955.06374727526
 24
-4490.900165774529
 34
0.0
 50
90.0
100
AcDbRotatedDimension
  0
DIMENSION
  5
285F
330
2
100
AcDbEntity
  8
0Hatch
100
AcDbDimension
  2
*D101
 10
75807.06374727525
 20
-4490.900165774529
 30
0.0
 11
75727.06374727525
 21
-4061.900501308296
 31
0.0
 70
    32
 71
     5
 42
857.9993289324416
  3
500
100
AcDbAlignedDimension
 13
75528.06374727527
 23
-3632.900836842087
 33
0.0
 14
75528.06374727527
 24
-4490.900165774529
 34
0.0
 50
90.0
100
AcDbRotatedDimension
  0
ENDSEC
  0
SECTION
  2
OBJECTS
  0
DICTIONARY
  5
B
330
0
100
AcDbDictionary
281
     1
  3
ACAD_COLOR
350
53
  3
ACAD_GROUP
350
4E
  3
ACAD_LAYOUT
350
12
  3
ACAD_MATERIAL
350
D
  3
ACAD_MLEADERSTYLE
350
7A8
  3
ACAD_MLINESTYLE
350
4F
  3
ACAD_PLOTSETTINGS
350
50
  3
ACAD_PLOTSTYLENAME
350
A
  3
ACAD_SCALELIST
350
54
  3
ACAD_TABLESTYLE
350
55
  3
ACAD_VISUALSTYLE
350
15
  3
ACDB_RECOMPOSE_DATA
350
794
  3
AcDbVariableDictionary
350
795
  3
AEC_PROPERTY_SET_DEFS
350
952
  3
DWGPROPS
350
2914
  0
DICTIONARY
  5
1E
330
1D
100
AcDbDictionary
280
     1
281
     1
  3
ACAD_LAYERSTATES
360
1F
  0
DICTIONARY
  5
7
330
6
100
AcDbDictionary
280
     1
281
     1
  3
ADSK_XREC_LAYER_RECONCILED
360
8
  0
DICTIONARY
  5
75
330
74
100
AcDbDictionary
280
     1
281
     1
  3
ADSK_XREC_LAYER_RECONCILED
360
76
  0
DICTIONARY
  5
57
330
56
100
AcDbDictionary
280
     1
281
     1
  3
ADSK_XREC_LAYER_RECONCILED
360
58
  0
DICTIONARY
  5
3A4
330
3A3
100
AcDbDictionary
280
     1
281
     1
  3
ADSK_XREC_LAYER_RECONCILED
360
3A5
  0
DICTIONARY
  5
7F
330
7E
100
AcDbDictionary
280
     1
281
     1
  3
ADSK_XREC_LAYER_RECONCILED
360
80
  0
DICTIONARY
  5
3
330
2
100
AcDbDictionary
280
     1
281
     1
  3
ACAD_SORTENTS
360
790
  0
DICTIONARY
  5
30
330
2F
100
AcDbDictionary
280
     1
281
     1
  3
ACAD_SORTENTS
360
78F
  0
DICTIONARY
  5
24D7
330
24D6
100
AcDbDictionary
280
     1
281
     1
  3
ACAD_DIMASSOC
360
24D8
  0
DICTIONARY
  5
24DA
330
24D9
100
AcDbDictionary
280
     1
281
     1
  3
ACAD_DIMASSOC
360
24DB
  0
DICTIONARY
  5
24DD
330
24DC
100
AcDbDictionary
280
     1
281
     1
  3
ACAD_DIMASSOC
360
24DE
  0
DICTIONARY
  5
24E0
330
24DF
100
AcDbDictionary
280
     1
281
     1
  3
ACAD_DIMASSOC
360
24E1
  0
DICTIONARY
  5
24E3
330
24E2
100
AcDbDictionary
280
     1
281
     1
  3
ACAD_DIMASSOC
360
24E4
  0
DICTIONARY
  5
24E6
330
24E5
100
AcDbDictionary
280
     1
281
     1
  3
ACAD_DIMASSOC
360
24E7
  0
DICTIONARY
  5
2552
330
2551
100
AcDbDictionary
280
     1
281
     1
  3
ACAD_DIMASSOC
360
2553
  0
DICTIONARY
  5
2555
330
2554
100
AcDbDictionary
280
     1
281
     1
  3
ACAD_DIMASSOC
360
2556
  0
DICTIONARY
  5
2558
330
2557
100
AcDbDictionary
280
     1
281
     1
  3
ACAD_DIMASSOC
360
2559
  0
DICTIONARY
  5
255B
330
255A
100
AcDbDictionary
280
     1
281
     1
  3
ACAD_DIMASSOC
360
255C
  0
DICTIONARY
  5
255E
330
255D
100
AcDbDictionary
280
     1
281
     1
  3
ACAD_DIMASSOC
360
255F
  0
DICTIONARY
  5
2561
330
2560
100
AcDbDictionary
280
     1
281
     1
  3
ACAD_DIMASSOC
360
2562
  0
DICTIONARY
  5
2839
330
2838
100
AcDbDictionary
280
     1
281
     1
  3
ACAD_DIMASSOC
360
283A
  0
DICTIONARY
  5
283C
330
283B
100
AcDbDictionary
280
     1
281
     1
  3
ACAD_DIMASSOC
360
283D
  0
DICTIONARY
  5
283F
330
283E
100
AcDbDictionary
280
     1
281
     1
  3
ACAD_DIMASSOC
360
2840
  0
DICTIONARY
  5
2842
330
2841
100
AcDbDictionary
280
     1
281
     1
  3
ACAD_DIMASSOC
360
2843
  0
DICTIONARY
  5
2845
330
2844
100
AcDbDictionary
280
     1
281
     1
  3
ACAD_DIMASSOC
360
2846
  0
DICTIONARY
  5
2848
330
2847
100
AcDbDictionary
280
     1
281
     1
  3
ACAD_DIMASSOC
360
2849
  0
DICTIONARY
  5
284E
330
284D
100
AcDbDictionary
280
     1
281
     1
  3
ACAD_DIMASSOC
360
284F
  0
DICTIONARY
  5
2851
330
2850
100
AcDbDictionary
280
     1
281
     1
  3
ACAD_DIMASSOC
360
2852
  0
DICTIONARY
  5
2854
330
2853
100
AcDbDictionary
280
     1
281
     1
  3
ACAD_DIMASSOC
360
2855
  0
DICTIONARY
  5
2857
330
2856
100
AcDbDictionary
280
     1
281
     1
  3
ACAD_DIMASSOC
360
2858
  0
DICTIONARY
  5
285A
330
2859
100
AcDbDictionary
280
     1
281
     1
  3
ACAD_DIMASSOC
360
285B
  0
DICTIONARY
  5
285D
330
285C
100
AcDbDictionary
280
     1
281
     1
  3
ACAD_DIMASSOC
360
285E
  0
DICTIONARY
  5
53
102
{ACAD_REACTORS
330
B
102
}
330
B
100
AcDbDictionary
281
     1
  0
DICTIONARY
  5
4E
102
{ACAD_REACTORS
330
B
102
}
330
B
100
AcDbDictionary
281
     1
  0
DICTIONARY
  5
12
102
{ACAD_REACTORS
330
B
102
}
330
B
100
AcDbDictionary
281
     1
  3
Layout1
350
1943
  3
Model
350
11
  0
DICTIONARY
  5
D
102
{ACAD_REACTORS
330
B
102
}
330
B
100
AcDbDictionary
281
     1
  3
ByBlock
350
52
  3
ByLayer
350
51
  3
Global
350
C
  0
DICTIONARY
  5
7A8
102
{ACAD_REACTORS
330
B
102
}
330
B
100
AcDbDictionary
281
     1
  3
Standard
350
7A9
  0
DICTIONARY
  5
4F
102
{ACAD_REACTORS
330
B
102
}
330
B
100
AcDbDictionary
281
     1
  3
STANDARD
350
59
  0
DICTIONARY
  5
50
102
{ACAD_REACTORS
330
B
102
}
330
B
100
AcDbDictionary
281
     1
  0
ACDBDICTIONARYWDFLT
  5
A
102
{ACAD_REACTORS
330
B
102
}
330
B
100
AcDbDictionary
281
     1
  3
Normal
350
9
100
AcDbDictionaryWithDefault
340
9
  0
DICTIONARY
  5
54
102
{ACAD_REACTORS
330
B
102
}
330
B
100
AcDbDictionary
281
     1
  3
*A1
350
85B
  3
*A10
350
87C
  3
*A11
350
87D
  3
*A12
350
1331
  3
*A13
350
865
  3
*A14
350
860
  3
*A15
350
862
  3
*A16
350
132D
  3
*A17
350
87E
  3
*A18
350
168F
  3
*A19
350
1690
  3
*A2
350
1335
  3
*A20
350
1691
  3
*A21
350
868
  3
*A22
350
86A
  3
*A23
350
1332
  3
*A24
350
1692
  3
*A25
350
1693
  3
*A26
350
85E
  3
*A27
350
1694
  3
*A28
350
86F
  3
*A29
350
871
  3
*A3
350
1336
  3
*A30
350
1695
  3
*A31
350
882
  3
*A32
350
866
  3
*A33
350
86D
  3
*A34
350
876
  3
*A35
350
85D
  3
*A36
350
85F
  3
*A37
350
863
  3
*A38
350
85C
  3
*A39
350
874
  3
*A4
350
132C
  3
*A40
350
132E
  3
*A41
350
867
  3
*A42
350
1A1C
  3
*A43
350
864
  3
*A44
350
1A1D
  3
*A45
350
1333
  3
*A46
350
1A1E
  3
*A47
350
1A1F
  3
*A48
350
86C
  3
*A49
350
1A20
  3
*A5
350
1337
  3
*A50
350
1A21
  3
*A51
350
1A22
  3
*A52
350
873
  3
*A53
350
86B
  3
*A54
350
87A
  3
*A55
350
86E
  3
*A56
350
879
  3
*A57
350
872
  3
*A58
350
880
  3
*A59
350
875
  3
*A6
350
87F
  3
*A60
350
1D01
  3
*A61
350
878
  3
*A62
350
1D02
  3
*A63
350
1D03
  3
*A64
350
132F
  3
*A65
350
1D04
  3
*A66
350
1D05
  3
*A67
350
87B
  3
*A68
350
1D06
  3
*A69
350
1D07
  3
*A7
350
881
  3
*A70
350
861
  3
*A71
350
132B
  3
*A72
350
869
  3
*A73
350
1330
  3
*A74
350
2021
  3
*A75
350
2022
  3
*A76
350
2023
  3
*A77
350
2024
  3
*A78
350
870
  3
*A79
350
2025
  3
*A8
350
877
  3
*A80
350
2026
  3
*A81
350
2027
  3
*A82
350
2028
  3
*A83
350
2029
  3
*A84
350
202A
  3
*A85
350
202B
  3
*A86
350
202C
  3
*A87
350
202D
  3
*A88
350
202E
  3
*A89
350
1334
  3
*A9
350
1338
  3
*A90
350
202F
  3
A0
350
5E
  3
A1
350
5F
  3
A2
350
60
  3
A3
350
61
  3
A4
350
62
  3
A5
350
63
  3
A6
350
64
  3
A7
350
65
  3
A8
350
66
  3
A9
350
67
  3
B0
350
68
  3
B1
350
69
  3
B2
350
6A
  3
B3
350
6B
  3
B4
350
6C
  3
B5
350
6D
  3
B6
350
6E
  3
B7
350
6F
  3
B8
350
70
  3
B9
350
71
  3
C0
350
72
  0
DICTIONARY
  5
55
102
{ACAD_REACTORS
330
B
102
}
330
B
100
AcDbDictionary
281
     1
  3
Standard
350
5A
  0
DICTIONARY
  5
15
102
{ACAD_REACTORS
330
B
102
}
330
B
100
AcDbDictionary
281
     1
  3
2dWireframe
350
14
  3
3D Hidden
350
7A0
  3
3dWireframe
350
5D
  3
Basic
350
79F
  3
Brighten
350
7A3
  3
ColorChange
350
7A7
  3
Conceptual
350
7A1
  3
Dim
350
7A2
  3
Facepattern
350
7A6
  3
Flat
350
79B
  3
FlatWithEdges
350
79C
  3
Gouraud
350
79D
  3
GouraudWithEdges
350
79E
  3
Linepattern
350
7A5
  3
Phong
350
7B1
  3
PhongWithEdges
350
7B2
  3
Realistic
350
5C
  3
Thicken
350
7A4
  0
XRECORD
  5
794
102
{ACAD_REACTORS
330
B
102
}
330
B
100
AcDbXrecord
280
     1
 90
        1
330
5A
  0
DICTIONARY
  5
795
102
{ACAD_REACTORS
330
B
102
}
330
B
100
AcDbDictionary
281
     1
  3
CANNOSCALE
350
798
  3
CMLEADERSTYLE
350
797
  3
CTABLESTYLE
350
796
  3
DIMASSOC
350
2912
  3
HIDETEXT
350
2911
  3
INDEXCTL
350
2910
  3
LIGHTINGUNITS
350
799
  3
MSLTSCALE
350
290E
  3
SORTENTS
350
290F
  0
DICTIONARY
  5
952
102
{ACAD_REACTORS
330
B
102
}
330
B
100
AcDbDictionary
281
     1
  0
XRECORD
  5
2914
102
{ACAD_REACTORS
330
B
102
}
330
B
100
AcDbXrecord
280
     1
  1
DWGPROPS COOKIE
  2

  3

  4

  6

  7

  8
beata.rzonca
  9

300
=
301
=
302
=
303
=
304
=
305
=
306
=
307
=
308
=
309
=
 40
21.75164758101852
 41
2450817.525937848
 42
2454974.696012187
  1

 90
        0
  0
DICTIONARY
  5
1F
102
{ACAD_REACTORS
330
1E
102
}
330
1E
100
AcDbDictionary
281
     1
  0
XRECORD
  5
8
102
{ACAD_REACTORS
330
7
102
}
330
7
100
AcDbXrecord
280
     1
290
     1
  0
XRECORD
  5
76
102
{ACAD_REACTORS
330
75
102
}
330
75
100
AcDbXrecord
280
     1
290
     1
  0
XRECORD
  5
58
102
{ACAD_REACTORS
330
57
102
}
330
57
100
AcDbXrecord
280
     1
290
     1
  0
XRECORD
  5
3A5
102
{ACAD_REACTORS
330
3A4
102
}
330
3A4
100
AcDbXrecord
280
     1
290
     1
  0
XRECORD
  5
80
102
{ACAD_REACTORS
330
7F
102
}
330
7F
100
AcDbXrecord
280
     1
290
     1
  0
SORTENTSTABLE
  5
790
102
{ACAD_REACTORS
330
3
102
}
330
3
100
AcDbSortentsTable
330
2
331
24B6
  5
24B7
331
2477
  5
2477
331
24BE
  5
24C2
331
247F
  5
247F
331
2487
  5
2487
331
24CE
  5
24D6
331
248F
  5
248F
331
24D6
  5
24E2
331
2497
  5
2497
331
2554
  5
2560
331
24A7
  5
24A8
331
24AF
  5
24B1
331
24B7
  5
24B8
331
2478
  5
2478
331
24BF
  5
24C3
331
2480
  5
2480
331
2488
  5
2488
331
24CF
  5
24D9
331
2490
  5
2490
331
254D
  5
2551
331
2498
  5
2498
331
24DF
  5
24E9
331
24A0
  5
24A1
331
255D
  5
2565
331
24A8
  5
24A9
331
24B8
  5
24B9
331
2479
  5
2479
331
24C0
  5
24CF
331
2481
  5
2481
331
2489
  5
2489
331
24D0
  5
24DC
331
2491
  5
2491
331
254E
  5
2554
331
2499
  5
2499
331
24A1
  5
24A2
331
24A9
  5
24AA
331
2787
  5
249D
331
24E8
  5
24EC
331
24B1
  5
24B2
331
24B9
  5
24BA
331
247A
  5
247A
331
2482
  5
2482
331
248A
  5
248A
331
2492
  5
2492
331
24D9
  5
24E5
331
249A
  5
249A
331
2557
  5
2563
331
24A2
  5
24A3
331
24AA
  5
24AB
331
24B2
  5
24B3
331
24BA
  5
24BB
331
247B
  5
247B
331
24C2
  5
24D0
331
2483
  5
2483
331
248B
  5
248B
331
24D2
  5
24DF
331
2493
  5
2493
331
249B
  5
249B
331
24E2
  5
24EA
331
24A3
  5
24A4
331
24AB
  5
24AC
331
24B3
  5
24B6
331
24BB
  5
24C0
331
247C
  5
247C
331
24C3
  5
24D2
331
2484
  5
2484
331
248C
  5
248C
331
2494
  5
2494
331
2551
  5
255D
331
249C
  5
249C
331
24A4
  5
24A5
331
24AC
  5
24AD
331
247D
  5
247D
331
2485
  5
2485
331
248D
  5
248D
331
26F9
  5
274D
331
2495
  5
2495
331
24DC
  5
24E8
331
249D
  5
249E
331
255A
  5
2564
331
24A5
  5
24A6
331
24AD
  5
24AE
331
2560
  5
2566
331
2476
  5
2476
331
247E
  5
247E
331
2486
  5
2486
331
248E
  5
248E
331
2496
  5
2496
331
249E
  5
24A0
331
24E5
  5
24EB
331
24A6
  5
24A7
331
24AE
  5
24AF
  0
SORTENTSTABLE
  5
78F
102
{ACAD_REACTORS
330
30
102
}
330
30
100
AcDbSortentsTable
330
2F
  0
DIMASSOC
  5
24D8
102
{ACAD_REACTORS
330
24D7
102
}
330
24D7
100
AcDbDimAssoc
330
24D6
 90
        3
 70
     0
 71
     0
  1
AcDbOsnapPointRef
 72
     1
331
24B3
 73
     2
 91
       13
 40
1.0
 10
0.0
 20
0.0
 30
2.000000000000000E+50
 75
     0
  1
AcDbOsnapPointRef
 72
     1
331
24B3
 73
     2
 91
       11
 40
1.0
 10
0.0
 20
0.0
 30
2.000000000000000E+50
 75
     0
  0
DIMASSOC
  5
24DB
102
{ACAD_REACTORS
330
24DA
102
}
330
24DA
100
AcDbDimAssoc
330
24D9
 90
        3
 70
     0
 71
     0
  1
AcDbOsnapPointRef
 72
     1
331
24B3
 73
     2
 91
       11
 40
1.0
 10
0.0
 20
0.0
 30
2.000000000000000E+50
 75
     0
  1
AcDbOsnapPointRef
 72
     1
331
24B3
 73
     2
 91
        9
 40
1.0
 10
0.0
 20
0.0
 30
2.000000000000000E+50
 75
     0
  0
DIMASSOC
  5
24DE
102
{ACAD_REACTORS
330
24DD
102
}
330
24DD
100
AcDbDimAssoc
330
24DC
 90
        3
 70
     0
 71
     0
  1
AcDbOsnapPointRef
 72
     1
331
24B3
 73
     2
 91
        9
 40
1.0
 10
0.0
 20
0.0
 30
2.000000000000000E+50
 75
     0
  1
AcDbOsnapPointRef
 72
     8
331
24BF
 73
     2
 91
        0
 40
0.0652208281997594
 10
0.0
 20
0.0
 30
0.0
 75
     1
  1
AcDbOsnapPointRef
 72
     1
331
24B3
 73
     2
 91
        9
 40
1.0
 10
0.0
 20
0.0
 30
2.000000000000000E+50
 75
     0
  0
DIMASSOC
  5
24E1
102
{ACAD_REACTORS
330
24E0
102
}
330
24E0
100
AcDbDimAssoc
330
24DF
 90
        3
 70
     0
 71
     0
  1
AcDbOsnapPointRef
 72
     1
331
24B3
 73
     2
 91
       14
 40
1.0
 10
0.0
 20
0.0
 30
2.000000000000000E+50
 75
     0
  1
AcDbOsnapPointRef
 72
     1
331
24B1
 73
     2
 91
        1
 40
1.0
 10
0.0
 20
0.0
 30
2.000000000000000E+50
 75
     0
  0
DIMASSOC
  5
24E4
102
{ACAD_REACTORS
330
24E3
102
}
330
24E3
100
AcDbDimAssoc
330
24E2
 90
        3
 70
     0
 71
     0
  1
AcDbOsnapPointRef
 72
     1
331
24B1
 73
     2
 91
        1
 40
1.0
 10
0.0
 20
0.0
 30
2.000000000000000E+50
 75
     0
  1
AcDbOsnapPointRef
 72
     1
331
24B3
 73
     2
 91
        1
 40
1.0
 10
0.0
 20
0.0
 30
2.000000000000000E+50
 75
     0
  0
DIMASSOC
  5
24E7
102
{ACAD_REACTORS
330
24E6
102
}
330
24E6
100
AcDbDimAssoc
330
24E5
 90
        3
 70
     0
 71
     0
  1
AcDbOsnapPointRef
 72
     1
331
24B3
 73
     2
 91
        1
 40
1.0
 10
0.0
 20
0.0
 30
2.000000000000000E+50
 75
     0
  1
AcDbOsnapPointRef
 72
     1
331
24B3
 73
     2
 91
        3
 40
1.0
 10
0.0
 20
0.0
 30
2.000000000000000E+50
 75
     0
  0
DIMASSOC
  5
2553
102
{ACAD_REACTORS
330
2552
102
}
330
2552
100
AcDbDimAssoc
330
2551
 90
        3
 70
     0
 71
     0
  1
AcDbOsnapPointRef
 72
     1
331
24B3
 73
     2
 91
       13
 40
1.0
 10
0.0
 20
0.0
 30
2.000000000000000E+50
 75
     0
  1
AcDbOsnapPointRef
 72
     1
331
24B3
 73
     2
 91
       12
 40
1.0
 10
0.0
 20
0.0
 30
2.000000000000000E+50
 75
     0
  0
DIMASSOC
  5
2556
102
{ACAD_REACTORS
330
2555
102
}
330
2555
100
AcDbDimAssoc
330
2554
 90
        3
 70
     0
 71
     0
  1
AcDbOsnapPointRef
 72
     1
331
24B3
 73
     2
 91
       12
 40
1.0
 10
0.0
 20
0.0
 30
2.000000000000000E+50
 75
     0
  1
AcDbOsnapPointRef
 72
     1
331
24B3
 73
     2
 91
        6
 40
1.0
 10
0.0
 20
0.0
 30
2.000000000000000E+50
 75
     0
  0
DIMASSOC
  5
2559
102
{ACAD_REACTORS
330
2558
102
}
330
2558
100
AcDbDimAssoc
330
2557
 90
        3
 70
     0
 71
     0
  1
AcDbOsnapPointRef
 72
     1
331
24B3
 73
     2
 91
        6
 40
1.0
 10
0.0
 20
0.0
 30
2.000000000000000E+50
 75
     0
  1
AcDbOsnapPointRef
 72
     1
331
24B3
 73
     2
 91
        4
 40
1.0
 10
0.0
 20
0.0
 30
2.000000000000000E+50
 75
     0
  0
DIMASSOC
  5
255C
102
{ACAD_REACTORS
330
255B
102
}
330
255B
100
AcDbDimAssoc
330
255A
 90
        3
 70
     0
 71
     0
  1
AcDbOsnapPointRef
 72
     1
331
24B3
 73
     2
 91
        8
 40
1.0
 10
0.0
 20
0.0
 30
2.000000000000000E+50
 75
     0
  1
AcDbOsnapPointRef
 72
     1
331
24B3
 73
     2
 91
        7
 40
1.0
 10
0.0
 20
0.0
 30
2.000000000000000E+50
 75
     0
  0
DIMASSOC
  5
255F
102
{ACAD_REACTORS
330
255E
102
}
330
255E
100
AcDbDimAssoc
330
255D
 90
        3
 70
     0
 71
     0
  1
AcDbOsnapPointRef
 72
     1
331
24B3
 73
     2
 91
        7
 40
1.0
 10
0.0
 20
0.0
 30
2.000000000000000E+50
 75
     0
  1
AcDbOsnapPointRef
 72
     1
331
24B3
 73
     2
 91
        1
 40
1.0
 10
0.0
 20
0.0
 30
2.000000000000000E+50
 75
     0
  0
DIMASSOC
  5
2562
102
{ACAD_REACTORS
330
2561
102
}
330
2561
100
AcDbDimAssoc
330
2560
 90
        3
 70
     0
 71
     0
  1
AcDbOsnapPointRef
 72
     1
331
24B3
 73
     2
 91
        1
 40
1.0
 10
0.0
 20
0.0
 30
2.000000000000000E+50
 75
     0
  1
AcDbOsnapPointRef
 72
     1
331
24B1
 73
     2
 91
        1
 40
1.0
 10
0.0
 20
0.0
 30
2.000000000000000E+50
 75
     0
  0
DIMASSOC
  5
283A
102
{ACAD_REACTORS
330
2839
102
}
330
2839
100
AcDbDimAssoc
330
2838
 90
        3
 70
     0
 71
     0
  1
AcDbOsnapPointRef
 72
     1
331
282E
 73
     2
 91
       13
 40
1.0
 10
0.0
 20
0.0
 30
2.000000000000000E+50
 75
     0
  1
AcDbOsnapPointRef
 72
     1
331
282E
 73
     2
 91
       11
 40
1.0
 10
0.0
 20
0.0
 30
2.000000000000000E+50
 75
     0
  0
DIMASSOC
  5
283D
102
{ACAD_REACTORS
330
283C
102
}
330
283C
100
AcDbDimAssoc
330
283B
 90
        3
 70
     0
 71
     0
  1
AcDbOsnapPointRef
 72
     1
331
282E
 73
     2
 91
       11
 40
1.0
 10
0.0
 20
0.0
 30
2.000000000000000E+50
 75
     0
  1
AcDbOsnapPointRef
 72
     1
331
282E
 73
     2
 91
        9
 40
1.0
 10
0.0
 20
0.0
 30
2.000000000000000E+50
 75
     0
  0
DIMASSOC
  5
2840
102
{ACAD_REACTORS
330
283F
102
}
330
283F
100
AcDbDimAssoc
330
283E
 90
        3
 70
     0
 71
     0
  1
AcDbOsnapPointRef
 72
     1
331
282E
 73
     2
 91
        9
 40
1.0
 10
0.0
 20
0.0
 30
2.000000000000000E+50
 75
     0
  1
AcDbOsnapPointRef
 72
     8
331
2836
 73
     2
 91
        0
 40
0.0652208281997594
 10
0.0
 20
0.0
 30
0.0
 75
     1
  1
AcDbOsnapPointRef
 72
     1
331
282E
 73
     2
 91
        9
 40
1.0
 10
0.0
 20
0.0
 30
2.000000000000000E+50
 75
     0
  0
DIMASSOC
  5
2843
102
{ACAD_REACTORS
330
2842
102
}
330
2842
100
AcDbDimAssoc
330
2841
 90
        3
 70
     0
 71
     0
  1
AcDbOsnapPointRef
 72
     1
331
282E
 73
     2
 91
       14
 40
1.0
 10
0.0
 20
0.0
 30
2.000000000000000E+50
 75
     0
  1
AcDbOsnapPointRef
 72
     1
331
282C
 73
     2
 91
        1
 40
1.0
 10
0.0
 20
0.0
 30
2.000000000000000E+50
 75
     0
  0
DIMASSOC
  5
2846
102
{ACAD_REACTORS
330
2845
102
}
330
2845
100
AcDbDimAssoc
330
2844
 90
        3
 70
     0
 71
     0
  1
AcDbOsnapPointRef
 72
     1
331
282C
 73
     2
 91
        1
 40
1.0
 10
0.0
 20
0.0
 30
2.000000000000000E+50
 75
     0
  1
AcDbOsnapPointRef
 72
     1
331
282E
 73
     2
 91
        1
 40
1.0
 10
0.0
 20
0.0
 30
2.000000000000000E+50
 75
     0
  0
DIMASSOC
  5
2849
102
{ACAD_REACTORS
330
2848
102
}
330
2848
100
AcDbDimAssoc
330
2847
 90
        3
 70
     0
 71
     0
  1
AcDbOsnapPointRef
 72
     1
331
282E
 73
     2
 91
        1
 40
1.0
 10
0.0
 20
0.0
 30
2.000000000000000E+50
 75
     0
  1
AcDbOsnapPointRef
 72
     1
331
282E
 73
     2
 91
        3
 40
1.0
 10
0.0
 20
0.0
 30
2.000000000000000E+50
 75
     0
  0
DIMASSOC
  5
284F
102
{ACAD_REACTORS
330
284E
102
}
330
284E
100
AcDbDimAssoc
330
284D
 90
        3
 70
     0
 71
     0
  1
AcDbOsnapPointRef
 72
     1
331
282E
 73
     2
 91
       13
 40
1.0
 10
0.0
 20
0.0
 30
2.000000000000000E+50
 75
     0
  1
AcDbOsnapPointRef
 72
     1
331
282E
 73
     2
 91
       12
 40
1.0
 10
0.0
 20
0.0
 30
2.000000000000000E+50
 75
     0
  0
DIMASSOC
  5
2852
102
{ACAD_REACTORS
330
2851
102
}
330
2851
100
AcDbDimAssoc
330
2850
 90
        3
 70
     0
 71
     0
  1
AcDbOsnapPointRef
 72
     1
331
282E
 73
     2
 91
       12
 40
1.0
 10
0.0
 20
0.0
 30
2.000000000000000E+50
 75
     0
  1
AcDbOsnapPointRef
 72
     1
331
282E
 73
     2
 91
        6
 40
1.0
 10
0.0
 20
0.0
 30
2.000000000000000E+50
 75
     0
  0
DIMASSOC
  5
2855
102
{ACAD_REACTORS
330
2854
102
}
330
2854
100
AcDbDimAssoc
330
2853
 90
        3
 70
     0
 71
     0
  1
AcDbOsnapPointRef
 72
     1
331
282E
 73
     2
 91
        6
 40
1.0
 10
0.0
 20
0.0
 30
2.000000000000000E+50
 75
     0
  1
AcDbOsnapPointRef
 72
     1
331
282E
 73
     2
 91
        4
 40
1.0
 10
0.0
 20
0.0
 30
2.000000000000000E+50
 75
     0
  0
DIMASSOC
  5
2858
102
{ACAD_REACTORS
330
2857
102
}
330
2857
100
AcDbDimAssoc
330
2856
 90
        3
 70
     0
 71
     0
  1
AcDbOsnapPointRef
 72
     1
331
282E
 73
     2
 91
        8
 40
1.0
 10
0.0
 20
0.0
 30
2.000000000000000E+50
 75
     0
  1
AcDbOsnapPointRef
 72
     1
331
282E
 73
     2
 91
        7
 40
1.0
 10
0.0
 20
0.0
 30
2.000000000000000E+50
 75
     0
  0
DIMASSOC
  5
285B
102
{ACAD_REACTORS
330
285A
102
}
330
285A
100
AcDbDimAssoc
330
2859
 90
        3
 70
     0
 71
     0
  1
AcDbOsnapPointRef
 72
     1
331
282E
 73
     2
 91
        7
 40
1.0
 10
0.0
 20
0.0
 30
2.000000000000000E+50
 75
     0
  1
AcDbOsnapPointRef
 72
     1
331
282E
 73
     2
 91
        1
 40
1.0
 10
0.0
 20
0.0
 30
2.000000000000000E+50
 75
     0
  0
DIMASSOC
  5
285E
102
{ACAD_REACTORS
330
285D
102
}
330
285D
100
AcDbDimAssoc
330
285C
 90
        3
 70
     0
 71
     0
  1
AcDbOsnapPointRef
 72
     1
331
282E
 73
     2
 91
        1
 40
1.0
 10
0.0
 20
0.0
 30
2.000000000000000E+50
 75
     0
  1
AcDbOsnapPointRef
 72
     1
331
282C
 73
     2
 91
        1
 40
1.0
 10
0.0
 20
0.0
 30
2.000000000000000E+50
 75
     0
  0
LAYOUT
  5
1943
102
{ACAD_XDICTIONARY
360
291E
102
}
102
{ACAD_REACTORS
330
12
102
}
330
12
100
AcDbPlotSettings
  1

  2
CutePDF Writer
  4

  6

 40
0.0
 41
0.0
 42
0.0
 43
0.0
 44
0.0
 45
0.0
 46
0.0
 47
0.0
 48
0.0
 49
0.0
140
0.0
141
0.0
142
1.0
143
1.0
 70
   688
 72
     0
 73
     0
 74
     5
  7

 75
    16
147
1.0
148
0.0
149
0.0
100
AcDbLayout
  1
Layout1
 70
     1
 71
     1
 10
0.0
 20
0.0
 11
12.0
 21
9.0
 12
0.0
 22
0.0
 32
0.0
 14
0.0
 24
0.0
 34
0.0
 15
0.0
 25
0.0
 35
0.0
146
0.0
 13
0.0
 23
0.0
 33
0.0
 16
1.0
 26
0.0
 36
0.0
 17
0.0
 27
1.0
 37
0.0
 76
     0
330
1942
  0
LAYOUT
  5
11
102
{ACAD_XDICTIONARY
360
2917
102
}
102
{ACAD_REACTORS
330
12
102
}
330
12
100
AcDbPlotSettings
  1

  2
RICOH Aficio AP610N PCL 5e
  4
A4
  6
10-ele
 40
6.805083274841308
 41
5.027085781097412
 42
6.974411010742187
 43
5.027069091796875
 44
209.9733276367187
 45
296.9259948730469
 46
-3.903083324432671
 47
3.235920000076276
 48
67057.75918130524
 49
-45526.33714755503
140
77257.75918130527
141
-31506.33714755504
142
1.0
143
50.0
 70
 11940
 72
     1
 73
     0
 74
     4
  7
monochrome_140.ctb
 75
     0
147
0.0192346895442289
148
-67057.75918130524
149
45526.33714755503
100
AcDbLayout
  1
Model
 70
     1
 71
     0
 10
0.0
 20
0.0
 11
12.0
 21
9.0
 12
0.0
 22
0.0
 32
0.0
 14
0.0
 24
0.0
 34
0.0
 15
0.0
 25
0.0
 35
0.0
146
0.0
 13
0.0
 23
0.0
 33
0.0
 16
1.0
 26
0.0
 36
0.0
 17
0.0
 27
1.0
 37
0.0
 76
     0
330
2
331
29
1001
ACAD_PSEXT
1000
RICOH Aficio AP610N PCL 5e
1000
RICOH Aficio AP610N PCL 5e
1000
IP_192.168.0.252_tech
1000

1070
     0
  0
MATERIAL
  5
52
102
{ACAD_XDICTIONARY
360
291B
102
}
102
{ACAD_REACTORS
330
D
102
}
330
D
100
AcDbMaterial
  1
ByBlock
 73
     1
 78
     1
172
     1
176
     1
270
     1
274
     1
  0
MATERIAL
  5
51
102
{ACAD_XDICTIONARY
360
2919
102
}
102
{ACAD_REACTORS
330
D
102
}
330
D
100
AcDbMaterial
  1
ByLayer
 73
     1
 78
     1
172
     1
176
     1
270
     1
274
     1
  0
MATERIAL
  5
C
102
{ACAD_XDICTIONARY
360
2915
102
}
102
{ACAD_REACTORS
330
D
102
}
330
D
100
AcDbMaterial
  1
Global
 73
     1
 78
     1
172
     1
176
     1
270
     1
274
     1
  0
MLEADERSTYLE
  5
7A9
102
{ACAD_REACTORS
330
7A8
102
}
330
7A8
100
AcDbMLeaderStyle
170
     2
171
     1
172
     0
 90
        2
 40
0.0
 41
0.0
173
     1
 91
-1056964608
340
24
 92
       -2
290
     1
 42
0.09
291
     1
 43
0.36
  3
Standard
 44
0.18
300

342
21
174
     1
178
     6
175
     1
176
     0
 93
-1056964608
 45
0.18
292
     0
297
     0
 46
0.18
 94
-1056964608
 47
1.0
 49
1.0
140
1.0
293
     1
141
0.0
294
     1
177
     0
142
1.0
295
     0
296
     0
143
0.125
1001
ACAD_MLEADERVER
1070
     2
  0
MLINESTYLE
  5
59
102
{ACAD_REACTORS
330
4F
102
}
330
4F
100
AcDbMlineStyle
  2
STANDARD
 70
     0
  3

 62
     0
 51
90.0
 52
90.0
 71
     2
 49
0.5
 62
   256
  6
BYLAYER
 49
-0.5
 62
   256
  6
BYLAYER
  0
ACDBPLACEHOLDER
  5
9
102
{ACAD_REACTORS
330
A
102
}
330
A
  0
SCALE
  5
85B
102
{ACAD_REACTORS
330
54
102
}
330
54
100
AcDbScale
 70
     0
300
1:1_2
140
1.0
141
1.0
290
     0
  0
SCALE
  5
87C
102
{ACAD_REACTORS
330
54
102
}
330
54
100
AcDbScale
 70
     0
300
1/2" = 1'-0"
140
0.5
141
12.0
290
     0
  0
SCALE
  5
87D
102
{ACAD_REACTORS
330
54
102
}
330
54
100
AcDbScale
 70
     0
300
3/4" = 1'-0"
140
0.75
141
12.0
290
     0
  0
SCALE
  5
1331
102
{ACAD_REACTORS
330
54
102
}
330
54
100
AcDbScale
 70
     0
300
1:2_3
140
1.0
141
0.2
290
     0
  0
SCALE
  5
865
102
{ACAD_REACTORS
330
54
102
}
330
54
100
AcDbScale
 70
     0
300
1:5_1
140
1.0
141
5.0
290
     0
  0
SCALE
  5
860
102
{ACAD_REACTORS
330
54
102
}
330
54
100
AcDbScale
 70
     0
300
1:50_2
140
1.0
141
50.0
290
     0
  0
SCALE
  5
862
102
{ACAD_REACTORS
330
54
102
}
330
54
100
AcDbScale
 70
     0
300
1:1_1
140
1.0
141
1.0
290
     0
  0
SCALE
  5
132D
102
{ACAD_REACTORS
330
54
102
}
330
54
100
AcDbScale
 70
     0
300
1:20_3
140
1.0
141
2.0
290
     0
  0
SCALE
  5
87E
102
{ACAD_REACTORS
330
54
102
}
330
54
100
AcDbScale
 70
     0
300
1" = 1'-0"
140
1.0
141
12.0
290
     0
  0
SCALE
  5
168F
102
{ACAD_REACTORS
330
54
102
}
330
54
100
AcDbScale
 70
     0
300
1:1_3_1
140
1.0
141
1.0
290
     0
  0
SCALE
  5
1690
102
{ACAD_REACTORS
330
54
102
}
330
54
100
AcDbScale
 70
     0
300
1:2_3_1
140
1.0
141
2.0
290
     0
  0
SCALE
  5
1335
102
{ACAD_REACTORS
330
54
102
}
330
54
100
AcDbScale
 70
     0
300
1:10_4
140
1.0
141
10.0
290
     0
  0
SCALE
  5
1691
102
{ACAD_REACTORS
330
54
102
}
330
54
100
AcDbScale
 70
     0
300
1:5_3_1
140
1.0
141
5.0
290
     0
  0
SCALE
  5
868
102
{ACAD_REACTORS
330
54
102
}
330
54
100
AcDbScale
 70
     0
300
1:16
140
1.0
141
16.0
290
     0
  0
SCALE
  5
86A
102
{ACAD_REACTORS
330
54
102
}
330
54
100
AcDbScale
 70
     0
300
1:30
140
1.0
141
30.0
290
     0
  0
SCALE
  5
1332
102
{ACAD_REACTORS
330
54
102
}
330
54
100
AcDbScale
 70
     0
300
1:1_4
140
1.0
141
1.0
290
     0
  0
SCALE
  5
1692
102
{ACAD_REACTORS
330
54
102
}
330
54
100
AcDbScale
 70
     0
300
1:10_3_1
140
1.0
141
10.0
290
     0
  0
SCALE
  5
1693
102
{ACAD_REACTORS
330
54
102
}
330
54
100
AcDbScale
 70
     0
300
1:20_3_1
140
1.0
141
20.0
290
     0
  0
SCALE
  5
85E
102
{ACAD_REACTORS
330
54
102
}
330
54
100
AcDbScale
 70
     0
300
1:10_2
140
1.0
141
10.0
290
     0
  0
SCALE
  5
1694
102
{ACAD_REACTORS
330
54
102
}
330
54
100
AcDbScale
 70
     0
300
1:50_3_1
140
1.0
141
50.0
290
     0
  0
SCALE
  5
86F
102
{ACAD_REACTORS
330
54
102
}
330
54
100
AcDbScale
 70
     0
300
4:1
140
4.0
141
1.0
290
     0
  0
SCALE
  5
871
102
{ACAD_REACTORS
330
54
102
}
330
54
100
AcDbScale
 70
     0
300
10:1
140
10.0
141
1.0
290
     0
  0
SCALE
  5
1336
102
{ACAD_REACTORS
330
54
102
}
330
54
100
AcDbScale
 70
     0
300
1:20_4
140
1.0
141
20.0
290
     0
  0
SCALE
  5
1695
102
{ACAD_REACTORS
330
54
102
}
330
54
100
AcDbScale
 70
     0
300
1:100_3_1
140
1.0
141
100.0
290
     0
  0
SCALE
  5
882
102
{ACAD_REACTORS
330
54
102
}
330
54
100
AcDbScale
 70
     0
300
1'-0" = 1'-0"
140
12.0
141
12.0
290
     0
  0
SCALE
  5
866
102
{ACAD_REACTORS
330
54
102
}
330
54
100
AcDbScale
 70
     0
300
1:8
140
1.0
141
8.0
290
     0
  0
SCALE
  5
86D
102
{ACAD_REACTORS
330
54
102
}
330
54
100
AcDbScale
 70
     0
300
1:100_1
140
1.0
141
100.0
290
     0
  0
SCALE
  5
876
102
{ACAD_REACTORS
330
54
102
}
330
54
100
AcDbScale
 70
     0
300
1/16" = 1'-0"
140
0.0625
141
12.0
290
     0
  0
SCALE
  5
85D
102
{ACAD_REACTORS
330
54
102
}
330
54
100
AcDbScale
 70
     0
300
1:5_2
140
1.0
141
5.0
290
     0
  0
SCALE
  5
85F
102
{ACAD_REACTORS
330
54
102
}
330
54
100
AcDbScale
 70
     0
300
1:20_2
140
1.0
141
20.0
290
     0
  0
SCALE
  5
863
102
{ACAD_REACTORS
330
54
102
}
330
54
100
AcDbScale
 70
     0
300
1:2_1
140
1.0
141
2.0
290
     0
  0
SCALE
  5
85C
102
{ACAD_REACTORS
330
54
102
}
330
54
100
AcDbScale
 70
     0
300
1:2_2
140
1.0
141
2.0
290
     0
  0
SCALE
  5
874
102
{ACAD_REACTORS
330
54
102
}
330
54
100
AcDbScale
 70
     0
300
1/64" = 1'-0"
140
0.015625
141
12.0
290
     0
  0
SCALE
  5
132C
102
{ACAD_REACTORS
330
54
102
}
330
54
100
AcDbScale
 70
     0
300
1:10_3
140
1.0
141
1.0
290
     0
  0
SCALE
  5
132E
102
{ACAD_REACTORS
330
54
102
}
330
54
100
AcDbScale
 70
     0
300
1:50_3
140
1.0
141
5.0
290
     0
  0
SCALE
  5
867
102
{ACAD_REACTORS
330
54
102
}
330
54
100
AcDbScale
 70
     0
300
1:10_1
140
1.0
141
10.0
290
     0
  0
SCALE
  5
1A1C
102
{ACAD_REACTORS
330
54
102
}
330
54
100
AcDbScale
 70
     0
300
1:1_5
140
1.0
141
1.0
290
     0
  0
SCALE
  5
864
102
{ACAD_REACTORS
330
54
102
}
330
54
100
AcDbScale
 70
     0
300
1:4
140
1.0
141
4.0
290
     0
  0
SCALE
  5
1A1D
102
{ACAD_REACTORS
330
54
102
}
330
54
100
AcDbScale
 70
     0
300
1:2_5
140
1.0
141
2.0
290
     0
  0
SCALE
  5
1333
102
{ACAD_REACTORS
330
54
102
}
330
54
100
AcDbScale
 70
     0
300
1:2_4
140
1.0
141
2.0
290
     0
  0
SCALE
  5
1A1E
102
{ACAD_REACTORS
330
54
102
}
330
54
100
AcDbScale
 70
     0
300
1:5_5
140
1.0
141
5.0
290
     0
  0
SCALE
  5
1A1F
102
{ACAD_REACTORS
330
54
102
}
330
54
100
AcDbScale
 70
     0
300
1:10_5
140
1.0
141
10.0
290
     0
  0
SCALE
  5
86C
102
{ACAD_REACTORS
330
54
102
}
330
54
100
AcDbScale
 70
     0
300
1:50_1
140
1.0
141
50.0
290
     0
  0
SCALE
  5
1A20
102
{ACAD_REACTORS
330
54
102
}
330
54
100
AcDbScale
 70
     0
300
1:20_5
140
1.0
141
20.0
290
     0
  0
SCALE
  5
1337
102
{ACAD_REACTORS
330
54
102
}
330
54
100
AcDbScale
 70
     0
300
1:50_4
140
1.0
141
50.0
290
     0
  0
SCALE
  5
1A21
102
{ACAD_REACTORS
330
54
102
}
330
54
100
AcDbScale
 70
     0
300
1:50_5
140
1.0
141
50.0
290
     0
  0
SCALE
  5
1A22
102
{ACAD_REACTORS
330
54
102
}
330
54
100
AcDbScale
 70
     0
300
1:100_5
140
1.0
141
100.0
290
     0
  0
SCALE
  5
873
102
{ACAD_REACTORS
330
54
102
}
330
54
100
AcDbScale
 70
     0
300
1/128" = 1'-0"
140
0.0078125
141
12.0
290
     0
  0
SCALE
  5
86B
102
{ACAD_REACTORS
330
54
102
}
330
54
100
AcDbScale
 70
     0
300
1:40
140
1.0
141
40.0
290
     0
  0
SCALE
  5
87A
102
{ACAD_REACTORS
330
54
102
}
330
54
100
AcDbScale
 70
     0
300
1/4" = 1'-0"
140
0.25
141
12.0
290
     0
  0
SCALE
  5
86E
102
{ACAD_REACTORS
330
54
102
}
330
54
100
AcDbScale
 70
     0
300
2:1
140
2.0
141
1.0
290
     0
  0
SCALE
  5
879
102
{ACAD_REACTORS
330
54
102
}
330
54
100
AcDbScale
 70
     0
300
3/16" = 1'-0"
140
0.1875
141
12.0
290
     0
  0
SCALE
  5
872
102
{ACAD_REACTORS
330
54
102
}
330
54
100
AcDbScale
 70
     0
300
100:1
140
100.0
141
1.0
290
     0
  0
SCALE
  5
880
102
{ACAD_REACTORS
330
54
102
}
330
54
100
AcDbScale
 70
     0
300
3" = 1'-0"
140
3.0
141
12.0
290
     0
  0
SCALE
  5
875
102
{ACAD_REACTORS
330
54
102
}
330
54
100
AcDbScale
 70
     0
300
1/32" = 1'-0"
140
0.03125
141
12.0
290
     0
  0
SCALE
  5
87F
102
{ACAD_REACTORS
330
54
102
}
330
54
100
AcDbScale
 70
     0
300
1-1/2" = 1'-0"
140
1.5
141
12.0
290
     0
  0
SCALE
  5
1D01
102
{ACAD_REACTORS
330
54
102
}
330
54
100
AcDbScale
 70
     0
300
1:1_6
140
1.0
141
1.0
290
     0
  0
SCALE
  5
878
102
{ACAD_REACTORS
330
54
102
}
330
54
100
AcDbScale
 70
     0
300
1/8" = 1'-0"
140
0.125
141
12.0
290
     0
  0
SCALE
  5
1D02
102
{ACAD_REACTORS
330
54
102
}
330
54
100
AcDbScale
 70
     0
300
1:2_6
140
1.0
141
2.0
290
     0
  0
SCALE
  5
1D03
102
{ACAD_REACTORS
330
54
102
}
330
54
100
AcDbScale
 70
     0
300
1:5_6
140
1.0
141
5.0
290
     0
  0
SCALE
  5
132F
102
{ACAD_REACTORS
330
54
102
}
330
54
100
AcDbScale
 70
     0
300
1:100_3
140
1.0
141
10.0
290
     0
  0
SCALE
  5
1D04
102
{ACAD_REACTORS
330
54
102
}
330
54
100
AcDbScale
 70
     0
300
1:10_6
140
1.0
141
10.0
290
     0
  0
SCALE
  5
1D05
102
{ACAD_REACTORS
330
54
102
}
330
54
100
AcDbScale
 70
     0
300
1:20_6
140
1.0
141
20.0
290
     0
  0
SCALE
  5
87B
102
{ACAD_REACTORS
330
54
102
}
330
54
100
AcDbScale
 70
     0
300
3/8" = 1'-0"
140
0.375
141
12.0
290
     0
  0
SCALE
  5
1D06
102
{ACAD_REACTORS
330
54
102
}
330
54
100
AcDbScale
 70
     0
300
1:50_6
140
1.0
141
50.0
290
     0
  0
SCALE
  5
1D07
102
{ACAD_REACTORS
330
54
102
}
330
54
100
AcDbScale
 70
     0
300
1:100_6
140
1.0
141
100.0
290
     0
  0
SCALE
  5
881
102
{ACAD_REACTORS
330
54
102
}
330
54
100
AcDbScale
 70
     0
300
6" = 1'-0"
140
6.0
141
12.0
290
     0
  0
SCALE
  5
861
102
{ACAD_REACTORS
330
54
102
}
330
54
100
AcDbScale
 70
     0
300
1:100_2
140
1.0
141
100.0
290
     0
  0
SCALE
  5
132B
102
{ACAD_REACTORS
330
54
102
}
330
54
100
AcDbScale
 70
     0
300
1:5_3
140
1.0
141
0.5
290
     0
  0
SCALE
  5
869
102
{ACAD_REACTORS
330
54
102
}
330
54
100
AcDbScale
 70
     0
300
1:20_1
140
1.0
141
20.0
290
     0
  0
SCALE
  5
1330
102
{ACAD_REACTORS
330
54
102
}
330
54
100
AcDbScale
 70
     0
300
1:1_3
140
1.0
141
0.1
290
     0
  0
SCALE
  5
2021
102
{ACAD_REACTORS
330
54
102
}
330
54
100
AcDbScale
 70
     0
300
1/64" = 1'-0"_XREF
140
0.015625
141
12.0
290
     0
1001
ACAD
1000
AcRTDxfName
1000
SCALE
  0
SCALE
  5
2022
102
{ACAD_REACTORS
330
54
102
}
330
54
100
AcDbScale
 70
     0
300
1 1/2" = 1'-0"_XREF
140
1.5
141
12.0
290
     0
1001
ACAD
1000
AcRTDxfName
1000
SCALE
  0
SCALE
  5
2023
102
{ACAD_REACTORS
330
54
102
}
330
54
100
AcDbScale
 70
     0
300
3" = 1'-0"_XREF
140
3.0
141
12.0
290
     0
1001
ACAD
1000
AcRTDxfName
1000
SCALE
  0
SCALE
  5
2024
102
{ACAD_REACTORS
330
54
102
}
330
54
100
AcDbScale
 70
     0
300
6" = 1'-0"_XREF
140
6.0
141
12.0
290
     0
1001
ACAD
1000
AcRTDxfName
1000
SCALE
  0
SCALE
  5
870
102
{ACAD_REACTORS
330
54
102
}
330
54
100
AcDbScale
 70
     0
300
8:1
140
8.0
141
1.0
290
     0
  0
SCALE
  5
2025
102
{ACAD_REACTORS
330
54
102
}
330
54
100
AcDbScale
 70
     0
300
1'-0" = 1'-0"_XREF
140
12.0
141
12.0
290
     0
1001
ACAD
1000
AcRTDxfName
1000
SCALE
  0
SCALE
  5
877
102
{ACAD_REACTORS
330
54
102
}
330
54
100
AcDbScale
 70
     0
300
3/32" = 1'-0"
140
0.09375
141
12.0
290
     0
  0
SCALE
  5
2026
102
{ACAD_REACTORS
330
54
102
}
330
54
100
AcDbScale
 70
     0
300
1/32" = 1'-0"_XREF
140
0.03125
141
12.0
290
     0
1001
ACAD
1000
AcRTDxfName
1000
SCALE
  0
SCALE
  5
2027
102
{ACAD_REACTORS
330
54
102
}
330
54
100
AcDbScale
 70
     0
300
1/16" = 1'-0"_XREF
140
0.0625
141
12.0
290
     0
1001
ACAD
1000
AcRTDxfName
1000
SCALE
  0
SCALE
  5
2028
102
{ACAD_REACTORS
330
54
102
}
330
54
100
AcDbScale
 70
     0
300
3/32" = 1'-0"_XREF
140
0.09375
141
12.0
290
     0
1001
ACAD
1000
AcRTDxfName
1000
SCALE
  0
SCALE
  5
2029
102
{ACAD_REACTORS
330
54
102
}
330
54
100
AcDbScale
 70
     0
300
1/8" = 1'-0"_XREF
140
0.125
141
12.0
290
     0
1001
ACAD
1000
AcRTDxfName
1000
SCALE
  0
SCALE
  5
202A
102
{ACAD_REACTORS
330
54
102
}
330
54
100
AcDbScale
 70
     0
300
3/16" = 1'-0"_XREF
140
0.1875
141
12.0
290
     0
1001
ACAD
1000
AcRTDxfName
1000
SCALE
  0
SCALE
  5
202B
102
{ACAD_REACTORS
330
54
102
}
330
54
100
AcDbScale
 70
     0
300
1/4" = 1'-0"_XREF
140
0.25
141
12.0
290
     0
1001
ACAD
1000
AcRTDxfName
1000
SCALE
  0
SCALE
  5
202C
102
{ACAD_REACTORS
330
54
102
}
330
54
100
AcDbScale
 70
     0
300
3/8" = 1'-0"_XREF
140
0.375
141
12.0
290
     0
1001
ACAD
1000
AcRTDxfName
1000
SCALE
  0
SCALE
  5
202D
102
{ACAD_REACTORS
330
54
102
}
330
54
100
AcDbScale
 70
     0
300
1/2" = 1'-0"_XREF
140
0.5
141
12.0
290
     0
1001
ACAD
1000
AcRTDxfName
1000
SCALE
  0
SCALE
  5
202E
102
{ACAD_REACTORS
330
54
102
}
330
54
100
AcDbScale
 70
     0
300
3/4" = 1'-0"_XREF
140
0.75
141
12.0
290
     0
1001
ACAD
1000
AcRTDxfName
1000
SCALE
  0
SCALE
  5
1334
102
{ACAD_REACTORS
330
54
102
}
330
54
100
AcDbScale
 70
     0
300
1:5_4
140
1.0
141
5.0
290
     0
  0
SCALE
  5
1338
102
{ACAD_REACTORS
330
54
102
}
330
54
100
AcDbScale
 70
     0
300
1:100_4
140
1.0
141
100.0
290
     0
  0
SCALE
  5
202F
102
{ACAD_REACTORS
330
54
102
}
330
54
100
AcDbScale
 70
     0
300
1" = 1'-0"_XREF
140
1.0
141
12.0
290
     0
1001
ACAD
1000
AcRTDxfName
1000
SCALE
  0
SCALE
  5
5E
102
{ACAD_REACTORS
330
54
102
}
330
54
100
AcDbScale
 70
     0
300
1:1
140
1.0
141
0.1
290
     0
  0
SCALE
  5
5F
102
{ACAD_REACTORS
330
54
102
}
330
54
100
AcDbScale
 70
     0
300
1:2
140
1.0
141
0.2
290
     0
  0
SCALE
  5
60
102
{ACAD_REACTORS
330
54
102
}
330
54
100
AcDbScale
 70
     0
300
1:2.5
140
1.0
141
0.25
290
     0
  0
SCALE
  5
61
102
{ACAD_REACTORS
330
54
102
}
330
54
100
AcDbScale
 70
     0
300
1:5
140
1.0
141
0.5
290
     0
  0
SCALE
  5
62
102
{ACAD_REACTORS
330
54
102
}
330
54
100
AcDbScale
 70
     0
300
1:7.5
140
1.0
141
0.75
290
     0
  0
SCALE
  5
63
102
{ACAD_REACTORS
330
54
102
}
330
54
100
AcDbScale
 70
     0
300
1:10
140
1.0
141
1.0
290
     1
  0
SCALE
  5
64
102
{ACAD_REACTORS
330
54
102
}
330
54
100
AcDbScale
 70
     0
300
1:20
140
1.0
141
2.0
290
     0
  0
SCALE
  5
65
102
{ACAD_REACTORS
330
54
102
}
330
54
100
AcDbScale
 70
     0
300
1:25
140
1.0
141
2.5
290
     0
  0
SCALE
  5
66
102
{ACAD_REACTORS
330
54
102
}
330
54
100
AcDbScale
 70
     0
300
1:50
140
1.0
141
5.0
290
     0
  0
SCALE
  5
67
102
{ACAD_REACTORS
330
54
102
}
330
54
100
AcDbScale
 70
     0
300
1:75
140
1.0
141
7.5
290
     0
  0
SCALE
  5
68
102
{ACAD_REACTORS
330
54
102
}
330
54
100
AcDbScale
 70
     0
300
1:100
140
1.0
141
10.0
290
     0
  0
SCALE
  5
69
102
{ACAD_REACTORS
330
54
102
}
330
54
100
AcDbScale
 70
     0
300
1:150
140
1.0
141
15.0
290
     0
  0
SCALE
  5
6A
102
{ACAD_REACTORS
330
54
102
}
330
54
100
AcDbScale
 70
     0
300
1:200
140
1.0
141
20.0
290
     0
  0
SCALE
  5
6B
102
{ACAD_REACTORS
330
54
102
}
330
54
100
AcDbScale
 70
     0
300
1:250
140
1.0
141
25.0
290
     0
  0
SCALE
  5
6C
102
{ACAD_REACTORS
330
54
102
}
330
54
100
AcDbScale
 70
     0
300
1:500
140
1.0
141
50.0
290
     0
  0
SCALE
  5
6D
102
{ACAD_REACTORS
330
54
102
}
330
54
100
AcDbScale
 70
     0
300
1:750
140
1.0
141
75.0
290
     0
  0
SCALE
  5
6E
102
{ACAD_REACTORS
330
54
102
}
330
54
100
AcDbScale
 70
     0
300
1:1000
140
1.0
141
100.0
290
     0
  0
SCALE
  5
6F
102
{ACAD_REACTORS
330
54
102
}
330
54
100
AcDbScale
 70
     0
300
1:1250
140
1.0
141
125.0
290
     0
  0
SCALE
  5
70
102
{ACAD_REACTORS
330
54
102
}
330
54
100
AcDbScale
 70
     0
300
1:2000
140
1.0
141
200.0
290
     0
  0
SCALE
  5
71
102
{ACAD_REACTORS
330
54
102
}
330
54
100
AcDbScale
 70
     0
300
1:2500
140
1.0
141
250.0
290
     0
  0
SCALE
  5
72
102
{ACAD_REACTORS
330
54
102
}
330
54
100
AcDbScale
 70
     0
300
1:5000
140
1.0
141
500.0
290
     0
  0
TABLESTYLE
  5
5A
102
{ACAD_XDICTIONARY
360
5B
102
}
102
{ACAD_REACTORS
330
55
102
}
330
55
100
AcDbTableStyle
  3
Standard
 70
     0
 71
     0
 40
0.06
 41
0.06
280
     0
281
     0
  7
STANDARD
140
0.18
170
     2
 62
     0
 63
     7
283
     0
274
    -2
284
     1
 64
     0
275
    -2
285
     1
 65
     0
276
    -2
286
     1
 66
     0
277
    -2
287
     1
 67
     0
278
    -2
288
     1
 68
     0
279
    -2
289
     1
 69
     0
  7
STANDARD
140
0.25
170
     5
 62
     0
 63
     7
283
     0
274
    -2
284
     1
 64
     0
275
    -2
285
     1
 65
     0
276
    -2
286
     1
 66
     0
277
    -2
287
     1
 67
     0
278
    -2
288
     1
 68
     0
279
    -2
289
     1
 69
     0
  7
STANDARD
140
0.18
170
     5
 62
     0
 63
     7
283
     0
274
    -2
284
     1
 64
     0
275
    -2
285
     1
 65
     0
276
    -2
286
     1
 66
     0
277
    -2
287
     1
 67
     0
278
    -2
288
     1
 68
     0
279
    -2
289
     1
 69
     0
  0
VISUALSTYLE
  5
14
102
{ACAD_REACTORS
330
15
102
}
330
15
100
AcDbVisualStyle
  2
2dWireframe
 70
     4
 71
     0
 72
     2
 73
     0
 90
        0
 40
-0.6
 41
-30.0
 62
     5
 63
     7
 74
     1
 91
        4
 64
     7
 65
   257
 75
     1
175
     1
 42
1.0
 92
        0
 66
   257
 43
1.0
 76
     1
 77
     6
 78
     2
 67
     7
 79
     5
170
     0
171
     0
290
     0
174
     0
 93
        1
 44
0.0
173
     0
291
     0
 45
0.0
1001
ACAD
1000
AcDbSavedByObjectVersion
1070
     0
  0
VISUALSTYLE
  5
7A0
102
{ACAD_REACTORS
330
15
102
}
330
15
100
AcDbVisualStyle
  2
3D Hidden
 70
     6
 71
     1
 72
     2
 73
     2
 90
        0
 40
-0.6
 41
-30.0
 62
     5
 63
     7
 74
     2
 91
        2
 64
     7
 65
   257
 75
     2
175
     1
 42
40.0
 92
        0
 66
   257
 43
1.0
 76
     1
 77
     6
 78
     2
 67
     7
 79
     3
170
     0
171
     0
290
     0
174
     0
 93
        1
 44
0.0
173
     0
291
     0
 45
0.0
1001
ACAD
1000
AcDbSavedByObjectVersion
1070
     0
  0
VISUALSTYLE
  5
5D
102
{ACAD_REACTORS
330
15
102
}
330
15
100
AcDbVisualStyle
  2
3dWireframe
 70
     5
 71
     0
 72
     2
 73
     0
 90
        0
 40
-0.6
 41
-30.0
 62
     5
 63
     7
 74
     1
 91
        4
 64
     7
 65
   257
 75
     1
175
     1
 42
1.0
 92
        0
 66
   257
 43
1.0
 76
     1
 77
     6
 78
     2
 67
     7
 79
     5
170
     0
171
     0
290
     0
174
     0
 93
        1
 44
0.0
173
     0
291
     0
 45
0.0
1001
ACAD
1000
AcDbSavedByObjectVersion
1070
     0
  0
VISUALSTYLE
  5
79F
102
{ACAD_REACTORS
330
15
102
}
330
15
100
AcDbVisualStyle
  2
Basic
 70
     7
 71
     1
 72
     0
 73
     1
 90
        0
 40
-0.6
 41
-30.0
 62
     5
 63
     7
 74
     0
 91
        4
 64
     7
 65
   257
 75
     1
175
     1
 42
1.0
 92
        8
 66
     7
 43
1.0
 76
     1
 77
     6
 78
     2
 67
     7
 79
     5
170
     0
171
     0
290
     0
174
     0
 93
        1
 44
0.0
173
     0
291
     1
 45
0.0
1001
ACAD
1000
AcDbSavedByObjectVersion
1070
     0
  0
VISUALSTYLE
  5
7A3
102
{ACAD_REACTORS
330
15
102
}
330
15
100
AcDbVisualStyle
  2
Brighten
 70
    12
 71
     2
 72
     2
 73
     0
 90
        0
 40
-0.6
 41
-30.0
 62
     5
 63
     7
 74
     1
 91
        4
 64
     7
 65
   257
 75
     1
175
     1
 42
1.0
 92
        8
 66
     7
 43
1.0
 76
     1
 77
     6
 78
     2
 67
     7
 79
     5
170
     0
171
     0
290
     0
174
     0
 93
        1
 44
50.0
173
     0
291
     1
 45
0.0
1001
ACAD
1000
AcDbSavedByObjectVersion
1070
     0
  0
VISUALSTYLE
  5
7A7
102
{ACAD_REACTORS
330
15
102
}
330
15
100
AcDbVisualStyle
  2
ColorChange
 70
    16
 71
     2
 72
     2
 73
     3
 90
        0
 40
-0.6
 41
-30.0
 62
     5
 63
     8
 74
     1
 91
        4
 64
     7
 65
   257
 75
     1
175
     1
 42
1.0
 92
        8
 66
     8
 43
1.0
 76
     1
 77
     6
 78
     2
 67
     7
 79
     5
170
     0
171
     0
290
     0
174
     0
 93
        1
 44
0.0
173
     0
291
     1
 45
0.0
1001
ACAD
1000
AcDbSavedByObjectVersion
1070
     0
  0
VISUALSTYLE
  5
7A1
102
{ACAD_REACTORS
330
15
102
}
330
15
100
AcDbVisualStyle
  2
Conceptual
 70
     9
 71
     3
 72
     2
 73
     0
 90
        0
 40
-0.6
 41
-30.0
 62
     5
 63
     7
 74
     2
 91
        2
 64
     7
 65
   257
 75
     1
175
     1
 42
40.0
 92
        8
 66
     7
 43
1.0
 76
     1
 77
     6
 78
     2
 67
     7
 79
     3
170
     0
171
     0
290
     0
174
     0
 93
        1
 44
0.0
173
     0
291
     0
 45
0.0
1001
ACAD
1000
AcDbSavedByObjectVersion
1070
     0
  0
VISUALSTYLE
  5
7A2
102
{ACAD_REACTORS
330
15
102
}
330
15
100
AcDbVisualStyle
  2
Dim
 70
    11
 71
     2
 72
     2
 73
     0
 90
        0
 40
-0.6
 41
-30.0
 62
     5
 63
     7
 74
     1
 91
        4
 64
     7
 65
   257
 75
     1
175
     1
 42
1.0
 92
        8
 66
     7
 43
1.0
 76
     1
 77
     6
 78
     2
 67
     7
 79
     5
170
     0
171
     0
290
     0
174
     0
 93
        1
 44
-50.0
173
     0
291
     1
 45
0.0
1001
ACAD
1000
AcDbSavedByObjectVersion
1070
     0
  0
VISUALSTYLE
  5
7A6
102
{ACAD_REACTORS
330
15
102
}
330
15
100
AcDbVisualStyle
  2
Facepattern
 70
    15
 71
     2
 72
     2
 73
     0
 90
        0
 40
-0.6
 41
-30.0
 62
     5
 63
     7
 74
     1
 91
        4
 64
     7
 65
   257
 75
     1
175
     1
 42
1.0
 92
        8
 66
     7
 43
1.0
 76
     1
 77
     6
 78
     2
 67
     7
 79
     5
170
     0
171
     0
290
     0
174
     0
 93
        1
 44
0.0
173
     0
291
     1
 45
0.0
1001
ACAD
1000
AcDbSavedByObjectVersion
1070
     0
  0
VISUALSTYLE
  5
79B
102
{ACAD_REACTORS
330
15
102
}
330
15
100
AcDbVisualStyle
  2
Flat
 70
     0
 71
     2
 72
     1
 73
     1
 90
        2
 40
-0.6
 41
30.0
 62
     5
 63
     7
 74
     0
 91
        4
 64
     7
 65
   257
 75
     1
175
     1
 42
1.0
 92
        8
 66
     7
 43
1.0
 76
     1
 77
     6
 78
     2
 67
     7
 79
     5
170
     0
171
     0
290
     0
174
     0
 93
       13
 44
0.0
173
     0
291
     0
 45
0.0
1001
ACAD
1000
AcDbSavedByObjectVersion
1070
     0
  0
VISUALSTYLE
  5
79C
102
{ACAD_REACTORS
330
15
102
}
330
15
100
AcDbVisualStyle
  2
FlatWithEdges
 70
     1
 71
     2
 72
     1
 73
     1
 90
        2
 40
-0.6
 41
30.0
 62
     5
 63
     7
 74
     1
 91
        4
 64
     7
 65
   257
 75
     1
175
     1
 42
1.0
 92
        0
 66
   257
 43
1.0
 76
     1
 77
     6
 78
     2
 67
     7
 79
     5
170
     0
171
     0
290
     0
174
     0
 93
       13
 44
0.0
173
     0
291
     0
 45
0.0
1001
ACAD
1000
AcDbSavedByObjectVersion
1070
     0
  0
VISUALSTYLE
  5
79D
102
{ACAD_REACTORS
330
15
102
}
330
15
100
AcDbVisualStyle
  2
Gouraud
 70
     2
 71
     2
 72
     2
 73
     1
 90
        2
 40
-0.6
 41
30.0
 62
     5
 63
     7
 74
     0
 91
        4
 64
     7
 65
   257
 75
     1
175
     1
 42
1.0
 92
        0
 66
     7
 43
1.0
 76
     1
 77
     6
 78
     2
 67
     7
 79
     5
170
     0
171
     0
290
     0
174
     0
 93
       13
 44
0.0
173
     0
291
     0
 45
0.0
1001
ACAD
1000
AcDbSavedByObjectVersion
1070
     0
  0
VISUALSTYLE
  5
79E
102
{ACAD_REACTORS
330
15
102
}
330
15
100
AcDbVisualStyle
  2
GouraudWithEdges
 70
     3
 71
     2
 72
     2
 73
     1
 90
        2
 40
-0.6
 41
30.0
 62
     5
 63
     7
 74
     1
 91
        4
 64
     7
 65
   257
 75
     1
175
     1
 42
1.0
 92
        0
 66
   257
 43
1.0
 76
     1
 77
     6
 78
     2
 67
     7
 79
     5
170
     0
171
     0
290
     0
174
     0
 93
       13
 44
0.0
173
     0
291
     0
 45
0.0
1001
ACAD
1000
AcDbSavedByObjectVersion
1070
     0
  0
VISUALSTYLE
  5
7A5
102
{ACAD_REACTORS
330
15
102
}
330
15
100
AcDbVisualStyle
  2
Linepattern
 70
    14
 71
     2
 72
     2
 73
     0
 90
        0
 40
-0.6
 41
-30.0
 62
     5
 63
     7
 74
     1
 91
        4
 64
     7
 65
   257
 75
     7
175
     7
 42
1.0
 92
        8
 66
     7
 43
1.0
 76
     1
 77
     6
 78
     2
 67
     7
 79
     5
170
     0
171
     0
290
     0
174
     0
 93
        1
 44
0.0
173
     0
291
     1
 45
0.0
1001
ACAD
1000
AcDbSavedByObjectVersion
1070
     0
  0
VISUALSTYLE
  5
7B1
102
{ACAD_REACTORS
330
15
102
}
330
15
100
AcDbVisualStyle
  2

 70
     8
 71
     2
 72
     2
 73
     0
 90
        0
 40
-0.6
 41
-30.0
 62
     5
 63
     7
 74
     0
 91
        0
 64
     7
 65
   257
 75
     1
175
     1
 42
1.0
 92
        8
 66
     8
 43
1.0
 76
     1
 77
     6
 78
     2
 67
     7
 79
     5
170
     0
171
     0
290
     0
174
     0
 93
       13
 44
0.0
173
     0
291
     0
 45
0.0
1001
ACAD
1000
AcDbSavedByObjectVersion
1070
     0
  0
VISUALSTYLE
  5
7B2
102
{ACAD_REACTORS
330
15
102
}
330
15
100
AcDbVisualStyle
  2

 70
     8
 71
     2
 72
     2
 73
     0
 90
        0
 40
-0.6
 41
-30.0
 62
     5
 63
     7
 74
     1
 91
        0
 64
     7
 65
   257
 75
     1
175
     1
 42
1.0
 92
        8
 66
     8
 43
1.0
 76
     1
 77
     6
 78
     2
 67
     7
 79
     5
170
     0
171
     0
290
     0
174
     0
 93
       13
 44
0.0
173
     0
291
     0
 45
0.0
1001
ACAD
1000
AcDbSavedByObjectVersion
1070
     0
  0
VISUALSTYLE
  5
5C
102
{ACAD_REACTORS
330
15
102
}
330
15
100
AcDbVisualStyle
  2
Realistic
 70
     8
 71
     2
 72
     2
 73
     0
 90
        0
 40
-0.6
 41
-30.0
 62
     5
 63
     7
 74
     1
 91
        0
 64
     7
 65
   257
 75
     1
175
     1
 42
1.0
 92
        8
 66
     8
 43
1.0
 76
     1
 77
     6
 78
     2
 67
     7
 79
     5
170
     0
171
     0
290
     0
174
     0
 93
       13
 44
0.0
173
     0
291
     0
 45
0.0
1001
ACAD
1000
AcDbSavedByObjectVersion
1070
     0
  0
VISUALSTYLE
  5
7A4
102
{ACAD_REACTORS
330
15
102
}
330
15
100
AcDbVisualStyle
  2
Thicken
 70
    13
 71
     2
 72
     2
 73
     0
 90
        0
 40
-0.6
 41
-30.0
 62
     5
 63
     7
 74
     1
 91
        4
 64
     7
 65
   257
 75
     1
175
     1
 42
1.0
 92
       12
 66
     7
 43
1.0
 76
     1
 77
     6
 78
     2
 67
     7
 79
     5
170
     0
171
     0
290
     0
174
     0
 93
        1
 44
0.0
173
     0
291
     1
 45
0.0
1001
ACAD
1000
AcDbSavedByObjectVersion
1070
     0
  0
DICTIONARYVAR
  5
798
102
{ACAD_REACTORS
330
795
102
}
330
795
100
DictionaryVariables
280
     0
  1
1:1
  0
DICTIONARYVAR
  5
797
102
{ACAD_REACTORS
330
795
102
}
330
795
100
DictionaryVariables
280
     0
  1
STANDARD
  0
DICTIONARYVAR
  5
796
102
{ACAD_REACTORS
330
795
102
}
330
795
100
DictionaryVariables
280
     0
  1
STANDARD
  0
DICTIONARYVAR
  5
2912
102
{ACAD_REACTORS
330
795
102
}
330
795
100
DictionaryVariables
280
     0
  1
1
  0
DICTIONARYVAR
  5
2911
102
{ACAD_REACTORS
330
795
102
}
330
795
100
DictionaryVariables
280
     0
  1
1
  0
DICTIONARYVAR
  5
2910
102
{ACAD_REACTORS
330
795
102
}
330
795
100
DictionaryVariables
280
     0
  1
0
  0
DICTIONARYVAR
  5
799
102
{ACAD_REACTORS
330
795
102
}
330
795
100
DictionaryVariables
280
     0
  1
0
  0
DICTIONARYVAR
  5
290E
102
{ACAD_REACTORS
330
795
102
}
330
795
100
DictionaryVariables
280
     0
  1
1
  0
DICTIONARYVAR
  5
290F
102
{ACAD_REACTORS
330
795
102
}
330
795
100
DictionaryVariables
280
     0
  1
127
  0
DICTIONARY
  5
291E
330
1943
100
AcDbDictionary
280
     1
281
     1
  3
ACAD_XREC_ROUNDTRIP
360
291F
  0
DICTIONARY
  5
2917
330
11
100
AcDbDictionary
280
     1
281
     1
  3
ACAD_XREC_ROUNDTRIP
360
2918
  0
DICTIONARY
  5
291B
330
52
100
AcDbDictionary
280
     1
281
     1
  3
ACAD_XREC_ROUNDTRIP
360
291C
  0
DICTIONARY
  5
2919
330
51
100
AcDbDictionary
280
     1
281
     1
  3
ACAD_XREC_ROUNDTRIP
360
291A
  0
DICTIONARY
  5
2915
330
C
100
AcDbDictionary
280
     1
281
     1
  3
ACAD_XREC_ROUNDTRIP
360
2916
  0
DICTIONARY
  5
5B
330
5A
100
AcDbDictionary
280
     1
281
     1
  3
ACAD_ROUNDTRIP_2008_TABLESTYLE_CELLSTYLEMAP
360
2913
  3
ACAD_XREC_ROUNDTRIP
360
291D
  0
XRECORD
  5
291F
102
{ACAD_REACTORS
330
291E
102
}
330
291E
100
AcDbXrecord
280
     1
102
SHADEPLOT
 70
     0
102
SHADEPLOTRESLEVEL
 70
     2
102
SHADEPLOTCUSTOMDPI
 70
   300
  0
XRECORD
  5
2918
102
{ACAD_REACTORS
330
2917
102
}
330
2917
100
AcDbXrecord
280
     1
102
SHADEPLOT
 70
     1
102
SHADEPLOTRESLEVEL
 70
     2
102
SHADEPLOTCUSTOMDPI
 70
   300
  0
XRECORD
  5
291C
102
{ACAD_REACTORS
330
291B
102
}
330
291B
100
AcDbXrecord
280
     1
102
MATERIAL
148
0.0
149
0.0
149
0.0
 93
        0
 94
       63
282
     0
 72
     1
 77
     1
171
     1
175
     1
179
     1
273
     0
  0
XRECORD
  5
291A
102
{ACAD_REACTORS
330
2919
102
}
330
2919
100
AcDbXrecord
280
     1
102
MATERIAL
148
0.0
149
0.0
149
0.0
 93
        0
 94
       63
282
     0
 72
     1
 77
     1
171
     1
175
     1
179
     1
273
     0
  0
XRECORD
  5
2916
102
{ACAD_REACTORS
330
2915
102
}
330
2915
100
AcDbXrecord
280
     1
102
MATERIAL
148
0.0
149
0.0
149
0.0
 93
        0
 94
       63
282
     0
 72
     1
 77
     1
171
     1
175
     1
179
     1
273
     0
  0
CELLSTYLEMAP
  5
2913
102
{ACAD_REACTORS
330
5B
102
}
330
5B
100
AcDbCellStyleMap
 90
        3
300
CELLSTYLE
  1
TABLEFORMAT_BEGIN
 90
        5
170
     1
 91
        0
 92
    32768
 62
   257
 93
        1
300
CONTENTFORMAT
  1
CONTENTFORMAT_BEGIN
 90
        0
 91
        0
 92
        4
 93
        0
300

 40
0.0
140
1.0
 94
        5
 62
     0
340
21
144
0.25
309
CONTENTFORMAT_END
171
     0
 94
        6
 95
        1
302
GRIDFORMAT
  1
GRIDFORMAT_BEGIN
 90
        0
 91
        1
 62
     0
 92
       -2
340
0
 93
        0
 40
0.045
309
GRIDFORMAT_END
 95
        2
302
GRIDFORMAT
  1
GRIDFORMAT_BEGIN
 90
        0
 91
        1
 62
     0
 92
       -2
340
0
 93
        0
 40
0.045
309
GRIDFORMAT_END
 95
        4
302
GRIDFORMAT
  1
GRIDFORMAT_BEGIN
 90
        0
 91
        1
 62
     0
 92
       -2
340
0
 93
        0
 40
0.045
309
GRIDFORMAT_END
 95
        8
302
GRIDFORMAT
  1
GRIDFORMAT_BEGIN
 90
        0
 91
        1
 62
     0
 92
       -2
340
0
 93
        0
 40
0.045
309
GRIDFORMAT_END
 95
       16
302
GRIDFORMAT
  1
GRIDFORMAT_BEGIN
 90
        0
 91
        1
 62
     0
 92
       -2
340
0
 93
        0
 40
0.045
309
GRIDFORMAT_END
 95
       32
302
GRIDFORMAT
  1
GRIDFORMAT_BEGIN
 90
        0
 91
        1
 62
     0
 92
       -2
340
0
 93
        0
 40
0.045
309
GRIDFORMAT_END
309
TABLEFORMAT_END
  1
CELLSTYLE_BEGIN
 90
        1
 91
        1
300
_TITLE
309
CELLSTYLE_END
300
CELLSTYLE
  1
TABLEFORMAT_BEGIN
 90
        5
170
     1
 91
        0
 92
        0
 62
   257
 93
        1
300
CONTENTFORMAT
  1
CONTENTFORMAT_BEGIN
 90
        0
 91
        0
 92
        4
 93
        0
300

 40
0.0
140
1.0
 94
        5
 62
     0
340
21
144
0.18
309
CONTENTFORMAT_END
171
     0
 94
        6
 95
        1
302
GRIDFORMAT
  1
GRIDFORMAT_BEGIN
 90
        0
 91
        1
 62
     0
 92
       -2
340
0
 93
        0
 40
0.045
309
GRIDFORMAT_END
 95
        2
302
GRIDFORMAT
  1
GRIDFORMAT_BEGIN
 90
        0
 91
        1
 62
     0
 92
       -2
340
0
 93
        0
 40
0.045
309
GRIDFORMAT_END
 95
        4
302
GRIDFORMAT
  1
GRIDFORMAT_BEGIN
 90
        0
 91
        1
 62
     0
 92
       -2
340
0
 93
        0
 40
0.045
309
GRIDFORMAT_END
 95
        8
302
GRIDFORMAT
  1
GRIDFORMAT_BEGIN
 90
        0
 91
        1
 62
     0
 92
       -2
340
0
 93
        0
 40
0.045
309
GRIDFORMAT_END
 95
       16
302
GRIDFORMAT
  1
GRIDFORMAT_BEGIN
 90
        0
 91
        1
 62
     0
 92
       -2
340
0
 93
        0
 40
0.045
309
GRIDFORMAT_END
 95
       32
302
GRIDFORMAT
  1
GRIDFORMAT_BEGIN
 90
        0
 91
        1
 62
     0
 92
       -2
340
0
 93
        0
 40
0.045
309
GRIDFORMAT_END
309
TABLEFORMAT_END
  1
CELLSTYLE_BEGIN
 90
        2
 91
        1
300
_HEADER
309
CELLSTYLE_END
300
CELLSTYLE
  1
TABLEFORMAT_BEGIN
 90
        5
170
     1
 91
        0
 92
        0
 62
   257
 93
        1
300
CONTENTFORMAT
  1
CONTENTFORMAT_BEGIN
 90
        0
 91
        0
 92
        4
 93
        0
300

 40
0.0
140
1.0
 94
        2
 62
     0
340
21
144
0.18
309
CONTENTFORMAT_END
171
     0
 94
        6
 95
        1
302
GRIDFORMAT
  1
GRIDFORMAT_BEGIN
 90
        0
 91
        1
 62
     0
 92
       -2
340
0
 93
        0
 40
0.045
309
GRIDFORMAT_END
 95
        2
302
GRIDFORMAT
  1
GRIDFORMAT_BEGIN
 90
        0
 91
        1
 62
     0
 92
       -2
340
0
 93
        0
 40
0.045
309
GRIDFORMAT_END
 95
        4
302
GRIDFORMAT
  1
GRIDFORMAT_BEGIN
 90
        0
 91
        1
 62
     0
 92
       -2
340
0
 93
        0
 40
0.045
309
GRIDFORMAT_END
 95
        8
302
GRIDFORMAT
  1
GRIDFORMAT_BEGIN
 90
        0
 91
        1
 62
     0
 92
       -2
340
0
 93
        0
 40
0.045
309
GRIDFORMAT_END
 95
       16
302
GRIDFORMAT
  1
GRIDFORMAT_BEGIN
 90
        0
 91
        1
 62
     0
 92
       -2
340
0
 93
        0
 40
0.045
309
GRIDFORMAT_END
 95
       32
302
GRIDFORMAT
  1
GRIDFORMAT_BEGIN
 90
        0
 91
        1
 62
     0
 92
       -2
340
0
 93
        0
 40
0.045
309
GRIDFORMAT_END
309
TABLEFORMAT_END
  1
CELLSTYLE_BEGIN
 90
        3
 91
        2
300
_DATA
309
CELLSTYLE_END
  0
XRECORD
  5
291D
102
{ACAD_REACTORS
330
5B
102
}
330
5B
100
AcDbXrecord
280
     1
102
ACAD_ROUNDTRIP_PRE2007_TABLESTYLE
 90
        4
 91
        0
  1

 92
        4
 93
        0
  2

 94
        4
 95
        0
  3

  0
ENDSEC
  0
EOF
