  0
SECTION
  2
HEADER
  9
$ACADVER
  1
AC1015
  9
$ACADMAINTVER
 70
    20
  9
$DWGCODEPAGE
  3
ANSI_1250
  9
$INSBASE
 10
9677.351579171606
 20
1189.596440029025
 30
0.0000000000031697
  9
$EXTMIN
 10
67540.26303756516
 20
-12830.83167067901
 30
-0.0015258207003583
  9
$EXTMAX
 10
77745.79978353918
 20
1190.024042212615
 30
0.0000000349246037
  9
$LIMMIN
 10
0.0
 20
0.0
  9
$LIMMAX
 10
12.0
 20
9.0
  9
$ORTHOMODE
 70
     1
  9
$REGENMODE
 70
     1
  9
$FILLMODE
 70
     1
  9
$QTEXTMODE
 70
     0
  9
$MIRRTEXT
 70
     0
  9
$LTSCALE
 40
75.0
  9
$ATTMODE
 70
     1
  9
$TEXTSIZE
 40
0.2
  9
$TRACEWID
 40
40.0
  9
$TEXTSTYLE
  7
STANDARD
  9
$CLAYER
  8
0Wymiary-PL
  9
$CELTYPE
  6
BYLAYER
  9
$CECOLOR
 62
   256
  9
$CELTSCALE
 40
4.0
  9
$DISPSILH
 70
     0
  9
$DIMSCALE
 40
1.0
  9
$DIMASZ
 40
30.0
  9
$DIMEXO
 40
43.0
  9
$DIMDLI
 40
0.0
  9
$DIMRND
 40
0.5
  9
$DIMDLE
 40
12.0
  9
$DIMEXE
 40
13.0
  9
$DIMTP
 40
0.0
  9
$DIMTM
 40
0.0
  9
$DIMTXT
 40
80.0
  9
$DIMCEN
 40
0.0
  9
$DIMTSZ
 40
0.0
  9
$DIMTOL
 70
     0
  9
$DIMLIM
 70
     0
  9
$DIMTIH
 70
     0
  9
$DIMTOH
 70
     0
  9
$DIMSE1
 70
     1
  9
$DIMSE2
 70
     1
  9
$DIMTAD
 70
     0
  9
$DIMZIN
 70
    12
  9
$DIMBLK
  1
B-DIM
  9
$DIMASO
 70
     1
  9
$DIMSHO
 70
     1
  9
$DIMPOST
  1

  9
$DIMAPOST
  1

  9
$DIMALT
 70
     0
  9
$DIMALTD
 70
     2
  9
$DIMALTF
 40
25.4
  9
$DIMLFAC
 40
1.0
  9
$DIMTOFL
 70
     1
  9
$DIMTVP
 40
1.0
  9
$DIMTIX
 70
     1
  9
$DIMSOXD
 70
     0
  9
$DIMSAH
 70
     0
  9
$DIMBLK1
  1

  9
$DIMBLK2
  1

  9
$DIMSTYLE
  2
500
  9
$DIMCLRD
 70
     1
  9
$DIMCLRE
 70
     1
  9
$DIMCLRT
 70
   140
  9
$DIMTFAC
 40
1.0
  9
$DIMGAP
 40
0.0
  9
$DIMJUST
 70
     0
  9
$DIMSD1
 70
     0
  9
$DIMSD2
 70
     0
  9
$DIMTOLJ
 70
     1
  9
$DIMTZIN
 70
     0
  9
$DIMALTZ
 70
     0
  9
$DIMALTTZ
 70
     0
  9
$DIMUPT
 70
     0
  9
$DIMDEC
 70
     1
  9
$DIMTDEC
 70
     1
  9
$DIMALTU
 70
     2
  9
$DIMALTTD
 70
     2
  9
$DIMTXSTY
  7
ROMANS
  9
$DIMAUNIT
 70
     0
  9
$DIMADEC
 70
     0
  9
$DIMALTRND
 40
0.0
  9
$DIMAZIN
 70
     0
  9
$DIMDSEP
 70
    46
  9
$DIMATFIT
 70
     3
  9
$DIMFRAC
 70
     0
  9
$DIMLDRBLK
  1
B-DIM
  9
$DIMLUNIT
 70
     2
  9
$DIMLWD
 70
    -2
  9
$DIMLWE
 70
    -2
  9
$DIMTMOVE
 70
     2
  9
$LUNITS
 70
     2
  9
$LUPREC
 70
     2
  9
$SKETCHINC
 40
0.1
  9
$FILLETRAD
 40
0.0
  9
$AUNITS
 70
     0
  9
$AUPREC
 70
     1
  9
$MENU
  1
acad
  9
$ELEVATION
 40
0.0
  9
$PELEVATION
 40
0.0
  9
$THICKNESS
 40
0.0
  9
$LIMCHECK
 70
     0
  9
$CHAMFERA
 40
30.0
  9
$CHAMFERB
 40
30.0
  9
$CHAMFERC
 40
0.0
  9
$CHAMFERD
 40
0.0
  9
$SKPOLY
 70
     0
  9
$TDCREATE
 40
2450817.525937848
  9
$TDUCREATE
 40
2450817.442604514
  9
$TDUPDATE
 40
2454965.596720556
  9
$TDUUPDATE
 40
2454965.513387223
  9
$TDINDWG
 40
21.7400058681
  9
$TDUSRTIMER
 40
21.7400058681
  9
$USRTIMER
 70
     1
  9
$ANGBASE
 50
0.0
  9
$ANGDIR
 70
     0
  9
$PDMODE
 70
     3
  9
$PDSIZE
 40
10.0
  9
$PLINEWID
 40
60.0
  9
$SPLFRAME
 70
     0
  9
$SPLINETYPE
 70
     6
  9
$SPLINESEGS
 70
     8
  9
$HANDSEED
  5
21EF
  9
$SURFTAB1
 70
     6
  9
$SURFTAB2
 70
     6
  9
$SURFTYPE
 70
     6
  9
$SURFU
 70
     6
  9
$SURFV
 70
     6
  9
$UCSBASE
  2

  9
$UCSNAME
  2

  9
$UCSORG
 10
0.0
 20
0.0
 30
0.0
  9
$UCSXDIR
 10
1.0
 20
0.0
 30
0.0
  9
$UCSYDIR
 10
0.0
 20
1.0
 30
0.0
  9
$UCSORTHOREF
  2

  9
$UCSORTHOVIEW
 70
     0
  9
$UCSORGTOP
 10
0.0
 20
0.0
 30
0.0
  9
$UCSORGBOTTOM
 10
0.0
 20
0.0
 30
0.0
  9
$UCSORGLEFT
 10
0.0
 20
0.0
 30
0.0
  9
$UCSORGRIGHT
 10
0.0
 20
0.0
 30
0.0
  9
$UCSORGFRONT
 10
0.0
 20
0.0
 30
0.0
  9
$UCSORGBACK
 10
0.0
 20
0.0
 30
0.0
  9
$PUCSBASE
  2

  9
$PUCSNAME
  2

  9
$PUCSORG
 10
0.0
 20
0.0
 30
0.0
  9
$PUCSXDIR
 10
1.0
 20
0.0
 30
0.0
  9
$PUCSYDIR
 10
0.0
 20
1.0
 30
0.0
  9
$PUCSORTHOREF
  2

  9
$PUCSORTHOVIEW
 70
     0
  9
$PUCSORGTOP
 10
0.0
 20
0.0
 30
0.0
  9
$PUCSORGBOTTOM
 10
0.0
 20
0.0
 30
0.0
  9
$PUCSORGLEFT
 10
0.0
 20
0.0
 30
0.0
  9
$PUCSORGRIGHT
 10
0.0
 20
0.0
 30
0.0
  9
$PUCSORGFRONT
 10
0.0
 20
0.0
 30
0.0
  9
$PUCSORGBACK
 10
0.0
 20
0.0
 30
0.0
  9
$USERI1
 70
     0
  9
$USERI2
 70
     0
  9
$USERI3
 70
     0
  9
$USERI4
 70
     0
  9
$USERI5
 70
     0
  9
$USERR1
 40
0.0
  9
$USERR2
 40
0.0
  9
$USERR3
 40
0.0
  9
$USERR4
 40
0.0
  9
$USERR5
 40
0.0
  9
$WORLDVIEW
 70
     1
  9
$SHADEDGE
 70
     3
  9
$SHADEDIF
 70
    70
  9
$TILEMODE
 70
     1
  9
$MAXACTVP
 70
    16
  9
$PINSBASE
 10
0.0
 20
0.0
 30
0.0
  9
$PLIMCHECK
 70
     0
  9
$PEXTMIN
 10
0.0
 20
0.0
 30
0.0
  9
$PEXTMAX
 10
0.0
 20
0.0
 30
0.0
  9
$PLIMMIN
 10
0.0
 20
0.0
  9
$PLIMMAX
 10
12.0
 20
9.0
  9
$UNITMODE
 70
     0
  9
$VISRETAIN
 70
     0
  9
$PLINEGEN
 70
     0
  9
$PSLTSCALE
 70
     1
  9
$TREEDEPTH
 70
  3020
  9
$CMLSTYLE
  2
STANDARD
  9
$CMLJUST
 70
     0
  9
$CMLSCALE
 40
1.0
  9
$PROXYGRAPHICS
 70
     1
  9
$MEASUREMENT
 70
     0
  9
$CELWEIGHT
370
    -1
  9
$ENDCAPS
280
     0
  9
$JOINSTYLE
280
     0
  9
$LWDISPLAY
290
     0
  9
$INSUNITS
 70
     0
  9
$HYPERLINKBASE
  1

  9
$STYLESHEET
  1
monochrome_140.ctb
  9
$XEDIT
290
     1
  9
$CEPSNTYPE
380
     0
  9
$PSTYLEMODE
290
     1
  9
$FINGERPRINTGUID
  2
{2D5E65A9-1F91-4A53-BA94-481E1C74241D}
  9
$VERSIONGUID
  2
{3C38BE78-C87E-423E-9837-FA104AD37D73}
  9
$EXTNAMES
290
     1
  9
$PSVPSCALE
 40
0.0
  9
$OLESTARTUP
290
     0
  0
ENDSEC
  0
SECTION
  2
CLASSES
  0
CLASS
  1
DICTIONARYVAR
  2
AcDbDictionaryVar
  3
ObjectDBX Classes
 90
        0
280
     0
281
     0
  0
CLASS
  1
ACDBDICTIONARYWDFLT
  2
AcDbDictionaryWithDefault
  3
ObjectDBX Classes
 90
        0
280
     0
281
     0
  0
CLASS
  1
ACDBPLACEHOLDER
  2
AcDbPlaceHolder
  3
ObjectDBX Classes
 90
        0
280
     0
281
     0
  0
CLASS
  1
LAYOUT
  2
AcDbLayout
  3
ObjectDBX Classes
 90
        0
280
     0
281
     0
  0
CLASS
  1
AEC_VARS_DWG_SETUP
  2
AecDbVarsDwgSetup
  3
AecBase50|Product Desc: Autodesk Architectural Desktop 2007 |Company: Autodesk,Inc. |WEB Address: www.autodesk.com
 90
    32897
280
     0
281
     0
  0
CLASS
  1
AEC_DISP_REP_CONFIG
  2
AecDbDispRepConfig
  3
AecBase50|Product Desc: Autodesk Architectural Desktop 2007 |Company: Autodesk,Inc. |WEB Address: www.autodesk.com
 90
    32897
280
     0
281
     0
  0
CLASS
  1
AEC_DISP_REP_SET
  2
AecDbDispRepSet
  3
AecBase50|Product Desc: Autodesk Architectural Desktop 2007 |Company: Autodesk,Inc. |WEB Address: www.autodesk.com
 90
    32897
280
     0
281
     0
  0
CLASS
  1
AEC_DISP_REP_2D_SECTION
  2
AecDbDispRep2dSection
  3
AecBase50|Product Desc: Autodesk Architectural Desktop 2007 |Company: Autodesk,Inc. |WEB Address: www.autodesk.com
 90
    32897
280
     0
281
     0
  0
CLASS
  1
AEC_DISP_REP_ANCHOR_BUB_TO_GRID
  2
AecDbDispRepAnchorBubToGrid
  3
AecStructureBase50|Product Desc: Autodesk Architectural Desktop 2007 |Company: Autodesk,Inc. |WEB Address: www.autodesk.com
 90
    32897
280
     0
281
     0
  0
CLASS
  1
AEC_DISP_REP_ANCHOR_BUB_TO_GRID_MODEL
  2
AecDbDispRepAnchorBubToGridMdl
  3
AecStructureBase50|Product Desc: Autodesk Architectural Desktop 2007 |Company: Autodesk,Inc. |WEB Address: www.autodesk.com
 90
    32897
280
     0
281
     0
  0
CLASS
  1
AEC_DISP_REP_ANCHOR_ENT_TO_NODE
  2
AecDbDispRepAnchorEntToNode
  3
AecBase50|Product Desc: Autodesk Architectural Desktop 2007 |Company: Autodesk,Inc. |WEB Address: www.autodesk.com
 90
    32897
280
     0
281
     0
  0
CLASS
  1
AEC_DISP_REP_ANCHOR_TAG_TO_ENT
  2
AecDbDispRepAnchorTagToEnt
  3
AecScheduleData50|Product Desc: Autodesk Architectural Desktop 2007 |Company: Autodesk,Inc. |WEB Address: www.autodesk.com
 90
    32897
280
     0
281
     0
  0
CLASS
  1
AEC_DISP_REP_AREA
  2
AecDbDispRepArea
  3
AecAreaCalculationBase50|Product Desc: Autodesk Architectural Desktop 2007 |Company: Autodesk,Inc. |WEB Address: www.autodesk.com
 90
    32897
280
     0
281
     0
  0
CLASS
  1
AEC_DISP_REP_AREA_DECOMPOSED
  2
AecDbDispRepAreaDecomposed
  3
AecAreaCalculationBase50|Product Desc: Autodesk Architectural Desktop 2007 |Company: Autodesk,Inc. |WEB Address: www.autodesk.com
 90
    32897
280
     0
281
     0
  0
CLASS
  1
AEC_DISP_REP_AREAGROUP
  2
AecDbDispRepAreaGroup
  3
AecAreaCalculationBase50|Product Desc: Autodesk Architectural Desktop 2007 |Company: Autodesk,Inc. |WEB Address: www.autodesk.com
 90
    32897
280
     0
281
     0
  0
CLASS
  1
AEC_DISP_REP_BDG_ELEVLINE_MODEL
  2
AecDbDispRepBdgElevLineModel
  3
AecArchBase50|Product Desc: Autodesk Architectural Desktop 2007 |Company: Autodesk,Inc. |WEB Address: www.autodesk.com
 90
    32897
280
     0
281
     0
  0
CLASS
  1
AEC_DISP_REP_BDG_SECTIONLINE_PLAN
  2
AecDbDispRepBdgElevLinePlan
  3
AecArchBase50|Product Desc: Autodesk Architectural Desktop 2007 |Company: Autodesk,Inc. |WEB Address: www.autodesk.com
 90
    32897
280
     0
281
     0
  0
CLASS
  1
AEC_DISP_REP_BDG_SECTIONLINE_MODEL
  2
AecDbDispRepBdgSectionLineModel
  3
AecArchBase50|Product Desc: Autodesk Architectural Desktop 2007 |Company: Autodesk,Inc. |WEB Address: www.autodesk.com
 90
    32897
280
     0
281
     0
  0
CLASS
  1
AEC_DISP_REP_BDG_SECTIONLINE_PLAN
  2
AecDbDispRepBdgSectionLinePlan
  3
AecArchBase50|Product Desc: Autodesk Architectural Desktop 2007 |Company: Autodesk,Inc. |WEB Address: www.autodesk.com
 90
    32897
280
     0
281
     0
  0
CLASS
  1
AEC_DISP_REP_BDG_SECTION_SUBDIV
  2
AecDbDispRepBdgSectionSubDiv
  3
AecArchBase50|Product Desc: Autodesk Architectural Desktop 2007 |Company: Autodesk,Inc. |WEB Address: www.autodesk.com
 90
    32897
280
     0
281
     0
  0
CLASS
  1
AEC_DISP_REP_CAMERA
  2
AecDbDispRepCamera
  3
AecBase50|Product Desc: Autodesk Architectural Desktop 2007 |Company: Autodesk,Inc. |WEB Address: www.autodesk.com
 90
    32897
280
     0
281
     0
  0
CLASS
  1
AEC_DISP_REP_CEILING_GRID
  2
AecDbDispRepCeilingGrid
  3
AecArchBase50|Product Desc: Autodesk Architectural Desktop 2007 |Company: Autodesk,Inc. |WEB Address: www.autodesk.com
 90
    33661
280
     0
281
     0
  0
CLASS
  1
AEC_DISP_REP_CEILING_GRID_MODEL
  2
AecDbDispRepCeilingGridModel
  3
AecArchBase50|Product Desc: Autodesk Architectural Desktop 2007 |Company: Autodesk,Inc. |WEB Address: www.autodesk.com
 90
    32897
280
     0
281
     0
  0
CLASS
  1
AEC_DISP_REP_CEILING_GRID_RCP
  2
AecDbDispRepCeilingGridRcp
  3
AecArchBase50|Product Desc: Autodesk Architectural Desktop 2007 |Company: Autodesk,Inc. |WEB Address: www.autodesk.com
 90
    32897
280
     0
281
     0
  0
CLASS
  1
AEC_DISP_REP_CLIP_VOLUME_MODEL
  2
AecDbDispRepClipVolModel
  3
AecBase50|Product Desc: Autodesk Architectural Desktop 2007 |Company: Autodesk,Inc. |WEB Address: www.autodesk.com
 90
    32897
280
     0
281
     0
  0
CLASS
  1
AEC_DISP_REP_CLIP_VOLUME_PLAN
  2
AecDbDispRepClipVolPlan
  3
AecBase50|Product Desc: Autodesk Architectural Desktop 2007 |Company: Autodesk,Inc. |WEB Address: www.autodesk.com
 90
    32897
280
     0
281
     0
  0
CLASS
  1
AEC_DISP_REP_CLIP_VOLUME_RESULT_SUBDIV
  2
AecDbDispRepClipVolResSubDiv
  3
AecBase50|Product Desc: Autodesk Architectural Desktop 2007 |Company: Autodesk,Inc. |WEB Address: www.autodesk.com
 90
    32897
280
     0
281
     0
  0
CLASS
  1
AEC_DISP_REP_CLIP_VOLUME_RESULT
  2
AecDbDispRepClipVolResult
  3
AecBase50|Product Desc: Autodesk Architectural Desktop 2007 |Company: Autodesk,Inc. |WEB Address: www.autodesk.com
 90
    32897
280
     0
281
     0
  0
CLASS
  1
AEC_DISP_REP_COLUMN_GRID
  2
AecDbDispRepColumnGrid
  3
AecStructureBase50|Product Desc: Autodesk Architectural Desktop 2007 |Company: Autodesk,Inc. |WEB Address: www.autodesk.com
 90
    32897
280
     0
281
     0
  0
CLASS
  1
AEC_DISP_REP_COLUMN_GRID_MODEL
  2
AecDbDispRepColumnGridModel
  3
AecStructureBase50|Product Desc: Autodesk Architectural Desktop 2007 |Company: Autodesk,Inc. |WEB Address: www.autodesk.com
 90
    32897
280
     0
281
     0
  0
CLASS
  1
AEC_DISP_REP_CURTAIN_WALL_LAYOUT_MODEL
  2
AecDbDispRepCurtainWallLayoutModel
  3
AecArchBase50|Product Desc: Autodesk Architectural Desktop 2007 |Company: Autodesk,Inc. |WEB Address: www.autodesk.com
 90
    32897
280
     0
281
     0
  0
CLASS
  1
AEC_DISP_REP_CURTAIN_WALL_LAYOUT_PLAN
  2
AecDbDispRepCurtainWallLayoutPlan
  3
AecArchBase50|Product Desc: Autodesk Architectural Desktop 2007 |Company: Autodesk,Inc. |WEB Address: www.autodesk.com
 90
    32897
280
     0
281
     0
  0
CLASS
  1
AEC_DISP_REP_CURTAIN_WALL_UNIT_MODEL
  2
AecDbDispRepCurtainWallUnitModel
  3
AecArchBase50|Product Desc: Autodesk Architectural Desktop 2007 |Company: Autodesk,Inc. |WEB Address: www.autodesk.com
 90
    32897
280
     0
281
     0
  0
CLASS
  1
AEC_DISP_REP_CURTAIN_WALL_UNIT_PLAN
  2
AecDbDispRepCurtainWallUnitPlan
  3
AecArchBase50|Product Desc: Autodesk Architectural Desktop 2007 |Company: Autodesk,Inc. |WEB Address: www.autodesk.com
 90
    32897
280
     0
281
     0
  0
CLASS
  1
AEC_DB_DISP_REP_DIM_GROUP_PLAN
  2
AecDbDispRepDimGroupPlan
  3
AecArchDACHBase50|Product Desc: Autodesk Architectural Desktop 2007 |Company: Autodesk,Inc. |WEB Address: www.autodesk.com
 90
    32897
280
     0
281
     0
  0
CLASS
  1
AEC_DISP_REP_DOOR_MODEL
  2
AecDbDispRepDoorModel
  3
AecArchBase50|Product Desc: Autodesk Architectural Desktop 2007 |Company: Autodesk,Inc. |WEB Address: www.autodesk.com
 90
    32897
280
     0
281
     0
  0
CLASS
  1
AEC_DISP_REP_DOOR_NOMINAL
  2
AecDbDispRepDoorNominal
  3
AecArchBase50|Product Desc: Autodesk Architectural Desktop 2007 |Company: Autodesk,Inc. |WEB Address: www.autodesk.com
 90
    32897
280
     0
281
     0
  0
CLASS
  1
AEC_DISP_REP_DOOR_PLAN
  2
AecDbDispRepDoorPlan
  3
AecArchBase50|Product Desc: Autodesk Architectural Desktop 2007 |Company: Autodesk,Inc. |WEB Address: www.autodesk.com
 90
    32897
280
     0
281
     0
  0
CLASS
  1
AEC_DISP_REP_EDITINPLACEPROFILE
  2
AecDbDispRepEditInPlaceProfile
  3
AecBase50|Product Desc: Autodesk Architectural Desktop 2007 |Company: Autodesk,Inc. |WEB Address: www.autodesk.com
 90
    32897
280
     0
281
     0
  0
CLASS
  1
AEC_DISP_REP_ENT_REF
  2
AecDbDispRepEntRef
  3
AecBase50|Product Desc: Autodesk Architectural Desktop 2007 |Company: Autodesk,Inc. |WEB Address: www.autodesk.com
 90
    32897
280
     0
281
     0
  0
CLASS
  1
AEC_DISP_REP_LAYOUT_CURVE
  2
AecDbDispRepLayoutCurve
  3
AecBase50|Product Desc: Autodesk Architectural Desktop 2007 |Company: Autodesk,Inc. |WEB Address: www.autodesk.com
 90
    32897
280
     0
281
     0
  0
CLASS
  1
AEC_DISP_REP_LAYOUT_GRID2D
  2
AecDbDispRepLayoutGrid2d
  3
AecBase50|Product Desc: Autodesk Architectural Desktop 2007 |Company: Autodesk,Inc. |WEB Address: www.autodesk.com
 90
    32897
280
     0
281
     0
  0
CLASS
  1
AEC_DISP_REP_LAYOUT_GRID3D
  2
AecDbDispRepLayoutGrid3d
  3
AecBase50|Product Desc: Autodesk Architectural Desktop 2007 |Company: Autodesk,Inc. |WEB Address: www.autodesk.com
 90
    32897
280
     0
281
     0
  0
CLASS
  1
AEC_DISP_REP_MASKBLOCK_REF
  2
AecDbDispRepMaskBlockRef
  3
AecBase50|Product Desc: Autodesk Architectural Desktop 2007 |Company: Autodesk,Inc. |WEB Address: www.autodesk.com
 90
    32897
280
     0
281
     0
  0
CLASS
  1
AEC_DISP_REP_MASKBLOCK_REF_RCP
  2
AecDbDispRepMaskBlockRefRcp
  3
AecArchBase50|Product Desc: Autodesk Architectural Desktop 2007 |Company: Autodesk,Inc. |WEB Address: www.autodesk.com
 90
    32897
280
     0
281
     0
  0
CLASS
  1
AEC_DISP_REP_MASS_ELEM_MODEL
  2
AecDbDispRepMassElemModel
  3
AecBaseEx50|Product Desc: Autodesk Architectural Desktop 2007 |Company: Autodesk,Inc. |WEB Address: www.autodesk.com
 90
    32897
280
     0
281
     0
  0
CLASS
  1
AEC_DISP_REP_MASS_ELEM_SCHEM
  2
AecDbDispRepMassElemSchem
  3
AecBaseEx50|Product Desc: Autodesk Architectural Desktop 2007 |Company: Autodesk,Inc. |WEB Address: www.autodesk.com
 90
    32897
280
     0
281
     0
  0
CLASS
  1
AEC_DISP_REP_MASS_GROUP_MODEL
  2
AecDbDispRepMassGroupModel
  3
AecBaseEx50|Product Desc: Autodesk Architectural Desktop 2007 |Company: Autodesk,Inc. |WEB Address: www.autodesk.com
 90
    32897
280
     0
281
     0
  0
CLASS
  1
AEC_DISP_REP_MASS_GROUP_PLAN
  2
AecDbDispRepMassGroupPlan
  3
AecBaseEx50|Product Desc: Autodesk Architectural Desktop 2007 |Company: Autodesk,Inc. |WEB Address: www.autodesk.com
 90
    32897
280
     0
281
     0
  0
CLASS
  1
AEC_DISP_REP_MATERIAL
  2
AecDbDispRepMaterial
  3
AecBase50|Product Desc: Autodesk Architectural Desktop 2007 |Company: Autodesk,Inc. |WEB Address: www.autodesk.com
 90
    32897
280
     0
281
     0
  0
CLASS
  1
AEC_DISP_REP_MVBLOCK_REF
  2
AecDbDispRepMvBlockRef
  3
AecBase50|Product Desc: Autodesk Architectural Desktop 2007 |Company: Autodesk,Inc. |WEB Address: www.autodesk.com
 90
    32897
280
     0
281
     0
  0
CLASS
  1
AEC_DISP_REP_MVBLOCK_REF_MODEL
  2
AecDbDispRepMvBlockRefModel
  3
AecBase50|Product Desc: Autodesk Architectural Desktop 2007 |Company: Autodesk,Inc. |WEB Address: www.autodesk.com
 90
    32897
280
     0
281
     0
  0
CLASS
  1
AEC_DISP_REP_OPENING
  2
AecDbDispRepOpening
  3
AecArchBase50|Product Desc: Autodesk Architectural Desktop 2007 |Company: Autodesk,Inc. |WEB Address: www.autodesk.com
 90
    32897
280
     0
281
     0
  0
CLASS
  1
AEC_DISP_REP_OPENING_MODEL
  2
AecDbDispRepOpeningModel
  3
AecArchBase50|Product Desc: Autodesk Architectural Desktop 2007 |Company: Autodesk,Inc. |WEB Address: www.autodesk.com
 90
    32897
280
     0
281
     0
  0
CLASS
  1
AEC_DISP_REP_POLYGON_MODEL
  2
AecDbDispRepPolygonModel
  3
AecBase50|Product Desc: Autodesk Architectural Desktop 2007 |Company: Autodesk,Inc. |WEB Address: www.autodesk.com
 90
    32897
280
     0
281
     0
  0
CLASS
  1
AEC_DISP_REP_RAILING_MODEL
  2
AecDbDispRepRailingModel
  3
AecArchBase50|Product Desc: Autodesk Architectural Desktop 2007 |Company: Autodesk,Inc. |WEB Address: www.autodesk.com
 90
    32897
280
     0
281
     0
  0
CLASS
  1
AEC_DISP_REP_RAILING_PLAN
  2
AecDbDispRepRailingPlan
  3
AecArchBase50|Product Desc: Autodesk Architectural Desktop 2007 |Company: Autodesk,Inc. |WEB Address: www.autodesk.com
 90
    32897
280
     0
281
     0
  0
CLASS
  1
AEC_DISP_REP_ROOF_MODEL
  2
AecDbDispRepRoofModel
  3
AecArchBase50|Product Desc: Autodesk Architectural Desktop 2007 |Company: Autodesk,Inc. |WEB Address: www.autodesk.com
 90
    32897
280
     0
281
     0
  0
CLASS
  1
AEC_DISP_REP_ROOF_PLAN
  2
AecDbDispRepRoofPlan
  3
AecArchBase50|Product Desc: Autodesk Architectural Desktop 2007 |Company: Autodesk,Inc. |WEB Address: www.autodesk.com
 90
    32897
280
     0
281
     0
  0
CLASS
  1
AEC_DISP_REP_ROOFSLAB_MODEL
  2
AecDbDispRepRoofSlabModel
  3
AecArchBase50|Product Desc: Autodesk Architectural Desktop 2007 |Company: Autodesk,Inc. |WEB Address: www.autodesk.com
 90
    32897
280
     0
281
     0
  0
CLASS
  1
AEC_DISP_REP_ROOFSLAB_PLAN
  2
AecDbDispRepRoofSlabPlan
  3
AecArchBase50|Product Desc: Autodesk Architectural Desktop 2007 |Company: Autodesk,Inc. |WEB Address: www.autodesk.com
 90
    32897
280
     0
281
     0
  0
CLASS
  1
AEC_DISP_REP_SCHEDULE_TABLE
  2
AecDbDispRepScheduleTable
  3
AecSchedule50|Product Desc: Autodesk Architectural Desktop 2007 |Company: Autodesk,Inc. |WEB Address: www.autodesk.com
 90
    32897
280
     0
281
     0
  0
CLASS
  1
AEC_DISP_REP_SLAB_MODEL
  2
AecDbDispRepSlabModel
  3
AecArchBase50|Product Desc: Autodesk Architectural Desktop 2007 |Company: Autodesk,Inc. |WEB Address: www.autodesk.com
 90
    32897
280
     0
281
     0
  0
CLASS
  1
AEC_DISP_REP_SLAB_PLAN
  2
AecDbDispRepSlabPlan
  3
AecArchBase50|Product Desc: Autodesk Architectural Desktop 2007 |Company: Autodesk,Inc. |WEB Address: www.autodesk.com
 90
    32897
280
     0
281
     0
  0
CLASS
  1
AEC_DISP_REP_SLICE
  2
AecDbDispRepSlice
  3
AecBase50|Product Desc: Autodesk Architectural Desktop 2007 |Company: Autodesk,Inc. |WEB Address: www.autodesk.com
 90
    32897
280
     0
281
     0
  0
CLASS
  1
AEC_DISP_REP_SPACE_BOUNDARY_MODEL
  2
AecDbDispRepSpaceBoundaryModel
  3
AecArchBase50|Product Desc: Autodesk Architectural Desktop 2007 |Company: Autodesk,Inc. |WEB Address: www.autodesk.com
 90
    32897
280
     0
281
     0
  0
CLASS
  1
AEC_DISP_REP_SPACE_BOUNDARY_PLAN
  2
AecDbDispRepSpaceBoundaryPlan
  3
AecArchBase50|Product Desc: Autodesk Architectural Desktop 2007 |Company: Autodesk,Inc. |WEB Address: www.autodesk.com
 90
    32897
280
     0
281
     0
  0
CLASS
  1
AEC_DISP_REP_SPACE_BOUNDARY_SCHEM
  2
AecDbDispRepSpaceBoundarySketch
  3
AecArchBase50|Product Desc: Autodesk Architectural Desktop 2007 |Company: Autodesk,Inc. |WEB Address: www.autodesk.com
 90
    32897
280
     0
281
     0
  0
CLASS
  1
AEC_DISP_REP_SPACE_MODEL
  2
AecDbDispRepSpaceModel
  3
AecArchBase50|Product Desc: Autodesk Architectural Desktop 2007 |Company: Autodesk,Inc. |WEB Address: www.autodesk.com
 90
    32897
280
     0
281
     0
  0
CLASS
  1
AEC_DISP_REP_SPACE_PLAN
  2
AecDbDispRepSpacePlan
  3
AecArchBase50|Product Desc: Autodesk Architectural Desktop 2007 |Company: Autodesk,Inc. |WEB Address: www.autodesk.com
 90
    32897
280
     0
281
     0
  0
CLASS
  1
AEC_DISP_REP_STAIR_MODEL
  2
AecDbDispRepStairModel
  3
AecArchBase50|Product Desc: Autodesk Architectural Desktop 2007 |Company: Autodesk,Inc. |WEB Address: www.autodesk.com
 90
    32897
280
     0
281
     0
  0
CLASS
  1
AEC_DISP_REP_STAIR_PLAN
  2
AecDbDispRepStairPlan
  3
AecArchBase50|Product Desc: Autodesk Architectural Desktop 2007 |Company: Autodesk,Inc. |WEB Address: www.autodesk.com
 90
    32897
280
     0
281
     0
  0
CLASS
  1
AEC_DISP_REP_WALL_GRAPH
  2
AecDbDispRepWallGraph
  3
AecArchBase50|Product Desc: Autodesk Architectural Desktop 2007 |Company: Autodesk,Inc. |WEB Address: www.autodesk.com
 90
    32897
280
     0
281
     0
  0
CLASS
  1
AEC_DISP_REP_WALL_MODEL
  2
AecDbDispRepWallModel
  3
AecArchBase50|Product Desc: Autodesk Architectural Desktop 2007 |Company: Autodesk,Inc. |WEB Address: www.autodesk.com
 90
    32897
280
     0
281
     0
  0
CLASS
  1
AEC_DISP_REP_WALL_PLAN
  2
AecDbDispRepWallPlan
  3
AecArchBase50|Product Desc: Autodesk Architectural Desktop 2007 |Company: Autodesk,Inc. |WEB Address: www.autodesk.com
 90
    32897
280
     0
281
     0
  0
CLASS
  1
AEC_DISP_REP_WALL_SCHEM
  2
AecDbDispRepWallSchem
  3
AecArchBase50|Product Desc: Autodesk Architectural Desktop 2007 |Company: Autodesk,Inc. |WEB Address: www.autodesk.com
 90
    32897
280
     0
281
     0
  0
CLASS
  1
AEC_DISP_REP_WINDOW_ASSEMBLY_MODEL
  2
AecDbDispRepWindowAssemblyModel
  3
AecArchBase50|Product Desc: Autodesk Architectural Desktop 2007 |Company: Autodesk,Inc. |WEB Address: www.autodesk.com
 90
    32897
280
     0
281
     0
  0
CLASS
  1
AEC_DISP_REP_WINDOW_ASSEMBLY_PLAN
  2
AecDbDispRepWindowAssemblyPlan
  3
AecArchBase50|Product Desc: Autodesk Architectural Desktop 2007 |Company: Autodesk,Inc. |WEB Address: www.autodesk.com
 90
    32897
280
     0
281
     0
  0
CLASS
  1
AEC_AECDBDISPREPWINDOWASSEMBLYPLAN100
  2
AecDbDispRepWindowAssemblyPlan100
  3
AecArchDACHBase50|Product Desc: Autodesk Architectural Desktop 2007 |Company: Autodesk,Inc. |WEB Address: www.autodesk.com
 90
    32897
280
     0
281
     0
  0
CLASS
  1
AEC_DISP_REP_WINDOW_MODEL
  2
AecDbDispRepWindowModel
  3
AecArchBase50|Product Desc: Autodesk Architectural Desktop 2007 |Company: Autodesk,Inc. |WEB Address: www.autodesk.com
 90
    32897
280
     0
281
     0
  0
CLASS
  1
AEC_DISP_REP_WINDOW_NOMINAL
  2
AecDbDispRepWindowNominal
  3
AecArchBase50|Product Desc: Autodesk Architectural Desktop 2007 |Company: Autodesk,Inc. |WEB Address: www.autodesk.com
 90
    32897
280
     0
281
     0
  0
CLASS
  1
AEC_DISP_REP_WINDOW_PLAN
  2
AecDbDispRepWindowPlan
  3
AecArchBase50|Product Desc: Autodesk Architectural Desktop 2007 |Company: Autodesk,Inc. |WEB Address: www.autodesk.com
 90
    32897
280
     0
281
     0
  0
CLASS
  1
AECS_DISP_REP_MEMBER_LOGICAL
  2
AecsDbDispRepMemberLogical
  3
AecStructureBase50|Product Desc: Autodesk Architectural Desktop 2007 |Company: Autodesk,Inc. |WEB Address: www.autodesk.com
 90
    32897
280
     0
281
     0
  0
CLASS
  1
AECS_DISP_REP_MEMBER_MODEL_DESIGN
  2
AecsDbDispRepMemberModelDesign
  3
AecStructureBase50|Product Desc: Autodesk Architectural Desktop 2007 |Company: Autodesk,Inc. |WEB Address: www.autodesk.com
 90
    32897
280
     0
281
     0
  0
CLASS
  1
AECS_DISP_REP_MEMBER_PLAN_DESIGN
  2
AecsDbDispRepMemberPlanDesign
  3
AecStructureBase50|Product Desc: Autodesk Architectural Desktop 2007 |Company: Autodesk,Inc. |WEB Address: www.autodesk.com
 90
    32897
280
     0
281
     0
  0
CLASS
  1
AEC_DISP_PROPS_ENT
  2
AecDbDispPropsEnt
  3
AecBase50|Product Desc: Autodesk Architectural Desktop 2007 |Company: Autodesk,Inc. |WEB Address: www.autodesk.com
 90
    32897
280
     0
281
     0
  0
CLASS
  1
AEC_DISP_PROPS_CLIP_VOLUME
  2
AecDbDispPropsClipVol
  3
AecBase50|Product Desc: Autodesk Architectural Desktop 2007 |Company: Autodesk,Inc. |WEB Address: www.autodesk.com
 90
    32897
280
     0
281
     0
  0
CLASS
  1
AEC_DISP_PROPS_SLICE
  2
AecDbDispPropsSlice
  3
AecBase50|Product Desc: Autodesk Architectural Desktop 2007 |Company: Autodesk,Inc. |WEB Address: www.autodesk.com
 90
    32897
280
     0
281
     0
  0
CLASS
  1
AEC_DISP_PROPS_ROOFSLAB_PLAN
  2
AecDbDispPropsRoofSlabPlan
  3
AecArchBase50|Product Desc: Autodesk Architectural Desktop 2007 |Company: Autodesk,Inc. |WEB Address: www.autodesk.com
 90
    32897
280
     0
281
     0
  0
CLASS
  1
AEC_DISP_PROPS_GRID_ASSEMBLY_MODEL
  2
AecDbDispPropsGridAssemblyModel
  3
AecArchBase50|Product Desc: Autodesk Architectural Desktop 2007 |Company: Autodesk,Inc. |WEB Address: www.autodesk.com
 90
    32897
280
     0
281
     0
  0
CLASS
  1
AEC_DISP_PROPS_ROOF
  2
AecDbDispPropsRoof
  3
AecArchBase50|Product Desc: Autodesk Architectural Desktop 2007 |Company: Autodesk,Inc. |WEB Address: www.autodesk.com
 90
    32897
280
     0
281
     0
  0
CLASS
  1
AEC_DISP_PROPS_SPACE_MODEL
  2
AecDbDispPropsSpaceModel
  3
AecArchBase50|Product Desc: Autodesk Architectural Desktop 2007 |Company: Autodesk,Inc. |WEB Address: www.autodesk.com
 90
    32897
280
     0
281
     0
  0
CLASS
  1
AEC_DISP_PROPS_EDITINPLACEPROFILE_MODEL
  2
AecDbDispPropsEditInPlaceProfile
  3
AecBase50|Product Desc: Autodesk Architectural Desktop 2007 |Company: Autodesk,Inc. |WEB Address: www.autodesk.com
 90
    32897
280
     0
281
     0
  0
CLASS
  1
AEC_DISP_PROPS_DOOR
  2
AecDbDispPropsDoor
  3
AecArchBase50|Product Desc: Autodesk Architectural Desktop 2007 |Company: Autodesk,Inc. |WEB Address: www.autodesk.com
 90
    32897
280
     0
281
     0
  0
CLASS
  1
AEC_DISP_PROPS_MASKBLOCK
  2
AecDbDispPropsMaskBlock
  3
AecBase50|Product Desc: Autodesk Architectural Desktop 2007 |Company: Autodesk,Inc. |WEB Address: www.autodesk.com
 90
    32897
280
     0
281
     0
  0
CLASS
  1
AEC_DISP_PROPS_SPACE_PLAN
  2
AecDbDispPropsSpacePlan
  3
AecArchBase50|Product Desc: Autodesk Architectural Desktop 2007 |Company: Autodesk,Inc. |WEB Address: www.autodesk.com
 90
    32897
280
     0
281
     0
  0
CLASS
  1
AEC_DISP_PROPS_RAILING_PLAN
  2
AecDbDispPropsRailingPlan
  3
AecArchBase50|Product Desc: Autodesk Architectural Desktop 2007 |Company: Autodesk,Inc. |WEB Address: www.autodesk.com
 90
    32897
280
     0
281
     0
  0
CLASS
  1
AEC_DISP_PROPS_LAYOUT_GRID2D
  2
AecDbDispPropsLayoutGrid2d
  3
AecBase50|Product Desc: Autodesk Architectural Desktop 2007 |Company: Autodesk,Inc. |WEB Address: www.autodesk.com
 90
    32897
280
     0
281
     0
  0
CLASS
  1
AEC_DISP_PROPS_CLIP_VOLUME_RESULT
  2
AecDbDispPropsClipVolResSubDiv
  3
AecBase50|Product Desc: Autodesk Architectural Desktop 2007 |Company: Autodesk,Inc. |WEB Address: www.autodesk.com
 90
    32897
280
     0
281
     0
  0
CLASS
  1
AEC_DISP_PROPS_STAIR_MODEL
  2
AecDbDispPropsStairModel
  3
AecArchBase50|Product Desc: Autodesk Architectural Desktop 2007 |Company: Autodesk,Inc. |WEB Address: www.autodesk.com
 90
    32897
280
     0
281
     0
  0
CLASS
  1
AEC_DISP_PROPS_LAYOUT_CURVE
  2
AecDbDispPropsLayoutCurve
  3
AecBase50|Product Desc: Autodesk Architectural Desktop 2007 |Company: Autodesk,Inc. |WEB Address: www.autodesk.com
 90
    32897
280
     0
281
     0
  0
CLASS
  1
AEC_DISP_PROPS_POLYGON_MODEL
  2
AecDbDispPropsPolygonModel
  3
AecBase50|Product Desc: Autodesk Architectural Desktop 2007 |Company: Autodesk,Inc. |WEB Address: www.autodesk.com
 90
    32897
280
     0
281
     0
  0
CLASS
  1
AEC_DISP_PROPS_MASS_GROUP
  2
AecDbDispPropsMassGroup
  3
AecBaseEx50|Product Desc: Autodesk Architectural Desktop 2007 |Company: Autodesk,Inc. |WEB Address: www.autodesk.com
 90
    32897
280
     0
281
     0
  0
CLASS
  1
AEC_DISP_PROPS_STAIR_PLAN
  2
AecDbDispPropsStairPlan
  3
AecArchBase50|Product Desc: Autodesk Architectural Desktop 2007 |Company: Autodesk,Inc. |WEB Address: www.autodesk.com
 90
    32897
280
     0
281
     0
  0
CLASS
  1
AEC_DISP_PROPS_OPENING
  2
AecDbDispPropsOpening
  3
AecArchBase50|Product Desc: Autodesk Architectural Desktop 2007 |Company: Autodesk,Inc. |WEB Address: www.autodesk.com
 90
    32897
280
     0
281
     0
  0
CLASS
  1
AEC_DISP_PROPS_WALL_GRAPH
  2
AecDbDispPropsWallGraph
  3
AecArchBase50|Product Desc: Autodesk Architectural Desktop 2007 |Company: Autodesk,Inc. |WEB Address: www.autodesk.com
 90
    32897
280
     0
281
     0
  0
CLASS
  1
AEC_DISP_PROPS_DOOR_NOMINAL
  2
AecDbDispPropsDoorNominal
  3
AecArchBase50|Product Desc: Autodesk Architectural Desktop 2007 |Company: Autodesk,Inc. |WEB Address: www.autodesk.com
 90
    32897
280
     0
281
     0
  0
CLASS
  1
AEC_DISP_PROPS_SLAB
  2
AecDbDispPropsSlab
  3
AecArchBase50|Product Desc: Autodesk Architectural Desktop 2007 |Company: Autodesk,Inc. |WEB Address: www.autodesk.com
 90
    32897
280
     0
281
     0
  0
CLASS
  1
AEC_DISP_PROPS_WALL_MODEL
  2
AecDbDispPropsWallModel
  3
AecArchBase50|Product Desc: Autodesk Architectural Desktop 2007 |Company: Autodesk,Inc. |WEB Address: www.autodesk.com
 90
    32897
280
     0
281
     0
  0
CLASS
  1
AEC_DISP_PROPS_MATERIAL
  2
AecDbDispPropsMaterial
  3
AecBase50|Product Desc: Autodesk Architectural Desktop 2007 |Company: Autodesk,Inc. |WEB Address: www.autodesk.com
 90
    32897
280
     0
281
     0
  0
CLASS
  1
AEC_DISP_PROPS_WINDOW
  2
AecDbDispPropsWindow
  3
AecArchBase50|Product Desc: Autodesk Architectural Desktop 2007 |Company: Autodesk,Inc. |WEB Address: www.autodesk.com
 90
    32897
280
     0
281
     0
  0
CLASS
  1
AEC_DISP_PROPS_LAYOUT_GRID3D
  2
AecDbDispPropsLayoutGrid3d
  3
AecBase50|Product Desc: Autodesk Architectural Desktop 2007 |Company: Autodesk,Inc. |WEB Address: www.autodesk.com
 90
    32897
280
     0
281
     0
  0
CLASS
  1
AEC_DISP_PROPS_GRID_ASSEMBLY_PLAN
  2
AecDbDispPropsGridAssemblyPlan
  3
AecArchBase50|Product Desc: Autodesk Architectural Desktop 2007 |Company: Autodesk,Inc. |WEB Address: www.autodesk.com
 90
    32897
280
     0
281
     0
  0
CLASS
  1
AEC_DISP_PROPS_WALL_SCHEM
  2
AecDbDispPropsWallSchem
  3
AecArchBase50|Product Desc: Autodesk Architectural Desktop 2007 |Company: Autodesk,Inc. |WEB Address: www.autodesk.com
 90
    32897
280
     0
281
     0
  0
CLASS
  1
AEC_DISP_PROPS_WALL_PLAN
  2
AecDbDispPropsWallPlan
  3
AecArchBase50|Product Desc: Autodesk Architectural Desktop 2007 |Company: Autodesk,Inc. |WEB Address: www.autodesk.com
 90
    32897
280
     0
281
     0
  0
CLASS
  1
AEC_DISP_PROPS_SPACE_BOUNDARY
  2
AecDbDispPropsSpaceBoundary
  3
AecArchBase50|Product Desc: Autodesk Architectural Desktop 2007 |Company: Autodesk,Inc. |WEB Address: www.autodesk.com
 90
    32897
280
     0
281
     0
  0
CLASS
  1
AEC_DISP_PROPS_SLAB_PLAN
  2
AecDbDispPropsSlabPlan
  3
AecArchBase50|Product Desc: Autodesk Architectural Desktop 2007 |Company: Autodesk,Inc. |WEB Address: www.autodesk.com
 90
    32897
280
     0
281
     0
  0
CLASS
  1
AEC_DISP_PROPS_RAILING_MODEL
  2
AecDbDispPropsRailingModel
  3
AecArchBase50|Product Desc: Autodesk Architectural Desktop 2007 |Company: Autodesk,Inc. |WEB Address: www.autodesk.com
 90
    32897
280
     0
281
     0
  0
CLASS
  1
AEC_DISP_PROPS_MASS_ELEM_MODEL
  2
AecDbDispPropsMassElem
  3
AecBaseEx50|Product Desc: Autodesk Architectural Desktop 2007 |Company: Autodesk,Inc. |WEB Address: www.autodesk.com
 90
    32897
280
     0
281
     0
  0
CLASS
  1
AEC_DISP_PROPS_DIM
  2
AecDbDispPropsDimGroup
  3
AecArchDACHBase50|Product Desc: Autodesk Architectural Desktop 2007 |Company: Autodesk,Inc. |WEB Address: www.autodesk.com
 90
    32897
280
     0
281
     0
  0
CLASS
  1
AEC_DISP_PROPS_ROOFSLAB
  2
AecDbDispPropsRoofSlab
  3
AecArchBase50|Product Desc: Autodesk Architectural Desktop 2007 |Company: Autodesk,Inc. |WEB Address: www.autodesk.com
 90
    32897
280
     0
281
     0
  0
CLASS
  1
AEC_DISP_PROPS_ENT_REF
  2
AecDbDispPropsEntRef
  3
AecBase50|Product Desc: Autodesk Architectural Desktop 2007 |Company: Autodesk,Inc. |WEB Address: www.autodesk.com
 90
    32897
280
     0
281
     0
  0
CLASS
  1
AEC_DISP_PROPS_2D_SECTION
  2
AecDbDispProps2dSection
  3
AecBase50|Product Desc: Autodesk Architectural Desktop 2007 |Company: Autodesk,Inc. |WEB Address: www.autodesk.com
 90
    32897
280
     0
281
     0
  0
CLASS
  1
AECS_DISP_PROPS_MEMBER_LOGICAL
  2
AecsDbDispPropsMemberLogical
  3
AecStructureBase50|Product Desc: Autodesk Architectural Desktop 2007 |Company: Autodesk,Inc. |WEB Address: www.autodesk.com
 90
    32897
280
     0
281
     0
  0
CLASS
  1
AEC_DISP_PROPS_AREA_DECOMPOSED
  2
AecDbDispPropsAreaDecomposed
  3
AecAreaCalculationBase50|Product Desc: Autodesk Architectural Desktop 2007 |Company: Autodesk,Inc. |WEB Address: www.autodesk.com
 90
    32897
280
     0
281
     0
  0
CLASS
  1
AEC_DISP_PROPS_CAMERA
  2
AecDbDispPropsCamera
  3
AecBase50|Product Desc: Autodesk Architectural Desktop 2007 |Company: Autodesk,Inc. |WEB Address: www.autodesk.com
 90
    32897
280
     0
281
     0
  0
CLASS
  1
AECS_DISP_PROPS_MEMBER
  2
AecsDbDispPropsMember
  3
AecStructureBase50|Product Desc: Autodesk Architectural Desktop 2007 |Company: Autodesk,Inc. |WEB Address: www.autodesk.com
 90
    32897
280
     0
281
     0
  0
CLASS
  1
AECS_DISP_PROPS_MEMBER_PLAN
  2
AecsDbDispPropsMemberPlan
  3
AecStructureBase50|Product Desc: Autodesk Architectural Desktop 2007 |Company: Autodesk,Inc. |WEB Address: www.autodesk.com
 90
    32897
280
     0
281
     0
  0
CLASS
  1
AEC_DISP_PROPS_AREAGROUP
  2
AecDbDispPropsAreaGroup
  3
AecAreaCalculationBase50|Product Desc: Autodesk Architectural Desktop 2007 |Company: Autodesk,Inc. |WEB Address: www.autodesk.com
 90
    32897
280
     0
281
     0
  0
CLASS
  1
AEC_DISP_PROPS_WINDOW_NOMINAL
  2
AecDbDispPropsWindowNominal
  3
AecArchBase50|Product Desc: Autodesk Architectural Desktop 2007 |Company: Autodesk,Inc. |WEB Address: www.autodesk.com
 90
    32897
280
     0
281
     0
  0
CLASS
  1
AEC_DISP_PROPS_AREA
  2
AecDbDispPropsArea
  3
AecAreaCalculationBase50|Product Desc: Autodesk Architectural Desktop 2007 |Company: Autodesk,Inc. |WEB Address: www.autodesk.com
 90
    32897
280
     0
281
     0
  0
CLASS
  1
AEC_DISP_PROPS_SCHEDULE_TABLE
  2
AecDbDispPropsScheduleTable
  3
AecSchedule50|Product Desc: Autodesk Architectural Desktop 2007 |Company: Autodesk,Inc. |WEB Address: www.autodesk.com
 90
    32897
280
     0
281
     0
  0
CLASS
  1
AEC_LAYERKEY_STYLE
  2
AecDbLayerKeyStyle
  3
AecBase50|Product Desc: Autodesk Architectural Desktop 2007 |Company: Autodesk,Inc. |WEB Address: www.autodesk.com
 90
    32897
280
     0
281
     0
  0
CLASS
  1
AEC_VARS_ARCHBASE
  2
AecDbVarsArchBase
  3
AecArchBase50|Product Desc: Autodesk Architectural Desktop 2007 |Company: Autodesk,Inc. |WEB Address: www.autodesk.com
 90
    32897
280
     0
281
     0
  0
CLASS
  1
AEC_VARS_MUNICH
  2
AecDbVarsMunich
  3
AecArchDACHBase50|Product Desc: Autodesk Architectural Desktop 2007 |Company: Autodesk,Inc. |WEB Address: www.autodesk.com
 90
    32897
280
     0
281
     0
  0
CLASS
  1
AEC_NOTIFICATION_TRACKER
  2
AecDbNotificationTracker
  3
AecBase50|Product Desc: Autodesk Architectural Desktop 2007 |Company: Autodesk,Inc. |WEB Address: www.autodesk.com
 90
    32897
280
     0
281
     0
  0
CLASS
  1
AEC_DISP_REP_ANCHOR
  2
AecDbDispRepAnchor
  3
AecBase50|Product Desc: Autodesk Architectural Desktop 2007 |Company: Autodesk,Inc. |WEB Address: www.autodesk.com
 90
    32897
280
     0
281
     0
  0
CLASS
  1
AEC_DISP_REP_POLYGON_TRUECOLOUR
  2
AecDbDispRepPolygonTrueColour
  3
AecBase50|Product Desc: Autodesk Architectural Desktop 2007 |Company: Autodesk,Inc. |WEB Address: www.autodesk.com
 90
    32897
280
     0
281
     0
  0
CLASS
  1
AEC_DISP_PROPS_POLYGON_TRUECOLOUR
  2
AecDbDispPropsPolygonTrueColour
  3
AecBase50|Product Desc: Autodesk Architectural Desktop 2007 |Company: Autodesk,Inc. |WEB Address: www.autodesk.com
 90
    32897
280
     0
281
     0
  0
CLASS
  1
AEC_DISP_REP_BDG_ELEVLINE_RCP
  2
AecDbDispRepBdgElevLineRcp
  3
AecArchBase50|Product Desc: Autodesk Architectural Desktop 2007 |Company: Autodesk,Inc. |WEB Address: www.autodesk.com
 90
    32897
280
     0
281
     0
  0
CLASS
  1
AEC_DISP_REP_BDG_SECTIONLINE_RCP
  2
AecDbDispRepBdgSectionLineRcp
  3
AecArchBase50|Product Desc: Autodesk Architectural Desktop 2007 |Company: Autodesk,Inc. |WEB Address: www.autodesk.com
 90
    32897
280
     0
281
     0
  0
CLASS
  1
AEC_DISP_REP_BDG_SECTION_MODEL
  2
AecDbDispRepBdgSectionModel
  3
AecArchBase50|Product Desc: Autodesk Architectural Desktop 2007 |Company: Autodesk,Inc. |WEB Address: www.autodesk.com
 90
    32897
280
     0
281
     0
  0
CLASS
  1
AEC_DISP_REP_DOOR_ELEV
  2
AecDbDispRepDoorElev
  3
AecArchBase50|Product Desc: Autodesk Architectural Desktop 2007 |Company: Autodesk,Inc. |WEB Address: www.autodesk.com
 90
    32897
280
     0
281
     0
  0
CLASS
  1
AEC_DISP_REP_DOOR_RCP
  2
AecDbDispRepDoorRcp
  3
AecArchBase50|Product Desc: Autodesk Architectural Desktop 2007 |Company: Autodesk,Inc. |WEB Address: www.autodesk.com
 90
    32897
280
     0
281
     0
  0
CLASS
  1
AEC_DISP_REP_DOOR_THRESHOLD_PLAN
  2
AecDbDispRepDoorThresholdPlan
  3
AecArchBase50|Product Desc: Autodesk Architectural Desktop 2007 |Company: Autodesk,Inc. |WEB Address: www.autodesk.com
 90
    32897
280
     0
281
     0
  0
CLASS
  1
AEC_DISP_PROPS_DOOR_THRESHOLD_PLAN
  2
AecDbDispPropsDoorThresholdPlan
  3
AecArchBase50|Product Desc: Autodesk Architectural Desktop 2007 |Company: Autodesk,Inc. |WEB Address: www.autodesk.com
 90
    32897
280
     0
281
     0
  0
CLASS
  1
AEC_DISP_REP_MASS_ELEM_RCP
  2
AecDbDispRepMassElemRcp
  3
AecArchBase50|Product Desc: Autodesk Architectural Desktop 2007 |Company: Autodesk,Inc. |WEB Address: www.autodesk.com
 90
    32897
280
     0
281
     0
  0
CLASS
  1
AEC_DISP_REP_MASS_GROUP_RCP
  2
AecDbDispRepMassGroupRcp
  3
AecArchBase50|Product Desc: Autodesk Architectural Desktop 2007 |Company: Autodesk,Inc. |WEB Address: www.autodesk.com
 90
    32897
280
     0
281
     0
  0
CLASS
  1
AEC_DISP_REP_MVBLOCK_REF_RCP
  2
AecDbDispRepMvBlockRefRcp
  3
AecArchBase50|Product Desc: Autodesk Architectural Desktop 2007 |Company: Autodesk,Inc. |WEB Address: www.autodesk.com
 90
    32897
280
     0
281
     0
  0
CLASS
  1
AEC_DISP_REP_ROOF_RCP
  2
AecDbDispRepRoofRcp
  3
AecArchBase50|Product Desc: Autodesk Architectural Desktop 2007 |Company: Autodesk,Inc. |WEB Address: www.autodesk.com
 90
    32897
280
     0
281
     0
  0
CLASS
  1
AEC_DISP_REP_SPACE_BOUNDARY_DIAGRAM
  2
AecDbDispRepSpaceBoundaryDgrm
  3
AecArchBase50|Product Desc: Autodesk Architectural Desktop 2007 |Company: Autodesk,Inc. |WEB Address: www.autodesk.com
 90
    32897
280
     0
281
     0
  0
CLASS
  1
AEC_DISP_REP_SPACE_RCP
  2
AecDbDispRepSpaceRcp
  3
AecArchBase50|Product Desc: Autodesk Architectural Desktop 2007 |Company: Autodesk,Inc. |WEB Address: www.autodesk.com
 90
    32897
280
     0
281
     0
  0
CLASS
  1
AEC_DISP_REP_SPACE_VOLUME
  2
AecDbDispRepSpaceVolume
  3
AecArchBase50|Product Desc: Autodesk Architectural Desktop 2007 |Company: Autodesk,Inc. |WEB Address: www.autodesk.com
 90
    32897
280
     0
281
     0
  0
CLASS
  1
AEC_DISP_REP_STAIR_PLAN_OVERLAPPING
  2
AecDbDispRepStairPlanOverlapping
  3
AecArchBase50|Product Desc: Autodesk Architectural Desktop 2007 |Company: Autodesk,Inc. |WEB Address: www.autodesk.com
 90
    32897
280
     0
281
     0
  0
CLASS
  1
AEC_DISP_PROPS_STAIR_PLAN_OVERLAPPING
  2
AecDbDispPropsStairPlanOverlapping
  3
AecArchBase50|Product Desc: Autodesk Architectural Desktop 2007 |Company: Autodesk,Inc. |WEB Address: www.autodesk.com
 90
    32897
280
     0
281
     0
  0
CLASS
  1
AEC_DISP_REP_STAIR_RCP
  2
AecDbDispRepStairRcp
  3
AecArchBase50|Product Desc: Autodesk Architectural Desktop 2007 |Company: Autodesk,Inc. |WEB Address: www.autodesk.com
 90
    32897
280
     0
281
     0
  0
CLASS
  1
AEC_DISP_REP_WALL_RCP
  2
AecDbDispRepWallRcp
  3
AecArchBase50|Product Desc: Autodesk Architectural Desktop 2007 |Company: Autodesk,Inc. |WEB Address: www.autodesk.com
 90
    32897
280
     0
281
     0
  0
CLASS
  1
AEC_DISP_REP_WINDOWASSEMBLY_SILL_PLAN
  2
AecDbDispRepWindowAssemblySillPlan
  3
AecArchBase50|Product Desc: Autodesk Architectural Desktop 2007 |Company: Autodesk,Inc. |WEB Address: www.autodesk.com
 90
    32897
280
     0
281
     0
  0
CLASS
  1
AEC_DISP_PROPS_WINDOW_ASSEMBLY_SILL_PLAN
  2
AecDbDispPropsWindowAssemblySillPlan
  3
AecArchBase50|Product Desc: Autodesk Architectural Desktop 2007 |Company: Autodesk,Inc. |WEB Address: www.autodesk.com
 90
    32897
280
     0
281
     0
  0
CLASS
  1
AEC_DISP_REP_WINDOW_ELEV
  2
AecDbDispRepWindowElev
  3
AecArchBase50|Product Desc: Autodesk Architectural Desktop 2007 |Company: Autodesk,Inc. |WEB Address: www.autodesk.com
 90
    32897
280
     0
281
     0
  0
CLASS
  1
AEC_DISP_REP_WINDOW_RCP
  2
AecDbDispRepWindowRcp
  3
AecArchBase50|Product Desc: Autodesk Architectural Desktop 2007 |Company: Autodesk,Inc. |WEB Address: www.autodesk.com
 90
    32897
280
     0
281
     0
  0
CLASS
  1
AEC_DISP_REP_WINDOW_SILL_PLAN
  2
AecDbDispRepWindowSillPlan
  3
AecArchBase50|Product Desc: Autodesk Architectural Desktop 2007 |Company: Autodesk,Inc. |WEB Address: www.autodesk.com
 90
    32897
280
     0
281
     0
  0
CLASS
  1
AEC_DISP_PROPS_WINDOW_SILL_PLAN
  2
AecDbDispPropsWindowSillPlan
  3
AecArchBase50|Product Desc: Autodesk Architectural Desktop 2007 |Company: Autodesk,Inc. |WEB Address: www.autodesk.com
 90
    32897
280
     0
281
     0
  0
CLASS
  1
AEC_DISP_REP_ANCHOR_BUB_TO_GRID_RCP
  2
AecDbDispRepAnchorBubToGridRcp
  3
AecStructureBase50|Product Desc: Autodesk Architectural Desktop 2007 |Company: Autodesk,Inc. |WEB Address: www.autodesk.com
 90
    32897
280
     0
281
     0
  0
CLASS
  1
AEC_DISP_REP_COLUMN_GRID_RCP
  2
AecDbDispRepColumnGridRcp
  3
AecStructureBase50|Product Desc: Autodesk Architectural Desktop 2007 |Company: Autodesk,Inc. |WEB Address: www.autodesk.com
 90
    32897
280
     0
281
     0
  0
CLASS
  1
AECS_DISP_REP_MEMBER_ELEVATION_DESIGN
  2
AecsDbDispRepMemberElevationDesign
  3
AecStructureBase50|Product Desc: Autodesk Architectural Desktop 2007 |Company: Autodesk,Inc. |WEB Address: www.autodesk.com
 90
    32897
280
     0
281
     0
  0
CLASS
  1
AECS_DISP_PROPS_MEMBER_PROJECTED
  2
AecsDbDispPropsMemberProjected
  3
AecStructureBase50|Product Desc: Autodesk Architectural Desktop 2007 |Company: Autodesk,Inc. |WEB Address: www.autodesk.com
 90
    32897
280
     0
281
     0
  0
CLASS
  1
AECS_DISP_REP_MEMBER_ELEVATION_DETAIL
  2
AecsDbDispRepMemberElevationDetail
  3
AecStructureBase50|Product Desc: Autodesk Architectural Desktop 2007 |Company: Autodesk,Inc. |WEB Address: www.autodesk.com
 90
    32897
280
     0
281
     0
  0
CLASS
  1
AECS_DISP_REP_MEMBER_MODEL_DETAIL
  2
AecsDbDispRepMemberModelDetail
  3
AecStructureBase50|Product Desc: Autodesk Architectural Desktop 2007 |Company: Autodesk,Inc. |WEB Address: www.autodesk.com
 90
    32897
280
     0
281
     0
  0
CLASS
  1
AECS_DISP_REP_MEMBER_PLAN_DETAIL
  2
AecsDbDispRepMemberPlanDetail
  3
AecStructureBase50|Product Desc: Autodesk Architectural Desktop 2007 |Company: Autodesk,Inc. |WEB Address: www.autodesk.com
 90
    32897
280
     0
281
     0
  0
CLASS
  1
AECS_DISP_REP_MEMBER_PLAN_SKETCH
  2
AecsDbDispRepMemberPlanSketch
  3
AecStructureBase50|Product Desc: Autodesk Architectural Desktop 2007 |Company: Autodesk,Inc. |WEB Address: www.autodesk.com
 90
    32897
280
     0
281
     0
  0
CLASS
  1
AECS_DISP_PROPS_MEMBER_PLAN_SKETCH
  2
AecsDbDispPropsMemberPlanSketch
  3
AecStructureBase50|Product Desc: Autodesk Architectural Desktop 2007 |Company: Autodesk,Inc. |WEB Address: www.autodesk.com
 90
    32897
280
     0
281
     0
  0
CLASS
  1
AEC_AECDBDISPREPAREA100
  2
AecDbDispRepArea100
  3
AecArchDACHBase50|Product Desc: Autodesk Architectural Desktop 2007 |Company: Autodesk,Inc. |WEB Address: www.autodesk.com
 90
    32897
280
     0
281
     0
  0
CLASS
  1
AEC_AECDBDISPREPAREAGROUP100
  2
AecDbDispRepAreaGroup100
  3
AecArchDACHBase50|Product Desc: Autodesk Architectural Desktop 2007 |Company: Autodesk,Inc. |WEB Address: www.autodesk.com
 90
    32897
280
     0
281
     0
  0
CLASS
  1
AEC_AECDBDISPREPBDGELEVLINEPLAN100
  2
AecDbDispRepBdgElevLinePlan100
  3
AecArchDACHBase50|Product Desc: Autodesk Architectural Desktop 2007 |Company: Autodesk,Inc. |WEB Address: www.autodesk.com
 90
    32897
280
     0
281
     0
  0
CLASS
  1
AEC_AECDBDISPREPBDGSECTIONLINEPLAN100
  2
AecDbDispRepBdgSectionLinePlan100
  3
AecArchDACHBase50|Product Desc: Autodesk Architectural Desktop 2007 |Company: Autodesk,Inc. |WEB Address: www.autodesk.com
 90
    32897
280
     0
281
     0
  0
CLASS
  1
AEC_AECDBDISPREPCEILINGGRIDPLAN100
  2
AecDbDispRepCeilingGridPlan100
  3
AecArchDACHBase50|Product Desc: Autodesk Architectural Desktop 2007 |Company: Autodesk,Inc. |WEB Address: www.autodesk.com
 90
    32897
280
     0
281
     0
  0
CLASS
  1
AEC_AECDBDISPREPCOLUMNGRIDPLAN100
  2
AecDbDispRepColumnGridPlan100
  3
AecArchDACHBase50|Product Desc: Autodesk Architectural Desktop 2007 |Company: Autodesk,Inc. |WEB Address: www.autodesk.com
 90
    32897
280
     0
281
     0
  0
CLASS
  1
AEC_AECDBDISPREPCURTAINWALLLAYOUTPLAN100
  2
AecDbDispRepCurtainWallLayoutPlan100
  3
AecArchDACHBase50|Product Desc: Autodesk Architectural Desktop 2007 |Company: Autodesk,Inc. |WEB Address: www.autodesk.com
 90
    32897
280
     0
281
     0
  0
CLASS
  1
AEC_AECDBDISPREPCURTAINWALLUNITPLAN100
  2
AecDbDispRepCurtainWallUnitPlan100
  3
AecArchDACHBase50|Product Desc: Autodesk Architectural Desktop 2007 |Company: Autodesk,Inc. |WEB Address: www.autodesk.com
 90
    32897
280
     0
281
     0
  0
CLASS
  1
AEC_AECDBDISPREPMVBLOCKREFPLAN100
  2
AecDbDispRepMvBlockRefPlan100
  3
AecArchDACHBase50|Product Desc: Autodesk Architectural Desktop 2007 |Company: Autodesk,Inc. |WEB Address: www.autodesk.com
 90
    32897
280
     0
281
     0
  0
CLASS
  1
AEC_AECDBDISPREPROOFPLAN100
  2
AecDbDispRepRoofPlan100
  3
AecArchDACHBase50|Product Desc: Autodesk Architectural Desktop 2007 |Company: Autodesk,Inc. |WEB Address: www.autodesk.com
 90
    32897
280
     0
281
     0
  0
CLASS
  1
AEC_AECDBDISPREPROOFSLABPLAN100
  2
AecDbDispRepRoofSlabPlan100
  3
AecArchDACHBase50|Product Desc: Autodesk Architectural Desktop 2007 |Company: Autodesk,Inc. |WEB Address: www.autodesk.com
 90
    32897
280
     0
281
     0
  0
CLASS
  1
AEC_AECDBDISPREPSLABPLAN100
  2
AecDbDispRepSlabPlan100
  3
AecArchDACHBase50|Product Desc: Autodesk Architectural Desktop 2007 |Company: Autodesk,Inc. |WEB Address: www.autodesk.com
 90
    32897
280
     0
281
     0
  0
CLASS
  1
AEC_AECDBDISPREPSPACEBOUNDARYPLAN100
  2
AecDbDispRepSpaceBoundaryPlan100
  3
AecArchDACHBase50|Product Desc: Autodesk Architectural Desktop 2007 |Company: Autodesk,Inc. |WEB Address: www.autodesk.com
 90
    32897
280
     0
281
     0
  0
CLASS
  1
AEC_AECDBDISPREPSPACEPLAN100
  2
AecDbDispRepSpacePlan100
  3
AecArchDACHBase50|Product Desc: Autodesk Architectural Desktop 2007 |Company: Autodesk,Inc. |WEB Address: www.autodesk.com
 90
    32897
280
     0
281
     0
  0
CLASS
  1
AEC_AECDBDISPREPWALLPLAN100
  2
AecDbDispRepWallPlan100
  3
AecArchDACHBase50|Product Desc: Autodesk Architectural Desktop 2007 |Company: Autodesk,Inc. |WEB Address: www.autodesk.com
 90
    32897
280
     0
281
     0
  0
CLASS
  1
AEC_AECDBDISPREPAREA50
  2
AecDbDispRepArea50
  3
AecArchDACHBase50|Product Desc: Autodesk Architectural Desktop 2007 |Company: Autodesk,Inc. |WEB Address: www.autodesk.com
 90
    32897
280
     0
281
     0
  0
CLASS
  1
AEC_AECDBDISPREPAREAGROUP50
  2
AecDbDispRepAreaGroup50
  3
AecArchDACHBase50|Product Desc: Autodesk Architectural Desktop 2007 |Company: Autodesk,Inc. |WEB Address: www.autodesk.com
 90
    32897
280
     0
281
     0
  0
CLASS
  1
AEC_AECDBDISPREPBDGELEVLINEPLAN50
  2
AecDbDispRepBdgElevLinePlan50
  3
AecArchDACHBase50|Product Desc: Autodesk Architectural Desktop 2007 |Company: Autodesk,Inc. |WEB Address: www.autodesk.com
 90
    32897
280
     0
281
     0
  0
CLASS
  1
AEC_AECDBDISPREPBDGSECTIONLINEPLAN50
  2
AecDbDispRepBdgSectionLinePlan50
  3
AecArchDACHBase50|Product Desc: Autodesk Architectural Desktop 2007 |Company: Autodesk,Inc. |WEB Address: www.autodesk.com
 90
    32897
280
     0
281
     0
  0
CLASS
  1
AEC_AECDBDISPREPCEILINGGRIDPLAN50
  2
AecDbDispRepCeilingGridPlan50
  3
AecArchDACHBase50|Product Desc: Autodesk Architectural Desktop 2007 |Company: Autodesk,Inc. |WEB Address: www.autodesk.com
 90
    32897
280
     0
281
     0
  0
CLASS
  1
AEC_AECDBDISPREPCOLUMNGRIDPLAN50
  2
AecDbDispRepColumnGridPlan50
  3
AecArchDACHBase50|Product Desc: Autodesk Architectural Desktop 2007 |Company: Autodesk,Inc. |WEB Address: www.autodesk.com
 90
    32897
280
     0
281
     0
  0
CLASS
  1
AEC_AECDBDISPREPCURTAINWALLLAYOUTPLAN50
  2
AecDbDispRepCurtainWallLayoutPlan50
  3
AecArchDACHBase50|Product Desc: Autodesk Architectural Desktop 2007 |Company: Autodesk,Inc. |WEB Address: www.autodesk.com
 90
    32897
280
     0
281
     0
  0
CLASS
  1
AEC_AECDBDISPREPCURTAINWALLUNITPLAN50
  2
AecDbDispRepCurtainWallUnitPlan50
  3
AecArchDACHBase50|Product Desc: Autodesk Architectural Desktop 2007 |Company: Autodesk,Inc. |WEB Address: www.autodesk.com
 90
    32897
280
     0
281
     0
  0
CLASS
  1
AEC_AECDBDISPREPMVBLOCKREFPLAN50
  2
AecDbDispRepMvBlockRefPlan50
  3
AecArchDACHBase50|Product Desc: Autodesk Architectural Desktop 2007 |Company: Autodesk,Inc. |WEB Address: www.autodesk.com
 90
    32897
280
     0
281
     0
  0
CLASS
  1
AEC_AECDBDISPREPROOFPLAN50
  2
AecDbDispRepRoofPlan50
  3
AecArchDACHBase50|Product Desc: Autodesk Architectural Desktop 2007 |Company: Autodesk,Inc. |WEB Address: www.autodesk.com
 90
    32897
280
     0
281
     0
  0
CLASS
  1
AEC_AECDBDISPREPROOFSLABPLAN50
  2
AecDbDispRepRoofSlabPlan50
  3
AecArchDACHBase50|Product Desc: Autodesk Architectural Desktop 2007 |Company: Autodesk,Inc. |WEB Address: www.autodesk.com
 90
    32897
280
     0
281
     0
  0
CLASS
  1
AEC_AECDBDISPREPSLABPLAN50
  2
AecDbDispRepSlabPlan50
  3
AecArchDACHBase50|Product Desc: Autodesk Architectural Desktop 2007 |Company: Autodesk,Inc. |WEB Address: www.autodesk.com
 90
    32897
280
     0
281
     0
  0
CLASS
  1
AEC_AECDBDISPREPSPACEBOUNDARYPLAN50
  2
AecDbDispRepSpaceBoundaryPlan50
  3
AecArchDACHBase50|Product Desc: Autodesk Architectural Desktop 2007 |Company: Autodesk,Inc. |WEB Address: www.autodesk.com
 90
    32897
280
     0
281
     0
  0
CLASS
  1
AEC_AECDBDISPREPSPACEPLAN50
  2
AecDbDispRepSpacePlan50
  3
AecArchDACHBase50|Product Desc: Autodesk Architectural Desktop 2007 |Company: Autodesk,Inc. |WEB Address: www.autodesk.com
 90
    32897
280
     0
281
     0
  0
CLASS
  1
AEC_AECDBDISPREPWALLPLAN50
  2
AecDbDispRepWallPlan50
  3
AecArchDACHBase50|Product Desc: Autodesk Architectural Desktop 2007 |Company: Autodesk,Inc. |WEB Address: www.autodesk.com
 90
    32897
280
     0
281
     0
  0
CLASS
  1
AEC_AECDBDISPREPWINDOWASSEMBLYPLAN50
  2
AecDbDispRepWindowAssemblyPlan50
  3
AecArchDACHBase50|Product Desc: Autodesk Architectural Desktop 2007 |Company: Autodesk,Inc. |WEB Address: www.autodesk.com
 90
    32897
280
     0
281
     0
  0
CLASS
  1
AEC_DB_DISP_REP_DIM_GROUP_PLAN100
  2
AecDbDispRepDimGroupPlan100
  3
AecArchDACHBase50|Product Desc: Autodesk Architectural Desktop 2007 |Company: Autodesk,Inc. |WEB Address: www.autodesk.com
 90
    32897
280
     0
281
     0
  0
CLASS
  1
AEC_DB_DISP_REP_DIM_GROUP_PLAN50
  2
AecDbDispRepDimGroupPlan50
  3
AecArchDACHBase50|Product Desc: Autodesk Architectural Desktop 2007 |Company: Autodesk,Inc. |WEB Address: www.autodesk.com
 90
    32897
280
     0
281
     0
  0
CLASS
  1
AEC_DISP_REP_DOOR_PLAN_50
  2
AecDbDispRepDoorPlan50
  3
AecArchDACHBase50|Product Desc: Autodesk Architectural Desktop 2007 |Company: Autodesk,Inc. |WEB Address: www.autodesk.com
 90
    32897
280
     0
281
     0
  0
CLASS
  1
AEC_DISP_PROPS_DOOR_PLAN_50
  2
AecDbDispPropsDoorPlan50
  3
AecArchDACHBase50|Product Desc: Autodesk Architectural Desktop 2007 |Company: Autodesk,Inc. |WEB Address: www.autodesk.com
 90
    32897
280
     0
281
     0
  0
CLASS
  1
AEC_DISP_REP_DOOR_PLAN_HEKTO
  2
AecDbDispRepDoorPlanHekto
  3
AecArchDACHBase50|Product Desc: Autodesk Architectural Desktop 2007 |Company: Autodesk,Inc. |WEB Address: www.autodesk.com
 90
    32897
280
     0
281
     0
  0
CLASS
  1
AEC_DISP_PROPS_DOOR_PLAN_100
  2
AecDbDispPropsDoorPlan100
  3
AecArchDACHBase50|Product Desc: Autodesk Architectural Desktop 2007 |Company: Autodesk,Inc. |WEB Address: www.autodesk.com
 90
    32897
280
     0
281
     0
  0
CLASS
  1
AEC_DISP_REP_DOOR_THRESHOLD_SYMBOL_PLAN
  2
AecDbDispRepDoorThresholdSymbolPlan
  3
AecArchDACHBase50|Product Desc: Autodesk Architectural Desktop 2007 |Company: Autodesk,Inc. |WEB Address: www.autodesk.com
 90
    32897
280
     0
281
     0
  0
CLASS
  1
AEC_DISP_PROPS_DOOR_THRESHOLD_SYMBOL_PLAN
  2
AecDbDispPropsDoorThresholdSymbolPlan
  3
AecArchDACHBase50|Product Desc: Autodesk Architectural Desktop 2007 |Company: Autodesk,Inc. |WEB Address: www.autodesk.com
 90
    32897
280
     0
281
     0
  0
CLASS
  1
AEC_DISPREPAECDBDISPREPMASSELEMPLAN100
  2
AecDbDispRepMassElemPlan100
  3
AecArchDACHBase50|Product Desc: Autodesk Architectural Desktop 2007 |Company: Autodesk,Inc. |WEB Address: www.autodesk.com
 90
    32897
280
     0
281
     0
  0
CLASS
  1
AEC_DISPROPSMASSELEMPLANCOMMON
  2
AecDbDispPropsMassElemPlanCommon
  3
AecArchDACHBase50|Product Desc: Autodesk Architectural Desktop 2007 |Company: Autodesk,Inc. |WEB Address: www.autodesk.com
 90
    32897
280
     0
281
     0
  0
CLASS
  1
AEC_DISPREPAECDBDISPREPMASSELEMPLAN50
  2
AecDbDispRepMassElemPlan50
  3
AecArchDACHBase50|Product Desc: Autodesk Architectural Desktop 2007 |Company: Autodesk,Inc. |WEB Address: www.autodesk.com
 90
    32897
280
     0
281
     0
  0
CLASS
  1
AEC_DISPREPAECDBDISPREPMASSGROUPPLAN100
  2
AecDbDispRepMassGroupPlan100
  3
AecArchDACHBase50|Product Desc: Autodesk Architectural Desktop 2007 |Company: Autodesk,Inc. |WEB Address: www.autodesk.com
 90
    32897
280
     0
281
     0
  0
CLASS
  1
AEC_DISPROPSMASSGROUPPLANCOMMON
  2
AecDbDispPropsMassGroupPlanCommon
  3
AecArchDACHBase50|Product Desc: Autodesk Architectural Desktop 2007 |Company: Autodesk,Inc. |WEB Address: www.autodesk.com
 90
    32897
280
     0
281
     0
  0
CLASS
  1
AEC_DISPREPAECDBDISPREPMASSGROUPPLAN50
  2
AecDbDispRepMassGroupPlan50
  3
AecArchDACHBase50|Product Desc: Autodesk Architectural Desktop 2007 |Company: Autodesk,Inc. |WEB Address: www.autodesk.com
 90
    32897
280
     0
281
     0
  0
CLASS
  1
AEC_DISPREPAECDBDISPREPOPENINGPLAN100
  2
AecDbDispRepOpeningPlan100
  3
AecArchDACHBase50|Product Desc: Autodesk Architectural Desktop 2007 |Company: Autodesk,Inc. |WEB Address: www.autodesk.com
 90
    32897
280
     0
281
     0
  0
CLASS
  1
AEC_DISPROPSOPENINGPLANCOMMONHATCHED
  2
AecDbDispPropsOpeningPlanCommonHatched
  3
AecArchDACHBase50|Product Desc: Autodesk Architectural Desktop 2007 |Company: Autodesk,Inc. |WEB Address: www.autodesk.com
 90
    32897
280
     0
281
     0
  0
CLASS
  1
AEC_DISPREPAECDBDISPREPOPENINGPLAN50
  2
AecDbDispRepOpeningPlan50
  3
AecArchDACHBase50|Product Desc: Autodesk Architectural Desktop 2007 |Company: Autodesk,Inc. |WEB Address: www.autodesk.com
 90
    32897
280
     0
281
     0
  0
CLASS
  1
AEC_DISPREPAECDBDISPREPOPENINGPLANREFLECTED
  2
AecDbDispRepOpeningPlanReflected
  3
AecArchDACHBase50|Product Desc: Autodesk Architectural Desktop 2007 |Company: Autodesk,Inc. |WEB Address: www.autodesk.com
 90
    32897
280
     0
281
     0
  0
CLASS
  1
AEC_DISPROPSOPENINGPLANCOMMON
  2
AecDbDispPropsOpeningPlanCommon
  3
AecArchDACHBase50|Product Desc: Autodesk Architectural Desktop 2007 |Company: Autodesk,Inc. |WEB Address: www.autodesk.com
 90
    32897
280
     0
281
     0
  0
CLASS
  1
AEC_DISPREPAECDBDISPREPOPENINGSILLPLAN
  2
AecDbDispRepOpeningSillPlan
  3
AecArchDACHBase50|Product Desc: Autodesk Architectural Desktop 2007 |Company: Autodesk,Inc. |WEB Address: www.autodesk.com
 90
    32897
280
     0
281
     0
  0
CLASS
  1
AEC_DISPROPSOPENINGSILLPLAN
  2
AecDbDispPropsOpeningSillPlan
  3
AecArchDACHBase50|Product Desc: Autodesk Architectural Desktop 2007 |Company: Autodesk,Inc. |WEB Address: www.autodesk.com
 90
    32897
280
     0
281
     0
  0
CLASS
  1
AEC_DISP_REP_RAILING_PLAN_100
  2
AecDbDispRepRailingPlan100
  3
AecArchDACHBase50|Product Desc: Autodesk Architectural Desktop 2007 |Company: Autodesk,Inc. |WEB Address: www.autodesk.com
 90
    32897
280
     0
281
     0
  0
CLASS
  1
AEC_DISP_ROPS_RAILING_PLAN_100
  2
AecDbDispPropsRailingPlan100
  3
AecArchDACHBase50|Product Desc: Autodesk Architectural Desktop 2007 |Company: Autodesk,Inc. |WEB Address: www.autodesk.com
 90
    32897
280
     0
281
     0
  0
CLASS
  1
AEC_DISP_REP_RAILING_PLAN_50
  2
AecDbDispRepRailingPlan50
  3
AecArchDACHBase50|Product Desc: Autodesk Architectural Desktop 2007 |Company: Autodesk,Inc. |WEB Address: www.autodesk.com
 90
    32897
280
     0
281
     0
  0
CLASS
  1
AEC_DISP_ROPS_RAILING_PLAN_50
  2
AecDbDispPropsRailingPlan50
  3
AecArchDACHBase50|Product Desc: Autodesk Architectural Desktop 2007 |Company: Autodesk,Inc. |WEB Address: www.autodesk.com
 90
    32897
280
     0
281
     0
  0
CLASS
  1
AEC_DISP_REP_STAIR_PLAN_100
  2
AecDbDispRepStairPlan100
  3
AecArchDACHBase50|Product Desc: Autodesk Architectural Desktop 2007 |Company: Autodesk,Inc. |WEB Address: www.autodesk.com
 90
    32897
280
     0
281
     0
  0
CLASS
  1
AEC_DISP_ROPS_STAIR_PLAN_100
  2
AecDbDispPropsStairPlan100
  3
AecArchDACHBase50|Product Desc: Autodesk Architectural Desktop 2007 |Company: Autodesk,Inc. |WEB Address: www.autodesk.com
 90
    32897
280
     0
281
     0
  0
CLASS
  1
AEC_DISP_REP_STAIR_PLAN_50
  2
AecDbDispRepStairPlan50
  3
AecArchDACHBase50|Product Desc: Autodesk Architectural Desktop 2007 |Company: Autodesk,Inc. |WEB Address: www.autodesk.com
 90
    32897
280
     0
281
     0
  0
CLASS
  1
AEC_DISP_ROPS_STAIR_PLAN_50
  2
AecDbDispPropsStairPlan50
  3
AecArchDACHBase50|Product Desc: Autodesk Architectural Desktop 2007 |Company: Autodesk,Inc. |WEB Address: www.autodesk.com
 90
    32897
280
     0
281
     0
  0
CLASS
  1
AEC_DISP_REP_WINDOW_PLAN_100
  2
AecDbDispRepWindowPlan100
  3
AecArchDACHBase50|Product Desc: Autodesk Architectural Desktop 2007 |Company: Autodesk,Inc. |WEB Address: www.autodesk.com
 90
    32897
280
     0
281
     0
  0
CLASS
  1
AEC_DISP_PROPS_WINDOW_PLAN_100
  2
AecDbDispPropsWindowPlan100
  3
AecArchDACHBase50|Product Desc: Autodesk Architectural Desktop 2007 |Company: Autodesk,Inc. |WEB Address: www.autodesk.com
 90
    32897
280
     0
281
     0
  0
CLASS
  1
AEC_DISP_REP_WINDOW_PLAN_50
  2
AecDbDispRepWindowPlan50
  3
AecArchDACHBase50|Product Desc: Autodesk Architectural Desktop 2007 |Company: Autodesk,Inc. |WEB Address: www.autodesk.com
 90
    32897
280
     0
281
     0
  0
CLASS
  1
AEC_DISP_PROPS_WINDOW_PLAN_50
  2
AecDbDispPropsWindowPlan50
  3
AecArchDACHBase50|Product Desc: Autodesk Architectural Desktop 2007 |Company: Autodesk,Inc. |WEB Address: www.autodesk.com
 90
    32897
280
     0
281
     0
  0
CLASS
  1
BINRECORD
  2
AcAecBinRecord
  3
AecBase50|Product Desc: Autodesk Architectural Desktop 2007 |Company: Autodesk,Inc. |WEB Address: www.autodesk.com
 90
    32897
280
     0
281
     0
  0
CLASS
  1
SORTENTSTABLE
  2
AcDbSortentsTable
  3
ObjectDBX Classes
 90
        0
280
     0
281
     0
  0
CLASS
  1
AEC_MASS_ELEM
  2
AecDbMassElem
  3
AecBaseEx50|Product Desc: Autodesk Architectural Desktop 2007 |Company: Autodesk,Inc. |WEB Address: www.autodesk.com
 90
    33661
280
     0
281
     1
  0
CLASS
  1
MATERIAL
  2
AcDbMaterial
  3
ObjectDBX Classes
 90
     1153
280
     0
281
     0
  0
CLASS
  1
AECS_MEMBER
  2
AecsDbMember
  3
AecStructureBase50|Product Desc: Autodesk Architectural Desktop 2007 |Company: Autodesk,Inc. |WEB Address: www.autodesk.com
 90
    33661
280
     0
281
     1
  0
CLASS
  1
AEC_WALL
  2
AecDbWall
  3
AecArchBase50|Product Desc: Autodesk Architectural Desktop 2007 |Company: Autodesk,Inc. |WEB Address: www.autodesk.com
 90
    33661
280
     0
281
     1
  0
CLASS
  1
AEC_DOOR
  2
AecDbDoor
  3
AecArchBase50|Product Desc: Autodesk Architectural Desktop 2007 |Company: Autodesk,Inc. |WEB Address: www.autodesk.com
 90
    33661
280
     0
281
     1
  0
CLASS
  1
AEC_ANCHOR_OPENINGBASE_TO_WALL
  2
AecDbAnchorOpeningBaseToWall
  3
AecArchBase50|Product Desc: Autodesk Architectural Desktop 2007 |Company: Autodesk,Inc. |WEB Address: www.autodesk.com
 90
    32897
280
     0
281
     0
  0
CLASS
  1
AEC_SPACE_BOUNDARY
  2
AecDbSpaceBoundary
  3
AecArchBase50|Product Desc: Autodesk Architectural Desktop 2007 |Company: Autodesk,Inc. |WEB Address: www.autodesk.com
 90
    33661
280
     0
281
     1
  0
CLASS
  1
AEC_SPACE
  2
AecDbSpace
  3
AecArchBase50|Product Desc: Autodesk Architectural Desktop 2007 |Company: Autodesk,Inc. |WEB Address: www.autodesk.com
 90
    33661
280
     0
281
     1
  0
CLASS
  1
AecDbPropertySet
  2
AecDbPropertySet
  3
AecScheduleData50|Product Desc: Autodesk Architectural Desktop 2007 |Company: Autodesk,Inc. |WEB Address: www.autodesk.com
 90
    32897
280
     0
281
     0
  0
CLASS
  1
AEC_MVBLOCK_REF
  2
AecDbMvBlockRef
  3
AecBase50|Product Desc: Autodesk Architectural Desktop 2007 |Company: Autodesk,Inc. |WEB Address: www.autodesk.com
 90
    33661
280
     0
281
     1
  0
CLASS
  1
AEC_ANCHOR_TAG_TO_ENT
  2
AecDbAnchorTagToEnt
  3
AecScheduleData50|Product Desc: Autodesk Architectural Desktop 2007 |Company: Autodesk,Inc. |WEB Address: www.autodesk.com
 90
    32897
280
     0
281
     0
  0
CLASS
  1
AEC_WINDOW
  2
AecDbWindow
  3
AecArchBase50|Product Desc: Autodesk Architectural Desktop 2007 |Company: Autodesk,Inc. |WEB Address: www.autodesk.com
 90
    33661
280
     0
281
     1
  0
CLASS
  1
AEC_OPENING
  2
AecDbOpening
  3
AecArchBase50|Product Desc: Autodesk Architectural Desktop 2007 |Company: Autodesk,Inc. |WEB Address: www.autodesk.com
 90
    33661
280
     0
281
     1
  0
CLASS
  1
AEC_CLASSIFICATION_SYSTEM_DEF
  2
AecDbClassificationSystemDef
  3
AecBase50|Product Desc: Autodesk Architectural Desktop 2007 |Company: Autodesk,Inc. |WEB Address: www.autodesk.com
 90
    32897
280
     0
281
     0
  0
CLASS
  1
AEC_CLASSIFICATION_DEF
  2
AecDbClassificationDef
  3
AecBase50|Product Desc: Autodesk Architectural Desktop 2007 |Company: Autodesk,Inc. |WEB Address: www.autodesk.com
 90
    32897
280
     0
281
     0
  0
CLASS
  1
AEC_CLEANUP_GROUP_DEF
  2
AecDbCleanupGroupDef
  3
AecArchBase50|Product Desc: Autodesk Architectural Desktop 2007 |Company: Autodesk,Inc. |WEB Address: www.autodesk.com
 90
    32897
280
     0
281
     0
  0
CLASS
  1
AEC_DOOR_STYLE
  2
AecDbDoorStyle
  3
AecArchBase50|Product Desc: Autodesk Architectural Desktop 2007 |Company: Autodesk,Inc. |WEB Address: www.autodesk.com
 90
    32897
280
     0
281
     0
  0
CLASS
  1
AEC_STDSIZE_OPENINGS
  2
AecDbStdSizeOpeningList
  3
AecArchBase50|Product Desc: Autodesk Architectural Desktop 2007 |Company: Autodesk,Inc. |WEB Address: www.autodesk.com
 90
    32897
280
     0
281
     0
  0
CLASS
  1
AEC_ENDCAP_STYLE
  2
AecDbEndcapStyle
  3
AecArchBase50|Product Desc: Autodesk Architectural Desktop 2007 |Company: Autodesk,Inc. |WEB Address: www.autodesk.com
 90
    32897
280
     0
281
     0
  0
CLASS
  1
AEC_MASS_ELEM_STYLE
  2
AecDbMassElemStyle
  3
AecBaseEx50|Product Desc: Autodesk Architectural Desktop 2007 |Company: Autodesk,Inc. |WEB Address: www.autodesk.com
 90
    32897
280
     0
281
     0
  0
CLASS
  1
AEC_MATERIAL_DEF
  2
AecDbMaterialDef
  3
AecBase50|Product Desc: Autodesk Architectural Desktop 2007 |Company: Autodesk,Inc. |WEB Address: www.autodesk.com
 90
    32897
280
     0
281
     0
  0
CLASS
  1
AEC_MVBLOCK_DEF
  2
AecDbMvBlockDef
  3
AecBase50|Product Desc: Autodesk Architectural Desktop 2007 |Company: Autodesk,Inc. |WEB Address: www.autodesk.com
 90
    32897
280
     0
281
     0
  0
CLASS
  1
AEC_FRAME_DEF
  2
AecDbOpeningEndcapStyle
  3
AecArchBase50|Product Desc: Autodesk Architectural Desktop 2007 |Company: Autodesk,Inc. |WEB Address: www.autodesk.com
 90
    32897
280
     0
281
     0
  0
CLASS
  1
AEC_PROFILE_DEF
  2
AecDbProfileDef
  3
AecBase50|Product Desc: Autodesk Architectural Desktop 2007 |Company: Autodesk,Inc. |WEB Address: www.autodesk.com
 90
    32897
280
     0
281
     0
  0
CLASS
  1
AEC_SCHEDULE_DATA_FORMAT
  2
AecDbScheduleDataFormat
  3
AecScheduleData50|Product Desc: Autodesk Architectural Desktop 2007 |Company: Autodesk,Inc. |WEB Address: www.autodesk.com
 90
    32897
280
     0
281
     0
  0
CLASS
  1
AEC_PROPERTY_SET_DEF
  2
AecDbPropertySetDef
  3
AecScheduleData50|Product Desc: Autodesk Architectural Desktop 2007 |Company: Autodesk,Inc. |WEB Address: www.autodesk.com
 90
    32897
280
     0
281
     0
  0
CLASS
  1
AEC_SPACE_STYLES
  2
AecDbSpaceStyle
  3
AecArchBase50|Product Desc: Autodesk Architectural Desktop 2007 |Company: Autodesk,Inc. |WEB Address: www.autodesk.com
 90
    32897
280
     0
281
     0
  0
CLASS
  1
AEC_TEXT_NOTE
  2
AecDbTextNote
  3
AecBase50|Product Desc: Autodesk Architectural Desktop 2007 |Company: Autodesk,Inc. |WEB Address: www.autodesk.com
 90
    32897
280
     0
281
     0
  0
CLASS
  1
AECS_MEMBER_STYLE
  2
AecsDbMemberStyle
  3
AecStructureBase50|Product Desc: Autodesk Architectural Desktop 2007 |Company: Autodesk,Inc. |WEB Address: www.autodesk.com
 90
    32897
280
     0
281
     0
  0
CLASS
  1
AEC_VARS_STRUCTUREBASE
  2
AecsDbVarsStructureBase
  3
AecStructureBase50|Product Desc: Autodesk Architectural Desktop 2007 |Company: Autodesk,Inc. |WEB Address: www.autodesk.com
 90
    32897
280
     0
281
     0
  0
CLASS
  1
AEC_WALL_STYLE
  2
AecDbWallStyle
  3
AecArchBase50|Product Desc: Autodesk Architectural Desktop 2007 |Company: Autodesk,Inc. |WEB Address: www.autodesk.com
 90
    32897
280
     0
281
     0
  0
CLASS
  1
AEC_WINDOW_STYLE
  2
AecDbWindowStyle
  3
AecArchBase50|Product Desc: Autodesk Architectural Desktop 2007 |Company: Autodesk,Inc. |WEB Address: www.autodesk.com
 90
    32897
280
     0
281
     0
  0
CLASS
  1
AECS_MEMBER_NODE_SHAPE
  2
AecsDbMemberNodeShape
  3
AecStructureBase50|Product Desc: Autodesk Architectural Desktop 2007 |Company: Autodesk,Inc. |WEB Address: www.autodesk.com
 90
    32897
280
     0
281
     0
  0
CLASS
  1
AEC_SCHEDULE_TABLE
  2
AecDbScheduleTable
  3
AecSchedule50|Product Desc: Autodesk Architectural Desktop 2007 |Company: Autodesk,Inc. |WEB Address: www.autodesk.com
 90
    33661
280
     0
281
     1
  0
CLASS
  1
AEC_SCHEDULE_TABLE_STYLE
  2
AecDbScheduleTableStyle
  3
AecSchedule50|Product Desc: Autodesk Architectural Desktop 2007 |Company: Autodesk,Inc. |WEB Address: www.autodesk.com
 90
    32897
280
     0
281
     0
  0
CLASS
  1
AEC_ANCHOR_MVB_TO_UCS
  2
AecDbAnchorMVBToUCS
  3
AecBase50|Product Desc: Autodesk Architectural Desktop 2007 |Company: Autodesk,Inc. |WEB Address: www.autodesk.com
 90
    32897
280
     0
281
     0
  0
CLASS
  1
IMAGEDEF
  2
AcDbRasterImageDef
  3
ISM
 90
    32768
280
     0
281
     0
  0
CLASS
  1
AEC_ANCHOR_ENT_TO_GRID_ASSEMBLY
  2
AecDbAnchorEntToGridAssembly
  3
AecBase50|Product Desc: Autodesk Architectural Desktop 2007 |Company: Autodesk,Inc. |WEB Address: www.autodesk.com
 90
    32897
280
     0
281
     0
  0
CLASS
  1
AEC_WINDOW_ASSEMBLY
  2
AecDbWindowAssembly
  3
AecArchBase50|Product Desc: Autodesk Architectural Desktop 2007 |Company: Autodesk,Inc. |WEB Address: www.autodesk.com
 90
    33661
280
     0
281
     1
  0
CLASS
  1
AEC_ANCHOR_WINASSEMBLY_TO_WALL
  2
AecDbAnchorWinAssemblyToWall
  3
AecArchBase50|Product Desc: Autodesk Architectural Desktop 2007 |Company: Autodesk,Inc. |WEB Address: www.autodesk.com
 90
    32897
280
     0
281
     0
  0
CLASS
  1
AEC_STAIR
  2
AecDbStair
  3
AecArchBase50|Product Desc: Autodesk Architectural Desktop 2007 |Company: Autodesk,Inc. |WEB Address: www.autodesk.com
 90
    33661
280
     0
281
     1
  0
CLASS
  1
AEC_RAILING
  2
AecDbRailing
  3
AecArchBase50|Product Desc: Autodesk Architectural Desktop 2007 |Company: Autodesk,Inc. |WEB Address: www.autodesk.com
 90
    33661
280
     0
281
     1
  0
CLASS
  1
AEC_ANCHOR_RAILING_TO_STAIR
  2
AecDbAnchorRailingToStair
  3
AecArchBase50|Product Desc: Autodesk Architectural Desktop 2007 |Company: Autodesk,Inc. |WEB Address: www.autodesk.com
 90
    32897
280
     0
281
     0
  0
CLASS
  1
AEC_RAILING_STYLE
  2
AecDbRailingStyle
  3
AecArchBase50|Product Desc: Autodesk Architectural Desktop 2007 |Company: Autodesk,Inc. |WEB Address: www.autodesk.com
 90
    32897
280
     0
281
     0
  0
CLASS
  1
AEC_STAIR_STYLE
  2
AecDbStairStyle
  3
AecArchBase50|Product Desc: Autodesk Architectural Desktop 2007 |Company: Autodesk,Inc. |WEB Address: www.autodesk.com
 90
    32897
280
     0
281
     0
  0
CLASS
  1
AEC_STAIR_WINDER_STYLE
  2
AecDbStairWinderStyle
  3
AecArchBase50|Product Desc: Autodesk Architectural Desktop 2007 |Company: Autodesk,Inc. |WEB Address: www.autodesk.com
 90
    32897
280
     0
281
     0
  0
CLASS
  1
AEC_STAIR_WINDER_TYPE_SINGLE_POINT
  2
AecDbStairWinderTypeSinglePoint
  3
AecArchBase50|Product Desc: Autodesk Architectural Desktop 2007 |Company: Autodesk,Inc. |WEB Address: www.autodesk.com
 90
    32897
280
     0
281
     0
  0
CLASS
  1
AEC_WINDOW_ASSEMBLY_STYLE
  2
AecDbWindowAssemblyStyle
  3
AecArchBase50|Product Desc: Autodesk Architectural Desktop 2007 |Company: Autodesk,Inc. |WEB Address: www.autodesk.com
 90
    32897
280
     0
281
     0
  0
CLASS
  1
AEC_AECDBAREASTYLE
  2
AecDbAreaStyle
  3
AecAreaCalculationBase50|Product Desc: Autodesk Architectural Desktop 2007 |Company: Autodesk,Inc. |WEB Address: www.autodesk.com
 90
    32897
280
     0
281
     0
  0
CLASS
  1
AEC_AECDBAREAPROPOSALNAMES
  2
AecDbAreaProposalNames
  3
AecAreaCalculationBase50|Product Desc: Autodesk Architectural Desktop 2007 |Company: Autodesk,Inc. |WEB Address: www.autodesk.com
 90
    32897
280
     0
281
     0
  0
CLASS
  1
AEC_AREA
  2
AecDbArea
  3
AecAreaCalculationBase50|Product Desc: Autodesk Architectural Desktop 2007 |Company: Autodesk,Inc. |WEB Address: www.autodesk.com
 90
    33661
280
     0
281
     1
  0
CLASS
  1
OBJECT_PTR
  2
CAseDLPNTableRecord
  3
ASE-LPNTableRecord
 90
    32769
280
     1
281
     0
  0
CLASS
  1
TABLESTYLE
  2
AcDbTableStyle
  3
ObjectDBX Classes
 90
     4095
280
     0
281
     0
  0
CLASS
  1
AEC_DISP_REP_DISPLAYTHEME
  2
AecDbDispRepDisplayTheme
  3
AecBase50|Product Desc: Autodesk Architectural Desktop 2007 |Company: Autodesk,Inc. |WEB Address: www.autodesk.com
 90
    32897
280
     0
281
     0
  0
CLASS
  1
AEC_DISP_PROPS_DISPLAYTHEME
  2
AecDbDispPropsDisplayTheme
  3
AecBase50|Product Desc: Autodesk Architectural Desktop 2007 |Company: Autodesk,Inc. |WEB Address: www.autodesk.com
 90
    32897
280
     0
281
     0
  0
CLASS
  1
AEC_DISP_REP_ANCHOR_EXT_TAG_TO_ENT
  2
AecDbDispRepAnchorExtendedTagToEnt
  3
AecScheduleData50|Product Desc: Autodesk Architectural Desktop 2007 |Company: Autodesk,Inc. |WEB Address: www.autodesk.com
 90
    32897
280
     0
281
     0
  0
CLASS
  1
VISUALSTYLE
  2
AcDbVisualStyle
  3
ObjectDBX Classes
 90
     4095
280
     0
281
     0
  0
CLASS
  1
AEC_AECDBDISPREPZONE100
  2
AecDbDispRepZonePlan100
  3
AecArchDACHBase50|Product Desc: Autodesk Architectural Desktop 2007 |Company: Autodesk,Inc. |WEB Address: www.autodesk.com
 90
    32897
280
     0
281
     0
  0
CLASS
  1
AEC_DISP_PROPS_ZONE
  2
AecDbDispPropsZone
  3
AecArchBase50|Product Desc: Autodesk Architectural Desktop 2007 |Company: Autodesk,Inc. |WEB Address: www.autodesk.com
 90
    32897
280
     0
281
     0
  0
CLASS
  1
AEC_AECDBDISPREPZONE50
  2
AecDbDispRepZonePlan50
  3
AecArchDACHBase50|Product Desc: Autodesk Architectural Desktop 2007 |Company: Autodesk,Inc. |WEB Address: www.autodesk.com
 90
    32897
280
     0
281
     0
  0
CLASS
  1
AEC_DISP_REP_SPACE_DECOMPOSED
  2
AecDbDispRepSpaceDecomposed
  3
AecArchBase50|Product Desc: Autodesk Architectural Desktop 2007 |Company: Autodesk,Inc. |WEB Address: www.autodesk.com
 90
    32897
280
     0
281
     0
  0
CLASS
  1
AEC_DISP_PROPS_SPACE_DECOMPOSED
  2
AecDbDispPropsSpaceDecomposed
  3
AecArchBase50|Product Desc: Autodesk Architectural Desktop 2007 |Company: Autodesk,Inc. |WEB Address: www.autodesk.com
 90
    32897
280
     0
281
     0
  0
CLASS
  1
AEC_DISP_REP_ZONE
  2
AecDbDispRepZone
  3
AecArchBase50|Product Desc: Autodesk Architectural Desktop 2007 |Company: Autodesk,Inc. |WEB Address: www.autodesk.com
 90
    32897
280
     0
281
     0
  0
CLASS
  1
AEC_LIST_DEF
  2
AecDbListDefinition
  3
AecBase50|Product Desc: Autodesk Architectural Desktop 2007 |Company: Autodesk,Inc. |WEB Address: www.autodesk.com
 90
    32897
280
     0
281
     0
  0
CLASS
  1
EXACXREFPANELOBJECT
  2
ExAcXREFPanelObject
  3
EXAC_ESW
 90
    33793
280
     1
281
     0
  0
CLASS
  1
NPOCOLLECTION
  2
AcDbImpNonPersistentObjectsCollection
  3
ObjectDBX Classes
 90
    33921
280
     0
281
     0
  0
CLASS
  1
ACAD_EVALUATION_GRAPH
  2
AcDbEvalGraph
  3
ObjectDBX Classes
 90
    33921
280
     0
281
     0
  0
CLASS
  1
BLOCKLINEARPARAMETER
  2
AcDbBlockLinearParameter
  3
ObjectDBX Classes
 90
    33921
280
     0
281
     0
  0
CLASS
  1
BLOCKLINEARGRIP
  2
AcDbBlockLinearGrip
  3
ObjectDBX Classes
 90
    33921
280
     0
281
     0
  0
CLASS
  1
BLOCKGRIPLOCATIONCOMPONENT
  2
AcDbBlockGripExpr
  3
ObjectDBX Classes
 90
    33921
280
     0
281
     0
  0
CLASS
  1
BLOCKSTRETCHACTION
  2
AcDbBlockStretchAction
  3
ObjectDBX Classes
 90
    33921
280
     0
281
     0
  0
CLASS
  1
BLOCKFLIPPARAMETER
  2
AcDbBlockFlipParameter
  3
ObjectDBX Classes
 90
    33921
280
     0
281
     0
  0
CLASS
  1
BLOCKFLIPGRIP
  2
AcDbBlockFlipGrip
  3
ObjectDBX Classes
 90
    33921
280
     0
281
     0
  0
CLASS
  1
BLOCKFLIPACTION
  2
AcDbBlockFlipAction
  3
ObjectDBX Classes
 90
    33921
280
     0
281
     0
  0
CLASS
  1
ACDB_DYNAMICBLOCKPURGEPREVENTER_VERSION
  2
AcDbDynamicBlockPurgePreventer
  3
ObjectDBX Classes
 90
    33921
280
     0
281
     0
  0
CLASS
  1
ACDB_BLOCKREPRESENTATION_DATA
  2
AcDbBlockRepresentationData
  3
ObjectDBX Classes
 90
    33921
280
     0
281
     0
  0
CLASS
  1
AEC_SLAB
  2
AecDbSlab
  3
AecArchBase50|Product Desc: Autodesk Architectural Desktop 2007 |Company: Autodesk,Inc. |WEB Address: www.autodesk.com
 90
    33661
280
     0
281
     1
  0
CLASS
  1
AEC_LIST_DEF
  2
AecDbListItem
  3
AecBase50|Product Desc: Autodesk Architectural Desktop 2007 |Company: Autodesk,Inc. |WEB Address: www.autodesk.com
 90
    32897
280
     0
281
     0
  0
CLASS
  1
AEC_ROOFSLAB_STYLE
  2
AecDbRoofSlabStyle
  3
AecArchBase50|Product Desc: Autodesk Architectural Desktop 2007 |Company: Autodesk,Inc. |WEB Address: www.autodesk.com
 90
    32897
280
     0
281
     0
  0
CLASS
  1
AEC_ROOFSLABEDGE_STYLE
  2
AecDbRoofSlabEdgeStyle
  3
AecArchBase50|Product Desc: Autodesk Architectural Desktop 2007 |Company: Autodesk,Inc. |WEB Address: www.autodesk.com
 90
    32897
280
     0
281
     0
  0
CLASS
  1
AEC_SLAB_STYLE
  2
AecDbSlabStyle
  3
AecArchBase50|Product Desc: Autodesk Architectural Desktop 2007 |Company: Autodesk,Inc. |WEB Address: www.autodesk.com
 90
    32897
280
     0
281
     0
  0
CLASS
  1
AEC_SLABEDGE_STYLE
  2
AecDbSlabEdgeStyle
  3
AecArchBase50|Product Desc: Autodesk Architectural Desktop 2007 |Company: Autodesk,Inc. |WEB Address: www.autodesk.com
 90
    32897
280
     0
281
     0
  0
CLASS
  1
EXACTERMXREFMAP
  2
ExAcTermXrefMap
  3
EXAC_SERVICE
 90
    33793
280
     1
281
     0
  0
CLASS
  1
AEC_AECDBZONESTYLE
  2
AecDbZoneStyle
  3
AecArchBase50|Product Desc: Autodesk Architectural Desktop 2007 |Company: Autodesk,Inc. |WEB Address: www.autodesk.com
 90
    32897
280
     0
281
     0
  0
CLASS
  1
AEC_ZONE
  2
AecDbZone
  3
AecArchBase50|Product Desc: Autodesk Architectural Desktop 2007 |Company: Autodesk,Inc. |WEB Address: www.autodesk.com
 90
    33661
280
     0
281
     1
  0
CLASS
  1
ACAD_TABLE
  2
AcDbTable
  3
ObjectDBX Classes
 90
    33793
280
     0
281
     1
  0
CLASS
  1
AEC_DISPLAYTHEME_STYLE
  2
AecDbDisplayThemeStyle
  3
AecBase50|Product Desc: Autodesk Architectural Desktop 2007 |Company: Autodesk,Inc. |WEB Address: www.autodesk.com
 90
    32897
280
     0
281
     0
  0
CLASS
  1
DIMASSOC
  2
AcDbDimAssoc
  3
"AcDbDimAssoc|Product Desc:     AcDim ARX App For Dimension|Company:          Autodesk, Inc.|WEB Address:      www.autodesk.com"
 90
    32768
280
     0
281
     0
  0
CLASS
  1
AEC_MASS_GROUP
  2
AecDbMassGroup
  3
AecBaseEx50|Product Desc: Autodesk Architectural Desktop 2007 |Company: Autodesk,Inc. |WEB Address: www.autodesk.com
 90
    33661
280
     0
281
     1
  0
CLASS
  1
AEC_ANCHOR_ENT_TO_ENT
  2
AecDbAnchorEntToEnt
  3
AecBase50|Product Desc: Autodesk Architectural Desktop 2007 |Company: Autodesk,Inc. |WEB Address: www.autodesk.com
 90
    32897
280
     0
281
     0
  0
CLASS
  1
AEC_2D_SECTION
  2
AecDb2dSection
  3
AecBase50|Product Desc: Autodesk Architectural Desktop 2007 |Company: Autodesk,Inc. |WEB Address: www.autodesk.com
 90
    33661
280
     0
281
     1
  0
CLASS
  1
AEC_2DSECTION_STYLE
  2
AecDb2dSectionStyle
  3
AecBase50|Product Desc: Autodesk Architectural Desktop 2007 |Company: Autodesk,Inc. |WEB Address: www.autodesk.com
 90
    32897
280
     0
281
     0
  0
CLASS
  1
SCALE
  2
AcDbScale
  3
ObjectDBX Classes
 90
     1153
280
     0
281
     0
  0
CLASS
  1
MLEADERSTYLE
  2
AcDbMLeaderStyle
  3
ACDB_MLEADERSTYLE_CLASS
 90
     4095
280
     0
281
     0
  0
CLASS
  1
AEC_REFEDIT_STATUS_TRACKER
  2
AecDbRefEditStatusTracker
  3
AecArchBase50|Product Desc: Autodesk Architectural Desktop 2007 |Company: Autodesk,Inc. |WEB Address: www.autodesk.com
 90
    32897
280
     0
281
     0
  0
CLASS
  1
CELLSTYLEMAP
  2
AcDbCellStyleMap
  3
ObjectDBX Classes
 90
     1152
280
     0
281
     0
  0
CLASS
  1
BLOCKARRAYACTION
  2
AcDbBlockArrayAction
  3
ObjectDBX Classes
 90
    33921
280
     0
281
     0
  0
CLASS
  1
BLOCKBASEPOINTPARAMETER
  2
AcDbBlockBasepointParameter
  3
ObjectDBX Classes
 90
    33921
280
     0
281
     0
  0
CLASS
  1
SOLID_BACKGROUND
  2
AcDbSolidBackground
  3
SCENEOE
 90
    36863
280
     0
281
     0
  0
ENDSEC
  0
SECTION
  2
TABLES
  0
TABLE
  2
VPORT
  5
28
330
0
100
AcDbSymbolTable
 70
     1
  0
VPORT
  5
29
330
28
100
AcDbSymbolTableRecord
100
AcDbViewportTableRecord
  2
*Active
 70
     0
 10
0.0
 20
0.0
 11
1.0
 21
1.0
 12
73376.41745374267
 22
-6062.636438976181
 13
-3534.953416816247
 23
4038.000000000049
 14
1.0
 24
1.0
 15
1.0
 25
1.0
 16
0.0
 26
0.0
 36
1.0
 17
0.0
 27
0.0
 37
0.0
 40
15863.04639623432
 41
1.612947658402203
 42
50.0
 43
0.0
 44
0.0
 50
0.0
 51
0.0
 71
     0
 72
  2000
 73
     1
 74
     1
 75
     0
 76
     0
 77
     0
 78
     0
281
     0
 65
     1
110
0.0
120
0.0
130
0.0
111
1.0
121
0.0
131
0.0
112
0.0
122
1.0
132
0.0
 79
     0
146
0.0
  0
ENDTAB
  0
TABLE
  2
LTYPE
  5
23
330
0
100
AcDbSymbolTable
 70
     3
  0
LTYPE
  5
24
330
23
100
AcDbSymbolTableRecord
100
AcDbLinetypeTableRecord
  2
BYBLOCK
 70
     0
  3

 72
    65
 73
     0
 40
0.0
  0
LTYPE
  5
25
330
23
100
AcDbSymbolTableRecord
100
AcDbLinetypeTableRecord
  2
BYLAYER
 70
     0
  3

 72
    65
 73
     0
 40
0.0
  0
LTYPE
  5
E
330
23
100
AcDbSymbolTableRecord
100
AcDbLinetypeTableRecord
  2
CONTINUOUS
 70
     0
  3
Solid line
 72
    65
 73
     0
 40
0.0
  0
LTYPE
  5
77
330
23
100
AcDbSymbolTableRecord
100
AcDbLinetypeTableRecord
  2
DASHED
 70
     0
  3
Dashed __ __ __ __ __ __ __ __ __ __ __ __ __ _
 72
    65
 73
     2
 40
0.75
 49
0.5
 74
     0
 49
-0.25
 74
     0
  0
ENDTAB
  0
TABLE
  2
LAYER
  5
1D
102
{ACAD_XDICTIONARY
360
1E
102
}
330
0
100
AcDbSymbolTable
 70
    12
  0
LAYER
  5
6
102
{ACAD_XDICTIONARY
360
7
102
}
330
1D
100
AcDbSymbolTableRecord
100
AcDbLayerTableRecord
  2
0
 70
     0
 62
     7
  6
CONTINUOUS
370
    -3
390
9
1001
RAK
1000
{ACET-LAYISO
1070
     0
1070
     7
1000
CONTINUOUS
1070
     1
1071
       -3
1071
        1
1005
9
1000
ACET-LAYISO}
  0
LAYER
  5
74
102
{ACAD_XDICTIONARY
360
75
102
}
330
1D
100
AcDbSymbolTableRecord
100
AcDbLayerTableRecord
  2
NAPISY
 70
     0
 62
   140
  6
CONTINUOUS
370
    -3
390
9
1001
RAK
1000
{ACET-LAYISO
1070
     0
1070
   140
1000
CONTINUOUS
1071
       -3
1071
        1
1005
9
1000
ACET-LAYISO}
  0
LAYER
  5
3B5
330
1D
100
AcDbSymbolTableRecord
100
AcDbLayerTableRecord
  2
Defpoints
 70
     0
 62
     7
  6
CONTINUOUS
290
     0
370
    -3
390
9
1001
RAK
1000
{ACET-LAYISO
1070
     0
1070
     7
1000
CONTINUOUS
1071
       -3
1071
        0
1005
9
1000
ACET-LAYISO}
  0
LAYER
  5
56
102
{ACAD_XDICTIONARY
360
57
102
}
330
1D
100
AcDbSymbolTableRecord
100
AcDbLayerTableRecord
  2
0Wymiary-PL
 70
     0
 62
     1
  6
CONTINUOUS
370
     5
390
9
  0
LAYER
  5
3A3
102
{ACAD_XDICTIONARY
360
3A4
102
}
330
1D
100
AcDbSymbolTableRecord
100
AcDbLayerTableRecord
  2
0Hatch
 70
     0
 62
   122
  6
CONTINUOUS
370
     5
390
9
  0
LAYER
  5
7E
102
{ACAD_XDICTIONARY
360
7F
102
}
330
1D
100
AcDbSymbolTableRecord
100
AcDbLayerTableRecord
  2
RAMKI-A4
 70
     0
 62
     2
  6
CONTINUOUS
290
     0
370
    -3
390
9
1001
RAK
1000
{ACET-LAYISO
1070
     0
1070
     2
1000
Continuous
1071
       -3
1071
        0
1005
9
1000
ACET-LAYISO}
  0
LAYER
  5
1326
330
1D
100
AcDbSymbolTableRecord
100
AcDbLayerTableRecord
  2
TEREN$0$A-MassElement-G
 70
     0
 62
   210
  6
CONTINUOUS
370
     9
390
9
1001
AcAecLayerStandard
1000
BS1192 - Descriptive
1001
RAK
1000
{ACET-LAYISO
1070
     0
1070
   210
1000
Continuous
1071
        9
1071
        1
1005
9
1000
ACET-LAYISO}
  0
LAYER
  5
1A18
102
{ACAD_XDICTIONARY
360
1A19
102
}
330
1D
100
AcDbSymbolTableRecord
100
AcDbLayerTableRecord
  2
WYMIARY
 70
     0
 62
     1
  6
CONTINUOUS
370
    -3
390
9
  0
ENDTAB
  0
TABLE
  2
STYLE
  5
20
330
0
100
AcDbSymbolTable
 70
     5
  0
STYLE
  5
21
330
20
100
AcDbSymbolTableRecord
100
AcDbTextStyleTableRecord
  2
STANDARD
 70
     0
 40
0.0
 41
1.0
 50
0.0
 71
     0
 42
0.2
  3
txt
  4

  0
STYLE
  5
2E
330
20
100
AcDbSymbolTableRecord
100
AcDbTextStyleTableRecord
  2
ROMANS
 70
     0
 40
0.0
 41
0.9
 50
0.0
 71
     0
 42
5.0
  3
romans.shx
  4

  0
STYLE
  5
79
330
20
100
AcDbSymbolTableRecord
100
AcDbTextStyleTableRecord
  2
AVA
 70
     0
 40
0.0
 41
1.0
 50
0.0
 71
     0
 42
20.0
  3
ARIAL.TTF
  4

1001
ACAD
1000
Arial CE
1071
    60962
  0
ENDTAB
  0
TABLE
  2
VIEW
  5
26
330
0
100
AcDbSymbolTable
 70
     1
  0
VIEW
  5
13
330
26
100
AcDbSymbolTableRecord
100
AcDbViewTableRecord
  2
10-ele
 70
     0
 40
2040.000000000001
 10
597.6361962217097
 20
4133.999999999996
 41
2803.999999999998
 11
0.0
 21
0.0
 31
1.0
 12
0.0
 22
0.0
 32
0.0
 42
50.0
 43
0.0
 44
0.0
 50
0.0
 71
     0
281
     0
 72
     1
110
0.0
120
0.0
130
0.0
111
1.0
121
0.0
131
0.0
112
0.0
122
1.0
132
0.0
 79
     0
146
0.0
  0
ENDTAB
  0
TABLE
  2
UCS
  5
27
330
0
100
AcDbSymbolTable
 70
     0
  0
ENDTAB
  0
TABLE
  2
APPID
  5
2A
330
0
100
AcDbSymbolTable
 70
     6
  0
APPID
  5
2B
330
2A
100
AcDbSymbolTableRecord
100
AcDbRegAppTableRecord
  2
ACAD
 70
     0
  0
APPID
  5
F
330
2A
100
AcDbSymbolTableRecord
100
AcDbRegAppTableRecord
  2
RAK
 70
     0
  0
APPID
  5
16
330
2A
100
AcDbSymbolTableRecord
100
AcDbRegAppTableRecord
  2
ACAD_PSEXT
 70
     0
  0
APPID
  5
7AA
330
2A
100
AcDbSymbolTableRecord
100
AcDbRegAppTableRecord
  2
ACAD_MLEADERVER
 70
     0
  0
APPID
  5
B8E
330
2A
100
AcDbSymbolTableRecord
100
AcDbRegAppTableRecord
  2
ACAD_EXEMPT_FROM_CAD_STANDARDS
 70
     0
  0
APPID
  5
132A
330
2A
100
AcDbSymbolTableRecord
100
AcDbRegAppTableRecord
  2
AcAecLayerStandard
 70
     0
  0
ENDTAB
  0
TABLE
  2
DIMSTYLE
  5
2C
330
0
100
AcDbSymbolTable
 70
     3
100
AcDbDimStyleTable
 71
     2
340
2D
340
4C
  0
DIMSTYLE
105
4C
330
2C
100
AcDbSymbolTableRecord
100
AcDbDimStyleTableRecord
  2
Standard
 70
     0
340
21
  0
DIMSTYLE
105
2D
102
{ACAD_REACTORS
330
1F62
330
1F63
330
1F64
330
1F65
330
2189
330
218A
330
218B
330
218C
102
}
330
2C
100
AcDbSymbolTableRecord
100
AcDbDimStyleTableRecord
  2
500
 70
     0
 41
30.0
 42
43.0
 43
0.0
 44
13.0
 45
0.5
 46
12.0
 73
     0
 74
     0
 75
     1
 76
     1
 78
    12
140
80.0
141
0.0
145
1.0
147
0.0
172
     1
174
     1
176
     1
177
     1
178
   140
271
     1
272
     1
279
     2
340
2E
341
2F
342
2F
  0
ENDTAB
  0
TABLE
  2
BLOCK_RECORD
  5
1
330
0
100
AcDbSymbolTable
 70
    41
  0
BLOCK_RECORD
  5
2
102
{ACAD_XDICTIONARY
360
3
102
}
330
1
100
AcDbSymbolTableRecord
100
AcDbBlockTableRecord
  2
*MODEL_SPACE
340
11
  0
BLOCK_RECORD
  5
1942
330
1
100
AcDbSymbolTableRecord
100
AcDbBlockTableRecord
  2
*Paper_Space
340
1943
  0
BLOCK_RECORD
  5
2F
102
{ACAD_XDICTIONARY
360
30
102
}
330
1
100
AcDbSymbolTableRecord
100
AcDbBlockTableRecord
  2
B-DIM
340
0
102
{BLKREFS
331
1BB3
331
1BB4
331
1BBA
331
1BBB
331
1BC1
331
1BC2
331
1BCF
331
1BD0
331
1BD6
331
1BD7
331
1BDD
331
1BDE
331
1BE6
331
1BE7
331
1BF6
331
1BF7
331
1BFD
331
1BFE
331
1C04
331
1C05
331
1C0B
331
1C0C
331
1C14
331
1C15
331
1C22
331
1C23
331
1C29
331
1C2A
331
1C34
331
1C35
331
1C3D
331
1C3E
331
1C46
331
1C47
331
1C4D
331
1C4E
331
1C6E
331
1C6F
331
1C78
331
1C79
331
1C84
331
1C85
331
1C8E
331
1C8F
331
1CB8
331
1CB9
331
1CAE
331
1CAF
331
1CA2
331
1CA3
331
1C98
331
1C99
331
2086
331
2087
331
208D
331
208E
331
2096
331
2097
331
209D
331
209E
331
20A4
331
20A5
331
20AD
331
20AE
331
20B4
331
20B5
331
20BB
331
20BC
331
21B8
331
21B9
331
21BF
331
21C0
331
21C8
331
21C9
331
21CF
331
21D0
102
}
  0
BLOCK_RECORD
  5
2031
330
1
100
AcDbSymbolTableRecord
100
AcDbBlockTableRecord
  2
*D28
340
0
  0
BLOCK_RECORD
  5
203B
330
1
100
AcDbSymbolTableRecord
100
AcDbBlockTableRecord
  2
*D29
340
0
  0
BLOCK_RECORD
  5
2045
330
1
100
AcDbSymbolTableRecord
100
AcDbBlockTableRecord
  2
*D30
340
0
  0
BLOCK_RECORD
  5
2051
330
1
100
AcDbSymbolTableRecord
100
AcDbBlockTableRecord
  2
*D31
340
0
  0
BLOCK_RECORD
  5
218D
330
1
100
AcDbSymbolTableRecord
100
AcDbBlockTableRecord
  2
*D36
340
0
  0
BLOCK_RECORD
  5
2197
330
1
100
AcDbSymbolTableRecord
100
AcDbBlockTableRecord
  2
*D37
340
0
  0
BLOCK_RECORD
  5
21A1
330
1
100
AcDbSymbolTableRecord
100
AcDbBlockTableRecord
  2
*D38
340
0
  0
BLOCK_RECORD
  5
21AD
330
1
100
AcDbSymbolTableRecord
100
AcDbBlockTableRecord
  2
*D39
340
0
  0
ENDTAB
  0
ENDSEC
  0
SECTION
  2
BLOCKS
  0
BLOCK
  5
5
330
2
100
AcDbEntity
  8
0
100
AcDbBlockBegin
  2
*MODEL_SPACE
 70
     0
 10
0.0
 20
0.0
 30
0.0
  3
*MODEL_SPACE
  1

  0
ENDBLK
  5
10
330
2
100
AcDbEntity
  8
0
100
AcDbBlockEnd
  0
BLOCK
  5
1944
330
1942
100
AcDbEntity
 67
     1
  8
0
 48
4.0
100
AcDbBlockBegin
  2
*Paper_Space
 70
     0
 10
0.0
 20
0.0
 30
0.0
  3
*Paper_Space
  1

  0
ENDBLK
  5
1945
330
1942
100
AcDbEntity
 67
     1
  8
0
 48
4.0
100
AcDbBlockEnd
  0
BLOCK
  5
32
330
2F
100
AcDbEntity
  8
0
100
AcDbBlockBegin
  2
B-DIM
 70
     0
 10
0.0
 20
0.0
 30
0.0
  3
B-DIM
  1

  0
LINE
  5
33
330
2F
100
AcDbEntity
  8
0
 62
     1
100
AcDbLine
 10
0.000000000000091
 20
-1.1
 30
0.0
 11
0.000000000000091
 21
1.1
 31
0.0
  0
LWPOLYLINE
  5
34
330
2F
100
AcDbEntity
  8
0
 62
     1
100
AcDbPolyline
 90
        2
 70
     0
 43
0.3
 10
-0.7071067811864851
 20
-0.7071067811864851
 10
0.707106781186576
 20
0.707106781186576
  0
LINE
  5
35
330
2F
100
AcDbEntity
  8
0
 62
     1
100
AcDbLine
 10
1.20000000000009
 20
0.0
 30
0.0
 11
-1.199999999999909
 21
0.0
 31
0.0
  0
ENDBLK
  5
36
330
2F
100
AcDbEntity
  8
0
100
AcDbBlockEnd
  0
BLOCK
  5
2032
330
2031
100
AcDbEntity
  8
0
 48
4.0
100
AcDbBlockBegin
  2
*D28
 70
     1
 10
0.0
 20
0.0
 30
0.0
  3
*D28
  1

  0
LINE
  5
2085
330
2031
100
AcDbEntity
  8
WYMIARY
 62
     1
370
    -2
100
AcDbLine
 10
69171.5774906455
 20
-3660.16779898385
 30
0.0
 11
69171.5774906455
 21
-4470.167798983879
 31
0.0
  0
INSERT
  5
2086
330
2031
100
AcDbEntity
  8
WYMIARY
 62
     1
370
    -2
100
AcDbBlockReference
  2
B-DIM
 10
69171.5774906455
 20
-3630.16779898385
 30
0.0
 41
30.0
 42
30.0
 43
30.0
 50
90.0
  0
INSERT
  5
2087
330
2031
100
AcDbEntity
  8
WYMIARY
 62
     1
370
    -2
100
AcDbBlockReference
  2
B-DIM
 10
69171.5774906455
 20
-4500.167798983879
 30
0.0
 41
30.0
 42
30.0
 43
30.0
 50
270.0
  0
MTEXT
  5
2088
330
2031
100
AcDbEntity
  8
WYMIARY
 62
   140
100
AcDbMText
 10
69091.5774906455
 20
-4065.167798983853
 30
0.0
 40
80.0
 41
0.0
 71
     5
 72
     1
  1
\A1;870
  7
ROMANS
 11
0.0000000000000001
 21
1.0
 31
0.0
 73
     1
 44
1.0
1001
ACAD
1000
MTEXTBEGIN
1070
    73
1070
     1
1070
    44
1040
1.0
1070
    74
1070
     0
1000
MTEXTEND
  0
POINT
  5
2089
330
2031
100
AcDbEntity
  8
Defpoints
 62
     0
100
AcDbPoint
 10
69702.69869388141
 20
-3630.16779898385
 30
0.0
  0
POINT
  5
208A
330
2031
100
AcDbEntity
  8
Defpoints
 62
     0
100
AcDbPoint
 10
69742.1986938814
 20
-4500.167798983879
 30
0.0
  0
POINT
  5
208B
330
2031
100
AcDbEntity
  8
Defpoints
 62
     0
100
AcDbPoint
 10
69171.5774906455
 20
-4500.167798983879
 30
0.0
  0
ENDBLK
  5
2033
330
2031
100
AcDbEntity
  8
0
 48
4.0
100
AcDbBlockEnd
  0
BLOCK
  5
203C
330
203B
100
AcDbEntity
  8
0
 48
4.0
100
AcDbBlockBegin
  2
*D29
 70
     1
 10
0.0
 20
0.0
 30
0.0
  3
*D29
  1

  0
LINE
  5
208C
330
203B
100
AcDbEntity
  8
WYMIARY
 62
     1
370
    -2
100
AcDbLine
 10
69732.69869388141
 20
-2729.553229567435
 30
0.0
 11
70942.6986938814
 21
-2729.553229567435
 31
0.0
  0
INSERT
  5
208D
330
203B
100
AcDbEntity
  8
WYMIARY
 62
     1
370
    -2
100
AcDbBlockReference
  2
B-DIM
 10
69702.69869388141
 20
-2729.553229567435
 30
0.0
 41
30.0
 42
30.0
 43
30.0
 50
180.0
  0
INSERT
  5
208E
330
203B
100
AcDbEntity
  8
WYMIARY
 62
     1
370
    -2
100
AcDbBlockReference
  2
B-DIM
 10
70972.6986938814
 20
-2729.553229567435
 30
0.0
 41
30.0
 42
30.0
 43
30.0
  0
MTEXT
  5
208F
330
203B
100
AcDbEntity
  8
WYMIARY
 62
   140
100
AcDbMText
 10
70337.69869388141
 20
-2649.553229567435
 30
0.0
 40
80.0
 41
0.0
 71
     5
 72
     1
  1
\A1;1270
  7
ROMANS
 73
     1
 44
1.0
1001
ACAD
1000
MTEXTBEGIN
1070
    73
1070
     1
1070
    44
1040
1.0
1070
    74
1070
     0
1000
MTEXTEND
  0
POINT
  5
2090
330
203B
100
AcDbEntity
  8
Defpoints
 62
     0
100
AcDbPoint
 10
69702.69869388141
 20
-3630.16779898385
 30
0.0
  0
POINT
  5
2091
330
203B
100
AcDbEntity
  8
Defpoints
 62
     0
100
AcDbPoint
 10
70972.6986938814
 20
-3630.16779898385
 30
0.0
  0
POINT
  5
2092
330
203B
100
AcDbEntity
  8
Defpoints
 62
     0
100
AcDbPoint
 10
70972.6986938814
 20
-2729.553229567435
 30
0.0
  0
ENDBLK
  5
203D
330
203B
100
AcDbEntity
  8
0
 48
4.0
100
AcDbBlockEnd
  0
BLOCK
  5
2046
330
2045
100
AcDbEntity
  8
0
 48
4.0
100
AcDbBlockBegin
  2
*D30
 70
     1
 10
0.0
 20
0.0
 30
0.0
  3
*D30
  1

  0
LINE
  5
2093
330
2045
100
AcDbEntity
  8
WYMIARY
 62
     1
370
    -2
100
AcDbLine
 10
70942.6986938814
 20
-2729.553229567435
 30
0.0
 11
70912.69869388141
 21
-2729.553229567435
 31
0.0
  0
LINE
  5
2094
330
2045
100
AcDbEntity
  8
WYMIARY
 62
     1
370
    -2
100
AcDbLine
 10
71152.69869388141
 20
-2729.553229567435
 30
0.0
 11
71182.6986938814
 21
-2729.553229567435
 31
0.0
  0
LINE
  5
2095
330
2045
100
AcDbEntity
  8
WYMIARY
 62
     1
370
    -2
100
AcDbLine
 10
70972.6986938814
 20
-2729.553229567435
 30
0.0
 11
71122.69869388141
 21
-2729.553229567435
 31
0.0
  0
INSERT
  5
2096
330
2045
100
AcDbEntity
  8
WYMIARY
 62
     1
370
    -2
100
AcDbBlockReference
  2
B-DIM
 10
70972.6986938814
 20
-2729.553229567435
 30
0.0
 41
30.0
 42
30.0
 43
30.0
  0
INSERT
  5
2097
330
2045
100
AcDbEntity
  8
WYMIARY
 62
     1
370
    -2
100
AcDbBlockReference
  2
B-DIM
 10
71122.69869388141
 20
-2729.553229567435
 30
0.0
 41
30.0
 42
30.0
 43
30.0
 50
180.0
  0
MTEXT
  5
2098
330
2045
100
AcDbEntity
  8
WYMIARY
 62
   140
100
AcDbMText
 10
71047.69869388141
 20
-2649.553229567435
 30
0.0
 40
80.0
 41
0.0
 71
     5
 72
     1
  1
\A1;150
  7
ROMANS
 73
     1
 44
1.0
1001
ACAD
1000
MTEXTBEGIN
1070
    73
1070
     1
1070
    44
1040
1.0
1070
    74
1070
     0
1000
MTEXTEND
  0
POINT
  5
2099
330
2045
100
AcDbEntity
  8
Defpoints
 62
     0
100
AcDbPoint
 10
70972.6986938814
 20
-3630.16779898385
 30
0.0
  0
POINT
  5
209A
330
2045
100
AcDbEntity
  8
Defpoints
 62
     0
100
AcDbPoint
 10
71122.69869388141
 20
-3974.352304816232
 30
0.0
  0
POINT
  5
209B
330
2045
100
AcDbEntity
  8
Defpoints
 62
     0
100
AcDbPoint
 10
71122.69869388141
 20
-2729.553229567435
 30
0.0
  0
ENDBLK
  5
2047
330
2045
100
AcDbEntity
  8
0
 48
4.0
100
AcDbBlockEnd
  0
BLOCK
  5
2052
330
2051
100
AcDbEntity
  8
0
 48
4.0
100
AcDbBlockBegin
  2
*D31
 70
     1
 10
0.0
 20
0.0
 30
0.0
  3
*D31
  1

  0
LINE
  5
209C
330
2051
100
AcDbEntity
  8
WYMIARY
 62
     1
370
    -2
100
AcDbLine
 10
69732.69869388141
 20
-2498.572202422089
 30
0.0
 11
71092.69869388141
 21
-2498.572202422089
 31
0.0
  0
INSERT
  5
209D
330
2051
100
AcDbEntity
  8
WYMIARY
 62
     1
370
    -2
100
AcDbBlockReference
  2
B-DIM
 10
69702.69869388141
 20
-2498.572202422089
 30
0.0
 41
30.0
 42
30.0
 43
30.0
 50
180.0
  0
INSERT
  5
209E
330
2051
100
AcDbEntity
  8
WYMIARY
 62
     1
370
    -2
100
AcDbBlockReference
  2
B-DIM
 10
71122.69869388141
 20
-2498.572202422089
 30
0.0
 41
30.0
 42
30.0
 43
30.0
  0
MTEXT
  5
209F
330
2051
100
AcDbEntity
  8
WYMIARY
 62
   140
100
AcDbMText
 10
70412.6986938814
 20
-2418.572202422089
 30
0.0
 40
80.0
 41
0.0
 71
     5
 72
     1
  1
\A1;1420
  7
ROMANS
 73
     1
 44
1.0
1001
ACAD
1000
MTEXTBEGIN
1070
    73
1070
     1
1070
    44
1040
1.0
1070
    74
1070
     0
1000
MTEXTEND
  0
POINT
  5
20A0
330
2051
100
AcDbEntity
  8
Defpoints
 62
     0
100
AcDbPoint
 10
69702.69869388141
 20
-3630.16779898385
 30
0.0
  0
POINT
  5
20A1
330
2051
100
AcDbEntity
  8
Defpoints
 62
     0
100
AcDbPoint
 10
71122.69869388141
 20
-3974.352304816232
 30
0.0
  0
POINT
  5
20A2
330
2051
100
AcDbEntity
  8
Defpoints
 62
     0
100
AcDbPoint
 10
71122.69869388141
 20
-2498.572202422089
 30
0.0
  0
ENDBLK
  5
2053
330
2051
100
AcDbEntity
  8
0
 48
4.0
100
AcDbBlockEnd
  0
BLOCK
  5
218E
330
218D
100
AcDbEntity
  8
0
 48
4.0
100
AcDbBlockBegin
  2
*D36
 70
     1
 10
0.0
 20
0.0
 30
0.0
  3
*D36
  1

  0
LINE
  5
21B7
330
218D
100
AcDbEntity
  8
WYMIARY
 62
     1
370
    -2
100
AcDbLine
 10
76343.26000152475
 20
-3660.16779898385
 30
0.0
 11
76343.26000152475
 21
-4470.167798983879
 31
0.0
  0
INSERT
  5
21B8
330
218D
100
AcDbEntity
  8
WYMIARY
 62
     1
370
    -2
100
AcDbBlockReference
  2
B-DIM
 10
76343.26000152475
 20
-3630.16779898385
 30
0.0
 41
30.0
 42
30.0
 43
30.0
 50
90.0
  0
INSERT
  5
21B9
330
218D
100
AcDbEntity
  8
WYMIARY
 62
     1
370
    -2
100
AcDbBlockReference
  2
B-DIM
 10
76343.26000152475
 20
-4500.16779898388
 30
0.0
 41
30.0
 42
30.0
 43
30.0
 50
270.0
  0
MTEXT
  5
21BA
330
218D
100
AcDbEntity
  8
WYMIARY
 62
   140
100
AcDbMText
 10
76263.26000152475
 20
-4065.167798983853
 30
0.0
 40
80.0
 41
0.0
 71
     5
 72
     1
  1
\A1;870
  7
ROMANS
 11
0.0000000000000001
 21
1.0
 31
0.0
 73
     1
 44
1.0
1001
ACAD
1000
MTEXTBEGIN
1070
    73
1070
     1
1070
    44
1040
1.0
1070
    74
1070
     0
1000
MTEXTEND
  0
POINT
  5
21BB
330
218D
100
AcDbEntity
  8
Defpoints
 62
     0
100
AcDbPoint
 10
75812.13879828884
 20
-3630.16779898385
 30
0.0
  0
POINT
  5
21BC
330
218D
100
AcDbEntity
  8
Defpoints
 62
     0
100
AcDbPoint
 10
75772.63879828884
 20
-4500.167798983879
 30
0.0
  0
POINT
  5
21BD
330
218D
100
AcDbEntity
  8
Defpoints
 62
     0
100
AcDbPoint
 10
76343.26000152475
 20
-4500.16779898388
 30
0.0
  0
ENDBLK
  5
218F
330
218D
100
AcDbEntity
  8
0
 48
4.0
100
AcDbBlockEnd
  0
BLOCK
  5
2198
330
2197
100
AcDbEntity
  8
0
 48
4.0
100
AcDbBlockBegin
  2
*D37
 70
     1
 10
0.0
 20
0.0
 30
0.0
  3
*D37
  1

  0
LINE
  5
21BE
330
2197
100
AcDbEntity
  8
WYMIARY
 62
     1
370
    -2
100
AcDbLine
 10
75782.13879828884
 20
-2729.553229567435
 30
0.0
 11
74572.13879828884
 21
-2729.553229567435
 31
0.0
  0
INSERT
  5
21BF
330
2197
100
AcDbEntity
  8
WYMIARY
 62
     1
370
    -2
100
AcDbBlockReference
  2
B-DIM
 10
75812.13879828884
 20
-2729.553229567435
 30
0.0
 41
30.0
 42
30.0
 43
30.0
  0
INSERT
  5
21C0
330
2197
100
AcDbEntity
  8
WYMIARY
 62
     1
370
    -2
100
AcDbBlockReference
  2
B-DIM
 10
74542.13879828884
 20
-2729.553229567435
 30
0.0
 41
30.0
 42
30.0
 43
30.0
 50
180.0
  0
MTEXT
  5
21C1
330
2197
100
AcDbEntity
  8
WYMIARY
 62
   140
100
AcDbMText
 10
75177.13879828884
 20
-2649.553229567435
 30
0.0
 40
80.0
 41
0.0
 71
     5
 72
     1
  1
\A1;1270
  7
ROMANS
 73
     1
 44
1.0
1001
ACAD
1000
MTEXTBEGIN
1070
    73
1070
     1
1070
    44
1040
1.0
1070
    74
1070
     0
1000
MTEXTEND
  0
POINT
  5
21C2
330
2197
100
AcDbEntity
  8
Defpoints
 62
     0
100
AcDbPoint
 10
75812.13879828884
 20
-3630.16779898385
 30
0.0
  0
POINT
  5
21C3
330
2197
100
AcDbEntity
  8
Defpoints
 62
     0
100
AcDbPoint
 10
74542.13879828884
 20
-3630.16779898385
 30
0.0
  0
POINT
  5
21C4
330
2197
100
AcDbEntity
  8
Defpoints
 62
     0
100
AcDbPoint
 10
74542.13879828884
 20
-2729.553229567435
 30
0.0
  0
ENDBLK
  5
2199
330
2197
100
AcDbEntity
  8
0
 48
4.0
100
AcDbBlockEnd
  0
BLOCK
  5
21A2
330
21A1
100
AcDbEntity
  8
0
 48
4.0
100
AcDbBlockBegin
  2
*D38
 70
     1
 10
0.0
 20
0.0
 30
0.0
  3
*D38
  1

  0
LINE
  5
21C5
330
21A1
100
AcDbEntity
  8
WYMIARY
 62
     1
370
    -2
100
AcDbLine
 10
74572.13879828884
 20
-2729.553229567435
 30
0.0
 11
74602.13879828884
 21
-2729.553229567435
 31
0.0
  0
LINE
  5
21C6
330
21A1
100
AcDbEntity
  8
WYMIARY
 62
     1
370
    -2
100
AcDbLine
 10
74362.13879828884
 20
-2729.553229567435
 30
0.0
 11
74332.13879828884
 21
-2729.553229567435
 31
0.0
  0
LINE
  5
21C7
330
21A1
100
AcDbEntity
  8
WYMIARY
 62
     1
370
    -2
100
AcDbLine
 10
74542.13879828884
 20
-2729.553229567435
 30
0.0
 11
74392.13879828884
 21
-2729.553229567435
 31
0.0
  0
INSERT
  5
21C8
330
21A1
100
AcDbEntity
  8
WYMIARY
 62
     1
370
    -2
100
AcDbBlockReference
  2
B-DIM
 10
74542.13879828884
 20
-2729.553229567435
 30
0.0
 41
30.0
 42
30.0
 43
30.0
 50
180.0
  0
INSERT
  5
21C9
330
21A1
100
AcDbEntity
  8
WYMIARY
 62
     1
370
    -2
100
AcDbBlockReference
  2
B-DIM
 10
74392.13879828884
 20
-2729.553229567435
 30
0.0
 41
30.0
 42
30.0
 43
30.0
  0
MTEXT
  5
21CA
330
21A1
100
AcDbEntity
  8
WYMIARY
 62
   140
100
AcDbMText
 10
74467.13879828884
 20
-2649.553229567435
 30
0.0
 40
80.0
 41
0.0
 71
     5
 72
     1
  1
\A1;150
  7
ROMANS
 73
     1
 44
1.0
1001
ACAD
1000
MTEXTBEGIN
1070
    73
1070
     1
1070
    44
1040
1.0
1070
    74
1070
     0
1000
MTEXTEND
  0
POINT
  5
21CB
330
21A1
100
AcDbEntity
  8
Defpoints
 62
     0
100
AcDbPoint
 10
74542.13879828884
 20
-3630.16779898385
 30
0.0
  0
POINT
  5
21CC
330
21A1
100
AcDbEntity
  8
Defpoints
 62
     0
100
AcDbPoint
 10
74392.13879828884
 20
-3974.352304816232
 30
0.0
  0
POINT
  5
21CD
330
21A1
100
AcDbEntity
  8
Defpoints
 62
     0
100
AcDbPoint
 10
74392.13879828884
 20
-2729.553229567435
 30
0.0
  0
ENDBLK
  5
21A3
330
21A1
100
AcDbEntity
  8
0
 48
4.0
100
AcDbBlockEnd
  0
BLOCK
  5
21AE
330
21AD
100
AcDbEntity
  8
0
 48
4.0
100
AcDbBlockBegin
  2
*D39
 70
     1
 10
0.0
 20
0.0
 30
0.0
  3
*D39
  1

  0
LINE
  5
21CE
330
21AD
100
AcDbEntity
  8
WYMIARY
 62
     1
370
    -2
100
AcDbLine
 10
75782.13879828884
 20
-2498.572202422089
 30
0.0
 11
74422.13879828884
 21
-2498.572202422089
 31
0.0
  0
INSERT
  5
21CF
330
21AD
100
AcDbEntity
  8
WYMIARY
 62
     1
370
    -2
100
AcDbBlockReference
  2
B-DIM
 10
75812.13879828884
 20
-2498.572202422089
 30
0.0
 41
30.0
 42
30.0
 43
30.0
  0
INSERT
  5
21D0
330
21AD
100
AcDbEntity
  8
WYMIARY
 62
     1
370
    -2
100
AcDbBlockReference
  2
B-DIM
 10
74392.13879828884
 20
-2498.572202422089
 30
0.0
 41
30.0
 42
30.0
 43
30.0
 50
180.0
  0
MTEXT
  5
21D1
330
21AD
100
AcDbEntity
  8
WYMIARY
 62
   140
100
AcDbMText
 10
75102.13879828884
 20
-2418.572202422089
 30
0.0
 40
80.0
 41
0.0
 71
     5
 72
     1
  1
\A1;1420
  7
ROMANS
 73
     1
 44
1.0
1001
ACAD
1000
MTEXTBEGIN
1070
    73
1070
     1
1070
    44
1040
1.0
1070
    74
1070
     0
1000
MTEXTEND
  0
POINT
  5
21D2
330
21AD
100
AcDbEntity
  8
Defpoints
 62
     0
100
AcDbPoint
 10
75812.13879828884
 20
-3630.16779898385
 30
0.0
  0
POINT
  5
21D3
330
21AD
100
AcDbEntity
  8
Defpoints
 62
     0
100
AcDbPoint
 10
74392.13879828884
 20
-3974.352304816232
 30
0.0
  0
POINT
  5
21D4
330
21AD
100
AcDbEntity
  8
Defpoints
 62
     0
100
AcDbPoint
 10
74392.13879828884
 20
-2498.572202422089
 30
0.0
  0
ENDBLK
  5
21AF
330
21AD
100
AcDbEntity
  8
0
 48
4.0
100
AcDbBlockEnd
  0
ENDSEC
  0
SECTION
  2
ENTITIES
  0
TEXT
  5
1E80
330
2
100
AcDbEntity
  8
NAPISY
100
AcDbText
 10
69004.0815024824
 20
-12164.847736554
 30
0.0
 40
100.0
  1
   O B R Y S   B U D Y N K U           S K A L A   1 : 5 0 0 
  7
AVA
100
AcDbText
  0
LINE
  5
1E81
330
2
100
AcDbEntity
  8
NAPISY
  6
DASHED
 62
     1
 48
25.0
370
     5
100
AcDbLine
 10
72757.41874608512
 20
-6817.256766907623
 30
0.0
 11
72757.41874608512
 21
-2014.799709430241
 31
0.0
  0
TEXT
  5
1E82
330
2
100
AcDbEntity
  8
NAPISY
100
AcDbText
 10
72697.8975690918
 20
-5735.609604087091
 30
0.0
 40
100.0
  1
OŚ ODBICIA LUSTRZANEGO
 50
90.0
  7
AVA
100
AcDbText
  0
TEXT
  5
1E84
330
2
100
AcDbEntity
  8
NAPISY
100
AcDbText
 10
69100.29455360029
 20
298.5175243278645
 30
0.0
 40
150.0
  1
MOŻNA WKLEIĆ DO PROJEKTU ZAGOSPODAROWANIA TERENU
  7
AVA
100
AcDbText
  0
TEXT
  5
1E85
330
2
100
AcDbEntity
  8
NAPISY
100
AcDbText
 10
69023.95928296515
 20
628.3860016906255
 30
0.0
 40
150.0
  1
"DOM W GLICYNIACH"
  7
AVA
100
AcDbText
  0
LWPOLYLINE
  5
1E86
330
2
100
AcDbEntity
  8
RAMKI-A4
100
AcDbPolyline
 90
        4
 70
     1
 43
0.0
 10
67544.72955580741
 20
-12830.40381945653
 10
67544.72955580741
 20
1189.596180543463
 10
77744.72955580744
 20
1189.596180543463
 10
77744.72955580744
 20
-12830.40381945653
  0
HATCH
  5
1E9B
330
2
100
AcDbEntity
  8
0Hatch
100
AcDbHatch
 10
0.0
 20
0.0
 30
0.0
210
0.0
220
0.0
230
1.0
  2
SOLID
 70
     1
 71
     1
 91
        2
 92
        7
 72
     0
 73
     1
 93
       24
 10
69702.69869388141
 20
-3630.16779898385
 10
69702.69869388141
 20
-4500.167798983879
 10
69781.69869388141
 20
-4500.167798983879
 10
69781.69869388141
 20
-4440.167798983878
 10
69762.69869388141
 20
-4440.167798983878
 10
69762.69869388141
 20
-3690.16779898385
 10
70912.69869388141
 20
-3690.16779898385
 10
70912.69869388141
 20
-3925.16779898388
 10
70988.66137430673
 20
-3925.16779898388
 10
71062.69869388141
 20
-3999.205118558613
 10
71062.69869388141
 20
-4079.130479409147
 10
70988.66137430674
 20
-4153.167798983879
 10
70912.69869388139
 20
-4153.167798983878
 10
70912.69869388141
 20
-4440.167798983877
 10
70417.69869388141
 20
-4440.16779898388
 10
70417.69869388141
 20
-4500.167798983879
 10
70972.69869388139
 20
-4500.167798983879
 10
70972.6986938814
 20
-4213.167798983879
 10
71013.51418804914
 20
-4213.167798983879
 10
71122.69869388141
 20
-4103.983293151528
 10
71122.69869388142
 20
-3974.35230481625
 10
71013.51418804914
 20
-3865.167798983879
 10
70972.6986938814
 20
-3865.167798983879
 10
70972.6986938814
 20
-3630.16779898385
 97
        4
330
1F5E
330
1E9F
330
1EA0
330
1E9D
 92
       23
 72
     0
 73
     1
 93
        4
 10
70257.69869388141
 20
-4500.167798983879
 10
70257.69869388139
 20
-4440.167798983878
 10
70021.69869388139
 20
-4440.167798983878
 10
70021.69869388142
 20
-4500.167798983879
 97
        4
330
1EA0
330
1E9E
330
1F5E
330
1E9C
 75
     0
 76
     1
 47
2.78404817685206
 98
        2
 10
70490.62500391651
 20
-3658.527109659466
 10
70164.73511805803
 20
-4485.389398923915
1001
ACAD
1010
0.0
1020
0.0
1030
0.0
  0
LINE
  5
1E9C
102
{ACAD_REACTORS
330
1E9B
102
}
330
2
100
AcDbEntity
  8
0Hatch
100
AcDbLine
 10
70257.69869388141
 20
-4500.167798983879
 30
0.0
 11
70257.69869388141
 21
-4440.167798983878
 31
0.0
  0
LINE
  5
1E9D
102
{ACAD_REACTORS
330
1E9B
102
}
330
2
100
AcDbEntity
  8
0Hatch
100
AcDbLine
 10
70417.69869388141
 20
-4500.167798983879
 30
0.0
 11
70417.69869388141
 21
-4440.167798983878
 31
0.0
  0
LINE
  5
1E9E
102
{ACAD_REACTORS
330
1E9B
102
}
330
2
100
AcDbEntity
  8
0Hatch
100
AcDbLine
 10
70021.69869388141
 20
-4500.167798983879
 30
0.0
 11
70021.69869388141
 21
-4440.167798983878
 31
0.0
  0
LINE
  5
1E9F
102
{ACAD_REACTORS
330
1E9B
102
}
330
2
100
AcDbEntity
  8
0Hatch
100
AcDbLine
 10
69781.69869388141
 20
-4500.167798983879
 30
0.0
 11
69781.69869388141
 21
-4440.167798983878
 31
0.0
  0
LWPOLYLINE
  5
1EA0
102
{ACAD_REACTORS
330
1E9B
102
}
330
2
100
AcDbEntity
  8
0Hatch
100
AcDbPolyline
 90
       14
 70
     1
 43
0.0
 10
69762.69869388141
 20
-3690.16779898385
 10
69762.69869388141
 20
-4440.167798983878
 10
69781.69869388138
 20
-4440.167798983878
 10
70021.69869388141
 20
-4440.167798983878
 10
70257.69869388141
 20
-4440.167798983878
 10
70417.69869388141
 20
-4440.167798983878
 10
70912.69869388141
 20
-4440.167798983878
 10
70912.69869388141
 20
-4153.167798983878
 10
70988.66137430673
 20
-4153.167798983878
 10
71062.69869388141
 20
-4079.13047940914
 10
71062.69869388141
 20
-3999.205118558617
 10
70988.66137430673
 20
-3925.167798983879
 10
70912.69869388141
 20
-3925.167798983879
 10
70912.69869388141
 20
-3690.16779898385
  0
LINE
  5
1EA1
330
2
100
AcDbEntity
  8
TEREN$0$A-MassElement-G
100
AcDbLine
 10
70097.69869388141
 20
-3366.66779898385
 30
0.0
 11
70097.69869388141
 21
-3630.16779898385
 31
0.0
  0
LINE
  5
1EA2
330
2
100
AcDbEntity
  8
TEREN$0$A-MassElement-G
100
AcDbLine
 10
70346.90712902752
 20
-3366.66779898385
 30
0.0
 11
70097.69869388141
 21
-3366.66779898385
 31
0.0
  0
LINE
  5
1EA3
330
2
100
AcDbEntity
  8
TEREN$0$A-MassElement-G
100
AcDbLine
 10
71077.69869388141
 20
-3366.66779898385
 30
0.0
 11
70546.90712902751
 21
-3366.66779898385
 31
0.0
  0
LINE
  5
1EA4
330
2
100
AcDbEntity
  8
TEREN$0$A-MassElement-G
100
AcDbLine
 10
71097.09492073425
 20
-3367.939094857356
 30
0.0
 11
71077.69869388141
 21
-3366.66779898385
 31
0.0
  0
LINE
  5
1EA5
330
2
100
AcDbEntity
  8
TEREN$0$A-MassElement-G
100
AcDbLine
 10
71116.71043589311
 20
-3370.423845830155
 30
0.0
 11
71097.09492073425
 21
-3367.939094857356
 31
0.0
  0
LINE
  5
1EA6
330
2
100
AcDbEntity
  8
TEREN$0$A-MassElement-G
100
AcDbLine
 10
71137.22707425498
 20
-3374.504858937391
 30
0.0
 11
71116.71043589311
 21
-3370.423845830155
 31
0.0
  0
LINE
  5
1EA7
330
2
100
AcDbEntity
  8
TEREN$0$A-MassElement-G
100
AcDbLine
 10
71155.17981651924
 20
-3381.618166777291
 30
0.0
 11
71137.22707425498
 21
-3374.504858937391
 31
0.0
  0
LINE
  5
1EA8
330
2
100
AcDbEntity
  8
TEREN$0$A-MassElement-G
100
AcDbLine
 10
71173.33315330812
 20
-3389.460616253215
 30
0.0
 11
71155.17981651924
 21
-3381.618166777291
 31
0.0
  0
LINE
  5
1EA9
330
2
100
AcDbEntity
  8
TEREN$0$A-MassElement-G
100
AcDbLine
 10
71192.69869388141
 20
-3397.481956113435
 30
0.0
 11
71173.33315330812
 21
-3389.460616253215
 31
0.0
  0
LINE
  5
1EAA
330
2
100
AcDbEntity
  8
TEREN$0$A-MassElement-G
100
AcDbLine
 10
71209.22265262045
 20
-3408.522912356726
 30
0.0
 11
71192.69869388141
 21
-3397.481956113435
 31
0.0
  0
LINE
  5
1EAB
330
2
100
AcDbEntity
  8
TEREN$0$A-MassElement-G
100
AcDbLine
 10
71224.1076371908
 20
-3419.803755662594
 30
0.0
 11
71209.22265262045
 21
-3408.522912356726
 31
0.0
  0
LINE
  5
1EAC
330
2
100
AcDbEntity
  8
TEREN$0$A-MassElement-G
100
AcDbLine
 10
71238.88349707508
 20
-3432.761837001613
 30
0.0
 11
71224.1076371908
 21
-3419.803755662594
 31
0.0
  0
LINE
  5
1EAD
330
2
100
AcDbEntity
  8
TEREN$0$A-MassElement-G
100
AcDbLine
 10
71252.39977313882
 20
-3447.792467857784
 30
0.0
 11
71238.88349707508
 21
-3432.761837001613
 31
0.0
  0
LINE
  5
1EAE
330
2
100
AcDbEntity
  8
TEREN$0$A-MassElement-G
100
AcDbLine
 10
71264.85176081858
 20
-3463.659477181282
 30
0.0
 11
71252.39977313882
 21
-3447.792467857784
 31
0.0
  0
LINE
  5
1EAF
330
2
100
AcDbEntity
  8
TEREN$0$A-MassElement-G
100
AcDbLine
 10
71275.77225201412
 20
-3480.003147235708
 30
0.0
 11
71264.85176081858
 21
-3463.659477181282
 31
0.0
  0
LINE
  5
1EB0
330
2
100
AcDbEntity
  8
TEREN$0$A-MassElement-G
100
AcDbLine
 10
71284.91985169159
 20
-3497.961805813524
 30
0.0
 11
71275.77225201412
 21
-3480.003147235708
 31
0.0
  0
LINE
  5
1EB1
330
2
100
AcDbEntity
  8
TEREN$0$A-MassElement-G
100
AcDbLine
 10
71293.18505368701
 20
-3516.258665561516
 30
0.0
 11
71284.91985169159
 21
-3497.961805813524
 31
0.0
  0
LINE
  5
1EB2
330
2
100
AcDbEntity
  8
TEREN$0$A-MassElement-G
100
AcDbLine
 10
71299.26813836607
 20
-3535.614690585513
 30
0.0
 11
71293.18505368701
 21
-3516.258665561516
 31
0.0
  0
LINE
  5
1EB3
330
2
100
AcDbEntity
  8
TEREN$0$A-MassElement-G
100
AcDbLine
 10
71303.78408759741
 20
-3554.413867234384
 30
0.0
 11
71299.26813836607
 21
-3534.967059354924
 31
0.0
  0
LINE
  5
1EB4
330
2
100
AcDbEntity
  8
TEREN$0$A-MassElement-G
100
AcDbLine
 10
71306.22282088785
 20
-3574.150328435659
 30
0.0
 11
71303.78408759741
 21
-3554.413867234384
 31
0.0
  0
LINE
  5
1EB5
330
2
100
AcDbEntity
  8
TEREN$0$A-MassElement-G
100
AcDbLine
 10
71307.50786674382
 20
-3593.756339482105
 30
0.0
 11
71306.22282088785
 21
-3574.150328435659
 31
0.0
  0
LINE
  5
1EB6
330
2
100
AcDbEntity
  8
TEREN$0$A-MassElement-G
100
AcDbLine
 10
71307.6986938814
 20
-3642.773878842171
 30
0.0
 11
71307.50786674382
 21
-3593.756339482105
 31
0.0
  0
LINE
  5
1EB7
330
2
100
AcDbEntity
  8
TEREN$0$A-MassElement-G
100
AcDbLine
 10
71307.6986938814
 20
-3817.773878842171
 30
0.0
 11
71307.6986938814
 21
-3642.773878842171
 31
0.0
  0
LINE
  5
1EB8
330
2
100
AcDbEntity
  8
TEREN$0$A-MassElement-G
100
AcDbLine
 10
71307.6986938814
 20
-3842.773878842171
 30
0.0
 11
71307.6986938814
 21
-3817.773878842171
 31
0.0
  0
LINE
  5
1EB9
330
2
100
AcDbEntity
  8
TEREN$0$A-MassElement-G
100
AcDbLine
 10
71307.6986938814
 20
-3860.761102621982
 30
0.0
 11
71307.6986938814
 21
-3842.773878842171
 31
0.0
  0
LINE
  5
1EBA
330
2
100
AcDbEntity
  8
TEREN$0$A-MassElement-G
100
AcDbLine
 10
71307.6986938814
 20
-3876.874529250738
 30
0.0
 11
71307.6986938814
 21
-3860.761102621982
 31
0.0
  0
LINE
  5
1EBB
330
2
100
AcDbEntity
  8
TEREN$0$A-MassElement-G
100
AcDbLine
 10
71307.82807446642
 20
-3896.77892694484
 30
0.0
 11
71307.6986938814
 21
-3876.874529250738
 31
0.0
  0
LINE
  5
1EBC
330
2
100
AcDbEntity
  8
TEREN$0$A-MassElement-G
100
AcDbLine
 10
71306.99030029158
 20
-3914.958051079666
 30
0.0
 11
71307.82807446642
 21
-3896.77892694484
 31
0.0
  0
LINE
  5
1EBD
330
2
100
AcDbEntity
  8
TEREN$0$A-MassElement-G
100
AcDbLine
 10
71304.89278053549
 20
-3931.167517012902
 30
0.0
 11
71306.99030029158
 21
-3914.958051079666
 31
0.0
  0
LINE
  5
1EBE
330
2
100
AcDbEntity
  8
TEREN$0$A-MassElement-G
100
AcDbLine
 10
71301.1335900518
 20
-3948.738213800723
 30
0.0
 11
71304.89278053549
 21
-3931.167517012902
 31
0.0
  0
LINE
  5
1EBF
330
2
100
AcDbEntity
  8
TEREN$0$A-MassElement-G
100
AcDbLine
 10
71295.27593461181
 20
-3967.606276751744
 30
0.0
 11
71301.1335900518
 21
-3948.738213800723
 31
0.0
  0
LINE
  5
1EC0
330
2
100
AcDbEntity
  8
TEREN$0$A-MassElement-G
100
AcDbLine
 10
71288.42329700217
 20
-3984.217077911759
 30
0.0
 11
71295.27593461181
 21
-3967.606276751744
 31
0.0
  0
LINE
  5
1EC1
330
2
100
AcDbEntity
  8
TEREN$0$A-MassElement-G
100
AcDbLine
 10
71280.02351152587
 20
-4000.432834927647
 30
0.0
 11
71288.42329700217
 21
-3984.217077911759
 31
0.0
  0
LINE
  5
1EC2
330
2
100
AcDbEntity
  8
TEREN$0$A-MassElement-G
100
AcDbLine
 10
71270.42693674004
 20
-4015.586245206402
 30
0.0
 11
71280.02351152587
 21
-4000.432834927647
 31
0.0
  0
LINE
  5
1EC3
330
2
100
AcDbEntity
  8
TEREN$0$A-MassElement-G
100
AcDbLine
 10
71259.46933351356
 20
-4029.694001213836
 30
0.0
 11
71270.42693674004
 21
-4015.586245206402
 31
0.0
  0
LINE
  5
1EC4
330
2
100
AcDbEntity
  8
TEREN$0$A-MassElement-G
100
AcDbLine
 10
71247.51682437352
 20
-4043.323225764805
 30
0.0
 11
71259.46933351356
 21
-4029.694001213836
 31
0.0
  0
LINE
  5
1EC5
330
2
100
AcDbEntity
  8
TEREN$0$A-MassElement-G
100
AcDbLine
 10
71234.48449090989
 20
-4055.27834440254
 30
0.0
 11
71247.51682437352
 21
-4043.323225764805
 31
0.0
  0
LINE
  5
1EC6
330
2
100
AcDbEntity
  8
TEREN$0$A-MassElement-G
100
AcDbLine
 10
71220.3238642451
 20
-4066.348617828873
 30
0.0
 11
71234.48449090989
 21
-4055.27834440254
 31
0.0
  0
LINE
  5
1EC7
330
2
100
AcDbEntity
  8
TEREN$0$A-MassElement-G
100
AcDbLine
 10
71205.7176484657
 20
-4075.89278387629
 30
0.0
 11
71220.3238642451
 21
-4066.348617828873
 31
0.0
  0
LINE
  5
1EC8
330
2
100
AcDbEntity
  8
TEREN$0$A-MassElement-G
100
AcDbLine
 10
71190.54729069081
 20
-4084.097580154063
 30
0.0
 11
71205.7176484657
 21
-4075.89278387629
 31
0.0
  0
LINE
  5
1EC9
330
2
100
AcDbEntity
  8
TEREN$0$A-MassElement-G
100
AcDbLine
 10
71168.37550755376
 20
-4093.393368094417
 30
0.0
 11
71190.54729069081
 21
-4084.097580154063
 31
0.0
  0
LINE
  5
1ECA
330
2
100
AcDbEntity
  8
TEREN$0$A-MassElement-G
100
AcDbLine
 10
71141.67476066291
 20
-4100.872523450539
 30
0.0
 11
71168.37550755376
 21
-4093.393368094417
 31
0.0
  0
LINE
  5
1ECB
330
2
100
AcDbEntity
  8
TEREN$0$A-MassElement-G
100
AcDbLine
 10
71122.77885122147
 20
-4103.903135811488
 30
0.0
 11
71141.67476066291
 21
-4100.872523450539
 31
0.0
  0
LINE
  5
1ECC
330
2
100
AcDbEntity
  8
TEREN$0$A-MassElement-G
100
AcDbLine
 10
71127.14350431573
 20
-4161.50494582222
 30
0.0
 11
71069.36658649503
 21
-4157.315400537933
 31
0.0
  0
LINE
  5
1ECD
330
2
100
AcDbEntity
  8
TEREN$0$A-MassElement-G
100
AcDbLine
 10
71168.76365260185
 20
-4157.786095724601
 30
0.0
 11
71127.14350431573
 21
-4161.50494582222
 31
0.0
  0
LINE
  5
1ECE
330
2
100
AcDbEntity
  8
TEREN$0$A-MassElement-G
100
AcDbLine
 10
71211.61546331442
 20
-4145.573649393496
 30
0.0
 11
71168.76365260185
 21
-4157.786095724601
 31
0.0
  0
LINE
  5
1ECF
330
2
100
AcDbEntity
  8
TEREN$0$A-MassElement-G
100
AcDbLine
 10
71230.83281471663
 20
-4133.92553392383
 30
0.0
 11
71211.61546331442
 21
-4145.573649393496
 31
0.0
  0
LINE
  5
1ED0
330
2
100
AcDbEntity
  8
TEREN$0$A-MassElement-G
100
AcDbLine
 10
71249.12235228181
 20
-4120.868811342588
 30
0.0
 11
71230.83281471663
 21
-4133.92553392383
 31
0.0
  0
LINE
  5
1ED1
330
2
100
AcDbEntity
  8
TEREN$0$A-MassElement-G
100
AcDbLine
 10
71266.38103543695
 20
-4106.477041310355
 30
0.0
 11
71249.12235228181
 21
-4120.868811342588
 31
0.0
  0
LINE
  5
1ED2
330
2
100
AcDbEntity
  8
TEREN$0$A-MassElement-G
100
AcDbLine
 10
71282.51163129172
 20
-4090.831304949257
 30
0.0
 11
71266.38103543695
 21
-4106.477041310355
 31
0.0
  0
LINE
  5
1ED3
330
2
100
AcDbEntity
  8
TEREN$0$A-MassElement-G
100
AcDbLine
 10
71297.42326243421
 20
-4074.019748043952
 30
0.0
 11
71282.51163129172
 21
-4090.831304949257
 31
0.0
  0
LINE
  5
1ED4
330
2
100
AcDbEntity
  8
TEREN$0$A-MassElement-G
100
AcDbLine
 10
71311.03191892099
 20
-4056.137084441041
 30
0.0
 11
71297.42326243421
 21
-4074.019748043952
 31
0.0
  0
LINE
  5
1ED5
330
2
100
AcDbEntity
  8
TEREN$0$A-MassElement-G
100
AcDbLine
 10
71323.26093157679
 20
-4037.284062445207
 30
0.0
 11
71311.03191892099
 21
-4056.137084441041
 31
0.0
  0
LINE
  5
1ED6
330
2
100
AcDbEntity
  8
TEREN$0$A-MassElement-G
100
AcDbLine
 10
71334.32059701222
 20
-4016.950456283273
 30
0.0
 11
71323.26093157679
 21
-4037.284062445207
 31
0.0
  0
LINE
  5
1ED7
330
2
100
AcDbEntity
  8
TEREN$0$A-MassElement-G
100
AcDbLine
 10
71343.31260040212
 20
-3997.096672377564
 30
0.0
 11
71334.32059701222
 21
-4016.950456283273
 31
0.0
  0
LINE
  5
1ED8
330
2
100
AcDbEntity
  8
TEREN$0$A-MassElement-G
100
AcDbLine
 10
71351.02228840957
 20
-3975.988714168881
 30
0.0
 11
71343.31260040212
 21
-3997.096672377564
 31
0.0
  0
LINE
  5
1ED9
330
2
100
AcDbEntity
  8
TEREN$0$A-MassElement-G
100
AcDbLine
 10
71357.12703270787
 20
-3954.361941733703
 30
0.0
 11
71351.02228840957
 21
-3975.988714168881
 31
0.0
  0
LINE
  5
1EDA
330
2
100
AcDbEntity
  8
TEREN$0$A-MassElement-G
100
AcDbLine
 10
71361.59244006277
 20
-3932.338197136895
 30
0.0
 11
71357.12703270787
 21
-3954.361941733703
 31
0.0
  0
LINE
  5
1EDB
330
2
100
AcDbEntity
  8
TEREN$0$A-MassElement-G
100
AcDbLine
 10
71364.39335302399
 20
-3910.0415589263
 30
0.0
 11
71361.59244006277
 21
-3932.338197136895
 31
0.0
  0
LINE
  5
1EDC
330
2
100
AcDbEntity
  8
TEREN$0$A-MassElement-G
100
AcDbLine
 10
71365.51399165859
 20
-3887.597643092377
 30
0.0
 11
71364.39335302399
 21
-3910.0415589263
 31
0.0
  0
LINE
  5
1EDD
330
2
100
AcDbEntity
  8
TEREN$0$A-MassElement-G
100
AcDbLine
 10
71364.94804245276
 20
-3865.132895366042
 30
0.0
 11
71365.51399165859
 21
-3887.597643092377
 31
0.0
  0
LINE
  5
1EDE
330
2
100
AcDbEntity
  8
TEREN$0$A-MassElement-G
100
AcDbLine
 10
71367.69869388141
 20
-3842.773878842171
 30
0.0
 11
71364.94804245276
 21
-3865.132895366042
 31
0.0
  0
LINE
  5
1EDF
330
2
100
AcDbEntity
  8
TEREN$0$A-MassElement-G
100
AcDbLine
 10
71367.69869388141
 20
-3642.773878842171
 30
0.0
 11
71367.69869388141
 21
-3842.773878842171
 31
0.0
  0
LINE
  5
1EE0
330
2
100
AcDbEntity
  8
TEREN$0$A-MassElement-G
100
AcDbLine
 10
71362.27531163041
 20
-3630.284058916921
 30
0.0
 11
71367.69869388141
 21
-3642.773878842171
 31
0.0
  0
LINE
  5
1EE1
330
2
100
AcDbEntity
  8
TEREN$0$A-MassElement-G
100
AcDbLine
 10
71362.27531163041
 20
-3607.794238991643
 30
0.0
 11
71362.27531163041
 21
-3630.284058916921
 31
0.0
  0
LINE
  5
1EE2
330
2
100
AcDbEntity
  8
TEREN$0$A-MassElement-G
100
AcDbLine
 10
71361.50210048306
 20
-3585.323087192592
 30
0.0
 11
71362.27531163041
 21
-3607.794238991643
 31
0.0
  0
LINE
  5
1EE3
330
2
100
AcDbEntity
  8
TEREN$0$A-MassElement-G
100
AcDbLine
 10
71359.02181280976
 20
-3562.975934184899
 30
0.0
 11
71361.50210048306
 21
-3585.323087192592
 31
0.0
  0
LINE
  5
1EE4
330
2
100
AcDbEntity
  8
TEREN$0$A-MassElement-G
100
AcDbLine
 10
71355.28922095727
 20
-3541.325111121478
 30
0.0
 11
71359.02181280976
 21
-3562.975934184899
 31
0.0
  0
LINE
  5
1EE5
330
2
100
AcDbEntity
  8
TEREN$0$A-MassElement-G
100
AcDbLine
 10
71348.25299852666
 20
-3519.171419671053
 30
0.0
 11
71355.28922095727
 21
-3541.325111121478
 31
0.0
  0
LINE
  5
1EE6
330
2
100
AcDbEntity
  8
TEREN$0$A-MassElement-G
100
AcDbLine
 10
71341.51875914463
 20
-3497.968528077749
 30
0.0
 11
71348.25299852666
 21
-3519.171419671053
 31
0.0
  0
LINE
  5
1EE7
330
2
100
AcDbEntity
  8
TEREN$0$A-MassElement-G
100
AcDbLine
 10
71332.44334299368
 20
-3477.39709409322
 30
0.0
 11
71341.51875914463
 21
-3497.968528077749
 31
0.0
  0
LINE
  5
1EE8
330
2
100
AcDbEntity
  8
TEREN$0$A-MassElement-G
100
AcDbLine
 10
71321.82750831353
 20
-3457.576621633271
 30
0.0
 11
71332.44334299368
 21
-3477.39709409322
 31
0.0
  0
LINE
  5
1EE9
330
2
100
AcDbEntity
  8
TEREN$0$A-MassElement-G
100
AcDbLine
 10
71309.73292478723
 20
-3438.622252115471
 30
0.0
 11
71321.82750831353
 21
-3457.576621633271
 31
0.0
  0
LINE
  5
1EEA
330
2
100
AcDbEntity
  8
TEREN$0$A-MassElement-G
100
AcDbLine
 10
71296.22985247012
 20
-3418.579709861908
 30
0.0
 11
71309.73292478723
 21
-3438.622252115471
 31
0.0
  0
LINE
  5
1EEB
330
2
100
AcDbEntity
  8
TEREN$0$A-MassElement-G
100
AcDbLine
 10
71281.39673363401
 20
-3403.746591025833
 30
0.0
 11
71296.22985247012
 21
-3418.579709861908
 31
0.0
  0
LINE
  5
1EEC
330
2
100
AcDbEntity
  8
TEREN$0$A-MassElement-G
100
AcDbLine
 10
71265.31973707913
 20
-3388.027899723253
 30
0.0
 11
71281.39673363401
 21
-3403.746591025833
 31
0.0
  0
LINE
  5
1EED
330
2
100
AcDbEntity
  8
TEREN$0$A-MassElement-G
100
AcDbLine
 10
71248.09225756065
 20
-3373.579334952592
 30
0.0
 11
71265.31973707913
 21
-3388.027899723253
 31
0.0
  0
LINE
  5
1EEE
330
2
100
AcDbEntity
  8
TEREN$0$A-MassElement-G
100
AcDbLine
 10
71230.79555135009
 20
-3360.484831556082
 30
0.0
 11
71248.09225756065
 21
-3373.579334952592
 31
0.0
  0
LINE
  5
1EEF
330
2
100
AcDbEntity
  8
TEREN$0$A-MassElement-G
100
AcDbLine
 10
71210.59226430186
 20
-3348.820458340269
 30
0.0
 11
71230.79555135009
 21
-3360.484831556082
 31
0.0
  0
LINE
  5
1EF0
330
2
100
AcDbEntity
  8
TEREN$0$A-MassElement-G
100
AcDbLine
 10
71190.53759614485
 20
-3338.653976175628
 30
0.0
 11
71210.59226430186
 21
-3348.820458340269
 31
0.0
  0
LINE
  5
1EF1
330
2
100
AcDbEntity
  8
TEREN$0$A-MassElement-G
100
AcDbLine
 10
71169.76687067865
 20
-3330.044444359097
 30
0.0
 11
71190.53759614485
 21
-3338.653976175628
 31
0.0
  0
LINE
  5
1EF2
330
2
100
AcDbEntity
  8
TEREN$0$A-MassElement-G
100
AcDbLine
 10
71148.40074954643
 20
-3323.041877525815
 30
0.0
 11
71169.76687067865
 21
-3330.044444359097
 31
0.0
  0
LINE
  5
1EF3
330
2
100
AcDbEntity
  8
TEREN$0$A-MassElement-G
100
AcDbLine
 10
71126.56335317368
 20
-3317.686955103229
 30
0.0
 11
71148.40074954643
 21
-3323.041877525815
 31
0.0
  0
LINE
  5
1EF4
330
2
100
AcDbEntity
  8
TEREN$0$A-MassElement-G
100
AcDbLine
 10
71104.38153972592
 20
-3314.010784995611
 30
0.0
 11
71126.56335317368
 21
-3317.686955103229
 31
0.0
  0
LINE
  5
1EF5
330
2
100
AcDbEntity
  8
TEREN$0$A-MassElement-G
100
AcDbLine
 10
71081.984168162
 20
-3312.034722871337
 30
0.0
 11
71104.38153972592
 21
-3314.010784995611
 31
0.0
  0
LINE
  5
1EF6
330
2
100
AcDbEntity
  8
TEREN$0$A-MassElement-G
100
AcDbLine
 10
71070.55884694341
 20
-3311.66779898385
 30
0.0
 11
71081.984168162
 21
-3312.034722871337
 31
0.0
  0
LINE
  5
1EF7
330
2
100
AcDbEntity
  8
TEREN$0$A-MassElement-G
100
AcDbLine
 10
70587.21423118196
 20
-3311.66779898385
 30
0.0
 11
71070.55884694341
 21
-3311.66779898385
 31
0.0
  0
LINE
  5
1EF8
330
2
100
AcDbEntity
  8
TEREN$0$A-MassElement-G
100
AcDbLine
 10
70569.16632089434
 20
-3309.244187850491
 30
0.0
 11
70587.21423118196
 21
-3311.66779898385
 31
0.0
  0
LINE
  5
1EF9
330
2
100
AcDbEntity
  8
TEREN$0$A-MassElement-G
100
AcDbLine
 10
70546.90712902751
 20
-3306.667798983851
 30
0.0
 11
70569.16632089434
 21
-3309.244187850491
 31
0.0
  0
LINE
  5
1EFA
330
2
100
AcDbEntity
  8
TEREN$0$A-MassElement-G
100
AcDbLine
 10
70346.90712902752
 20
-3306.667798983851
 30
0.0
 11
70546.90712902751
 21
-3306.667798983851
 31
0.0
  0
LINE
  5
1EFB
330
2
100
AcDbEntity
  8
TEREN$0$A-MassElement-G
100
AcDbLine
 10
70325.04148886444
 20
-3308.118465067135
 30
0.0
 11
70346.90712902752
 21
-3306.667798983851
 31
0.0
  0
LINE
  5
1EFC
330
2
100
AcDbEntity
  8
TEREN$0$A-MassElement-G
100
AcDbLine
 10
70294.87423966826
 20
-3311.66779898385
 30
0.0
 11
70325.04148886444
 21
-3308.118465067135
 31
0.0
  0
LINE
  5
1EFD
330
2
100
AcDbEntity
  8
TEREN$0$A-MassElement-G
100
AcDbLine
 10
70042.6986938814
 20
-3311.66779898385
 30
0.0
 11
70294.87423966826
 21
-3311.66779898385
 31
0.0
  0
LINE
  5
1EFE
330
2
100
AcDbEntity
  8
TEREN$0$A-MassElement-G
100
AcDbLine
 10
70042.6986938814
 20
-3630.16779898385
 30
0.0
 11
70042.6986938814
 21
-3311.66779898385
 31
0.0
  0
LINE
  5
1EFF
330
2
100
AcDbEntity
  8
TEREN$0$A-MassElement-G
  6
Continuous
 62
   210
370
     9
100
AcDbLine
 10
69702.69869388141
 20
-4500.167798983879
 30
0.0
 11
69702.69869388141
 21
-4600.167798983878
 31
0.0
  0
LINE
  5
1F00
330
2
100
AcDbEntity
  8
TEREN$0$A-MassElement-G
  6
Continuous
 62
   210
370
     9
100
AcDbLine
 10
71367.69869388141
 20
-3817.773878842171
 30
0.0
 11
71367.69869388141
 21
-3667.773878842171
 31
0.0
  0
LINE
  5
1F01
330
2
100
AcDbEntity
  8
TEREN$0$A-MassElement-G
  6
Continuous
 62
   210
370
     9
100
AcDbLine
 10
71367.69869388141
 20
-3667.773878842171
 30
0.0
 11
71337.69869388141
 21
-3667.773878842171
 31
0.0
  0
LINE
  5
1F02
330
2
100
AcDbEntity
  8
TEREN$0$A-MassElement-G
  6
Continuous
 62
   210
370
     9
100
AcDbLine
 10
71337.69869388141
 20
-3667.773878842171
 30
0.0
 11
71337.69869388141
 21
-3817.773878842171
 31
0.0
  0
LINE
  5
1F03
330
2
100
AcDbEntity
  8
TEREN$0$A-MassElement-G
  6
Continuous
 62
   210
370
     9
100
AcDbLine
 10
71337.69869388141
 20
-3817.773878842171
 30
0.0
 11
71367.69869388141
 21
-3817.773878842171
 31
0.0
  0
LINE
  5
1F04
330
2
100
AcDbEntity
  8
TEREN$0$A-MassElement-G
100
AcDbLine
 10
71367.69869388141
 20
-3642.773878842171
 30
0.0
 11
71367.69869388141
 21
-3667.773878842171
 31
0.0
  0
LINE
  5
1F05
330
2
100
AcDbEntity
  8
TEREN$0$A-MassElement-G
  6
Continuous
 62
   210
370
     9
100
AcDbLine
 10
71367.69869388141
 20
-3667.773878842171
 30
0.0
 11
71307.6986938814
 21
-3667.773878842171
 31
0.0
  0
LINE
  5
1F06
330
2
100
AcDbEntity
  8
TEREN$0$A-MassElement-G
100
AcDbLine
 10
71307.6986938814
 20
-3667.773878842171
 30
0.0
 11
71307.6986938814
 21
-3642.773878842171
 31
0.0
  0
LINE
  5
1F07
330
2
100
AcDbEntity
  8
TEREN$0$A-MassElement-G
  6
Continuous
 62
   210
370
     9
100
AcDbLine
 10
71337.69869388141
 20
-3817.773878842171
 30
0.0
 11
71337.69869388141
 21
-3667.773878842171
 31
0.0
  0
LINE
  5
1F08
330
2
100
AcDbEntity
  8
TEREN$0$A-MassElement-G
  6
Continuous
 62
   210
370
     9
100
AcDbLine
 10
71337.69869388141
 20
-3667.773878842171
 30
0.0
 11
71307.6986938814
 21
-3667.773878842171
 31
0.0
  0
LINE
  5
1F09
330
2
100
AcDbEntity
  8
TEREN$0$A-MassElement-G
  6
Continuous
 62
   210
370
     9
100
AcDbLine
 10
71307.6986938814
 20
-3667.773878842171
 30
0.0
 11
71307.6986938814
 21
-3817.773878842171
 31
0.0
  0
LINE
  5
1F0A
330
2
100
AcDbEntity
  8
TEREN$0$A-MassElement-G
  6
Continuous
 62
   210
370
     9
100
AcDbLine
 10
71307.6986938814
 20
-3817.773878842171
 30
0.0
 11
71337.69869388141
 21
-3817.773878842171
 31
0.0
  0
LINE
  5
1F0B
330
2
100
AcDbEntity
  8
TEREN$0$A-MassElement-G
100
AcDbLine
 10
71077.69869388141
 20
-3366.66779898385
 30
0.0
 11
70097.69869388141
 21
-3366.66779898385
 31
0.0
  0
LINE
  5
1F0C
330
2
100
AcDbEntity
  8
TEREN$0$A-MassElement-G
100
AcDbLine
 10
70097.69869388141
 20
-3366.66779898385
 30
0.0
 11
70097.69869388141
 21
-3630.16779898385
 31
0.0
  0
3DFACE
  5
1F0D
330
2
100
AcDbEntity
  8
TEREN$0$A-MassElement-G
  6
Continuous
 62
   210
370
     9
100
AcDbFace
 10
69702.69866848139
 20
-4600.16777358386
 30
0.0
 11
69702.69866848139
 21
-4860.167798983879
 31
0.0
 12
69702.69866848139
 22
-4600.16777358386
 32
0.0
 13
69702.69866848139
 23
-4600.16777358386
 33
0.0
  0
LINE
  5
1F0E
330
2
100
AcDbEntity
  8
TEREN$0$A-MassElement-G
  6
Continuous
 62
   210
370
     9
100
AcDbLine
 10
71367.69869388141
 20
-3842.773878842171
 30
0.0
 11
71367.69869388141
 21
-3817.773878842171
 31
0.0
  0
LINE
  5
1F0F
330
2
100
AcDbEntity
  8
TEREN$0$A-MassElement-G
  6
Continuous
 62
   210
370
     9
100
AcDbLine
 10
71367.69869388141
 20
-3817.773878842171
 30
0.0
 11
71307.6986938814
 21
-3817.773878842171
 31
0.0
  0
LINE
  5
1F10
330
2
100
AcDbEntity
  8
TEREN$0$A-MassElement-G
  6
Continuous
 62
   210
370
     9
100
AcDbLine
 10
71307.6986938814
 20
-3817.773878842171
 30
0.0
 11
71307.6986938814
 21
-3842.773878842171
 31
0.0
  0
LINE
  5
1F11
330
2
100
AcDbEntity
  8
TEREN$0$A-MassElement-G
100
AcDbLine
 10
70346.90712902752
 20
-3306.667798983851
 30
0.0
 11
70371.90712902751
 21
-3306.667798983851
 31
0.0
  0
LINE
  5
1F12
330
2
100
AcDbEntity
  8
TEREN$0$A-MassElement-G
  6
Continuous
 62
   210
370
     9
100
AcDbLine
 10
70371.90712902751
 20
-3306.667798983851
 30
0.0
 11
70371.90712902751
 21
-3366.66779898385
 31
0.0
  0
LINE
  5
1F13
330
2
100
AcDbEntity
  8
TEREN$0$A-MassElement-G
  6
Continuous
 62
   210
370
     9
100
AcDbLine
 10
70371.90712902751
 20
-3366.66779898385
 30
0.0
 11
70346.90712902752
 21
-3366.66779898385
 31
0.0
  0
LINE
  5
1F14
330
2
100
AcDbEntity
  8
TEREN$0$A-MassElement-G
100
AcDbLine
 10
70546.90712902751
 20
-3306.667798983851
 30
0.0
 11
70521.90712902752
 21
-3306.667798983851
 31
0.0
  0
LINE
  5
1F15
330
2
100
AcDbEntity
  8
TEREN$0$A-MassElement-G
  6
Continuous
 62
   210
370
     9
100
AcDbLine
 10
70521.90712902752
 20
-3306.667798983851
 30
0.0
 11
70521.90712902752
 21
-3366.66779898385
 31
0.0
  0
LINE
  5
1F16
330
2
100
AcDbEntity
  8
TEREN$0$A-MassElement-G
  6
Continuous
 62
   210
370
     9
100
AcDbLine
 10
70521.90712902752
 20
-3366.66779898385
 30
0.0
 11
70546.90712902751
 21
-3366.66779898385
 31
0.0
  0
LINE
  5
1F17
330
2
100
AcDbEntity
  8
TEREN$0$A-MassElement-G
  6
Continuous
 62
   210
370
     9
100
AcDbLine
 10
70371.90712902751
 20
-3306.667798983851
 30
0.0
 11
70521.90712902752
 21
-3306.667798983851
 31
0.0
  0
LINE
  5
1F18
330
2
100
AcDbEntity
  8
TEREN$0$A-MassElement-G
  6
Continuous
 62
   210
370
     9
100
AcDbLine
 10
70521.90712902752
 20
-3306.667798983851
 30
0.0
 11
70521.90712902752
 21
-3336.66779898385
 31
0.0
  0
LINE
  5
1F19
330
2
100
AcDbEntity
  8
TEREN$0$A-MassElement-G
  6
Continuous
 62
   210
370
     9
100
AcDbLine
 10
70521.90712902752
 20
-3336.66779898385
 30
0.0
 11
70371.90712902751
 21
-3336.66779898385
 31
0.0
  0
LINE
  5
1F1A
330
2
100
AcDbEntity
  8
TEREN$0$A-MassElement-G
  6
Continuous
 62
   210
370
     9
100
AcDbLine
 10
70371.90712902751
 20
-3336.66779898385
 30
0.0
 11
70371.90712902751
 21
-3306.667798983851
 31
0.0
  0
LINE
  5
1F1B
330
2
100
AcDbEntity
  8
TEREN$0$A-MassElement-G
  6
Continuous
 62
   210
370
     9
100
AcDbLine
 10
70371.90712902751
 20
-3336.66779898385
 30
0.0
 11
70521.90712902752
 21
-3336.66779898385
 31
0.0
  0
LINE
  5
1F1C
330
2
100
AcDbEntity
  8
TEREN$0$A-MassElement-G
  6
Continuous
 62
   210
370
     9
100
AcDbLine
 10
70521.90712902752
 20
-3336.66779898385
 30
0.0
 11
70521.90712902752
 21
-3366.66779898385
 31
0.0
  0
LINE
  5
1F1D
330
2
100
AcDbEntity
  8
TEREN$0$A-MassElement-G
  6
Continuous
 62
   210
370
     9
100
AcDbLine
 10
70521.90712902752
 20
-3366.66779898385
 30
0.0
 11
70371.90712902751
 21
-3366.66779898385
 31
0.0
  0
LINE
  5
1F1E
330
2
100
AcDbEntity
  8
TEREN$0$A-MassElement-G
  6
Continuous
 62
   210
370
     9
100
AcDbLine
 10
70371.90712902751
 20
-3366.66779898385
 30
0.0
 11
70371.90712902751
 21
-3336.66779898385
 31
0.0
  0
3DFACE
  5
1F1F
330
2
100
AcDbEntity
  8
TEREN$0$A-MassElement-G
  6
Continuous
 62
   210
370
     9
100
AcDbFace
 10
70532.19869388141
 20
-4500.167798983879
 30
0.0
 11
70532.19869388141
 21
-4600.167798983878
 31
0.0
 12
70532.19869388141
 22
-4600.167798983878
 32
0.0
 13
70532.19869388141
 23
-4500.167798983879
 33
0.0
  0
3DFACE
  5
1F20
330
2
100
AcDbEntity
  8
TEREN$0$A-MassElement-G
  6
Continuous
 62
   210
370
     9
100
AcDbFace
 10
70554.35125131345
 20
-4611.248423439203
 30
0.0
 11
70532.19869388141
 21
-4600.167798983878
 31
0.0
 12
70532.19869388141
 22
-4500.167798983879
 32
0.0
 13
70552.19869388141
 23
-4600.354270563243
 33
0.0
 70
     5
  0
3DFACE
  5
1F21
330
2
100
AcDbEntity
  8
TEREN$0$A-MassElement-G
  6
Continuous
 62
   210
370
     9
100
AcDbFace
 10
70532.19869388141
 20
-4600.167798983878
 30
0.0
 11
70554.35125131345
 21
-4611.248423439203
 31
0.0
 12
70568.35716939667
 22
-4651.275037679137
 32
0.0
 13
70568.35716939667
 23
-4651.275037679137
 33
0.0
 70
    13
  0
3DFACE
  5
1F22
330
2
100
AcDbEntity
  8
TEREN$0$A-MassElement-G
  6
Continuous
 62
   210
370
     9
100
AcDbFace
 10
70620.90448266546
 20
-4717.167284368959
 30
0.0
 11
70565.02189803366
 21
-4685.659811035162
 31
0.0
 12
70545.84446372172
 22
-4649.781354961756
 32
0.0
 13
70590.91868945547
 23
-4687.181491158975
 33
0.0
 70
     5
  0
3DFACE
  5
1F23
330
2
100
AcDbEntity
  8
TEREN$0$A-MassElement-G
  6
Continuous
 62
   210
370
     9
100
AcDbFace
 10
70565.02189803366
 20
-4685.659811035162
 30
0.0
 11
70620.90448266546
 21
-4717.167284368959
 31
0.0
 12
70590.83038287154
 22
-4717.107540800192
 32
0.0
 13
70590.83038287154
 23
-4717.107540800192
 33
0.0
 70
     3
  0
3DFACE
  5
1F24
330
2
100
AcDbEntity
  8
TEREN$0$A-MassElement-G
  6
Continuous
 62
   210
370
     9
100
AcDbFace
 10
70552.19869388141
 20
-4500.167798983879
 30
0.0
 11
70552.19869388141
 21
-4600.167798983878
 31
0.0
 12
70552.19869388141
 22
-4600.354270563243
 32
0.0
 13
70552.19869388141
 23
-4500.167798983879
 33
0.0
 70
     2
  0
3DFACE
  5
1F25
330
2
100
AcDbEntity
  8
TEREN$0$A-MassElement-G
  6
Continuous
 62
   210
370
     9
100
AcDbFace
 10
70552.19869388141
 20
-4600.354270563243
 30
0.0
 11
70552.19869388141
 21
-4600.354270563243
 31
0.0
 12
70552.19869388141
 22
-4600.167798983878
 32
0.0
 13
70552.19869388141
 23
-4600.167798983878
 33
0.0
 70
     2
  0
3DFACE
  5
1F26
330
2
100
AcDbEntity
  8
TEREN$0$A-MassElement-G
  6
Continuous
 62
   210
370
     9
100
AcDbFace
 10
70545.84446372172
 20
-4649.781354961756
 30
0.0
 11
70545.84446372172
 21
-4649.781354961756
 31
0.0
 12
70565.02189803366
 22
-4685.659811035162
 32
0.0
 13
70565.02189803366
 23
-4685.659811035162
 33
0.0
  0
3DFACE
  5
1F27
330
2
100
AcDbEntity
  8
TEREN$0$A-MassElement-G
  6
Continuous
 62
   210
370
     9
100
AcDbFace
 10
70565.02189803366
 20
-4685.659811035162
 30
0.0
 11
70565.02189803366
 21
-4685.659811035162
 31
0.0
 12
70590.83038287154
 22
-4717.107540800192
 32
0.0
 13
70590.83038287154
 23
-4717.107540800192
 33
0.0
  0
3DFACE
  5
1F28
330
2
100
AcDbEntity
  8
TEREN$0$A-MassElement-G
  6
Continuous
 62
   210
370
     9
100
AcDbFace
 10
70620.90448266546
 20
-4717.167284368959
 30
0.0
 11
70620.90448266546
 21
-4717.167284368959
 31
0.0
 12
70590.91868945547
 22
-4687.181491158975
 32
0.0
 13
70590.91868945547
 23
-4687.181491158975
 33
0.0
  0
3DFACE
  5
1F29
330
2
100
AcDbEntity
  8
TEREN$0$A-MassElement-G
  6
Continuous
 62
   210
370
     9
100
AcDbFace
 10
70590.91868945547
 20
-4687.181491158975
 30
0.0
 11
70590.91868945547
 21
-4687.181491158975
 31
0.0
 12
70568.35716939667
 22
-4651.275037679137
 32
0.0
 13
70568.35716939667
 23
-4651.275037679137
 33
0.0
  0
3DFACE
  5
1F2A
330
2
100
AcDbEntity
  8
TEREN$0$A-MassElement-G
  6
Continuous
 62
   210
370
     9
100
AcDbFace
 10
70568.35716939667
 20
-4651.275037679137
 30
0.0
 11
70568.35716939667
 21
-4651.275037679137
 31
0.0
 12
70554.35125131345
 22
-4611.248423439203
 32
0.0
 13
70554.35125131345
 23
-4611.248423439203
 33
0.0
  0
3DFACE
  5
1F2B
330
2
100
AcDbEntity
  8
TEREN$0$A-MassElement-G
  6
Continuous
 62
   210
370
     9
100
AcDbFace
 10
70554.35125131345
 20
-4611.248423439203
 30
0.0
 11
70554.35125131345
 21
-4611.248423439203
 31
0.0
 12
70552.19869388141
 22
-4600.354270563243
 32
0.0
 13
70552.19869388141
 23
-4600.354270563243
 33
0.0
  0
3DFACE
  5
1F2C
330
2
100
AcDbEntity
  8
TEREN$0$A-MassElement-G
  6
Continuous
 62
   210
370
     9
100
AcDbFace
 10
70612.70662783821
 20
-4736.121316383025
 30
0.0
 11
70620.90448266546
 21
-4717.167284368959
 31
0.0
 12
70590.91868945547
 22
-4687.181491158975
 32
0.0
 13
70590.91868945547
 23
-4687.181491158975
 33
0.0
 70
    13
  0
3DFACE
  5
1F2D
330
2
100
AcDbEntity
  8
TEREN$0$A-MassElement-G
  6
Continuous
 62
   210
370
     9
100
AcDbFace
 10
70568.35716939667
 20
-4651.275037679137
 30
0.0
 11
70590.83038287154
 21
-4717.107540800192
 31
0.0
 12
70612.70662783821
 22
-4736.121316383025
 32
0.0
 13
70590.91868945547
 23
-4687.181491158975
 33
0.0
 70
     5
  0
3DFACE
  5
1F2E
330
2
100
AcDbEntity
  8
TEREN$0$A-MassElement-G
  6
Continuous
 62
   210
370
     9
100
AcDbFace
 10
70554.35125131345
 20
-4611.248423439203
 30
0.0
 11
70565.02189803366
 21
-4685.659811035162
 31
0.0
 12
70590.83038287154
 22
-4717.107540800192
 32
0.0
 13
70568.35716939667
 23
-4651.275037679137
 33
0.0
 70
     5
  0
3DFACE
  5
1F2F
330
2
100
AcDbEntity
  8
TEREN$0$A-MassElement-G
  6
Continuous
 62
   210
370
     9
100
AcDbFace
 10
70552.19869388141
 20
-4600.354270563243
 30
0.0
 11
70545.84446372172
 21
-4649.781354961756
 31
0.0
 12
70565.02189803366
 22
-4685.659811035162
 32
0.0
 13
70554.35125131345
 23
-4611.248423439203
 33
0.0
 70
     5
  0
LINE
  5
1F30
330
2
100
AcDbEntity
  8
TEREN$0$A-MassElement-G
  6
Continuous
 62
   210
370
     9
100
AcDbLine
 10
70551.39613371449
 20
-4660.167798983879
 30
0.0
 11
70124.00125404833
 21
-4660.167798983879
 31
0.0
  0
LINE
  5
1F31
330
2
100
AcDbEntity
  8
TEREN$0$A-MassElement-G
  6
Continuous
 62
   210
370
     9
100
AcDbLine
 10
70106.6758796303
 20
-4690.167798983878
 30
0.0
 11
70568.72150813251
 21
-4690.167798983878
 31
0.0
  0
LINE
  5
1F32
330
2
100
AcDbEntity
  8
TEREN$0$A-MassElement-G
  6
Continuous
 62
   210
370
     9
100
AcDbLine
 10
70124.00125404833
 20
-4660.167798983879
 30
0.0
 11
70551.39613371449
 21
-4660.167798983879
 31
0.0
  0
3DFACE
  5
1F33
330
2
100
AcDbEntity
  8
TEREN$0$A-MassElement-G
  6
Continuous
 62
   210
370
     9
100
AcDbFace
 10
70062.69075992458
 20
-4736.121316383025
 30
0.0
 11
70050.62903191427
 21
-4720.167798983879
 31
0.0
 12
70054.49290509733
 22
-4717.167284368959
 32
0.0
 13
70054.49290509733
 23
-4717.167284368959
 33
0.0
 70
    12
  0
3DFACE
  5
1F34
330
2
100
AcDbEntity
  8
TEREN$0$A-MassElement-G
  6
Continuous
 62
   210
370
     9
100
AcDbFace
 10
70062.69075992458
 20
-4736.121316383025
 30
0.0
 11
70054.49290509733
 21
-4717.167284368959
 31
0.0
 12
70084.47869830731
 22
-4687.181491158975
 32
0.0
 13
70084.47869830731
 23
-4687.181491158975
 33
0.0
 70
    13
  0
3DFACE
  5
1F35
330
2
100
AcDbEntity
  8
TEREN$0$A-MassElement-G
  6
Continuous
 62
   210
370
     9
100
AcDbFace
 10
70107.04021836615
 20
-4651.275037679137
 30
0.0
 11
70084.56700489124
 21
-4717.107540800192
 31
0.0
 12
70062.69075992458
 22
-4736.121316383025
 32
0.0
 13
70084.47869830731
 23
-4687.181491158975
 33
0.0
 70
     5
  0
3DFACE
  5
1F36
330
2
100
AcDbEntity
  8
TEREN$0$A-MassElement-G
  6
Continuous
 62
   210
370
     9
100
AcDbFace
 10
70121.04613644933
 20
-4611.248423439203
 30
0.0
 11
70110.37548972912
 21
-4685.659811035162
 31
0.0
 12
70084.56700489124
 22
-4717.107540800192
 32
0.0
 13
70107.04021836615
 23
-4651.275037679137
 33
0.0
 70
     5
  0
3DFACE
  5
1F37
330
2
100
AcDbEntity
  8
TEREN$0$A-MassElement-G
  6
Continuous
 62
   210
370
     9
100
AcDbFace
 10
70123.1986938814
 20
-4600.354270563243
 30
0.0
 11
70129.5529240411
 21
-4649.781354961756
 31
0.0
 12
70110.37548972912
 22
-4685.659811035162
 32
0.0
 13
70121.04613644933
 23
-4611.248423439203
 33
0.0
 70
     5
  0
3DFACE
  5
1F38
330
2
100
AcDbEntity
  8
TEREN$0$A-MassElement-G
  6
Continuous
 62
   210
370
     9
100
AcDbFace
 10
70143.19869388141
 20
-4600.167798983878
 30
0.0
 11
70141.36232978136
 21
-4610.850961525968
 31
0.0
 12
70129.5529240411
 22
-4649.781354961756
 32
0.0
 13
70123.1986938814
 23
-4600.354270563243
 33
0.0
 70
    12
  0
3DFACE
  5
1F39
330
2
100
AcDbEntity
  8
TEREN$0$A-MassElement-G
  6
Continuous
 62
   210
370
     9
100
AcDbFace
 10
70143.19869388141
 20
-4500.167798983879
 30
0.0
 11
70143.19869388141
 21
-4500.167798983879
 31
0.0
 12
70143.19869388141
 22
-4600.167798983878
 32
0.0
 13
70143.19869388141
 23
-4600.167798983878
 33
0.0
  0
3DFACE
  5
1F3A
330
2
100
AcDbEntity
  8
TEREN$0$A-MassElement-G
  6
Continuous
 62
   210
370
     9
100
AcDbFace
 10
70123.1986938814
 20
-4600.167798983878
 30
0.0
 11
70123.1986938814
 21
-4500.167798983879
 31
0.0
 12
70123.1986938814
 22
-4600.354270563243
 32
0.0
 13
70123.1986938814
 23
-4600.354270563243
 33
0.0
 70
     2
  0
3DFACE
  5
1F3B
330
2
100
AcDbEntity
  8
TEREN$0$A-MassElement-G
  6
Continuous
 62
   210
370
     9
100
AcDbFace
 10
70123.1986938814
 20
-4500.167798983879
 30
0.0
 11
70123.1986938814
 21
-4600.354270563243
 31
0.0
 12
70123.1986938814
 22
-4500.167798983879
 32
0.0
 13
70123.1986938814
 23
-4500.167798983879
 33
0.0
 70
     2
  0
3DFACE
  5
1F3C
330
2
100
AcDbEntity
  8
TEREN$0$A-MassElement-G
  6
Continuous
 62
   210
370
     9
100
AcDbFace
 10
70143.19869388141
 20
-4600.167798983878
 30
0.0
 11
70143.19869388141
 21
-4600.167798983878
 31
0.0
 12
70141.36232978136
 22
-4610.850961525968
 32
0.0
 13
70141.36232978136
 23
-4610.850961525968
 33
0.0
  0
3DFACE
  5
1F3D
330
2
100
AcDbEntity
  8
TEREN$0$A-MassElement-G
  6
Continuous
 62
   210
370
     9
100
AcDbFace
 10
70141.36232978136
 20
-4610.850961525968
 30
0.0
 11
70141.36232978136
 21
-4610.850961525968
 31
0.0
 12
70129.5529240411
 22
-4649.781354961756
 32
0.0
 13
70129.5529240411
 23
-4649.781354961756
 33
0.0
  0
3DFACE
  5
1F3E
330
2
100
AcDbEntity
  8
TEREN$0$A-MassElement-G
  6
Continuous
 62
   210
370
     9
100
AcDbFace
 10
70129.5529240411
 20
-4649.781354961756
 30
0.0
 11
70129.5529240411
 21
-4649.781354961756
 31
0.0
 12
70110.37548972912
 22
-4685.659811035162
 32
0.0
 13
70110.37548972912
 23
-4685.659811035162
 33
0.0
  0
3DFACE
  5
1F3F
330
2
100
AcDbEntity
  8
TEREN$0$A-MassElement-G
  6
Continuous
 62
   210
370
     9
100
AcDbFace
 10
70110.37548972912
 20
-4685.659811035162
 30
0.0
 11
70110.37548972912
 21
-4685.659811035162
 31
0.0
 12
70084.56700489124
 22
-4717.107540800192
 32
0.0
 13
70084.56700489124
 23
-4717.107540800192
 33
0.0
  0
3DFACE
  5
1F40
330
2
100
AcDbEntity
  8
TEREN$0$A-MassElement-G
  6
Continuous
 62
   210
370
     9
100
AcDbFace
 10
70084.56700489124
 20
-4717.107540800192
 30
0.0
 11
70084.56700489124
 21
-4717.107540800192
 31
0.0
 12
70062.69075992458
 22
-4736.121316383025
 32
0.0
 13
70062.69075992458
 23
-4736.121316383025
 33
0.0
  0
3DFACE
  5
1F41
330
2
100
AcDbEntity
  8
TEREN$0$A-MassElement-G
  6
Continuous
 62
   210
370
     9
100
AcDbFace
 10
70062.69075992458
 20
-4736.121316383025
 30
0.0
 11
70062.69075992458
 21
-4736.121316383025
 31
0.0
 12
70050.62903191427
 22
-4720.167798983879
 32
0.0
 13
70050.62903191427
 23
-4720.167798983879
 33
0.0
  0
3DFACE
  5
1F42
330
2
100
AcDbEntity
  8
TEREN$0$A-MassElement-G
  6
Continuous
 62
   210
370
     9
100
AcDbFace
 10
70050.62903191427
 20
-4720.167798983879
 30
0.0
 11
70050.62903191427
 21
-4720.167798983879
 31
0.0
 12
70054.49290509733
 22
-4717.167284368959
 32
0.0
 13
70054.49290509733
 23
-4717.167284368959
 33
0.0
  0
3DFACE
  5
1F43
330
2
100
AcDbEntity
  8
TEREN$0$A-MassElement-G
  6
Continuous
 62
   210
370
     9
100
AcDbFace
 10
70054.49290509733
 20
-4717.167284368959
 30
0.0
 11
70054.49290509733
 21
-4717.167284368959
 31
0.0
 12
70084.47869830731
 22
-4687.181491158975
 32
0.0
 13
70084.47869830731
 23
-4687.181491158975
 33
0.0
  0
3DFACE
  5
1F44
330
2
100
AcDbEntity
  8
TEREN$0$A-MassElement-G
  6
Continuous
 62
   210
370
     9
100
AcDbFace
 10
70084.47869830731
 20
-4687.181491158975
 30
0.0
 11
70084.47869830731
 21
-4687.181491158975
 31
0.0
 12
70107.04021836615
 22
-4651.275037679137
 32
0.0
 13
70107.04021836615
 23
-4651.275037679137
 33
0.0
  0
3DFACE
  5
1F45
330
2
100
AcDbEntity
  8
TEREN$0$A-MassElement-G
  6
Continuous
 62
   210
370
     9
100
AcDbFace
 10
70107.04021836615
 20
-4651.275037679137
 30
0.0
 11
70107.04021836615
 21
-4651.275037679137
 31
0.0
 12
70121.04613644933
 22
-4611.248423439203
 32
0.0
 13
70121.04613644933
 23
-4611.248423439203
 33
0.0
  0
3DFACE
  5
1F46
330
2
100
AcDbEntity
  8
TEREN$0$A-MassElement-G
  6
Continuous
 62
   210
370
     9
100
AcDbFace
 10
70121.04613644933
 20
-4611.248423439203
 30
0.0
 11
70121.04613644933
 21
-4611.248423439203
 31
0.0
 12
70123.1986938814
 22
-4600.354270563243
 32
0.0
 13
70123.1986938814
 23
-4600.354270563243
 33
0.0
  0
3DFACE
  5
1F47
330
2
100
AcDbEntity
  8
TEREN$0$A-MassElement-G
  6
Continuous
 62
   210
370
     9
100
AcDbFace
 10
70143.19869388141
 20
-4600.167798983878
 30
0.0
 11
70123.1986938814
 21
-4600.167798983878
 31
0.0
 12
70123.1986938814
 22
-4600.354270563243
 32
0.0
 13
70123.1986938814
 23
-4600.354270563243
 33
0.0
 70
    12
  0
3DFACE
  5
1F48
330
2
100
AcDbEntity
  8
TEREN$0$A-MassElement-G
  6
Continuous
 62
   210
370
     9
100
AcDbFace
 10
70143.19869388141
 20
-4600.167798983878
 30
0.0
 11
70123.1986938814
 21
-4600.354270563243
 31
0.0
 12
70121.04613644933
 22
-4611.248423439203
 32
0.0
 13
70121.04613644933
 23
-4611.248423439203
 33
0.0
 70
    13
  0
3DFACE
  5
1F49
330
2
100
AcDbEntity
  8
TEREN$0$A-MassElement-G
  6
Continuous
 62
   210
370
     9
100
AcDbFace
 10
70143.19869388141
 20
-4600.167798983878
 30
0.0
 11
70121.04613644933
 21
-4611.248423439203
 31
0.0
 12
70107.04021836615
 22
-4651.275037679137
 32
0.0
 13
70107.04021836615
 23
-4651.275037679137
 33
0.0
 70
    13
  0
3DFACE
  5
1F4A
330
2
100
AcDbEntity
  8
TEREN$0$A-MassElement-G
  6
Continuous
 62
   210
370
     9
100
AcDbFace
 10
70084.47869830731
 20
-4687.181491158975
 30
0.0
 11
70141.36232978136
 21
-4610.850961525968
 31
0.0
 12
70143.19869388141
 22
-4600.167798983878
 32
0.0
 13
70107.04021836615
 23
-4651.275037679137
 33
0.0
 70
     5
  0
3DFACE
  5
1F4B
330
2
100
AcDbEntity
  8
TEREN$0$A-MassElement-G
  6
Continuous
 62
   210
370
     9
100
AcDbFace
 10
70129.5529240411
 20
-4649.781354961756
 30
0.0
 11
70141.36232978136
 21
-4610.850961525968
 31
0.0
 12
70084.47869830731
 22
-4687.181491158975
 32
0.0
 13
70084.47869830731
 23
-4687.181491158975
 33
0.0
 70
    14
  0
3DFACE
  5
1F4C
330
2
100
AcDbEntity
  8
TEREN$0$A-MassElement-G
  6
Continuous
 62
   210
370
     9
100
AcDbFace
 10
70054.49290509733
 20
-4717.167284368959
 30
0.0
 11
70110.37548972912
 21
-4685.659811035162
 31
0.0
 12
70129.5529240411
 22
-4649.781354961756
 32
0.0
 13
70084.47869830731
 23
-4687.181491158975
 33
0.0
 70
     5
  0
3DFACE
  5
1F4D
330
2
100
AcDbEntity
  8
TEREN$0$A-MassElement-G
  6
Continuous
 62
   210
370
     9
100
AcDbFace
 10
70062.69075992458
 20
-4736.121316383025
 30
0.0
 11
70084.56700489124
 21
-4717.107540800192
 31
0.0
 12
70054.49290509733
 22
-4717.167284368959
 32
0.0
 13
70050.62903191427
 23
-4720.167798983879
 33
0.0
 70
     2
  0
3DFACE
  5
1F4E
330
2
100
AcDbEntity
  8
TEREN$0$A-MassElement-G
  6
Continuous
 62
   210
370
     9
100
AcDbFace
 10
70110.37548972912
 20
-4685.659811035162
 30
0.0
 11
70054.49290509733
 21
-4717.167284368959
 31
0.0
 12
70084.56700489124
 22
-4717.107540800192
 32
0.0
 13
70084.56700489124
 23
-4717.107540800192
 33
0.0
 70
     3
  0
LINE
  5
1F4F
330
2
100
AcDbEntity
  8
TEREN$0$A-MassElement-G
  6
Continuous
 62
   210
370
     9
100
AcDbLine
 10
70123.1986938814
 20
-4600.167798983878
 30
0.0
 11
70123.1986938814
 21
-4500.167798983879
 31
0.0
  0
LINE
  5
1F50
330
2
100
AcDbEntity
  8
TEREN$0$A-MassElement-G
  6
Continuous
 62
   210
370
     9
100
AcDbLine
 10
69702.69869388141
 20
-4600.167798983878
 30
0.0
 11
70123.1986938814
 21
-4600.167798983878
 31
0.0
  0
3DFACE
  5
1F51
330
2
100
AcDbEntity
  8
TEREN$0$A-MassElement-G
  6
Continuous
 62
   210
370
     9
100
AcDbFace
 10
69702.69866848139
 20
-4600.16777358386
 30
0.0
 11
70123.1987192814
 21
-4600.16777358386
 31
0.0
 12
70053.12858205077
 22
-4720.167826337725
 32
0.0
 13
70053.12858205077
 23
-4720.167826337725
 33
0.0
 70
    14
  0
3DFACE
  5
1F52
330
2
100
AcDbEntity
  8
TEREN$0$A-MassElement-G
  6
Continuous
 62
   210
370
     9
100
AcDbFace
 10
70053.12858205077
 20
-4860.167798983879
 30
0.0
 11
70053.12858205077
 21
-4860.167798983879
 31
0.0
 12
69702.69866848139
 22
-4860.167798983879
 32
0.0
 13
69702.69866848139
 23
-4860.167798983879
 33
0.0
  0
3DFACE
  5
1F53
330
2
100
AcDbEntity
  8
TEREN$0$A-MassElement-G
  6
Continuous
 62
   210
370
     9
100
AcDbFace
 10
69702.69866848139
 20
-4600.16777358386
 30
0.0
 11
70123.1987192814
 21
-4600.16777358386
 31
0.0
 12
70123.1987192814
 22
-4600.16777358386
 32
0.0
 13
69702.69866848139
 23
-4600.16777358386
 33
0.0
  0
3DFACE
  5
1F54
330
2
100
AcDbEntity
  8
TEREN$0$A-MassElement-G
  6
Continuous
 62
   210
370
     9
100
AcDbFace
 10
70053.12858205077
 20
-4860.167798983879
 30
0.0
 11
70053.12858205077
 21
-4860.166722695096
 31
0.0
 12
69702.69866848139
 22
-4860.167798983879
 32
0.0
 13
69702.69866848139
 23
-4860.167798983879
 33
0.0
  0
3DFACE
  5
1F55
330
2
100
AcDbEntity
  8
TEREN$0$A-MassElement-G
  6
Continuous
 62
   210
370
     9
100
AcDbFace
 10
69702.69866848139
 20
-4860.167798983879
 30
0.0
 11
70053.12858205077
 21
-4860.166722695096
 31
0.0
 12
70053.12858205077
 22
-4723.473844067848
 32
0.0
 13
70053.12858205077
 23
-4723.473844067848
 33
0.0
 70
    12
  0
LINE
  5
1F56
330
2
100
AcDbEntity
  8
TEREN$0$A-MassElement-G
  6
Continuous
 62
   210
370
     9
100
AcDbLine
 10
70135.45762691121
 20
-4630.316158243877
 30
0.0
 11
70539.93976085157
 21
-4630.316158243847
 31
0.0
  0
LINE
  5
1F57
330
2
100
AcDbEntity
  8
TEREN$0$A-MassElement-G
  6
Continuous
 62
   210
370
     9
100
AcDbLine
 10
70539.93976085157
 20
-4630.316158243847
 30
0.0
 11
70532.19869388141
 21
-4600.167798983878
 31
0.0
  0
LINE
  5
1F58
330
2
100
AcDbEntity
  8
TEREN$0$A-MassElement-G
  6
Continuous
 62
   210
370
     9
100
AcDbLine
 10
70532.19869388141
 20
-4600.167798983878
 30
0.0
 11
70532.19869388141
 21
-4500.167798983879
 31
0.0
  0
LINE
  5
1F59
330
2
100
AcDbEntity
  8
TEREN$0$A-MassElement-G
  6
Continuous
 62
   210
370
     9
100
AcDbLine
 10
70143.19869388141
 20
-4500.167798983879
 30
0.0
 11
70143.19869388141
 21
-4600.167798983878
 31
0.0
  0
LINE
  5
1F5A
330
2
100
AcDbEntity
  8
TEREN$0$A-MassElement-G
  6
Continuous
 62
   210
370
     9
100
AcDbLine
 10
70612.70662783821
 20
-4736.121316383025
 30
0.0
 11
70625.56946626862
 21
-4723.258477952636
 31
0.0
  0
LINE
  5
1F5B
330
2
100
AcDbEntity
  8
TEREN$0$A-MassElement-G
  6
Continuous
 62
   210
370
     9
100
AcDbLine
 10
70545.84446372172
 20
-4649.781354961756
 30
0.0
 11
70539.93976085157
 21
-4630.316158243847
 31
0.0
  0
LINE
  5
1F5C
330
2
100
AcDbEntity
  8
TEREN$0$A-MassElement-G
  6
Continuous
 62
   210
370
     9
100
AcDbLine
 10
70620.90448266546
 20
-4717.167284368959
 30
0.0
 11
70626.28257125888
 21
-4722.545372962384
 31
0.0
  0
LINE
  5
1F5D
330
2
100
AcDbEntity
  8
TEREN$0$A-MassElement-G
  6
Continuous
 62
   210
370
     9
100
AcDbLine
 10
70626.28257125888
 20
-4722.545372962384
 30
0.0
 11
70612.70662783821
 21
-4736.121316383025
 31
0.0
  0
LWPOLYLINE
  5
1F5E
102
{ACAD_REACTORS
330
1E9B
102
}
330
2
100
AcDbEntity
  8
0Hatch
100
AcDbPolyline
 90
       14
 70
     1
 43
0.0
 10
69702.69869388141
 20
-3630.16779898385
 10
70972.6986938814
 20
-3630.16779898385
 10
70972.6986938814
 20
-3865.167798983879
 10
71013.51418804914
 20
-3865.167798983879
 10
71122.69869388141
 20
-3974.352304816232
 10
71122.69869388141
 20
-4103.983293151526
 10
71013.51418804914
 20
-4213.167798983879
 10
70972.6986938814
 20
-4213.167798983879
 10
70972.6986938814
 20
-4500.167798983879
 10
70417.69869388141
 20
-4500.167798983879
 10
70257.69869388141
 20
-4500.167798983879
 10
70021.69869388141
 20
-4500.167798983879
 10
69781.69869388141
 20
-4500.167798983879
 10
69702.69869388141
 20
-4500.167798983879
  0
CIRCLE
  5
1F5F
102
{ACAD_REACTORS
330
1F61
102
}
330
2
100
AcDbEntity
  8
0Hatch
100
AcDbCircle
 10
-70191.6986938814
 20
-4596.301128636128
 30
0.0
 40
17.5
210
0.0
220
0.0
230
-1.0
  0
CIRCLE
  5
1F60
102
{ACAD_REACTORS
330
1F61
102
}
330
2
100
AcDbEntity
  8
0Hatch
100
AcDbCircle
 10
70483.69869388141
 20
-4596.301128636128
 30
0.0
 40
17.5
  0
HATCH
  5
1F61
330
2
100
AcDbEntity
  8
0Hatch
100
AcDbHatch
 10
0.0
 20
0.0
 30
0.0
210
0.0
220
0.0
230
1.0
  2
SOLID
 70
     1
 71
     1
 91
        2
 92
        7
 72
     1
 73
     1
 93
        2
 10
70209.19869388141
 20
-4596.301128636128
 42
1.0
 10
70174.19869388141
 20
-4596.301128636128
 42
1.0
 97
        1
330
1F5F
 92
        7
 72
     1
 73
     1
 93
        2
 10
70466.1986938814
 20
-4596.301128636128
 42
1.0
 10
70501.19869388141
 20
-4596.301128636128
 42
1.0
 97
        1
330
1F60
 75
     0
 76
     1
 47
1.185929472398165
 98
        2
 10
70198.05894272511
 20
-4598.717760277985
 10
70481.63189233803
 20
-4593.974001342969
  0
DIMENSION
  5
1F62
330
2
100
AcDbEntity
  8
WYMIARY
100
AcDbDimension
  2
*D28
 10
69171.5774906455
 20
-4500.167798983879
 30
0.0
 11
69091.5774906455
 21
-4065.167798983853
 31
0.0
 70
    32
 71
     5
 42
870.000000000029
  3
500
100
AcDbAlignedDimension
 13
69702.69869388141
 23
-3630.16779898385
 33
0.0
 14
69742.1986938814
 24
-4500.167798983879
 34
0.0
 50
90.0
100
AcDbRotatedDimension
  0
DIMENSION
  5
1F63
330
2
100
AcDbEntity
  8
WYMIARY
100
AcDbDimension
  2
*D29
 10
70972.6986938814
 20
-2729.553229567435
 30
0.0
 11
70337.69869388141
 21
-2649.553229567435
 31
0.0
 70
    32
 71
     5
 42
1270.0
  3
500
100
AcDbAlignedDimension
 13
69702.69869388141
 23
-3630.16779898385
 33
0.0
 14
70972.6986938814
 24
-3630.16779898385
 34
0.0
100
AcDbRotatedDimension
  0
DIMENSION
  5
1F64
330
2
100
AcDbEntity
  8
WYMIARY
100
AcDbDimension
  2
*D30
 10
71122.69869388141
 20
-2729.553229567435
 30
0.0
 11
71047.69869388141
 21
-2649.553229567435
 31
0.0
 70
    32
 71
     5
 42
150.0
  3
500
100
AcDbAlignedDimension
 13
70972.6986938814
 23
-3630.16779898385
 33
0.0
 14
71122.69869388141
 24
-3974.352304816232
 34
0.0
100
AcDbRotatedDimension
  0
DIMENSION
  5
1F65
330
2
100
AcDbEntity
  8
WYMIARY
100
AcDbDimension
  2
*D31
 10
71122.69869388141
 20
-2498.572202422089
 30
0.0
 11
70412.6986938814
 21
-2418.572202422089
 31
0.0
 70
    32
 71
     5
 42
1420.0
  3
500
100
AcDbAlignedDimension
 13
69702.69869388141
 23
-3630.16779898385
 33
0.0
 14
71122.69869388141
 24
-3974.352304816232
 34
0.0
100
AcDbRotatedDimension
  0
HATCH
  5
20C2
330
2
100
AcDbEntity
  8
0Hatch
100
AcDbHatch
 10
0.0
 20
0.0
 30
0.0
210
0.0
220
0.0
230
1.0
  2
SOLID
 70
     1
 71
     1
 91
        2
 92
        7
 72
     0
 73
     1
 93
       24
 10
74542.13879828884
 20
-3630.16779898385
 10
74542.13879828884
 20
-3865.167798983879
 10
74501.32330412112
 20
-3865.16779898388
 10
74392.13879828884
 20
-3974.352304816247
 10
74392.13879828884
 20
-4103.983293151526
 10
74501.32330412112
 20
-4213.167798983879
 10
74542.13879828884
 20
-4213.167798983879
 10
74542.13879828885
 20
-4500.167798983879
 10
75097.13879828884
 20
-4500.16779898388
 10
75097.13879828883
 20
-4440.167798983877
 10
74602.13879828885
 20
-4440.16779898388
 10
74602.13879828884
 20
-4153.167798983879
 10
74526.17611786351
 20
-4153.167798983878
 10
74452.13879828884
 20
-4079.130479409143
 10
74452.13879828886
 20
-3999.205118558617
 10
74526.17611786351
 20
-3925.16779898388
 10
74602.13879828884
 20
-3925.167798983878
 10
74602.13879828884
 20
-3690.16779898385
 10
75752.13879828884
 20
-3690.16779898385
 10
75752.13879828883
 20
-4440.167798983878
 10
75733.13879828885
 20
-4440.167798983877
 10
75733.13879828884
 20
-4500.16779898388
 10
75812.13879828884
 20
-4500.167798983879
 10
75812.13879828882
 20
-3630.16779898385
 97
        4
330
2185
330
20C6
330
20C7
330
20C4
 92
       23
 72
     0
 73
     1
 93
        4
 10
75493.13879828884
 20
-4500.167798983879
 10
75493.13879828885
 20
-4440.167798983878
 10
75257.13879828884
 20
-4440.167798983878
 10
75257.13879828885
 20
-4500.167798983879
 97
        4
330
20C7
330
20C5
330
2185
330
20C3
 75
     0
 76
     1
 47
2.78404817685206
 98
        2
 10
75024.21248825373
 20
-3658.527109659466
 10
75350.10237411222
 20
-4485.389398923915
1001
ACAD
1010
0.0
1020
0.0
1030
0.0
  0
LINE
  5
20C3
102
{ACAD_REACTORS
330
20C2
102
}
330
2
100
AcDbEntity
  8
0Hatch
100
AcDbLine
 10
75257.13879828884
 20
-4500.167798983879
 30
0.0
 11
75257.13879828884
 21
-4440.167798983878
 31
0.0
  0
LINE
  5
20C4
102
{ACAD_REACTORS
330
20C2
102
}
330
2
100
AcDbEntity
  8
0Hatch
100
AcDbLine
 10
75097.13879828884
 20
-4500.167798983879
 30
0.0
 11
75097.13879828884
 21
-4440.167798983878
 31
0.0
  0
LINE
  5
20C5
102
{ACAD_REACTORS
330
20C2
102
}
330
2
100
AcDbEntity
  8
0Hatch
100
AcDbLine
 10
75493.13879828884
 20
-4500.167798983879
 30
0.0
 11
75493.13879828884
 21
-4440.167798983878
 31
0.0
  0
LINE
  5
20C6
102
{ACAD_REACTORS
330
20C2
102
}
330
2
100
AcDbEntity
  8
0Hatch
100
AcDbLine
 10
75733.13879828884
 20
-4500.167798983879
 30
0.0
 11
75733.13879828884
 21
-4440.167798983878
 31
0.0
  0
LWPOLYLINE
  5
20C7
102
{ACAD_REACTORS
330
20C2
102
}
330
2
100
AcDbEntity
  8
0Hatch
100
AcDbPolyline
 90
       14
 70
     1
 43
0.0
 10
75752.13879828884
 20
-3690.16779898385
 10
75752.13879828884
 20
-4440.167798983878
 10
75733.13879828887
 20
-4440.167798983878
 10
75493.13879828884
 20
-4440.167798983878
 10
75257.13879828884
 20
-4440.167798983878
 10
75097.13879828884
 20
-4440.167798983878
 10
74602.13879828884
 20
-4440.167798983878
 10
74602.13879828884
 20
-4153.167798983878
 10
74526.17611786352
 20
-4153.167798983878
 10
74452.13879828884
 20
-4079.13047940914
 10
74452.13879828884
 20
-3999.205118558617
 10
74526.17611786352
 20
-3925.167798983879
 10
74602.13879828884
 20
-3925.167798983879
 10
74602.13879828884
 20
-3690.16779898385
  0
LINE
  5
20C8
330
2
100
AcDbEntity
  8
TEREN$0$A-MassElement-G
100
AcDbLine
 10
75417.13879828884
 20
-3366.66779898385
 30
0.0
 11
75417.13879828884
 21
-3630.16779898385
 31
0.0
  0
LINE
  5
20C9
330
2
100
AcDbEntity
  8
TEREN$0$A-MassElement-G
100
AcDbLine
 10
75167.93036314273
 20
-3366.66779898385
 30
0.0
 11
75417.13879828884
 21
-3366.66779898385
 31
0.0
  0
LINE
  5
20CA
330
2
100
AcDbEntity
  8
TEREN$0$A-MassElement-G
100
AcDbLine
 10
74437.13879828884
 20
-3366.66779898385
 30
0.0
 11
74967.93036314273
 21
-3366.66779898385
 31
0.0
  0
LINE
  5
20CB
330
2
100
AcDbEntity
  8
TEREN$0$A-MassElement-G
100
AcDbLine
 10
74417.742571436
 20
-3367.939094857356
 30
0.0
 11
74437.13879828884
 21
-3366.66779898385
 31
0.0
  0
LINE
  5
20CC
330
2
100
AcDbEntity
  8
TEREN$0$A-MassElement-G
100
AcDbLine
 10
74398.12705627714
 20
-3370.423845830155
 30
0.0
 11
74417.742571436
 21
-3367.939094857356
 31
0.0
  0
LINE
  5
20CD
330
2
100
AcDbEntity
  8
TEREN$0$A-MassElement-G
100
AcDbLine
 10
74377.61041791526
 20
-3374.504858937391
 30
0.0
 11
74398.12705627714
 21
-3370.423845830155
 31
0.0
  0
LINE
  5
20CE
330
2
100
AcDbEntity
  8
TEREN$0$A-MassElement-G
100
AcDbLine
 10
74359.657675651
 20
-3381.618166777291
 30
0.0
 11
74377.61041791526
 21
-3374.504858937391
 31
0.0
  0
LINE
  5
20CF
330
2
100
AcDbEntity
  8
TEREN$0$A-MassElement-G
100
AcDbLine
 10
74341.50433886212
 20
-3389.460616253215
 30
0.0
 11
74359.657675651
 21
-3381.618166777291
 31
0.0
  0
LINE
  5
20D0
330
2
100
AcDbEntity
  8
TEREN$0$A-MassElement-G
100
AcDbLine
 10
74322.13879828884
 20
-3397.481956113435
 30
0.0
 11
74341.50433886212
 21
-3389.460616253215
 31
0.0
  0
LINE
  5
20D1
330
2
100
AcDbEntity
  8
TEREN$0$A-MassElement-G
100
AcDbLine
 10
74305.6148395498
 20
-3408.522912356726
 30
0.0
 11
74322.13879828884
 21
-3397.481956113435
 31
0.0
  0
LINE
  5
20D2
330
2
100
AcDbEntity
  8
TEREN$0$A-MassElement-G
100
AcDbLine
 10
74290.72985497945
 20
-3419.803755662594
 30
0.0
 11
74305.6148395498
 21
-3408.522912356726
 31
0.0
  0
LINE
  5
20D3
330
2
100
AcDbEntity
  8
TEREN$0$A-MassElement-G
100
AcDbLine
 10
74275.95399509518
 20
-3432.761837001613
 30
0.0
 11
74290.72985497945
 21
-3419.803755662594
 31
0.0
  0
LINE
  5
20D4
330
2
100
AcDbEntity
  8
TEREN$0$A-MassElement-G
100
AcDbLine
 10
74262.43771903142
 20
-3447.792467857784
 30
0.0
 11
74275.95399509518
 21
-3432.761837001613
 31
0.0
  0
LINE
  5
20D5
330
2
100
AcDbEntity
  8
TEREN$0$A-MassElement-G
100
AcDbLine
 10
74249.98573135167
 20
-3463.659477181282
 30
0.0
 11
74262.43771903142
 21
-3447.792467857784
 31
0.0
  0
LINE
  5
20D6
330
2
100
AcDbEntity
  8
TEREN$0$A-MassElement-G
100
AcDbLine
 10
74239.06524015612
 20
-3480.003147235708
 30
0.0
 11
74249.98573135167
 21
-3463.659477181282
 31
0.0
  0
LINE
  5
20D7
330
2
100
AcDbEntity
  8
TEREN$0$A-MassElement-G
100
AcDbLine
 10
74229.91764047865
 20
-3497.961805813524
 30
0.0
 11
74239.06524015612
 21
-3480.003147235708
 31
0.0
  0
LINE
  5
20D8
330
2
100
AcDbEntity
  8
TEREN$0$A-MassElement-G
100
AcDbLine
 10
74221.65243848325
 20
-3516.258665561516
 30
0.0
 11
74229.91764047865
 21
-3497.961805813524
 31
0.0
  0
LINE
  5
20D9
330
2
100
AcDbEntity
  8
TEREN$0$A-MassElement-G
100
AcDbLine
 10
74215.56935380418
 20
-3535.614690585513
 30
0.0
 11
74221.65243848325
 21
-3516.258665561516
 31
0.0
  0
LINE
  5
20DA
330
2
100
AcDbEntity
  8
TEREN$0$A-MassElement-G
100
AcDbLine
 10
74211.05340457284
 20
-3554.413867234384
 30
0.0
 11
74215.56935380418
 21
-3534.967059354924
 31
0.0
  0
LINE
  5
20DB
330
2
100
AcDbEntity
  8
TEREN$0$A-MassElement-G
100
AcDbLine
 10
74208.6146712824
 20
-3574.150328435659
 30
0.0
 11
74211.05340457284
 21
-3554.413867234384
 31
0.0
  0
LINE
  5
20DC
330
2
100
AcDbEntity
  8
TEREN$0$A-MassElement-G
100
AcDbLine
 10
74207.32962542643
 20
-3593.756339482105
 30
0.0
 11
74208.6146712824
 21
-3574.150328435659
 31
0.0
  0
LINE
  5
20DD
330
2
100
AcDbEntity
  8
TEREN$0$A-MassElement-G
100
AcDbLine
 10
74207.13879828884
 20
-3642.773878842171
 30
0.0
 11
74207.32962542643
 21
-3593.756339482105
 31
0.0
  0
LINE
  5
20DE
330
2
100
AcDbEntity
  8
TEREN$0$A-MassElement-G
100
AcDbLine
 10
74207.13879828884
 20
-3817.773878842171
 30
0.0
 11
74207.13879828884
 21
-3642.773878842171
 31
0.0
  0
LINE
  5
20DF
330
2
100
AcDbEntity
  8
TEREN$0$A-MassElement-G
100
AcDbLine
 10
74207.13879828884
 20
-3842.773878842171
 30
0.0
 11
74207.13879828884
 21
-3817.773878842171
 31
0.0
  0
LINE
  5
20E0
330
2
100
AcDbEntity
  8
TEREN$0$A-MassElement-G
100
AcDbLine
 10
74207.13879828884
 20
-3860.761102621982
 30
0.0
 11
74207.13879828884
 21
-3842.773878842171
 31
0.0
  0
LINE
  5
20E1
330
2
100
AcDbEntity
  8
TEREN$0$A-MassElement-G
100
AcDbLine
 10
74207.13879828884
 20
-3876.874529250738
 30
0.0
 11
74207.13879828884
 21
-3860.761102621982
 31
0.0
  0
LINE
  5
20E2
330
2
100
AcDbEntity
  8
TEREN$0$A-MassElement-G
100
AcDbLine
 10
74207.00941770382
 20
-3896.77892694484
 30
0.0
 11
74207.13879828884
 21
-3876.874529250738
 31
0.0
  0
LINE
  5
20E3
330
2
100
AcDbEntity
  8
TEREN$0$A-MassElement-G
100
AcDbLine
 10
74207.84719187866
 20
-3914.958051079666
 30
0.0
 11
74207.00941770382
 21
-3896.77892694484
 31
0.0
  0
LINE
  5
20E4
330
2
100
AcDbEntity
  8
TEREN$0$A-MassElement-G
100
AcDbLine
 10
74209.94471163476
 20
-3931.167517012902
 30
0.0
 11
74207.84719187866
 21
-3914.958051079666
 31
0.0
  0
LINE
  5
20E5
330
2
100
AcDbEntity
  8
TEREN$0$A-MassElement-G
100
AcDbLine
 10
74213.70390211844
 20
-3948.738213800723
 30
0.0
 11
74209.94471163476
 21
-3931.167517012902
 31
0.0
  0
LINE
  5
20E6
330
2
100
AcDbEntity
  8
TEREN$0$A-MassElement-G
100
AcDbLine
 10
74219.56155755844
 20
-3967.606276751744
 30
0.0
 11
74213.70390211844
 21
-3948.738213800723
 31
0.0
  0
LINE
  5
20E7
330
2
100
AcDbEntity
  8
TEREN$0$A-MassElement-G
100
AcDbLine
 10
74226.41419516808
 20
-3984.217077911759
 30
0.0
 11
74219.56155755844
 21
-3967.606276751744
 31
0.0
  0
LINE
  5
20E8
330
2
100
AcDbEntity
  8
TEREN$0$A-MassElement-G
100
AcDbLine
 10
74234.81398064438
 20
-4000.432834927647
 30
0.0
 11
74226.41419516808
 21
-3984.217077911759
 31
0.0
  0
LINE
  5
20E9
330
2
100
AcDbEntity
  8
TEREN$0$A-MassElement-G
100
AcDbLine
 10
74244.4105554302
 20
-4015.586245206402
 30
0.0
 11
74234.81398064438
 21
-4000.432834927647
 31
0.0
  0
LINE
  5
20EA
330
2
100
AcDbEntity
  8
TEREN$0$A-MassElement-G
100
AcDbLine
 10
74255.36815865668
 20
-4029.694001213836
 30
0.0
 11
74244.4105554302
 21
-4015.586245206402
 31
0.0
  0
LINE
  5
20EB
330
2
100
AcDbEntity
  8
TEREN$0$A-MassElement-G
100
AcDbLine
 10
74267.32066779672
 20
-4043.323225764805
 30
0.0
 11
74255.36815865668
 21
-4029.694001213836
 31
0.0
  0
LINE
  5
20EC
330
2
100
AcDbEntity
  8
TEREN$0$A-MassElement-G
100
AcDbLine
 10
74280.35300126036
 20
-4055.27834440254
 30
0.0
 11
74267.32066779672
 21
-4043.323225764805
 31
0.0
  0
LINE
  5
20ED
330
2
100
AcDbEntity
  8
TEREN$0$A-MassElement-G
100
AcDbLine
 10
74294.51362792514
 20
-4066.348617828873
 30
0.0
 11
74280.35300126036
 21
-4055.27834440254
 31
0.0
  0
LINE
  5
20EE
330
2
100
AcDbEntity
  8
TEREN$0$A-MassElement-G
100
AcDbLine
 10
74309.11984370455
 20
-4075.89278387629
 30
0.0
 11
74294.51362792514
 21
-4066.348617828873
 31
0.0
  0
LINE
  5
20EF
330
2
100
AcDbEntity
  8
TEREN$0$A-MassElement-G
100
AcDbLine
 10
74324.29020147944
 20
-4084.097580154063
 30
0.0
 11
74309.11984370455
 21
-4075.89278387629
 31
0.0
  0
LINE
  5
20F0
330
2
100
AcDbEntity
  8
TEREN$0$A-MassElement-G
100
AcDbLine
 10
74346.46198461648
 20
-4093.393368094417
 30
0.0
 11
74324.29020147944
 21
-4084.097580154063
 31
0.0
  0
LINE
  5
20F1
330
2
100
AcDbEntity
  8
TEREN$0$A-MassElement-G
100
AcDbLine
 10
74373.16273150734
 20
-4100.872523450539
 30
0.0
 11
74346.46198461648
 21
-4093.393368094417
 31
0.0
  0
LINE
  5
20F2
330
2
100
AcDbEntity
  8
TEREN$0$A-MassElement-G
100
AcDbLine
 10
74392.05864094877
 20
-4103.903135811488
 30
0.0
 11
74373.16273150734
 21
-4100.872523450539
 31
0.0
  0
LINE
  5
20F3
330
2
100
AcDbEntity
  8
TEREN$0$A-MassElement-G
100
AcDbLine
 10
74387.69398785451
 20
-4161.50494582222
 30
0.0
 11
74445.47090567522
 21
-4157.315400537933
 31
0.0
  0
LINE
  5
20F4
330
2
100
AcDbEntity
  8
TEREN$0$A-MassElement-G
100
AcDbLine
 10
74346.0738395684
 20
-4157.786095724601
 30
0.0
 11
74387.69398785451
 21
-4161.50494582222
 31
0.0
  0
LINE
  5
20F5
330
2
100
AcDbEntity
  8
TEREN$0$A-MassElement-G
100
AcDbLine
 10
74303.22202885583
 20
-4145.573649393496
 30
0.0
 11
74346.0738395684
 21
-4157.786095724601
 31
0.0
  0
LINE
  5
20F6
330
2
100
AcDbEntity
  8
TEREN$0$A-MassElement-G
100
AcDbLine
 10
74284.00467745362
 20
-4133.92553392383
 30
0.0
 11
74303.22202885583
 21
-4145.573649393496
 31
0.0
  0
LINE
  5
20F7
330
2
100
AcDbEntity
  8
TEREN$0$A-MassElement-G
100
AcDbLine
 10
74265.71513988845
 20
-4120.868811342588
 30
0.0
 11
74284.00467745362
 21
-4133.92553392383
 31
0.0
  0
LINE
  5
20F8
330
2
100
AcDbEntity
  8
TEREN$0$A-MassElement-G
100
AcDbLine
 10
74248.4564567333
 20
-4106.477041310355
 30
0.0
 11
74265.71513988845
 21
-4120.868811342588
 31
0.0
  0
LINE
  5
20F9
330
2
100
AcDbEntity
  8
TEREN$0$A-MassElement-G
100
AcDbLine
 10
74232.32586087852
 20
-4090.831304949257
 30
0.0
 11
74248.4564567333
 21
-4106.477041310355
 31
0.0
  0
LINE
  5
20FA
330
2
100
AcDbEntity
  8
TEREN$0$A-MassElement-G
100
AcDbLine
 10
74217.41422973604
 20
-4074.019748043952
 30
0.0
 11
74232.32586087852
 21
-4090.831304949257
 31
0.0
  0
LINE
  5
20FB
330
2
100
AcDbEntity
  8
TEREN$0$A-MassElement-G
100
AcDbLine
 10
74203.80557324925
 20
-4056.137084441041
 30
0.0
 11
74217.41422973604
 21
-4074.019748043952
 31
0.0
  0
LINE
  5
20FC
330
2
100
AcDbEntity
  8
TEREN$0$A-MassElement-G
100
AcDbLine
 10
74191.57656059345
 20
-4037.284062445207
 30
0.0
 11
74203.80557324925
 21
-4056.137084441041
 31
0.0
  0
LINE
  5
20FD
330
2
100
AcDbEntity
  8
TEREN$0$A-MassElement-G
100
AcDbLine
 10
74180.51689515802
 20
-4016.950456283273
 30
0.0
 11
74191.57656059345
 21
-4037.284062445207
 31
0.0
  0
LINE
  5
20FE
330
2
100
AcDbEntity
  8
TEREN$0$A-MassElement-G
100
AcDbLine
 10
74171.52489176813
 20
-3997.096672377564
 30
0.0
 11
74180.51689515802
 21
-4016.950456283273
 31
0.0
  0
LINE
  5
20FF
330
2
100
AcDbEntity
  8
TEREN$0$A-MassElement-G
100
AcDbLine
 10
74163.81520376067
 20
-3975.988714168881
 30
0.0
 11
74171.52489176813
 21
-3997.096672377564
 31
0.0
  0
LINE
  5
2100
330
2
100
AcDbEntity
  8
TEREN$0$A-MassElement-G
100
AcDbLine
 10
74157.71045946238
 20
-3954.361941733703
 30
0.0
 11
74163.81520376067
 21
-3975.988714168881
 31
0.0
  0
LINE
  5
2101
330
2
100
AcDbEntity
  8
TEREN$0$A-MassElement-G
100
AcDbLine
 10
74153.24505210747
 20
-3932.338197136895
 30
0.0
 11
74157.71045946238
 21
-3954.361941733703
 31
0.0
  0
LINE
  5
2102
330
2
100
AcDbEntity
  8
TEREN$0$A-MassElement-G
100
AcDbLine
 10
74150.44413914626
 20
-3910.0415589263
 30
0.0
 11
74153.24505210747
 21
-3932.338197136895
 31
0.0
  0
LINE
  5
2103
330
2
100
AcDbEntity
  8
TEREN$0$A-MassElement-G
100
AcDbLine
 10
74149.32350051166
 20
-3887.597643092377
 30
0.0
 11
74150.44413914626
 21
-3910.0415589263
 31
0.0
  0
LINE
  5
2104
330
2
100
AcDbEntity
  8
TEREN$0$A-MassElement-G
100
AcDbLine
 10
74149.88944971749
 20
-3865.132895366042
 30
0.0
 11
74149.32350051166
 21
-3887.597643092377
 31
0.0
  0
LINE
  5
2105
330
2
100
AcDbEntity
  8
TEREN$0$A-MassElement-G
100
AcDbLine
 10
74147.13879828884
 20
-3842.773878842171
 30
0.0
 11
74149.88944971749
 21
-3865.132895366042
 31
0.0
  0
LINE
  5
2106
330
2
100
AcDbEntity
  8
TEREN$0$A-MassElement-G
100
AcDbLine
 10
74147.13879828884
 20
-3642.773878842171
 30
0.0
 11
74147.13879828884
 21
-3842.773878842171
 31
0.0
  0
LINE
  5
2107
330
2
100
AcDbEntity
  8
TEREN$0$A-MassElement-G
100
AcDbLine
 10
74152.56218053984
 20
-3630.284058916921
 30
0.0
 11
74147.13879828884
 21
-3642.773878842171
 31
0.0
  0
LINE
  5
2108
330
2
100
AcDbEntity
  8
TEREN$0$A-MassElement-G
100
AcDbLine
 10
74152.56218053984
 20
-3607.794238991643
 30
0.0
 11
74152.56218053984
 21
-3630.284058916921
 31
0.0
  0
LINE
  5
2109
330
2
100
AcDbEntity
  8
TEREN$0$A-MassElement-G
100
AcDbLine
 10
74153.33539168718
 20
-3585.323087192592
 30
0.0
 11
74152.56218053984
 21
-3607.794238991643
 31
0.0
  0
LINE
  5
210A
330
2
100
AcDbEntity
  8
TEREN$0$A-MassElement-G
100
AcDbLine
 10
74155.81567936048
 20
-3562.975934184899
 30
0.0
 11
74153.33539168718
 21
-3585.323087192592
 31
0.0
  0
LINE
  5
210B
330
2
100
AcDbEntity
  8
TEREN$0$A-MassElement-G
100
AcDbLine
 10
74159.54827121297
 20
-3541.325111121478
 30
0.0
 11
74155.81567936048
 21
-3562.975934184899
 31
0.0
  0
LINE
  5
210C
330
2
100
AcDbEntity
  8
TEREN$0$A-MassElement-G
100
AcDbLine
 10
74166.58449364359
 20
-3519.171419671053
 30
0.0
 11
74159.54827121297
 21
-3541.325111121478
 31
0.0
  0
LINE
  5
210D
330
2
100
AcDbEntity
  8
TEREN$0$A-MassElement-G
100
AcDbLine
 10
74173.31873302562
 20
-3497.968528077749
 30
0.0
 11
74166.58449364359
 21
-3519.171419671053
 31
0.0
  0
LINE
  5
210E
330
2
100
AcDbEntity
  8
TEREN$0$A-MassElement-G
100
AcDbLine
 10
74182.39414917656
 20
-3477.39709409322
 30
0.0
 11
74173.31873302562
 21
-3497.968528077749
 31
0.0
  0
LINE
  5
210F
330
2
100
AcDbEntity
  8
TEREN$0$A-MassElement-G
100
AcDbLine
 10
74193.00998385671
 20
-3457.576621633271
 30
0.0
 11
74182.39414917656
 21
-3477.39709409322
 31
0.0
  0
LINE
  5
2110
330
2
100
AcDbEntity
  8
TEREN$0$A-MassElement-G
100
AcDbLine
 10
74205.10456738302
 20
-3438.622252115471
 30
0.0
 11
74193.00998385671
 21
-3457.576621633271
 31
0.0
  0
LINE
  5
2111
330
2
100
AcDbEntity
  8
TEREN$0$A-MassElement-G
100
AcDbLine
 10
74218.60763970013
 20
-3418.579709861908
 30
0.0
 11
74205.10456738302
 21
-3438.622252115471
 31
0.0
  0
LINE
  5
2112
330
2
100
AcDbEntity
  8
TEREN$0$A-MassElement-G
100
AcDbLine
 10
74233.44075853623
 20
-3403.746591025833
 30
0.0
 11
74218.60763970013
 21
-3418.579709861908
 31
0.0
  0
LINE
  5
2113
330
2
100
AcDbEntity
  8
TEREN$0$A-MassElement-G
100
AcDbLine
 10
74249.51775509112
 20
-3388.027899723253
 30
0.0
 11
74233.44075853623
 21
-3403.746591025833
 31
0.0
  0
LINE
  5
2114
330
2
100
AcDbEntity
  8
TEREN$0$A-MassElement-G
100
AcDbLine
 10
74266.7452346096
 20
-3373.579334952592
 30
0.0
 11
74249.51775509112
 21
-3388.027899723253
 31
0.0
  0
LINE
  5
2115
330
2
100
AcDbEntity
  8
TEREN$0$A-MassElement-G
100
AcDbLine
 10
74284.04194082015
 20
-3360.484831556082
 30
0.0
 11
74266.7452346096
 21
-3373.579334952592
 31
0.0
  0
LINE
  5
2116
330
2
100
AcDbEntity
  8
TEREN$0$A-MassElement-G
100
AcDbLine
 10
74304.24522786839
 20
-3348.820458340269
 30
0.0
 11
74284.04194082015
 21
-3360.484831556082
 31
0.0
  0
LINE
  5
2117
330
2
100
AcDbEntity
  8
TEREN$0$A-MassElement-G
100
AcDbLine
 10
74324.29989602541
 20
-3338.653976175628
 30
0.0
 11
74304.24522786839
 21
-3348.820458340269
 31
0.0
  0
LINE
  5
2118
330
2
100
AcDbEntity
  8
TEREN$0$A-MassElement-G
100
AcDbLine
 10
74345.0706214916
 20
-3330.044444359097
 30
0.0
 11
74324.29989602541
 21
-3338.653976175628
 31
0.0
  0
LINE
  5
2119
330
2
100
AcDbEntity
  8
TEREN$0$A-MassElement-G
100
AcDbLine
 10
74366.43674262382
 20
-3323.041877525815
 30
0.0
 11
74345.0706214916
 21
-3330.044444359097
 31
0.0
  0
LINE
  5
211A
330
2
100
AcDbEntity
  8
TEREN$0$A-MassElement-G
100
AcDbLine
 10
74388.27413899656
 20
-3317.686955103229
 30
0.0
 11
74366.43674262382
 21
-3323.041877525815
 31
0.0
  0
LINE
  5
211B
330
2
100
AcDbEntity
  8
TEREN$0$A-MassElement-G
100
AcDbLine
 10
74410.45595244433
 20
-3314.010784995611
 30
0.0
 11
74388.27413899656
 21
-3317.686955103229
 31
0.0
  0
LINE
  5
211C
330
2
100
AcDbEntity
  8
TEREN$0$A-MassElement-G
100
AcDbLine
 10
74432.85332400825
 20
-3312.034722871337
 30
0.0
 11
74410.45595244433
 21
-3314.010784995611
 31
0.0
  0
LINE
  5
211D
330
2
100
AcDbEntity
  8
TEREN$0$A-MassElement-G
100
AcDbLine
 10
74444.27864522683
 20
-3311.66779898385
 30
0.0
 11
74432.85332400825
 21
-3312.034722871337
 31
0.0
  0
LINE
  5
211E
330
2
100
AcDbEntity
  8
TEREN$0$A-MassElement-G
100
AcDbLine
 10
74927.62326098828
 20
-3311.66779898385
 30
0.0
 11
74444.27864522683
 21
-3311.66779898385
 31
0.0
  0
LINE
  5
211F
330
2
100
AcDbEntity
  8
TEREN$0$A-MassElement-G
100
AcDbLine
 10
74945.67117127592
 20
-3309.244187850491
 30
0.0
 11
74927.62326098828
 21
-3311.66779898385
 31
0.0
  0
LINE
  5
2120
330
2
100
AcDbEntity
  8
TEREN$0$A-MassElement-G
100
AcDbLine
 10
74967.93036314273
 20
-3306.667798983851
 30
0.0
 11
74945.67117127592
 21
-3309.244187850491
 31
0.0
  0
LINE
  5
2121
330
2
100
AcDbEntity
  8
TEREN$0$A-MassElement-G
100
AcDbLine
 10
75167.93036314273
 20
-3306.667798983851
 30
0.0
 11
74967.93036314273
 21
-3306.667798983851
 31
0.0
  0
LINE
  5
2122
330
2
100
AcDbEntity
  8
TEREN$0$A-MassElement-G
100
AcDbLine
 10
75189.7960033058
 20
-3308.118465067135
 30
0.0
 11
75167.93036314273
 21
-3306.667798983851
 31
0.0
  0
LINE
  5
2123
330
2
100
AcDbEntity
  8
TEREN$0$A-MassElement-G
100
AcDbLine
 10
75219.96325250198
 20
-3311.66779898385
 30
0.0
 11
75189.7960033058
 21
-3308.118465067135
 31
0.0
  0
LINE
  5
2124
330
2
100
AcDbEntity
  8
TEREN$0$A-MassElement-G
100
AcDbLine
 10
75472.13879828884
 20
-3311.66779898385
 30
0.0
 11
75219.96325250198
 21
-3311.66779898385
 31
0.0
  0
LINE
  5
2125
330
2
100
AcDbEntity
  8
TEREN$0$A-MassElement-G
100
AcDbLine
 10
75472.13879828884
 20
-3630.16779898385
 30
0.0
 11
75472.13879828884
 21
-3311.66779898385
 31
0.0
  0
LINE
  5
2126
330
2
100
AcDbEntity
  8
TEREN$0$A-MassElement-G
  6
Continuous
 62
   210
370
     9
100
AcDbLine
 10
75812.13879828884
 20
-4500.167798983879
 30
0.0
 11
75812.13879828884
 21
-4600.167798983878
 31
0.0
  0
LINE
  5
2127
330
2
100
AcDbEntity
  8
TEREN$0$A-MassElement-G
  6
Continuous
 62
   210
370
     9
100
AcDbLine
 10
74147.13879828884
 20
-3817.773878842171
 30
0.0
 11
74147.13879828884
 21
-3667.773878842171
 31
0.0
  0
LINE
  5
2128
330
2
100
AcDbEntity
  8
TEREN$0$A-MassElement-G
  6
Continuous
 62
   210
370
     9
100
AcDbLine
 10
74147.13879828884
 20
-3667.773878842171
 30
0.0
 11
74177.13879828884
 21
-3667.773878842171
 31
0.0
  0
LINE
  5
2129
330
2
100
AcDbEntity
  8
TEREN$0$A-MassElement-G
  6
Continuous
 62
   210
370
     9
100
AcDbLine
 10
74177.13879828884
 20
-3667.773878842171
 30
0.0
 11
74177.13879828884
 21
-3817.773878842171
 31
0.0
  0
LINE
  5
212A
330
2
100
AcDbEntity
  8
TEREN$0$A-MassElement-G
  6
Continuous
 62
   210
370
     9
100
AcDbLine
 10
74177.13879828884
 20
-3817.773878842171
 30
0.0
 11
74147.13879828884
 21
-3817.773878842171
 31
0.0
  0
LINE
  5
212B
330
2
100
AcDbEntity
  8
TEREN$0$A-MassElement-G
100
AcDbLine
 10
74147.13879828884
 20
-3642.773878842171
 30
0.0
 11
74147.13879828884
 21
-3667.773878842171
 31
0.0
  0
LINE
  5
212C
330
2
100
AcDbEntity
  8
TEREN$0$A-MassElement-G
  6
Continuous
 62
   210
370
     9
100
AcDbLine
 10
74147.13879828884
 20
-3667.773878842171
 30
0.0
 11
74207.13879828884
 21
-3667.773878842171
 31
0.0
  0
LINE
  5
212D
330
2
100
AcDbEntity
  8
TEREN$0$A-MassElement-G
100
AcDbLine
 10
74207.13879828884
 20
-3667.773878842171
 30
0.0
 11
74207.13879828884
 21
-3642.773878842171
 31
0.0
  0
LINE
  5
212E
330
2
100
AcDbEntity
  8
TEREN$0$A-MassElement-G
  6
Continuous
 62
   210
370
     9
100
AcDbLine
 10
74177.13879828884
 20
-3817.773878842171
 30
0.0
 11
74177.13879828884
 21
-3667.773878842171
 31
0.0
  0
LINE
  5
212F
330
2
100
AcDbEntity
  8
TEREN$0$A-MassElement-G
  6
Continuous
 62
   210
370
     9
100
AcDbLine
 10
74177.13879828884
 20
-3667.773878842171
 30
0.0
 11
74207.13879828884
 21
-3667.773878842171
 31
0.0
  0
LINE
  5
2130
330
2
100
AcDbEntity
  8
TEREN$0$A-MassElement-G
  6
Continuous
 62
   210
370
     9
100
AcDbLine
 10
74207.13879828884
 20
-3667.773878842171
 30
0.0
 11
74207.13879828884
 21
-3817.773878842171
 31
0.0
  0
LINE
  5
2131
330
2
100
AcDbEntity
  8
TEREN$0$A-MassElement-G
  6
Continuous
 62
   210
370
     9
100
AcDbLine
 10
74207.13879828884
 20
-3817.773878842171
 30
0.0
 11
74177.13879828884
 21
-3817.773878842171
 31
0.0
  0
LINE
  5
2132
330
2
100
AcDbEntity
  8
TEREN$0$A-MassElement-G
100
AcDbLine
 10
74437.13879828884
 20
-3366.66779898385
 30
0.0
 11
75417.13879828884
 21
-3366.66779898385
 31
0.0
  0
LINE
  5
2133
330
2
100
AcDbEntity
  8
TEREN$0$A-MassElement-G
100
AcDbLine
 10
75417.13879828884
 20
-3366.66779898385
 30
0.0
 11
75417.13879828884
 21
-3630.16779898385
 31
0.0
  0
3DFACE
  5
2134
330
2
100
AcDbEntity
  8
TEREN$0$A-MassElement-G
  6
Continuous
 62
   210
370
     9
100
AcDbFace
 10
75812.13882368886
 20
-4600.16777358386
 30
0.0
 11
75812.13882368886
 21
-4860.167798983879
 31
0.0
 12
75812.13882368886
 22
-4600.16777358386
 32
0.0
 13
75812.13882368886
 23
-4600.16777358386
 33
0.0
  0
LINE
  5
2135
330
2
100
AcDbEntity
  8
TEREN$0$A-MassElement-G
  6
Continuous
 62
   210
370
     9
100
AcDbLine
 10
74147.13879828884
 20
-3842.773878842171
 30
0.0
 11
74147.13879828884
 21
-3817.773878842171
 31
0.0
  0
LINE
  5
2136
330
2
100
AcDbEntity
  8
TEREN$0$A-MassElement-G
  6
Continuous
 62
   210
370
     9
100
AcDbLine
 10
74147.13879828884
 20
-3817.773878842171
 30
0.0
 11
74207.13879828884
 21
-3817.773878842171
 31
0.0
  0
LINE
  5
2137
330
2
100
AcDbEntity
  8
TEREN$0$A-MassElement-G
  6
Continuous
 62
   210
370
     9
100
AcDbLine
 10
74207.13879828884
 20
-3817.773878842171
 30
0.0
 11
74207.13879828884
 21
-3842.773878842171
 31
0.0
  0
LINE
  5
2138
330
2
100
AcDbEntity
  8
TEREN$0$A-MassElement-G
100
AcDbLine
 10
75167.93036314273
 20
-3306.667798983851
 30
0.0
 11
75142.93036314273
 21
-3306.667798983851
 31
0.0
  0
LINE
  5
2139
330
2
100
AcDbEntity
  8
TEREN$0$A-MassElement-G
  6
Continuous
 62
   210
370
     9
100
AcDbLine
 10
75142.93036314273
 20
-3306.667798983851
 30
0.0
 11
75142.93036314273
 21
-3366.66779898385
 31
0.0
  0
LINE
  5
213A
330
2
100
AcDbEntity
  8
TEREN$0$A-MassElement-G
  6
Continuous
 62
   210
370
     9
100
AcDbLine
 10
75142.93036314273
 20
-3366.66779898385
 30
0.0
 11
75167.93036314273
 21
-3366.66779898385
 31
0.0
  0
LINE
  5
213B
330
2
100
AcDbEntity
  8
TEREN$0$A-MassElement-G
100
AcDbLine
 10
74967.93036314273
 20
-3306.667798983851
 30
0.0
 11
74992.93036314273
 21
-3306.667798983851
 31
0.0
  0
LINE
  5
213C
330
2
100
AcDbEntity
  8
TEREN$0$A-MassElement-G
  6
Continuous
 62
   210
370
     9
100
AcDbLine
 10
74992.93036314273
 20
-3306.667798983851
 30
0.0
 11
74992.93036314273
 21
-3366.66779898385
 31
0.0
  0
LINE
  5
213D
330
2
100
AcDbEntity
  8
TEREN$0$A-MassElement-G
  6
Continuous
 62
   210
370
     9
100
AcDbLine
 10
74992.93036314273
 20
-3366.66779898385
 30
0.0
 11
74967.93036314273
 21
-3366.66779898385
 31
0.0
  0
LINE
  5
213E
330
2
100
AcDbEntity
  8
TEREN$0$A-MassElement-G
  6
Continuous
 62
   210
370
     9
100
AcDbLine
 10
75142.93036314273
 20
-3306.667798983851
 30
0.0
 11
74992.93036314273
 21
-3306.667798983851
 31
0.0
  0
LINE
  5
213F
330
2
100
AcDbEntity
  8
TEREN$0$A-MassElement-G
  6
Continuous
 62
   210
370
     9
100
AcDbLine
 10
74992.93036314273
 20
-3306.667798983851
 30
0.0
 11
74992.93036314273
 21
-3336.66779898385
 31
0.0
  0
LINE
  5
2140
330
2
100
AcDbEntity
  8
TEREN$0$A-MassElement-G
  6
Continuous
 62
   210
370
     9
100
AcDbLine
 10
74992.93036314273
 20
-3336.66779898385
 30
0.0
 11
75142.93036314273
 21
-3336.66779898385
 31
0.0
  0
LINE
  5
2141
330
2
100
AcDbEntity
  8
TEREN$0$A-MassElement-G
  6
Continuous
 62
   210
370
     9
100
AcDbLine
 10
75142.93036314273
 20
-3336.66779898385
 30
0.0
 11
75142.93036314273
 21
-3306.667798983851
 31
0.0
  0
LINE
  5
2142
330
2
100
AcDbEntity
  8
TEREN$0$A-MassElement-G
  6
Continuous
 62
   210
370
     9
100
AcDbLine
 10
75142.93036314273
 20
-3336.66779898385
 30
0.0
 11
74992.93036314273
 21
-3336.66779898385
 31
0.0
  0
LINE
  5
2143
330
2
100
AcDbEntity
  8
TEREN$0$A-MassElement-G
  6
Continuous
 62
   210
370
     9
100
AcDbLine
 10
74992.93036314273
 20
-3336.66779898385
 30
0.0
 11
74992.93036314273
 21
-3366.66779898385
 31
0.0
  0
LINE
  5
2144
330
2
100
AcDbEntity
  8
TEREN$0$A-MassElement-G
  6
Continuous
 62
   210
370
     9
100
AcDbLine
 10
74992.93036314273
 20
-3366.66779898385
 30
0.0
 11
75142.93036314273
 21
-3366.66779898385
 31
0.0
  0
LINE
  5
2145
330
2
100
AcDbEntity
  8
TEREN$0$A-MassElement-G
  6
Continuous
 62
   210
370
     9
100
AcDbLine
 10
75142.93036314273
 20
-3366.66779898385
 30
0.0
 11
75142.93036314273
 21
-3336.66779898385
 31
0.0
  0
3DFACE
  5
2146
330
2
100
AcDbEntity
  8
TEREN$0$A-MassElement-G
  6
Continuous
 62
   210
370
     9
100
AcDbFace
 10
74982.63879828884
 20
-4500.167798983879
 30
0.0
 11
74982.63879828884
 21
-4600.167798983878
 31
0.0
 12
74982.63879828884
 22
-4600.167798983878
 32
0.0
 13
74982.63879828884
 23
-4500.167798983879
 33
0.0
  0
3DFACE
  5
2147
330
2
100
AcDbEntity
  8
TEREN$0$A-MassElement-G
  6
Continuous
 62
   210
370
     9
100
AcDbFace
 10
74960.4862408568
 20
-4611.248423439203
 30
0.0
 11
74982.63879828884
 21
-4600.167798983878
 31
0.0
 12
74982.63879828884
 22
-4500.167798983879
 32
0.0
 13
74962.63879828884
 23
-4600.354270563243
 33
0.0
 70
     5
  0
3DFACE
  5
2148
330
2
100
AcDbEntity
  8
TEREN$0$A-MassElement-G
  6
Continuous
 62
   210
370
     9
100
AcDbFace
 10
74982.63879828884
 20
-4600.167798983878
 30
0.0
 11
74960.4862408568
 21
-4611.248423439203
 31
0.0
 12
74946.48032277358
 22
-4651.275037679137
 32
0.0
 13
74946.48032277358
 23
-4651.275037679137
 33
0.0
 70
    13
  0
3DFACE
  5
2149
330
2
100
AcDbEntity
  8
TEREN$0$A-MassElement-G
  6
Continuous
 62
   210
370
     9
100
AcDbFace
 10
74893.93300950479
 20
-4717.167284368959
 30
0.0
 11
74949.81559413658
 21
-4685.659811035162
 31
0.0
 12
74968.99302844853
 22
-4649.781354961756
 32
0.0
 13
74923.91880271477
 23
-4687.181491158975
 33
0.0
 70
     5
  0
3DFACE
  5
214A
330
2
100
AcDbEntity
  8
TEREN$0$A-MassElement-G
  6
Continuous
 62
   210
370
     9
100
AcDbFace
 10
74949.81559413658
 20
-4685.659811035162
 30
0.0
 11
74893.93300950479
 21
-4717.167284368959
 31
0.0
 12
74924.0071092987
 22
-4717.107540800192
 32
0.0
 13
74924.0071092987
 23
-4717.107540800192
 33
0.0
 70
     3
  0
3DFACE
  5
214B
330
2
100
AcDbEntity
  8
TEREN$0$A-MassElement-G
  6
Continuous
 62
   210
370
     9
100
AcDbFace
 10
74962.63879828884
 20
-4500.167798983879
 30
0.0
 11
74962.63879828884
 21
-4600.167798983878
 31
0.0
 12
74962.63879828884
 22
-4600.354270563243
 32
0.0
 13
74962.63879828884
 23
-4500.167798983879
 33
0.0
 70
     2
  0
3DFACE
  5
214C
330
2
100
AcDbEntity
  8
TEREN$0$A-MassElement-G
  6
Continuous
 62
   210
370
     9
100
AcDbFace
 10
74962.63879828884
 20
-4600.354270563243
 30
0.0
 11
74962.63879828884
 21
-4600.354270563243
 31
0.0
 12
74962.63879828884
 22
-4600.167798983878
 32
0.0
 13
74962.63879828884
 23
-4600.167798983878
 33
0.0
 70
     2
  0
3DFACE
  5
214D
330
2
100
AcDbEntity
  8
TEREN$0$A-MassElement-G
  6
Continuous
 62
   210
370
     9
100
AcDbFace
 10
74968.99302844853
 20
-4649.781354961756
 30
0.0
 11
74968.99302844853
 21
-4649.781354961756
 31
0.0
 12
74949.81559413658
 22
-4685.659811035162
 32
0.0
 13
74949.81559413658
 23
-4685.659811035162
 33
0.0
  0
3DFACE
  5
214E
330
2
100
AcDbEntity
  8
TEREN$0$A-MassElement-G
  6
Continuous
 62
   210
370
     9
100
AcDbFace
 10
74949.81559413658
 20
-4685.659811035162
 30
0.0
 11
74949.81559413658
 21
-4685.659811035162
 31
0.0
 12
74924.0071092987
 22
-4717.107540800192
 32
0.0
 13
74924.0071092987
 23
-4717.107540800192
 33
0.0
  0
3DFACE
  5
214F
330
2
100
AcDbEntity
  8
TEREN$0$A-MassElement-G
  6
Continuous
 62
   210
370
     9
100
AcDbFace
 10
74893.93300950479
 20
-4717.167284368959
 30
0.0
 11
74893.93300950479
 21
-4717.167284368959
 31
0.0
 12
74923.91880271477
 22
-4687.181491158975
 32
0.0
 13
74923.91880271477
 23
-4687.181491158975
 33
0.0
  0
3DFACE
  5
2150
330
2
100
AcDbEntity
  8
TEREN$0$A-MassElement-G
  6
Continuous
 62
   210
370
     9
100
AcDbFace
 10
74923.91880271477
 20
-4687.181491158975
 30
0.0
 11
74923.91880271477
 21
-4687.181491158975
 31
0.0
 12
74946.48032277358
 22
-4651.275037679137
 32
0.0
 13
74946.48032277358
 23
-4651.275037679137
 33
0.0
  0
3DFACE
  5
2151
330
2
100
AcDbEntity
  8
TEREN$0$A-MassElement-G
  6
Continuous
 62
   210
370
     9
100
AcDbFace
 10
74946.48032277358
 20
-4651.275037679137
 30
0.0
 11
74946.48032277358
 21
-4651.275037679137
 31
0.0
 12
74960.4862408568
 22
-4611.248423439203
 32
0.0
 13
74960.4862408568
 23
-4611.248423439203
 33
0.0
  0
3DFACE
  5
2152
330
2
100
AcDbEntity
  8
TEREN$0$A-MassElement-G
  6
Continuous
 62
   210
370
     9
100
AcDbFace
 10
74960.4862408568
 20
-4611.248423439203
 30
0.0
 11
74960.4862408568
 21
-4611.248423439203
 31
0.0
 12
74962.63879828884
 22
-4600.354270563243
 32
0.0
 13
74962.63879828884
 23
-4600.354270563243
 33
0.0
  0
3DFACE
  5
2153
330
2
100
AcDbEntity
  8
TEREN$0$A-MassElement-G
  6
Continuous
 62
   210
370
     9
100
AcDbFace
 10
74902.13086433204
 20
-4736.121316383025
 30
0.0
 11
74893.93300950479
 21
-4717.167284368959
 31
0.0
 12
74923.91880271477
 22
-4687.181491158975
 32
0.0
 13
74923.91880271477
 23
-4687.181491158975
 33
0.0
 70
    13
  0
3DFACE
  5
2154
330
2
100
AcDbEntity
  8
TEREN$0$A-MassElement-G
  6
Continuous
 62
   210
370
     9
100
AcDbFace
 10
74946.48032277358
 20
-4651.275037679137
 30
0.0
 11
74924.0071092987
 21
-4717.107540800192
 31
0.0
 12
74902.13086433204
 22
-4736.121316383025
 32
0.0
 13
74923.91880271477
 23
-4687.181491158975
 33
0.0
 70
     5
  0
3DFACE
  5
2155
330
2
100
AcDbEntity
  8
TEREN$0$A-MassElement-G
  6
Continuous
 62
   210
370
     9
100
AcDbFace
 10
74960.4862408568
 20
-4611.248423439203
 30
0.0
 11
74949.81559413658
 21
-4685.659811035162
 31
0.0
 12
74924.0071092987
 22
-4717.107540800192
 32
0.0
 13
74946.48032277358
 23
-4651.275037679137
 33
0.0
 70
     5
  0
3DFACE
  5
2156
330
2
100
AcDbEntity
  8
TEREN$0$A-MassElement-G
  6
Continuous
 62
   210
370
     9
100
AcDbFace
 10
74962.63879828884
 20
-4600.354270563243
 30
0.0
 11
74968.99302844853
 21
-4649.781354961756
 31
0.0
 12
74949.81559413658
 22
-4685.659811035162
 32
0.0
 13
74960.4862408568
 23
-4611.248423439203
 33
0.0
 70
     5
  0
LINE
  5
2157
330
2
100
AcDbEntity
  8
TEREN$0$A-MassElement-G
  6
Continuous
 62
   210
370
     9
100
AcDbLine
 10
74963.44135845576
 20
-4660.167798983879
 30
0.0
 11
75390.83623812191
 21
-4660.167798983879
 31
0.0
  0
LINE
  5
2158
330
2
100
AcDbEntity
  8
TEREN$0$A-MassElement-G
  6
Continuous
 62
   210
370
     9
100
AcDbLine
 10
75408.16161253994
 20
-4690.167798983878
 30
0.0
 11
74946.11598403774
 21
-4690.167798983878
 31
0.0
  0
LINE
  5
2159
330
2
100
AcDbEntity
  8
TEREN$0$A-MassElement-G
  6
Continuous
 62
   210
370
     9
100
AcDbLine
 10
75390.83623812191
 20
-4660.167798983879
 30
0.0
 11
74963.44135845576
 21
-4660.167798983879
 31
0.0
  0
3DFACE
  5
215A
330
2
100
AcDbEntity
  8
TEREN$0$A-MassElement-G
  6
Continuous
 62
   210
370
     9
100
AcDbFace
 10
75452.14673224568
 20
-4736.121316383025
 30
0.0
 11
75464.20846025598
 21
-4720.167798983879
 31
0.0
 12
75460.34458707292
 22
-4717.167284368959
 32
0.0
 13
75460.34458707292
 23
-4717.167284368959
 33
0.0
 70
    12
  0
3DFACE
  5
215B
330
2
100
AcDbEntity
  8
TEREN$0$A-MassElement-G
  6
Continuous
 62
   210
370
     9
100
AcDbFace
 10
75452.14673224568
 20
-4736.121316383025
 30
0.0
 11
75460.34458707292
 21
-4717.167284368959
 31
0.0
 12
75430.35879386294
 22
-4687.181491158975
 32
0.0
 13
75430.35879386294
 23
-4687.181491158975
 33
0.0
 70
    13
  0
3DFACE
  5
215C
330
2
100
AcDbEntity
  8
TEREN$0$A-MassElement-G
  6
Continuous
 62
   210
370
     9
100
AcDbFace
 10
75407.7972738041
 20
-4651.275037679137
 30
0.0
 11
75430.27048727901
 21
-4717.107540800192
 31
0.0
 12
75452.14673224568
 22
-4736.121316383025
 32
0.0
 13
75430.35879386294
 23
-4687.181491158975
 33
0.0
 70
     5
  0
3DFACE
  5
215D
330
2
100
AcDbEntity
  8
TEREN$0$A-MassElement-G
  6
Continuous
 62
   210
370
     9
100
AcDbFace
 10
75393.79135572091
 20
-4611.248423439203
 30
0.0
 11
75404.46200244113
 21
-4685.659811035162
 31
0.0
 12
75430.27048727901
 22
-4717.107540800192
 32
0.0
 13
75407.7972738041
 23
-4651.275037679137
 33
0.0
 70
     5
  0
3DFACE
  5
215E
330
2
100
AcDbEntity
  8
TEREN$0$A-MassElement-G
  6
Continuous
 62
   210
370
     9
100
AcDbFace
 10
75391.63879828884
 20
-4600.354270563243
 30
0.0
 11
75385.28456812915
 21
-4649.781354961756
 31
0.0
 12
75404.46200244113
 22
-4685.659811035162
 32
0.0
 13
75393.79135572091
 23
-4611.248423439203
 33
0.0
 70
     5
  0
3DFACE
  5
215F
330
2
100
AcDbEntity
  8
TEREN$0$A-MassElement-G
  6
Continuous
 62
   210
370
     9
100
AcDbFace
 10
75371.63879828884
 20
-4600.167798983878
 30
0.0
 11
75373.47516238889
 21
-4610.850961525968
 31
0.0
 12
75385.28456812915
 22
-4649.781354961756
 32
0.0
 13
75391.63879828884
 23
-4600.354270563243
 33
0.0
 70
    12
  0
3DFACE
  5
2160
330
2
100
AcDbEntity
  8
TEREN$0$A-MassElement-G
  6
Continuous
 62
   210
370
     9
100
AcDbFace
 10
75371.63879828884
 20
-4500.167798983879
 30
0.0
 11
75371.63879828884
 21
-4500.167798983879
 31
0.0
 12
75371.63879828884
 22
-4600.167798983878
 32
0.0
 13
75371.63879828884
 23
-4600.167798983878
 33
0.0
  0
3DFACE
  5
2161
330
2
100
AcDbEntity
  8
TEREN$0$A-MassElement-G
  6
Continuous
 62
   210
370
     9
100
AcDbFace
 10
75391.63879828884
 20
-4600.167798983878
 30
0.0
 11
75391.63879828884
 21
-4500.167798983879
 31
0.0
 12
75391.63879828884
 22
-4600.354270563243
 32
0.0
 13
75391.63879828884
 23
-4600.354270563243
 33
0.0
 70
     2
  0
3DFACE
  5
2162
330
2
100
AcDbEntity
  8
TEREN$0$A-MassElement-G
  6
Continuous
 62
   210
370
     9
100
AcDbFace
 10
75391.63879828884
 20
-4500.167798983879
 30
0.0
 11
75391.63879828884
 21
-4600.354270563243
 31
0.0
 12
75391.63879828884
 22
-4500.167798983879
 32
0.0
 13
75391.63879828884
 23
-4500.167798983879
 33
0.0
 70
     2
  0
3DFACE
  5
2163
330
2
100
AcDbEntity
  8
TEREN$0$A-MassElement-G
  6
Continuous
 62
   210
370
     9
100
AcDbFace
 10
75371.63879828884
 20
-4600.167798983878
 30
0.0
 11
75371.63879828884
 21
-4600.167798983878
 31
0.0
 12
75373.47516238889
 22
-4610.850961525968
 32
0.0
 13
75373.47516238889
 23
-4610.850961525968
 33
0.0
  0
3DFACE
  5
2164
330
2
100
AcDbEntity
  8
TEREN$0$A-MassElement-G
  6
Continuous
 62
   210
370
     9
100
AcDbFace
 10
75373.47516238889
 20
-4610.850961525968
 30
0.0
 11
75373.47516238889
 21
-4610.850961525968
 31
0.0
 12
75385.28456812915
 22
-4649.781354961756
 32
0.0
 13
75385.28456812915
 23
-4649.781354961756
 33
0.0
  0
3DFACE
  5
2165
330
2
100
AcDbEntity
  8
TEREN$0$A-MassElement-G
  6
Continuous
 62
   210
370
     9
100
AcDbFace
 10
75385.28456812915
 20
-4649.781354961756
 30
0.0
 11
75385.28456812915
 21
-4649.781354961756
 31
0.0
 12
75404.46200244113
 22
-4685.659811035162
 32
0.0
 13
75404.46200244113
 23
-4685.659811035162
 33
0.0
  0
3DFACE
  5
2166
330
2
100
AcDbEntity
  8
TEREN$0$A-MassElement-G
  6
Continuous
 62
   210
370
     9
100
AcDbFace
 10
75404.46200244113
 20
-4685.659811035162
 30
0.0
 11
75404.46200244113
 21
-4685.659811035162
 31
0.0
 12
75430.27048727901
 22
-4717.107540800192
 32
0.0
 13
75430.27048727901
 23
-4717.107540800192
 33
0.0
  0
3DFACE
  5
2167
330
2
100
AcDbEntity
  8
TEREN$0$A-MassElement-G
  6
Continuous
 62
   210
370
     9
100
AcDbFace
 10
75430.27048727901
 20
-4717.107540800192
 30
0.0
 11
75430.27048727901
 21
-4717.107540800192
 31
0.0
 12
75452.14673224568
 22
-4736.121316383025
 32
0.0
 13
75452.14673224568
 23
-4736.121316383025
 33
0.0
  0
3DFACE
  5
2168
330
2
100
AcDbEntity
  8
TEREN$0$A-MassElement-G
  6
Continuous
 62
   210
370
     9
100
AcDbFace
 10
75452.14673224568
 20
-4736.121316383025
 30
0.0
 11
75452.14673224568
 21
-4736.121316383025
 31
0.0
 12
75464.20846025598
 22
-4720.167798983879
 32
0.0
 13
75464.20846025598
 23
-4720.167798983879
 33
0.0
  0
3DFACE
  5
2169
330
2
100
AcDbEntity
  8
TEREN$0$A-MassElement-G
  6
Continuous
 62
   210
370
     9
100
AcDbFace
 10
75464.20846025598
 20
-4720.167798983879
 30
0.0
 11
75464.20846025598
 21
-4720.167798983879
 31
0.0
 12
75460.34458707292
 22
-4717.167284368959
 32
0.0
 13
75460.34458707292
 23
-4717.167284368959
 33
0.0
  0
3DFACE
  5
216A
330
2
100
AcDbEntity
  8
TEREN$0$A-MassElement-G
  6
Continuous
 62
   210
370
     9
100
AcDbFace
 10
75460.34458707292
 20
-4717.167284368959
 30
0.0
 11
75460.34458707292
 21
-4717.167284368959
 31
0.0
 12
75430.35879386294
 22
-4687.181491158975
 32
0.0
 13
75430.35879386294
 23
-4687.181491158975
 33
0.0
  0
3DFACE
  5
216B
330
2
100
AcDbEntity
  8
TEREN$0$A-MassElement-G
  6
Continuous
 62
   210
370
     9
100
AcDbFace
 10
75430.35879386294
 20
-4687.181491158975
 30
0.0
 11
75430.35879386294
 21
-4687.181491158975
 31
0.0
 12
75407.7972738041
 22
-4651.275037679137
 32
0.0
 13
75407.7972738041
 23
-4651.275037679137
 33
0.0
  0
3DFACE
  5
216C
330
2
100
AcDbEntity
  8
TEREN$0$A-MassElement-G
  6
Continuous
 62
   210
370
     9
100
AcDbFace
 10
75407.7972738041
 20
-4651.275037679137
 30
0.0
 11
75407.7972738041
 21
-4651.275037679137
 31
0.0
 12
75393.79135572091
 22
-4611.248423439203
 32
0.0
 13
75393.79135572091
 23
-4611.248423439203
 33
0.0
  0
3DFACE
  5
216D
330
2
100
AcDbEntity
  8
TEREN$0$A-MassElement-G
  6
Continuous
 62
   210
370
     9
100
AcDbFace
 10
75393.79135572091
 20
-4611.248423439203
 30
0.0
 11
75393.79135572091
 21
-4611.248423439203
 31
0.0
 12
75391.63879828884
 22
-4600.354270563243
 32
0.0
 13
75391.63879828884
 23
-4600.354270563243
 33
0.0
  0
3DFACE
  5
216E
330
2
100
AcDbEntity
  8
TEREN$0$A-MassElement-G
  6
Continuous
 62
   210
370
     9
100
AcDbFace
 10
75371.63879828884
 20
-4600.167798983878
 30
0.0
 11
75391.63879828884
 21
-4600.167798983878
 31
0.0
 12
75391.63879828884
 22
-4600.354270563243
 32
0.0
 13
75391.63879828884
 23
-4600.354270563243
 33
0.0
 70
    12
  0
3DFACE
  5
216F
330
2
100
AcDbEntity
  8
TEREN$0$A-MassElement-G
  6
Continuous
 62
   210
370
     9
100
AcDbFace
 10
75371.63879828884
 20
-4600.167798983878
 30
0.0
 11
75391.63879828884
 21
-4600.354270563243
 31
0.0
 12
75393.79135572091
 22
-4611.248423439203
 32
0.0
 13
75393.79135572091
 23
-4611.248423439203
 33
0.0
 70
    13
  0
3DFACE
  5
2170
330
2
100
AcDbEntity
  8
TEREN$0$A-MassElement-G
  6
Continuous
 62
   210
370
     9
100
AcDbFace
 10
75371.63879828884
 20
-4600.167798983878
 30
0.0
 11
75393.79135572091
 21
-4611.248423439203
 31
0.0
 12
75407.7972738041
 22
-4651.275037679137
 32
0.0
 13
75407.7972738041
 23
-4651.275037679137
 33
0.0
 70
    13
  0
3DFACE
  5
2171
330
2
100
AcDbEntity
  8
TEREN$0$A-MassElement-G
  6
Continuous
 62
   210
370
     9
100
AcDbFace
 10
75430.35879386294
 20
-4687.181491158975
 30
0.0
 11
75373.47516238889
 21
-4610.850961525968
 31
0.0
 12
75371.63879828884
 22
-4600.167798983878
 32
0.0
 13
75407.7972738041
 23
-4651.275037679137
 33
0.0
 70
     5
  0
3DFACE
  5
2172
330
2
100
AcDbEntity
  8
TEREN$0$A-MassElement-G
  6
Continuous
 62
   210
370
     9
100
AcDbFace
 10
75385.28456812915
 20
-4649.781354961756
 30
0.0
 11
75373.47516238889
 21
-4610.850961525968
 31
0.0
 12
75430.35879386294
 22
-4687.181491158975
 32
0.0
 13
75430.35879386294
 23
-4687.181491158975
 33
0.0
 70
    14
  0
3DFACE
  5
2173
330
2
100
AcDbEntity
  8
TEREN$0$A-MassElement-G
  6
Continuous
 62
   210
370
     9
100
AcDbFace
 10
75460.34458707292
 20
-4717.167284368959
 30
0.0
 11
75404.46200244113
 21
-4685.659811035162
 31
0.0
 12
75385.28456812915
 22
-4649.781354961756
 32
0.0
 13
75430.35879386294
 23
-4687.181491158975
 33
0.0
 70
     5
  0
3DFACE
  5
2174
330
2
100
AcDbEntity
  8
TEREN$0$A-MassElement-G
  6
Continuous
 62
   210
370
     9
100
AcDbFace
 10
75452.14673224568
 20
-4736.121316383025
 30
0.0
 11
75430.27048727901
 21
-4717.107540800192
 31
0.0
 12
75460.34458707292
 22
-4717.167284368959
 32
0.0
 13
75464.20846025598
 23
-4720.167798983879
 33
0.0
 70
     2
  0
3DFACE
  5
2175
330
2
100
AcDbEntity
  8
TEREN$0$A-MassElement-G
  6
Continuous
 62
   210
370
     9
100
AcDbFace
 10
75404.46200244113
 20
-4685.659811035162
 30
0.0
 11
75460.34458707292
 21
-4717.167284368959
 31
0.0
 12
75430.27048727901
 22
-4717.107540800192
 32
0.0
 13
75430.27048727901
 23
-4717.107540800192
 33
0.0
 70
     3
  0
LINE
  5
2176
330
2
100
AcDbEntity
  8
TEREN$0$A-MassElement-G
  6
Continuous
 62
   210
370
     9
100
AcDbLine
 10
75391.63879828884
 20
-4600.167798983878
 30
0.0
 11
75391.63879828884
 21
-4500.167798983879
 31
0.0
  0
LINE
  5
2177
330
2
100
AcDbEntity
  8
TEREN$0$A-MassElement-G
  6
Continuous
 62
   210
370
     9
100
AcDbLine
 10
75812.13879828884
 20
-4600.167798983878
 30
0.0
 11
75391.63879828884
 21
-4600.167798983878
 31
0.0
  0
3DFACE
  5
2178
330
2
100
AcDbEntity
  8
TEREN$0$A-MassElement-G
  6
Continuous
 62
   210
370
     9
100
AcDbFace
 10
75812.13882368886
 20
-4600.16777358386
 30
0.0
 11
75391.63877288885
 21
-4600.16777358386
 31
0.0
 12
75461.70891011947
 22
-4720.167826337725
 32
0.0
 13
75461.70891011947
 23
-4720.167826337725
 33
0.0
 70
    14
  0
3DFACE
  5
2179
330
2
100
AcDbEntity
  8
TEREN$0$A-MassElement-G
  6
Continuous
 62
   210
370
     9
100
AcDbFace
 10
75461.70891011947
 20
-4860.167798983879
 30
0.0
 11
75461.70891011947
 21
-4860.167798983879
 31
0.0
 12
75812.13882368886
 22
-4860.167798983879
 32
0.0
 13
75812.13882368886
 23
-4860.167798983879
 33
0.0
  0
3DFACE
  5
217A
330
2
100
AcDbEntity
  8
TEREN$0$A-MassElement-G
  6
Continuous
 62
   210
370
     9
100
AcDbFace
 10
75812.13882368886
 20
-4600.16777358386
 30
0.0
 11
75391.63877288885
 21
-4600.16777358386
 31
0.0
 12
75391.63877288885
 22
-4600.16777358386
 32
0.0
 13
75812.13882368886
 23
-4600.16777358386
 33
0.0
  0
3DFACE
  5
217B
330
2
100
AcDbEntity
  8
TEREN$0$A-MassElement-G
  6
Continuous
 62
   210
370
     9
100
AcDbFace
 10
75461.70891011947
 20
-4860.167798983879
 30
0.0
 11
75461.70891011947
 21
-4860.166722695096
 31
0.0
 12
75812.13882368886
 22
-4860.167798983879
 32
0.0
 13
75812.13882368886
 23
-4860.167798983879
 33
0.0
  0
3DFACE
  5
217C
330
2
100
AcDbEntity
  8
TEREN$0$A-MassElement-G
  6
Continuous
 62
   210
370
     9
100
AcDbFace
 10
75812.13882368886
 20
-4860.167798983879
 30
0.0
 11
75461.70891011947
 21
-4860.166722695096
 31
0.0
 12
75461.70891011947
 22
-4723.473844067848
 32
0.0
 13
75461.70891011947
 23
-4723.473844067848
 33
0.0
 70
    12
  0
LINE
  5
217D
330
2
100
AcDbEntity
  8
TEREN$0$A-MassElement-G
  6
Continuous
 62
   210
370
     9
100
AcDbLine
 10
75379.37986525903
 20
-4630.316158243877
 30
0.0
 11
74974.89773131867
 21
-4630.316158243847
 31
0.0
  0
LINE
  5
217E
330
2
100
AcDbEntity
  8
TEREN$0$A-MassElement-G
  6
Continuous
 62
   210
370
     9
100
AcDbLine
 10
74974.89773131867
 20
-4630.316158243847
 30
0.0
 11
74982.63879828884
 21
-4600.167798983878
 31
0.0
  0
LINE
  5
217F
330
2
100
AcDbEntity
  8
TEREN$0$A-MassElement-G
  6
Continuous
 62
   210
370
     9
100
AcDbLine
 10
74982.63879828884
 20
-4600.167798983878
 30
0.0
 11
74982.63879828884
 21
-4500.167798983879
 31
0.0
  0
LINE
  5
2180
330
2
100
AcDbEntity
  8
TEREN$0$A-MassElement-G
  6
Continuous
 62
   210
370
     9
100
AcDbLine
 10
75371.63879828884
 20
-4500.167798983879
 30
0.0
 11
75371.63879828884
 21
-4600.167798983878
 31
0.0
  0
LINE
  5
2181
330
2
100
AcDbEntity
  8
TEREN$0$A-MassElement-G
  6
Continuous
 62
   210
370
     9
100
AcDbLine
 10
74902.13086433204
 20
-4736.121316383025
 30
0.0
 11
74889.26802590162
 21
-4723.258477952636
 31
0.0
  0
LINE
  5
2182
330
2
100
AcDbEntity
  8
TEREN$0$A-MassElement-G
  6
Continuous
 62
   210
370
     9
100
AcDbLine
 10
74968.99302844853
 20
-4649.781354961756
 30
0.0
 11
74974.89773131867
 21
-4630.316158243847
 31
0.0
  0
LINE
  5
2183
330
2
100
AcDbEntity
  8
TEREN$0$A-MassElement-G
  6
Continuous
 62
   210
370
     9
100
AcDbLine
 10
74893.93300950479
 20
-4717.167284368959
 30
0.0
 11
74888.55492091136
 21
-4722.545372962384
 31
0.0
  0
LINE
  5
2184
330
2
100
AcDbEntity
  8
TEREN$0$A-MassElement-G
  6
Continuous
 62
   210
370
     9
100
AcDbLine
 10
74888.55492091136
 20
-4722.545372962384
 30
0.0
 11
74902.13086433204
 21
-4736.121316383025
 31
0.0
  0
LWPOLYLINE
  5
2185
102
{ACAD_REACTORS
330
20C2
102
}
330
2
100
AcDbEntity
  8
0Hatch
100
AcDbPolyline
 90
       14
 70
     1
 43
0.0
 10
75812.13879828884
 20
-3630.16779898385
 10
74542.13879828884
 20
-3630.16779898385
 10
74542.13879828884
 20
-3865.167798983879
 10
74501.3233041211
 20
-3865.167798983879
 10
74392.13879828884
 20
-3974.352304816232
 10
74392.13879828884
 20
-4103.983293151526
 10
74501.3233041211
 20
-4213.167798983879
 10
74542.13879828884
 20
-4213.167798983879
 10
74542.13879828884
 20
-4500.167798983879
 10
75097.13879828884
 20
-4500.167798983879
 10
75257.13879828884
 20
-4500.167798983879
 10
75493.13879828884
 20
-4500.167798983879
 10
75733.13879828884
 20
-4500.167798983879
 10
75812.13879828884
 20
-4500.167798983879
  0
CIRCLE
  5
2186
102
{ACAD_REACTORS
330
2188
102
}
330
2
100
AcDbEntity
  8
0Hatch
100
AcDbCircle
 10
-75323.13879828884
 20
-4596.301128636128
 30
0.0
 40
17.5
210
0.0
220
0.0
230
-1.0
  0
CIRCLE
  5
2187
102
{ACAD_REACTORS
330
2188
102
}
330
2
100
AcDbEntity
  8
0Hatch
100
AcDbCircle
 10
75031.13879828884
 20
-4596.301128636128
 30
0.0
 40
17.5
  0
HATCH
  5
2188
330
2
100
AcDbEntity
  8
0Hatch
100
AcDbHatch
 10
0.0
 20
0.0
 30
0.0
210
0.0
220
0.0
230
1.0
  2
SOLID
 70
     1
 71
     1
 91
        2
 92
        7
 72
     1
 73
     1
 93
        2
 10
75340.63879828884
 20
-4596.301128636128
 42
1.0
 10
75305.63879828884
 20
-4596.301128636128
 42
1.0
 97
        1
330
2186
 92
        7
 72
     1
 73
     1
 93
        2
 10
75048.63879828884
 20
-4596.301128636128
 42
1.0
 10
75013.63879828884
 20
-4596.301128636128
 42
1.0
 97
        1
330
2187
 75
     0
 76
     1
 47
1.185929472398165
 98
        2
 10
75316.77854944514
 20
-4598.717760277985
 10
75033.20559983222
 20
-4593.974001342969
  0
DIMENSION
  5
2189
330
2
100
AcDbEntity
  8
WYMIARY
100
AcDbDimension
  2
*D36
 10
76343.26000152475
 20
-4500.16779898388
 30
0.0
 11
76263.26000152475
 21
-4065.167798983853
 31
0.0
 70
    32
 71
     5
 42
870.0000000000295
  3
500
100
AcDbAlignedDimension
 13
75812.13879828884
 23
-3630.16779898385
 33
0.0
 14
75772.63879828884
 24
-4500.167798983879
 34
0.0
 50
90.0
100
AcDbRotatedDimension
  0
DIMENSION
  5
218A
330
2
100
AcDbEntity
  8
WYMIARY
100
AcDbDimension
  2
*D37
 10
74542.13879828884
 20
-2729.553229567435
 30
0.0
 11
75177.13879828884
 21
-2649.553229567435
 31
0.0
 70
    32
 71
     5
 42
1270.0
  3
500
100
AcDbAlignedDimension
 13
75812.13879828884
 23
-3630.16779898385
 33
0.0
 14
74542.13879828884
 24
-3630.16779898385
 34
0.0
 50
180.0
100
AcDbRotatedDimension
  0
DIMENSION
  5
218B
330
2
100
AcDbEntity
  8
WYMIARY
100
AcDbDimension
  2
*D38
 10
74392.13879828884
 20
-2729.553229567435
 30
0.0
 11
74467.13879828884
 21
-2649.553229567435
 31
0.0
 70
    32
 71
     5
 42
150.0
  3
500
100
AcDbAlignedDimension
 13
74542.13879828884
 23
-3630.16779898385
 33
0.0
 14
74392.13879828884
 24
-3974.352304816232
 34
0.0
 50
180.0
100
AcDbRotatedDimension
  0
DIMENSION
  5
218C
330
2
100
AcDbEntity
  8
WYMIARY
100
AcDbDimension
  2
*D39
 10
74392.13879828884
 20
-2498.572202422089
 30
0.0
 11
75102.13879828884
 21
-2418.572202422089
 31
0.0
 70
    32
 71
     5
 42
1420.0
  3
500
100
AcDbAlignedDimension
 13
75812.13879828884
 23
-3630.16779898385
 33
0.0
 14
74392.13879828884
 24
-3974.352304816232
 34
0.0
 50
180.0
100
AcDbRotatedDimension
  0
ENDSEC
  0
SECTION
  2
OBJECTS
  0
DICTIONARY
  5
B
330
0
100
AcDbDictionary
281
     1
  3
ACAD_COLOR
350
53
  3
ACAD_GROUP
350
4E
  3
ACAD_LAYOUT
350
12
  3
ACAD_MATERIAL
350
D
  3
ACAD_MLEADERSTYLE
350
7A8
  3
ACAD_MLINESTYLE
350
4F
  3
ACAD_PLOTSETTINGS
350
50
  3
ACAD_PLOTSTYLENAME
350
A
  3
ACAD_SCALELIST
350
54
  3
ACAD_TABLESTYLE
350
55
  3
ACAD_VISUALSTYLE
350
15
  3
ACDB_RECOMPOSE_DATA
350
794
  3
AcDbVariableDictionary
350
795
  3
AEC_PROPERTY_SET_DEFS
350
952
  3
DWGPROPS
350
21E3
  0
DICTIONARY
  5
1E
330
1D
100
AcDbDictionary
280
     1
281
     1
  3
ACAD_LAYERSTATES
360
1F
  0
DICTIONARY
  5
7
330
6
100
AcDbDictionary
280
     1
281
     1
  3
ADSK_XREC_LAYER_RECONCILED
360
8
  0
DICTIONARY
  5
75
330
74
100
AcDbDictionary
280
     1
281
     1
  3
ADSK_XREC_LAYER_RECONCILED
360
76
  0
DICTIONARY
  5
57
330
56
100
AcDbDictionary
280
     1
281
     1
  3
ADSK_XREC_LAYER_RECONCILED
360
58
  0
DICTIONARY
  5
3A4
330
3A3
100
AcDbDictionary
280
     1
281
     1
  3
ADSK_XREC_LAYER_RECONCILED
360
3A5
  0
DICTIONARY
  5
7F
330
7E
100
AcDbDictionary
280
     1
281
     1
  3
ADSK_XREC_LAYER_RECONCILED
360
80
  0
DICTIONARY
  5
1A19
330
1A18
100
AcDbDictionary
280
     1
281
     1
  0
DICTIONARY
  5
3
330
2
100
AcDbDictionary
280
     1
281
     1
  3
ACAD_SORTENTS
360
790
  0
DICTIONARY
  5
30
330
2F
100
AcDbDictionary
280
     1
281
     1
  3
ACAD_SORTENTS
360
78F
  0
DICTIONARY
  5
53
102
{ACAD_REACTORS
330
B
102
}
330
B
100
AcDbDictionary
281
     1
  0
DICTIONARY
  5
4E
102
{ACAD_REACTORS
330
B
102
}
330
B
100
AcDbDictionary
281
     1
  0
DICTIONARY
  5
12
102
{ACAD_REACTORS
330
B
102
}
330
B
100
AcDbDictionary
281
     1
  3
Layout1
350
1943
  3
Model
350
11
  0
DICTIONARY
  5
D
102
{ACAD_REACTORS
330
B
102
}
330
B
100
AcDbDictionary
281
     1
  3
ByBlock
350
52
  3
ByLayer
350
51
  3
Global
350
C
  0
DICTIONARY
  5
7A8
102
{ACAD_REACTORS
330
B
102
}
330
B
100
AcDbDictionary
281
     1
  3
Standard
350
7A9
  0
DICTIONARY
  5
4F
102
{ACAD_REACTORS
330
B
102
}
330
B
100
AcDbDictionary
281
     1
  3
STANDARD
350
59
  0
DICTIONARY
  5
50
102
{ACAD_REACTORS
330
B
102
}
330
B
100
AcDbDictionary
281
     1
  0
ACDBDICTIONARYWDFLT
  5
A
102
{ACAD_REACTORS
330
B
102
}
330
B
100
AcDbDictionary
281
     1
  3
Normal
350
9
100
AcDbDictionaryWithDefault
340
9
  0
DICTIONARY
  5
54
102
{ACAD_REACTORS
330
B
102
}
330
B
100
AcDbDictionary
281
     1
  3
*A1
350
85B
  3
*A10
350
132C
  3
*A11
350
132D
  3
*A12
350
86F
  3
*A13
350
132E
  3
*A14
350
873
  3
*A15
350
132F
  3
*A16
350
869
  3
*A17
350
1330
  3
*A18
350
1331
  3
*A19
350
1332
  3
*A2
350
876
  3
*A20
350
1333
  3
*A21
350
879
  3
*A22
350
87B
  3
*A23
350
870
  3
*A24
350
1334
  3
*A25
350
1335
  3
*A26
350
1336
  3
*A27
350
1337
  3
*A28
350
87F
  3
*A29
350
881
  3
*A3
350
877
  3
*A30
350
1338
  3
*A31
350
87C
  3
*A32
350
87D
  3
*A33
350
865
  3
*A34
350
860
  3
*A35
350
862
  3
*A36
350
87E
  3
*A37
350
168F
  3
*A38
350
1690
  3
*A39
350
1691
  3
*A4
350
868
  3
*A40
350
86A
  3
*A41
350
1692
  3
*A42
350
1693
  3
*A43
350
85E
  3
*A44
350
1694
  3
*A45
350
871
  3
*A46
350
1695
  3
*A47
350
882
  3
*A48
350
866
  3
*A49
350
86D
  3
*A5
350
85D
  3
*A50
350
85F
  3
*A51
350
863
  3
*A52
350
85C
  3
*A53
350
874
  3
*A54
350
867
  3
*A55
350
1A1C
  3
*A56
350
864
  3
*A57
350
1A1D
  3
*A58
350
1A1E
  3
*A59
350
1A1F
  3
*A6
350
86C
  3
*A60
350
1A20
  3
*A61
350
1A21
  3
*A62
350
1A22
  3
*A63
350
86B
  3
*A64
350
87A
  3
*A65
350
86E
  3
*A66
350
872
  3
*A67
350
880
  3
*A68
350
875
  3
*A69
350
1CC4
  3
*A7
350
878
  3
*A70
350
1CC5
  3
*A71
350
1CC6
  3
*A72
350
1CC7
  3
*A73
350
1CC8
  3
*A74
350
1CC9
  3
*A75
350
1CCA
  3
*A8
350
861
  3
*A9
350
132B
  3
A0
350
5E
  3
A1
350
5F
  3
A2
350
60
  3
A3
350
61
  3
A4
350
62
  3
A5
350
63
  3
A6
350
64
  3
A7
350
65
  3
A8
350
66
  3
A9
350
67
  3
B0
350
68
  3
B1
350
69
  3
B2
350
6A
  3
B3
350
6B
  3
B4
350
6C
  3
B5
350
6D
  3
B6
350
6E
  3
B7
350
6F
  3
B8
350
70
  3
B9
350
71
  3
C0
350
72
  0
DICTIONARY
  5
55
102
{ACAD_REACTORS
330
B
102
}
330
B
100
AcDbDictionary
281
     1
  3
Standard
350
5A
  0
DICTIONARY
  5
15
102
{ACAD_REACTORS
330
B
102
}
330
B
100
AcDbDictionary
281
     1
  3
2dWireframe
350
14
  3
3D Hidden
350
7A0
  3
3dWireframe
350
5D
  3
Basic
350
79F
  3
Brighten
350
7A3
  3
ColorChange
350
7A7
  3
Conceptual
350
7A1
  3
Dim
350
7A2
  3
Facepattern
350
7A6
  3
Flat
350
79B
  3
FlatWithEdges
350
79C
  3
Gouraud
350
79D
  3
GouraudWithEdges
350
79E
  3
Linepattern
350
7A5
  3
Phong
350
7B1
  3
PhongWithEdges
350
7B2
  3
Realistic
350
5C
  3
Thicken
350
7A4
  0
XRECORD
  5
794
102
{ACAD_REACTORS
330
B
102
}
330
B
100
AcDbXrecord
280
     1
 90
        1
330
5A
  0
DICTIONARY
  5
795
102
{ACAD_REACTORS
330
B
102
}
330
B
100
AcDbDictionary
281
     1
  3
CANNOSCALE
350
798
  3
CMLEADERSTYLE
350
797
  3
CTABLESTYLE
350
796
  3
DIMASSOC
350
21E1
  3
HIDETEXT
350
21E0
  3
INDEXCTL
350
21DF
  3
LIGHTINGUNITS
350
799
  3
MSLTSCALE
350
21DD
  3
SORTENTS
350
21DE
  0
DICTIONARY
  5
952
102
{ACAD_REACTORS
330
B
102
}
330
B
100
AcDbDictionary
281
     1
  0
XRECORD
  5
21E3
102
{ACAD_REACTORS
330
B
102
}
330
B
100
AcDbXrecord
280
     1
  1
DWGPROPS COOKIE
  2

  3

  4

  6

  7

  8
beata.rzonca
  9

300
=
301
=
302
=
303
=
304
=
305
=
306
=
307
=
308
=
309
=
 40
21.74000568287037
 41
2450817.525937848
 42
2454965.596720556
  1

 90
        0
  0
DICTIONARY
  5
1F
102
{ACAD_REACTORS
330
1E
102
}
330
1E
100
AcDbDictionary
281
     1
  0
XRECORD
  5
8
102
{ACAD_REACTORS
330
7
102
}
330
7
100
AcDbXrecord
280
     1
290
     1
  0
XRECORD
  5
76
102
{ACAD_REACTORS
330
75
102
}
330
75
100
AcDbXrecord
280
     1
290
     1
  0
XRECORD
  5
58
102
{ACAD_REACTORS
330
57
102
}
330
57
100
AcDbXrecord
280
     1
290
     1
  0
XRECORD
  5
3A5
102
{ACAD_REACTORS
330
3A4
102
}
330
3A4
100
AcDbXrecord
280
     1
290
     1
  0
XRECORD
  5
80
102
{ACAD_REACTORS
330
7F
102
}
330
7F
100
AcDbXrecord
280
     1
290
     1
  0
SORTENTSTABLE
  5
790
102
{ACAD_REACTORS
330
3
102
}
330
3
100
AcDbSortentsTable
330
2
  0
SORTENTSTABLE
  5
78F
102
{ACAD_REACTORS
330
30
102
}
330
30
100
AcDbSortentsTable
330
2F
  0
LAYOUT
  5
1943
102
{ACAD_XDICTIONARY
360
21ED
102
}
102
{ACAD_REACTORS
330
12
102
}
330
12
100
AcDbPlotSettings
  1

  2
CutePDF Writer
  4

  6

 40
0.0
 41
0.0
 42
0.0
 43
0.0
 44
0.0
 45
0.0
 46
0.0
 47
0.0
 48
0.0
 49
0.0
140
0.0
141
0.0
142
1.0
143
1.0
 70
   688
 72
     0
 73
     0
 74
     5
  7

 75
    16
147
1.0
148
0.0
149
0.0
100
AcDbLayout
  1
Layout1
 70
     1
 71
     1
 10
0.0
 20
0.0
 11
12.0
 21
9.0
 12
0.0
 22
0.0
 32
0.0
 14
0.0
 24
0.0
 34
0.0
 15
0.0
 25
0.0
 35
0.0
146
0.0
 13
0.0
 23
0.0
 33
0.0
 16
1.0
 26
0.0
 36
0.0
 17
0.0
 27
1.0
 37
0.0
 76
     0
330
1942
  0
LAYOUT
  5
11
102
{ACAD_XDICTIONARY
360
21E6
102
}
102
{ACAD_REACTORS
330
12
102
}
330
12
100
AcDbPlotSettings
  1

  2
RICOH Aficio AP610N PCL 5e
  4
A4
  6
10-ele
 40
6.805083274841308
 41
5.027085781097412
 42
6.974411010742187
 43
5.027069091796875
 44
209.9733276367187
 45
296.9259948730469
 46
-3.903083324432671
 47
3.235920000076276
 48
67057.75918130524
 49
-45526.33714755503
140
77257.75918130527
141
-31506.33714755504
142
1.0
143
50.0
 70
 11940
 72
     1
 73
     0
 74
     4
  7
monochrome_140.ctb
 75
     0
147
0.0192346895442289
148
-67057.75918130524
149
45526.33714755503
100
AcDbLayout
  1
Model
 70
     1
 71
     0
 10
0.0
 20
0.0
 11
12.0
 21
9.0
 12
0.0
 22
0.0
 32
0.0
 14
0.0
 24
0.0
 34
0.0
 15
0.0
 25
0.0
 35
0.0
146
0.0
 13
0.0
 23
0.0
 33
0.0
 16
1.0
 26
0.0
 36
0.0
 17
0.0
 27
1.0
 37
0.0
 76
     0
330
2
331
29
1001
ACAD_PSEXT
1000
RICOH Aficio AP610N PCL 5e
1000
RICOH Aficio AP610N PCL 5e
1000
IP_192.168.0.252_tech
1000

1070
     0
  0
MATERIAL
  5
52
102
{ACAD_XDICTIONARY
360
21EA
102
}
102
{ACAD_REACTORS
330
D
102
}
330
D
100
AcDbMaterial
  1
ByBlock
 73
     1
 78
     1
172
     1
176
     1
270
     1
274
     1
  0
MATERIAL
  5
51
102
{ACAD_XDICTIONARY
360
21E8
102
}
102
{ACAD_REACTORS
330
D
102
}
330
D
100
AcDbMaterial
  1
ByLayer
 73
     1
 78
     1
172
     1
176
     1
270
     1
274
     1
  0
MATERIAL
  5
C
102
{ACAD_XDICTIONARY
360
21E4
102
}
102
{ACAD_REACTORS
330
D
102
}
330
D
100
AcDbMaterial
  1
Global
 73
     1
 78
     1
172
     1
176
     1
270
     1
274
     1
  0
MLEADERSTYLE
  5
7A9
102
{ACAD_REACTORS
330
7A8
102
}
330
7A8
100
AcDbMLeaderStyle
170
     2
171
     1
172
     0
 90
        2
 40
0.0
 41
0.0
173
     1
 91
-1056964608
340
24
 92
       -2
290
     1
 42
0.09
291
     1
 43
0.36
  3
Standard
 44
0.18
300

342
21
174
     1
178
     6
175
     1
176
     0
 93
-1056964608
 45
0.18
292
     0
297
     0
 46
0.18
 94
-1056964608
 47
1.0
 49
1.0
140
1.0
293
     1
141
0.0
294
     1
177
     0
142
1.0
295
     0
296
     0
143
0.125
1001
ACAD_MLEADERVER
1070
     2
  0
MLINESTYLE
  5
59
102
{ACAD_REACTORS
330
4F
102
}
330
4F
100
AcDbMlineStyle
  2
STANDARD
 70
     0
  3

 62
     0
 51
90.0
 52
90.0
 71
     2
 49
0.5
 62
   256
  6
BYLAYER
 49
-0.5
 62
   256
  6
BYLAYER
  0
ACDBPLACEHOLDER
  5
9
102
{ACAD_REACTORS
330
A
102
}
330
A
  0
SCALE
  5
85B
102
{ACAD_REACTORS
330
54
102
}
330
54
100
AcDbScale
 70
     0
300
1:1_2
140
1.0
141
1.0
290
     0
  0
SCALE
  5
132C
102
{ACAD_REACTORS
330
54
102
}
330
54
100
AcDbScale
 70
     0
300
1:10_3
140
1.0
141
1.0
290
     0
  0
SCALE
  5
132D
102
{ACAD_REACTORS
330
54
102
}
330
54
100
AcDbScale
 70
     0
300
1:20_3
140
1.0
141
2.0
290
     0
  0
SCALE
  5
86F
102
{ACAD_REACTORS
330
54
102
}
330
54
100
AcDbScale
 70
     0
300
4:1
140
4.0
141
1.0
290
     0
  0
SCALE
  5
132E
102
{ACAD_REACTORS
330
54
102
}
330
54
100
AcDbScale
 70
     0
300
1:50_3
140
1.0
141
5.0
290
     0
  0
SCALE
  5
873
102
{ACAD_REACTORS
330
54
102
}
330
54
100
AcDbScale
 70
     0
300
1/128" = 1'-0"
140
0.0078125
141
12.0
290
     0
  0
SCALE
  5
132F
102
{ACAD_REACTORS
330
54
102
}
330
54
100
AcDbScale
 70
     0
300
1:100_3
140
1.0
141
10.0
290
     0
  0
SCALE
  5
869
102
{ACAD_REACTORS
330
54
102
}
330
54
100
AcDbScale
 70
     0
300
1:20_1
140
1.0
141
20.0
290
     0
  0
SCALE
  5
1330
102
{ACAD_REACTORS
330
54
102
}
330
54
100
AcDbScale
 70
     0
300
1:1_3
140
1.0
141
0.1
290
     0
  0
SCALE
  5
1331
102
{ACAD_REACTORS
330
54
102
}
330
54
100
AcDbScale
 70
     0
300
1:2_3
140
1.0
141
0.2
290
     0
  0
SCALE
  5
1332
102
{ACAD_REACTORS
330
54
102
}
330
54
100
AcDbScale
 70
     0
300
1:1_4
140
1.0
141
1.0
290
     0
  0
SCALE
  5
876
102
{ACAD_REACTORS
330
54
102
}
330
54
100
AcDbScale
 70
     0
300
1/16" = 1'-0"
140
0.0625
141
12.0
290
     0
  0
SCALE
  5
1333
102
{ACAD_REACTORS
330
54
102
}
330
54
100
AcDbScale
 70
     0
300
1:2_4
140
1.0
141
2.0
290
     0
  0
SCALE
  5
879
102
{ACAD_REACTORS
330
54
102
}
330
54
100
AcDbScale
 70
     0
300
3/16" = 1'-0"
140
0.1875
141
12.0
290
     0
  0
SCALE
  5
87B
102
{ACAD_REACTORS
330
54
102
}
330
54
100
AcDbScale
 70
     0
300
3/8" = 1'-0"
140
0.375
141
12.0
290
     0
  0
SCALE
  5
870
102
{ACAD_REACTORS
330
54
102
}
330
54
100
AcDbScale
 70
     0
300
8:1
140
8.0
141
1.0
290
     0
  0
SCALE
  5
1334
102
{ACAD_REACTORS
330
54
102
}
330
54
100
AcDbScale
 70
     0
300
1:5_4
140
1.0
141
5.0
290
     0
  0
SCALE
  5
1335
102
{ACAD_REACTORS
330
54
102
}
330
54
100
AcDbScale
 70
     0
300
1:10_4
140
1.0
141
10.0
290
     0
  0
SCALE
  5
1336
102
{ACAD_REACTORS
330
54
102
}
330
54
100
AcDbScale
 70
     0
300
1:20_4
140
1.0
141
20.0
290
     0
  0
SCALE
  5
1337
102
{ACAD_REACTORS
330
54
102
}
330
54
100
AcDbScale
 70
     0
300
1:50_4
140
1.0
141
50.0
290
     0
  0
SCALE
  5
87F
102
{ACAD_REACTORS
330
54
102
}
330
54
100
AcDbScale
 70
     0
300
1-1/2" = 1'-0"
140
1.5
141
12.0
290
     0
  0
SCALE
  5
881
102
{ACAD_REACTORS
330
54
102
}
330
54
100
AcDbScale
 70
     0
300
6" = 1'-0"
140
6.0
141
12.0
290
     0
  0
SCALE
  5
877
102
{ACAD_REACTORS
330
54
102
}
330
54
100
AcDbScale
 70
     0
300
3/32" = 1'-0"
140
0.09375
141
12.0
290
     0
  0
SCALE
  5
1338
102
{ACAD_REACTORS
330
54
102
}
330
54
100
AcDbScale
 70
     0
300
1:100_4
140
1.0
141
100.0
290
     0
  0
SCALE
  5
87C
102
{ACAD_REACTORS
330
54
102
}
330
54
100
AcDbScale
 70
     0
300
1/2" = 1'-0"
140
0.5
141
12.0
290
     0
  0
SCALE
  5
87D
102
{ACAD_REACTORS
330
54
102
}
330
54
100
AcDbScale
 70
     0
300
3/4" = 1'-0"
140
0.75
141
12.0
290
     0
  0
SCALE
  5
865
102
{ACAD_REACTORS
330
54
102
}
330
54
100
AcDbScale
 70
     0
300
1:5_1
140
1.0
141
5.0
290
     0
  0
SCALE
  5
860
102
{ACAD_REACTORS
330
54
102
}
330
54
100
AcDbScale
 70
     0
300
1:50_2
140
1.0
141
50.0
290
     0
  0
SCALE
  5
862
102
{ACAD_REACTORS
330
54
102
}
330
54
100
AcDbScale
 70
     0
300
1:1_1
140
1.0
141
1.0
290
     0
  0
SCALE
  5
87E
102
{ACAD_REACTORS
330
54
102
}
330
54
100
AcDbScale
 70
     0
300
1" = 1'-0"
140
1.0
141
12.0
290
     0
  0
SCALE
  5
168F
102
{ACAD_REACTORS
330
54
102
}
330
54
100
AcDbScale
 70
     0
300
1:1_3_1
140
1.0
141
1.0
290
     0
  0
SCALE
  5
1690
102
{ACAD_REACTORS
330
54
102
}
330
54
100
AcDbScale
 70
     0
300
1:2_3_1
140
1.0
141
2.0
290
     0
  0
SCALE
  5
1691
102
{ACAD_REACTORS
330
54
102
}
330
54
100
AcDbScale
 70
     0
300
1:5_3_1
140
1.0
141
5.0
290
     0
  0
SCALE
  5
868
102
{ACAD_REACTORS
330
54
102
}
330
54
100
AcDbScale
 70
     0
300
1:16
140
1.0
141
16.0
290
     0
  0
SCALE
  5
86A
102
{ACAD_REACTORS
330
54
102
}
330
54
100
AcDbScale
 70
     0
300
1:30
140
1.0
141
30.0
290
     0
  0
SCALE
  5
1692
102
{ACAD_REACTORS
330
54
102
}
330
54
100
AcDbScale
 70
     0
300
1:10_3_1
140
1.0
141
10.0
290
     0
  0
SCALE
  5
1693
102
{ACAD_REACTORS
330
54
102
}
330
54
100
AcDbScale
 70
     0
300
1:20_3_1
140
1.0
141
20.0
290
     0
  0
SCALE
  5
85E
102
{ACAD_REACTORS
330
54
102
}
330
54
100
AcDbScale
 70
     0
300
1:10_2
140
1.0
141
10.0
290
     0
  0
SCALE
  5
1694
102
{ACAD_REACTORS
330
54
102
}
330
54
100
AcDbScale
 70
     0
300
1:50_3_1
140
1.0
141
50.0
290
     0
  0
SCALE
  5
871
102
{ACAD_REACTORS
330
54
102
}
330
54
100
AcDbScale
 70
     0
300
10:1
140
10.0
141
1.0
290
     0
  0
SCALE
  5
1695
102
{ACAD_REACTORS
330
54
102
}
330
54
100
AcDbScale
 70
     0
300
1:100_3_1
140
1.0
141
100.0
290
     0
  0
SCALE
  5
882
102
{ACAD_REACTORS
330
54
102
}
330
54
100
AcDbScale
 70
     0
300
1'-0" = 1'-0"
140
12.0
141
12.0
290
     0
  0
SCALE
  5
866
102
{ACAD_REACTORS
330
54
102
}
330
54
100
AcDbScale
 70
     0
300
1:8
140
1.0
141
8.0
290
     0
  0
SCALE
  5
86D
102
{ACAD_REACTORS
330
54
102
}
330
54
100
AcDbScale
 70
     0
300
1:100_1
140
1.0
141
100.0
290
     0
  0
SCALE
  5
85D
102
{ACAD_REACTORS
330
54
102
}
330
54
100
AcDbScale
 70
     0
300
1:5_2
140
1.0
141
5.0
290
     0
  0
SCALE
  5
85F
102
{ACAD_REACTORS
330
54
102
}
330
54
100
AcDbScale
 70
     0
300
1:20_2
140
1.0
141
20.0
290
     0
  0
SCALE
  5
863
102
{ACAD_REACTORS
330
54
102
}
330
54
100
AcDbScale
 70
     0
300
1:2_1
140
1.0
141
2.0
290
     0
  0
SCALE
  5
85C
102
{ACAD_REACTORS
330
54
102
}
330
54
100
AcDbScale
 70
     0
300
1:2_2
140
1.0
141
2.0
290
     0
  0
SCALE
  5
874
102
{ACAD_REACTORS
330
54
102
}
330
54
100
AcDbScale
 70
     0
300
1/64" = 1'-0"
140
0.015625
141
12.0
290
     0
  0
SCALE
  5
867
102
{ACAD_REACTORS
330
54
102
}
330
54
100
AcDbScale
 70
     0
300
1:10_1
140
1.0
141
10.0
290
     0
  0
SCALE
  5
1A1C
102
{ACAD_REACTORS
330
54
102
}
330
54
100
AcDbScale
 70
     0
300
1:1_5
140
1.0
141
1.0
290
     0
  0
SCALE
  5
864
102
{ACAD_REACTORS
330
54
102
}
330
54
100
AcDbScale
 70
     0
300
1:4
140
1.0
141
4.0
290
     0
  0
SCALE
  5
1A1D
102
{ACAD_REACTORS
330
54
102
}
330
54
100
AcDbScale
 70
     0
300
1:2_5
140
1.0
141
2.0
290
     0
  0
SCALE
  5
1A1E
102
{ACAD_REACTORS
330
54
102
}
330
54
100
AcDbScale
 70
     0
300
1:5_5
140
1.0
141
5.0
290
     0
  0
SCALE
  5
1A1F
102
{ACAD_REACTORS
330
54
102
}
330
54
100
AcDbScale
 70
     0
300
1:10_5
140
1.0
141
10.0
290
     0
  0
SCALE
  5
86C
102
{ACAD_REACTORS
330
54
102
}
330
54
100
AcDbScale
 70
     0
300
1:50_1
140
1.0
141
50.0
290
     0
  0
SCALE
  5
1A20
102
{ACAD_REACTORS
330
54
102
}
330
54
100
AcDbScale
 70
     0
300
1:20_5
140
1.0
141
20.0
290
     0
  0
SCALE
  5
1A21
102
{ACAD_REACTORS
330
54
102
}
330
54
100
AcDbScale
 70
     0
300
1:50_5
140
1.0
141
50.0
290
     0
  0
SCALE
  5
1A22
102
{ACAD_REACTORS
330
54
102
}
330
54
100
AcDbScale
 70
     0
300
1:100_5
140
1.0
141
100.0
290
     0
  0
SCALE
  5
86B
102
{ACAD_REACTORS
330
54
102
}
330
54
100
AcDbScale
 70
     0
300
1:40
140
1.0
141
40.0
290
     0
  0
SCALE
  5
87A
102
{ACAD_REACTORS
330
54
102
}
330
54
100
AcDbScale
 70
     0
300
1/4" = 1'-0"
140
0.25
141
12.0
290
     0
  0
SCALE
  5
86E
102
{ACAD_REACTORS
330
54
102
}
330
54
100
AcDbScale
 70
     0
300
2:1
140
2.0
141
1.0
290
     0
  0
SCALE
  5
872
102
{ACAD_REACTORS
330
54
102
}
330
54
100
AcDbScale
 70
     0
300
100:1
140
100.0
141
1.0
290
     0
  0
SCALE
  5
880
102
{ACAD_REACTORS
330
54
102
}
330
54
100
AcDbScale
 70
     0
300
3" = 1'-0"
140
3.0
141
12.0
290
     0
  0
SCALE
  5
875
102
{ACAD_REACTORS
330
54
102
}
330
54
100
AcDbScale
 70
     0
300
1/32" = 1'-0"
140
0.03125
141
12.0
290
     0
  0
SCALE
  5
1CC4
102
{ACAD_REACTORS
330
54
102
}
330
54
100
AcDbScale
 70
     0
300
1:1_6
140
1.0
141
1.0
290
     0
  0
SCALE
  5
878
102
{ACAD_REACTORS
330
54
102
}
330
54
100
AcDbScale
 70
     0
300
1/8" = 1'-0"
140
0.125
141
12.0
290
     0
  0
SCALE
  5
1CC5
102
{ACAD_REACTORS
330
54
102
}
330
54
100
AcDbScale
 70
     0
300
1:2_6
140
1.0
141
2.0
290
     0
  0
SCALE
  5
1CC6
102
{ACAD_REACTORS
330
54
102
}
330
54
100
AcDbScale
 70
     0
300
1:5_6
140
1.0
141
5.0
290
     0
  0
SCALE
  5
1CC7
102
{ACAD_REACTORS
330
54
102
}
330
54
100
AcDbScale
 70
     0
300
1:10_6
140
1.0
141
10.0
290
     0
  0
SCALE
  5
1CC8
102
{ACAD_REACTORS
330
54
102
}
330
54
100
AcDbScale
 70
     0
300
1:20_6
140
1.0
141
20.0
290
     0
  0
SCALE
  5
1CC9
102
{ACAD_REACTORS
330
54
102
}
330
54
100
AcDbScale
 70
     0
300
1:50_6
140
1.0
141
50.0
290
     0
  0
SCALE
  5
1CCA
102
{ACAD_REACTORS
330
54
102
}
330
54
100
AcDbScale
 70
     0
300
1:100_6
140
1.0
141
100.0
290
     0
  0
SCALE
  5
861
102
{ACAD_REACTORS
330
54
102
}
330
54
100
AcDbScale
 70
     0
300
1:100_2
140
1.0
141
100.0
290
     0
  0
SCALE
  5
132B
102
{ACAD_REACTORS
330
54
102
}
330
54
100
AcDbScale
 70
     0
300
1:5_3
140
1.0
141
0.5
290
     0
  0
SCALE
  5
5E
102
{ACAD_REACTORS
330
54
102
}
330
54
100
AcDbScale
 70
     0
300
1:1
140
1.0
141
0.1
290
     0
  0
SCALE
  5
5F
102
{ACAD_REACTORS
330
54
102
}
330
54
100
AcDbScale
 70
     0
300
1:2
140
1.0
141
0.2
290
     0
  0
SCALE
  5
60
102
{ACAD_REACTORS
330
54
102
}
330
54
100
AcDbScale
 70
     0
300
1:2.5
140
1.0
141
0.25
290
     0
  0
SCALE
  5
61
102
{ACAD_REACTORS
330
54
102
}
330
54
100
AcDbScale
 70
     0
300
1:5
140
1.0
141
0.5
290
     0
  0
SCALE
  5
62
102
{ACAD_REACTORS
330
54
102
}
330
54
100
AcDbScale
 70
     0
300
1:7.5
140
1.0
141
0.75
290
     0
  0
SCALE
  5
63
102
{ACAD_REACTORS
330
54
102
}
330
54
100
AcDbScale
 70
     0
300
1:10
140
1.0
141
1.0
290
     1
  0
SCALE
  5
64
102
{ACAD_REACTORS
330
54
102
}
330
54
100
AcDbScale
 70
     0
300
1:20
140
1.0
141
2.0
290
     0
  0
SCALE
  5
65
102
{ACAD_REACTORS
330
54
102
}
330
54
100
AcDbScale
 70
     0
300
1:25
140
1.0
141
2.5
290
     0
  0
SCALE
  5
66
102
{ACAD_REACTORS
330
54
102
}
330
54
100
AcDbScale
 70
     0
300
1:50
140
1.0
141
5.0
290
     0
  0
SCALE
  5
67
102
{ACAD_REACTORS
330
54
102
}
330
54
100
AcDbScale
 70
     0
300
1:75
140
1.0
141
7.5
290
     0
  0
SCALE
  5
68
102
{ACAD_REACTORS
330
54
102
}
330
54
100
AcDbScale
 70
     0
300
1:100
140
1.0
141
10.0
290
     0
  0
SCALE
  5
69
102
{ACAD_REACTORS
330
54
102
}
330
54
100
AcDbScale
 70
     0
300
1:150
140
1.0
141
15.0
290
     0
  0
SCALE
  5
6A
102
{ACAD_REACTORS
330
54
102
}
330
54
100
AcDbScale
 70
     0
300
1:200
140
1.0
141
20.0
290
     0
  0
SCALE
  5
6B
102
{ACAD_REACTORS
330
54
102
}
330
54
100
AcDbScale
 70
     0
300
1:250
140
1.0
141
25.0
290
     0
  0
SCALE
  5
6C
102
{ACAD_REACTORS
330
54
102
}
330
54
100
AcDbScale
 70
     0
300
1:500
140
1.0
141
50.0
290
     0
  0
SCALE
  5
6D
102
{ACAD_REACTORS
330
54
102
}
330
54
100
AcDbScale
 70
     0
300
1:750
140
1.0
141
75.0
290
     0
  0
SCALE
  5
6E
102
{ACAD_REACTORS
330
54
102
}
330
54
100
AcDbScale
 70
     0
300
1:1000
140
1.0
141
100.0
290
     0
  0
SCALE
  5
6F
102
{ACAD_REACTORS
330
54
102
}
330
54
100
AcDbScale
 70
     0
300
1:1250
140
1.0
141
125.0
290
     0
  0
SCALE
  5
70
102
{ACAD_REACTORS
330
54
102
}
330
54
100
AcDbScale
 70
     0
300
1:2000
140
1.0
141
200.0
290
     0
  0
SCALE
  5
71
102
{ACAD_REACTORS
330
54
102
}
330
54
100
AcDbScale
 70
     0
300
1:2500
140
1.0
141
250.0
290
     0
  0
SCALE
  5
72
102
{ACAD_REACTORS
330
54
102
}
330
54
100
AcDbScale
 70
     0
300
1:5000
140
1.0
141
500.0
290
     0
  0
TABLESTYLE
  5
5A
102
{ACAD_XDICTIONARY
360
5B
102
}
102
{ACAD_REACTORS
330
55
102
}
330
55
100
AcDbTableStyle
  3
Standard
 70
     0
 71
     0
 40
0.06
 41
0.06
280
     0
281
     0
  7
STANDARD
140
0.18
170
     2
 62
     0
 63
     7
283
     0
274
    -2
284
     1
 64
     0
275
    -2
285
     1
 65
     0
276
    -2
286
     1
 66
     0
277
    -2
287
     1
 67
     0
278
    -2
288
     1
 68
     0
279
    -2
289
     1
 69
     0
  7
STANDARD
140
0.25
170
     5
 62
     0
 63
     7
283
     0
274
    -2
284
     1
 64
     0
275
    -2
285
     1
 65
     0
276
    -2
286
     1
 66
     0
277
    -2
287
     1
 67
     0
278
    -2
288
     1
 68
     0
279
    -2
289
     1
 69
     0
  7
STANDARD
140
0.18
170
     5
 62
     0
 63
     7
283
     0
274
    -2
284
     1
 64
     0
275
    -2
285
     1
 65
     0
276
    -2
286
     1
 66
     0
277
    -2
287
     1
 67
     0
278
    -2
288
     1
 68
     0
279
    -2
289
     1
 69
     0
  0
VISUALSTYLE
  5
14
102
{ACAD_REACTORS
330
15
102
}
330
15
100
AcDbVisualStyle
  2
2dWireframe
 70
     4
 71
     0
 72
     2
 73
     0
 90
        0
 40
-0.6
 41
-30.0
 62
     5
 63
     7
 74
     1
 91
        4
 64
     7
 65
   257
 75
     1
175
     1
 42
1.0
 92
        0
 66
   257
 43
1.0
 76
     1
 77
     6
 78
     2
 67
     7
 79
     5
170
     0
171
     0
290
     0
174
     0
 93
        1
 44
0.0
173
     0
291
     0
 45
0.0
1001
ACAD
1000
AcDbSavedByObjectVersion
1070
     0
  0
VISUALSTYLE
  5
7A0
102
{ACAD_REACTORS
330
15
102
}
330
15
100
AcDbVisualStyle
  2
3D Hidden
 70
     6
 71
     1
 72
     2
 73
     2
 90
        0
 40
-0.6
 41
-30.0
 62
     5
 63
     7
 74
     2
 91
        2
 64
     7
 65
   257
 75
     2
175
     1
 42
40.0
 92
        0
 66
   257
 43
1.0
 76
     1
 77
     6
 78
     2
 67
     7
 79
     3
170
     0
171
     0
290
     0
174
     0
 93
        1
 44
0.0
173
     0
291
     0
 45
0.0
1001
ACAD
1000
AcDbSavedByObjectVersion
1070
     0
  0
VISUALSTYLE
  5
5D
102
{ACAD_REACTORS
330
15
102
}
330
15
100
AcDbVisualStyle
  2
3dWireframe
 70
     5
 71
     0
 72
     2
 73
     0
 90
        0
 40
-0.6
 41
-30.0
 62
     5
 63
     7
 74
     1
 91
        4
 64
     7
 65
   257
 75
     1
175
     1
 42
1.0
 92
        0
 66
   257
 43
1.0
 76
     1
 77
     6
 78
     2
 67
     7
 79
     5
170
     0
171
     0
290
     0
174
     0
 93
        1
 44
0.0
173
     0
291
     0
 45
0.0
1001
ACAD
1000
AcDbSavedByObjectVersion
1070
     0
  0
VISUALSTYLE
  5
79F
102
{ACAD_REACTORS
330
15
102
}
330
15
100
AcDbVisualStyle
  2
Basic
 70
     7
 71
     1
 72
     0
 73
     1
 90
        0
 40
-0.6
 41
-30.0
 62
     5
 63
     7
 74
     0
 91
        4
 64
     7
 65
   257
 75
     1
175
     1
 42
1.0
 92
        8
 66
     7
 43
1.0
 76
     1
 77
     6
 78
     2
 67
     7
 79
     5
170
     0
171
     0
290
     0
174
     0
 93
        1
 44
0.0
173
     0
291
     1
 45
0.0
1001
ACAD
1000
AcDbSavedByObjectVersion
1070
     0
  0
VISUALSTYLE
  5
7A3
102
{ACAD_REACTORS
330
15
102
}
330
15
100
AcDbVisualStyle
  2
Brighten
 70
    12
 71
     2
 72
     2
 73
     0
 90
        0
 40
-0.6
 41
-30.0
 62
     5
 63
     7
 74
     1
 91
        4
 64
     7
 65
   257
 75
     1
175
     1
 42
1.0
 92
        8
 66
     7
 43
1.0
 76
     1
 77
     6
 78
     2
 67
     7
 79
     5
170
     0
171
     0
290
     0
174
     0
 93
        1
 44
50.0
173
     0
291
     1
 45
0.0
1001
ACAD
1000
AcDbSavedByObjectVersion
1070
     0
  0
VISUALSTYLE
  5
7A7
102
{ACAD_REACTORS
330
15
102
}
330
15
100
AcDbVisualStyle
  2
ColorChange
 70
    16
 71
     2
 72
     2
 73
     3
 90
        0
 40
-0.6
 41
-30.0
 62
     5
 63
     8
 74
     1
 91
        4
 64
     7
 65
   257
 75
     1
175
     1
 42
1.0
 92
        8
 66
     8
 43
1.0
 76
     1
 77
     6
 78
     2
 67
     7
 79
     5
170
     0
171
     0
290
     0
174
     0
 93
        1
 44
0.0
173
     0
291
     1
 45
0.0
1001
ACAD
1000
AcDbSavedByObjectVersion
1070
     0
  0
VISUALSTYLE
  5
7A1
102
{ACAD_REACTORS
330
15
102
}
330
15
100
AcDbVisualStyle
  2
Conceptual
 70
     9
 71
     3
 72
     2
 73
     0
 90
        0
 40
-0.6
 41
-30.0
 62
     5
 63
     7
 74
     2
 91
        2
 64
     7
 65
   257
 75
     1
175
     1
 42
40.0
 92
        8
 66
     7
 43
1.0
 76
     1
 77
     6
 78
     2
 67
     7
 79
     3
170
     0
171
     0
290
     0
174
     0
 93
        1
 44
0.0
173
     0
291
     0
 45
0.0
1001
ACAD
1000
AcDbSavedByObjectVersion
1070
     0
  0
VISUALSTYLE
  5
7A2
102
{ACAD_REACTORS
330
15
102
}
330
15
100
AcDbVisualStyle
  2
Dim
 70
    11
 71
     2
 72
     2
 73
     0
 90
        0
 40
-0.6
 41
-30.0
 62
     5
 63
     7
 74
     1
 91
        4
 64
     7
 65
   257
 75
     1
175
     1
 42
1.0
 92
        8
 66
     7
 43
1.0
 76
     1
 77
     6
 78
     2
 67
     7
 79
     5
170
     0
171
     0
290
     0
174
     0
 93
        1
 44
-50.0
173
     0
291
     1
 45
0.0
1001
ACAD
1000
AcDbSavedByObjectVersion
1070
     0
  0
VISUALSTYLE
  5
7A6
102
{ACAD_REACTORS
330
15
102
}
330
15
100
AcDbVisualStyle
  2
Facepattern
 70
    15
 71
     2
 72
     2
 73
     0
 90
        0
 40
-0.6
 41
-30.0
 62
     5
 63
     7
 74
     1
 91
        4
 64
     7
 65
   257
 75
     1
175
     1
 42
1.0
 92
        8
 66
     7
 43
1.0
 76
     1
 77
     6
 78
     2
 67
     7
 79
     5
170
     0
171
     0
290
     0
174
     0
 93
        1
 44
0.0
173
     0
291
     1
 45
0.0
1001
ACAD
1000
AcDbSavedByObjectVersion
1070
     0
  0
VISUALSTYLE
  5
79B
102
{ACAD_REACTORS
330
15
102
}
330
15
100
AcDbVisualStyle
  2
Flat
 70
     0
 71
     2
 72
     1
 73
     1
 90
        2
 40
-0.6
 41
30.0
 62
     5
 63
     7
 74
     0
 91
        4
 64
     7
 65
   257
 75
     1
175
     1
 42
1.0
 92
        8
 66
     7
 43
1.0
 76
     1
 77
     6
 78
     2
 67
     7
 79
     5
170
     0
171
     0
290
     0
174
     0
 93
       13
 44
0.0
173
     0
291
     0
 45
0.0
1001
ACAD
1000
AcDbSavedByObjectVersion
1070
     0
  0
VISUALSTYLE
  5
79C
102
{ACAD_REACTORS
330
15
102
}
330
15
100
AcDbVisualStyle
  2
FlatWithEdges
 70
     1
 71
     2
 72
     1
 73
     1
 90
        2
 40
-0.6
 41
30.0
 62
     5
 63
     7
 74
     1
 91
        4
 64
     7
 65
   257
 75
     1
175
     1
 42
1.0
 92
        0
 66
   257
 43
1.0
 76
     1
 77
     6
 78
     2
 67
     7
 79
     5
170
     0
171
     0
290
     0
174
     0
 93
       13
 44
0.0
173
     0
291
     0
 45
0.0
1001
ACAD
1000
AcDbSavedByObjectVersion
1070
     0
  0
VISUALSTYLE
  5
79D
102
{ACAD_REACTORS
330
15
102
}
330
15
100
AcDbVisualStyle
  2
Gouraud
 70
     2
 71
     2
 72
     2
 73
     1
 90
        2
 40
-0.6
 41
30.0
 62
     5
 63
     7
 74
     0
 91
        4
 64
     7
 65
   257
 75
     1
175
     1
 42
1.0
 92
        0
 66
     7
 43
1.0
 76
     1
 77
     6
 78
     2
 67
     7
 79
     5
170
     0
171
     0
290
     0
174
     0
 93
       13
 44
0.0
173
     0
291
     0
 45
0.0
1001
ACAD
1000
AcDbSavedByObjectVersion
1070
     0
  0
VISUALSTYLE
  5
79E
102
{ACAD_REACTORS
330
15
102
}
330
15
100
AcDbVisualStyle
  2
GouraudWithEdges
 70
     3
 71
     2
 72
     2
 73
     1
 90
        2
 40
-0.6
 41
30.0
 62
     5
 63
     7
 74
     1
 91
        4
 64
     7
 65
   257
 75
     1
175
     1
 42
1.0
 92
        0
 66
   257
 43
1.0
 76
     1
 77
     6
 78
     2
 67
     7
 79
     5
170
     0
171
     0
290
     0
174
     0
 93
       13
 44
0.0
173
     0
291
     0
 45
0.0
1001
ACAD
1000
AcDbSavedByObjectVersion
1070
     0
  0
VISUALSTYLE
  5
7A5
102
{ACAD_REACTORS
330
15
102
}
330
15
100
AcDbVisualStyle
  2
Linepattern
 70
    14
 71
     2
 72
     2
 73
     0
 90
        0
 40
-0.6
 41
-30.0
 62
     5
 63
     7
 74
     1
 91
        4
 64
     7
 65
   257
 75
     7
175
     7
 42
1.0
 92
        8
 66
     7
 43
1.0
 76
     1
 77
     6
 78
     2
 67
     7
 79
     5
170
     0
171
     0
290
     0
174
     0
 93
        1
 44
0.0
173
     0
291
     1
 45
0.0
1001
ACAD
1000
AcDbSavedByObjectVersion
1070
     0
  0
VISUALSTYLE
  5
7B1
102
{ACAD_REACTORS
330
15
102
}
330
15
100
AcDbVisualStyle
  2

 70
     8
 71
     2
 72
     2
 73
     0
 90
        0
 40
-0.6
 41
-30.0
 62
     5
 63
     7
 74
     0
 91
        0
 64
     7
 65
   257
 75
     1
175
     1
 42
1.0
 92
        8
 66
     8
 43
1.0
 76
     1
 77
     6
 78
     2
 67
     7
 79
     5
170
     0
171
     0
290
     0
174
     0
 93
       13
 44
0.0
173
     0
291
     0
 45
0.0
1001
ACAD
1000
AcDbSavedByObjectVersion
1070
     0
  0
VISUALSTYLE
  5
7B2
102
{ACAD_REACTORS
330
15
102
}
330
15
100
AcDbVisualStyle
  2

 70
     8
 71
     2
 72
     2
 73
     0
 90
        0
 40
-0.6
 41
-30.0
 62
     5
 63
     7
 74
     1
 91
        0
 64
     7
 65
   257
 75
     1
175
     1
 42
1.0
 92
        8
 66
     8
 43
1.0
 76
     1
 77
     6
 78
     2
 67
     7
 79
     5
170
     0
171
     0
290
     0
174
     0
 93
       13
 44
0.0
173
     0
291
     0
 45
0.0
1001
ACAD
1000
AcDbSavedByObjectVersion
1070
     0
  0
VISUALSTYLE
  5
5C
102
{ACAD_REACTORS
330
15
102
}
330
15
100
AcDbVisualStyle
  2
Realistic
 70
     8
 71
     2
 72
     2
 73
     0
 90
        0
 40
-0.6
 41
-30.0
 62
     5
 63
     7
 74
     1
 91
        0
 64
     7
 65
   257
 75
     1
175
     1
 42
1.0
 92
        8
 66
     8
 43
1.0
 76
     1
 77
     6
 78
     2
 67
     7
 79
     5
170
     0
171
     0
290
     0
174
     0
 93
       13
 44
0.0
173
     0
291
     0
 45
0.0
1001
ACAD
1000
AcDbSavedByObjectVersion
1070
     0
  0
VISUALSTYLE
  5
7A4
102
{ACAD_REACTORS
330
15
102
}
330
15
100
AcDbVisualStyle
  2
Thicken
 70
    13
 71
     2
 72
     2
 73
     0
 90
        0
 40
-0.6
 41
-30.0
 62
     5
 63
     7
 74
     1
 91
        4
 64
     7
 65
   257
 75
     1
175
     1
 42
1.0
 92
       12
 66
     7
 43
1.0
 76
     1
 77
     6
 78
     2
 67
     7
 79
     5
170
     0
171
     0
290
     0
174
     0
 93
        1
 44
0.0
173
     0
291
     1
 45
0.0
1001
ACAD
1000
AcDbSavedByObjectVersion
1070
     0
  0
DICTIONARYVAR
  5
798
102
{ACAD_REACTORS
330
795
102
}
330
795
100
DictionaryVariables
280
     0
  1
1:1
  0
DICTIONARYVAR
  5
797
102
{ACAD_REACTORS
330
795
102
}
330
795
100
DictionaryVariables
280
     0
  1
STANDARD
  0
DICTIONARYVAR
  5
796
102
{ACAD_REACTORS
330
795
102
}
330
795
100
DictionaryVariables
280
     0
  1
STANDARD
  0
DICTIONARYVAR
  5
21E1
102
{ACAD_REACTORS
330
795
102
}
330
795
100
DictionaryVariables
280
     0
  1
1
  0
DICTIONARYVAR
  5
21E0
102
{ACAD_REACTORS
330
795
102
}
330
795
100
DictionaryVariables
280
     0
  1
1
  0
DICTIONARYVAR
  5
21DF
102
{ACAD_REACTORS
330
795
102
}
330
795
100
DictionaryVariables
280
     0
  1
0
  0
DICTIONARYVAR
  5
799
102
{ACAD_REACTORS
330
795
102
}
330
795
100
DictionaryVariables
280
     0
  1
0
  0
DICTIONARYVAR
  5
21DD
102
{ACAD_REACTORS
330
795
102
}
330
795
100
DictionaryVariables
280
     0
  1
1
  0
DICTIONARYVAR
  5
21DE
102
{ACAD_REACTORS
330
795
102
}
330
795
100
DictionaryVariables
280
     0
  1
127
  0
DICTIONARY
  5
21ED
330
1943
100
AcDbDictionary
280
     1
281
     1
  3
ACAD_XREC_ROUNDTRIP
360
21EE
  0
DICTIONARY
  5
21E6
330
11
100
AcDbDictionary
280
     1
281
     1
  3
ACAD_XREC_ROUNDTRIP
360
21E7
  0
DICTIONARY
  5
21EA
330
52
100
AcDbDictionary
280
     1
281
     1
  3
ACAD_XREC_ROUNDTRIP
360
21EB
  0
DICTIONARY
  5
21E8
330
51
100
AcDbDictionary
280
     1
281
     1
  3
ACAD_XREC_ROUNDTRIP
360
21E9
  0
DICTIONARY
  5
21E4
330
C
100
AcDbDictionary
280
     1
281
     1
  3
ACAD_XREC_ROUNDTRIP
360
21E5
  0
DICTIONARY
  5
5B
330
5A
100
AcDbDictionary
280
     1
281
     1
  3
ACAD_ROUNDTRIP_2008_TABLESTYLE_CELLSTYLEMAP
360
21E2
  3
ACAD_XREC_ROUNDTRIP
360
21EC
  0
XRECORD
  5
21EE
102
{ACAD_REACTORS
330
21ED
102
}
330
21ED
100
AcDbXrecord
280
     1
102
SHADEPLOT
 70
     0
102
SHADEPLOTRESLEVEL
 70
     2
102
SHADEPLOTCUSTOMDPI
 70
   300
  0
XRECORD
  5
21E7
102
{ACAD_REACTORS
330
21E6
102
}
330
21E6
100
AcDbXrecord
280
     1
102
SHADEPLOT
 70
     1
102
SHADEPLOTRESLEVEL
 70
     2
102
SHADEPLOTCUSTOMDPI
 70
   300
  0
XRECORD
  5
21EB
102
{ACAD_REACTORS
330
21EA
102
}
330
21EA
100
AcDbXrecord
280
     1
102
MATERIAL
148
0.0
149
0.0
149
0.0
 93
        0
 94
       63
282
     0
 72
     1
 77
     1
171
     1
175
     1
179
     1
273
     0
  0
XRECORD
  5
21E9
102
{ACAD_REACTORS
330
21E8
102
}
330
21E8
100
AcDbXrecord
280
     1
102
MATERIAL
148
0.0
149
0.0
149
0.0
 93
        0
 94
       63
282
     0
 72
     1
 77
     1
171
     1
175
     1
179
     1
273
     0
  0
XRECORD
  5
21E5
102
{ACAD_REACTORS
330
21E4
102
}
330
21E4
100
AcDbXrecord
280
     1
102
MATERIAL
148
0.0
149
0.0
149
0.0
 93
        0
 94
       63
282
     0
 72
     1
 77
     1
171
     1
175
     1
179
     1
273
     0
  0
CELLSTYLEMAP
  5
21E2
102
{ACAD_REACTORS
330
5B
102
}
330
5B
100
AcDbCellStyleMap
 90
        3
300
CELLSTYLE
  1
TABLEFORMAT_BEGIN
 90
        5
170
     1
 91
        0
 92
    32768
 62
   257
 93
        1
300
CONTENTFORMAT
  1
CONTENTFORMAT_BEGIN
 90
        0
 91
        0
 92
        4
 93
        0
300

 40
0.0
140
1.0
 94
        5
 62
     0
340
21
144
0.25
309
CONTENTFORMAT_END
171
     0
 94
        6
 95
        1
302
GRIDFORMAT
  1
GRIDFORMAT_BEGIN
 90
        0
 91
        1
 62
     0
 92
       -2
340
0
 93
        0
 40
0.045
309
GRIDFORMAT_END
 95
        2
302
GRIDFORMAT
  1
GRIDFORMAT_BEGIN
 90
        0
 91
        1
 62
     0
 92
       -2
340
0
 93
        0
 40
0.045
309
GRIDFORMAT_END
 95
        4
302
GRIDFORMAT
  1
GRIDFORMAT_BEGIN
 90
        0
 91
        1
 62
     0
 92
       -2
340
0
 93
        0
 40
0.045
309
GRIDFORMAT_END
 95
        8
302
GRIDFORMAT
  1
GRIDFORMAT_BEGIN
 90
        0
 91
        1
 62
     0
 92
       -2
340
0
 93
        0
 40
0.045
309
GRIDFORMAT_END
 95
       16
302
GRIDFORMAT
  1
GRIDFORMAT_BEGIN
 90
        0
 91
        1
 62
     0
 92
       -2
340
0
 93
        0
 40
0.045
309
GRIDFORMAT_END
 95
       32
302
GRIDFORMAT
  1
GRIDFORMAT_BEGIN
 90
        0
 91
        1
 62
     0
 92
       -2
340
0
 93
        0
 40
0.045
309
GRIDFORMAT_END
309
TABLEFORMAT_END
  1
CELLSTYLE_BEGIN
 90
        1
 91
        1
300
_TITLE
309
CELLSTYLE_END
300
CELLSTYLE
  1
TABLEFORMAT_BEGIN
 90
        5
170
     1
 91
        0
 92
        0
 62
   257
 93
        1
300
CONTENTFORMAT
  1
CONTENTFORMAT_BEGIN
 90
        0
 91
        0
 92
        4
 93
        0
300

 40
0.0
140
1.0
 94
        5
 62
     0
340
21
144
0.18
309
CONTENTFORMAT_END
171
     0
 94
        6
 95
        1
302
GRIDFORMAT
  1
GRIDFORMAT_BEGIN
 90
        0
 91
        1
 62
     0
 92
       -2
340
0
 93
        0
 40
0.045
309
GRIDFORMAT_END
 95
        2
302
GRIDFORMAT
  1
GRIDFORMAT_BEGIN
 90
        0
 91
        1
 62
     0
 92
       -2
340
0
 93
        0
 40
0.045
309
GRIDFORMAT_END
 95
        4
302
GRIDFORMAT
  1
GRIDFORMAT_BEGIN
 90
        0
 91
        1
 62
     0
 92
       -2
340
0
 93
        0
 40
0.045
309
GRIDFORMAT_END
 95
        8
302
GRIDFORMAT
  1
GRIDFORMAT_BEGIN
 90
        0
 91
        1
 62
     0
 92
       -2
340
0
 93
        0
 40
0.045
309
GRIDFORMAT_END
 95
       16
302
GRIDFORMAT
  1
GRIDFORMAT_BEGIN
 90
        0
 91
        1
 62
     0
 92
       -2
340
0
 93
        0
 40
0.045
309
GRIDFORMAT_END
 95
       32
302
GRIDFORMAT
  1
GRIDFORMAT_BEGIN
 90
        0
 91
        1
 62
     0
 92
       -2
340
0
 93
        0
 40
0.045
309
GRIDFORMAT_END
309
TABLEFORMAT_END
  1
CELLSTYLE_BEGIN
 90
        2
 91
        1
300
_HEADER
309
CELLSTYLE_END
300
CELLSTYLE
  1
TABLEFORMAT_BEGIN
 90
        5
170
     1
 91
        0
 92
        0
 62
   257
 93
        1
300
CONTENTFORMAT
  1
CONTENTFORMAT_BEGIN
 90
        0
 91
        0
 92
        4
 93
        0
300

 40
0.0
140
1.0
 94
        2
 62
     0
340
21
144
0.18
309
CONTENTFORMAT_END
171
     0
 94
        6
 95
        1
302
GRIDFORMAT
  1
GRIDFORMAT_BEGIN
 90
        0
 91
        1
 62
     0
 92
       -2
340
0
 93
        0
 40
0.045
309
GRIDFORMAT_END
 95
        2
302
GRIDFORMAT
  1
GRIDFORMAT_BEGIN
 90
        0
 91
        1
 62
     0
 92
       -2
340
0
 93
        0
 40
0.045
309
GRIDFORMAT_END
 95
        4
302
GRIDFORMAT
  1
GRIDFORMAT_BEGIN
 90
        0
 91
        1
 62
     0
 92
       -2
340
0
 93
        0
 40
0.045
309
GRIDFORMAT_END
 95
        8
302
GRIDFORMAT
  1
GRIDFORMAT_BEGIN
 90
        0
 91
        1
 62
     0
 92
       -2
340
0
 93
        0
 40
0.045
309
GRIDFORMAT_END
 95
       16
302
GRIDFORMAT
  1
GRIDFORMAT_BEGIN
 90
        0
 91
        1
 62
     0
 92
       -2
340
0
 93
        0
 40
0.045
309
GRIDFORMAT_END
 95
       32
302
GRIDFORMAT
  1
GRIDFORMAT_BEGIN
 90
        0
 91
        1
 62
     0
 92
       -2
340
0
 93
        0
 40
0.045
309
GRIDFORMAT_END
309
TABLEFORMAT_END
  1
CELLSTYLE_BEGIN
 90
        3
 91
        2
300
_DATA
309
CELLSTYLE_END
  0
XRECORD
  5
21EC
102
{ACAD_REACTORS
330
5B
102
}
330
5B
100
AcDbXrecord
280
     1
102
ACAD_ROUNDTRIP_PRE2007_TABLESTYLE
 90
        4
 91
        0
  1

 92
        4
 93
        0
  2

 94
        4
 95
        0
  3

  0
ENDSEC
  0
EOF
