  0
SECTION
  2
HEADER
  9
$ACADVER
  1
AC1015
  9
$ACADMAINTVER
 70
    20
  9
$DWGCODEPAGE
  3
ANSI_1250
  9
$INSBASE
 10
9677.351579171606
 20
1189.596440029025
 30
0.0000000000031697
  9
$EXTMIN
 10
55955.29776981013
 20
-12830.40384687605
 30
-0.0000000000005068
  9
$EXTMAX
 10
72720.8786855535
 20
1189.596153123944
 30
110.0
  9
$LIMMIN
 10
0.0
 20
0.0
  9
$LIMMAX
 10
12.0
 20
9.0
  9
$ORTHOMODE
 70
     1
  9
$REGENMODE
 70
     1
  9
$FILLMODE
 70
     1
  9
$QTEXTMODE
 70
     0
  9
$MIRRTEXT
 70
     0
  9
$LTSCALE
 40
75.0
  9
$ATTMODE
 70
     1
  9
$TEXTSIZE
 40
0.2
  9
$TRACEWID
 40
40.0
  9
$TEXTSTYLE
  7
STANDARD
  9
$CLAYER
  8
0Wymiary-PL
  9
$CELTYPE
  6
BYLAYER
  9
$CECOLOR
 62
   256
  9
$CELTSCALE
 40
4.0
  9
$DISPSILH
 70
     0
  9
$DIMSCALE
 40
1.0
  9
$DIMASZ
 40
30.0
  9
$DIMEXO
 40
43.0
  9
$DIMDLI
 40
0.0
  9
$DIMRND
 40
0.5
  9
$DIMDLE
 40
12.0
  9
$DIMEXE
 40
13.0
  9
$DIMTP
 40
0.0
  9
$DIMTM
 40
0.0
  9
$DIMTXT
 40
80.0
  9
$DIMCEN
 40
0.0
  9
$DIMTSZ
 40
0.0
  9
$DIMTOL
 70
     0
  9
$DIMLIM
 70
     0
  9
$DIMTIH
 70
     0
  9
$DIMTOH
 70
     0
  9
$DIMSE1
 70
     1
  9
$DIMSE2
 70
     1
  9
$DIMTAD
 70
     0
  9
$DIMZIN
 70
    12
  9
$DIMBLK
  1
B-DIM
  9
$DIMASO
 70
     1
  9
$DIMSHO
 70
     1
  9
$DIMPOST
  1

  9
$DIMAPOST
  1

  9
$DIMALT
 70
     0
  9
$DIMALTD
 70
     2
  9
$DIMALTF
 40
25.4
  9
$DIMLFAC
 40
1.0
  9
$DIMTOFL
 70
     1
  9
$DIMTVP
 40
1.0
  9
$DIMTIX
 70
     1
  9
$DIMSOXD
 70
     0
  9
$DIMSAH
 70
     0
  9
$DIMBLK1
  1

  9
$DIMBLK2
  1

  9
$DIMSTYLE
  2
500
  9
$DIMCLRD
 70
     1
  9
$DIMCLRE
 70
     1
  9
$DIMCLRT
 70
   140
  9
$DIMTFAC
 40
1.0
  9
$DIMGAP
 40
0.0
  9
$DIMJUST
 70
     0
  9
$DIMSD1
 70
     0
  9
$DIMSD2
 70
     0
  9
$DIMTOLJ
 70
     1
  9
$DIMTZIN
 70
     0
  9
$DIMALTZ
 70
     0
  9
$DIMALTTZ
 70
     0
  9
$DIMUPT
 70
     0
  9
$DIMDEC
 70
     1
  9
$DIMTDEC
 70
     1
  9
$DIMALTU
 70
     2
  9
$DIMALTTD
 70
     2
  9
$DIMTXSTY
  7
ROMANS
  9
$DIMAUNIT
 70
     0
  9
$DIMADEC
 70
     0
  9
$DIMALTRND
 40
0.0
  9
$DIMAZIN
 70
     0
  9
$DIMDSEP
 70
    46
  9
$DIMATFIT
 70
     3
  9
$DIMFRAC
 70
     0
  9
$DIMLDRBLK
  1
B-DIM
  9
$DIMLUNIT
 70
     2
  9
$DIMLWD
 70
    -2
  9
$DIMLWE
 70
    -2
  9
$DIMTMOVE
 70
     2
  9
$LUNITS
 70
     2
  9
$LUPREC
 70
     2
  9
$SKETCHINC
 40
0.1
  9
$FILLETRAD
 40
0.0
  9
$AUNITS
 70
     0
  9
$AUPREC
 70
     1
  9
$MENU
  1
acad
  9
$ELEVATION
 40
0.0
  9
$PELEVATION
 40
0.0
  9
$THICKNESS
 40
0.0
  9
$LIMCHECK
 70
     0
  9
$CHAMFERA
 40
30.0
  9
$CHAMFERB
 40
30.0
  9
$CHAMFERC
 40
0.0
  9
$CHAMFERD
 40
0.0
  9
$SKPOLY
 70
     0
  9
$TDCREATE
 40
2450817.525937848
  9
$TDUCREATE
 40
2450817.442604514
  9
$TDUPDATE
 40
2454965.630175776
  9
$TDUUPDATE
 40
2454965.546842442
  9
$TDINDWG
 40
21.7615394213
  9
$TDUSRTIMER
 40
21.7615394213
  9
$USRTIMER
 70
     1
  9
$ANGBASE
 50
0.0
  9
$ANGDIR
 70
     0
  9
$PDMODE
 70
     3
  9
$PDSIZE
 40
10.0
  9
$PLINEWID
 40
63.0
  9
$SPLFRAME
 70
     0
  9
$SPLINETYPE
 70
     6
  9
$SPLINESEGS
 70
     8
  9
$HANDSEED
  5
3BBA
  9
$SURFTAB1
 70
     6
  9
$SURFTAB2
 70
     6
  9
$SURFTYPE
 70
     6
  9
$SURFU
 70
     6
  9
$SURFV
 70
     6
  9
$UCSBASE
  2

  9
$UCSNAME
  2

  9
$UCSORG
 10
0.0
 20
0.0
 30
0.0
  9
$UCSXDIR
 10
1.0
 20
0.0
 30
0.0
  9
$UCSYDIR
 10
0.0
 20
1.0
 30
0.0
  9
$UCSORTHOREF
  2

  9
$UCSORTHOVIEW
 70
     0
  9
$UCSORGTOP
 10
0.0
 20
0.0
 30
0.0
  9
$UCSORGBOTTOM
 10
0.0
 20
0.0
 30
0.0
  9
$UCSORGLEFT
 10
0.0
 20
0.0
 30
0.0
  9
$UCSORGRIGHT
 10
0.0
 20
0.0
 30
0.0
  9
$UCSORGFRONT
 10
0.0
 20
0.0
 30
0.0
  9
$UCSORGBACK
 10
0.0
 20
0.0
 30
0.0
  9
$PUCSBASE
  2

  9
$PUCSNAME
  2

  9
$PUCSORG
 10
0.0
 20
0.0
 30
0.0
  9
$PUCSXDIR
 10
1.0
 20
0.0
 30
0.0
  9
$PUCSYDIR
 10
0.0
 20
1.0
 30
0.0
  9
$PUCSORTHOREF
  2

  9
$PUCSORTHOVIEW
 70
     0
  9
$PUCSORGTOP
 10
0.0
 20
0.0
 30
0.0
  9
$PUCSORGBOTTOM
 10
0.0
 20
0.0
 30
0.0
  9
$PUCSORGLEFT
 10
0.0
 20
0.0
 30
0.0
  9
$PUCSORGRIGHT
 10
0.0
 20
0.0
 30
0.0
  9
$PUCSORGFRONT
 10
0.0
 20
0.0
 30
0.0
  9
$PUCSORGBACK
 10
0.0
 20
0.0
 30
0.0
  9
$USERI1
 70
     0
  9
$USERI2
 70
     0
  9
$USERI3
 70
     0
  9
$USERI4
 70
     0
  9
$USERI5
 70
     0
  9
$USERR1
 40
0.0
  9
$USERR2
 40
0.0
  9
$USERR3
 40
0.0
  9
$USERR4
 40
0.0
  9
$USERR5
 40
0.0
  9
$WORLDVIEW
 70
     1
  9
$SHADEDGE
 70
     3
  9
$SHADEDIF
 70
    70
  9
$TILEMODE
 70
     1
  9
$MAXACTVP
 70
    16
  9
$PINSBASE
 10
0.0
 20
0.0
 30
0.0
  9
$PLIMCHECK
 70
     0
  9
$PEXTMIN
 10
0.0
 20
0.0
 30
0.0
  9
$PEXTMAX
 10
0.0
 20
0.0
 30
0.0
  9
$PLIMMIN
 10
0.0
 20
0.0
  9
$PLIMMAX
 10
12.0
 20
9.0
  9
$UNITMODE
 70
     0
  9
$VISRETAIN
 70
     0
  9
$PLINEGEN
 70
     0
  9
$PSLTSCALE
 70
     1
  9
$TREEDEPTH
 70
  3020
  9
$CMLSTYLE
  2
STANDARD
  9
$CMLJUST
 70
     0
  9
$CMLSCALE
 40
1.0
  9
$PROXYGRAPHICS
 70
     1
  9
$MEASUREMENT
 70
     0
  9
$CELWEIGHT
370
    -1
  9
$ENDCAPS
280
     0
  9
$JOINSTYLE
280
     0
  9
$LWDISPLAY
290
     0
  9
$INSUNITS
 70
     0
  9
$HYPERLINKBASE
  1

  9
$STYLESHEET
  1
monochrome_140.ctb
  9
$XEDIT
290
     1
  9
$CEPSNTYPE
380
     0
  9
$PSTYLEMODE
290
     1
  9
$FINGERPRINTGUID
  2
{2D5E65A9-1F91-4A53-BA94-481E1C74241D}
  9
$VERSIONGUID
  2
{6E364315-3EEA-4E7F-B92A-3925495CD03C}
  9
$EXTNAMES
290
     1
  9
$PSVPSCALE
 40
0.0
  9
$OLESTARTUP
290
     0
  0
ENDSEC
  0
SECTION
  2
CLASSES
  0
CLASS
  1
DICTIONARYVAR
  2
AcDbDictionaryVar
  3
ObjectDBX Classes
 90
        0
280
     0
281
     0
  0
CLASS
  1
ACDBDICTIONARYWDFLT
  2
AcDbDictionaryWithDefault
  3
ObjectDBX Classes
 90
        0
280
     0
281
     0
  0
CLASS
  1
ACDBPLACEHOLDER
  2
AcDbPlaceHolder
  3
ObjectDBX Classes
 90
        0
280
     0
281
     0
  0
CLASS
  1
LAYOUT
  2
AcDbLayout
  3
ObjectDBX Classes
 90
        0
280
     0
281
     0
  0
CLASS
  1
AEC_VARS_DWG_SETUP
  2
AecDbVarsDwgSetup
  3
AecBase50|Product Desc: Autodesk Architectural Desktop 2007 |Company: Autodesk,Inc. |WEB Address: www.autodesk.com
 90
      129
280
     0
281
     0
  0
CLASS
  1
AEC_DISP_REP_CONFIG
  2
AecDbDispRepConfig
  3
AecBase50|Product Desc: Autodesk Architectural Desktop 2007 |Company: Autodesk,Inc. |WEB Address: www.autodesk.com
 90
      129
280
     0
281
     0
  0
CLASS
  1
AEC_DISP_REP_SET
  2
AecDbDispRepSet
  3
AecBase50|Product Desc: Autodesk Architectural Desktop 2007 |Company: Autodesk,Inc. |WEB Address: www.autodesk.com
 90
      129
280
     0
281
     0
  0
CLASS
  1
AEC_DISP_REP_2D_SECTION
  2
AecDbDispRep2dSection
  3
AecBase50|Product Desc: Autodesk Architectural Desktop 2007 |Company: Autodesk,Inc. |WEB Address: www.autodesk.com
 90
      129
280
     0
281
     0
  0
CLASS
  1
AEC_DISP_REP_ANCHOR_BUB_TO_GRID
  2
AecDbDispRepAnchorBubToGrid
  3
AecStructureBase50|Product Desc: Autodesk Architectural Desktop 2007 |Company: Autodesk,Inc. |WEB Address: www.autodesk.com
 90
      129
280
     0
281
     0
  0
CLASS
  1
AEC_DISP_REP_ANCHOR_BUB_TO_GRID_MODEL
  2
AecDbDispRepAnchorBubToGridMdl
  3
AecStructureBase50|Product Desc: Autodesk Architectural Desktop 2007 |Company: Autodesk,Inc. |WEB Address: www.autodesk.com
 90
      129
280
     0
281
     0
  0
CLASS
  1
AEC_DISP_REP_ANCHOR_ENT_TO_NODE
  2
AecDbDispRepAnchorEntToNode
  3
AecBase50|Product Desc: Autodesk Architectural Desktop 2007 |Company: Autodesk,Inc. |WEB Address: www.autodesk.com
 90
      129
280
     0
281
     0
  0
CLASS
  1
AEC_DISP_REP_ANCHOR_TAG_TO_ENT
  2
AecDbDispRepAnchorTagToEnt
  3
AecScheduleData50|Product Desc: Autodesk Architectural Desktop 2007 |Company: Autodesk,Inc. |WEB Address: www.autodesk.com
 90
      129
280
     0
281
     0
  0
CLASS
  1
AEC_DISP_REP_AREA
  2
AecDbDispRepArea
  3
AecAreaCalculationBase50|Product Desc: Autodesk Architectural Desktop 2007 |Company: Autodesk,Inc. |WEB Address: www.autodesk.com
 90
    32897
280
     0
281
     0
  0
CLASS
  1
AEC_DISP_REP_AREA_DECOMPOSED
  2
AecDbDispRepAreaDecomposed
  3
AecAreaCalculationBase50|Product Desc: Autodesk Architectural Desktop 2007 |Company: Autodesk,Inc. |WEB Address: www.autodesk.com
 90
    32897
280
     0
281
     0
  0
CLASS
  1
AEC_DISP_REP_AREAGROUP
  2
AecDbDispRepAreaGroup
  3
AecAreaCalculationBase50|Product Desc: Autodesk Architectural Desktop 2007 |Company: Autodesk,Inc. |WEB Address: www.autodesk.com
 90
    32897
280
     0
281
     0
  0
CLASS
  1
AEC_DISP_REP_BDG_ELEVLINE_MODEL
  2
AecDbDispRepBdgElevLineModel
  3
AecArchBase50|Product Desc: Autodesk Architectural Desktop 2007 |Company: Autodesk,Inc. |WEB Address: www.autodesk.com
 90
      129
280
     0
281
     0
  0
CLASS
  1
AEC_DISP_REP_BDG_SECTIONLINE_PLAN
  2
AecDbDispRepBdgElevLinePlan
  3
AecArchBase50|Product Desc: Autodesk Architectural Desktop 2007 |Company: Autodesk,Inc. |WEB Address: www.autodesk.com
 90
      129
280
     0
281
     0
  0
CLASS
  1
AEC_DISP_REP_BDG_SECTIONLINE_MODEL
  2
AecDbDispRepBdgSectionLineModel
  3
AecArchBase50|Product Desc: Autodesk Architectural Desktop 2007 |Company: Autodesk,Inc. |WEB Address: www.autodesk.com
 90
      129
280
     0
281
     0
  0
CLASS
  1
AEC_DISP_REP_BDG_SECTIONLINE_PLAN
  2
AecDbDispRepBdgSectionLinePlan
  3
AecArchBase50|Product Desc: Autodesk Architectural Desktop 2007 |Company: Autodesk,Inc. |WEB Address: www.autodesk.com
 90
      129
280
     0
281
     0
  0
CLASS
  1
AEC_DISP_REP_BDG_SECTION_SUBDIV
  2
AecDbDispRepBdgSectionSubDiv
  3
AecArchBase50|Product Desc: Autodesk Architectural Desktop 2007 |Company: Autodesk,Inc. |WEB Address: www.autodesk.com
 90
      129
280
     0
281
     0
  0
CLASS
  1
AEC_DISP_REP_CAMERA
  2
AecDbDispRepCamera
  3
AecBase50|Product Desc: Autodesk Architectural Desktop 2007 |Company: Autodesk,Inc. |WEB Address: www.autodesk.com
 90
    32897
280
     0
281
     0
  0
CLASS
  1
AEC_DISP_REP_CEILING_GRID
  2
AecDbDispRepCeilingGrid
  3
AecArchBase50|Product Desc: Autodesk Architectural Desktop 2007 |Company: Autodesk,Inc. |WEB Address: www.autodesk.com
 90
      893
280
     0
281
     0
  0
CLASS
  1
AEC_DISP_REP_CEILING_GRID_MODEL
  2
AecDbDispRepCeilingGridModel
  3
AecArchBase50|Product Desc: Autodesk Architectural Desktop 2007 |Company: Autodesk,Inc. |WEB Address: www.autodesk.com
 90
      129
280
     0
281
     0
  0
CLASS
  1
AEC_DISP_REP_CEILING_GRID_RCP
  2
AecDbDispRepCeilingGridRcp
  3
AecArchBase50|Product Desc: Autodesk Architectural Desktop 2007 |Company: Autodesk,Inc. |WEB Address: www.autodesk.com
 90
      129
280
     0
281
     0
  0
CLASS
  1
AEC_DISP_REP_CLIP_VOLUME_MODEL
  2
AecDbDispRepClipVolModel
  3
AecBase50|Product Desc: Autodesk Architectural Desktop 2007 |Company: Autodesk,Inc. |WEB Address: www.autodesk.com
 90
      129
280
     0
281
     0
  0
CLASS
  1
AEC_DISP_REP_CLIP_VOLUME_PLAN
  2
AecDbDispRepClipVolPlan
  3
AecBase50|Product Desc: Autodesk Architectural Desktop 2007 |Company: Autodesk,Inc. |WEB Address: www.autodesk.com
 90
      129
280
     0
281
     0
  0
CLASS
  1
AEC_DISP_REP_CLIP_VOLUME_RESULT_SUBDIV
  2
AecDbDispRepClipVolResSubDiv
  3
AecBase50|Product Desc: Autodesk Architectural Desktop 2007 |Company: Autodesk,Inc. |WEB Address: www.autodesk.com
 90
      129
280
     0
281
     0
  0
CLASS
  1
AEC_DISP_REP_CLIP_VOLUME_RESULT
  2
AecDbDispRepClipVolResult
  3
AecBase50|Product Desc: Autodesk Architectural Desktop 2007 |Company: Autodesk,Inc. |WEB Address: www.autodesk.com
 90
      129
280
     0
281
     0
  0
CLASS
  1
AEC_DISP_REP_COLUMN_GRID
  2
AecDbDispRepColumnGrid
  3
AecStructureBase50|Product Desc: Autodesk Architectural Desktop 2007 |Company: Autodesk,Inc. |WEB Address: www.autodesk.com
 90
      129
280
     0
281
     0
  0
CLASS
  1
AEC_DISP_REP_COLUMN_GRID_MODEL
  2
AecDbDispRepColumnGridModel
  3
AecStructureBase50|Product Desc: Autodesk Architectural Desktop 2007 |Company: Autodesk,Inc. |WEB Address: www.autodesk.com
 90
      129
280
     0
281
     0
  0
CLASS
  1
AEC_DISP_REP_CURTAIN_WALL_LAYOUT_MODEL
  2
AecDbDispRepCurtainWallLayoutModel
  3
AecArchBase50|Product Desc: Autodesk Architectural Desktop 2007 |Company: Autodesk,Inc. |WEB Address: www.autodesk.com
 90
      129
280
     0
281
     0
  0
CLASS
  1
AEC_DISP_REP_CURTAIN_WALL_LAYOUT_PLAN
  2
AecDbDispRepCurtainWallLayoutPlan
  3
AecArchBase50|Product Desc: Autodesk Architectural Desktop 2007 |Company: Autodesk,Inc. |WEB Address: www.autodesk.com
 90
      129
280
     0
281
     0
  0
CLASS
  1
AEC_DISP_REP_CURTAIN_WALL_UNIT_MODEL
  2
AecDbDispRepCurtainWallUnitModel
  3
AecArchBase50|Product Desc: Autodesk Architectural Desktop 2007 |Company: Autodesk,Inc. |WEB Address: www.autodesk.com
 90
      129
280
     0
281
     0
  0
CLASS
  1
AEC_DISP_REP_CURTAIN_WALL_UNIT_PLAN
  2
AecDbDispRepCurtainWallUnitPlan
  3
AecArchBase50|Product Desc: Autodesk Architectural Desktop 2007 |Company: Autodesk,Inc. |WEB Address: www.autodesk.com
 90
      129
280
     0
281
     0
  0
CLASS
  1
AEC_DB_DISP_REP_DIM_GROUP_PLAN
  2
AecDbDispRepDimGroupPlan
  3
AecArchDACHBase50|Product Desc: Autodesk Architectural Desktop 2007 |Company: Autodesk,Inc. |WEB Address: www.autodesk.com
 90
      129
280
     0
281
     0
  0
CLASS
  1
AEC_DISP_REP_DOOR_MODEL
  2
AecDbDispRepDoorModel
  3
AecArchBase50|Product Desc: Autodesk Architectural Desktop 2007 |Company: Autodesk,Inc. |WEB Address: www.autodesk.com
 90
      129
280
     0
281
     0
  0
CLASS
  1
AEC_DISP_REP_DOOR_NOMINAL
  2
AecDbDispRepDoorNominal
  3
AecArchBase50|Product Desc: Autodesk Architectural Desktop 2007 |Company: Autodesk,Inc. |WEB Address: www.autodesk.com
 90
      129
280
     0
281
     0
  0
CLASS
  1
AEC_DISP_REP_DOOR_PLAN
  2
AecDbDispRepDoorPlan
  3
AecArchBase50|Product Desc: Autodesk Architectural Desktop 2007 |Company: Autodesk,Inc. |WEB Address: www.autodesk.com
 90
      129
280
     0
281
     0
  0
CLASS
  1
AEC_DISP_REP_EDITINPLACEPROFILE
  2
AecDbDispRepEditInPlaceProfile
  3
AecBase50|Product Desc: Autodesk Architectural Desktop 2007 |Company: Autodesk,Inc. |WEB Address: www.autodesk.com
 90
      129
280
     0
281
     0
  0
CLASS
  1
AEC_DISP_REP_ENT_REF
  2
AecDbDispRepEntRef
  3
AecBase50|Product Desc: Autodesk Architectural Desktop 2007 |Company: Autodesk,Inc. |WEB Address: www.autodesk.com
 90
      129
280
     0
281
     0
  0
CLASS
  1
AEC_DISP_REP_LAYOUT_CURVE
  2
AecDbDispRepLayoutCurve
  3
AecBase50|Product Desc: Autodesk Architectural Desktop 2007 |Company: Autodesk,Inc. |WEB Address: www.autodesk.com
 90
      129
280
     0
281
     0
  0
CLASS
  1
AEC_DISP_REP_LAYOUT_GRID2D
  2
AecDbDispRepLayoutGrid2d
  3
AecBase50|Product Desc: Autodesk Architectural Desktop 2007 |Company: Autodesk,Inc. |WEB Address: www.autodesk.com
 90
      129
280
     0
281
     0
  0
CLASS
  1
AEC_DISP_REP_LAYOUT_GRID3D
  2
AecDbDispRepLayoutGrid3d
  3
AecBase50|Product Desc: Autodesk Architectural Desktop 2007 |Company: Autodesk,Inc. |WEB Address: www.autodesk.com
 90
      129
280
     0
281
     0
  0
CLASS
  1
AEC_DISP_REP_MASKBLOCK_REF
  2
AecDbDispRepMaskBlockRef
  3
AecBase50|Product Desc: Autodesk Architectural Desktop 2007 |Company: Autodesk,Inc. |WEB Address: www.autodesk.com
 90
      129
280
     0
281
     0
  0
CLASS
  1
AEC_DISP_REP_MASKBLOCK_REF_RCP
  2
AecDbDispRepMaskBlockRefRcp
  3
AecArchBase50|Product Desc: Autodesk Architectural Desktop 2007 |Company: Autodesk,Inc. |WEB Address: www.autodesk.com
 90
      129
280
     0
281
     0
  0
CLASS
  1
AEC_DISP_REP_MASS_ELEM_MODEL
  2
AecDbDispRepMassElemModel
  3
AecBaseEx50|Product Desc: Autodesk Architectural Desktop 2007 |Company: Autodesk,Inc. |WEB Address: www.autodesk.com
 90
      129
280
     0
281
     0
  0
CLASS
  1
AEC_DISP_REP_MASS_ELEM_SCHEM
  2
AecDbDispRepMassElemSchem
  3
AecBaseEx50|Product Desc: Autodesk Architectural Desktop 2007 |Company: Autodesk,Inc. |WEB Address: www.autodesk.com
 90
      129
280
     0
281
     0
  0
CLASS
  1
AEC_DISP_REP_MASS_GROUP_MODEL
  2
AecDbDispRepMassGroupModel
  3
AecBaseEx50|Product Desc: Autodesk Architectural Desktop 2007 |Company: Autodesk,Inc. |WEB Address: www.autodesk.com
 90
      129
280
     0
281
     0
  0
CLASS
  1
AEC_DISP_REP_MASS_GROUP_PLAN
  2
AecDbDispRepMassGroupPlan
  3
AecBaseEx50|Product Desc: Autodesk Architectural Desktop 2007 |Company: Autodesk,Inc. |WEB Address: www.autodesk.com
 90
      129
280
     0
281
     0
  0
CLASS
  1
AEC_DISP_REP_MATERIAL
  2
AecDbDispRepMaterial
  3
AecBase50|Product Desc: Autodesk Architectural Desktop 2007 |Company: Autodesk,Inc. |WEB Address: www.autodesk.com
 90
      129
280
     0
281
     0
  0
CLASS
  1
AEC_DISP_REP_MVBLOCK_REF
  2
AecDbDispRepMvBlockRef
  3
AecBase50|Product Desc: Autodesk Architectural Desktop 2007 |Company: Autodesk,Inc. |WEB Address: www.autodesk.com
 90
      129
280
     0
281
     0
  0
CLASS
  1
AEC_DISP_REP_MVBLOCK_REF_MODEL
  2
AecDbDispRepMvBlockRefModel
  3
AecBase50|Product Desc: Autodesk Architectural Desktop 2007 |Company: Autodesk,Inc. |WEB Address: www.autodesk.com
 90
      129
280
     0
281
     0
  0
CLASS
  1
AEC_DISP_REP_OPENING
  2
AecDbDispRepOpening
  3
AecArchBase50|Product Desc: Autodesk Architectural Desktop 2007 |Company: Autodesk,Inc. |WEB Address: www.autodesk.com
 90
      129
280
     0
281
     0
  0
CLASS
  1
AEC_DISP_REP_OPENING_MODEL
  2
AecDbDispRepOpeningModel
  3
AecArchBase50|Product Desc: Autodesk Architectural Desktop 2007 |Company: Autodesk,Inc. |WEB Address: www.autodesk.com
 90
      129
280
     0
281
     0
  0
CLASS
  1
AEC_DISP_REP_POLYGON_MODEL
  2
AecDbDispRepPolygonModel
  3
AecBase50|Product Desc: Autodesk Architectural Desktop 2007 |Company: Autodesk,Inc. |WEB Address: www.autodesk.com
 90
      129
280
     0
281
     0
  0
CLASS
  1
AEC_DISP_REP_RAILING_MODEL
  2
AecDbDispRepRailingModel
  3
AecArchBase50|Product Desc: Autodesk Architectural Desktop 2007 |Company: Autodesk,Inc. |WEB Address: www.autodesk.com
 90
      129
280
     0
281
     0
  0
CLASS
  1
AEC_DISP_REP_RAILING_PLAN
  2
AecDbDispRepRailingPlan
  3
AecArchBase50|Product Desc: Autodesk Architectural Desktop 2007 |Company: Autodesk,Inc. |WEB Address: www.autodesk.com
 90
      129
280
     0
281
     0
  0
CLASS
  1
AEC_DISP_REP_ROOF_MODEL
  2
AecDbDispRepRoofModel
  3
AecArchBase50|Product Desc: Autodesk Architectural Desktop 2007 |Company: Autodesk,Inc. |WEB Address: www.autodesk.com
 90
      129
280
     0
281
     0
  0
CLASS
  1
AEC_DISP_REP_ROOF_PLAN
  2
AecDbDispRepRoofPlan
  3
AecArchBase50|Product Desc: Autodesk Architectural Desktop 2007 |Company: Autodesk,Inc. |WEB Address: www.autodesk.com
 90
      129
280
     0
281
     0
  0
CLASS
  1
AEC_DISP_REP_ROOFSLAB_MODEL
  2
AecDbDispRepRoofSlabModel
  3
AecArchBase50|Product Desc: Autodesk Architectural Desktop 2007 |Company: Autodesk,Inc. |WEB Address: www.autodesk.com
 90
      129
280
     0
281
     0
  0
CLASS
  1
AEC_DISP_REP_ROOFSLAB_PLAN
  2
AecDbDispRepRoofSlabPlan
  3
AecArchBase50|Product Desc: Autodesk Architectural Desktop 2007 |Company: Autodesk,Inc. |WEB Address: www.autodesk.com
 90
      129
280
     0
281
     0
  0
CLASS
  1
AEC_DISP_REP_SCHEDULE_TABLE
  2
AecDbDispRepScheduleTable
  3
AecSchedule50|Product Desc: Autodesk Architectural Desktop 2007 |Company: Autodesk,Inc. |WEB Address: www.autodesk.com
 90
      129
280
     0
281
     0
  0
CLASS
  1
AEC_DISP_REP_SLAB_MODEL
  2
AecDbDispRepSlabModel
  3
AecArchBase50|Product Desc: Autodesk Architectural Desktop 2007 |Company: Autodesk,Inc. |WEB Address: www.autodesk.com
 90
      129
280
     0
281
     0
  0
CLASS
  1
AEC_DISP_REP_SLAB_PLAN
  2
AecDbDispRepSlabPlan
  3
AecArchBase50|Product Desc: Autodesk Architectural Desktop 2007 |Company: Autodesk,Inc. |WEB Address: www.autodesk.com
 90
      129
280
     0
281
     0
  0
CLASS
  1
AEC_DISP_REP_SLICE
  2
AecDbDispRepSlice
  3
AecBase50|Product Desc: Autodesk Architectural Desktop 2007 |Company: Autodesk,Inc. |WEB Address: www.autodesk.com
 90
      129
280
     0
281
     0
  0
CLASS
  1
AEC_DISP_REP_SPACE_BOUNDARY_MODEL
  2
AecDbDispRepSpaceBoundaryModel
  3
AecArchBase50|Product Desc: Autodesk Architectural Desktop 2007 |Company: Autodesk,Inc. |WEB Address: www.autodesk.com
 90
    32897
280
     0
281
     0
  0
CLASS
  1
AEC_DISP_REP_SPACE_BOUNDARY_PLAN
  2
AecDbDispRepSpaceBoundaryPlan
  3
AecArchBase50|Product Desc: Autodesk Architectural Desktop 2007 |Company: Autodesk,Inc. |WEB Address: www.autodesk.com
 90
    32897
280
     0
281
     0
  0
CLASS
  1
AEC_DISP_REP_SPACE_BOUNDARY_SCHEM
  2
AecDbDispRepSpaceBoundarySketch
  3
AecArchBase50|Product Desc: Autodesk Architectural Desktop 2007 |Company: Autodesk,Inc. |WEB Address: www.autodesk.com
 90
    32897
280
     0
281
     0
  0
CLASS
  1
AEC_DISP_REP_SPACE_MODEL
  2
AecDbDispRepSpaceModel
  3
AecArchBase50|Product Desc: Autodesk Architectural Desktop 2007 |Company: Autodesk,Inc. |WEB Address: www.autodesk.com
 90
      129
280
     0
281
     0
  0
CLASS
  1
AEC_DISP_REP_SPACE_PLAN
  2
AecDbDispRepSpacePlan
  3
AecArchBase50|Product Desc: Autodesk Architectural Desktop 2007 |Company: Autodesk,Inc. |WEB Address: www.autodesk.com
 90
      129
280
     0
281
     0
  0
CLASS
  1
AEC_DISP_REP_STAIR_MODEL
  2
AecDbDispRepStairModel
  3
AecArchBase50|Product Desc: Autodesk Architectural Desktop 2007 |Company: Autodesk,Inc. |WEB Address: www.autodesk.com
 90
      129
280
     0
281
     0
  0
CLASS
  1
AEC_DISP_REP_STAIR_PLAN
  2
AecDbDispRepStairPlan
  3
AecArchBase50|Product Desc: Autodesk Architectural Desktop 2007 |Company: Autodesk,Inc. |WEB Address: www.autodesk.com
 90
      129
280
     0
281
     0
  0
CLASS
  1
AEC_DISP_REP_WALL_GRAPH
  2
AecDbDispRepWallGraph
  3
AecArchBase50|Product Desc: Autodesk Architectural Desktop 2007 |Company: Autodesk,Inc. |WEB Address: www.autodesk.com
 90
      129
280
     0
281
     0
  0
CLASS
  1
AEC_DISP_REP_WALL_MODEL
  2
AecDbDispRepWallModel
  3
AecArchBase50|Product Desc: Autodesk Architectural Desktop 2007 |Company: Autodesk,Inc. |WEB Address: www.autodesk.com
 90
      129
280
     0
281
     0
  0
CLASS
  1
AEC_DISP_REP_WALL_PLAN
  2
AecDbDispRepWallPlan
  3
AecArchBase50|Product Desc: Autodesk Architectural Desktop 2007 |Company: Autodesk,Inc. |WEB Address: www.autodesk.com
 90
      129
280
     0
281
     0
  0
CLASS
  1
AEC_DISP_REP_WALL_SCHEM
  2
AecDbDispRepWallSchem
  3
AecArchBase50|Product Desc: Autodesk Architectural Desktop 2007 |Company: Autodesk,Inc. |WEB Address: www.autodesk.com
 90
      129
280
     0
281
     0
  0
CLASS
  1
AEC_DISP_REP_WINDOW_ASSEMBLY_MODEL
  2
AecDbDispRepWindowAssemblyModel
  3
AecArchBase50|Product Desc: Autodesk Architectural Desktop 2007 |Company: Autodesk,Inc. |WEB Address: www.autodesk.com
 90
      129
280
     0
281
     0
  0
CLASS
  1
AEC_DISP_REP_WINDOW_ASSEMBLY_PLAN
  2
AecDbDispRepWindowAssemblyPlan
  3
AecArchBase50|Product Desc: Autodesk Architectural Desktop 2007 |Company: Autodesk,Inc. |WEB Address: www.autodesk.com
 90
      129
280
     0
281
     0
  0
CLASS
  1
AEC_AECDBDISPREPWINDOWASSEMBLYPLAN100
  2
AecDbDispRepWindowAssemblyPlan100
  3
AecArchDACHBase50|Product Desc: Autodesk Architectural Desktop 2007 |Company: Autodesk,Inc. |WEB Address: www.autodesk.com
 90
      129
280
     0
281
     0
  0
CLASS
  1
AEC_DISP_REP_WINDOW_MODEL
  2
AecDbDispRepWindowModel
  3
AecArchBase50|Product Desc: Autodesk Architectural Desktop 2007 |Company: Autodesk,Inc. |WEB Address: www.autodesk.com
 90
      129
280
     0
281
     0
  0
CLASS
  1
AEC_DISP_REP_WINDOW_NOMINAL
  2
AecDbDispRepWindowNominal
  3
AecArchBase50|Product Desc: Autodesk Architectural Desktop 2007 |Company: Autodesk,Inc. |WEB Address: www.autodesk.com
 90
      129
280
     0
281
     0
  0
CLASS
  1
AEC_DISP_REP_WINDOW_PLAN
  2
AecDbDispRepWindowPlan
  3
AecArchBase50|Product Desc: Autodesk Architectural Desktop 2007 |Company: Autodesk,Inc. |WEB Address: www.autodesk.com
 90
      129
280
     0
281
     0
  0
CLASS
  1
AECS_DISP_REP_MEMBER_LOGICAL
  2
AecsDbDispRepMemberLogical
  3
AecStructureBase50|Product Desc: Autodesk Architectural Desktop 2007 |Company: Autodesk,Inc. |WEB Address: www.autodesk.com
 90
      129
280
     0
281
     0
  0
CLASS
  1
AECS_DISP_REP_MEMBER_MODEL_DESIGN
  2
AecsDbDispRepMemberModelDesign
  3
AecStructureBase50|Product Desc: Autodesk Architectural Desktop 2007 |Company: Autodesk,Inc. |WEB Address: www.autodesk.com
 90
      129
280
     0
281
     0
  0
CLASS
  1
AECS_DISP_REP_MEMBER_PLAN_DESIGN
  2
AecsDbDispRepMemberPlanDesign
  3
AecStructureBase50|Product Desc: Autodesk Architectural Desktop 2007 |Company: Autodesk,Inc. |WEB Address: www.autodesk.com
 90
      129
280
     0
281
     0
  0
CLASS
  1
AEC_DISP_PROPS_ENT
  2
AecDbDispPropsEnt
  3
AecBase50|Product Desc: Autodesk Architectural Desktop 2007 |Company: Autodesk,Inc. |WEB Address: www.autodesk.com
 90
      129
280
     0
281
     0
  0
CLASS
  1
AEC_DISP_PROPS_CLIP_VOLUME
  2
AecDbDispPropsClipVol
  3
AecBase50|Product Desc: Autodesk Architectural Desktop 2007 |Company: Autodesk,Inc. |WEB Address: www.autodesk.com
 90
      129
280
     0
281
     0
  0
CLASS
  1
AEC_DISP_PROPS_SLICE
  2
AecDbDispPropsSlice
  3
AecBase50|Product Desc: Autodesk Architectural Desktop 2007 |Company: Autodesk,Inc. |WEB Address: www.autodesk.com
 90
      129
280
     0
281
     0
  0
CLASS
  1
AEC_DISP_PROPS_ROOFSLAB_PLAN
  2
AecDbDispPropsRoofSlabPlan
  3
AecArchBase50|Product Desc: Autodesk Architectural Desktop 2007 |Company: Autodesk,Inc. |WEB Address: www.autodesk.com
 90
      129
280
     0
281
     0
  0
CLASS
  1
AEC_DISP_PROPS_GRID_ASSEMBLY_MODEL
  2
AecDbDispPropsGridAssemblyModel
  3
AecArchBase50|Product Desc: Autodesk Architectural Desktop 2007 |Company: Autodesk,Inc. |WEB Address: www.autodesk.com
 90
      129
280
     0
281
     0
  0
CLASS
  1
AEC_DISP_PROPS_ROOF
  2
AecDbDispPropsRoof
  3
AecArchBase50|Product Desc: Autodesk Architectural Desktop 2007 |Company: Autodesk,Inc. |WEB Address: www.autodesk.com
 90
      129
280
     0
281
     0
  0
CLASS
  1
AEC_DISP_PROPS_SPACE_MODEL
  2
AecDbDispPropsSpaceModel
  3
AecArchBase50|Product Desc: Autodesk Architectural Desktop 2007 |Company: Autodesk,Inc. |WEB Address: www.autodesk.com
 90
      129
280
     0
281
     0
  0
CLASS
  1
AEC_DISP_PROPS_EDITINPLACEPROFILE_MODEL
  2
AecDbDispPropsEditInPlaceProfile
  3
AecBase50|Product Desc: Autodesk Architectural Desktop 2007 |Company: Autodesk,Inc. |WEB Address: www.autodesk.com
 90
      129
280
     0
281
     0
  0
CLASS
  1
AEC_DISP_PROPS_DOOR
  2
AecDbDispPropsDoor
  3
AecArchBase50|Product Desc: Autodesk Architectural Desktop 2007 |Company: Autodesk,Inc. |WEB Address: www.autodesk.com
 90
      129
280
     0
281
     0
  0
CLASS
  1
AEC_DISP_PROPS_MASKBLOCK
  2
AecDbDispPropsMaskBlock
  3
AecBase50|Product Desc: Autodesk Architectural Desktop 2007 |Company: Autodesk,Inc. |WEB Address: www.autodesk.com
 90
      129
280
     0
281
     0
  0
CLASS
  1
AEC_DISP_PROPS_SPACE_PLAN
  2
AecDbDispPropsSpacePlan
  3
AecArchBase50|Product Desc: Autodesk Architectural Desktop 2007 |Company: Autodesk,Inc. |WEB Address: www.autodesk.com
 90
      129
280
     0
281
     0
  0
CLASS
  1
AEC_DISP_PROPS_RAILING_PLAN
  2
AecDbDispPropsRailingPlan
  3
AecArchBase50|Product Desc: Autodesk Architectural Desktop 2007 |Company: Autodesk,Inc. |WEB Address: www.autodesk.com
 90
      129
280
     0
281
     0
  0
CLASS
  1
AEC_DISP_PROPS_LAYOUT_GRID2D
  2
AecDbDispPropsLayoutGrid2d
  3
AecBase50|Product Desc: Autodesk Architectural Desktop 2007 |Company: Autodesk,Inc. |WEB Address: www.autodesk.com
 90
      129
280
     0
281
     0
  0
CLASS
  1
AEC_DISP_PROPS_CLIP_VOLUME_RESULT
  2
AecDbDispPropsClipVolResSubDiv
  3
AecBase50|Product Desc: Autodesk Architectural Desktop 2007 |Company: Autodesk,Inc. |WEB Address: www.autodesk.com
 90
      129
280
     0
281
     0
  0
CLASS
  1
AEC_DISP_PROPS_STAIR_MODEL
  2
AecDbDispPropsStairModel
  3
AecArchBase50|Product Desc: Autodesk Architectural Desktop 2007 |Company: Autodesk,Inc. |WEB Address: www.autodesk.com
 90
      129
280
     0
281
     0
  0
CLASS
  1
AEC_DISP_PROPS_LAYOUT_CURVE
  2
AecDbDispPropsLayoutCurve
  3
AecBase50|Product Desc: Autodesk Architectural Desktop 2007 |Company: Autodesk,Inc. |WEB Address: www.autodesk.com
 90
      129
280
     0
281
     0
  0
CLASS
  1
AEC_DISP_PROPS_POLYGON_MODEL
  2
AecDbDispPropsPolygonModel
  3
AecBase50|Product Desc: Autodesk Architectural Desktop 2007 |Company: Autodesk,Inc. |WEB Address: www.autodesk.com
 90
      129
280
     0
281
     0
  0
CLASS
  1
AEC_DISP_PROPS_MASS_GROUP
  2
AecDbDispPropsMassGroup
  3
AecBaseEx50|Product Desc: Autodesk Architectural Desktop 2007 |Company: Autodesk,Inc. |WEB Address: www.autodesk.com
 90
      129
280
     0
281
     0
  0
CLASS
  1
AEC_DISP_PROPS_STAIR_PLAN
  2
AecDbDispPropsStairPlan
  3
AecArchBase50|Product Desc: Autodesk Architectural Desktop 2007 |Company: Autodesk,Inc. |WEB Address: www.autodesk.com
 90
      129
280
     0
281
     0
  0
CLASS
  1
AEC_DISP_PROPS_OPENING
  2
AecDbDispPropsOpening
  3
AecArchBase50|Product Desc: Autodesk Architectural Desktop 2007 |Company: Autodesk,Inc. |WEB Address: www.autodesk.com
 90
      129
280
     0
281
     0
  0
CLASS
  1
AEC_DISP_PROPS_WALL_GRAPH
  2
AecDbDispPropsWallGraph
  3
AecArchBase50|Product Desc: Autodesk Architectural Desktop 2007 |Company: Autodesk,Inc. |WEB Address: www.autodesk.com
 90
      129
280
     0
281
     0
  0
CLASS
  1
AEC_DISP_PROPS_DOOR_NOMINAL
  2
AecDbDispPropsDoorNominal
  3
AecArchBase50|Product Desc: Autodesk Architectural Desktop 2007 |Company: Autodesk,Inc. |WEB Address: www.autodesk.com
 90
      129
280
     0
281
     0
  0
CLASS
  1
AEC_DISP_PROPS_SLAB
  2
AecDbDispPropsSlab
  3
AecArchBase50|Product Desc: Autodesk Architectural Desktop 2007 |Company: Autodesk,Inc. |WEB Address: www.autodesk.com
 90
      129
280
     0
281
     0
  0
CLASS
  1
AEC_DISP_PROPS_WALL_MODEL
  2
AecDbDispPropsWallModel
  3
AecArchBase50|Product Desc: Autodesk Architectural Desktop 2007 |Company: Autodesk,Inc. |WEB Address: www.autodesk.com
 90
      129
280
     0
281
     0
  0
CLASS
  1
AEC_DISP_PROPS_MATERIAL
  2
AecDbDispPropsMaterial
  3
AecBase50|Product Desc: Autodesk Architectural Desktop 2007 |Company: Autodesk,Inc. |WEB Address: www.autodesk.com
 90
      129
280
     0
281
     0
  0
CLASS
  1
AEC_DISP_PROPS_WINDOW
  2
AecDbDispPropsWindow
  3
AecArchBase50|Product Desc: Autodesk Architectural Desktop 2007 |Company: Autodesk,Inc. |WEB Address: www.autodesk.com
 90
      129
280
     0
281
     0
  0
CLASS
  1
AEC_DISP_PROPS_LAYOUT_GRID3D
  2
AecDbDispPropsLayoutGrid3d
  3
AecBase50|Product Desc: Autodesk Architectural Desktop 2007 |Company: Autodesk,Inc. |WEB Address: www.autodesk.com
 90
      129
280
     0
281
     0
  0
CLASS
  1
AEC_DISP_PROPS_GRID_ASSEMBLY_PLAN
  2
AecDbDispPropsGridAssemblyPlan
  3
AecArchBase50|Product Desc: Autodesk Architectural Desktop 2007 |Company: Autodesk,Inc. |WEB Address: www.autodesk.com
 90
      129
280
     0
281
     0
  0
CLASS
  1
AEC_DISP_PROPS_WALL_SCHEM
  2
AecDbDispPropsWallSchem
  3
AecArchBase50|Product Desc: Autodesk Architectural Desktop 2007 |Company: Autodesk,Inc. |WEB Address: www.autodesk.com
 90
      129
280
     0
281
     0
  0
CLASS
  1
AEC_DISP_PROPS_WALL_PLAN
  2
AecDbDispPropsWallPlan
  3
AecArchBase50|Product Desc: Autodesk Architectural Desktop 2007 |Company: Autodesk,Inc. |WEB Address: www.autodesk.com
 90
      129
280
     0
281
     0
  0
CLASS
  1
AEC_DISP_PROPS_SPACE_BOUNDARY
  2
AecDbDispPropsSpaceBoundary
  3
AecArchBase50|Product Desc: Autodesk Architectural Desktop 2007 |Company: Autodesk,Inc. |WEB Address: www.autodesk.com
 90
    32897
280
     0
281
     0
  0
CLASS
  1
AEC_DISP_PROPS_SLAB_PLAN
  2
AecDbDispPropsSlabPlan
  3
AecArchBase50|Product Desc: Autodesk Architectural Desktop 2007 |Company: Autodesk,Inc. |WEB Address: www.autodesk.com
 90
      129
280
     0
281
     0
  0
CLASS
  1
AEC_DISP_PROPS_RAILING_MODEL
  2
AecDbDispPropsRailingModel
  3
AecArchBase50|Product Desc: Autodesk Architectural Desktop 2007 |Company: Autodesk,Inc. |WEB Address: www.autodesk.com
 90
      129
280
     0
281
     0
  0
CLASS
  1
AEC_DISP_PROPS_MASS_ELEM_MODEL
  2
AecDbDispPropsMassElem
  3
AecBaseEx50|Product Desc: Autodesk Architectural Desktop 2007 |Company: Autodesk,Inc. |WEB Address: www.autodesk.com
 90
      129
280
     0
281
     0
  0
CLASS
  1
AEC_DISP_PROPS_DIM
  2
AecDbDispPropsDimGroup
  3
AecArchDACHBase50|Product Desc: Autodesk Architectural Desktop 2007 |Company: Autodesk,Inc. |WEB Address: www.autodesk.com
 90
      129
280
     0
281
     0
  0
CLASS
  1
AEC_DISP_PROPS_ROOFSLAB
  2
AecDbDispPropsRoofSlab
  3
AecArchBase50|Product Desc: Autodesk Architectural Desktop 2007 |Company: Autodesk,Inc. |WEB Address: www.autodesk.com
 90
      129
280
     0
281
     0
  0
CLASS
  1
AEC_DISP_PROPS_ENT_REF
  2
AecDbDispPropsEntRef
  3
AecBase50|Product Desc: Autodesk Architectural Desktop 2007 |Company: Autodesk,Inc. |WEB Address: www.autodesk.com
 90
      129
280
     0
281
     0
  0
CLASS
  1
AEC_DISP_PROPS_2D_SECTION
  2
AecDbDispProps2dSection
  3
AecBase50|Product Desc: Autodesk Architectural Desktop 2007 |Company: Autodesk,Inc. |WEB Address: www.autodesk.com
 90
      129
280
     0
281
     0
  0
CLASS
  1
AECS_DISP_PROPS_MEMBER_LOGICAL
  2
AecsDbDispPropsMemberLogical
  3
AecStructureBase50|Product Desc: Autodesk Architectural Desktop 2007 |Company: Autodesk,Inc. |WEB Address: www.autodesk.com
 90
      129
280
     0
281
     0
  0
CLASS
  1
AEC_DISP_PROPS_AREA_DECOMPOSED
  2
AecDbDispPropsAreaDecomposed
  3
AecAreaCalculationBase50|Product Desc: Autodesk Architectural Desktop 2007 |Company: Autodesk,Inc. |WEB Address: www.autodesk.com
 90
    32897
280
     0
281
     0
  0
CLASS
  1
AEC_DISP_PROPS_CAMERA
  2
AecDbDispPropsCamera
  3
AecBase50|Product Desc: Autodesk Architectural Desktop 2007 |Company: Autodesk,Inc. |WEB Address: www.autodesk.com
 90
    32897
280
     0
281
     0
  0
CLASS
  1
AECS_DISP_PROPS_MEMBER
  2
AecsDbDispPropsMember
  3
AecStructureBase50|Product Desc: Autodesk Architectural Desktop 2007 |Company: Autodesk,Inc. |WEB Address: www.autodesk.com
 90
      129
280
     0
281
     0
  0
CLASS
  1
AECS_DISP_PROPS_MEMBER_PLAN
  2
AecsDbDispPropsMemberPlan
  3
AecStructureBase50|Product Desc: Autodesk Architectural Desktop 2007 |Company: Autodesk,Inc. |WEB Address: www.autodesk.com
 90
      129
280
     0
281
     0
  0
CLASS
  1
AEC_DISP_PROPS_AREAGROUP
  2
AecDbDispPropsAreaGroup
  3
AecAreaCalculationBase50|Product Desc: Autodesk Architectural Desktop 2007 |Company: Autodesk,Inc. |WEB Address: www.autodesk.com
 90
    32897
280
     0
281
     0
  0
CLASS
  1
AEC_DISP_PROPS_WINDOW_NOMINAL
  2
AecDbDispPropsWindowNominal
  3
AecArchBase50|Product Desc: Autodesk Architectural Desktop 2007 |Company: Autodesk,Inc. |WEB Address: www.autodesk.com
 90
      129
280
     0
281
     0
  0
CLASS
  1
AEC_DISP_PROPS_AREA
  2
AecDbDispPropsArea
  3
AecAreaCalculationBase50|Product Desc: Autodesk Architectural Desktop 2007 |Company: Autodesk,Inc. |WEB Address: www.autodesk.com
 90
    32897
280
     0
281
     0
  0
CLASS
  1
AEC_DISP_PROPS_SCHEDULE_TABLE
  2
AecDbDispPropsScheduleTable
  3
AecSchedule50|Product Desc: Autodesk Architectural Desktop 2007 |Company: Autodesk,Inc. |WEB Address: www.autodesk.com
 90
      129
280
     0
281
     0
  0
CLASS
  1
AEC_LAYERKEY_STYLE
  2
AecDbLayerKeyStyle
  3
AecBase50|Product Desc: Autodesk Architectural Desktop 2007 |Company: Autodesk,Inc. |WEB Address: www.autodesk.com
 90
    32897
280
     0
281
     0
  0
CLASS
  1
AEC_VARS_ARCHBASE
  2
AecDbVarsArchBase
  3
AecArchBase50|Product Desc: Autodesk Architectural Desktop 2007 |Company: Autodesk,Inc. |WEB Address: www.autodesk.com
 90
      129
280
     0
281
     0
  0
CLASS
  1
AEC_VARS_MUNICH
  2
AecDbVarsMunich
  3
AecArchDACHBase50|Product Desc: Autodesk Architectural Desktop 2007 |Company: Autodesk,Inc. |WEB Address: www.autodesk.com
 90
      129
280
     0
281
     0
  0
CLASS
  1
AEC_NOTIFICATION_TRACKER
  2
AecDbNotificationTracker
  3
AecBase50|Product Desc: Autodesk Architectural Desktop 2007 |Company: Autodesk,Inc. |WEB Address: www.autodesk.com
 90
      129
280
     0
281
     0
  0
CLASS
  1
AEC_DISP_REP_ANCHOR
  2
AecDbDispRepAnchor
  3
AecBase50|Product Desc: Autodesk Architectural Desktop 2007 |Company: Autodesk,Inc. |WEB Address: www.autodesk.com
 90
      129
280
     0
281
     0
  0
CLASS
  1
AEC_DISP_REP_POLYGON_TRUECOLOUR
  2
AecDbDispRepPolygonTrueColour
  3
AecBase50|Product Desc: Autodesk Architectural Desktop 2007 |Company: Autodesk,Inc. |WEB Address: www.autodesk.com
 90
      129
280
     0
281
     0
  0
CLASS
  1
AEC_DISP_PROPS_POLYGON_TRUECOLOUR
  2
AecDbDispPropsPolygonTrueColour
  3
AecBase50|Product Desc: Autodesk Architectural Desktop 2007 |Company: Autodesk,Inc. |WEB Address: www.autodesk.com
 90
      129
280
     0
281
     0
  0
CLASS
  1
AEC_DISP_REP_BDG_ELEVLINE_RCP
  2
AecDbDispRepBdgElevLineRcp
  3
AecArchBase50|Product Desc: Autodesk Architectural Desktop 2007 |Company: Autodesk,Inc. |WEB Address: www.autodesk.com
 90
      129
280
     0
281
     0
  0
CLASS
  1
AEC_DISP_REP_BDG_SECTIONLINE_RCP
  2
AecDbDispRepBdgSectionLineRcp
  3
AecArchBase50|Product Desc: Autodesk Architectural Desktop 2007 |Company: Autodesk,Inc. |WEB Address: www.autodesk.com
 90
      129
280
     0
281
     0
  0
CLASS
  1
AEC_DISP_REP_BDG_SECTION_MODEL
  2
AecDbDispRepBdgSectionModel
  3
AecArchBase50|Product Desc: Autodesk Architectural Desktop 2007 |Company: Autodesk,Inc. |WEB Address: www.autodesk.com
 90
      129
280
     0
281
     0
  0
CLASS
  1
AEC_DISP_REP_DOOR_ELEV
  2
AecDbDispRepDoorElev
  3
AecArchBase50|Product Desc: Autodesk Architectural Desktop 2007 |Company: Autodesk,Inc. |WEB Address: www.autodesk.com
 90
      129
280
     0
281
     0
  0
CLASS
  1
AEC_DISP_REP_DOOR_RCP
  2
AecDbDispRepDoorRcp
  3
AecArchBase50|Product Desc: Autodesk Architectural Desktop 2007 |Company: Autodesk,Inc. |WEB Address: www.autodesk.com
 90
      129
280
     0
281
     0
  0
CLASS
  1
AEC_DISP_REP_DOOR_THRESHOLD_PLAN
  2
AecDbDispRepDoorThresholdPlan
  3
AecArchBase50|Product Desc: Autodesk Architectural Desktop 2007 |Company: Autodesk,Inc. |WEB Address: www.autodesk.com
 90
      129
280
     0
281
     0
  0
CLASS
  1
AEC_DISP_PROPS_DOOR_THRESHOLD_PLAN
  2
AecDbDispPropsDoorThresholdPlan
  3
AecArchBase50|Product Desc: Autodesk Architectural Desktop 2007 |Company: Autodesk,Inc. |WEB Address: www.autodesk.com
 90
      129
280
     0
281
     0
  0
CLASS
  1
AEC_DISP_REP_MASS_ELEM_RCP
  2
AecDbDispRepMassElemRcp
  3
AecArchBase50|Product Desc: Autodesk Architectural Desktop 2007 |Company: Autodesk,Inc. |WEB Address: www.autodesk.com
 90
      129
280
     0
281
     0
  0
CLASS
  1
AEC_DISP_REP_MASS_GROUP_RCP
  2
AecDbDispRepMassGroupRcp
  3
AecArchBase50|Product Desc: Autodesk Architectural Desktop 2007 |Company: Autodesk,Inc. |WEB Address: www.autodesk.com
 90
      129
280
     0
281
     0
  0
CLASS
  1
AEC_DISP_REP_MVBLOCK_REF_RCP
  2
AecDbDispRepMvBlockRefRcp
  3
AecArchBase50|Product Desc: Autodesk Architectural Desktop 2007 |Company: Autodesk,Inc. |WEB Address: www.autodesk.com
 90
      129
280
     0
281
     0
  0
CLASS
  1
AEC_DISP_REP_ROOF_RCP
  2
AecDbDispRepRoofRcp
  3
AecArchBase50|Product Desc: Autodesk Architectural Desktop 2007 |Company: Autodesk,Inc. |WEB Address: www.autodesk.com
 90
      129
280
     0
281
     0
  0
CLASS
  1
AEC_DISP_REP_SPACE_BOUNDARY_DIAGRAM
  2
AecDbDispRepSpaceBoundaryDgrm
  3
AecArchBase50|Product Desc: Autodesk Architectural Desktop 2007 |Company: Autodesk,Inc. |WEB Address: www.autodesk.com
 90
    32897
280
     0
281
     0
  0
CLASS
  1
AEC_DISP_REP_SPACE_RCP
  2
AecDbDispRepSpaceRcp
  3
AecArchBase50|Product Desc: Autodesk Architectural Desktop 2007 |Company: Autodesk,Inc. |WEB Address: www.autodesk.com
 90
      129
280
     0
281
     0
  0
CLASS
  1
AEC_DISP_REP_SPACE_VOLUME
  2
AecDbDispRepSpaceVolume
  3
AecArchBase50|Product Desc: Autodesk Architectural Desktop 2007 |Company: Autodesk,Inc. |WEB Address: www.autodesk.com
 90
      129
280
     0
281
     0
  0
CLASS
  1
AEC_DISP_REP_STAIR_PLAN_OVERLAPPING
  2
AecDbDispRepStairPlanOverlapping
  3
AecArchBase50|Product Desc: Autodesk Architectural Desktop 2007 |Company: Autodesk,Inc. |WEB Address: www.autodesk.com
 90
      129
280
     0
281
     0
  0
CLASS
  1
AEC_DISP_PROPS_STAIR_PLAN_OVERLAPPING
  2
AecDbDispPropsStairPlanOverlapping
  3
AecArchBase50|Product Desc: Autodesk Architectural Desktop 2007 |Company: Autodesk,Inc. |WEB Address: www.autodesk.com
 90
      129
280
     0
281
     0
  0
CLASS
  1
AEC_DISP_REP_STAIR_RCP
  2
AecDbDispRepStairRcp
  3
AecArchBase50|Product Desc: Autodesk Architectural Desktop 2007 |Company: Autodesk,Inc. |WEB Address: www.autodesk.com
 90
      129
280
     0
281
     0
  0
CLASS
  1
AEC_DISP_REP_WALL_RCP
  2
AecDbDispRepWallRcp
  3
AecArchBase50|Product Desc: Autodesk Architectural Desktop 2007 |Company: Autodesk,Inc. |WEB Address: www.autodesk.com
 90
      129
280
     0
281
     0
  0
CLASS
  1
AEC_DISP_REP_WINDOWASSEMBLY_SILL_PLAN
  2
AecDbDispRepWindowAssemblySillPlan
  3
AecArchBase50|Product Desc: Autodesk Architectural Desktop 2007 |Company: Autodesk,Inc. |WEB Address: www.autodesk.com
 90
      129
280
     0
281
     0
  0
CLASS
  1
AEC_DISP_PROPS_WINDOW_ASSEMBLY_SILL_PLAN
  2
AecDbDispPropsWindowAssemblySillPlan
  3
AecArchBase50|Product Desc: Autodesk Architectural Desktop 2007 |Company: Autodesk,Inc. |WEB Address: www.autodesk.com
 90
      129
280
     0
281
     0
  0
CLASS
  1
AEC_DISP_REP_WINDOW_ELEV
  2
AecDbDispRepWindowElev
  3
AecArchBase50|Product Desc: Autodesk Architectural Desktop 2007 |Company: Autodesk,Inc. |WEB Address: www.autodesk.com
 90
      129
280
     0
281
     0
  0
CLASS
  1
AEC_DISP_REP_WINDOW_RCP
  2
AecDbDispRepWindowRcp
  3
AecArchBase50|Product Desc: Autodesk Architectural Desktop 2007 |Company: Autodesk,Inc. |WEB Address: www.autodesk.com
 90
      129
280
     0
281
     0
  0
CLASS
  1
AEC_DISP_REP_WINDOW_SILL_PLAN
  2
AecDbDispRepWindowSillPlan
  3
AecArchBase50|Product Desc: Autodesk Architectural Desktop 2007 |Company: Autodesk,Inc. |WEB Address: www.autodesk.com
 90
      129
280
     0
281
     0
  0
CLASS
  1
AEC_DISP_PROPS_WINDOW_SILL_PLAN
  2
AecDbDispPropsWindowSillPlan
  3
AecArchBase50|Product Desc: Autodesk Architectural Desktop 2007 |Company: Autodesk,Inc. |WEB Address: www.autodesk.com
 90
      129
280
     0
281
     0
  0
CLASS
  1
AEC_DISP_REP_ANCHOR_BUB_TO_GRID_RCP
  2
AecDbDispRepAnchorBubToGridRcp
  3
AecStructureBase50|Product Desc: Autodesk Architectural Desktop 2007 |Company: Autodesk,Inc. |WEB Address: www.autodesk.com
 90
      129
280
     0
281
     0
  0
CLASS
  1
AEC_DISP_REP_COLUMN_GRID_RCP
  2
AecDbDispRepColumnGridRcp
  3
AecStructureBase50|Product Desc: Autodesk Architectural Desktop 2007 |Company: Autodesk,Inc. |WEB Address: www.autodesk.com
 90
      129
280
     0
281
     0
  0
CLASS
  1
AECS_DISP_REP_MEMBER_ELEVATION_DESIGN
  2
AecsDbDispRepMemberElevationDesign
  3
AecStructureBase50|Product Desc: Autodesk Architectural Desktop 2007 |Company: Autodesk,Inc. |WEB Address: www.autodesk.com
 90
      129
280
     0
281
     0
  0
CLASS
  1
AECS_DISP_PROPS_MEMBER_PROJECTED
  2
AecsDbDispPropsMemberProjected
  3
AecStructureBase50|Product Desc: Autodesk Architectural Desktop 2007 |Company: Autodesk,Inc. |WEB Address: www.autodesk.com
 90
      129
280
     0
281
     0
  0
CLASS
  1
AECS_DISP_REP_MEMBER_ELEVATION_DETAIL
  2
AecsDbDispRepMemberElevationDetail
  3
AecStructureBase50|Product Desc: Autodesk Architectural Desktop 2007 |Company: Autodesk,Inc. |WEB Address: www.autodesk.com
 90
      129
280
     0
281
     0
  0
CLASS
  1
AECS_DISP_REP_MEMBER_MODEL_DETAIL
  2
AecsDbDispRepMemberModelDetail
  3
AecStructureBase50|Product Desc: Autodesk Architectural Desktop 2007 |Company: Autodesk,Inc. |WEB Address: www.autodesk.com
 90
      129
280
     0
281
     0
  0
CLASS
  1
AECS_DISP_REP_MEMBER_PLAN_DETAIL
  2
AecsDbDispRepMemberPlanDetail
  3
AecStructureBase50|Product Desc: Autodesk Architectural Desktop 2007 |Company: Autodesk,Inc. |WEB Address: www.autodesk.com
 90
      129
280
     0
281
     0
  0
CLASS
  1
AECS_DISP_REP_MEMBER_PLAN_SKETCH
  2
AecsDbDispRepMemberPlanSketch
  3
AecStructureBase50|Product Desc: Autodesk Architectural Desktop 2007 |Company: Autodesk,Inc. |WEB Address: www.autodesk.com
 90
      129
280
     0
281
     0
  0
CLASS
  1
AECS_DISP_PROPS_MEMBER_PLAN_SKETCH
  2
AecsDbDispPropsMemberPlanSketch
  3
AecStructureBase50|Product Desc: Autodesk Architectural Desktop 2007 |Company: Autodesk,Inc. |WEB Address: www.autodesk.com
 90
      129
280
     0
281
     0
  0
CLASS
  1
AEC_AECDBDISPREPAREA100
  2
AecDbDispRepArea100
  3
AecArchDACHBase50|Product Desc: Autodesk Architectural Desktop 2007 |Company: Autodesk,Inc. |WEB Address: www.autodesk.com
 90
    32897
280
     0
281
     0
  0
CLASS
  1
AEC_AECDBDISPREPAREAGROUP100
  2
AecDbDispRepAreaGroup100
  3
AecArchDACHBase50|Product Desc: Autodesk Architectural Desktop 2007 |Company: Autodesk,Inc. |WEB Address: www.autodesk.com
 90
    32897
280
     0
281
     0
  0
CLASS
  1
AEC_AECDBDISPREPBDGELEVLINEPLAN100
  2
AecDbDispRepBdgElevLinePlan100
  3
AecArchDACHBase50|Product Desc: Autodesk Architectural Desktop 2007 |Company: Autodesk,Inc. |WEB Address: www.autodesk.com
 90
      129
280
     0
281
     0
  0
CLASS
  1
AEC_AECDBDISPREPBDGSECTIONLINEPLAN100
  2
AecDbDispRepBdgSectionLinePlan100
  3
AecArchDACHBase50|Product Desc: Autodesk Architectural Desktop 2007 |Company: Autodesk,Inc. |WEB Address: www.autodesk.com
 90
      129
280
     0
281
     0
  0
CLASS
  1
AEC_AECDBDISPREPCEILINGGRIDPLAN100
  2
AecDbDispRepCeilingGridPlan100
  3
AecArchDACHBase50|Product Desc: Autodesk Architectural Desktop 2007 |Company: Autodesk,Inc. |WEB Address: www.autodesk.com
 90
      129
280
     0
281
     0
  0
CLASS
  1
AEC_AECDBDISPREPCOLUMNGRIDPLAN100
  2
AecDbDispRepColumnGridPlan100
  3
AecArchDACHBase50|Product Desc: Autodesk Architectural Desktop 2007 |Company: Autodesk,Inc. |WEB Address: www.autodesk.com
 90
      129
280
     0
281
     0
  0
CLASS
  1
AEC_AECDBDISPREPCURTAINWALLLAYOUTPLAN100
  2
AecDbDispRepCurtainWallLayoutPlan100
  3
AecArchDACHBase50|Product Desc: Autodesk Architectural Desktop 2007 |Company: Autodesk,Inc. |WEB Address: www.autodesk.com
 90
      129
280
     0
281
     0
  0
CLASS
  1
AEC_AECDBDISPREPCURTAINWALLUNITPLAN100
  2
AecDbDispRepCurtainWallUnitPlan100
  3
AecArchDACHBase50|Product Desc: Autodesk Architectural Desktop 2007 |Company: Autodesk,Inc. |WEB Address: www.autodesk.com
 90
      129
280
     0
281
     0
  0
CLASS
  1
AEC_AECDBDISPREPMVBLOCKREFPLAN100
  2
AecDbDispRepMvBlockRefPlan100
  3
AecArchDACHBase50|Product Desc: Autodesk Architectural Desktop 2007 |Company: Autodesk,Inc. |WEB Address: www.autodesk.com
 90
      129
280
     0
281
     0
  0
CLASS
  1
AEC_AECDBDISPREPROOFPLAN100
  2
AecDbDispRepRoofPlan100
  3
AecArchDACHBase50|Product Desc: Autodesk Architectural Desktop 2007 |Company: Autodesk,Inc. |WEB Address: www.autodesk.com
 90
      129
280
     0
281
     0
  0
CLASS
  1
AEC_AECDBDISPREPROOFSLABPLAN100
  2
AecDbDispRepRoofSlabPlan100
  3
AecArchDACHBase50|Product Desc: Autodesk Architectural Desktop 2007 |Company: Autodesk,Inc. |WEB Address: www.autodesk.com
 90
      129
280
     0
281
     0
  0
CLASS
  1
AEC_AECDBDISPREPSLABPLAN100
  2
AecDbDispRepSlabPlan100
  3
AecArchDACHBase50|Product Desc: Autodesk Architectural Desktop 2007 |Company: Autodesk,Inc. |WEB Address: www.autodesk.com
 90
      129
280
     0
281
     0
  0
CLASS
  1
AEC_AECDBDISPREPSPACEBOUNDARYPLAN100
  2
AecDbDispRepSpaceBoundaryPlan100
  3
AecArchDACHBase50|Product Desc: Autodesk Architectural Desktop 2007 |Company: Autodesk,Inc. |WEB Address: www.autodesk.com
 90
    32897
280
     0
281
     0
  0
CLASS
  1
AEC_AECDBDISPREPSPACEPLAN100
  2
AecDbDispRepSpacePlan100
  3
AecArchDACHBase50|Product Desc: Autodesk Architectural Desktop 2007 |Company: Autodesk,Inc. |WEB Address: www.autodesk.com
 90
      129
280
     0
281
     0
  0
CLASS
  1
AEC_AECDBDISPREPWALLPLAN100
  2
AecDbDispRepWallPlan100
  3
AecArchDACHBase50|Product Desc: Autodesk Architectural Desktop 2007 |Company: Autodesk,Inc. |WEB Address: www.autodesk.com
 90
      129
280
     0
281
     0
  0
CLASS
  1
AEC_AECDBDISPREPAREA50
  2
AecDbDispRepArea50
  3
AecArchDACHBase50|Product Desc: Autodesk Architectural Desktop 2007 |Company: Autodesk,Inc. |WEB Address: www.autodesk.com
 90
    32897
280
     0
281
     0
  0
CLASS
  1
AEC_AECDBDISPREPAREAGROUP50
  2
AecDbDispRepAreaGroup50
  3
AecArchDACHBase50|Product Desc: Autodesk Architectural Desktop 2007 |Company: Autodesk,Inc. |WEB Address: www.autodesk.com
 90
    32897
280
     0
281
     0
  0
CLASS
  1
AEC_AECDBDISPREPBDGELEVLINEPLAN50
  2
AecDbDispRepBdgElevLinePlan50
  3
AecArchDACHBase50|Product Desc: Autodesk Architectural Desktop 2007 |Company: Autodesk,Inc. |WEB Address: www.autodesk.com
 90
      129
280
     0
281
     0
  0
CLASS
  1
AEC_AECDBDISPREPBDGSECTIONLINEPLAN50
  2
AecDbDispRepBdgSectionLinePlan50
  3
AecArchDACHBase50|Product Desc: Autodesk Architectural Desktop 2007 |Company: Autodesk,Inc. |WEB Address: www.autodesk.com
 90
      129
280
     0
281
     0
  0
CLASS
  1
AEC_AECDBDISPREPCEILINGGRIDPLAN50
  2
AecDbDispRepCeilingGridPlan50
  3
AecArchDACHBase50|Product Desc: Autodesk Architectural Desktop 2007 |Company: Autodesk,Inc. |WEB Address: www.autodesk.com
 90
      129
280
     0
281
     0
  0
CLASS
  1
AEC_AECDBDISPREPCOLUMNGRIDPLAN50
  2
AecDbDispRepColumnGridPlan50
  3
AecArchDACHBase50|Product Desc: Autodesk Architectural Desktop 2007 |Company: Autodesk,Inc. |WEB Address: www.autodesk.com
 90
      129
280
     0
281
     0
  0
CLASS
  1
AEC_AECDBDISPREPCURTAINWALLLAYOUTPLAN50
  2
AecDbDispRepCurtainWallLayoutPlan50
  3
AecArchDACHBase50|Product Desc: Autodesk Architectural Desktop 2007 |Company: Autodesk,Inc. |WEB Address: www.autodesk.com
 90
      129
280
     0
281
     0
  0
CLASS
  1
AEC_AECDBDISPREPCURTAINWALLUNITPLAN50
  2
AecDbDispRepCurtainWallUnitPlan50
  3
AecArchDACHBase50|Product Desc: Autodesk Architectural Desktop 2007 |Company: Autodesk,Inc. |WEB Address: www.autodesk.com
 90
      129
280
     0
281
     0
  0
CLASS
  1
AEC_AECDBDISPREPMVBLOCKREFPLAN50
  2
AecDbDispRepMvBlockRefPlan50
  3
AecArchDACHBase50|Product Desc: Autodesk Architectural Desktop 2007 |Company: Autodesk,Inc. |WEB Address: www.autodesk.com
 90
      129
280
     0
281
     0
  0
CLASS
  1
AEC_AECDBDISPREPROOFPLAN50
  2
AecDbDispRepRoofPlan50
  3
AecArchDACHBase50|Product Desc: Autodesk Architectural Desktop 2007 |Company: Autodesk,Inc. |WEB Address: www.autodesk.com
 90
      129
280
     0
281
     0
  0
CLASS
  1
AEC_AECDBDISPREPROOFSLABPLAN50
  2
AecDbDispRepRoofSlabPlan50
  3
AecArchDACHBase50|Product Desc: Autodesk Architectural Desktop 2007 |Company: Autodesk,Inc. |WEB Address: www.autodesk.com
 90
      129
280
     0
281
     0
  0
CLASS
  1
AEC_AECDBDISPREPSLABPLAN50
  2
AecDbDispRepSlabPlan50
  3
AecArchDACHBase50|Product Desc: Autodesk Architectural Desktop 2007 |Company: Autodesk,Inc. |WEB Address: www.autodesk.com
 90
      129
280
     0
281
     0
  0
CLASS
  1
AEC_AECDBDISPREPSPACEBOUNDARYPLAN50
  2
AecDbDispRepSpaceBoundaryPlan50
  3
AecArchDACHBase50|Product Desc: Autodesk Architectural Desktop 2007 |Company: Autodesk,Inc. |WEB Address: www.autodesk.com
 90
    32897
280
     0
281
     0
  0
CLASS
  1
AEC_AECDBDISPREPSPACEPLAN50
  2
AecDbDispRepSpacePlan50
  3
AecArchDACHBase50|Product Desc: Autodesk Architectural Desktop 2007 |Company: Autodesk,Inc. |WEB Address: www.autodesk.com
 90
      129
280
     0
281
     0
  0
CLASS
  1
AEC_AECDBDISPREPWALLPLAN50
  2
AecDbDispRepWallPlan50
  3
AecArchDACHBase50|Product Desc: Autodesk Architectural Desktop 2007 |Company: Autodesk,Inc. |WEB Address: www.autodesk.com
 90
      129
280
     0
281
     0
  0
CLASS
  1
AEC_AECDBDISPREPWINDOWASSEMBLYPLAN50
  2
AecDbDispRepWindowAssemblyPlan50
  3
AecArchDACHBase50|Product Desc: Autodesk Architectural Desktop 2007 |Company: Autodesk,Inc. |WEB Address: www.autodesk.com
 90
      129
280
     0
281
     0
  0
CLASS
  1
AEC_DB_DISP_REP_DIM_GROUP_PLAN100
  2
AecDbDispRepDimGroupPlan100
  3
AecArchDACHBase50|Product Desc: Autodesk Architectural Desktop 2007 |Company: Autodesk,Inc. |WEB Address: www.autodesk.com
 90
      129
280
     0
281
     0
  0
CLASS
  1
AEC_DB_DISP_REP_DIM_GROUP_PLAN50
  2
AecDbDispRepDimGroupPlan50
  3
AecArchDACHBase50|Product Desc: Autodesk Architectural Desktop 2007 |Company: Autodesk,Inc. |WEB Address: www.autodesk.com
 90
      129
280
     0
281
     0
  0
CLASS
  1
AEC_DISP_REP_DOOR_PLAN_50
  2
AecDbDispRepDoorPlan50
  3
AecArchDACHBase50|Product Desc: Autodesk Architectural Desktop 2007 |Company: Autodesk,Inc. |WEB Address: www.autodesk.com
 90
      129
280
     0
281
     0
  0
CLASS
  1
AEC_DISP_PROPS_DOOR_PLAN_50
  2
AecDbDispPropsDoorPlan50
  3
AecArchDACHBase50|Product Desc: Autodesk Architectural Desktop 2007 |Company: Autodesk,Inc. |WEB Address: www.autodesk.com
 90
      129
280
     0
281
     0
  0
CLASS
  1
AEC_DISP_REP_DOOR_PLAN_HEKTO
  2
AecDbDispRepDoorPlanHekto
  3
AecArchDACHBase50|Product Desc: Autodesk Architectural Desktop 2007 |Company: Autodesk,Inc. |WEB Address: www.autodesk.com
 90
      129
280
     0
281
     0
  0
CLASS
  1
AEC_DISP_PROPS_DOOR_PLAN_100
  2
AecDbDispPropsDoorPlan100
  3
AecArchDACHBase50|Product Desc: Autodesk Architectural Desktop 2007 |Company: Autodesk,Inc. |WEB Address: www.autodesk.com
 90
      129
280
     0
281
     0
  0
CLASS
  1
AEC_DISP_REP_DOOR_THRESHOLD_SYMBOL_PLAN
  2
AecDbDispRepDoorThresholdSymbolPlan
  3
AecArchDACHBase50|Product Desc: Autodesk Architectural Desktop 2007 |Company: Autodesk,Inc. |WEB Address: www.autodesk.com
 90
      129
280
     0
281
     0
  0
CLASS
  1
AEC_DISP_PROPS_DOOR_THRESHOLD_SYMBOL_PLAN
  2
AecDbDispPropsDoorThresholdSymbolPlan
  3
AecArchDACHBase50|Product Desc: Autodesk Architectural Desktop 2007 |Company: Autodesk,Inc. |WEB Address: www.autodesk.com
 90
      129
280
     0
281
     0
  0
CLASS
  1
AEC_DISPREPAECDBDISPREPMASSELEMPLAN100
  2
AecDbDispRepMassElemPlan100
  3
AecArchDACHBase50|Product Desc: Autodesk Architectural Desktop 2007 |Company: Autodesk,Inc. |WEB Address: www.autodesk.com
 90
      129
280
     0
281
     0
  0
CLASS
  1
AEC_DISPROPSMASSELEMPLANCOMMON
  2
AecDbDispPropsMassElemPlanCommon
  3
AecArchDACHBase50|Product Desc: Autodesk Architectural Desktop 2007 |Company: Autodesk,Inc. |WEB Address: www.autodesk.com
 90
      129
280
     0
281
     0
  0
CLASS
  1
AEC_DISPREPAECDBDISPREPMASSELEMPLAN50
  2
AecDbDispRepMassElemPlan50
  3
AecArchDACHBase50|Product Desc: Autodesk Architectural Desktop 2007 |Company: Autodesk,Inc. |WEB Address: www.autodesk.com
 90
      129
280
     0
281
     0
  0
CLASS
  1
AEC_DISPREPAECDBDISPREPMASSGROUPPLAN100
  2
AecDbDispRepMassGroupPlan100
  3
AecArchDACHBase50|Product Desc: Autodesk Architectural Desktop 2007 |Company: Autodesk,Inc. |WEB Address: www.autodesk.com
 90
      129
280
     0
281
     0
  0
CLASS
  1
AEC_DISPROPSMASSGROUPPLANCOMMON
  2
AecDbDispPropsMassGroupPlanCommon
  3
AecArchDACHBase50|Product Desc: Autodesk Architectural Desktop 2007 |Company: Autodesk,Inc. |WEB Address: www.autodesk.com
 90
      129
280
     0
281
     0
  0
CLASS
  1
AEC_DISPREPAECDBDISPREPMASSGROUPPLAN50
  2
AecDbDispRepMassGroupPlan50
  3
AecArchDACHBase50|Product Desc: Autodesk Architectural Desktop 2007 |Company: Autodesk,Inc. |WEB Address: www.autodesk.com
 90
      129
280
     0
281
     0
  0
CLASS
  1
AEC_DISPREPAECDBDISPREPOPENINGPLAN100
  2
AecDbDispRepOpeningPlan100
  3
AecArchDACHBase50|Product Desc: Autodesk Architectural Desktop 2007 |Company: Autodesk,Inc. |WEB Address: www.autodesk.com
 90
      129
280
     0
281
     0
  0
CLASS
  1
AEC_DISPROPSOPENINGPLANCOMMONHATCHED
  2
AecDbDispPropsOpeningPlanCommonHatched
  3
AecArchDACHBase50|Product Desc: Autodesk Architectural Desktop 2007 |Company: Autodesk,Inc. |WEB Address: www.autodesk.com
 90
      129
280
     0
281
     0
  0
CLASS
  1
AEC_DISPREPAECDBDISPREPOPENINGPLAN50
  2
AecDbDispRepOpeningPlan50
  3
AecArchDACHBase50|Product Desc: Autodesk Architectural Desktop 2007 |Company: Autodesk,Inc. |WEB Address: www.autodesk.com
 90
      129
280
     0
281
     0
  0
CLASS
  1
AEC_DISPREPAECDBDISPREPOPENINGPLANREFLECTED
  2
AecDbDispRepOpeningPlanReflected
  3
AecArchDACHBase50|Product Desc: Autodesk Architectural Desktop 2007 |Company: Autodesk,Inc. |WEB Address: www.autodesk.com
 90
      129
280
     0
281
     0
  0
CLASS
  1
AEC_DISPROPSOPENINGPLANCOMMON
  2
AecDbDispPropsOpeningPlanCommon
  3
AecArchDACHBase50|Product Desc: Autodesk Architectural Desktop 2007 |Company: Autodesk,Inc. |WEB Address: www.autodesk.com
 90
      129
280
     0
281
     0
  0
CLASS
  1
AEC_DISPREPAECDBDISPREPOPENINGSILLPLAN
  2
AecDbDispRepOpeningSillPlan
  3
AecArchDACHBase50|Product Desc: Autodesk Architectural Desktop 2007 |Company: Autodesk,Inc. |WEB Address: www.autodesk.com
 90
      129
280
     0
281
     0
  0
CLASS
  1
AEC_DISPROPSOPENINGSILLPLAN
  2
AecDbDispPropsOpeningSillPlan
  3
AecArchDACHBase50|Product Desc: Autodesk Architectural Desktop 2007 |Company: Autodesk,Inc. |WEB Address: www.autodesk.com
 90
      129
280
     0
281
     0
  0
CLASS
  1
AEC_DISP_REP_RAILING_PLAN_100
  2
AecDbDispRepRailingPlan100
  3
AecArchDACHBase50|Product Desc: Autodesk Architectural Desktop 2007 |Company: Autodesk,Inc. |WEB Address: www.autodesk.com
 90
      129
280
     0
281
     0
  0
CLASS
  1
AEC_DISP_ROPS_RAILING_PLAN_100
  2
AecDbDispPropsRailingPlan100
  3
AecArchDACHBase50|Product Desc: Autodesk Architectural Desktop 2007 |Company: Autodesk,Inc. |WEB Address: www.autodesk.com
 90
      129
280
     0
281
     0
  0
CLASS
  1
AEC_DISP_REP_RAILING_PLAN_50
  2
AecDbDispRepRailingPlan50
  3
AecArchDACHBase50|Product Desc: Autodesk Architectural Desktop 2007 |Company: Autodesk,Inc. |WEB Address: www.autodesk.com
 90
      129
280
     0
281
     0
  0
CLASS
  1
AEC_DISP_ROPS_RAILING_PLAN_50
  2
AecDbDispPropsRailingPlan50
  3
AecArchDACHBase50|Product Desc: Autodesk Architectural Desktop 2007 |Company: Autodesk,Inc. |WEB Address: www.autodesk.com
 90
      129
280
     0
281
     0
  0
CLASS
  1
AEC_DISP_REP_STAIR_PLAN_100
  2
AecDbDispRepStairPlan100
  3
AecArchDACHBase50|Product Desc: Autodesk Architectural Desktop 2007 |Company: Autodesk,Inc. |WEB Address: www.autodesk.com
 90
      129
280
     0
281
     0
  0
CLASS
  1
AEC_DISP_ROPS_STAIR_PLAN_100
  2
AecDbDispPropsStairPlan100
  3
AecArchDACHBase50|Product Desc: Autodesk Architectural Desktop 2007 |Company: Autodesk,Inc. |WEB Address: www.autodesk.com
 90
      129
280
     0
281
     0
  0
CLASS
  1
AEC_DISP_REP_STAIR_PLAN_50
  2
AecDbDispRepStairPlan50
  3
AecArchDACHBase50|Product Desc: Autodesk Architectural Desktop 2007 |Company: Autodesk,Inc. |WEB Address: www.autodesk.com
 90
      129
280
     0
281
     0
  0
CLASS
  1
AEC_DISP_ROPS_STAIR_PLAN_50
  2
AecDbDispPropsStairPlan50
  3
AecArchDACHBase50|Product Desc: Autodesk Architectural Desktop 2007 |Company: Autodesk,Inc. |WEB Address: www.autodesk.com
 90
      129
280
     0
281
     0
  0
CLASS
  1
AEC_DISP_REP_WINDOW_PLAN_100
  2
AecDbDispRepWindowPlan100
  3
AecArchDACHBase50|Product Desc: Autodesk Architectural Desktop 2007 |Company: Autodesk,Inc. |WEB Address: www.autodesk.com
 90
      129
280
     0
281
     0
  0
CLASS
  1
AEC_DISP_PROPS_WINDOW_PLAN_100
  2
AecDbDispPropsWindowPlan100
  3
AecArchDACHBase50|Product Desc: Autodesk Architectural Desktop 2007 |Company: Autodesk,Inc. |WEB Address: www.autodesk.com
 90
      129
280
     0
281
     0
  0
CLASS
  1
AEC_DISP_REP_WINDOW_PLAN_50
  2
AecDbDispRepWindowPlan50
  3
AecArchDACHBase50|Product Desc: Autodesk Architectural Desktop 2007 |Company: Autodesk,Inc. |WEB Address: www.autodesk.com
 90
      129
280
     0
281
     0
  0
CLASS
  1
AEC_DISP_PROPS_WINDOW_PLAN_50
  2
AecDbDispPropsWindowPlan50
  3
AecArchDACHBase50|Product Desc: Autodesk Architectural Desktop 2007 |Company: Autodesk,Inc. |WEB Address: www.autodesk.com
 90
      129
280
     0
281
     0
  0
CLASS
  1
BINRECORD
  2
AcAecBinRecord
  3
AecBase50|Product Desc: Autodesk Architectural Desktop 2007 |Company: Autodesk,Inc. |WEB Address: www.autodesk.com
 90
    32897
280
     0
281
     0
  0
CLASS
  1
SORTENTSTABLE
  2
AcDbSortentsTable
  3
ObjectDBX Classes
 90
        0
280
     0
281
     0
  0
CLASS
  1
AEC_MASS_ELEM
  2
AecDbMassElem
  3
AecBaseEx50|Product Desc: Autodesk Architectural Desktop 2007 |Company: Autodesk,Inc. |WEB Address: www.autodesk.com
 90
    33661
280
     0
281
     1
  0
CLASS
  1
MATERIAL
  2
AcDbMaterial
  3
ObjectDBX Classes
 90
     1153
280
     0
281
     0
  0
CLASS
  1
AECS_MEMBER
  2
AecsDbMember
  3
AecStructureBase50|Product Desc: Autodesk Architectural Desktop 2007 |Company: Autodesk,Inc. |WEB Address: www.autodesk.com
 90
    33661
280
     0
281
     1
  0
CLASS
  1
AEC_WALL
  2
AecDbWall
  3
AecArchBase50|Product Desc: Autodesk Architectural Desktop 2007 |Company: Autodesk,Inc. |WEB Address: www.autodesk.com
 90
    33661
280
     0
281
     1
  0
CLASS
  1
AEC_DOOR
  2
AecDbDoor
  3
AecArchBase50|Product Desc: Autodesk Architectural Desktop 2007 |Company: Autodesk,Inc. |WEB Address: www.autodesk.com
 90
    33661
280
     0
281
     1
  0
CLASS
  1
AEC_ANCHOR_OPENINGBASE_TO_WALL
  2
AecDbAnchorOpeningBaseToWall
  3
AecArchBase50|Product Desc: Autodesk Architectural Desktop 2007 |Company: Autodesk,Inc. |WEB Address: www.autodesk.com
 90
    32897
280
     0
281
     0
  0
CLASS
  1
AEC_SPACE_BOUNDARY
  2
AecDbSpaceBoundary
  3
AecArchBase50|Product Desc: Autodesk Architectural Desktop 2007 |Company: Autodesk,Inc. |WEB Address: www.autodesk.com
 90
    33661
280
     0
281
     1
  0
CLASS
  1
AEC_SPACE
  2
AecDbSpace
  3
AecArchBase50|Product Desc: Autodesk Architectural Desktop 2007 |Company: Autodesk,Inc. |WEB Address: www.autodesk.com
 90
      893
280
     0
281
     1
  0
CLASS
  1
AecDbPropertySet
  2
AecDbPropertySet
  3
AecScheduleData50|Product Desc: Autodesk Architectural Desktop 2007 |Company: Autodesk,Inc. |WEB Address: www.autodesk.com
 90
      129
280
     0
281
     0
  0
CLASS
  1
AEC_MVBLOCK_REF
  2
AecDbMvBlockRef
  3
AecBase50|Product Desc: Autodesk Architectural Desktop 2007 |Company: Autodesk,Inc. |WEB Address: www.autodesk.com
 90
    33661
280
     0
281
     1
  0
CLASS
  1
AEC_ANCHOR_TAG_TO_ENT
  2
AecDbAnchorTagToEnt
  3
AecScheduleData50|Product Desc: Autodesk Architectural Desktop 2007 |Company: Autodesk,Inc. |WEB Address: www.autodesk.com
 90
    32897
280
     0
281
     0
  0
CLASS
  1
AEC_WINDOW
  2
AecDbWindow
  3
AecArchBase50|Product Desc: Autodesk Architectural Desktop 2007 |Company: Autodesk,Inc. |WEB Address: www.autodesk.com
 90
    33661
280
     0
281
     1
  0
CLASS
  1
AEC_OPENING
  2
AecDbOpening
  3
AecArchBase50|Product Desc: Autodesk Architectural Desktop 2007 |Company: Autodesk,Inc. |WEB Address: www.autodesk.com
 90
    33661
280
     0
281
     1
  0
CLASS
  1
AEC_CLASSIFICATION_SYSTEM_DEF
  2
AecDbClassificationSystemDef
  3
AecBase50|Product Desc: Autodesk Architectural Desktop 2007 |Company: Autodesk,Inc. |WEB Address: www.autodesk.com
 90
    32897
280
     0
281
     0
  0
CLASS
  1
AEC_CLASSIFICATION_DEF
  2
AecDbClassificationDef
  3
AecBase50|Product Desc: Autodesk Architectural Desktop 2007 |Company: Autodesk,Inc. |WEB Address: www.autodesk.com
 90
    32897
280
     0
281
     0
  0
CLASS
  1
AEC_CLEANUP_GROUP_DEF
  2
AecDbCleanupGroupDef
  3
AecArchBase50|Product Desc: Autodesk Architectural Desktop 2007 |Company: Autodesk,Inc. |WEB Address: www.autodesk.com
 90
      129
280
     0
281
     0
  0
CLASS
  1
AEC_DOOR_STYLE
  2
AecDbDoorStyle
  3
AecArchBase50|Product Desc: Autodesk Architectural Desktop 2007 |Company: Autodesk,Inc. |WEB Address: www.autodesk.com
 90
    32897
280
     0
281
     0
  0
CLASS
  1
AEC_STDSIZE_OPENINGS
  2
AecDbStdSizeOpeningList
  3
AecArchBase50|Product Desc: Autodesk Architectural Desktop 2007 |Company: Autodesk,Inc. |WEB Address: www.autodesk.com
 90
    32897
280
     0
281
     0
  0
CLASS
  1
AEC_ENDCAP_STYLE
  2
AecDbEndcapStyle
  3
AecArchBase50|Product Desc: Autodesk Architectural Desktop 2007 |Company: Autodesk,Inc. |WEB Address: www.autodesk.com
 90
      129
280
     0
281
     0
  0
CLASS
  1
AEC_MASS_ELEM_STYLE
  2
AecDbMassElemStyle
  3
AecBaseEx50|Product Desc: Autodesk Architectural Desktop 2007 |Company: Autodesk,Inc. |WEB Address: www.autodesk.com
 90
    32897
280
     0
281
     0
  0
CLASS
  1
AEC_MATERIAL_DEF
  2
AecDbMaterialDef
  3
AecBase50|Product Desc: Autodesk Architectural Desktop 2007 |Company: Autodesk,Inc. |WEB Address: www.autodesk.com
 90
      129
280
     0
281
     0
  0
CLASS
  1
AEC_MVBLOCK_DEF
  2
AecDbMvBlockDef
  3
AecBase50|Product Desc: Autodesk Architectural Desktop 2007 |Company: Autodesk,Inc. |WEB Address: www.autodesk.com
 90
    32897
280
     0
281
     0
  0
CLASS
  1
AEC_FRAME_DEF
  2
AecDbOpeningEndcapStyle
  3
AecArchBase50|Product Desc: Autodesk Architectural Desktop 2007 |Company: Autodesk,Inc. |WEB Address: www.autodesk.com
 90
      129
280
     0
281
     0
  0
CLASS
  1
AEC_PROFILE_DEF
  2
AecDbProfileDef
  3
AecBase50|Product Desc: Autodesk Architectural Desktop 2007 |Company: Autodesk,Inc. |WEB Address: www.autodesk.com
 90
    32897
280
     0
281
     0
  0
CLASS
  1
AEC_SCHEDULE_DATA_FORMAT
  2
AecDbScheduleDataFormat
  3
AecScheduleData50|Product Desc: Autodesk Architectural Desktop 2007 |Company: Autodesk,Inc. |WEB Address: www.autodesk.com
 90
      129
280
     0
281
     0
  0
CLASS
  1
AEC_PROPERTY_SET_DEF
  2
AecDbPropertySetDef
  3
AecScheduleData50|Product Desc: Autodesk Architectural Desktop 2007 |Company: Autodesk,Inc. |WEB Address: www.autodesk.com
 90
      129
280
     0
281
     0
  0
CLASS
  1
AEC_SPACE_STYLES
  2
AecDbSpaceStyle
  3
AecArchBase50|Product Desc: Autodesk Architectural Desktop 2007 |Company: Autodesk,Inc. |WEB Address: www.autodesk.com
 90
      129
280
     0
281
     0
  0
CLASS
  1
AEC_TEXT_NOTE
  2
AecDbTextNote
  3
AecBase50|Product Desc: Autodesk Architectural Desktop 2007 |Company: Autodesk,Inc. |WEB Address: www.autodesk.com
 90
    32897
280
     0
281
     0
  0
CLASS
  1
AECS_MEMBER_STYLE
  2
AecsDbMemberStyle
  3
AecStructureBase50|Product Desc: Autodesk Architectural Desktop 2007 |Company: Autodesk,Inc. |WEB Address: www.autodesk.com
 90
    32897
280
     0
281
     0
  0
CLASS
  1
AEC_VARS_STRUCTUREBASE
  2
AecsDbVarsStructureBase
  3
AecStructureBase50|Product Desc: Autodesk Architectural Desktop 2007 |Company: Autodesk,Inc. |WEB Address: www.autodesk.com
 90
      129
280
     0
281
     0
  0
CLASS
  1
AEC_WALL_STYLE
  2
AecDbWallStyle
  3
AecArchBase50|Product Desc: Autodesk Architectural Desktop 2007 |Company: Autodesk,Inc. |WEB Address: www.autodesk.com
 90
      129
280
     0
281
     0
  0
CLASS
  1
AEC_WINDOW_STYLE
  2
AecDbWindowStyle
  3
AecArchBase50|Product Desc: Autodesk Architectural Desktop 2007 |Company: Autodesk,Inc. |WEB Address: www.autodesk.com
 90
    32897
280
     0
281
     0
  0
CLASS
  1
AECS_MEMBER_NODE_SHAPE
  2
AecsDbMemberNodeShape
  3
AecStructureBase50|Product Desc: Autodesk Architectural Desktop 2007 |Company: Autodesk,Inc. |WEB Address: www.autodesk.com
 90
    32897
280
     0
281
     0
  0
CLASS
  1
AEC_SCHEDULE_TABLE
  2
AecDbScheduleTable
  3
AecSchedule50|Product Desc: Autodesk Architectural Desktop 2007 |Company: Autodesk,Inc. |WEB Address: www.autodesk.com
 90
      893
280
     0
281
     1
  0
CLASS
  1
AEC_SCHEDULE_TABLE_STYLE
  2
AecDbScheduleTableStyle
  3
AecSchedule50|Product Desc: Autodesk Architectural Desktop 2007 |Company: Autodesk,Inc. |WEB Address: www.autodesk.com
 90
      129
280
     0
281
     0
  0
CLASS
  1
AEC_ANCHOR_MVB_TO_UCS
  2
AecDbAnchorMVBToUCS
  3
AecBase50|Product Desc: Autodesk Architectural Desktop 2007 |Company: Autodesk,Inc. |WEB Address: www.autodesk.com
 90
    32897
280
     0
281
     0
  0
CLASS
  1
IMAGEDEF
  2
AcDbRasterImageDef
  3
ISM
 90
    32768
280
     0
281
     0
  0
CLASS
  1
AEC_ANCHOR_ENT_TO_GRID_ASSEMBLY
  2
AecDbAnchorEntToGridAssembly
  3
AecBase50|Product Desc: Autodesk Architectural Desktop 2007 |Company: Autodesk,Inc. |WEB Address: www.autodesk.com
 90
    32897
280
     0
281
     0
  0
CLASS
  1
AEC_WINDOW_ASSEMBLY
  2
AecDbWindowAssembly
  3
AecArchBase50|Product Desc: Autodesk Architectural Desktop 2007 |Company: Autodesk,Inc. |WEB Address: www.autodesk.com
 90
    33661
280
     0
281
     1
  0
CLASS
  1
AEC_ANCHOR_WINASSEMBLY_TO_WALL
  2
AecDbAnchorWinAssemblyToWall
  3
AecArchBase50|Product Desc: Autodesk Architectural Desktop 2007 |Company: Autodesk,Inc. |WEB Address: www.autodesk.com
 90
    32897
280
     0
281
     0
  0
CLASS
  1
AEC_STAIR
  2
AecDbStair
  3
AecArchBase50|Product Desc: Autodesk Architectural Desktop 2007 |Company: Autodesk,Inc. |WEB Address: www.autodesk.com
 90
    33661
280
     0
281
     1
  0
CLASS
  1
AEC_RAILING
  2
AecDbRailing
  3
AecArchBase50|Product Desc: Autodesk Architectural Desktop 2007 |Company: Autodesk,Inc. |WEB Address: www.autodesk.com
 90
    33661
280
     0
281
     1
  0
CLASS
  1
AEC_ANCHOR_RAILING_TO_STAIR
  2
AecDbAnchorRailingToStair
  3
AecArchBase50|Product Desc: Autodesk Architectural Desktop 2007 |Company: Autodesk,Inc. |WEB Address: www.autodesk.com
 90
    32897
280
     0
281
     0
  0
CLASS
  1
AEC_RAILING_STYLE
  2
AecDbRailingStyle
  3
AecArchBase50|Product Desc: Autodesk Architectural Desktop 2007 |Company: Autodesk,Inc. |WEB Address: www.autodesk.com
 90
    32897
280
     0
281
     0
  0
CLASS
  1
AEC_STAIR_STYLE
  2
AecDbStairStyle
  3
AecArchBase50|Product Desc: Autodesk Architectural Desktop 2007 |Company: Autodesk,Inc. |WEB Address: www.autodesk.com
 90
    32897
280
     0
281
     0
  0
CLASS
  1
AEC_STAIR_WINDER_STYLE
  2
AecDbStairWinderStyle
  3
AecArchBase50|Product Desc: Autodesk Architectural Desktop 2007 |Company: Autodesk,Inc. |WEB Address: www.autodesk.com
 90
    32897
280
     0
281
     0
  0
CLASS
  1
AEC_STAIR_WINDER_TYPE_SINGLE_POINT
  2
AecDbStairWinderTypeSinglePoint
  3
AecArchBase50|Product Desc: Autodesk Architectural Desktop 2007 |Company: Autodesk,Inc. |WEB Address: www.autodesk.com
 90
    32897
280
     0
281
     0
  0
CLASS
  1
AEC_WINDOW_ASSEMBLY_STYLE
  2
AecDbWindowAssemblyStyle
  3
AecArchBase50|Product Desc: Autodesk Architectural Desktop 2007 |Company: Autodesk,Inc. |WEB Address: www.autodesk.com
 90
    32897
280
     0
281
     0
  0
CLASS
  1
AEC_AECDBAREASTYLE
  2
AecDbAreaStyle
  3
AecAreaCalculationBase50|Product Desc: Autodesk Architectural Desktop 2007 |Company: Autodesk,Inc. |WEB Address: www.autodesk.com
 90
    32897
280
     0
281
     0
  0
CLASS
  1
AEC_AECDBAREAPROPOSALNAMES
  2
AecDbAreaProposalNames
  3
AecAreaCalculationBase50|Product Desc: Autodesk Architectural Desktop 2007 |Company: Autodesk,Inc. |WEB Address: www.autodesk.com
 90
    32897
280
     0
281
     0
  0
CLASS
  1
AEC_AREA
  2
AecDbArea
  3
AecAreaCalculationBase50|Product Desc: Autodesk Architectural Desktop 2007 |Company: Autodesk,Inc. |WEB Address: www.autodesk.com
 90
    33661
280
     0
281
     1
  0
CLASS
  1
OBJECT_PTR
  2
CAseDLPNTableRecord
  3
ASE-LPNTableRecord
 90
    32769
280
     1
281
     0
  0
CLASS
  1
TABLESTYLE
  2
AcDbTableStyle
  3
ObjectDBX Classes
 90
     4095
280
     0
281
     0
  0
CLASS
  1
AEC_DISP_REP_DISPLAYTHEME
  2
AecDbDispRepDisplayTheme
  3
AecBase50|Product Desc: Autodesk Architectural Desktop 2007 |Company: Autodesk,Inc. |WEB Address: www.autodesk.com
 90
      129
280
     0
281
     0
  0
CLASS
  1
AEC_DISP_PROPS_DISPLAYTHEME
  2
AecDbDispPropsDisplayTheme
  3
AecBase50|Product Desc: Autodesk Architectural Desktop 2007 |Company: Autodesk,Inc. |WEB Address: www.autodesk.com
 90
      129
280
     0
281
     0
  0
CLASS
  1
AEC_DISP_REP_ANCHOR_EXT_TAG_TO_ENT
  2
AecDbDispRepAnchorExtendedTagToEnt
  3
AecScheduleData50|Product Desc: Autodesk Architectural Desktop 2007 |Company: Autodesk,Inc. |WEB Address: www.autodesk.com
 90
      129
280
     0
281
     0
  0
CLASS
  1
VISUALSTYLE
  2
AcDbVisualStyle
  3
ObjectDBX Classes
 90
     4095
280
     0
281
     0
  0
CLASS
  1
AEC_AECDBDISPREPZONE100
  2
AecDbDispRepZonePlan100
  3
AecArchDACHBase50|Product Desc: Autodesk Architectural Desktop 2007 |Company: Autodesk,Inc. |WEB Address: www.autodesk.com
 90
      129
280
     0
281
     0
  0
CLASS
  1
AEC_DISP_PROPS_ZONE
  2
AecDbDispPropsZone
  3
AecArchBase50|Product Desc: Autodesk Architectural Desktop 2007 |Company: Autodesk,Inc. |WEB Address: www.autodesk.com
 90
      129
280
     0
281
     0
  0
CLASS
  1
AEC_AECDBDISPREPZONE50
  2
AecDbDispRepZonePlan50
  3
AecArchDACHBase50|Product Desc: Autodesk Architectural Desktop 2007 |Company: Autodesk,Inc. |WEB Address: www.autodesk.com
 90
      129
280
     0
281
     0
  0
CLASS
  1
AEC_DISP_REP_SPACE_DECOMPOSED
  2
AecDbDispRepSpaceDecomposed
  3
AecArchBase50|Product Desc: Autodesk Architectural Desktop 2007 |Company: Autodesk,Inc. |WEB Address: www.autodesk.com
 90
      129
280
     0
281
     0
  0
CLASS
  1
AEC_DISP_PROPS_SPACE_DECOMPOSED
  2
AecDbDispPropsSpaceDecomposed
  3
AecArchBase50|Product Desc: Autodesk Architectural Desktop 2007 |Company: Autodesk,Inc. |WEB Address: www.autodesk.com
 90
      129
280
     0
281
     0
  0
CLASS
  1
AEC_DISP_REP_ZONE
  2
AecDbDispRepZone
  3
AecArchBase50|Product Desc: Autodesk Architectural Desktop 2007 |Company: Autodesk,Inc. |WEB Address: www.autodesk.com
 90
      129
280
     0
281
     0
  0
CLASS
  1
AEC_LIST_DEF
  2
AecDbListDefinition
  3
AecBase50|Product Desc: Autodesk Architectural Desktop 2007 |Company: Autodesk,Inc. |WEB Address: www.autodesk.com
 90
    32897
280
     0
281
     0
  0
CLASS
  1
EXACXREFPANELOBJECT
  2
ExAcXREFPanelObject
  3
EXAC_ESW
 90
    33793
280
     1
281
     0
  0
CLASS
  1
NPOCOLLECTION
  2
AcDbImpNonPersistentObjectsCollection
  3
ObjectDBX Classes
 90
     1153
280
     0
281
     0
  0
CLASS
  1
ACAD_EVALUATION_GRAPH
  2
AcDbEvalGraph
  3
ObjectDBX Classes
 90
    33921
280
     0
281
     0
  0
CLASS
  1
BLOCKLINEARPARAMETER
  2
AcDbBlockLinearParameter
  3
ObjectDBX Classes
 90
    33921
280
     0
281
     0
  0
CLASS
  1
BLOCKLINEARGRIP
  2
AcDbBlockLinearGrip
  3
ObjectDBX Classes
 90
    33921
280
     0
281
     0
  0
CLASS
  1
BLOCKGRIPLOCATIONCOMPONENT
  2
AcDbBlockGripExpr
  3
ObjectDBX Classes
 90
    33921
280
     0
281
     0
  0
CLASS
  1
BLOCKSTRETCHACTION
  2
AcDbBlockStretchAction
  3
ObjectDBX Classes
 90
    33921
280
     0
281
     0
  0
CLASS
  1
BLOCKFLIPPARAMETER
  2
AcDbBlockFlipParameter
  3
ObjectDBX Classes
 90
    33921
280
     0
281
     0
  0
CLASS
  1
BLOCKFLIPGRIP
  2
AcDbBlockFlipGrip
  3
ObjectDBX Classes
 90
    33921
280
     0
281
     0
  0
CLASS
  1
BLOCKFLIPACTION
  2
AcDbBlockFlipAction
  3
ObjectDBX Classes
 90
    33921
280
     0
281
     0
  0
CLASS
  1
ACDB_DYNAMICBLOCKPURGEPREVENTER_VERSION
  2
AcDbDynamicBlockPurgePreventer
  3
ObjectDBX Classes
 90
    33921
280
     0
281
     0
  0
CLASS
  1
ACDB_BLOCKREPRESENTATION_DATA
  2
AcDbBlockRepresentationData
  3
ObjectDBX Classes
 90
    33921
280
     0
281
     0
  0
CLASS
  1
AEC_SLAB
  2
AecDbSlab
  3
AecArchBase50|Product Desc: Autodesk Architectural Desktop 2007 |Company: Autodesk,Inc. |WEB Address: www.autodesk.com
 90
    33661
280
     0
281
     1
  0
CLASS
  1
AEC_LIST_DEF
  2
AecDbListItem
  3
AecBase50|Product Desc: Autodesk Architectural Desktop 2007 |Company: Autodesk,Inc. |WEB Address: www.autodesk.com
 90
    32897
280
     0
281
     0
  0
CLASS
  1
AEC_ROOFSLAB_STYLE
  2
AecDbRoofSlabStyle
  3
AecArchBase50|Product Desc: Autodesk Architectural Desktop 2007 |Company: Autodesk,Inc. |WEB Address: www.autodesk.com
 90
      129
280
     0
281
     0
  0
CLASS
  1
AEC_ROOFSLABEDGE_STYLE
  2
AecDbRoofSlabEdgeStyle
  3
AecArchBase50|Product Desc: Autodesk Architectural Desktop 2007 |Company: Autodesk,Inc. |WEB Address: www.autodesk.com
 90
      129
280
     0
281
     0
  0
CLASS
  1
AEC_SLAB_STYLE
  2
AecDbSlabStyle
  3
AecArchBase50|Product Desc: Autodesk Architectural Desktop 2007 |Company: Autodesk,Inc. |WEB Address: www.autodesk.com
 90
      129
280
     0
281
     0
  0
CLASS
  1
AEC_SLABEDGE_STYLE
  2
AecDbSlabEdgeStyle
  3
AecArchBase50|Product Desc: Autodesk Architectural Desktop 2007 |Company: Autodesk,Inc. |WEB Address: www.autodesk.com
 90
      129
280
     0
281
     0
  0
CLASS
  1
EXACTERMXREFMAP
  2
ExAcTermXrefMap
  3
EXAC_SERVICE
 90
    33793
280
     1
281
     0
  0
CLASS
  1
AEC_AECDBZONESTYLE
  2
AecDbZoneStyle
  3
AecArchBase50|Product Desc: Autodesk Architectural Desktop 2007 |Company: Autodesk,Inc. |WEB Address: www.autodesk.com
 90
    32897
280
     0
281
     0
  0
CLASS
  1
AEC_ZONE
  2
AecDbZone
  3
AecArchBase50|Product Desc: Autodesk Architectural Desktop 2007 |Company: Autodesk,Inc. |WEB Address: www.autodesk.com
 90
    33661
280
     0
281
     1
  0
CLASS
  1
ACAD_TABLE
  2
AcDbTable
  3
ObjectDBX Classes
 90
    33793
280
     0
281
     1
  0
CLASS
  1
AEC_DISPLAYTHEME_STYLE
  2
AecDbDisplayThemeStyle
  3
AecBase50|Product Desc: Autodesk Architectural Desktop 2007 |Company: Autodesk,Inc. |WEB Address: www.autodesk.com
 90
    32897
280
     0
281
     0
  0
CLASS
  1
DIMASSOC
  2
AcDbDimAssoc
  3
"AcDbDimAssoc|Product Desc:     AcDim ARX App For Dimension|Company:          Autodesk, Inc.|WEB Address:      www.autodesk.com"
 90
        0
280
     0
281
     0
  0
CLASS
  1
AEC_MASS_GROUP
  2
AecDbMassGroup
  3
AecBaseEx50|Product Desc: Autodesk Architectural Desktop 2007 |Company: Autodesk,Inc. |WEB Address: www.autodesk.com
 90
    33661
280
     0
281
     1
  0
CLASS
  1
AEC_ANCHOR_ENT_TO_ENT
  2
AecDbAnchorEntToEnt
  3
AecBase50|Product Desc: Autodesk Architectural Desktop 2007 |Company: Autodesk,Inc. |WEB Address: www.autodesk.com
 90
    32897
280
     0
281
     0
  0
CLASS
  1
AEC_2D_SECTION
  2
AecDb2dSection
  3
AecBase50|Product Desc: Autodesk Architectural Desktop 2007 |Company: Autodesk,Inc. |WEB Address: www.autodesk.com
 90
    33661
280
     0
281
     1
  0
CLASS
  1
AEC_2DSECTION_STYLE
  2
AecDb2dSectionStyle
  3
AecBase50|Product Desc: Autodesk Architectural Desktop 2007 |Company: Autodesk,Inc. |WEB Address: www.autodesk.com
 90
    32897
280
     0
281
     0
  0
CLASS
  1
SCALE
  2
AcDbScale
  3
ObjectDBX Classes
 90
     1153
280
     0
281
     0
  0
CLASS
  1
MLEADERSTYLE
  2
AcDbMLeaderStyle
  3
ACDB_MLEADERSTYLE_CLASS
 90
     4095
280
     0
281
     0
  0
CLASS
  1
AEC_REFEDIT_STATUS_TRACKER
  2
AecDbRefEditStatusTracker
  3
AecArchBase50|Product Desc: Autodesk Architectural Desktop 2007 |Company: Autodesk,Inc. |WEB Address: www.autodesk.com
 90
      129
280
     0
281
     0
  0
CLASS
  1
CELLSTYLEMAP
  2
AcDbCellStyleMap
  3
ObjectDBX Classes
 90
     1152
280
     0
281
     0
  0
CLASS
  1
BLOCKARRAYACTION
  2
AcDbBlockArrayAction
  3
ObjectDBX Classes
 90
    33921
280
     0
281
     0
  0
CLASS
  1
BLOCKBASEPOINTPARAMETER
  2
AcDbBlockBasepointParameter
  3
ObjectDBX Classes
 90
    33921
280
     0
281
     0
  0
CLASS
  1
SOLID_BACKGROUND
  2
AcDbSolidBackground
  3
SCENEOE
 90
    36863
280
     0
281
     0
  0
ENDSEC
  0
SECTION
  2
TABLES
  0
TABLE
  2
VPORT
  5
28
330
0
100
AcDbSymbolTable
 70
     1
  0
VPORT
  5
29
330
28
100
AcDbSymbolTableRecord
100
AcDbViewportTableRecord
  2
*Active
 70
     0
 10
0.0
 20
0.0
 11
1.0
 21
1.0
 12
61325.11403147558
 22
-4822.73635942032
 13
-3534.953416816247
 23
4038.000000000049
 14
1.0
 24
1.0
 15
1.0
 25
1.0
 16
0.0
 26
0.0
 36
1.0
 17
0.0
 27
0.0
 37
0.0
 40
19725.55618695071
 41
1.612947658402203
 42
50.0
 43
0.0
 44
0.0
 50
0.0
 51
0.0
 71
     0
 72
  2000
 73
     1
 74
     1
 75
     0
 76
     0
 77
     0
 78
     0
281
     0
 65
     1
110
0.0
120
0.0
130
0.0
111
1.0
121
0.0
131
0.0
112
0.0
122
1.0
132
0.0
 79
     0
146
0.0
  0
ENDTAB
  0
TABLE
  2
LTYPE
  5
23
330
0
100
AcDbSymbolTable
 70
     6
  0
LTYPE
  5
24
330
23
100
AcDbSymbolTableRecord
100
AcDbLinetypeTableRecord
  2
BYBLOCK
 70
     0
  3

 72
    65
 73
     0
 40
0.0
  0
LTYPE
  5
25
330
23
100
AcDbSymbolTableRecord
100
AcDbLinetypeTableRecord
  2
BYLAYER
 70
     0
  3

 72
    65
 73
     0
 40
0.0
  0
LTYPE
  5
E
330
23
100
AcDbSymbolTableRecord
100
AcDbLinetypeTableRecord
  2
CONTINUOUS
 70
     0
  3
Solid line
 72
    65
 73
     0
 40
0.0
  0
LTYPE
  5
77
330
23
100
AcDbSymbolTableRecord
100
AcDbLinetypeTableRecord
  2
DASHED
 70
     0
  3
Dashed __ __ __ __ __ __ __ __ __ __ __ __ __ _
 72
    65
 73
     2
 40
0.75
 49
0.5
 74
     0
 49
-0.25
 74
     0
  0
LTYPE
  5
24F7
330
23
100
AcDbSymbolTableRecord
100
AcDbLinetypeTableRecord
  2
HIDDEN2
 70
     0
  3
Hidden (.5x) _ _ _ _ _ _ _ _ _ _ _ _ _ _ _ _ _
 72
    65
 73
     2
 40
0.1875
 49
0.125
 74
     0
 49
-0.0625
 74
     0
  0
LTYPE
  5
24F8
330
23
100
AcDbSymbolTableRecord
100
AcDbLinetypeTableRecord
  2
PHANTOM2
 70
     0
  3
Phantom (.5x) ___ _ _ ___ _ _ ___ _ _ ___ _ _
 72
    65
 73
     6
 40
1.25
 49
0.625
 74
     0
 49
-0.125
 74
     0
 49
0.125
 74
     0
 49
-0.125
 74
     0
 49
0.125
 74
     0
 49
-0.125
 74
     0
  0
ENDTAB
  0
TABLE
  2
LAYER
  5
1D
102
{ACAD_XDICTIONARY
360
1E
102
}
330
0
100
AcDbSymbolTable
 70
    40
  0
LAYER
  5
6
102
{ACAD_XDICTIONARY
360
7
102
}
330
1D
100
AcDbSymbolTableRecord
100
AcDbLayerTableRecord
  2
0
 70
     0
 62
     7
  6
CONTINUOUS
370
    -3
390
9
1001
RAK
1000
{ACET-LAYISO
1070
     0
1070
     7
1000
CONTINUOUS
1070
     1
1071
       -3
1071
        1
1005
9
1000
ACET-LAYISO}
  0
LAYER
  5
74
102
{ACAD_XDICTIONARY
360
75
102
}
330
1D
100
AcDbSymbolTableRecord
100
AcDbLayerTableRecord
  2
NAPISY
 70
     0
 62
   140
  6
CONTINUOUS
370
    -3
390
9
1001
RAK
1000
{ACET-LAYISO
1070
     0
1070
   140
1000
CONTINUOUS
1071
       -3
1071
        1
1005
9
1000
ACET-LAYISO}
  0
LAYER
  5
3B5
330
1D
100
AcDbSymbolTableRecord
100
AcDbLayerTableRecord
  2
Defpoints
 70
     0
 62
     7
  6
CONTINUOUS
290
     0
370
    -3
390
9
1001
RAK
1000
{ACET-LAYISO
1070
     0
1070
     7
1000
CONTINUOUS
1071
       -3
1071
        0
1005
9
1000
ACET-LAYISO}
  0
LAYER
  5
56
102
{ACAD_XDICTIONARY
360
57
102
}
330
1D
100
AcDbSymbolTableRecord
100
AcDbLayerTableRecord
  2
0Wymiary-PL
 70
     0
 62
     1
  6
CONTINUOUS
370
     5
390
9
  0
LAYER
  5
3A3
102
{ACAD_XDICTIONARY
360
3A4
102
}
330
1D
100
AcDbSymbolTableRecord
100
AcDbLayerTableRecord
  2
0Hatch
 70
     0
 62
   122
  6
CONTINUOUS
370
     5
390
9
  0
LAYER
  5
7E
102
{ACAD_XDICTIONARY
360
7F
102
}
330
1D
100
AcDbSymbolTableRecord
100
AcDbLayerTableRecord
  2
RAMKI-A4
 70
     0
 62
     2
  6
CONTINUOUS
290
     0
370
    -3
390
9
1001
RAK
1000
{ACET-LAYISO
1070
     0
1070
     2
1000
Continuous
1071
       -3
1071
        0
1005
9
1000
ACET-LAYISO}
  0
LAYER
  5
1326
330
1D
100
AcDbSymbolTableRecord
100
AcDbLayerTableRecord
  2
TEREN$0$A-MassElement-G
 70
     0
 62
   210
  6
CONTINUOUS
370
     9
390
9
1001
AcAecLayerStandard
1000
BS1192 - Descriptive
1001
RAK
1000
{ACET-LAYISO
1070
     0
1070
   210
1000
Continuous
1071
        9
1071
        1
1005
9
1000
ACET-LAYISO}
  0
LAYER
  5
2500
102
{ACAD_XDICTIONARY
360
2501
102
}
330
1D
100
AcDbSymbolTableRecord
100
AcDbLayerTableRecord
  2
A-Anno-Scrn
 70
     0
 62
   250
  6
CONTINUOUS
370
    25
390
254F
1001
AcAecLayerStandard
1000
AIA 2nd Edition
1001
RAK
1000
{ACET-LAYISO
1070
     0
1070
   250
1000
Continuous
1071
       25
1071
        1
1005
254F
1000
ACET-LAYISO}
  0
LAYER
  5
2504
102
{ACAD_XDICTIONARY
360
2505
102
}
330
1D
100
AcDbSymbolTableRecord
100
AcDbLayerTableRecord
  2
G-Anno-Nplt
 70
     0
 62
   140
  6
CONTINUOUS
290
     0
370
    -3
390
9
1001
AcAecLayerStandard
1000
NCSv2
1001
RAK
1000
{ACET-LAYISO
1070
     0
1070
   140
1000
Continuous
1071
       -3
1071
        0
1005
9
1000
ACET-LAYISO}
  0
ENDTAB
  0
TABLE
  2
STYLE
  5
20
330
0
100
AcDbSymbolTable
 70
    14
  0
STYLE
  5
21
330
20
100
AcDbSymbolTableRecord
100
AcDbTextStyleTableRecord
  2
STANDARD
 70
     0
 40
0.0
 41
1.0
 50
0.0
 71
     0
 42
0.2
  3
txt
  4

  0
STYLE
  5
2E
330
20
100
AcDbSymbolTableRecord
100
AcDbTextStyleTableRecord
  2
ROMANS
 70
     0
 40
0.0
 41
0.9
 50
0.0
 71
     0
 42
5.0
  3
romans.shx
  4

  0
STYLE
  5
79
330
20
100
AcDbSymbolTableRecord
100
AcDbTextStyleTableRecord
  2
AVA
 70
     0
 40
0.0
 41
1.0
 50
0.0
 71
     0
 42
20.0
  3
ARIAL.TTF
  4

1001
ACAD
1000
Arial CE
1071
    60962
  0
ENDTAB
  0
TABLE
  2
VIEW
  5
26
330
0
100
AcDbSymbolTable
 70
     1
  0
VIEW
  5
13
330
26
100
AcDbSymbolTableRecord
100
AcDbViewTableRecord
  2
10-ele
 70
     0
 40
2040.000000000001
 10
597.6361962217097
 20
4133.999999999996
 41
2803.999999999998
 11
0.0
 21
0.0
 31
1.0
 12
0.0
 22
0.0
 32
0.0
 42
50.0
 43
0.0
 44
0.0
 50
0.0
 71
     0
281
     0
 72
     1
110
0.0
120
0.0
130
0.0
111
1.0
121
0.0
131
0.0
112
0.0
122
1.0
132
0.0
 79
     0
146
0.0
  0
ENDTAB
  0
TABLE
  2
UCS
  5
27
330
0
100
AcDbSymbolTable
 70
     0
  0
ENDTAB
  0
TABLE
  2
APPID
  5
2A
330
0
100
AcDbSymbolTable
 70
    10
  0
APPID
  5
2B
330
2A
100
AcDbSymbolTableRecord
100
AcDbRegAppTableRecord
  2
ACAD
 70
     0
  0
APPID
  5
F
330
2A
100
AcDbSymbolTableRecord
100
AcDbRegAppTableRecord
  2
RAK
 70
     0
  0
APPID
  5
16
330
2A
100
AcDbSymbolTableRecord
100
AcDbRegAppTableRecord
  2
ACAD_PSEXT
 70
     0
  0
APPID
  5
7AA
330
2A
100
AcDbSymbolTableRecord
100
AcDbRegAppTableRecord
  2
ACAD_MLEADERVER
 70
     0
  0
APPID
  5
B8E
330
2A
100
AcDbSymbolTableRecord
100
AcDbRegAppTableRecord
  2
ACAD_EXEMPT_FROM_CAD_STANDARDS
 70
     0
  0
APPID
  5
132A
330
2A
100
AcDbSymbolTableRecord
100
AcDbRegAppTableRecord
  2
AcAecLayerStandard
 70
     0
  0
APPID
  5
2546
330
2A
100
AcDbSymbolTableRecord
100
AcDbRegAppTableRecord
  2
AECBASE
 70
     0
  0
APPID
  5
2547
330
2A
100
AcDbSymbolTableRecord
100
AcDbRegAppTableRecord
  2
DCO15
 70
     0
  0
APPID
  5
2548
330
2A
100
AcDbSymbolTableRecord
100
AcDbRegAppTableRecord
  2
AcDbBlockRepETag
 70
     0
  0
APPID
  5
3BB8
330
2A
100
AcDbSymbolTableRecord
100
AcDbRegAppTableRecord
  2
AcDbAttr
 70
     0
  0
ENDTAB
  0
TABLE
  2
DIMSTYLE
  5
2C
330
0
100
AcDbSymbolTable
 70
     8
100
AcDbDimStyleTable
 71
     2
340
2D
340
4C
  0
DIMSTYLE
105
4C
330
2C
100
AcDbSymbolTableRecord
100
AcDbDimStyleTableRecord
  2
Standard
 70
     0
340
21
  0
DIMSTYLE
105
2D
102
{ACAD_REACTORS
330
3A0C
330
3A1E
330
3A2B
330
3A3D
330
3B4E
330
3B4F
330
3B50
330
3B51
102
}
330
2C
100
AcDbSymbolTableRecord
100
AcDbDimStyleTableRecord
  2
500
 70
     0
 41
30.0
 42
43.0
 43
0.0
 44
13.0
 45
0.5
 46
12.0
 73
     0
 74
     0
 75
     1
 76
     1
 78
    12
140
80.0
141
0.0
145
1.0
147
0.0
172
     1
174
     1
176
     1
177
     1
178
   140
271
     1
272
     1
279
     2
340
2E
341
2F
342
2F
  0
ENDTAB
  0
TABLE
  2
BLOCK_RECORD
  5
1
330
0
100
AcDbSymbolTable
 70
   316
  0
BLOCK_RECORD
  5
2
102
{ACAD_XDICTIONARY
360
3
102
}
330
1
100
AcDbSymbolTableRecord
100
AcDbBlockTableRecord
  2
*MODEL_SPACE
340
11
  0
BLOCK_RECORD
  5
1942
330
1
100
AcDbSymbolTableRecord
100
AcDbBlockTableRecord
  2
*Paper_Space
340
1943
  0
BLOCK_RECORD
  5
2F
102
{ACAD_XDICTIONARY
360
30
102
}
330
1
100
AcDbSymbolTableRecord
100
AcDbBlockTableRecord
  2
B-DIM
340
0
102
{BLKREFS
331
1BB3
331
1BB4
331
1BBA
331
1BBB
331
1BC1
331
1BC2
331
1BCF
331
1BD0
331
1BD6
331
1BD7
331
1BDD
331
1BDE
331
1BE6
331
1BE7
331
1BF6
331
1BF7
331
1BFD
331
1BFE
331
1C04
331
1C05
331
1C0B
331
1C0C
331
1C14
331
1C15
331
1C22
331
1C23
331
1C29
331
1C2A
331
1C34
331
1C35
331
1C3D
331
1C3E
331
1C46
331
1C47
331
1C4D
331
1C4E
331
20E6
331
20E7
331
20F2
331
20F3
331
20FC
331
20FD
331
2106
331
2107
331
2110
331
2111
331
211A
331
211B
331
2124
331
2125
331
212E
331
212F
331
2138
331
2139
331
2142
331
2143
331
214C
331
214D
331
2156
331
2157
331
2160
331
2161
331
216A
331
216B
331
2174
331
2175
331
217E
331
217F
331
2188
331
2189
331
2194
331
2195
331
219E
331
219F
331
21A8
331
21A9
331
21B2
331
21B3
331
21BC
331
21BD
331
21C6
331
21C7
331
21D0
331
21D1
331
21DA
331
21DB
331
21E4
331
21E5
331
21EE
331
21EF
331
21F8
331
21F9
331
2204
331
2205
331
220E
331
220F
331
221A
331
221B
331
2224
331
2225
331
222E
331
222F
331
2238
331
2239
331
2242
331
2243
331
224C
331
224D
331
2256
331
2257
331
2260
331
2261
331
226A
331
226B
331
1FF0
331
1FF1
331
1FFA
331
1FFB
331
2004
331
2005
331
200E
331
200F
331
2018
331
2019
331
2022
331
2023
331
202C
331
202D
331
2038
331
2039
331
2043
331
2044
331
204C
331
204D
331
2056
331
2057
331
2060
331
2061
331
206A
331
206B
331
2074
331
2075
331
207E
331
207F
331
2088
331
2089
331
2092
331
2093
331
209C
331
209D
331
20A6
331
20A7
331
20B0
331
20B1
331
20BA
331
20BB
331
20C6
331
20C7
331
20D0
331
20D1
331
20DC
331
20DD
331
2274
331
2275
331
227E
331
227F
331
2288
331
2289
331
2292
331
2293
331
229E
331
22A5
331
22A6
331
22AF
331
22B0
331
22BA
331
22BB
331
22C4
331
22C5
331
22CD
331
22CE
331
22D8
331
22D9
331
22E2
331
22E3
331
22EE
331
22EF
331
22F7
331
22F8
331
2304
331
2305
331
230D
331
230E
331
2317
331
2318
331
2323
331
2324
331
232D
331
232E
331
2337
331
2338
331
2341
331
2342
331
234B
331
234C
331
2356
331
2357
331
2361
331
2362
331
236E
331
236F
331
2378
331
2379
331
2382
331
2383
331
238E
331
238F
331
239A
331
239B
331
23A3
331
23A4
331
23AD
331
23AE
331
23B7
331
23B8
331
23C1
331
23C2
331
24BB
331
24BC
331
24C5
331
24C6
331
24D2
331
24D3
331
24DB
331
24DC
331
24E5
331
24E6
331
24EF
331
24F0
331
23CB
331
23CC
331
23D5
331
23D6
331
23EA
331
23EB
331
23F4
331
23F5
331
23FE
331
23FF
331
2408
331
2409
331
2412
331
2413
331
241C
331
241D
331
2426
331
2427
331
2430
331
2431
331
243A
331
243B
331
2444
331
2445
331
2456
331
2457
331
2461
331
2462
331
246A
331
246B
331
247F
331
2480
331
2489
331
248A
331
2494
331
2495
331
249D
331
249E
331
24A7
331
24A8
331
24B1
331
24B2
331
3599
331
359A
331
35A0
331
35A1
331
35A7
331
35A8
331
35AE
331
35AF
331
35B5
331
35B6
331
35BC
331
35BD
331
35C3
331
35C4
331
35CC
331
35CD
331
35D4
331
35D5
331
35DA
331
35DB
331
35E1
331
35E2
331
35E8
331
35E9
331
35EF
331
35F0
331
35F6
331
35F7
331
35FD
331
35FE
331
3604
331
3605
331
360B
331
360C
331
3612
331
3613
331
3619
331
361A
331
3620
331
3621
331
3627
331
3628
331
3630
331
3631
331
3637
331
3638
331
3640
331
3641
331
3647
331
3648
331
3650
331
3651
331
3657
331
3658
331
365E
331
365F
331
3665
331
3666
331
366C
331
366D
331
3673
331
3674
331
367D
331
367E
331
3687
331
3688
331
3691
331
3692
331
369B
331
369C
331
36A5
331
36A6
331
36AF
331
36B0
331
36B9
331
36BA
331
36C3
331
36C4
331
36CD
331
36CE
331
36D7
331
36D8
331
36E3
331
36E4
331
36ED
331
36EE
331
36F7
331
36F8
331
3701
331
3702
331
370B
331
370C
331
3712
331
3713
331
371C
331
371D
331
3723
331
3724
331
372D
331
372E
331
3737
331
3738
331
3741
331
3742
331
374D
331
374E
331
3757
331
3758
331
3760
331
3761
331
3767
331
3768
331
376E
331
376F
331
3775
331
3776
331
377F
331
3780
331
3789
331
378A
331
3790
331
3791
331
3797
331
3798
331
37A1
331
37A2
331
37AB
331
37AC
331
37B5
331
37B6
331
37BF
331
37C0
331
37C9
331
37CA
331
37D9
331
37DA
331
37E0
331
37E1
331
37E8
331
37E9
331
37F2
331
37F3
331
37F8
331
37F9
331
3803
331
3804
331
380D
331
380E
331
3819
331
381A
331
3822
331
3823
331
3838
331
3839
331
3842
331
3843
331
384B
331
384C
331
3855
331
3856
331
385C
331
385D
331
3863
331
3864
331
386D
331
386E
331
3878
331
3879
331
3880
331
3881
331
388A
331
388B
331
3891
331
3892
331
389B
331
389C
331
38A4
331
38A5
331
38AD
331
38AE
331
38B3
331
38B4
331
38BD
331
38BE
331
38C7
331
38C8
331
38CE
331
38CF
331
38D5
331
38D6
331
38DC
331
38DD
331
38E6
331
38E7
331
38ED
331
38EE
331
38F4
331
38F5
331
38FB
331
38FC
331
3902
331
3903
331
390C
331
390D
331
3913
331
3914
331
391A
331
391B
331
3921
331
3922
331
3928
331
3929
331
3932
331
3933
331
393D
331
393E
331
3943
331
3944
331
394A
331
394B
331
3954
331
3955
331
395C
331
395D
331
3962
331
3963
331
3969
331
396A
331
3970
331
3971
331
3991
331
3992
331
399A
331
399B
331
39A4
331
39A5
331
39B6
331
39B7
331
39BD
331
39BE
331
39C7
331
39C8
331
39CD
331
39CE
331
39D7
331
3A56
331
3A57
331
3A7E
331
3A7F
331
3A85
331
3A86
331
3A8E
331
3A8F
331
3A95
331
3A96
331
3A9C
331
3A9D
331
3B7D
331
3B7E
331
3B86
331
3B87
331
3B8D
331
3B8E
331
3B94
331
3B95
102
}
  0
BLOCK_RECORD
  5
3A0D
330
1
100
AcDbSymbolTableRecord
100
AcDbBlockTableRecord
  2
*D305
340
0
  0
BLOCK_RECORD
  5
3A1F
330
1
100
AcDbSymbolTableRecord
100
AcDbBlockTableRecord
  2
*D306
340
0
  0
BLOCK_RECORD
  5
3A2C
330
1
100
AcDbSymbolTableRecord
100
AcDbBlockTableRecord
  2
*D307
340
0
  0
BLOCK_RECORD
  5
3A3E
330
1
100
AcDbSymbolTableRecord
100
AcDbBlockTableRecord
  2
*D308
340
0
  0
BLOCK_RECORD
  5
3B52
330
1
100
AcDbSymbolTableRecord
100
AcDbBlockTableRecord
  2
*D311
340
0
  0
BLOCK_RECORD
  5
3B5C
330
1
100
AcDbSymbolTableRecord
100
AcDbBlockTableRecord
  2
*D312
340
0
  0
BLOCK_RECORD
  5
3B68
330
1
100
AcDbSymbolTableRecord
100
AcDbBlockTableRecord
  2
*D313
340
0
  0
BLOCK_RECORD
  5
3B72
330
1
100
AcDbSymbolTableRecord
100
AcDbBlockTableRecord
  2
*D314
340
0
  0
ENDTAB
  0
ENDSEC
  0
SECTION
  2
BLOCKS
  0
BLOCK
  5
5
330
2
100
AcDbEntity
  8
0
100
AcDbBlockBegin
  2
*MODEL_SPACE
 70
     0
 10
0.0
 20
0.0
 30
0.0
  3
*MODEL_SPACE
  1

  0
ENDBLK
  5
10
330
2
100
AcDbEntity
  8
0
100
AcDbBlockEnd
  0
BLOCK
  5
1944
330
1942
100
AcDbEntity
 67
     1
  8
0
 48
4.0
100
AcDbBlockBegin
  2
*Paper_Space
 70
     0
 10
0.0
 20
0.0
 30
0.0
  3
*Paper_Space
  1

  0
ENDBLK
  5
1945
330
1942
100
AcDbEntity
 67
     1
  8
0
 48
4.0
100
AcDbBlockEnd
  0
BLOCK
  5
32
330
2F
100
AcDbEntity
  8
0
100
AcDbBlockBegin
  2
B-DIM
 70
     0
 10
0.0
 20
0.0
 30
0.0
  3
B-DIM
  1

  0
LINE
  5
33
330
2F
100
AcDbEntity
  8
0
 62
     1
100
AcDbLine
 10
0.000000000000091
 20
-1.1
 30
0.0
 11
0.000000000000091
 21
1.1
 31
0.0
  0
LWPOLYLINE
  5
34
330
2F
100
AcDbEntity
  8
0
 62
     1
100
AcDbPolyline
 90
        2
 70
     0
 43
0.3
 10
-0.7071067811864851
 20
-0.7071067811864851
 10
0.707106781186576
 20
0.707106781186576
  0
LINE
  5
35
330
2F
100
AcDbEntity
  8
0
 62
     1
100
AcDbLine
 10
1.20000000000009
 20
0.0
 30
0.0
 11
-1.199999999999909
 21
0.0
 31
0.0
  0
ENDBLK
  5
36
330
2F
100
AcDbEntity
  8
0
100
AcDbBlockEnd
  0
BLOCK
  5
3A0E
330
3A0D
100
AcDbEntity
  8
0
 48
4.0
100
AcDbBlockBegin
  2
*D305
 70
     1
 10
0.0
 20
0.0
 30
0.0
  3
*D305
  1

  0
LINE
  5
3A84
330
3A0D
100
AcDbEntity
  8
0Wymiary-PL
 62
     1
 48
4.0
370
    -2
100
AcDbLine
 10
57968.1914153082
 20
-4829.920487056713
 30
0.0
 11
59178.19141530823
 21
-4829.920487056713
 31
0.0
  0
INSERT
  5
3A85
330
3A0D
100
AcDbEntity
  8
0Wymiary-PL
 62
     1
 48
4.0
370
    -2
100
AcDbBlockReference
  2
B-DIM
 10
57938.1914153082
 20
-4829.920487056713
 30
0.0
 41
30.0
 42
30.0
 43
30.0
 50
180.0
  0
INSERT
  5
3A86
330
3A0D
100
AcDbEntity
  8
0Wymiary-PL
 62
     1
 48
4.0
370
    -2
100
AcDbBlockReference
  2
B-DIM
 10
59208.19141530822
 20
-4829.920487056713
 30
0.0
 41
30.0
 42
30.0
 43
30.0
  0
MTEXT
  5
3A87
330
3A0D
100
AcDbEntity
  8
0Wymiary-PL
 62
   140
 48
4.0
100
AcDbMText
 10
58573.19141530821
 20
-4749.920487056712
 30
0.0
 40
80.0
 41
0.0
 71
     5
 72
     1
  1
\A1;1270
  7
ROMANS
 73
     1
 44
1.0
1001
ACAD
1000
MTEXTBEGIN
1070
    73
1070
     1
1070
    44
1040
1.0
1070
    74
1070
     0
1000
MTEXTEND
  0
POINT
  5
3A88
330
3A0D
100
AcDbEntity
  8
Defpoints
 62
     0
 48
4.0
100
AcDbPoint
 10
57938.1914153082
 20
-4269.920487056713
 30
0.0
  0
POINT
  5
3A89
330
3A0D
100
AcDbEntity
  8
Defpoints
 62
     0
 48
4.0
100
AcDbPoint
 10
59208.19141530822
 20
-4269.920487056713
 30
0.0
  0
POINT
  5
3A8A
330
3A0D
100
AcDbEntity
  8
Defpoints
 62
     0
 48
4.0
100
AcDbPoint
 10
59208.19141530822
 20
-4829.920487056713
 30
0.0
  0
ENDBLK
  5
3A0F
330
3A0D
100
AcDbEntity
  8
0
 48
4.0
100
AcDbBlockEnd
  0
BLOCK
  5
3A20
330
3A1F
100
AcDbEntity
  8
0
 48
4.0
100
AcDbBlockBegin
  2
*D306
 70
     1
 10
0.0
 20
0.0
 30
0.0
  3
*D306
  1

  0
LINE
  5
3A8B
330
3A1F
100
AcDbEntity
  8
0Wymiary-PL
 62
     1
 48
4.0
370
    -2
100
AcDbLine
 10
59178.19141530823
 20
-4829.920487056713
 30
0.0
 11
59148.19141530823
 21
-4829.920487056713
 31
0.0
  0
LINE
  5
3A8C
330
3A1F
100
AcDbEntity
  8
0Wymiary-PL
 62
     1
 48
4.0
370
    -2
100
AcDbLine
 10
59388.19141530649
 20
-4829.920487056713
 30
0.0
 11
59418.1914153065
 21
-4829.920487056713
 31
0.0
  0
LINE
  5
3A8D
330
3A1F
100
AcDbEntity
  8
0Wymiary-PL
 62
     1
 48
4.0
370
    -2
100
AcDbLine
 10
59208.19141530822
 20
-4829.920487056713
 30
0.0
 11
59358.19141530649
 21
-4829.920487056713
 31
0.0
  0
INSERT
  5
3A8E
330
3A1F
100
AcDbEntity
  8
0Wymiary-PL
 62
     1
 48
4.0
370
    -2
100
AcDbBlockReference
  2
B-DIM
 10
59208.19141530822
 20
-4829.920487056713
 30
0.0
 41
30.0
 42
30.0
 43
30.0
  0
INSERT
  5
3A8F
330
3A1F
100
AcDbEntity
  8
0Wymiary-PL
 62
     1
 48
4.0
370
    -2
100
AcDbBlockReference
  2
B-DIM
 10
59358.19141530649
 20
-4829.920487056713
 30
0.0
 41
30.0
 42
30.0
 43
30.0
 50
180.0
  0
MTEXT
  5
3A90
330
3A1F
100
AcDbEntity
  8
0Wymiary-PL
 62
   140
 48
4.0
100
AcDbMText
 10
59283.19141530736
 20
-4749.920487056712
 30
0.0
 40
80.0
 41
0.0
 71
     5
 72
     1
  1
\A1;150
  7
ROMANS
 73
     1
 44
1.0
1001
ACAD
1000
MTEXTBEGIN
1070
    73
1070
     1
1070
    44
1040
1.0
1070
    74
1070
     0
1000
MTEXTEND
  0
POINT
  5
3A91
330
3A1F
100
AcDbEntity
  8
Defpoints
 62
     0
 48
4.0
100
AcDbPoint
 10
59208.19141530822
 20
-4269.920487056713
 30
0.0
  0
POINT
  5
3A92
330
3A1F
100
AcDbEntity
  8
Defpoints
 62
     0
 48
4.0
100
AcDbPoint
 10
59358.19141530649
 20
-3873.702330554925
 30
30.0
  0
POINT
  5
3A93
330
3A1F
100
AcDbEntity
  8
Defpoints
 62
     0
 48
4.0
100
AcDbPoint
 10
59358.19141530649
 20
-4829.920487056713
 30
0.0
  0
ENDBLK
  5
3A21
330
3A1F
100
AcDbEntity
  8
0
 48
4.0
100
AcDbBlockEnd
  0
BLOCK
  5
3A2D
330
3A2C
100
AcDbEntity
  8
0
 48
4.0
100
AcDbBlockBegin
  2
*D307
 70
     1
 10
0.0
 20
0.0
 30
0.0
  3
*D307
  1

  0
LINE
  5
3A94
330
3A2C
100
AcDbEntity
  8
0Wymiary-PL
 62
     1
 48
4.0
370
    -2
100
AcDbLine
 10
57968.1914153082
 20
-5029.920487056713
 30
0.0
 11
59328.19141530822
 21
-5029.920487056713
 31
0.0
  0
INSERT
  5
3A95
330
3A2C
100
AcDbEntity
  8
0Wymiary-PL
 62
     1
 48
4.0
370
    -2
100
AcDbBlockReference
  2
B-DIM
 10
57938.1914153082
 20
-5029.920487056713
 30
0.0
 41
30.0
 42
30.0
 43
30.0
 50
180.0
  0
INSERT
  5
3A96
330
3A2C
100
AcDbEntity
  8
0Wymiary-PL
 62
     1
 48
4.0
370
    -2
100
AcDbBlockReference
  2
B-DIM
 10
59358.19141530823
 20
-5029.920487056713
 30
0.0
 41
30.0
 42
30.0
 43
30.0
  0
MTEXT
  5
3A97
330
3A2C
100
AcDbEntity
  8
0Wymiary-PL
 62
   140
 48
4.0
100
AcDbMText
 10
58648.19141530821
 20
-4949.920487056712
 30
0.0
 40
80.0
 41
0.0
 71
     5
 72
     1
  1
\A1;1420
  7
ROMANS
 73
     1
 44
1.0
1001
ACAD
1000
MTEXTBEGIN
1070
    73
1070
     1
1070
    44
1040
1.0
1070
    74
1070
     0
1000
MTEXTEND
  0
POINT
  5
3A98
330
3A2C
100
AcDbEntity
  8
Defpoints
 62
     0
 48
4.0
100
AcDbPoint
 10
57938.1914153082
 20
-4124.780424582954
 30
0.0
  0
POINT
  5
3A99
330
3A2C
100
AcDbEntity
  8
Defpoints
 62
     0
 48
4.0
100
AcDbPoint
 10
59358.19141530823
 20
-3808.903661721904
 30
0.0
  0
POINT
  5
3A9A
330
3A2C
100
AcDbEntity
  8
Defpoints
 62
     0
 48
4.0
100
AcDbPoint
 10
59358.19141530823
 20
-5029.920487056713
 30
0.0
  0
ENDBLK
  5
3A2E
330
3A2C
100
AcDbEntity
  8
0
 48
4.0
100
AcDbBlockEnd
  0
BLOCK
  5
3A3F
330
3A3E
100
AcDbEntity
  8
0
 48
4.0
100
AcDbBlockBegin
  2
*D308
 70
     1
 10
0.0
 20
0.0
 30
0.0
  3
*D308
  1

  0
LINE
  5
3A9B
330
3A3E
100
AcDbEntity
  8
0Wymiary-PL
 62
     1
 48
4.0
370
    -2
100
AcDbLine
 10
57738.19141530819
 20
-3377.920487056713
 30
0.0
 11
57738.19141530819
 21
-4239.920487056712
 31
0.0
  0
INSERT
  5
3A9C
330
3A3E
100
AcDbEntity
  8
0Wymiary-PL
 62
     1
 48
4.0
370
    -2
100
AcDbBlockReference
  2
B-DIM
 10
57738.19141530819
 20
-3347.920487056713
 30
0.0
 41
30.0
 42
30.0
 43
30.0
 50
90.0
  0
INSERT
  5
3A9D
330
3A3E
100
AcDbEntity
  8
0Wymiary-PL
 62
     1
 48
4.0
370
    -2
100
AcDbBlockReference
  2
B-DIM
 10
57738.19141530819
 20
-4269.920487056713
 30
0.0
 41
30.0
 42
30.0
 43
30.0
 50
270.0
  0
MTEXT
  5
3A9E
330
3A3E
100
AcDbEntity
  8
0Wymiary-PL
 62
   140
 48
4.0
100
AcDbMText
 10
57658.19141530819
 20
-3808.920487056704
 30
0.0
 40
80.0
 41
0.0
 71
     5
 72
     1
  1
\A1;922
  7
ROMANS
 11
0.0000000000000001
 21
1.0
 31
0.0
 73
     1
 44
1.0
1001
ACAD
1000
MTEXTBEGIN
1070
    73
1070
     1
1070
    44
1040
1.0
1070
    74
1070
     0
1000
MTEXTEND
  0
POINT
  5
3A9F
330
3A3E
100
AcDbEntity
  8
Defpoints
 62
     0
 48
4.0
100
AcDbPoint
 10
57938.1914153082
 20
-3347.920487056713
 30
0.0
  0
POINT
  5
3AA0
330
3A3E
100
AcDbEntity
  8
Defpoints
 62
     0
 48
4.0
100
AcDbPoint
 10
57738.19141530819
 20
-4269.920487056713
 30
0.0
  0
POINT
  5
3AA1
330
3A3E
100
AcDbEntity
  8
Defpoints
 62
     0
 48
4.0
100
AcDbPoint
 10
57738.19141530819
 20
-4269.920487056713
 30
0.0
  0
ENDBLK
  5
3A40
330
3A3E
100
AcDbEntity
  8
0
 48
4.0
100
AcDbBlockEnd
  0
BLOCK
  5
3B53
330
3B52
100
AcDbEntity
  8
0
 48
4.0
100
AcDbBlockBegin
  2
*D311
 70
     1
 10
0.0
 20
0.0
 30
0.0
  3
*D311
  1

  0
LINE
  5
3B7C
330
3B52
100
AcDbEntity
  8
0Wymiary-PL
 62
     1
 48
4.0
370
    -2
100
AcDbLine
 10
64367.78250486749
 20
-4829.920487056713
 30
0.0
 11
63157.78250486746
 21
-4829.920487056713
 31
0.0
  0
INSERT
  5
3B7D
330
3B52
100
AcDbEntity
  8
0Wymiary-PL
 62
     1
 48
4.0
370
    -2
100
AcDbBlockReference
  2
B-DIM
 10
64397.7825048675
 20
-4829.920487056713
 30
0.0
 41
30.0
 42
30.0
 43
30.0
  0
INSERT
  5
3B7E
330
3B52
100
AcDbEntity
  8
0Wymiary-PL
 62
     1
 48
4.0
370
    -2
100
AcDbBlockReference
  2
B-DIM
 10
63127.78250486746
 20
-4829.920487056713
 30
0.0
 41
30.0
 42
30.0
 43
30.0
 50
180.0
  0
MTEXT
  5
3B7F
330
3B52
100
AcDbEntity
  8
0Wymiary-PL
 62
   140
 48
4.0
100
AcDbMText
 10
63762.78250486747
 20
-4749.920487056712
 30
0.0
 40
80.0
 41
0.0
 71
     5
 72
     1
  1
\A1;1270
  7
ROMANS
 73
     1
 44
1.0
1001
ACAD
1000
MTEXTBEGIN
1070
    73
1070
     1
1070
    44
1040
1.0
1070
    74
1070
     0
1000
MTEXTEND
  0
POINT
  5
3B80
330
3B52
100
AcDbEntity
  8
Defpoints
 62
     0
 48
4.0
100
AcDbPoint
 10
64397.7825048675
 20
-4269.920487056713
 30
0.0
  0
POINT
  5
3B81
330
3B52
100
AcDbEntity
  8
Defpoints
 62
     0
 48
4.0
100
AcDbPoint
 10
63127.78250486746
 20
-4269.920487056713
 30
0.0
  0
POINT
  5
3B82
330
3B52
100
AcDbEntity
  8
Defpoints
 62
     0
 48
4.0
100
AcDbPoint
 10
63127.78250486746
 20
-4829.920487056713
 30
0.0
  0
ENDBLK
  5
3B54
330
3B52
100
AcDbEntity
  8
0
 48
4.0
100
AcDbBlockEnd
  0
BLOCK
  5
3B5D
330
3B5C
100
AcDbEntity
  8
0
 48
4.0
100
AcDbBlockBegin
  2
*D312
 70
     1
 10
0.0
 20
0.0
 30
0.0
  3
*D312
  1

  0
LINE
  5
3B83
330
3B5C
100
AcDbEntity
  8
0Wymiary-PL
 62
     1
 48
4.0
370
    -2
100
AcDbLine
 10
63157.78250486746
 20
-4829.920487056713
 30
0.0
 11
63187.78250486746
 21
-4829.920487056713
 31
0.0
  0
LINE
  5
3B84
330
3B5C
100
AcDbEntity
  8
0Wymiary-PL
 62
     1
 48
4.0
370
    -2
100
AcDbLine
 10
62947.7825048692
 20
-4829.920487056713
 30
0.0
 11
62917.78250486919
 21
-4829.920487056713
 31
0.0
  0
LINE
  5
3B85
330
3B5C
100
AcDbEntity
  8
0Wymiary-PL
 62
     1
 48
4.0
370
    -2
100
AcDbLine
 10
63127.78250486746
 20
-4829.920487056713
 30
0.0
 11
62977.7825048692
 21
-4829.920487056713
 31
0.0
  0
INSERT
  5
3B86
330
3B5C
100
AcDbEntity
  8
0Wymiary-PL
 62
     1
 48
4.0
370
    -2
100
AcDbBlockReference
  2
B-DIM
 10
63127.78250486746
 20
-4829.920487056713
 30
0.0
 41
30.0
 42
30.0
 43
30.0
 50
180.0
  0
INSERT
  5
3B87
330
3B5C
100
AcDbEntity
  8
0Wymiary-PL
 62
     1
 48
4.0
370
    -2
100
AcDbBlockReference
  2
B-DIM
 10
62977.7825048692
 20
-4829.920487056713
 30
0.0
 41
30.0
 42
30.0
 43
30.0
  0
MTEXT
  5
3B88
330
3B5C
100
AcDbEntity
  8
0Wymiary-PL
 62
   140
 48
4.0
100
AcDbMText
 10
63052.78250486833
 20
-4749.920487056712
 30
0.0
 40
80.0
 41
0.0
 71
     5
 72
     1
  1
\A1;150
  7
ROMANS
 73
     1
 44
1.0
1001
ACAD
1000
MTEXTBEGIN
1070
    73
1070
     1
1070
    44
1040
1.0
1070
    74
1070
     0
1000
MTEXTEND
  0
POINT
  5
3B89
330
3B5C
100
AcDbEntity
  8
Defpoints
 62
     0
 48
4.0
100
AcDbPoint
 10
63127.78250486746
 20
-4269.920487056713
 30
0.0
  0
POINT
  5
3B8A
330
3B5C
100
AcDbEntity
  8
Defpoints
 62
     0
 48
4.0
100
AcDbPoint
 10
62977.7825048692
 20
-3873.702330554925
 30
30.0
  0
POINT
  5
3B8B
330
3B5C
100
AcDbEntity
  8
Defpoints
 62
     0
 48
4.0
100
AcDbPoint
 10
62977.7825048692
 20
-4829.920487056713
 30
0.0
  0
ENDBLK
  5
3B5E
330
3B5C
100
AcDbEntity
  8
0
 48
4.0
100
AcDbBlockEnd
  0
BLOCK
  5
3B69
330
3B68
100
AcDbEntity
  8
0
 48
4.0
100
AcDbBlockBegin
  2
*D313
 70
     1
 10
0.0
 20
0.0
 30
0.0
  3
*D313
  1

  0
LINE
  5
3B8C
330
3B68
100
AcDbEntity
  8
0Wymiary-PL
 62
     1
 48
4.0
370
    -2
100
AcDbLine
 10
64367.78250486749
 20
-5029.920487056713
 30
0.0
 11
63007.78250486747
 21
-5029.920487056713
 31
0.0
  0
INSERT
  5
3B8D
330
3B68
100
AcDbEntity
  8
0Wymiary-PL
 62
     1
 48
4.0
370
    -2
100
AcDbBlockReference
  2
B-DIM
 10
64397.7825048675
 20
-5029.920487056713
 30
0.0
 41
30.0
 42
30.0
 43
30.0
  0
INSERT
  5
3B8E
330
3B68
100
AcDbEntity
  8
0Wymiary-PL
 62
     1
 48
4.0
370
    -2
100
AcDbBlockReference
  2
B-DIM
 10
62977.78250486746
 20
-5029.920487056713
 30
0.0
 41
30.0
 42
30.0
 43
30.0
 50
180.0
  0
MTEXT
  5
3B8F
330
3B68
100
AcDbEntity
  8
0Wymiary-PL
 62
   140
 48
4.0
100
AcDbMText
 10
63687.78250486748
 20
-4949.920487056712
 30
0.0
 40
80.0
 41
0.0
 71
     5
 72
     1
  1
\A1;1420
  7
ROMANS
 73
     1
 44
1.0
1001
ACAD
1000
MTEXTBEGIN
1070
    73
1070
     1
1070
    44
1040
1.0
1070
    74
1070
     0
1000
MTEXTEND
  0
POINT
  5
3B90
330
3B68
100
AcDbEntity
  8
Defpoints
 62
     0
 48
4.0
100
AcDbPoint
 10
64397.7825048675
 20
-4124.780424582954
 30
0.0
  0
POINT
  5
3B91
330
3B68
100
AcDbEntity
  8
Defpoints
 62
     0
 48
4.0
100
AcDbPoint
 10
62977.78250486746
 20
-3808.903661721904
 30
0.0
  0
POINT
  5
3B92
330
3B68
100
AcDbEntity
  8
Defpoints
 62
     0
 48
4.0
100
AcDbPoint
 10
62977.78250486746
 20
-5029.920487056713
 30
0.0
  0
ENDBLK
  5
3B6A
330
3B68
100
AcDbEntity
  8
0
 48
4.0
100
AcDbBlockEnd
  0
BLOCK
  5
3B73
330
3B72
100
AcDbEntity
  8
0
 48
4.0
100
AcDbBlockBegin
  2
*D314
 70
     1
 10
0.0
 20
0.0
 30
0.0
  3
*D314
  1

  0
LINE
  5
3B93
330
3B72
100
AcDbEntity
  8
0Wymiary-PL
 62
     1
 48
4.0
370
    -2
100
AcDbLine
 10
64597.78250486749
 20
-3377.920487056714
 30
0.0
 11
64597.78250486749
 21
-4239.920487056712
 31
0.0
  0
INSERT
  5
3B94
330
3B72
100
AcDbEntity
  8
0Wymiary-PL
 62
     1
 48
4.0
370
    -2
100
AcDbBlockReference
  2
B-DIM
 10
64597.78250486749
 20
-3347.920487056713
 30
0.0
 41
30.0
 42
30.0
 43
30.0
 50
90.0
  0
INSERT
  5
3B95
330
3B72
100
AcDbEntity
  8
0Wymiary-PL
 62
     1
 48
4.0
370
    -2
100
AcDbBlockReference
  2
B-DIM
 10
64597.78250486749
 20
-4269.920487056713
 30
0.0
 41
30.0
 42
30.0
 43
30.0
 50
270.0
  0
MTEXT
  5
3B96
330
3B72
100
AcDbEntity
  8
0Wymiary-PL
 62
   140
 48
4.0
100
AcDbMText
 10
64517.78250486749
 20
-3808.920487056703
 30
0.0
 40
80.0
 41
0.0
 71
     5
 72
     1
  1
\A1;922
  7
ROMANS
 11
0.0000000000000001
 21
1.0
 31
0.0
 73
     1
 44
1.0
1001
ACAD
1000
MTEXTBEGIN
1070
    73
1070
     1
1070
    44
1040
1.0
1070
    74
1070
     0
1000
MTEXTEND
  0
POINT
  5
3B97
330
3B72
100
AcDbEntity
  8
Defpoints
 62
     0
 48
4.0
100
AcDbPoint
 10
64397.7825048675
 20
-3347.920487056713
 30
0.0
  0
POINT
  5
3B98
330
3B72
100
AcDbEntity
  8
Defpoints
 62
     0
 48
4.0
100
AcDbPoint
 10
64597.78250486749
 20
-4269.920487056713
 30
0.0
  0
POINT
  5
3B99
330
3B72
100
AcDbEntity
  8
Defpoints
 62
     0
 48
4.0
100
AcDbPoint
 10
64597.78250486749
 20
-4269.920487056713
 30
0.0
  0
ENDBLK
  5
3B74
330
3B72
100
AcDbEntity
  8
0
 48
4.0
100
AcDbBlockEnd
  0
ENDSEC
  0
SECTION
  2
ENTITIES
  0
LWPOLYLINE
  5
1A8A
330
2
100
AcDbEntity
  8
RAMKI-A4
100
AcDbPolyline
 90
        4
 70
     1
 43
0.0
 10
55955.29776981013
 20
-12830.40384687605
 10
55955.29776981013
 20
1189.596153123944
 10
66155.29776981015
 20
1189.596153123944
 10
66155.29776981015
 20
-12830.40384687605
  0
TEXT
  5
1A8B
330
2
100
AcDbEntity
  8
NAPISY
100
AcDbText
 10
57414.64971648511
 20
-12164.84776397352
 30
0.0
 40
100.0
  1
   O B R Y S   B U D Y N K U           S K A L A   1 : 5 0 0 
  7
AVA
100
AcDbText
  0
TEXT
  5
1A9E
330
2
100
AcDbEntity
  8
NAPISY
100
AcDbText
 10
57510.86276760301
 20
298.5174969083455
 30
0.0
 40
150.0
  1
MOŻNA WKLEIĆ DO PROJEKTU ZAGOSPODAROWANIA TERENU
  7
AVA
100
AcDbText
  0
TEXT
  5
1AA0
330
2
100
AcDbEntity
  8
NAPISY
100
AcDbText
 10
61108.46578309452
 20
-5735.609631506609
 30
0.0
 40
100.0
  1
OŚ ODBICIA LUSTRZANEGO
 50
90.0
  7
AVA
100
AcDbText
  0
LINE
  5
1AA1
330
2
100
AcDbEntity
  8
NAPISY
  6
DASHED
 62
     1
 48
25.0
370
     5
100
AcDbLine
 10
61167.98696008785
 20
-6817.256794327143
 30
0.0
 11
61167.98696008785
 21
-2014.79973684976
 31
0.0
  0
TEXT
  5
1AA2
330
2
100
AcDbEntity
  8
NAPISY
100
AcDbText
 10
57434.52749696787
 20
628.3859742711065
 30
0.0
 40
150.0
  1
"DOM W GLICYNIACH 2"
  7
AVA
100
AcDbText
  0
HATCH
  5
1D41
330
2
100
AcDbEntity
  8
0Hatch
100
AcDbHatch
 10
0.0
 20
0.0
 30
0.0
210
0.0
220
0.0
230
1.0
  2
SOLID
 70
     1
 71
     0
 91
        2
 92
        7
 72
     1
 73
     1
 93
        2
 10
58409.69141530822
 20
-4366.053816708991
 42
1.0
 10
58444.69141530822
 20
-4366.053816708991
 42
1.0
 97
        0
 92
        7
 72
     1
 73
     1
 93
        2
 10
58736.69141530823
 20
-4366.053816708991
 42
1.0
 10
58701.69141530822
 20
-4366.053816708991
 42
1.0
 97
        0
 75
     0
 76
     1
 47
0.4559588268049091
 98
        2
 10
58429.17067161281
 20
-4361.271839826216
 10
58719.76428922257
 20
-4368.567158322425
  0
LINE
  5
1D42
330
2
100
AcDbEntity
  8
TEREN$0$A-MassElement-G
  6
Continuous
 62
   210
370
     5
100
AcDbLine
 10
59543.19141530822
 20
-3587.526566915004
 30
0.0
 11
59543.19141530822
 21
-3612.526566915004
 31
0.0
  0
LINE
  5
1D43
330
2
100
AcDbEntity
  8
TEREN$0$A-MassElement-G
  6
Continuous
 62
   210
370
     5
100
AcDbLine
 10
59603.19141530822
 20
-3587.526566915004
 30
0.0
 11
59543.19141530822
 21
-3587.526566915004
 31
0.0
  0
LINE
  5
1D44
330
2
100
AcDbEntity
  8
TEREN$0$A-MassElement-G
  6
Continuous
 62
   210
370
     5
100
AcDbLine
 10
59603.19141530822
 20
-3612.526566915004
 30
0.0
 11
59603.19141530822
 21
-3587.526566915004
 31
0.0
  0
LINE
  5
1D45
330
2
100
AcDbEntity
  8
TEREN$0$A-MassElement-G
  6
Continuous
 62
   210
370
     5
100
AcDbLine
 10
59543.19141530822
 20
-3385.526566915004
 30
0.0
 11
59543.19141530822
 21
-3360.526566915004
 31
0.0
  0
LINE
  5
1D46
330
2
100
AcDbEntity
  8
TEREN$0$A-MassElement-G
  6
Continuous
 62
   210
370
     5
100
AcDbLine
 10
59603.19141530822
 20
-3385.526566915004
 30
0.0
 11
59543.19141530822
 21
-3385.526566915004
 31
0.0
  0
LINE
  5
1D47
330
2
100
AcDbEntity
  8
TEREN$0$A-MassElement-G
  6
Continuous
 62
   210
370
     5
100
AcDbLine
 10
59603.19141530822
 20
-3360.526566915004
 30
0.0
 11
59603.19141530822
 21
-3385.526566915004
 31
0.0
  0
LINE
  5
1D48
330
2
100
AcDbEntity
  8
TEREN$0$A-MassElement-G
  6
Continuous
 62
   210
370
     5
100
AcDbLine
 10
59573.19141530822
 20
-3587.526566915004
 30
0.0
 11
59603.19141530822
 21
-3587.526566915004
 31
0.0
  0
LINE
  5
1D49
330
2
100
AcDbEntity
  8
TEREN$0$A-MassElement-G
  6
Continuous
 62
   210
370
     5
100
AcDbLine
 10
59573.19141530822
 20
-3385.526566915004
 30
0.0
 11
59573.19141530822
 21
-3587.526566915004
 31
0.0
  0
LINE
  5
1D4A
330
2
100
AcDbEntity
  8
TEREN$0$A-MassElement-G
  6
Continuous
 62
   210
370
     5
100
AcDbLine
 10
59603.19141530822
 20
-3385.526566915004
 30
0.0
 11
59573.19141530822
 21
-3385.526566915004
 31
0.0
  0
LINE
  5
1D4B
330
2
100
AcDbEntity
  8
TEREN$0$A-MassElement-G
  6
Continuous
 62
   210
370
     5
100
AcDbLine
 10
59603.19141530822
 20
-3587.526566915004
 30
0.0
 11
59603.19141530822
 21
-3385.526566915004
 31
0.0
  0
LINE
  5
1D4C
330
2
100
AcDbEntity
  8
TEREN$0$A-MassElement-G
  6
Continuous
 62
   210
370
     5
100
AcDbLine
 10
59543.19141530822
 20
-3587.526566915004
 30
15.0
 11
59573.19141530822
 21
-3587.526566915004
 31
15.0
  0
LINE
  5
1D4D
330
2
100
AcDbEntity
  8
TEREN$0$A-MassElement-G
  6
Continuous
 62
   210
370
     5
100
AcDbLine
 10
59543.19141530822
 20
-3385.526566915004
 30
15.0
 11
59543.19141530822
 21
-3587.526566915004
 31
15.0
  0
LINE
  5
1D4E
330
2
100
AcDbEntity
  8
TEREN$0$A-MassElement-G
  6
Continuous
 62
   210
370
     5
100
AcDbLine
 10
59573.19141530822
 20
-3385.526566915004
 30
15.0
 11
59543.19141530822
 21
-3385.526566915004
 31
15.0
  0
LINE
  5
1D4F
330
2
100
AcDbEntity
  8
TEREN$0$A-MassElement-G
  6
Continuous
 62
   210
370
     5
100
AcDbLine
 10
59573.19141530822
 20
-3587.526566915004
 30
15.0
 11
59573.19141530822
 21
-3385.526566915004
 31
15.0
  0
ARC
  5
1D50
330
2
100
AcDbEntity
  8
TEREN$0$A-MassElement-G
  6
Continuous
 62
   210
370
     5
100
AcDbCircle
 10
59334.2492646273
 20
-3666.005543487839
 30
30.0
 40
209.0721931227009
100
AcDbArc
 50
276.5757203384196
 51
2.020945324004347
  0
ARC
  5
1D51
330
2
100
AcDbEntity
  8
TEREN$0$A-MassElement-G
  6
Continuous
 62
   210
370
     5
100
AcDbCircle
 10
59313.19141530822
 20
-3314.420487056713
 30
30.0
 40
229.9999999999998
100
AcDbArc
 50
0.0
 51
90.0
  0
LINE
  5
1D52
330
2
100
AcDbEntity
  8
TEREN$0$A-MassElement-G
  6
Continuous
 62
   210
370
     5
100
AcDbLine
 10
59543.19141530822
 20
-3658.632646773325
 30
30.0
 11
59543.19141530822
 21
-3314.420487056713
 31
30.0
  0
LINE
  5
1D53
330
2
100
AcDbEntity
  8
TEREN$0$A-MassElement-G
  6
Continuous
 62
   210
370
     5
100
AcDbLine
 10
58607.39985045433
 20
-3054.420487056713
 30
0.0
 11
58607.39985045433
 21
-3024.420487056713
 31
0.0
  0
LINE
  5
1D54
330
2
100
AcDbEntity
  8
TEREN$0$A-MassElement-G
  6
Continuous
 62
   210
370
     5
100
AcDbLine
 10
58757.39985045433
 20
-3054.420487056713
 30
0.0
 11
58607.39985045433
 21
-3054.420487056713
 31
0.0
  0
LINE
  5
1D55
330
2
100
AcDbEntity
  8
TEREN$0$A-MassElement-G
  6
Continuous
 62
   210
370
     5
100
AcDbLine
 10
58757.39985045433
 20
-3024.420487056713
 30
0.0
 11
58757.39985045433
 21
-3054.420487056713
 31
0.0
  0
LINE
  5
1D56
330
2
100
AcDbEntity
  8
TEREN$0$A-MassElement-G
  6
Continuous
 62
   210
370
     5
100
AcDbLine
 10
58607.39985045433
 20
-3024.420487056713
 30
0.0
 11
58757.39985045433
 21
-3024.420487056713
 31
0.0
  0
LINE
  5
1D57
330
2
100
AcDbEntity
  8
TEREN$0$A-MassElement-G
  6
Continuous
 62
   210
370
     5
100
AcDbLine
 10
58757.39985045433
 20
-3084.420487056713
 30
0.0
 11
58782.39985045433
 21
-3084.420487056713
 31
0.0
  0
LINE
  5
1D58
330
2
100
AcDbEntity
  8
TEREN$0$A-MassElement-G
  6
Continuous
 62
   210
370
     5
100
AcDbLine
 10
58757.39985045433
 20
-3024.420487056713
 30
0.0
 11
58757.39985045433
 21
-3084.420487056713
 31
0.0
  0
LINE
  5
1D59
330
2
100
AcDbEntity
  8
TEREN$0$A-MassElement-G
  6
Continuous
 62
   210
370
     5
100
AcDbLine
 10
58782.39985045433
 20
-3024.420487056713
 30
0.0
 11
58757.39985045433
 21
-3024.420487056713
 31
0.0
  0
LINE
  5
1D5A
330
2
100
AcDbEntity
  8
TEREN$0$A-MassElement-G
  6
Continuous
 62
   210
370
     5
100
AcDbLine
 10
58607.39985045433
 20
-3084.420487056713
 30
0.0
 11
58582.39985045433
 21
-3084.420487056713
 31
0.0
  0
LINE
  5
1D5B
330
2
100
AcDbEntity
  8
TEREN$0$A-MassElement-G
  6
Continuous
 62
   210
370
     5
100
AcDbLine
 10
58607.39985045433
 20
-3024.420487056713
 30
0.0
 11
58607.39985045433
 21
-3084.420487056713
 31
0.0
  0
LINE
  5
1D5C
330
2
100
AcDbEntity
  8
TEREN$0$A-MassElement-G
  6
Continuous
 62
   210
370
     5
100
AcDbLine
 10
58582.39985045433
 20
-3024.420487056713
 30
0.0
 11
58607.39985045433
 21
-3024.420487056713
 31
0.0
  0
LINE
  5
1D5D
330
2
100
AcDbEntity
  8
TEREN$0$A-MassElement-G
  6
Continuous
 62
   210
370
     5
100
AcDbLine
 10
58607.39985045433
 20
-3084.420487056713
 30
15.0
 11
58607.39985045433
 21
-3054.420487056713
 31
15.0
  0
LINE
  5
1D5E
330
2
100
AcDbEntity
  8
TEREN$0$A-MassElement-G
  6
Continuous
 62
   210
370
     5
100
AcDbLine
 10
58757.39985045433
 20
-3084.420487056713
 30
15.0
 11
58607.39985045433
 21
-3084.420487056713
 31
15.0
  0
LINE
  5
1D5F
330
2
100
AcDbEntity
  8
TEREN$0$A-MassElement-G
  6
Continuous
 62
   210
370
     5
100
AcDbLine
 10
58757.39985045433
 20
-3054.420487056713
 30
15.0
 11
58757.39985045433
 21
-3084.420487056713
 31
15.0
  0
LINE
  5
1D60
330
2
100
AcDbEntity
  8
TEREN$0$A-MassElement-G
  6
Continuous
 62
   210
370
     5
100
AcDbLine
 10
58607.39985045433
 20
-3054.420487056713
 30
15.0
 11
58757.39985045433
 21
-3054.420487056713
 31
15.0
  0
LINE
  5
1D61
330
2
100
AcDbEntity
  8
TEREN$0$A-MassElement-G
  6
Continuous
 62
   210
370
     5
100
AcDbLine
 10
59313.19141530822
 20
-3084.420487056713
 30
30.0
 11
58333.19141530822
 21
-3084.420487056713
 31
30.0
  0
LINE
  5
1D62
330
2
100
AcDbEntity
  8
TEREN$0$A-MassElement-G
  6
Continuous
 62
   210
370
     5
100
AcDbLine
 10
58333.19141530822
 20
-3084.420487056713
 30
30.0
 11
58333.19141530822
 21
-3347.920487056713
 31
30.0
  0
LINE
  5
1D63
330
2
100
AcDbEntity
  8
TEREN$0$A-MassElement-G
  6
Continuous
 62
   210
370
     5
100
AcDbLine
 10
57938.1914153082
 20
-4269.920487056713
 30
0.0
 11
57938.1914153082
 21
-4369.920487056712
 31
0.0
  0
3DFACE
  5
1D64
330
2
100
AcDbEntity
  8
TEREN$0$A-MassElement-G
  6
Continuous
 62
   210
370
     5
100
AcDbFace
 10
57938.1913899082
 20
-4629.920487056713
 30
0.0000000000000142
 11
57938.1913899082
 21
-4369.920461656723
 31
33.00000000000133
 12
57938.1913899082
 22
-4369.920461656723
 32
0.0000000000000142
 13
57938.1913899082
 23
-4369.920461656723
 33
0.0000000000000142
  0
3DFACE
  5
1D65
330
2
100
AcDbEntity
  8
TEREN$0$A-MassElement-G
  6
Continuous
 62
   210
370
     5
100
AcDbFace
 10
58289.98562652414
 20
-4486.919972441793
 30
0.0
 11
58286.12175334109
 21
-4489.920487056712
 31
0.0
 12
58286.12175334109
 22
-4489.920487056712
 32
41.42811073385985
 13
58289.98562652414
 23
-4486.919972441793
 33
43.14270203315738
  0
3DFACE
  5
1D66
330
2
100
AcDbEntity
  8
TEREN$0$A-MassElement-G
  6
Continuous
 62
   210
370
     5
100
AcDbFace
 10
58286.12175334109
 20
-4489.920487056712
 30
0.0
 11
58298.18348135139
 21
-4505.874004455888
 31
0.0
 12
58298.18348135139
 22
-4505.874004455888
 32
32.31175382968556
 13
58286.12175334109
 23
-4489.920487056712
 33
41.42811073385985
  0
3DFACE
  5
1D67
330
2
100
AcDbEntity
  8
TEREN$0$A-MassElement-G
  6
Continuous
 62
   210
370
     5
100
AcDbFace
 10
58298.18348135139
 20
-4505.874004455888
 30
0.0
 11
58320.05972631806
 21
-4486.860228873026
 31
0.0
 12
58320.05972631806
 22
-4486.860228873026
 32
43.17684144467043
 13
58298.18348135139
 23
-4505.874004455888
 33
32.31175382968556
  0
3DFACE
  5
1D68
330
2
100
AcDbEntity
  8
TEREN$0$A-MassElement-G
  6
Continuous
 62
   210
370
     5
100
AcDbFace
 10
57938.1913899082
 20
-4629.920487056713
 30
0.0000000000000142
 11
58288.62130347759
 21
-4629.91941076793
 31
0.0002138955267057
 12
58288.62130347759
 22
-4489.920514410559
 32
17.76930285114232
 13
58288.62130347759
 23
-4489.920514410559
 33
17.76930285114232
 70
    12
  0
3DFACE
  5
1D69
330
2
100
AcDbEntity
  8
TEREN$0$A-MassElement-G
  6
Continuous
 62
   210
370
     5
100
AcDbFace
 10
58288.62130347759
 20
-4489.920514410559
 30
0.0000000000000142
 11
58288.62130347759
 21
-4489.920514410559
 31
17.76930285114232
 12
58288.62130347759
 22
-4629.920487056713
 32
0.0000000000000142
 13
58288.62130347759
 23
-4629.920487056713
 33
0.0000000000000142
 70
     2
  0
3DFACE
  5
1D6A
330
2
100
AcDbEntity
  8
TEREN$0$A-MassElement-G
  6
Continuous
 62
   210
370
     5
100
AcDbFace
 10
58288.62130347759
 20
-4629.920487056713
 30
0.0000276147944476
 11
58288.62130347759
 21
-4629.920487056713
 31
0.0000000000000142
 12
58288.62130347759
 22
-4489.920514410559
 32
17.76930285114232
 13
58288.62130347759
 23
-4629.91941076793
 33
0.0002138955267057
 70
     2
  0
3DFACE
  5
1D6B
330
2
100
AcDbEntity
  8
TEREN$0$A-MassElement-G
  6
Continuous
 62
   210
370
     5
100
AcDbFace
 10
58303.85808749352
 20
-4475.899956321832
 30
0.0000000000000142
 11
58303.85808749352
 21
-4475.899956321832
 31
19.54883841067024
 12
58292.35209285762
 22
-4486.920000381906
 32
18.15013810965751
 13
58292.35209285762
 23
-4486.920000381906
 33
0.0000000000000142
  0
3DFACE
  5
1D6C
330
2
100
AcDbEntity
  8
TEREN$0$A-MassElement-G
  6
Continuous
 62
   210
370
     5
100
AcDbFace
 10
58292.35209285762
 20
-4486.920000381906
 30
0.0000000000000142
 11
58292.35209285762
 21
-4486.920000381906
 31
18.15013810965751
 12
58288.62130347759
 22
-4489.920514410559
 32
17.76930285114232
 13
58288.62130347759
 23
-4489.920514410559
 33
0.0000000000000142
  0
3DFACE
  5
1D6D
330
2
100
AcDbEntity
  8
TEREN$0$A-MassElement-G
  6
Continuous
 62
   210
370
     5
100
AcDbFace
 10
58288.62130347759
 20
-4629.91941076793
 30
0.0002138955267057
 11
57938.1913899082
 21
-4629.920487056713
 31
0.0000000000000142
 12
58288.62130347759
 22
-4629.920487056713
 32
0.0000276147944476
 13
58288.62130347759
 23
-4629.920487056713
 33
0.0000276147944476
  0
3DFACE
  5
1D6E
330
2
100
AcDbEntity
  8
TEREN$0$A-MassElement-G
  6
Continuous
 62
   210
370
     5
100
AcDbFace
 10
58288.62130347759
 20
-4629.920487056713
 30
0.0000276147944476
 11
57938.1913899082
 21
-4629.920487056713
 31
0.0000000000000142
 12
58288.62130347759
 22
-4629.920487056713
 32
0.0000000000000142
 13
58288.62130347759
 23
-4629.920487056713
 33
0.0000000000000142
  0
3DFACE
  5
1D6F
330
2
100
AcDbEntity
  8
TEREN$0$A-MassElement-G
  6
Continuous
 62
   210
370
     5
100
AcDbFace
 10
57938.1913899082
 20
-4629.920487056713
 30
0.0000000000000142
 11
57938.1913899082
 21
-4369.920461656723
 31
0.0000000000000142
 12
58288.62130347759
 22
-4489.920514410559
 32
0.0000000000000142
 13
58288.62130347759
 23
-4629.920487056713
 33
0.0000000000000142
 70
     2
  0
3DFACE
  5
1D70
330
2
100
AcDbEntity
  8
TEREN$0$A-MassElement-G
  6
Continuous
 62
   210
370
     5
100
AcDbFace
 10
58298.18348135139
 20
-4505.874004455888
 30
0.0
 11
58286.12175334109
 21
-4489.920487056712
 31
0.0
 12
58289.98562652414
 22
-4486.919972441793
 32
0.0
 13
58289.98562652414
 23
-4486.919972441793
 33
0.0
 70
    12
  0
3DFACE
  5
1D71
330
2
100
AcDbEntity
  8
TEREN$0$A-MassElement-G
  6
Continuous
 62
   210
370
     5
100
AcDbFace
 10
58298.18348135139
 20
-4505.874004455888
 30
32.31175382968556
 11
58320.05972631806
 21
-4486.860228873026
 31
43.17684144467043
 12
58289.98562652414
 22
-4486.919972441793
 32
43.14270203315738
 13
58286.12175334109
 23
-4489.920487056712
 33
41.42811073385985
 70
     2
  0
3DFACE
  5
1D72
330
2
100
AcDbEntity
  8
TEREN$0$A-MassElement-G
  6
Continuous
 62
   210
370
     5
100
AcDbFace
 10
58345.86821115594
 20
-4455.412499107995
 30
61.1470934706658
 11
58289.98562652414
 21
-4486.919972441793
 31
43.14270203315738
 12
58320.05972631806
 22
-4486.860228873026
 32
43.17684144467043
 13
58320.05972631806
 23
-4486.860228873026
 33
43.17684144467043
 70
     3
  0
3DFACE
  5
1D73
330
2
100
AcDbEntity
  8
TEREN$0$A-MassElement-G
  6
Continuous
 62
   210
370
     5
100
AcDbFace
 10
58289.98562652414
 20
-4486.919972441793
 30
43.14270203315738
 11
58345.86821115594
 21
-4455.412499107995
 31
61.1470934706658
 12
58365.04564546788
 22
-4419.53404303459
 32
81.64920611155073
 13
58319.97141973413
 23
-4456.934179231809
 33
60.27755612943032
 70
     5
  0
3DFACE
  5
1D74
330
2
100
AcDbEntity
  8
TEREN$0$A-MassElement-G
  6
Continuous
 62
   210
370
     5
100
AcDbFace
 10
58358.69141530822
 20
-4370.106958636077
 30
0.0
 11
58356.53885787615
 21
-4381.001111512065
 31
0.0
 12
58356.53885787615
 22
-4381.001111512065
 32
103.668172057074
 13
58358.69141530822
 23
-4370.106958636077
 33
109.8934440959014
  0
3DFACE
  5
1D75
330
2
100
AcDbEntity
  8
TEREN$0$A-MassElement-G
  6
Continuous
 62
   210
370
     5
100
AcDbFace
 10
58356.53885787615
 20
-4381.001111512065
 30
0.0
 11
58342.53293979297
 21
-4421.027725751971
 31
0.0
 12
58342.53293979297
 22
-4421.027725751971
 32
80.79566739575751
 13
58356.53885787615
 23
-4381.001111512065
 33
103.668172057074
  0
3DFACE
  5
1D76
330
2
100
AcDbEntity
  8
TEREN$0$A-MassElement-G
  6
Continuous
 62
   210
370
     5
100
AcDbFace
 10
58342.53293979297
 20
-4421.027725751971
 30
0.0
 11
58319.97141973413
 21
-4456.934179231809
 31
0.0
 12
58319.97141973413
 22
-4456.934179231809
 32
60.27755612943032
 13
58342.53293979297
 23
-4421.027725751971
 33
80.79566739575751
  0
3DFACE
  5
1D77
330
2
100
AcDbEntity
  8
TEREN$0$A-MassElement-G
  6
Continuous
 62
   210
370
     5
100
AcDbFace
 10
58319.97141973413
 20
-4456.934179231809
 30
0.0
 11
58289.98562652414
 21
-4486.919972441793
 31
0.0
 12
58289.98562652414
 22
-4486.919972441793
 32
43.14270203315738
 13
58319.97141973413
 23
-4456.934179231809
 33
60.27755612943032
  0
3DFACE
  5
1D78
330
2
100
AcDbEntity
  8
TEREN$0$A-MassElement-G
  6
Continuous
 62
   210
370
     5
100
AcDbFace
 10
58320.05972631806
 20
-4486.860228873026
 30
0.0
 11
58345.86821115594
 21
-4455.412499107995
 31
0.0
 12
58345.86821115594
 22
-4455.412499107995
 32
61.1470934706658
 13
58320.05972631806
 23
-4486.860228873026
 33
43.17684144467043
  0
3DFACE
  5
1D79
330
2
100
AcDbEntity
  8
TEREN$0$A-MassElement-G
  6
Continuous
 62
   210
370
     5
100
AcDbFace
 10
58345.86821115594
 20
-4455.412499107995
 30
0.0
 11
58365.04564546788
 21
-4419.53404303459
 31
0.0
 12
58365.04564546788
 22
-4419.53404303459
 32
81.64920611155073
 13
58345.86821115594
 23
-4455.412499107995
 33
61.1470934706658
  0
3DFACE
  5
1D7A
330
2
100
AcDbEntity
  8
TEREN$0$A-MassElement-G
  6
Continuous
 62
   210
370
     5
100
AcDbFace
 10
58365.04564546788
 20
-4419.53404303459
 30
0.0
 11
58376.85505120818
 21
-4380.603649598831
 31
0.0
 12
58376.85505120818
 22
-4380.603649598831
 32
103.8952946762532
 13
58365.04564546788
 23
-4419.53404303459
 33
81.64920611155073
  0
3DFACE
  5
1D7B
330
2
100
AcDbEntity
  8
0
  6
Continuous
370
     5
100
AcDbFace
 10
58376.85505120818
 20
-4380.603649598831
 30
0.0
 11
58378.69141530823
 21
-4369.920487056712
 31
0.0
 12
58378.69141530823
 22
-4369.920487056712
 32
110.0
 13
58376.85505120818
 23
-4380.603649598831
 33
103.8952946762532
  0
3DFACE
  5
1D7C
330
2
100
AcDbEntity
  8
TEREN$0$A-MassElement-G
  6
Continuous
 62
   210
370
     5
100
AcDbFace
 10
58358.69141530822
 20
-4269.920487056713
 30
0.0
 11
58358.69141530822
 21
-4370.106958636077
 31
0.0
 12
58358.69141530822
 22
-4269.920487056713
 32
110.0
 13
58358.69141530822
 23
-4269.920487056713
 33
110.0
 70
     2
  0
3DFACE
  5
1D7D
330
2
100
AcDbEntity
  8
TEREN$0$A-MassElement-G
  6
Continuous
 62
   210
370
     5
100
AcDbFace
 10
58358.69141530822
 20
-4369.920487056712
 30
110.0
 11
58358.69141530822
 21
-4269.920487056713
 31
110.0
 12
58358.69141530822
 22
-4370.106958636077
 32
0.0
 13
58358.69141530822
 23
-4370.106958636077
 33
109.8934440959014
 70
     2
  0
3DFACE
  5
1D7E
330
2
100
AcDbEntity
  8
0
  6
Continuous
370
     5
100
AcDbFace
 10
58378.69141530823
 20
-4369.920487056712
 30
0.0
 11
58378.69141530823
 21
-4269.920487056713
 31
0.0
 12
58378.69141530823
 22
-4269.920487056713
 32
110.0
 13
58378.69141530823
 23
-4369.920487056712
 33
110.0
  0
3DFACE
  5
1D7F
330
2
100
AcDbEntity
  8
TEREN$0$A-MassElement-G
  6
Continuous
 62
   210
370
     5
100
AcDbFace
 10
58335.74615857064
 20
-4432.860198061936
 30
25.01158345850353
 11
58347.35497155167
 21
-4408.480133430734
 31
28.10597853518259
 12
57938.1913899082
 22
-4369.920461656723
 32
33.00000000000133
 13
57938.1913899082
 23
-4629.920487056713
 33
0.0000000000000142
 70
    10
  0
3DFACE
  5
1D80
330
2
100
AcDbEntity
  8
TEREN$0$A-MassElement-G
  6
Continuous
 62
   210
370
     5
100
AcDbFace
 10
58321.16402912533
 20
-4455.462382238235
 30
22.14284176173364
 11
58335.74615857064
 21
-4432.860198061936
 31
25.01158345850353
 12
57938.1913899082
 22
-4629.920487056713
 32
0.0000000000000142
 13
58288.62130347759
 23
-4489.920514410559
 33
17.76930285114232
 70
    14
  0
3DFACE
  5
1D81
330
2
100
AcDbEntity
  8
TEREN$0$A-MassElement-G
  6
Continuous
 62
   210
370
     5
100
AcDbFace
 10
58303.85808749352
 20
-4475.899956321832
 30
19.54883841067024
 11
58321.16402912533
 21
-4455.462382238235
 31
22.14284176173364
 12
58288.62130347759
 22
-4489.920514410559
 32
17.76930285114232
 13
58292.35209285762
 23
-4486.920000381906
 33
18.15013810965751
 70
     2
  0
3DFACE
  5
1D82
330
2
100
AcDbEntity
  8
TEREN$0$A-MassElement-G
  6
Continuous
 62
   210
370
     5
100
AcDbFace
 10
57938.1913899082
 20
-4369.920461656723
 30
0.0000000000000142
 11
57938.1913899082
 21
-4369.920461656723
 31
33.00000000000133
 12
58358.69144070821
 22
-4369.920461656723
 32
33.00009274410396
 13
58358.69144070821
 23
-4369.920461656723
 33
0.0000000000000142
  0
3DFACE
  5
1D83
330
2
100
AcDbEntity
  8
TEREN$0$A-MassElement-G
  6
Continuous
 62
   210
370
     5
100
AcDbFace
 10
58358.69144070821
 20
-4369.920461656723
 30
0.0000000000000142
 11
58358.69144070821
 21
-4369.920461656723
 31
33.00009274410396
 12
58355.79183805979
 22
-4382.739338009903
 32
31.3730810340806
 13
58355.79183805979
 23
-4382.739338009903
 33
0.0000000000000142
  0
3DFACE
  5
1D84
330
2
100
AcDbEntity
  8
TEREN$0$A-MassElement-G
  6
Continuous
 62
   210
370
     5
100
AcDbFace
 10
58355.79183805979
 20
-4382.739338009903
 30
0.0000000000000142
 11
58355.79183805979
 21
-4382.739338009903
 31
31.3730810340806
 12
58347.35497155167
 22
-4408.480133430734
 32
28.10597853518259
 13
58347.35497155167
 23
-4408.480133430734
 33
0.0000000000000142
  0
3DFACE
  5
1D85
330
2
100
AcDbEntity
  8
TEREN$0$A-MassElement-G
  6
Continuous
 62
   210
370
     5
100
AcDbFace
 10
58347.35497155167
 20
-4408.480133430734
 30
0.0000000000000142
 11
58347.35497155167
 21
-4408.480133430734
 31
28.10597853518259
 12
58335.74615857064
 22
-4432.860198061936
 32
25.01158345850353
 13
58335.74615857064
 23
-4432.860198061936
 33
0.0000000000000142
  0
3DFACE
  5
1D86
330
2
100
AcDbEntity
  8
TEREN$0$A-MassElement-G
  6
Continuous
 62
   210
370
     5
100
AcDbFace
 10
58335.74615857064
 20
-4432.860198061936
 30
0.0000000000000142
 11
58335.74615857064
 21
-4432.860198061936
 31
25.01158345850353
 12
58321.16402912533
 22
-4455.462382238235
 32
22.14284176173364
 13
58321.16402912533
 23
-4455.462382238235
 33
0.0000000000000142
  0
3DFACE
  5
1D87
330
2
100
AcDbEntity
  8
TEREN$0$A-MassElement-G
  6
Continuous
 62
   210
370
     5
100
AcDbFace
 10
58321.16402912533
 20
-4455.462382238235
 30
0.0000000000000142
 11
58321.16402912533
 21
-4455.462382238235
 31
22.14284176173364
 12
58303.85808749352
 22
-4475.899956321832
 32
19.54883841067024
 13
58303.85808749352
 23
-4475.899956321832
 33
0.0000000000000142
  0
3DFACE
  5
1D88
330
2
100
AcDbEntity
  8
TEREN$0$A-MassElement-G
  6
Continuous
 62
   210
370
     5
100
AcDbFace
 10
57938.1913899082
 20
-4369.920461656723
 30
0.0000000000000142
 11
58358.69144070821
 21
-4369.920461656723
 31
0.0000000000000142
 12
58288.62130347759
 22
-4489.920514410559
 32
0.0000000000000142
 13
58288.62130347759
 23
-4489.920514410559
 33
0.0000000000000142
 70
    14
  0
3DFACE
  5
1D89
330
2
100
AcDbEntity
  8
TEREN$0$A-MassElement-G
  6
Continuous
 62
   210
370
     5
100
AcDbFace
 10
58288.62130347759
 20
-4489.920514410559
 30
0.0000000000000142
 11
58358.69144070821
 21
-4369.920461656723
 31
0.0000000000000142
 12
58355.79183805979
 22
-4382.739338009903
 32
0.0000000000000142
 13
58347.35497155167
 23
-4408.480133430734
 33
0.0000000000000142
 70
     9
  0
3DFACE
  5
1D8A
330
2
100
AcDbEntity
  8
TEREN$0$A-MassElement-G
  6
Continuous
 62
   210
370
     5
100
AcDbFace
 10
58288.62130347759
 20
-4489.920514410559
 30
0.0000000000000142
 11
58347.35497155167
 21
-4408.480133430734
 31
0.0000000000000142
 12
58335.74615857064
 22
-4432.860198061936
 32
0.0000000000000142
 13
58321.16402912533
 23
-4455.462382238235
 33
0.0000000000000142
 70
     9
  0
3DFACE
  5
1D8B
330
2
100
AcDbEntity
  8
TEREN$0$A-MassElement-G
  6
Continuous
 62
   210
370
     5
100
AcDbFace
 10
58288.62130347759
 20
-4489.920514410559
 30
0.0000000000000142
 11
58321.16402912533
 21
-4455.462382238235
 31
0.0000000000000142
 12
58303.85808749352
 22
-4475.899956321832
 32
0.0000000000000142
 13
58292.35209285762
 23
-4486.920000381906
 33
0.0000000000000142
 70
     1
  0
LINE
  5
1D8C
330
2
100
AcDbEntity
  8
TEREN$0$A-MassElement-G
  6
Continuous
 62
   210
370
     5
100
AcDbLine
 10
57938.1914153082
 20
-4369.920487056712
 30
0.0
 11
58358.69141530822
 21
-4369.920487056712
 31
0.0
  0
LINE
  5
1D8D
330
2
100
AcDbEntity
  8
TEREN$0$A-MassElement-G
  6
Continuous
 62
   210
370
     5
100
AcDbLine
 10
58358.69141530822
 20
-4369.920487056712
 30
0.0
 11
58358.69141530822
 21
-4269.920487056713
 31
0.0
  0
3DFACE
  5
1D8E
330
2
100
AcDbEntity
  8
TEREN$0$A-MassElement-G
  6
Continuous
 62
   210
370
     5
100
AcDbFace
 10
58378.69141530823
 20
-4369.920487056712
 30
0.0
 11
58376.85505120818
 21
-4380.603649598831
 31
0.0
 12
58365.04564546788
 22
-4419.53404303459
 32
0.0
 13
58358.69141530822
 23
-4370.106958636077
 33
0.0
 70
    12
  0
3DFACE
  5
1D8F
330
2
100
AcDbEntity
  8
TEREN$0$A-MassElement-G
  6
Continuous
 62
   210
370
     5
100
AcDbFace
 10
58378.69141530823
 20
-4269.920487056713
 30
0.0
 11
58378.69141530823
 21
-4369.920487056712
 31
0.0
 12
58358.69141530822
 22
-4370.106958636077
 32
0.0
 13
58358.69141530822
 23
-4269.920487056713
 33
0.0
 70
     2
  0
3DFACE
  5
1D90
330
2
100
AcDbEntity
  8
TEREN$0$A-MassElement-G
  6
Continuous
 62
   210
370
     5
100
AcDbFace
 10
58358.69141530822
 20
-4370.106958636077
 30
0.0
 11
58365.04564546788
 21
-4419.53404303459
 31
0.0
 12
58345.86821115594
 22
-4455.412499107995
 32
0.0
 13
58356.53885787615
 23
-4381.001111512065
 33
0.0
 70
     5
  0
3DFACE
  5
1D91
330
2
100
AcDbEntity
  8
TEREN$0$A-MassElement-G
  6
Continuous
 62
   210
370
     5
100
AcDbFace
 10
58356.53885787615
 20
-4381.001111512065
 30
0.0
 11
58345.86821115594
 21
-4455.412499107995
 31
0.0
 12
58320.05972631806
 22
-4486.860228873026
 32
0.0
 13
58342.53293979297
 23
-4421.027725751971
 33
0.0
 70
     5
  0
3DFACE
  5
1D92
330
2
100
AcDbEntity
  8
TEREN$0$A-MassElement-G
  6
Continuous
 62
   210
370
     5
100
AcDbFace
 10
58342.53293979297
 20
-4421.027725751971
 30
0.0
 11
58320.05972631806
 21
-4486.860228873026
 31
0.0
 12
58298.18348135139
 22
-4505.874004455888
 32
0.0
 13
58319.97141973413
 23
-4456.934179231809
 33
0.0
 70
     5
  0
3DFACE
  5
1D93
330
2
100
AcDbEntity
  8
TEREN$0$A-MassElement-G
  6
Continuous
 62
   210
370
     5
100
AcDbFace
 10
58298.18348135139
 20
-4505.874004455888
 30
0.0
 11
58289.98562652414
 21
-4486.919972441793
 31
0.0
 12
58319.97141973413
 22
-4456.934179231809
 32
0.0
 13
58319.97141973413
 23
-4456.934179231809
 33
0.0
 70
    13
  0
LINE
  5
1D94
330
2
100
AcDbEntity
  8
TEREN$0$A-MassElement-G
  6
Continuous
 62
   210
370
     5
100
AcDbLine
 10
58360.40597107655
 20
-4429.920487056713
 30
0.0
 11
58342.76935700459
 21
-4459.920487056712
 31
0.0
  0
LINE
  5
1D95
330
2
100
AcDbEntity
  8
TEREN$0$A-MassElement-G
  6
Continuous
 62
   210
370
     5
100
AcDbLine
 10
58372.03908289498
 20
-4399.920487056713
 30
15.0
 11
58360.40597107655
 21
-4429.920487056713
 31
15.0
  0
3DFACE
  5
1D96
330
2
100
AcDbEntity
  8
TEREN$0$A-MassElement-G
  6
Continuous
 62
   210
370
     5
100
AcDbFace
 10
58347.35497155167
 20
-4408.480133430734
 30
28.10597853518259
 11
58355.79183805979
 21
-4382.739338009903
 31
31.3730810340806
 12
58358.69144070821
 22
-4369.920461656723
 32
33.00009274410396
 13
57938.1913899082
 23
-4369.920461656723
 33
33.00000000000133
 70
     8
  0
LINE
  5
1D97
330
2
100
AcDbEntity
  8
0
  6
Continuous
370
     5
100
AcDbLine
 10
58378.69141530823
 20
-4369.920487056712
 30
30.0
 11
58380.01594212614
 21
-4369.920487056712
 31
30.0
  0
LINE
  5
1D98
330
2
100
AcDbEntity
  8
0
  6
Continuous
370
     5
100
AcDbLine
 10
58378.69141530823
 20
-4269.920487056713
 30
30.0
 11
58378.69141530823
 21
-4369.920487056712
 31
30.0
  0
LINE
  5
1D99
330
2
100
AcDbEntity
  8
TEREN$0$A-MassElement-G
  6
Continuous
 62
   210
370
     5
100
AcDbLine
 10
58380.01594212614
 20
-4369.920487056712
 30
30.0
 11
58372.03908289498
 21
-4399.920487056713
 31
30.0
  0
3DFACE
  5
1D9A
330
2
100
AcDbEntity
  8
TEREN$0$A-MassElement-G
  6
Continuous
 62
   210
370
     5
100
AcDbFace
 10
58365.04564546788
 20
-4419.53404303459
 30
81.64920611155073
 11
58376.85505120818
 21
-4380.603649598831
 31
103.8952946762532
 12
58319.97141973413
 22
-4456.934179231809
 32
60.27755612943032
 13
58319.97141973413
 23
-4456.934179231809
 33
60.27755612943032
 70
    14
  0
3DFACE
  5
1D9B
330
2
100
AcDbEntity
  8
TEREN$0$A-MassElement-G
  6
Continuous
 62
   210
370
     5
100
AcDbFace
 10
58319.97141973413
 20
-4456.934179231809
 30
60.27755612943032
 11
58376.85505120818
 21
-4380.603649598831
 31
103.8952946762532
 12
58378.69141530823
 22
-4369.920487056712
 32
110.0
 13
58342.53293979297
 23
-4421.027725751971
 33
80.79566739575751
 70
     5
  0
3DFACE
  5
1D9C
330
2
100
AcDbEntity
  8
TEREN$0$A-MassElement-G
  6
Continuous
 62
   210
370
     5
100
AcDbFace
 10
58378.69141530823
 20
-4369.920487056712
 30
110.0
 11
58356.53885787615
 21
-4381.001111512065
 31
103.668172057074
 12
58342.53293979297
 22
-4421.027725751971
 32
80.79566739575751
 13
58342.53293979297
 23
-4421.027725751971
 33
80.79566739575751
 70
    13
  0
3DFACE
  5
1D9D
330
2
100
AcDbEntity
  8
TEREN$0$A-MassElement-G
  6
Continuous
 62
   210
370
     5
100
AcDbFace
 10
58378.69141530823
 20
-4369.920487056712
 30
110.0
 11
58358.69141530822
 21
-4370.106958636077
 31
109.8934440959014
 12
58356.53885787615
 22
-4381.001111512065
 32
103.668172057074
 13
58356.53885787615
 23
-4381.001111512065
 33
103.668172057074
 70
    13
  0
3DFACE
  5
1D9E
330
2
100
AcDbEntity
  8
TEREN$0$A-MassElement-G
  6
Continuous
 62
   210
370
     5
100
AcDbFace
 10
58378.69141530823
 20
-4369.920487056712
 30
110.0
 11
58358.69141530822
 21
-4369.920487056712
 31
110.0
 12
58358.69141530822
 22
-4370.106958636077
 32
109.8934440959014
 13
58358.69141530822
 23
-4370.106958636077
 33
109.8934440959014
 70
    12
  0
3DFACE
  5
1D9F
330
2
100
AcDbEntity
  8
TEREN$0$A-MassElement-G
  6
Continuous
 62
   210
370
     5
100
AcDbFace
 10
58378.69141530823
 20
-4369.920487056712
 30
110.0
 11
58378.69141530823
 21
-4269.920487056713
 31
110.0
 12
58358.69141530822
 22
-4269.920487056713
 32
110.0
 13
58358.69141530822
 23
-4369.920487056712
 33
110.0
  0
3DFACE
  5
1DA0
330
2
100
AcDbEntity
  8
TEREN$0$A-MassElement-G
  6
Continuous
 62
   210
370
     5
100
AcDbFace
 10
58789.84397274026
 20
-4381.001111512065
 30
103.668172057074
 11
58800.51461946048
 21
-4455.412499107995
 31
61.1470934706658
 12
58826.32310429836
 22
-4486.860228873026
 32
43.17684144467043
 13
58803.84989082346
 23
-4421.027725751971
 33
80.79566739575751
 70
     5
  0
3DFACE
  5
1DA1
330
2
100
AcDbEntity
  8
TEREN$0$A-MassElement-G
  6
Continuous
 62
   210
370
     5
100
AcDbFace
 10
58803.84989082346
 20
-4421.027725751971
 30
80.79566739575751
 11
58826.32310429836
 21
-4486.860228873026
 31
43.17684144467043
 12
58848.19934926503
 22
-4505.874004455888
 32
32.31175382968556
 13
58826.41141088229
 23
-4456.934179231809
 33
60.27755612943032
 70
     5
  0
3DFACE
  5
1DA2
330
2
100
AcDbEntity
  8
TEREN$0$A-MassElement-G
  6
Continuous
 62
   210
370
     5
100
AcDbFace
 10
58848.19934926503
 20
-4505.874004455888
 30
32.31175382968556
 11
58856.39720409227
 21
-4486.919972441793
 31
43.14270203315738
 12
58826.41141088229
 22
-4456.934179231809
 32
60.27755612943032
 13
58826.41141088229
 23
-4456.934179231809
 33
60.27755612943032
 70
    13
  0
3DFACE
  5
1DA3
330
2
100
AcDbEntity
  8
0
  6
Continuous
370
     5
100
AcDbFace
 10
58789.84397274026
 20
-4381.001111512065
 30
0.0
 11
58787.69141530822
 21
-4370.106958636077
 31
0.0
 12
58787.69141530822
 22
-4370.106958636077
 32
109.8934440959014
 13
58789.84397274026
 23
-4381.001111512065
 33
103.668172057074
  0
3DFACE
  5
1DA4
330
2
100
AcDbEntity
  8
TEREN$0$A-MassElement-G
  6
Continuous
 62
   210
370
     5
100
AcDbFace
 10
58803.84989082346
 20
-4421.027725751971
 30
0.0
 11
58789.84397274026
 21
-4381.001111512065
 31
0.0
 12
58789.84397274026
 22
-4381.001111512065
 32
103.668172057074
 13
58803.84989082346
 23
-4421.027725751971
 33
80.79566739575751
  0
3DFACE
  5
1DA5
330
2
100
AcDbEntity
  8
TEREN$0$A-MassElement-G
  6
Continuous
 62
   210
370
     5
100
AcDbFace
 10
58826.41141088229
 20
-4456.934179231809
 30
0.0
 11
58803.84989082346
 21
-4421.027725751971
 31
0.0
 12
58803.84989082346
 22
-4421.027725751971
 32
80.79566739575751
 13
58826.41141088229
 23
-4456.934179231809
 33
60.27755612943032
  0
3DFACE
  5
1DA6
330
2
100
AcDbEntity
  8
TEREN$0$A-MassElement-G
  6
Continuous
 62
   210
370
     5
100
AcDbFace
 10
58856.39720409227
 20
-4486.919972441793
 30
0.0
 11
58826.41141088229
 21
-4456.934179231809
 31
0.0
 12
58826.41141088229
 22
-4456.934179231809
 32
60.27755612943032
 13
58856.39720409227
 23
-4486.919972441793
 33
43.14270203315738
  0
3DFACE
  5
1DA7
330
2
100
AcDbEntity
  8
TEREN$0$A-MassElement-G
  6
Continuous
 62
   210
370
     5
100
AcDbFace
 10
58800.51461946048
 20
-4455.412499107995
 30
0.0
 11
58826.32310429836
 21
-4486.860228873026
 31
0.0
 12
58826.32310429836
 22
-4486.860228873026
 32
43.17684144467043
 13
58800.51461946048
 23
-4455.412499107995
 33
61.1470934706658
  0
3DFACE
  5
1DA8
330
2
100
AcDbEntity
  8
TEREN$0$A-MassElement-G
  6
Continuous
 62
   210
370
     5
100
AcDbFace
 10
58781.33718514853
 20
-4419.53404303459
 30
0.0
 11
58800.51461946048
 21
-4455.412499107995
 31
0.0
 12
58800.51461946048
 22
-4455.412499107995
 32
61.1470934706658
 13
58781.33718514853
 23
-4419.53404303459
 33
81.64920611155073
  0
3DFACE
  5
1DA9
330
2
100
AcDbEntity
  8
TEREN$0$A-MassElement-G
  6
Continuous
 62
   210
370
     5
100
AcDbFace
 10
58769.52777940827
 20
-4380.603649598831
 30
0.0
 11
58781.33718514853
 21
-4419.53404303459
 31
0.0
 12
58781.33718514853
 22
-4419.53404303459
 32
81.64920611155073
 13
58769.52777940827
 23
-4380.603649598831
 33
103.8952946762532
  0
3DFACE
  5
1DAA
330
2
100
AcDbEntity
  8
0
  6
Continuous
370
     5
100
AcDbFace
 10
58767.69141530822
 20
-4369.920487056712
 30
0.0
 11
58769.52777940827
 21
-4380.603649598831
 31
0.0
 12
58769.52777940827
 22
-4380.603649598831
 32
103.8952946762532
 13
58767.69141530822
 23
-4369.920487056712
 33
110.0
  0
3DFACE
  5
1DAB
330
2
100
AcDbEntity
  8
0
  6
Continuous
370
     5
100
AcDbFace
 10
58787.69141530822
 20
-4370.106958636077
 30
109.8934440959014
 11
58787.69141530822
 21
-4370.106958636077
 31
0.0
 12
58787.69141530822
 22
-4369.920487056712
 32
110.0
 13
58787.69141530822
 23
-4369.920487056712
 33
110.0
 70
     2
  0
3DFACE
  5
1DAC
330
2
100
AcDbEntity
  8
TEREN$0$A-MassElement-G
  6
Continuous
 62
   210
370
     5
100
AcDbFace
 10
58787.69141530822
 20
-4269.920487056713
 30
110.0
 11
58787.69141530822
 21
-4369.920487056712
 31
110.0
 12
58787.69141530822
 22
-4370.106958636077
 32
0.0
 13
58787.69141530822
 23
-4269.920487056713
 33
0.0
 70
     2
  0
3DFACE
  5
1DAD
330
2
100
AcDbEntity
  8
TEREN$0$A-MassElement-G
  6
Continuous
 62
   210
370
     5
100
AcDbFace
 10
58767.69141530822
 20
-4369.920487056712
 30
0.0
 11
58767.69141530822
 21
-4369.920487056712
 31
110.0
 12
58767.69141530822
 22
-4269.920487056713
 32
110.0
 13
58767.69141530822
 23
-4269.920487056713
 33
0.0
  0
3DFACE
  5
1DAE
330
2
100
AcDbEntity
  8
TEREN$0$A-MassElement-G
  6
Continuous
 62
   210
370
     5
100
AcDbFace
 10
58860.26107727533
 20
-4489.920487056712
 30
0.0
 11
58856.39720409227
 21
-4486.919972441793
 31
0.0
 12
58856.39720409227
 22
-4486.919972441793
 32
43.14270203315738
 13
58860.26107727533
 23
-4489.920487056712
 33
41.42811073385985
  0
3DFACE
  5
1DAF
330
2
100
AcDbEntity
  8
TEREN$0$A-MassElement-G
  6
Continuous
 62
   210
370
     5
100
AcDbFace
 10
58848.19934926503
 20
-4505.874004455888
 30
0.0
 11
58860.26107727533
 21
-4489.920487056712
 31
0.0
 12
58860.26107727533
 22
-4489.920487056712
 32
41.42811073385985
 13
58848.19934926503
 23
-4505.874004455888
 33
32.31175382968556
  0
3DFACE
  5
1DB0
330
2
100
AcDbEntity
  8
TEREN$0$A-MassElement-G
  6
Continuous
 62
   210
370
     5
100
AcDbFace
 10
58826.32310429836
 20
-4486.860228873026
 30
0.0
 11
58848.19934926503
 21
-4505.874004455888
 31
0.0
 12
58848.19934926503
 22
-4505.874004455888
 32
32.31175382968556
 13
58826.32310429836
 23
-4486.860228873026
 33
43.17684144467043
  0
LINE
  5
1DB1
330
2
100
AcDbEntity
  8
TEREN$0$A-MassElement-G
  6
Continuous
 62
   210
370
     5
100
AcDbLine
 10
58342.76935700459
 20
-4459.920487056712
 30
0.0
 11
58803.61347361183
 21
-4459.920487056712
 31
0.0
  0
LINE
  5
1DB2
330
2
100
AcDbEntity
  8
TEREN$0$A-MassElement-G
  6
Continuous
 62
   210
370
     5
100
AcDbLine
 10
58785.97685953987
 20
-4429.920487056713
 30
0.0
 11
58360.40597107655
 21
-4429.920487056713
 31
0.0
  0
LINE
  5
1DB3
330
2
100
AcDbEntity
  8
TEREN$0$A-MassElement-G
  6
Continuous
 62
   210
370
     5
100
AcDbLine
 10
58803.61347361183
 20
-4459.920487056712
 30
0.0
 11
58785.97685953987
 21
-4429.920487056713
 31
0.0
  0
3DFACE
  5
1DB4
330
2
100
AcDbEntity
  8
TEREN$0$A-MassElement-G
  6
Continuous
 62
   210
370
     5
100
AcDbFace
 10
58800.51461946048
 20
-4455.412499107995
 30
0.0
 11
58856.39720409227
 21
-4486.919972441793
 31
0.0
 12
58826.32310429836
 22
-4486.860228873026
 32
0.0
 13
58826.32310429836
 23
-4486.860228873026
 33
0.0
 70
     3
  0
3DFACE
  5
1DB5
330
2
100
AcDbEntity
  8
TEREN$0$A-MassElement-G
  6
Continuous
 62
   210
370
     5
100
AcDbFace
 10
58848.19934926503
 20
-4505.874004455888
 30
0.0
 11
58826.32310429836
 21
-4486.860228873026
 31
0.0
 12
58856.39720409227
 22
-4486.919972441793
 32
0.0
 13
58860.26107727533
 23
-4489.920487056712
 33
0.0
 70
     2
  0
3DFACE
  5
1DB6
330
2
100
AcDbEntity
  8
TEREN$0$A-MassElement-G
  6
Continuous
 62
   210
370
     5
100
AcDbFace
 10
58856.39720409227
 20
-4486.919972441793
 30
0.0
 11
58800.51461946048
 21
-4455.412499107995
 31
0.0
 12
58781.33718514853
 22
-4419.53404303459
 32
0.0
 13
58826.41141088229
 23
-4456.934179231809
 33
0.0
 70
     5
  0
3DFACE
  5
1DB7
330
2
100
AcDbEntity
  8
TEREN$0$A-MassElement-G
  6
Continuous
 62
   210
370
     5
100
AcDbFace
 10
58781.33718514853
 20
-4419.53404303459
 30
0.0
 11
58769.52777940827
 21
-4380.603649598831
 31
0.0
 12
58826.41141088229
 22
-4456.934179231809
 32
0.0
 13
58826.41141088229
 23
-4456.934179231809
 33
0.0
 70
    14
  0
3DFACE
  5
1DB8
330
2
100
AcDbEntity
  8
TEREN$0$A-MassElement-G
  6
Continuous
 62
   210
370
     5
100
AcDbFace
 10
58826.41141088229
 20
-4456.934179231809
 30
0.0
 11
58769.52777940827
 21
-4380.603649598831
 31
0.0
 12
58767.69141530822
 22
-4369.920487056712
 32
0.0
 13
58803.84989082346
 23
-4421.027725751971
 33
0.0
 70
     5
  0
3DFACE
  5
1DB9
330
2
100
AcDbEntity
  8
TEREN$0$A-MassElement-G
  6
Continuous
 62
   210
370
     5
100
AcDbFace
 10
58767.69141530822
 20
-4369.920487056712
 30
0.0
 11
58789.84397274026
 21
-4381.001111512065
 31
0.0
 12
58803.84989082346
 22
-4421.027725751971
 32
0.0
 13
58803.84989082346
 23
-4421.027725751971
 33
0.0
 70
    13
  0
3DFACE
  5
1DBA
330
2
100
AcDbEntity
  8
TEREN$0$A-MassElement-G
  6
Continuous
 62
   210
370
     5
100
AcDbFace
 10
58789.84397274026
 20
-4381.001111512065
 30
0.0
 11
58767.69141530822
 21
-4369.920487056712
 31
0.0
 12
58767.69141530822
 22
-4269.920487056713
 32
0.0
 13
58787.69141530822
 23
-4370.106958636077
 33
0.0
 70
     5
  0
3DFACE
  5
1DBB
330
2
100
AcDbEntity
  8
TEREN$0$A-MassElement-G
  6
Continuous
 62
   210
370
     5
100
AcDbFace
 10
58767.69141530822
 20
-4269.920487056713
 30
0.0
 11
58787.69141530822
 21
-4269.920487056713
 31
0.0
 12
58787.69141530822
 22
-4370.106958636077
 32
0.0
 13
58787.69141530822
 23
-4370.106958636077
 33
0.0
 70
    12
  0
LINE
  5
1DBC
330
2
100
AcDbEntity
  8
TEREN$0$A-MassElement-G
  6
Continuous
 62
   210
370
     5
100
AcDbLine
 10
58360.40597107655
 20
-4429.920487056713
 30
15.0
 11
58785.97685953987
 21
-4429.920487056713
 31
15.0
  0
LINE
  5
1DBD
330
2
100
AcDbEntity
  8
TEREN$0$A-MassElement-G
  6
Continuous
 62
   210
370
     5
100
AcDbLine
 10
58774.34374772144
 20
-4399.920487056713
 30
15.0
 11
58372.03908289498
 21
-4399.920487056713
 31
15.0
  0
LINE
  5
1DBE
330
2
100
AcDbEntity
  8
TEREN$0$A-MassElement-G
  6
Continuous
 62
   210
370
     5
100
AcDbLine
 10
58785.97685953987
 20
-4429.920487056713
 30
15.0
 11
58774.34374772144
 21
-4399.920487056713
 31
15.0
  0
3DFACE
  5
1DBF
330
2
100
AcDbEntity
  8
TEREN$0$A-MassElement-G
  6
Continuous
 62
   210
370
     5
100
AcDbFace
 10
58848.19934926503
 20
-4505.874004455888
 30
32.31175382968556
 11
58860.26107727533
 21
-4489.920487056712
 31
41.42811073385985
 12
58856.39720409227
 22
-4486.919972441793
 32
43.14270203315738
 13
58856.39720409227
 23
-4486.919972441793
 33
43.14270203315738
 70
    12
  0
LINE
  5
1DC0
330
2
100
AcDbEntity
  8
TEREN$0$A-MassElement-G
  6
Continuous
 62
   210
370
     5
100
AcDbLine
 10
58372.03908289498
 20
-4399.920487056713
 30
30.0
 11
58775.43248227839
 21
-4400.068846316711
 31
30.0
  0
LINE
  5
1DC1
330
2
100
AcDbEntity
  8
TEREN$0$A-MassElement-G
  6
Continuous
 62
   210
370
     5
100
AcDbLine
 10
58767.69141530822
 20
-4369.920487056712
 30
30.0
 11
58767.69141530822
 21
-4269.920487056713
 31
30.0
  0
LINE
  5
1DC2
330
2
100
AcDbEntity
  8
TEREN$0$A-MassElement-G
  6
Continuous
 62
   210
370
     5
100
AcDbLine
 10
58775.43248227839
 20
-4400.068846316711
 30
30.0
 11
58767.69141530822
 21
-4369.920487056712
 31
30.0
  0
CIRCLE
  5
1DC3
330
2
100
AcDbEntity
  8
0Hatch
100
AcDbCircle
 10
58719.19141530822
 20
-4366.053816708991
 30
47.0
 40
17.5
  0
CIRCLE
  5
1DC4
330
2
100
AcDbEntity
  8
0Hatch
100
AcDbCircle
 10
-58427.19141530822
 20
-4366.053816708991
 30
-47.0
 40
17.5
210
0.0
220
0.0
230
-1.0
  0
3DFACE
  5
1DC5
330
2
100
AcDbEntity
  8
TEREN$0$A-MassElement-G
  6
Continuous
 62
   210
370
     5
100
AcDbFace
 10
58781.33718514853
 20
-4419.53404303459
 30
81.64920611155073
 11
58787.69141530822
 21
-4370.106958636077
 31
109.8934440959014
 12
58769.52777940827
 22
-4380.603649598831
 32
103.8952946762532
 13
58769.52777940827
 23
-4380.603649598831
 33
103.8952946762532
 70
     3
  0
3DFACE
  5
1DC6
330
2
100
AcDbEntity
  8
TEREN$0$A-MassElement-G
  6
Continuous
 62
   210
370
     5
100
AcDbFace
 10
58787.69141530822
 20
-4370.106958636077
 30
109.8934440959014
 11
58781.33718514853
 21
-4419.53404303459
 31
81.64920611155073
 12
58800.51461946048
 22
-4455.412499107995
 32
61.1470934706658
 13
58789.84397274026
 23
-4381.001111512065
 33
103.668172057074
 70
     5
  0
3DFACE
  5
1DC7
330
2
100
AcDbEntity
  8
0
  6
Continuous
370
     5
100
AcDbFace
 10
58767.69141530822
 20
-4369.920487056712
 30
110.0
 11
58769.52777940827
 21
-4380.603649598831
 31
103.8952946762532
 12
58787.69141530822
 22
-4370.106958636077
 32
109.8934440959014
 13
58787.69141530822
 23
-4369.920487056712
 33
110.0
 70
     2
  0
3DFACE
  5
1DC8
330
2
100
AcDbEntity
  8
TEREN$0$A-MassElement-G
  6
Continuous
 62
   210
370
     5
100
AcDbFace
 10
58787.69141530822
 20
-4369.920487056712
 30
110.0
 11
58787.69141530822
 21
-4269.920487056713
 31
110.0
 12
58767.69141530822
 22
-4269.920487056713
 32
110.0
 13
58767.69141530822
 23
-4369.920487056712
 33
110.0
  0
LINE
  5
1DC9
330
2
100
AcDbEntity
  8
0Hatch
100
AcDbLine
 10
58648.57940969766
 20
-4272.919469323777
 30
0.0
 11
58648.43570015321
 21
-4209.920487056712
 31
0.0
  0
LINE
  5
1DCA
330
2
100
AcDbEntity
  8
0Hatch
100
AcDbLine
 10
58497.80344700493
 20
-4272.918451591795
 30
0.0
 11
58497.80268950079
 21
-4209.920487056712
 31
0.0
  0
LINE
  5
1DCB
330
2
100
AcDbEntity
  8
0Hatch
100
AcDbLine
 10
58253.46224121182
 20
-4269.920487056713
 30
0.0
 11
58253.46224121182
 21
-4209.920487056712
 31
0.0
  0
LINE
  5
1DCC
330
2
100
AcDbEntity
  8
0Hatch
100
AcDbLine
 10
58020.92058940459
 20
-4209.920487056712
 30
0.0
 11
58020.92058940459
 21
-4269.920487056713
 31
0.0
  0
LINE
  5
1DD6
330
2
100
AcDbEntity
  8
0Hatch
100
AcDbLine
 10
58669.1914153082
 20
-4209.920487056712
 30
0.0
 11
58669.1914153082
 21
-4209.920487056712
 31
0.0
  0
LINE
  5
1DD7
330
2
100
AcDbEntity
  8
0Hatch
100
AcDbLine
 10
58669.1914153082
 20
-4209.920487056712
 30
0.0
 11
58669.1914153082
 21
-4209.920487056712
 31
0.0
  0
LINE
  5
1DD9
330
2
100
AcDbEntity
  8
0Hatch
100
AcDbLine
 10
58477.19141530819
 20
-4209.920487056712
 30
0.0
 11
58477.19141530819
 21
-4209.920487056712
 31
0.0
  0
LINE
  5
1DDA
330
2
100
AcDbEntity
  8
0Hatch
100
AcDbLine
 10
58477.19141530819
 20
-4209.920487056712
 30
0.0
 11
58477.19141530819
 21
-4209.920487056712
 31
0.0
  0
LINE
  5
1DF5
330
2
100
AcDbEntity
  8
TEREN$0$A-MassElement-G
  6
Continuous
 62
   210
370
     5
100
AcDbLine
 10
58278.19141530822
 20
-3347.920487056713
 30
0.0
 11
58278.19141530822
 21
-3029.420487056713
 31
0.0
  0
LINE
  5
1DF6
330
2
100
AcDbEntity
  8
TEREN$0$A-MassElement-G
  6
Continuous
 62
   210
370
     5
100
AcDbLine
 10
58278.19141530822
 20
-3029.420487056713
 30
0.0
 11
58530.36696109508
 21
-3029.420487056713
 31
0.0
  0
LINE
  5
1DF7
330
2
100
AcDbEntity
  8
TEREN$0$A-MassElement-G
  6
Continuous
 62
   210
370
     5
100
AcDbLine
 10
58530.36696109508
 20
-3029.420487056713
 30
0.0
 11
58560.53421029126
 21
-3025.871153139969
 31
0.0
  0
LINE
  5
1DF8
330
2
100
AcDbEntity
  8
TEREN$0$A-MassElement-G
  6
Continuous
 62
   210
370
     5
100
AcDbLine
 10
58560.53421029126
 20
-3025.871153139969
 30
0.0
 11
58582.39985045433
 21
-3024.420487056713
 31
0.0
  0
LINE
  5
1DF9
330
2
100
AcDbEntity
  8
TEREN$0$A-MassElement-G
  6
Continuous
 62
   210
370
     5
100
AcDbLine
 10
58582.39985045433
 20
-3024.420487056713
 30
0.0
 11
58607.3998504543
 21
-3024.420487056713
 31
0.0
  0
LINE
  5
1DFA
330
2
100
AcDbEntity
  8
TEREN$0$A-MassElement-G
  6
Continuous
 62
   210
370
     5
100
AcDbLine
 10
58607.3998504543
 20
-3024.420487056713
 30
0.0
 11
58757.39985045433
 21
-3024.420487056713
 31
0.0
  0
LINE
  5
1DFB
330
2
100
AcDbEntity
  8
TEREN$0$A-MassElement-G
  6
Continuous
 62
   210
370
     5
100
AcDbLine
 10
58757.39985045433
 20
-3024.420487056713
 30
0.0
 11
58782.39985045433
 21
-3024.420487056655
 31
0.0
  0
LINE
  5
1DFC
330
2
100
AcDbEntity
  8
TEREN$0$A-MassElement-G
  6
Continuous
 62
   210
370
     5
100
AcDbLine
 10
58782.39985045433
 20
-3024.420487056655
 30
0.0
 11
58804.65904232115
 21
-3026.996875923354
 31
0.0
  0
LINE
  5
1DFD
330
2
100
AcDbEntity
  8
TEREN$0$A-MassElement-G
  6
Continuous
 62
   210
370
     5
100
AcDbLine
 10
58804.65904232115
 20
-3026.996875923354
 30
0.0
 11
58822.70695260875
 21
-3029.420487056713
 31
0.0
  0
LINE
  5
1DFE
330
2
100
AcDbEntity
  8
TEREN$0$A-MassElement-G
  6
Continuous
 62
   210
370
     5
100
AcDbLine
 10
58822.70695260875
 20
-3029.420487056713
 30
0.0
 11
59317.48287761692
 21
-3029.420487056684
 31
0.0
  0
ARC
  5
1DFF
330
2
100
AcDbEntity
  8
TEREN$0$A-MassElement-G
  6
Continuous
 62
   210
370
     5
100
AcDbCircle
 10
59317.48287761695
 20
-3297.17085004606
 30
0.0
 40
267.7503629893763
100
AcDbArc
 50
31.72532686966744
 51
90.0
  0
ARC
  5
1E00
330
2
100
AcDbEntity
  8
TEREN$0$A-MassElement-G
  6
Continuous
 62
   210
370
     5
100
AcDbCircle
 10
59245.78295508907
 20
-3341.497420286812
 30
0.0
 40
352.0458179072421
100
AcDbArc
 50
358.9356573736381
 51
31.72532686966744
  0
LINE
  5
1E01
330
2
100
AcDbEntity
  8
TEREN$0$A-MassElement-G
  6
Continuous
 62
   210
370
     5
100
AcDbLine
 10
59597.76803305723
 20
-3348.036746989754
 30
0.0
 11
59603.19141530822
 21
-3360.526566915004
 31
0.0
  0
LINE
  5
1E02
330
2
100
AcDbEntity
  8
TEREN$0$A-MassElement-G
  6
Continuous
 62
   210
370
     5
100
AcDbLine
 10
59603.19141530822
 20
-3360.526566915004
 30
0.0
 11
59603.19141530822
 21
-3385.526566915004
 31
0.0
  0
LINE
  5
1E03
330
2
100
AcDbEntity
  8
TEREN$0$A-MassElement-G
  6
Continuous
 62
   210
370
     5
100
AcDbLine
 10
59603.19141530822
 20
-3385.526566915004
 30
0.0
 11
59603.19141530822
 21
-3587.526566915004
 31
0.0
  0
LINE
  5
1E04
330
2
100
AcDbEntity
  8
TEREN$0$A-MassElement-G
  6
Continuous
 62
   210
370
     5
100
AcDbLine
 10
59603.19141530822
 20
-3587.526566915004
 30
0.0
 11
59603.19141530831
 21
-3612.526566914975
 31
0.0
  0
LINE
  5
1E05
330
2
100
AcDbEntity
  8
TEREN$0$A-MassElement-G
  6
Continuous
 62
   210
370
     5
100
AcDbLine
 10
59603.19141530831
 20
-3612.526566914975
 30
0.0
 11
59602.9137473004
 21
-3634.885583438904
 31
0.0
  0
LINE
  5
1E06
330
2
100
AcDbEntity
  8
TEREN$0$A-MassElement-G
  6
Continuous
 62
   210
370
     5
100
AcDbLine
 10
59602.9137473004
 20
-3634.885583438904
 30
0.0
 11
59601.00671308538
 21
-3657.35033116521
 31
0.0
  0
LINE
  5
1E07
330
2
100
AcDbEntity
  8
TEREN$0$A-MassElement-G
  6
Continuous
 62
   210
370
     5
100
AcDbLine
 10
59601.00671308538
 20
-3657.35033116521
 30
0.0
 11
59599.8860744508
 21
-3679.794246999163
 31
0.0
  0
ARC
  5
1E08
330
2
100
AcDbEntity
  8
TEREN$0$A-MassElement-G
  6
Continuous
 62
   210
370
     5
100
AcDbCircle
 10
59333.02256386303
 20
-3666.46958643925
 30
0.0
 40
267.1959577955273
100
AcDbArc
 50
318.4273936400402
 51
357.1415600516394
  0
ARC
  5
1E09
330
2
100
AcDbEntity
  8
TEREN$0$A-MassElement-G
  6
Continuous
 62
   210
370
     5
100
AcDbCircle
 10
59316.11948084223
 20
-3651.476772829127
 30
0.0
 40
289.7901755415766
100
AcDbArc
 50
287.7064543989188
 51
318.4273936400402
  0
LINE
  5
1E0A
330
2
100
AcDbEntity
  8
TEREN$0$A-MassElement-G
  6
Continuous
 62
   210
370
     5
100
AcDbLine
 10
59404.25637402866
 20
-3927.538783797435
 30
0.0
 11
59362.63622574256
 21
-3931.257633895054
 31
0.0
  0
LINE
  5
1E0B
330
2
100
AcDbEntity
  8
TEREN$0$A-MassElement-G
  6
Continuous
 62
   210
370
     5
100
AcDbLine
 10
59362.63622574256
 20
-3931.257633895054
 30
0.0
 11
59304.85930792124
 21
-3927.068088611378
 31
0.0
  0
LWPOLYLINE
  5
39E5
330
2
100
AcDbEntity
  8
0Hatch
100
AcDbPolyline
 90
       14
 70
     1
 43
0.0
 10
57998.1914153082
 20
-4209.920487056712
 10
57998.19141530822
 20
-3407.920487056713
 10
59148.19141530823
 20
-3407.920487056713
 10
59148.19141530823
 20
-3694.920487056713
 10
59224.14868021308
 20
-3694.920487056713
 10
59298.19141530822
 20
-3768.98604212625
 10
59298.19141530822
 20
-3848.826694478362
 10
59224.14326601587
 20
-3922.920487056713
 10
59148.19141530823
 20
-3922.920487056713
 10
59148.19141530823
 20
-4209.920487056712
 10
58669.1914153082
 20
-4209.920487056712
 10
58477.19141530819
 20
-4209.920487056712
 10
58253.46224121182
 20
-4209.920487056712
 10
58020.92058940459
 20
-4209.920487056712
  0
LWPOLYLINE
  5
39F3
330
2
100
AcDbEntity
  8
0Hatch
100
AcDbPolyline
 90
       18
 70
     1
 43
0.0
 10
57938.1914153082
 20
-3347.920487056713
 10
59208.19141530822
 20
-3347.920487056713
 10
59208.19141530822
 20
-3634.920487056713
 10
59249.00690947596
 20
-3634.920487056713
 10
59358.19141530823
 20
-3744.138643558742
 10
59358.19141530823
 20
-3873.668679885065
 10
59249.00690947596
 20
-3982.920487056713
 10
59208.19141530822
 20
-3982.920487056713
 10
59208.19141530822
 20
-4269.920487056713
 10
58729.19141530819
 20
-4269.920487056713
 10
58729.19141530819
 20
-4272.920487056713
 10
58648.57940969766
 20
-4272.919469323777
 10
58497.80344700493
 20
-4272.918451591795
 10
58417.1914153082
 20
-4272.919469324254
 10
58417.1914153082
 20
-4269.920487056713
 10
58253.46224121182
 20
-4269.920487056713
 10
58020.92058940459
 20
-4269.920487056713
 10
57938.1914153082
 20
-4269.920487056713
  0
LWPOLYLINE
  5
3A0A
330
2
100
AcDbEntity
  8
0Hatch
100
AcDbPolyline
 90
       14
 70
     0
 10
58648.50755376354
 20
-4241.419468838587
 40
63.0
 41
63.0
 10
58729.19141530819
 20
-4241.419468838587
 40
63.0
 41
63.0
 10
58729.19141530819
 20
-4239.920487056712
 40
60.0
 41
60.0
 10
59178.19141530823
 20
-4239.920487056712
 40
60.0
 41
60.0
 10
59178.19141530823
 20
-3952.920487056713
 40
60.0
 41
60.0
 10
59236.57508774592
 20
-3952.920487056713
 40
60.0
 41
60.0
 10
59328.19141530822
 20
-3861.247687181715
 40
60.0
 41
60.0
 10
59328.19141530822
 20
-3756.562342842495
 40
60.0
 41
60.0
 10
59236.57779484452
 20
-3664.920487056713
 40
60.0
 41
60.0
 10
59178.19141530823
 20
-3664.920487056713
 40
60.0
 41
60.0
 10
59178.19141530823
 20
-3377.920487056713
 40
60.0
 41
60.0
 10
57968.1914153082
 20
-3377.920487056713
 40
60.0
 41
60.0
 10
57968.1914153082
 20
-4239.920487056712
 40
60.0
 41
60.0
 10
58020.92058940459
 20
-4239.920487056712
 40
60.0
 41
60.0
  0
LWPOLYLINE
  5
3A0B
330
2
100
AcDbEntity
  8
0Hatch
100
AcDbPolyline
 90
        4
 70
     0
 10
58253.46224121182
 20
-4239.920487056712
 40
60.0
 41
60.0
 10
58417.19139043731
 20
-4239.920487056713
 40
60.0
 41
60.0
 10
58417.1914153082
 20
-4241.419788813254
 40
63.0
 41
63.0
 10
58497.80306825286
 20
-4241.419469324254
 40
63.0
 41
63.0
  0
DIMENSION
  5
3A0C
330
2
100
AcDbEntity
  8
0Wymiary-PL
 48
4.0
100
AcDbDimension
  2
*D305
 10
59208.19141530822
 20
-4829.920487056713
 30
0.0
 11
58573.19141530821
 21
-4749.920487056712
 31
0.0
 70
    32
 71
     5
 42
1270.000000000029
  3
500
100
AcDbAlignedDimension
 13
57938.1914153082
 23
-4269.920487056713
 33
0.0
 14
59208.19141530822
 24
-4269.920487056713
 34
0.0
100
AcDbRotatedDimension
  0
DIMENSION
  5
3A1E
330
2
100
AcDbEntity
  8
0Wymiary-PL
 48
4.0
100
AcDbDimension
  2
*D306
 10
59358.19141530649
 20
-4829.920487056713
 30
0.0
 11
59283.19141530736
 21
-4749.920487056712
 31
0.0
 70
    32
 71
     5
 42
149.9999999982683
  3
500
100
AcDbAlignedDimension
 13
59208.19141530822
 23
-4269.920487056713
 33
0.0
 14
59358.19141530649
 24
-3873.702330554925
 34
30.0
100
AcDbRotatedDimension
  0
DIMENSION
  5
3A2B
330
2
100
AcDbEntity
  8
0Wymiary-PL
 48
4.0
100
AcDbDimension
  2
*D307
 10
59358.19141530823
 20
-5029.920487056713
 30
0.0
 11
58648.19141530821
 21
-4949.920487056712
 31
0.0
 70
    32
 71
     5
 42
1420.000000000029
  3
500
100
AcDbAlignedDimension
 13
57938.1914153082
 23
-4124.780424582954
 33
0.0
 14
59358.19141530823
 24
-3808.903661721904
 34
0.0
100
AcDbRotatedDimension
  0
DIMENSION
  5
3A3D
330
2
100
AcDbEntity
  8
0Wymiary-PL
 48
4.0
100
AcDbDimension
  2
*D308
 10
57738.19141530819
 20
-4269.920487056713
 30
0.0
 11
57658.19141530819
 21
-3808.920487056704
 31
0.0
 70
    32
 71
     5
 42
922.0
  3
500
100
AcDbAlignedDimension
 13
57938.1914153082
 23
-3347.920487056713
 33
0.0
 14
57738.19141530819
 24
-4269.920487056713
 34
0.0
 50
90.0
100
AcDbRotatedDimension
  0
HATCH
  5
3AA3
330
2
100
AcDbEntity
  8
0Hatch
100
AcDbHatch
 10
0.0
 20
0.0
 30
0.0
210
0.0
220
0.0
230
1.0
  2
SOLID
 70
     1
 71
     0
 91
        2
 92
        7
 72
     1
 73
     1
 93
        2
 10
63926.28250486747
 20
-4366.053816708991
 42
-1.0
 10
63891.28250486746
 20
-4366.053816708991
 42
-1.0
 97
        0
 92
        7
 72
     1
 73
     1
 93
        2
 10
63599.28250486746
 20
-4366.053816708991
 42
-1.0
 10
63634.28250486746
 20
-4366.053816708991
 42
-1.0
 97
        0
 75
     0
 76
     1
 47
0.4559588268049091
 98
        2
 10
63906.80324856287
 20
-4361.271839826216
 10
63616.20963095311
 20
-4368.567158322425
  0
LINE
  5
3AA4
330
2
100
AcDbEntity
  8
TEREN$0$A-MassElement-G
  6
Continuous
 62
   210
370
     5
100
AcDbLine
 10
62792.78250486746
 20
-3587.526566915004
 30
0.0
 11
62792.78250486746
 21
-3612.526566915004
 31
0.0
  0
LINE
  5
3AA5
330
2
100
AcDbEntity
  8
TEREN$0$A-MassElement-G
  6
Continuous
 62
   210
370
     5
100
AcDbLine
 10
62732.78250486746
 20
-3587.526566915004
 30
0.0
 11
62792.78250486746
 21
-3587.526566915004
 31
0.0
  0
LINE
  5
3AA6
330
2
100
AcDbEntity
  8
TEREN$0$A-MassElement-G
  6
Continuous
 62
   210
370
     5
100
AcDbLine
 10
62732.78250486746
 20
-3612.526566915004
 30
0.0
 11
62732.78250486746
 21
-3587.526566915004
 31
0.0
  0
LINE
  5
3AA7
330
2
100
AcDbEntity
  8
TEREN$0$A-MassElement-G
  6
Continuous
 62
   210
370
     5
100
AcDbLine
 10
62792.78250486746
 20
-3385.526566915004
 30
0.0
 11
62792.78250486746
 21
-3360.526566915004
 31
0.0
  0
LINE
  5
3AA8
330
2
100
AcDbEntity
  8
TEREN$0$A-MassElement-G
  6
Continuous
 62
   210
370
     5
100
AcDbLine
 10
62732.78250486746
 20
-3385.526566915004
 30
0.0
 11
62792.78250486746
 21
-3385.526566915004
 31
0.0
  0
LINE
  5
3AA9
330
2
100
AcDbEntity
  8
TEREN$0$A-MassElement-G
  6
Continuous
 62
   210
370
     5
100
AcDbLine
 10
62732.78250486746
 20
-3360.526566915004
 30
0.0
 11
62732.78250486746
 21
-3385.526566915004
 31
0.0
  0
LINE
  5
3AAA
330
2
100
AcDbEntity
  8
TEREN$0$A-MassElement-G
  6
Continuous
 62
   210
370
     5
100
AcDbLine
 10
62762.78250486746
 20
-3587.526566915004
 30
0.0
 11
62732.78250486746
 21
-3587.526566915004
 31
0.0
  0
LINE
  5
3AAB
330
2
100
AcDbEntity
  8
TEREN$0$A-MassElement-G
  6
Continuous
 62
   210
370
     5
100
AcDbLine
 10
62762.78250486746
 20
-3385.526566915004
 30
0.0
 11
62762.78250486746
 21
-3587.526566915004
 31
0.0
  0
LINE
  5
3AAC
330
2
100
AcDbEntity
  8
TEREN$0$A-MassElement-G
  6
Continuous
 62
   210
370
     5
100
AcDbLine
 10
62732.78250486746
 20
-3385.526566915004
 30
0.0
 11
62762.78250486746
 21
-3385.526566915004
 31
0.0
  0
LINE
  5
3AAD
330
2
100
AcDbEntity
  8
TEREN$0$A-MassElement-G
  6
Continuous
 62
   210
370
     5
100
AcDbLine
 10
62732.78250486746
 20
-3587.526566915004
 30
0.0
 11
62732.78250486746
 21
-3385.526566915004
 31
0.0
  0
LINE
  5
3AAE
330
2
100
AcDbEntity
  8
TEREN$0$A-MassElement-G
  6
Continuous
 62
   210
370
     5
100
AcDbLine
 10
62792.78250486746
 20
-3587.526566915004
 30
15.0
 11
62762.78250486746
 21
-3587.526566915004
 31
15.0
  0
LINE
  5
3AAF
330
2
100
AcDbEntity
  8
TEREN$0$A-MassElement-G
  6
Continuous
 62
   210
370
     5
100
AcDbLine
 10
62792.78250486746
 20
-3385.526566915004
 30
15.0
 11
62792.78250486746
 21
-3587.526566915004
 31
15.0
  0
LINE
  5
3AB0
330
2
100
AcDbEntity
  8
TEREN$0$A-MassElement-G
  6
Continuous
 62
   210
370
     5
100
AcDbLine
 10
62762.78250486746
 20
-3385.526566915004
 30
15.0
 11
62792.78250486746
 21
-3385.526566915004
 31
15.0
  0
LINE
  5
3AB1
330
2
100
AcDbEntity
  8
TEREN$0$A-MassElement-G
  6
Continuous
 62
   210
370
     5
100
AcDbLine
 10
62762.78250486746
 20
-3587.526566915004
 30
15.0
 11
62762.78250486746
 21
-3385.526566915004
 31
15.0
  0
ARC
  5
3AB2
330
2
100
AcDbEntity
  8
TEREN$0$A-MassElement-G
  6
Continuous
 62
   210
370
     5
100
AcDbCircle
 10
63001.72465554839
 20
-3666.005543487839
 30
30.0
 40
209.0721931227009
100
AcDbArc
 50
177.9790546759828
 51
263.4242796615779
  0
ARC
  5
3AB3
330
2
100
AcDbEntity
  8
TEREN$0$A-MassElement-G
  6
Continuous
 62
   210
370
     5
100
AcDbCircle
 10
63022.78250486746
 20
-3314.420487056713
 30
30.0
 40
229.9999999999998
100
AcDbArc
 50
90.0
 51
180.0
  0
LINE
  5
3AB4
330
2
100
AcDbEntity
  8
TEREN$0$A-MassElement-G
  6
Continuous
 62
   210
370
     5
100
AcDbLine
 10
62792.78250486746
 20
-3658.632646773325
 30
30.0
 11
62792.78250486746
 21
-3314.420487056713
 31
30.0
  0
LINE
  5
3AB5
330
2
100
AcDbEntity
  8
TEREN$0$A-MassElement-G
  6
Continuous
 62
   210
370
     5
100
AcDbLine
 10
63728.57406972135
 20
-3054.420487056713
 30
0.0
 11
63728.57406972135
 21
-3024.420487056713
 31
0.0
  0
LINE
  5
3AB6
330
2
100
AcDbEntity
  8
TEREN$0$A-MassElement-G
  6
Continuous
 62
   210
370
     5
100
AcDbLine
 10
63578.57406972136
 20
-3054.420487056713
 30
0.0
 11
63728.57406972135
 21
-3054.420487056713
 31
0.0
  0
LINE
  5
3AB7
330
2
100
AcDbEntity
  8
TEREN$0$A-MassElement-G
  6
Continuous
 62
   210
370
     5
100
AcDbLine
 10
63578.57406972136
 20
-3024.420487056713
 30
0.0
 11
63578.57406972136
 21
-3054.420487056713
 31
0.0
  0
LINE
  5
3AB8
330
2
100
AcDbEntity
  8
TEREN$0$A-MassElement-G
  6
Continuous
 62
   210
370
     5
100
AcDbLine
 10
63728.57406972135
 20
-3024.420487056713
 30
0.0
 11
63578.57406972136
 21
-3024.420487056713
 31
0.0
  0
LINE
  5
3AB9
330
2
100
AcDbEntity
  8
TEREN$0$A-MassElement-G
  6
Continuous
 62
   210
370
     5
100
AcDbLine
 10
63578.57406972136
 20
-3084.420487056713
 30
0.0
 11
63553.57406972135
 21
-3084.420487056713
 31
0.0
  0
LINE
  5
3ABA
330
2
100
AcDbEntity
  8
TEREN$0$A-MassElement-G
  6
Continuous
 62
   210
370
     5
100
AcDbLine
 10
63578.57406972136
 20
-3024.420487056713
 30
0.0
 11
63578.57406972136
 21
-3084.420487056713
 31
0.0
  0
LINE
  5
3ABB
330
2
100
AcDbEntity
  8
TEREN$0$A-MassElement-G
  6
Continuous
 62
   210
370
     5
100
AcDbLine
 10
63553.57406972135
 20
-3024.420487056713
 30
0.0
 11
63578.57406972136
 21
-3024.420487056713
 31
0.0
  0
LINE
  5
3ABC
330
2
100
AcDbEntity
  8
TEREN$0$A-MassElement-G
  6
Continuous
 62
   210
370
     5
100
AcDbLine
 10
63728.57406972135
 20
-3084.420487056713
 30
0.0
 11
63753.57406972136
 21
-3084.420487056713
 31
0.0
  0
LINE
  5
3ABD
330
2
100
AcDbEntity
  8
TEREN$0$A-MassElement-G
  6
Continuous
 62
   210
370
     5
100
AcDbLine
 10
63728.57406972135
 20
-3024.420487056713
 30
0.0
 11
63728.57406972135
 21
-3084.420487056713
 31
0.0
  0
LINE
  5
3ABE
330
2
100
AcDbEntity
  8
TEREN$0$A-MassElement-G
  6
Continuous
 62
   210
370
     5
100
AcDbLine
 10
63753.57406972136
 20
-3024.420487056713
 30
0.0
 11
63728.57406972135
 21
-3024.420487056713
 31
0.0
  0
LINE
  5
3ABF
330
2
100
AcDbEntity
  8
TEREN$0$A-MassElement-G
  6
Continuous
 62
   210
370
     5
100
AcDbLine
 10
63728.57406972135
 20
-3084.420487056713
 30
15.0
 11
63728.57406972135
 21
-3054.420487056713
 31
15.0
  0
LINE
  5
3AC0
330
2
100
AcDbEntity
  8
TEREN$0$A-MassElement-G
  6
Continuous
 62
   210
370
     5
100
AcDbLine
 10
63578.57406972136
 20
-3084.420487056713
 30
15.0
 11
63728.57406972135
 21
-3084.420487056713
 31
15.0
  0
LINE
  5
3AC1
330
2
100
AcDbEntity
  8
TEREN$0$A-MassElement-G
  6
Continuous
 62
   210
370
     5
100
AcDbLine
 10
63578.57406972136
 20
-3054.420487056713
 30
15.0
 11
63578.57406972136
 21
-3084.420487056713
 31
15.0
  0
LINE
  5
3AC2
330
2
100
AcDbEntity
  8
TEREN$0$A-MassElement-G
  6
Continuous
 62
   210
370
     5
100
AcDbLine
 10
63728.57406972135
 20
-3054.420487056713
 30
15.0
 11
63578.57406972136
 21
-3054.420487056713
 31
15.0
  0
LINE
  5
3AC3
330
2
100
AcDbEntity
  8
TEREN$0$A-MassElement-G
  6
Continuous
 62
   210
370
     5
100
AcDbLine
 10
63022.78250486746
 20
-3084.420487056713
 30
30.0
 11
64002.78250486747
 21
-3084.420487056713
 31
30.0
  0
LINE
  5
3AC4
330
2
100
AcDbEntity
  8
TEREN$0$A-MassElement-G
  6
Continuous
 62
   210
370
     5
100
AcDbLine
 10
64002.78250486747
 20
-3084.420487056713
 30
30.0
 11
64002.78250486747
 21
-3347.920487056713
 31
30.0
  0
LINE
  5
3AC5
330
2
100
AcDbEntity
  8
TEREN$0$A-MassElement-G
  6
Continuous
 62
   210
370
     5
100
AcDbLine
 10
64397.7825048675
 20
-4269.920487056713
 30
0.0
 11
64397.7825048675
 21
-4369.920487056712
 31
0.0
  0
3DFACE
  5
3AC6
330
2
100
AcDbEntity
  8
TEREN$0$A-MassElement-G
  6
Continuous
 62
   210
370
     5
100
AcDbFace
 10
64397.78253026748
 20
-4629.920487056713
 30
0.0000000000000142
 11
64397.78253026748
 21
-4369.920461656723
 31
33.00000000000133
 12
64397.78253026748
 22
-4369.920461656723
 32
0.0000000000000142
 13
64397.78253026748
 23
-4369.920461656723
 33
0.0000000000000142
  0
3DFACE
  5
3AC7
330
2
100
AcDbEntity
  8
TEREN$0$A-MassElement-G
  6
Continuous
 62
   210
370
     5
100
AcDbFace
 10
64045.98829365154
 20
-4486.919972441793
 30
0.0
 11
64049.8521668346
 21
-4489.920487056712
 31
0.0
 12
64049.8521668346
 22
-4489.920487056712
 32
41.42811073385985
 13
64045.98829365154
 23
-4486.919972441793
 33
43.14270203315738
  0
3DFACE
  5
3AC8
330
2
100
AcDbEntity
  8
TEREN$0$A-MassElement-G
  6
Continuous
 62
   210
370
     5
100
AcDbFace
 10
64049.8521668346
 20
-4489.920487056712
 30
0.0
 11
64037.7904388243
 21
-4505.874004455888
 31
0.0
 12
64037.7904388243
 22
-4505.874004455888
 32
32.31175382968556
 13
64049.8521668346
 23
-4489.920487056712
 33
41.42811073385985
  0
3DFACE
  5
3AC9
330
2
100
AcDbEntity
  8
TEREN$0$A-MassElement-G
  6
Continuous
 62
   210
370
     5
100
AcDbFace
 10
64037.7904388243
 20
-4505.874004455888
 30
0.0
 11
64015.91419385763
 21
-4486.860228873026
 31
0.0
 12
64015.91419385763
 22
-4486.860228873026
 32
43.17684144467043
 13
64037.7904388243
 23
-4505.874004455888
 33
32.31175382968556
  0
3DFACE
  5
3ACA
330
2
100
AcDbEntity
  8
TEREN$0$A-MassElement-G
  6
Continuous
 62
   210
370
     5
100
AcDbFace
 10
64397.78253026748
 20
-4629.920487056713
 30
0.0000000000000142
 11
64047.35261669809
 21
-4629.91941076793
 31
0.0002138955267057
 12
64047.35261669809
 22
-4489.920514410559
 32
17.76930285114232
 13
64047.35261669809
 23
-4489.920514410559
 33
17.76930285114232
 70
    12
  0
3DFACE
  5
3ACB
330
2
100
AcDbEntity
  8
TEREN$0$A-MassElement-G
  6
Continuous
 62
   210
370
     5
100
AcDbFace
 10
64047.35261669809
 20
-4489.920514410559
 30
0.0000000000000142
 11
64047.35261669809
 21
-4489.920514410559
 31
17.76930285114232
 12
64047.35261669809
 22
-4629.920487056713
 32
0.0000000000000142
 13
64047.35261669809
 23
-4629.920487056713
 33
0.0000000000000142
 70
     2
  0
3DFACE
  5
3ACC
330
2
100
AcDbEntity
  8
TEREN$0$A-MassElement-G
  6
Continuous
 62
   210
370
     5
100
AcDbFace
 10
64047.35261669809
 20
-4629.920487056713
 30
0.0000276147944476
 11
64047.35261669809
 21
-4629.920487056713
 31
0.0000000000000142
 12
64047.35261669809
 22
-4489.920514410559
 32
17.76930285114232
 13
64047.35261669809
 23
-4629.91941076793
 33
0.0002138955267057
 70
     2
  0
3DFACE
  5
3ACD
330
2
100
AcDbEntity
  8
TEREN$0$A-MassElement-G
  6
Continuous
 62
   210
370
     5
100
AcDbFace
 10
64032.11583268217
 20
-4475.899956321832
 30
0.0000000000000142
 11
64032.11583268217
 21
-4475.899956321832
 31
19.54883841067024
 12
64043.62182731806
 22
-4486.920000381906
 32
18.15013810965751
 13
64043.62182731806
 23
-4486.920000381906
 33
0.0000000000000142
  0
3DFACE
  5
3ACE
330
2
100
AcDbEntity
  8
TEREN$0$A-MassElement-G
  6
Continuous
 62
   210
370
     5
100
AcDbFace
 10
64043.62182731806
 20
-4486.920000381906
 30
0.0000000000000142
 11
64043.62182731806
 21
-4486.920000381906
 31
18.15013810965751
 12
64047.35261669809
 22
-4489.920514410559
 32
17.76930285114232
 13
64047.35261669809
 23
-4489.920514410559
 33
0.0000000000000142
  0
3DFACE
  5
3ACF
330
2
100
AcDbEntity
  8
TEREN$0$A-MassElement-G
  6
Continuous
 62
   210
370
     5
100
AcDbFace
 10
64047.35261669809
 20
-4629.91941076793
 30
0.0002138955267057
 11
64397.78253026748
 21
-4629.920487056713
 31
0.0000000000000142
 12
64047.35261669809
 22
-4629.920487056713
 32
0.0000276147944476
 13
64047.35261669809
 23
-4629.920487056713
 33
0.0000276147944476
  0
3DFACE
  5
3AD0
330
2
100
AcDbEntity
  8
TEREN$0$A-MassElement-G
  6
Continuous
 62
   210
370
     5
100
AcDbFace
 10
64047.35261669809
 20
-4629.920487056713
 30
0.0000276147944476
 11
64397.78253026748
 21
-4629.920487056713
 31
0.0000000000000142
 12
64047.35261669809
 22
-4629.920487056713
 32
0.0000000000000142
 13
64047.35261669809
 23
-4629.920487056713
 33
0.0000000000000142
  0
3DFACE
  5
3AD1
330
2
100
AcDbEntity
  8
TEREN$0$A-MassElement-G
  6
Continuous
 62
   210
370
     5
100
AcDbFace
 10
64397.78253026748
 20
-4629.920487056713
 30
0.0000000000000142
 11
64397.78253026748
 21
-4369.920461656723
 31
0.0000000000000142
 12
64047.35261669809
 22
-4489.920514410559
 32
0.0000000000000142
 13
64047.35261669809
 23
-4629.920487056713
 33
0.0000000000000142
 70
     2
  0
3DFACE
  5
3AD2
330
2
100
AcDbEntity
  8
TEREN$0$A-MassElement-G
  6
Continuous
 62
   210
370
     5
100
AcDbFace
 10
64037.7904388243
 20
-4505.874004455888
 30
0.0
 11
64049.8521668346
 21
-4489.920487056712
 31
0.0
 12
64045.98829365154
 22
-4486.919972441793
 32
0.0
 13
64045.98829365154
 23
-4486.919972441793
 33
0.0
 70
    12
  0
3DFACE
  5
3AD3
330
2
100
AcDbEntity
  8
TEREN$0$A-MassElement-G
  6
Continuous
 62
   210
370
     5
100
AcDbFace
 10
64037.7904388243
 20
-4505.874004455888
 30
32.31175382968556
 11
64015.91419385763
 21
-4486.860228873026
 31
43.17684144467043
 12
64045.98829365154
 22
-4486.919972441793
 32
43.14270203315738
 13
64049.8521668346
 23
-4489.920487056712
 33
41.42811073385985
 70
     2
  0
3DFACE
  5
3AD4
330
2
100
AcDbEntity
  8
TEREN$0$A-MassElement-G
  6
Continuous
 62
   210
370
     5
100
AcDbFace
 10
63990.10570901975
 20
-4455.412499107995
 30
61.1470934706658
 11
64045.98829365154
 21
-4486.919972441793
 31
43.14270203315738
 12
64015.91419385763
 22
-4486.860228873026
 32
43.17684144467043
 13
64015.91419385763
 23
-4486.860228873026
 33
43.17684144467043
 70
     3
  0
3DFACE
  5
3AD5
330
2
100
AcDbEntity
  8
TEREN$0$A-MassElement-G
  6
Continuous
 62
   210
370
     5
100
AcDbFace
 10
64045.98829365154
 20
-4486.919972441793
 30
43.14270203315738
 11
63990.10570901975
 21
-4455.412499107995
 31
61.1470934706658
 12
63970.9282747078
 22
-4419.53404303459
 32
81.64920611155073
 13
64016.00250044156
 23
-4456.934179231809
 33
60.27755612943032
 70
     5
  0
3DFACE
  5
3AD6
330
2
100
AcDbEntity
  8
TEREN$0$A-MassElement-G
  6
Continuous
 62
   210
370
     5
100
AcDbFace
 10
63977.28250486746
 20
-4370.106958636077
 30
0.0
 11
63979.43506229953
 21
-4381.001111512065
 31
0.0
 12
63979.43506229953
 22
-4381.001111512065
 32
103.668172057074
 13
63977.28250486746
 23
-4370.106958636077
 33
109.8934440959014
  0
3DFACE
  5
3AD7
330
2
100
AcDbEntity
  8
TEREN$0$A-MassElement-G
  6
Continuous
 62
   210
370
     5
100
AcDbFace
 10
63979.43506229953
 20
-4381.001111512065
 30
0.0
 11
63993.44098038272
 21
-4421.027725751971
 31
0.0
 12
63993.44098038272
 22
-4421.027725751971
 32
80.79566739575751
 13
63979.43506229953
 23
-4381.001111512065
 33
103.668172057074
  0
3DFACE
  5
3AD8
330
2
100
AcDbEntity
  8
TEREN$0$A-MassElement-G
  6
Continuous
 62
   210
370
     5
100
AcDbFace
 10
63993.44098038272
 20
-4421.027725751971
 30
0.0
 11
64016.00250044156
 21
-4456.934179231809
 31
0.0
 12
64016.00250044156
 22
-4456.934179231809
 32
60.27755612943032
 13
63993.44098038272
 23
-4421.027725751971
 33
80.79566739575751
  0
3DFACE
  5
3AD9
330
2
100
AcDbEntity
  8
TEREN$0$A-MassElement-G
  6
Continuous
 62
   210
370
     5
100
AcDbFace
 10
64016.00250044156
 20
-4456.934179231809
 30
0.0
 11
64045.98829365154
 21
-4486.919972441793
 31
0.0
 12
64045.98829365154
 22
-4486.919972441793
 32
43.14270203315738
 13
64016.00250044156
 23
-4456.934179231809
 33
60.27755612943032
  0
3DFACE
  5
3ADA
330
2
100
AcDbEntity
  8
TEREN$0$A-MassElement-G
  6
Continuous
 62
   210
370
     5
100
AcDbFace
 10
64015.91419385763
 20
-4486.860228873026
 30
0.0
 11
63990.10570901975
 21
-4455.412499107995
 31
0.0
 12
63990.10570901975
 22
-4455.412499107995
 32
61.1470934706658
 13
64015.91419385763
 23
-4486.860228873026
 33
43.17684144467043
  0
3DFACE
  5
3ADB
330
2
100
AcDbEntity
  8
TEREN$0$A-MassElement-G
  6
Continuous
 62
   210
370
     5
100
AcDbFace
 10
63990.10570901975
 20
-4455.412499107995
 30
0.0
 11
63970.9282747078
 21
-4419.53404303459
 31
0.0
 12
63970.9282747078
 22
-4419.53404303459
 32
81.64920611155073
 13
63990.10570901975
 23
-4455.412499107995
 33
61.1470934706658
  0
3DFACE
  5
3ADC
330
2
100
AcDbEntity
  8
TEREN$0$A-MassElement-G
  6
Continuous
 62
   210
370
     5
100
AcDbFace
 10
63970.9282747078
 20
-4419.53404303459
 30
0.0
 11
63959.11886896751
 21
-4380.603649598831
 31
0.0
 12
63959.11886896751
 22
-4380.603649598831
 32
103.8952946762532
 13
63970.9282747078
 23
-4419.53404303459
 33
81.64920611155073
  0
3DFACE
  5
3ADD
330
2
100
AcDbEntity
  8
0
  6
Continuous
370
     5
100
AcDbFace
 10
63959.11886896751
 20
-4380.603649598831
 30
0.0
 11
63957.28250486746
 21
-4369.920487056712
 31
0.0
 12
63957.28250486746
 22
-4369.920487056712
 32
110.0
 13
63959.11886896751
 23
-4380.603649598831
 33
103.8952946762532
  0
3DFACE
  5
3ADE
330
2
100
AcDbEntity
  8
TEREN$0$A-MassElement-G
  6
Continuous
 62
   210
370
     5
100
AcDbFace
 10
63977.28250486746
 20
-4269.920487056713
 30
0.0
 11
63977.28250486746
 21
-4370.106958636077
 31
0.0
 12
63977.28250486746
 22
-4269.920487056713
 32
110.0
 13
63977.28250486746
 23
-4269.920487056713
 33
110.0
 70
     2
  0
3DFACE
  5
3ADF
330
2
100
AcDbEntity
  8
TEREN$0$A-MassElement-G
  6
Continuous
 62
   210
370
     5
100
AcDbFace
 10
63977.28250486746
 20
-4369.920487056712
 30
110.0
 11
63977.28250486746
 21
-4269.920487056713
 31
110.0
 12
63977.28250486746
 22
-4370.106958636077
 32
0.0
 13
63977.28250486746
 23
-4370.106958636077
 33
109.8934440959014
 70
     2
  0
3DFACE
  5
3AE0
330
2
100
AcDbEntity
  8
0
  6
Continuous
370
     5
100
AcDbFace
 10
63957.28250486746
 20
-4369.920487056712
 30
0.0
 11
63957.28250486746
 21
-4269.920487056713
 31
0.0
 12
63957.28250486746
 22
-4269.920487056713
 32
110.0
 13
63957.28250486746
 23
-4369.920487056712
 33
110.0
  0
3DFACE
  5
3AE1
330
2
100
AcDbEntity
  8
TEREN$0$A-MassElement-G
  6
Continuous
 62
   210
370
     5
100
AcDbFace
 10
64000.22776160505
 20
-4432.860198061936
 30
25.01158345850353
 11
63988.61894862402
 21
-4408.480133430734
 31
28.10597853518259
 12
64397.78253026748
 22
-4369.920461656723
 32
33.00000000000133
 13
64397.78253026748
 23
-4629.920487056713
 33
0.0000000000000142
 70
    10
  0
3DFACE
  5
3AE2
330
2
100
AcDbEntity
  8
TEREN$0$A-MassElement-G
  6
Continuous
 62
   210
370
     5
100
AcDbFace
 10
64014.80989105035
 20
-4455.462382238235
 30
22.14284176173364
 11
64000.22776160505
 21
-4432.860198061936
 31
25.01158345850353
 12
64397.78253026748
 22
-4629.920487056713
 32
0.0000000000000142
 13
64047.35261669809
 23
-4489.920514410559
 33
17.76930285114232
 70
    14
  0
3DFACE
  5
3AE3
330
2
100
AcDbEntity
  8
TEREN$0$A-MassElement-G
  6
Continuous
 62
   210
370
     5
100
AcDbFace
 10
64032.11583268217
 20
-4475.899956321832
 30
19.54883841067024
 11
64014.80989105035
 21
-4455.462382238235
 31
22.14284176173364
 12
64047.35261669809
 22
-4489.920514410559
 32
17.76930285114232
 13
64043.62182731806
 23
-4486.920000381906
 33
18.15013810965751
 70
     2
  0
3DFACE
  5
3AE4
330
2
100
AcDbEntity
  8
TEREN$0$A-MassElement-G
  6
Continuous
 62
   210
370
     5
100
AcDbFace
 10
64397.78253026748
 20
-4369.920461656723
 30
0.0000000000000142
 11
64397.78253026748
 21
-4369.920461656723
 31
33.00000000000133
 12
63977.28247946747
 22
-4369.920461656723
 32
33.00009274410396
 13
63977.28247946747
 23
-4369.920461656723
 33
0.0000000000000142
  0
3DFACE
  5
3AE5
330
2
100
AcDbEntity
  8
TEREN$0$A-MassElement-G
  6
Continuous
 62
   210
370
     5
100
AcDbFace
 10
63977.28247946747
 20
-4369.920461656723
 30
0.0000000000000142
 11
63977.28247946747
 21
-4369.920461656723
 31
33.00009274410396
 12
63980.18208211589
 22
-4382.739338009903
 32
31.3730810340806
 13
63980.18208211589
 23
-4382.739338009903
 33
0.0000000000000142
  0
3DFACE
  5
3AE6
330
2
100
AcDbEntity
  8
TEREN$0$A-MassElement-G
  6
Continuous
 62
   210
370
     5
100
AcDbFace
 10
63980.18208211589
 20
-4382.739338009903
 30
0.0000000000000142
 11
63980.18208211589
 21
-4382.739338009903
 31
31.3730810340806
 12
63988.61894862402
 22
-4408.480133430734
 32
28.10597853518259
 13
63988.61894862402
 23
-4408.480133430734
 33
0.0000000000000142
  0
3DFACE
  5
3AE7
330
2
100
AcDbEntity
  8
TEREN$0$A-MassElement-G
  6
Continuous
 62
   210
370
     5
100
AcDbFace
 10
63988.61894862402
 20
-4408.480133430734
 30
0.0000000000000142
 11
63988.61894862402
 21
-4408.480133430734
 31
28.10597853518259
 12
64000.22776160505
 22
-4432.860198061936
 32
25.01158345850353
 13
64000.22776160505
 23
-4432.860198061936
 33
0.0000000000000142
  0
3DFACE
  5
3AE8
330
2
100
AcDbEntity
  8
TEREN$0$A-MassElement-G
  6
Continuous
 62
   210
370
     5
100
AcDbFace
 10
64000.22776160505
 20
-4432.860198061936
 30
0.0000000000000142
 11
64000.22776160505
 21
-4432.860198061936
 31
25.01158345850353
 12
64014.80989105035
 22
-4455.462382238235
 32
22.14284176173364
 13
64014.80989105035
 23
-4455.462382238235
 33
0.0000000000000142
  0
3DFACE
  5
3AE9
330
2
100
AcDbEntity
  8
TEREN$0$A-MassElement-G
  6
Continuous
 62
   210
370
     5
100
AcDbFace
 10
64014.80989105035
 20
-4455.462382238235
 30
0.0000000000000142
 11
64014.80989105035
 21
-4455.462382238235
 31
22.14284176173364
 12
64032.11583268217
 22
-4475.899956321832
 32
19.54883841067024
 13
64032.11583268217
 23
-4475.899956321832
 33
0.0000000000000142
  0
3DFACE
  5
3AEA
330
2
100
AcDbEntity
  8
TEREN$0$A-MassElement-G
  6
Continuous
 62
   210
370
     5
100
AcDbFace
 10
64397.78253026748
 20
-4369.920461656723
 30
0.0000000000000142
 11
63977.28247946747
 21
-4369.920461656723
 31
0.0000000000000142
 12
64047.35261669809
 22
-4489.920514410559
 32
0.0000000000000142
 13
64047.35261669809
 23
-4489.920514410559
 33
0.0000000000000142
 70
    14
  0
3DFACE
  5
3AEB
330
2
100
AcDbEntity
  8
TEREN$0$A-MassElement-G
  6
Continuous
 62
   210
370
     5
100
AcDbFace
 10
64047.35261669809
 20
-4489.920514410559
 30
0.0000000000000142
 11
63977.28247946747
 21
-4369.920461656723
 31
0.0000000000000142
 12
63980.18208211589
 22
-4382.739338009903
 32
0.0000000000000142
 13
63988.61894862402
 23
-4408.480133430734
 33
0.0000000000000142
 70
     9
  0
3DFACE
  5
3AEC
330
2
100
AcDbEntity
  8
TEREN$0$A-MassElement-G
  6
Continuous
 62
   210
370
     5
100
AcDbFace
 10
64047.35261669809
 20
-4489.920514410559
 30
0.0000000000000142
 11
63988.61894862402
 21
-4408.480133430734
 31
0.0000000000000142
 12
64000.22776160505
 22
-4432.860198061936
 32
0.0000000000000142
 13
64014.80989105035
 23
-4455.462382238235
 33
0.0000000000000142
 70
     9
  0
3DFACE
  5
3AED
330
2
100
AcDbEntity
  8
TEREN$0$A-MassElement-G
  6
Continuous
 62
   210
370
     5
100
AcDbFace
 10
64047.35261669809
 20
-4489.920514410559
 30
0.0000000000000142
 11
64014.80989105035
 21
-4455.462382238235
 31
0.0000000000000142
 12
64032.11583268217
 22
-4475.899956321832
 32
0.0000000000000142
 13
64043.62182731806
 23
-4486.920000381906
 33
0.0000000000000142
 70
     1
  0
LINE
  5
3AEE
330
2
100
AcDbEntity
  8
TEREN$0$A-MassElement-G
  6
Continuous
 62
   210
370
     5
100
AcDbLine
 10
64397.7825048675
 20
-4369.920487056712
 30
0.0
 11
63977.28250486746
 21
-4369.920487056712
 31
0.0
  0
LINE
  5
3AEF
330
2
100
AcDbEntity
  8
TEREN$0$A-MassElement-G
  6
Continuous
 62
   210
370
     5
100
AcDbLine
 10
63977.28250486746
 20
-4369.920487056712
 30
0.0
 11
63977.28250486746
 21
-4269.920487056713
 31
0.0
  0
3DFACE
  5
3AF0
330
2
100
AcDbEntity
  8
TEREN$0$A-MassElement-G
  6
Continuous
 62
   210
370
     5
100
AcDbFace
 10
63957.28250486746
 20
-4369.920487056712
 30
0.0
 11
63959.11886896751
 21
-4380.603649598831
 31
0.0
 12
63970.9282747078
 22
-4419.53404303459
 32
0.0
 13
63977.28250486746
 23
-4370.106958636077
 33
0.0
 70
    12
  0
3DFACE
  5
3AF1
330
2
100
AcDbEntity
  8
TEREN$0$A-MassElement-G
  6
Continuous
 62
   210
370
     5
100
AcDbFace
 10
63957.28250486746
 20
-4269.920487056713
 30
0.0
 11
63957.28250486746
 21
-4369.920487056712
 31
0.0
 12
63977.28250486746
 22
-4370.106958636077
 32
0.0
 13
63977.28250486746
 23
-4269.920487056713
 33
0.0
 70
     2
  0
3DFACE
  5
3AF2
330
2
100
AcDbEntity
  8
TEREN$0$A-MassElement-G
  6
Continuous
 62
   210
370
     5
100
AcDbFace
 10
63977.28250486746
 20
-4370.106958636077
 30
0.0
 11
63970.9282747078
 21
-4419.53404303459
 31
0.0
 12
63990.10570901975
 22
-4455.412499107995
 32
0.0
 13
63979.43506229953
 23
-4381.001111512065
 33
0.0
 70
     5
  0
3DFACE
  5
3AF3
330
2
100
AcDbEntity
  8
TEREN$0$A-MassElement-G
  6
Continuous
 62
   210
370
     5
100
AcDbFace
 10
63979.43506229953
 20
-4381.001111512065
 30
0.0
 11
63990.10570901975
 21
-4455.412499107995
 31
0.0
 12
64015.91419385763
 22
-4486.860228873026
 32
0.0
 13
63993.44098038272
 23
-4421.027725751971
 33
0.0
 70
     5
  0
3DFACE
  5
3AF4
330
2
100
AcDbEntity
  8
TEREN$0$A-MassElement-G
  6
Continuous
 62
   210
370
     5
100
AcDbFace
 10
63993.44098038272
 20
-4421.027725751971
 30
0.0
 11
64015.91419385763
 21
-4486.860228873026
 31
0.0
 12
64037.7904388243
 22
-4505.874004455888
 32
0.0
 13
64016.00250044156
 23
-4456.934179231809
 33
0.0
 70
     5
  0
3DFACE
  5
3AF5
330
2
100
AcDbEntity
  8
TEREN$0$A-MassElement-G
  6
Continuous
 62
   210
370
     5
100
AcDbFace
 10
64037.7904388243
 20
-4505.874004455888
 30
0.0
 11
64045.98829365154
 21
-4486.919972441793
 31
0.0
 12
64016.00250044156
 22
-4456.934179231809
 32
0.0
 13
64016.00250044156
 23
-4456.934179231809
 33
0.0
 70
    13
  0
LINE
  5
3AF6
330
2
100
AcDbEntity
  8
TEREN$0$A-MassElement-G
  6
Continuous
 62
   210
370
     5
100
AcDbLine
 10
63975.56794909914
 20
-4429.920487056713
 30
0.0
 11
63993.2045631711
 21
-4459.920487056712
 31
0.0
  0
LINE
  5
3AF7
330
2
100
AcDbEntity
  8
TEREN$0$A-MassElement-G
  6
Continuous
 62
   210
370
     5
100
AcDbLine
 10
63963.9348372807
 20
-4399.920487056713
 30
15.0
 11
63975.56794909914
 21
-4429.920487056713
 31
15.0
  0
3DFACE
  5
3AF8
330
2
100
AcDbEntity
  8
TEREN$0$A-MassElement-G
  6
Continuous
 62
   210
370
     5
100
AcDbFace
 10
63988.61894862402
 20
-4408.480133430734
 30
28.10597853518259
 11
63980.18208211589
 21
-4382.739338009903
 31
31.3730810340806
 12
63977.28247946747
 22
-4369.920461656723
 32
33.00009274410396
 13
64397.78253026748
 23
-4369.920461656723
 33
33.00000000000133
 70
     8
  0
LINE
  5
3AF9
330
2
100
AcDbEntity
  8
0
  6
Continuous
370
     5
100
AcDbLine
 10
63957.28250486746
 20
-4369.920487056712
 30
30.0
 11
63955.95797804954
 21
-4369.920487056712
 31
30.0
  0
LINE
  5
3AFA
330
2
100
AcDbEntity
  8
0
  6
Continuous
370
     5
100
AcDbLine
 10
63957.28250486746
 20
-4269.920487056713
 30
30.0
 11
63957.28250486746
 21
-4369.920487056712
 31
30.0
  0
LINE
  5
3AFB
330
2
100
AcDbEntity
  8
TEREN$0$A-MassElement-G
  6
Continuous
 62
   210
370
     5
100
AcDbLine
 10
63955.95797804954
 20
-4369.920487056712
 30
30.0
 11
63963.9348372807
 21
-4399.920487056713
 31
30.0
  0
3DFACE
  5
3AFC
330
2
100
AcDbEntity
  8
TEREN$0$A-MassElement-G
  6
Continuous
 62
   210
370
     5
100
AcDbFace
 10
63970.9282747078
 20
-4419.53404303459
 30
81.64920611155073
 11
63959.11886896751
 21
-4380.603649598831
 31
103.8952946762532
 12
64016.00250044156
 22
-4456.934179231809
 32
60.27755612943032
 13
64016.00250044156
 23
-4456.934179231809
 33
60.27755612943032
 70
    14
  0
3DFACE
  5
3AFD
330
2
100
AcDbEntity
  8
TEREN$0$A-MassElement-G
  6
Continuous
 62
   210
370
     5
100
AcDbFace
 10
64016.00250044156
 20
-4456.934179231809
 30
60.27755612943032
 11
63959.11886896751
 21
-4380.603649598831
 31
103.8952946762532
 12
63957.28250486746
 22
-4369.920487056712
 32
110.0
 13
63993.44098038272
 23
-4421.027725751971
 33
80.79566739575751
 70
     5
  0
3DFACE
  5
3AFE
330
2
100
AcDbEntity
  8
TEREN$0$A-MassElement-G
  6
Continuous
 62
   210
370
     5
100
AcDbFace
 10
63957.28250486746
 20
-4369.920487056712
 30
110.0
 11
63979.43506229953
 21
-4381.001111512065
 31
103.668172057074
 12
63993.44098038272
 22
-4421.027725751971
 32
80.79566739575751
 13
63993.44098038272
 23
-4421.027725751971
 33
80.79566739575751
 70
    13
  0
3DFACE
  5
3AFF
330
2
100
AcDbEntity
  8
TEREN$0$A-MassElement-G
  6
Continuous
 62
   210
370
     5
100
AcDbFace
 10
63957.28250486746
 20
-4369.920487056712
 30
110.0
 11
63977.28250486746
 21
-4370.106958636077
 31
109.8934440959014
 12
63979.43506229953
 22
-4381.001111512065
 32
103.668172057074
 13
63979.43506229953
 23
-4381.001111512065
 33
103.668172057074
 70
    13
  0
3DFACE
  5
3B00
330
2
100
AcDbEntity
  8
TEREN$0$A-MassElement-G
  6
Continuous
 62
   210
370
     5
100
AcDbFace
 10
63957.28250486746
 20
-4369.920487056712
 30
110.0
 11
63977.28250486746
 21
-4369.920487056712
 31
110.0
 12
63977.28250486746
 22
-4370.106958636077
 32
109.8934440959014
 13
63977.28250486746
 23
-4370.106958636077
 33
109.8934440959014
 70
    12
  0
3DFACE
  5
3B01
330
2
100
AcDbEntity
  8
TEREN$0$A-MassElement-G
  6
Continuous
 62
   210
370
     5
100
AcDbFace
 10
63957.28250486746
 20
-4369.920487056712
 30
110.0
 11
63957.28250486746
 21
-4269.920487056713
 31
110.0
 12
63977.28250486746
 22
-4269.920487056713
 32
110.0
 13
63977.28250486746
 23
-4369.920487056712
 33
110.0
  0
3DFACE
  5
3B02
330
2
100
AcDbEntity
  8
TEREN$0$A-MassElement-G
  6
Continuous
 62
   210
370
     5
100
AcDbFace
 10
63546.12994743543
 20
-4381.001111512065
 30
103.668172057074
 11
63535.4593007152
 21
-4455.412499107995
 31
61.1470934706658
 12
63509.65081587733
 22
-4486.860228873026
 32
43.17684144467043
 13
63532.12402935223
 23
-4421.027725751971
 33
80.79566739575751
 70
     5
  0
3DFACE
  5
3B03
330
2
100
AcDbEntity
  8
TEREN$0$A-MassElement-G
  6
Continuous
 62
   210
370
     5
100
AcDbFace
 10
63532.12402935223
 20
-4421.027725751971
 30
80.79566739575751
 11
63509.65081587733
 21
-4486.860228873026
 31
43.17684144467043
 12
63487.77457091066
 22
-4505.874004455888
 32
32.31175382968556
 13
63509.5625092934
 23
-4456.934179231809
 33
60.27755612943032
 70
     5
  0
3DFACE
  5
3B04
330
2
100
AcDbEntity
  8
TEREN$0$A-MassElement-G
  6
Continuous
 62
   210
370
     5
100
AcDbFace
 10
63487.77457091066
 20
-4505.874004455888
 30
32.31175382968556
 11
63479.57671608341
 21
-4486.919972441793
 31
43.14270203315738
 12
63509.5625092934
 22
-4456.934179231809
 32
60.27755612943032
 13
63509.5625092934
 23
-4456.934179231809
 33
60.27755612943032
 70
    13
  0
3DFACE
  5
3B05
330
2
100
AcDbEntity
  8
0
  6
Continuous
370
     5
100
AcDbFace
 10
63546.12994743543
 20
-4381.001111512065
 30
0.0
 11
63548.28250486746
 21
-4370.106958636077
 31
0.0
 12
63548.28250486746
 22
-4370.106958636077
 32
109.8934440959014
 13
63546.12994743543
 23
-4381.001111512065
 33
103.668172057074
  0
3DFACE
  5
3B06
330
2
100
AcDbEntity
  8
TEREN$0$A-MassElement-G
  6
Continuous
 62
   210
370
     5
100
AcDbFace
 10
63532.12402935223
 20
-4421.027725751971
 30
0.0
 11
63546.12994743543
 21
-4381.001111512065
 31
0.0
 12
63546.12994743543
 22
-4381.001111512065
 32
103.668172057074
 13
63532.12402935223
 23
-4421.027725751971
 33
80.79566739575751
  0
3DFACE
  5
3B07
330
2
100
AcDbEntity
  8
TEREN$0$A-MassElement-G
  6
Continuous
 62
   210
370
     5
100
AcDbFace
 10
63509.5625092934
 20
-4456.934179231809
 30
0.0
 11
63532.12402935223
 21
-4421.027725751971
 31
0.0
 12
63532.12402935223
 22
-4421.027725751971
 32
80.79566739575751
 13
63509.5625092934
 23
-4456.934179231809
 33
60.27755612943032
  0
3DFACE
  5
3B08
330
2
100
AcDbEntity
  8
TEREN$0$A-MassElement-G
  6
Continuous
 62
   210
370
     5
100
AcDbFace
 10
63479.57671608341
 20
-4486.919972441793
 30
0.0
 11
63509.5625092934
 21
-4456.934179231809
 31
0.0
 12
63509.5625092934
 22
-4456.934179231809
 32
60.27755612943032
 13
63479.57671608341
 23
-4486.919972441793
 33
43.14270203315738
  0
3DFACE
  5
3B09
330
2
100
AcDbEntity
  8
TEREN$0$A-MassElement-G
  6
Continuous
 62
   210
370
     5
100
AcDbFace
 10
63535.4593007152
 20
-4455.412499107995
 30
0.0
 11
63509.65081587733
 21
-4486.860228873026
 31
0.0
 12
63509.65081587733
 22
-4486.860228873026
 32
43.17684144467043
 13
63535.4593007152
 23
-4455.412499107995
 33
61.1470934706658
  0
3DFACE
  5
3B0A
330
2
100
AcDbEntity
  8
TEREN$0$A-MassElement-G
  6
Continuous
 62
   210
370
     5
100
AcDbFace
 10
63554.63673502716
 20
-4419.53404303459
 30
0.0
 11
63535.4593007152
 21
-4455.412499107995
 31
0.0
 12
63535.4593007152
 22
-4455.412499107995
 32
61.1470934706658
 13
63554.63673502716
 23
-4419.53404303459
 33
81.64920611155073
  0
3DFACE
  5
3B0B
330
2
100
AcDbEntity
  8
TEREN$0$A-MassElement-G
  6
Continuous
 62
   210
370
     5
100
AcDbFace
 10
63566.44614076741
 20
-4380.603649598831
 30
0.0
 11
63554.63673502716
 21
-4419.53404303459
 31
0.0
 12
63554.63673502716
 22
-4419.53404303459
 32
81.64920611155073
 13
63566.44614076741
 23
-4380.603649598831
 33
103.8952946762532
  0
3DFACE
  5
3B0C
330
2
100
AcDbEntity
  8
0
  6
Continuous
370
     5
100
AcDbFace
 10
63568.28250486747
 20
-4369.920487056712
 30
0.0
 11
63566.44614076741
 21
-4380.603649598831
 31
0.0
 12
63566.44614076741
 22
-4380.603649598831
 32
103.8952946762532
 13
63568.28250486747
 23
-4369.920487056712
 33
110.0
  0
3DFACE
  5
3B0D
330
2
100
AcDbEntity
  8
0
  6
Continuous
370
     5
100
AcDbFace
 10
63548.28250486746
 20
-4370.106958636077
 30
109.8934440959014
 11
63548.28250486746
 21
-4370.106958636077
 31
0.0
 12
63548.28250486746
 22
-4369.920487056712
 32
110.0
 13
63548.28250486746
 23
-4369.920487056712
 33
110.0
 70
     2
  0
3DFACE
  5
3B0E
330
2
100
AcDbEntity
  8
TEREN$0$A-MassElement-G
  6
Continuous
 62
   210
370
     5
100
AcDbFace
 10
63548.28250486746
 20
-4269.920487056713
 30
110.0
 11
63548.28250486746
 21
-4369.920487056712
 31
110.0
 12
63548.28250486746
 22
-4370.106958636077
 32
0.0
 13
63548.28250486746
 23
-4269.920487056713
 33
0.0
 70
     2
  0
3DFACE
  5
3B0F
330
2
100
AcDbEntity
  8
TEREN$0$A-MassElement-G
  6
Continuous
 62
   210
370
     5
100
AcDbFace
 10
63568.28250486747
 20
-4369.920487056712
 30
0.0
 11
63568.28250486747
 21
-4369.920487056712
 31
110.0
 12
63568.28250486747
 22
-4269.920487056713
 32
110.0
 13
63568.28250486747
 23
-4269.920487056713
 33
0.0
  0
3DFACE
  5
3B10
330
2
100
AcDbEntity
  8
TEREN$0$A-MassElement-G
  6
Continuous
 62
   210
370
     5
100
AcDbFace
 10
63475.71284290036
 20
-4489.920487056712
 30
0.0
 11
63479.57671608341
 21
-4486.919972441793
 31
0.0
 12
63479.57671608341
 22
-4486.919972441793
 32
43.14270203315738
 13
63475.71284290036
 23
-4489.920487056712
 33
41.42811073385985
  0
3DFACE
  5
3B11
330
2
100
AcDbEntity
  8
TEREN$0$A-MassElement-G
  6
Continuous
 62
   210
370
     5
100
AcDbFace
 10
63487.77457091066
 20
-4505.874004455888
 30
0.0
 11
63475.71284290036
 21
-4489.920487056712
 31
0.0
 12
63475.71284290036
 22
-4489.920487056712
 32
41.42811073385985
 13
63487.77457091066
 23
-4505.874004455888
 33
32.31175382968556
  0
3DFACE
  5
3B12
330
2
100
AcDbEntity
  8
TEREN$0$A-MassElement-G
  6
Continuous
 62
   210
370
     5
100
AcDbFace
 10
63509.65081587733
 20
-4486.860228873026
 30
0.0
 11
63487.77457091066
 21
-4505.874004455888
 31
0.0
 12
63487.77457091066
 22
-4505.874004455888
 32
32.31175382968556
 13
63509.65081587733
 23
-4486.860228873026
 33
43.17684144467043
  0
LINE
  5
3B13
330
2
100
AcDbEntity
  8
TEREN$0$A-MassElement-G
  6
Continuous
 62
   210
370
     5
100
AcDbLine
 10
63993.2045631711
 20
-4459.920487056712
 30
0.0
 11
63532.36044656386
 21
-4459.920487056712
 31
0.0
  0
LINE
  5
3B14
330
2
100
AcDbEntity
  8
TEREN$0$A-MassElement-G
  6
Continuous
 62
   210
370
     5
100
AcDbLine
 10
63549.99706063582
 20
-4429.920487056713
 30
0.0
 11
63975.56794909914
 21
-4429.920487056713
 31
0.0
  0
LINE
  5
3B15
330
2
100
AcDbEntity
  8
TEREN$0$A-MassElement-G
  6
Continuous
 62
   210
370
     5
100
AcDbLine
 10
63532.36044656386
 20
-4459.920487056712
 30
0.0
 11
63549.99706063582
 21
-4429.920487056713
 31
0.0
  0
3DFACE
  5
3B16
330
2
100
AcDbEntity
  8
TEREN$0$A-MassElement-G
  6
Continuous
 62
   210
370
     5
100
AcDbFace
 10
63535.4593007152
 20
-4455.412499107995
 30
0.0
 11
63479.57671608341
 21
-4486.919972441793
 31
0.0
 12
63509.65081587733
 22
-4486.860228873026
 32
0.0
 13
63509.65081587733
 23
-4486.860228873026
 33
0.0
 70
     3
  0
3DFACE
  5
3B17
330
2
100
AcDbEntity
  8
TEREN$0$A-MassElement-G
  6
Continuous
 62
   210
370
     5
100
AcDbFace
 10
63487.77457091066
 20
-4505.874004455888
 30
0.0
 11
63509.65081587733
 21
-4486.860228873026
 31
0.0
 12
63479.57671608341
 22
-4486.919972441793
 32
0.0
 13
63475.71284290036
 23
-4489.920487056712
 33
0.0
 70
     2
  0
3DFACE
  5
3B18
330
2
100
AcDbEntity
  8
TEREN$0$A-MassElement-G
  6
Continuous
 62
   210
370
     5
100
AcDbFace
 10
63479.57671608341
 20
-4486.919972441793
 30
0.0
 11
63535.4593007152
 21
-4455.412499107995
 31
0.0
 12
63554.63673502716
 22
-4419.53404303459
 32
0.0
 13
63509.5625092934
 23
-4456.934179231809
 33
0.0
 70
     5
  0
3DFACE
  5
3B19
330
2
100
AcDbEntity
  8
TEREN$0$A-MassElement-G
  6
Continuous
 62
   210
370
     5
100
AcDbFace
 10
63554.63673502716
 20
-4419.53404303459
 30
0.0
 11
63566.44614076741
 21
-4380.603649598831
 31
0.0
 12
63509.5625092934
 22
-4456.934179231809
 32
0.0
 13
63509.5625092934
 23
-4456.934179231809
 33
0.0
 70
    14
  0
3DFACE
  5
3B1A
330
2
100
AcDbEntity
  8
TEREN$0$A-MassElement-G
  6
Continuous
 62
   210
370
     5
100
AcDbFace
 10
63509.5625092934
 20
-4456.934179231809
 30
0.0
 11
63566.44614076741
 21
-4380.603649598831
 31
0.0
 12
63568.28250486747
 22
-4369.920487056712
 32
0.0
 13
63532.12402935223
 23
-4421.027725751971
 33
0.0
 70
     5
  0
3DFACE
  5
3B1B
330
2
100
AcDbEntity
  8
TEREN$0$A-MassElement-G
  6
Continuous
 62
   210
370
     5
100
AcDbFace
 10
63568.28250486747
 20
-4369.920487056712
 30
0.0
 11
63546.12994743543
 21
-4381.001111512065
 31
0.0
 12
63532.12402935223
 22
-4421.027725751971
 32
0.0
 13
63532.12402935223
 23
-4421.027725751971
 33
0.0
 70
    13
  0
3DFACE
  5
3B1C
330
2
100
AcDbEntity
  8
TEREN$0$A-MassElement-G
  6
Continuous
 62
   210
370
     5
100
AcDbFace
 10
63546.12994743543
 20
-4381.001111512065
 30
0.0
 11
63568.28250486747
 21
-4369.920487056712
 31
0.0
 12
63568.28250486747
 22
-4269.920487056713
 32
0.0
 13
63548.28250486746
 23
-4370.106958636077
 33
0.0
 70
     5
  0
3DFACE
  5
3B1D
330
2
100
AcDbEntity
  8
TEREN$0$A-MassElement-G
  6
Continuous
 62
   210
370
     5
100
AcDbFace
 10
63568.28250486747
 20
-4269.920487056713
 30
0.0
 11
63548.28250486746
 21
-4269.920487056713
 31
0.0
 12
63548.28250486746
 22
-4370.106958636077
 32
0.0
 13
63548.28250486746
 23
-4370.106958636077
 33
0.0
 70
    12
  0
LINE
  5
3B1E
330
2
100
AcDbEntity
  8
TEREN$0$A-MassElement-G
  6
Continuous
 62
   210
370
     5
100
AcDbLine
 10
63975.56794909914
 20
-4429.920487056713
 30
15.0
 11
63549.99706063582
 21
-4429.920487056713
 31
15.0
  0
LINE
  5
3B1F
330
2
100
AcDbEntity
  8
TEREN$0$A-MassElement-G
  6
Continuous
 62
   210
370
     5
100
AcDbLine
 10
63561.63017245425
 20
-4399.920487056713
 30
15.0
 11
63963.9348372807
 21
-4399.920487056713
 31
15.0
  0
LINE
  5
3B20
330
2
100
AcDbEntity
  8
TEREN$0$A-MassElement-G
  6
Continuous
 62
   210
370
     5
100
AcDbLine
 10
63549.99706063582
 20
-4429.920487056713
 30
15.0
 11
63561.63017245425
 21
-4399.920487056713
 31
15.0
  0
3DFACE
  5
3B21
330
2
100
AcDbEntity
  8
TEREN$0$A-MassElement-G
  6
Continuous
 62
   210
370
     5
100
AcDbFace
 10
63487.77457091066
 20
-4505.874004455888
 30
32.31175382968556
 11
63475.71284290036
 21
-4489.920487056712
 31
41.42811073385985
 12
63479.57671608341
 22
-4486.919972441793
 32
43.14270203315738
 13
63479.57671608341
 23
-4486.919972441793
 33
43.14270203315738
 70
    12
  0
LINE
  5
3B22
330
2
100
AcDbEntity
  8
TEREN$0$A-MassElement-G
  6
Continuous
 62
   210
370
     5
100
AcDbLine
 10
63963.9348372807
 20
-4399.920487056713
 30
30.0
 11
63560.5414378973
 21
-4400.068846316711
 31
30.0
  0
LINE
  5
3B23
330
2
100
AcDbEntity
  8
TEREN$0$A-MassElement-G
  6
Continuous
 62
   210
370
     5
100
AcDbLine
 10
63568.28250486747
 20
-4369.920487056712
 30
30.0
 11
63568.28250486747
 21
-4269.920487056713
 31
30.0
  0
LINE
  5
3B24
330
2
100
AcDbEntity
  8
TEREN$0$A-MassElement-G
  6
Continuous
 62
   210
370
     5
100
AcDbLine
 10
63560.5414378973
 20
-4400.068846316711
 30
30.0
 11
63568.28250486747
 21
-4369.920487056712
 31
30.0
  0
CIRCLE
  5
3B25
330
2
100
AcDbEntity
  8
0Hatch
100
AcDbCircle
 10
63616.78250486746
 20
-4366.053816708991
 30
47.0
 40
17.5
  0
CIRCLE
  5
3B26
330
2
100
AcDbEntity
  8
0Hatch
100
AcDbCircle
 10
-63908.78250486746
 20
-4366.053816708991
 30
-47.0
 40
17.5
210
0.0
220
0.0
230
-1.0
  0
3DFACE
  5
3B27
330
2
100
AcDbEntity
  8
TEREN$0$A-MassElement-G
  6
Continuous
 62
   210
370
     5
100
AcDbFace
 10
63554.63673502716
 20
-4419.53404303459
 30
81.64920611155073
 11
63548.28250486746
 21
-4370.106958636077
 31
109.8934440959014
 12
63566.44614076741
 22
-4380.603649598831
 32
103.8952946762532
 13
63566.44614076741
 23
-4380.603649598831
 33
103.8952946762532
 70
     3
  0
3DFACE
  5
3B28
330
2
100
AcDbEntity
  8
TEREN$0$A-MassElement-G
  6
Continuous
 62
   210
370
     5
100
AcDbFace
 10
63548.28250486746
 20
-4370.106958636077
 30
109.8934440959014
 11
63554.63673502716
 21
-4419.53404303459
 31
81.64920611155073
 12
63535.4593007152
 22
-4455.412499107995
 32
61.1470934706658
 13
63546.12994743543
 23
-4381.001111512065
 33
103.668172057074
 70
     5
  0
3DFACE
  5
3B29
330
2
100
AcDbEntity
  8
0
  6
Continuous
370
     5
100
AcDbFace
 10
63568.28250486747
 20
-4369.920487056712
 30
110.0
 11
63566.44614076741
 21
-4380.603649598831
 31
103.8952946762532
 12
63548.28250486746
 22
-4370.106958636077
 32
109.8934440959014
 13
63548.28250486746
 23
-4369.920487056712
 33
110.0
 70
     2
  0
3DFACE
  5
3B2A
330
2
100
AcDbEntity
  8
TEREN$0$A-MassElement-G
  6
Continuous
 62
   210
370
     5
100
AcDbFace
 10
63548.28250486746
 20
-4369.920487056712
 30
110.0
 11
63548.28250486746
 21
-4269.920487056713
 31
110.0
 12
63568.28250486747
 22
-4269.920487056713
 32
110.0
 13
63568.28250486747
 23
-4369.920487056712
 33
110.0
  0
LINE
  5
3B2B
330
2
100
AcDbEntity
  8
0Hatch
100
AcDbLine
 10
63687.39451047802
 20
-4272.919469323777
 30
0.0
 11
63687.53822002248
 21
-4209.920487056712
 31
0.0
  0
LINE
  5
3B2C
330
2
100
AcDbEntity
  8
0Hatch
100
AcDbLine
 10
63838.17047317075
 20
-4272.918451591795
 30
0.0
 11
63838.17123067489
 21
-4209.920487056712
 31
0.0
  0
LINE
  5
3B2D
330
2
100
AcDbEntity
  8
0Hatch
100
AcDbLine
 10
64082.51167896386
 20
-4269.920487056713
 30
0.0
 11
64082.51167896386
 21
-4209.920487056712
 31
0.0
  0
LINE
  5
3B2E
330
2
100
AcDbEntity
  8
0Hatch
100
AcDbLine
 10
64315.05333077109
 20
-4209.920487056712
 30
0.0
 11
64315.05333077109
 21
-4269.920487056713
 31
0.0
  0
LWPOLYLINE
  5
3B2F
330
2
100
AcDbEntity
  8
0Hatch
100
AcDbPolyline
 90
       14
 70
     1
 43
0.0
 10
64337.78250486749
 20
-4209.920487056712
 10
64337.78250486747
 20
-3407.920487056713
 10
63187.78250486746
 20
-3407.920487056713
 10
63187.78250486746
 20
-3694.920487056713
 10
63111.8252399626
 20
-3694.920487056713
 10
63037.78250486746
 20
-3768.98604212625
 10
63037.78250486746
 20
-3848.826694478362
 10
63111.83065415982
 20
-3922.920487056713
 10
63187.78250486746
 20
-3922.920487056713
 10
63187.78250486746
 20
-4209.920487056712
 10
63666.78250486749
 20
-4209.920487056712
 10
63858.78250486749
 20
-4209.920487056712
 10
64082.51167896386
 20
-4209.920487056712
 10
64315.05333077109
 20
-4209.920487056712
  0
LINE
  5
3B30
330
2
100
AcDbEntity
  8
0Hatch
100
AcDbLine
 10
63666.78250486749
 20
-4209.920487056712
 30
0.0
 11
63666.78250486749
 21
-4209.920487056712
 31
0.0
  0
LINE
  5
3B31
330
2
100
AcDbEntity
  8
0Hatch
100
AcDbLine
 10
63666.78250486749
 20
-4209.920487056712
 30
0.0
 11
63666.78250486749
 21
-4209.920487056712
 31
0.0
  0
LINE
  5
3B32
330
2
100
AcDbEntity
  8
0Hatch
100
AcDbLine
 10
63858.78250486749
 20
-4209.920487056712
 30
0.0
 11
63858.78250486749
 21
-4209.920487056712
 31
0.0
  0
LINE
  5
3B33
330
2
100
AcDbEntity
  8
0Hatch
100
AcDbLine
 10
63858.78250486749
 20
-4209.920487056712
 30
0.0
 11
63858.78250486749
 21
-4209.920487056712
 31
0.0
  0
LWPOLYLINE
  5
3B34
330
2
100
AcDbEntity
  8
0Hatch
100
AcDbPolyline
 90
       18
 70
     1
 43
0.0
 10
64397.7825048675
 20
-3347.920487056713
 10
63127.78250486746
 20
-3347.920487056713
 10
63127.78250486746
 20
-3634.920487056713
 10
63086.96701069973
 20
-3634.920487056713
 10
62977.78250486746
 20
-3744.138643558742
 10
62977.78250486746
 20
-3873.668679885065
 10
63086.96701069973
 20
-3982.920487056713
 10
63127.78250486746
 20
-3982.920487056713
 10
63127.78250486746
 20
-4269.920487056713
 10
63606.78250486749
 20
-4269.920487056713
 10
63606.78250486749
 20
-4272.920487056713
 10
63687.39451047802
 20
-4272.919469323777
 10
63838.17047317075
 20
-4272.918451591795
 10
63918.78250486749
 20
-4272.919469324254
 10
63918.78250486749
 20
-4269.920487056713
 10
64082.51167896386
 20
-4269.920487056713
 10
64315.05333077109
 20
-4269.920487056713
 10
64397.7825048675
 20
-4269.920487056713
  0
LINE
  5
3B35
330
2
100
AcDbEntity
  8
TEREN$0$A-MassElement-G
  6
Continuous
 62
   210
370
     5
100
AcDbLine
 10
64057.78250486746
 20
-3347.920487056713
 30
0.0
 11
64057.78250486746
 21
-3029.420487056713
 31
0.0
  0
LINE
  5
3B36
330
2
100
AcDbEntity
  8
TEREN$0$A-MassElement-G
  6
Continuous
 62
   210
370
     5
100
AcDbLine
 10
64057.78250486746
 20
-3029.420487056713
 30
0.0
 11
63805.6069590806
 21
-3029.420487056713
 31
0.0
  0
LINE
  5
3B37
330
2
100
AcDbEntity
  8
TEREN$0$A-MassElement-G
  6
Continuous
 62
   210
370
     5
100
AcDbLine
 10
63805.6069590806
 20
-3029.420487056713
 30
0.0
 11
63775.43970988442
 21
-3025.871153139969
 31
0.0
  0
LINE
  5
3B38
330
2
100
AcDbEntity
  8
TEREN$0$A-MassElement-G
  6
Continuous
 62
   210
370
     5
100
AcDbLine
 10
63775.43970988442
 20
-3025.871153139969
 30
0.0
 11
63753.57406972136
 21
-3024.420487056713
 31
0.0
  0
LINE
  5
3B39
330
2
100
AcDbEntity
  8
TEREN$0$A-MassElement-G
  6
Continuous
 62
   210
370
     5
100
AcDbLine
 10
63753.57406972136
 20
-3024.420487056713
 30
0.0
 11
63728.57406972138
 21
-3024.420487056713
 31
0.0
  0
LINE
  5
3B3A
330
2
100
AcDbEntity
  8
TEREN$0$A-MassElement-G
  6
Continuous
 62
   210
370
     5
100
AcDbLine
 10
63728.57406972138
 20
-3024.420487056713
 30
0.0
 11
63578.57406972136
 21
-3024.420487056713
 31
0.0
  0
LINE
  5
3B3B
330
2
100
AcDbEntity
  8
TEREN$0$A-MassElement-G
  6
Continuous
 62
   210
370
     5
100
AcDbLine
 10
63578.57406972136
 20
-3024.420487056713
 30
0.0
 11
63553.57406972135
 21
-3024.420487056655
 31
0.0
  0
LINE
  5
3B3C
330
2
100
AcDbEntity
  8
TEREN$0$A-MassElement-G
  6
Continuous
 62
   210
370
     5
100
AcDbLine
 10
63553.57406972135
 20
-3024.420487056655
 30
0.0
 11
63531.31487785454
 21
-3026.996875923354
 31
0.0
  0
LINE
  5
3B3D
330
2
100
AcDbEntity
  8
TEREN$0$A-MassElement-G
  6
Continuous
 62
   210
370
     5
100
AcDbLine
 10
63531.31487785454
 20
-3026.996875923354
 30
0.0
 11
63513.26696756694
 21
-3029.420487056713
 31
0.0
  0
LINE
  5
3B3E
330
2
100
AcDbEntity
  8
TEREN$0$A-MassElement-G
  6
Continuous
 62
   210
370
     5
100
AcDbLine
 10
63513.26696756694
 20
-3029.420487056713
 30
0.0
 11
63018.49104255876
 21
-3029.420487056684
 31
0.0
  0
ARC
  5
3B3F
330
2
100
AcDbEntity
  8
TEREN$0$A-MassElement-G
  6
Continuous
 62
   210
370
     5
100
AcDbCircle
 10
63018.49104255873
 20
-3297.17085004606
 30
0.0
 40
267.7503629893763
100
AcDbArc
 50
90.0
 51
148.2746731303328
  0
ARC
  5
3B40
330
2
100
AcDbEntity
  8
TEREN$0$A-MassElement-G
  6
Continuous
 62
   210
370
     5
100
AcDbCircle
 10
63090.19096508662
 20
-3341.497420286812
 30
0.0
 40
352.0458179072421
100
AcDbArc
 50
148.2746731303328
 51
181.0643426263609
  0
LINE
  5
3B41
330
2
100
AcDbEntity
  8
TEREN$0$A-MassElement-G
  6
Continuous
 62
   210
370
     5
100
AcDbLine
 10
62738.20588711847
 20
-3348.036746989754
 30
0.0
 11
62732.78250486746
 21
-3360.526566915004
 31
0.0
  0
LINE
  5
3B42
330
2
100
AcDbEntity
  8
TEREN$0$A-MassElement-G
  6
Continuous
 62
   210
370
     5
100
AcDbLine
 10
62732.78250486746
 20
-3360.526566915004
 30
0.0
 11
62732.78250486746
 21
-3385.526566915004
 31
0.0
  0
LINE
  5
3B43
330
2
100
AcDbEntity
  8
TEREN$0$A-MassElement-G
  6
Continuous
 62
   210
370
     5
100
AcDbLine
 10
62732.78250486746
 20
-3385.526566915004
 30
0.0
 11
62732.78250486746
 21
-3587.526566915004
 31
0.0
  0
LINE
  5
3B44
330
2
100
AcDbEntity
  8
TEREN$0$A-MassElement-G
  6
Continuous
 62
   210
370
     5
100
AcDbLine
 10
62732.78250486746
 20
-3587.526566915004
 30
0.0
 11
62732.78250486738
 21
-3612.526566914975
 31
0.0
  0
LINE
  5
3B45
330
2
100
AcDbEntity
  8
TEREN$0$A-MassElement-G
  6
Continuous
 62
   210
370
     5
100
AcDbLine
 10
62732.78250486738
 20
-3612.526566914975
 30
0.0
 11
62733.06017287529
 21
-3634.885583438904
 31
0.0
  0
LINE
  5
3B46
330
2
100
AcDbEntity
  8
TEREN$0$A-MassElement-G
  6
Continuous
 62
   210
370
     5
100
AcDbLine
 10
62733.06017287529
 20
-3634.885583438904
 30
0.0
 11
62734.96720709031
 21
-3657.35033116521
 31
0.0
  0
LINE
  5
3B47
330
2
100
AcDbEntity
  8
TEREN$0$A-MassElement-G
  6
Continuous
 62
   210
370
     5
100
AcDbLine
 10
62734.96720709031
 20
-3657.35033116521
 30
0.0
 11
62736.08784572489
 21
-3679.794246999163
 31
0.0
  0
ARC
  5
3B48
330
2
100
AcDbEntity
  8
TEREN$0$A-MassElement-G
  6
Continuous
 62
   210
370
     5
100
AcDbCircle
 10
63002.95135631266
 20
-3666.46958643925
 30
0.0
 40
267.1959577955273
100
AcDbArc
 50
182.8584399483796
 51
221.5726063600822
  0
ARC
  5
3B49
330
2
100
AcDbEntity
  8
TEREN$0$A-MassElement-G
  6
Continuous
 62
   210
370
     5
100
AcDbCircle
 10
63019.85443933345
 20
-3651.476772829127
 30
0.0
 40
289.7901755415766
100
AcDbArc
 50
221.5726063600822
 51
252.2935456010771
  0
LINE
  5
3B4A
330
2
100
AcDbEntity
  8
TEREN$0$A-MassElement-G
  6
Continuous
 62
   210
370
     5
100
AcDbLine
 10
62931.71754614703
 20
-3927.538783797435
 30
0.0
 11
62973.33769443313
 21
-3931.257633895054
 31
0.0
  0
LINE
  5
3B4B
330
2
100
AcDbEntity
  8
TEREN$0$A-MassElement-G
  6
Continuous
 62
   210
370
     5
100
AcDbLine
 10
62973.33769443313
 20
-3931.257633895054
 30
0.0
 11
63031.11461225445
 21
-3927.068088611378
 31
0.0
  0
LWPOLYLINE
  5
3B4C
330
2
100
AcDbEntity
  8
0Hatch
100
AcDbPolyline
 90
       14
 70
     0
 10
63687.46636641215
 20
-4241.419468838587
 40
63.0
 41
63.0
 10
63606.78250486749
 20
-4241.419468838587
 40
63.0
 41
63.0
 10
63606.78250486749
 20
-4239.920487056712
 40
60.0
 41
60.0
 10
63157.78250486746
 20
-4239.920487056712
 40
60.0
 41
60.0
 10
63157.78250486746
 20
-3952.920487056713
 40
60.0
 41
60.0
 10
63099.39883242977
 20
-3952.920487056713
 40
60.0
 41
60.0
 10
63007.78250486747
 20
-3861.247687181715
 40
60.0
 41
60.0
 10
63007.78250486747
 20
-3756.562342842495
 40
60.0
 41
60.0
 10
63099.39612533116
 20
-3664.920487056713
 40
60.0
 41
60.0
 10
63157.78250486746
 20
-3664.920487056713
 40
60.0
 41
60.0
 10
63157.78250486746
 20
-3377.920487056713
 40
60.0
 41
60.0
 10
64367.78250486749
 20
-3377.920487056713
 40
60.0
 41
60.0
 10
64367.78250486749
 20
-4239.920487056712
 40
60.0
 41
60.0
 10
64315.05333077109
 20
-4239.920487056712
 40
60.0
 41
60.0
  0
LWPOLYLINE
  5
3B4D
330
2
100
AcDbEntity
  8
0Hatch
100
AcDbPolyline
 90
        4
 70
     0
 10
64082.51167896386
 20
-4239.920487056712
 40
60.0
 41
60.0
 10
63918.78252973837
 20
-4239.920487056713
 40
60.0
 41
60.0
 10
63918.78250486749
 20
-4241.419788813254
 40
63.0
 41
63.0
 10
63838.17085192282
 20
-4241.419469324254
 40
63.0
 41
63.0
  0
DIMENSION
  5
3B4E
330
2
100
AcDbEntity
  8
0Wymiary-PL
 48
4.0
100
AcDbDimension
  2
*D311
 10
63127.78250486746
 20
-4829.920487056713
 30
0.0
 11
63762.78250486747
 21
-4749.920487056712
 31
0.0
 70
    32
 71
     5
 42
1270.000000000029
  3
500
100
AcDbAlignedDimension
 13
64397.7825048675
 23
-4269.920487056713
 33
0.0
 14
63127.78250486746
 24
-4269.920487056713
 34
0.0
 50
180.0
100
AcDbRotatedDimension
  0
DIMENSION
  5
3B4F
330
2
100
AcDbEntity
  8
0Wymiary-PL
 48
4.0
100
AcDbDimension
  2
*D312
 10
62977.7825048692
 20
-4829.920487056713
 30
0.0
 11
63052.78250486833
 21
-4749.920487056712
 31
0.0
 70
    32
 71
     5
 42
149.9999999982683
  3
500
100
AcDbAlignedDimension
 13
63127.78250486746
 23
-4269.920487056713
 33
0.0
 14
62977.7825048692
 24
-3873.702330554925
 34
30.0
 50
180.0
100
AcDbRotatedDimension
  0
DIMENSION
  5
3B50
330
2
100
AcDbEntity
  8
0Wymiary-PL
 48
4.0
100
AcDbDimension
  2
*D313
 10
62977.78250486746
 20
-5029.920487056713
 30
0.0
 11
63687.78250486748
 21
-4949.920487056712
 31
0.0
 70
    32
 71
     5
 42
1420.000000000029
  3
500
100
AcDbAlignedDimension
 13
64397.7825048675
 23
-4124.780424582954
 33
0.0
 14
62977.78250486746
 24
-3808.903661721904
 34
0.0
 50
180.0
100
AcDbRotatedDimension
  0
DIMENSION
  5
3B51
330
2
100
AcDbEntity
  8
0Wymiary-PL
 48
4.0
100
AcDbDimension
  2
*D314
 10
64597.78250486749
 20
-4269.920487056713
 30
0.0
 11
64517.78250486749
 21
-3808.920487056703
 31
0.0
 70
    32
 71
     5
 42
921.9999999999995
  3
500
100
AcDbAlignedDimension
 13
64397.7825048675
 23
-3347.920487056713
 33
0.0
 14
64597.78250486749
 24
-4269.920487056713
 34
0.0
 50
90.0
100
AcDbRotatedDimension
  0
ENDSEC
  0
SECTION
  2
OBJECTS
  0
DICTIONARY
  5
B
330
0
100
AcDbDictionary
281
     1
  3
ACAD_COLOR
350
53
  3
ACAD_GROUP
350
4E
  3
ACAD_LAYOUT
350
12
  3
ACAD_MATERIAL
350
D
  3
ACAD_MLEADERSTYLE
350
7A8
  3
ACAD_MLINESTYLE
350
4F
  3
ACAD_PLOTSETTINGS
350
50
  3
ACAD_PLOTSTYLENAME
350
A
  3
ACAD_SCALELIST
350
54
  3
ACAD_TABLESTYLE
350
55
  3
ACAD_VISUALSTYLE
350
15
  3
ACDB_RECOMPOSE_DATA
350
794
  3
AcDbVariableDictionary
350
795
  3
AEC_CLEANUP_GROUP_DEFS
350
2B63
  3
AEC_DISP_REP_CONFIGURATIONS
350
2B65
  3
AEC_DISP_REP_SETS
350
2B67
  3
AEC_DISP_REPS
350
2B6C
  3
AEC_DISPLAY_PROPS_DEFAULTS
350
2BC2
  3
AEC_ENDCAP_STYLES
350
2C14
  3
AEC_MATERIAL_DEFS
350
2C16
  3
AEC_OPENING_ENDCAP_STYLES
350
2C22
  3
AEC_PROPERTY_FORMAT_DEFS
350
2C24
  3
AEC_PROPERTY_SET_DEFS
350
952
  3
AEC_ROOFSLAB_STYLES
350
2C31
  3
AEC_ROOFSLABEDGE_STYLES
350
2C33
  3
AEC_SCHEDULE_TABLE_STYLES
350
2C35
  3
AEC_SLAB_STYLES
350
2C3A
  3
AEC_SLABEDGE_STYLES
350
2C3C
  3
AEC_SPACE_STYLES
350
2C3E
  3
AEC_VARS
350
2C45
  3
AEC_WALL_STYLES
350
2C4C
  3
DWGPROPS
350
3BAA
  0
DICTIONARY
  5
1E
330
1D
100
AcDbDictionary
280
     1
281
     1
  3
ACAD_LAYERSTATES
360
1F
  0
DICTIONARY
  5
7
330
6
100
AcDbDictionary
280
     1
281
     1
  3
ADSK_XREC_LAYER_RECONCILED
360
8
  0
DICTIONARY
  5
75
330
74
100
AcDbDictionary
280
     1
281
     1
  3
ADSK_XREC_LAYER_RECONCILED
360
76
  0
DICTIONARY
  5
57
330
56
100
AcDbDictionary
280
     1
281
     1
  3
ADSK_XREC_LAYER_RECONCILED
360
58
  0
DICTIONARY
  5
3A4
330
3A3
100
AcDbDictionary
280
     1
281
     1
  3
ADSK_XREC_LAYER_RECONCILED
360
3A5
  0
DICTIONARY
  5
7F
330
7E
100
AcDbDictionary
280
     1
281
     1
  3
ADSK_XREC_LAYER_RECONCILED
360
80
  0
DICTIONARY
  5
2501
330
2500
100
AcDbDictionary
280
     1
281
     1
  0
DICTIONARY
  5
2505
330
2504
100
AcDbDictionary
280
     1
281
     1
  0
DICTIONARY
  5
3
330
2
100
AcDbDictionary
280
     1
281
     1
  3
ACAD_SORTENTS
360
790
  0
DICTIONARY
  5
30
330
2F
100
AcDbDictionary
280
     1
281
     1
  3
ACAD_SORTENTS
360
78F
  0
DICTIONARY
  5
53
102
{ACAD_REACTORS
330
B
102
}
330
B
100
AcDbDictionary
281
     1
  0
DICTIONARY
  5
4E
102
{ACAD_REACTORS
330
B
102
}
330
B
100
AcDbDictionary
281
     1
  0
DICTIONARY
  5
12
102
{ACAD_REACTORS
330
B
102
}
330
B
100
AcDbDictionary
281
     1
  3
Layout1
350
1943
  3
Model
350
11
  0
DICTIONARY
  5
D
102
{ACAD_REACTORS
330
B
102
}
330
B
100
AcDbDictionary
281
     1
  3
ByBlock
350
52
  3
ByLayer
350
51
  3
General.Chip
350
2551
  3
Global
350
C
  0
DICTIONARY
  5
7A8
102
{ACAD_REACTORS
330
B
102
}
330
B
100
AcDbDictionary
281
     1
  3
Standard
350
7A9
  0
DICTIONARY
  5
4F
102
{ACAD_REACTORS
330
B
102
}
330
B
100
AcDbDictionary
281
     1
  3
STANDARD
350
59
  0
DICTIONARY
  5
50
102
{ACAD_REACTORS
330
B
102
}
330
B
100
AcDbDictionary
281
     1
  0
ACDBDICTIONARYWDFLT
  5
A
102
{ACAD_REACTORS
330
B
102
}
330
B
100
AcDbDictionary
281
     1
  3
Extra Wide
350
2549
  3
Fine
350
254A
  3
Medium
350
254B
  3
Normal
350
9
  3
Standard
350
254C
  3
Thin
350
254E
  3
Thin Screened
350
254F
  3
Wide
350
2550
100
AcDbDictionaryWithDefault
340
9
  0
DICTIONARY
  5
54
102
{ACAD_REACTORS
330
B
102
}
330
B
100
AcDbDictionary
281
     1
  3
*A1
350
85B
  3
*A10
350
132C
  3
*A100
350
2572
  3
*A101
350
2573
  3
*A102
350
2574
  3
*A103
350
2575
  3
*A11
350
132D
  3
*A12
350
86F
  3
*A13
350
132E
  3
*A14
350
873
  3
*A15
350
132F
  3
*A16
350
869
  3
*A17
350
1330
  3
*A18
350
1331
  3
*A19
350
1332
  3
*A2
350
876
  3
*A20
350
1333
  3
*A21
350
879
  3
*A22
350
87B
  3
*A23
350
870
  3
*A24
350
1334
  3
*A25
350
1335
  3
*A26
350
1336
  3
*A27
350
1337
  3
*A28
350
87F
  3
*A29
350
881
  3
*A3
350
877
  3
*A30
350
1338
  3
*A31
350
87C
  3
*A32
350
87D
  3
*A33
350
865
  3
*A34
350
860
  3
*A35
350
862
  3
*A36
350
87E
  3
*A37
350
168F
  3
*A38
350
1690
  3
*A39
350
1691
  3
*A4
350
868
  3
*A40
350
86A
  3
*A41
350
1692
  3
*A42
350
1693
  3
*A43
350
85E
  3
*A44
350
1694
  3
*A45
350
871
  3
*A46
350
1695
  3
*A47
350
882
  3
*A48
350
866
  3
*A49
350
86D
  3
*A5
350
85D
  3
*A50
350
85F
  3
*A51
350
863
  3
*A52
350
85C
  3
*A53
350
874
  3
*A54
350
867
  3
*A55
350
1A1C
  3
*A56
350
864
  3
*A57
350
1A1D
  3
*A58
350
1A1E
  3
*A59
350
1A1F
  3
*A6
350
86C
  3
*A60
350
1A20
  3
*A61
350
1A21
  3
*A62
350
1A22
  3
*A63
350
86B
  3
*A64
350
87A
  3
*A65
350
86E
  3
*A66
350
872
  3
*A67
350
880
  3
*A68
350
875
  3
*A69
350
1C6B
  3
*A7
350
878
  3
*A70
350
2554
  3
*A71
350
2555
  3
*A72
350
2556
  3
*A73
350
2557
  3
*A74
350
2558
  3
*A75
350
2559
  3
*A76
350
255A
  3
*A77
350
255B
  3
*A78
350
255C
  3
*A79
350
255D
  3
*A8
350
861
  3
*A80
350
255E
  3
*A81
350
255F
  3
*A82
350
2560
  3
*A83
350
2561
  3
*A84
350
2562
  3
*A85
350
2563
  3
*A86
350
2564
  3
*A87
350
2565
  3
*A88
350
2566
  3
*A89
350
2567
  3
*A9
350
132B
  3
*A90
350
2568
  3
*A91
350
2569
  3
*A92
350
256A
  3
*A93
350
256B
  3
*A94
350
256C
  3
*A95
350
256D
  3
*A96
350
256E
  3
*A97
350
256F
  3
*A98
350
2570
  3
*A99
350
2571
  3
A0
350
5E
  3
A1
350
5F
  3
A2
350
60
  3
A3
350
61
  3
A4
350
62
  3
A5
350
63
  3
A6
350
64
  3
A7
350
65
  3
A8
350
66
  3
A9
350
67
  3
B0
350
68
  3
B1
350
69
  3
B2
350
6A
  3
B3
350
6B
  3
B4
350
6C
  3
B5
350
6D
  3
B6
350
6E
  3
B7
350
6F
  3
B8
350
70
  3
B9
350
71
  3
C0
350
72
  0
DICTIONARY
  5
55
102
{ACAD_REACTORS
330
B
102
}
330
B
100
AcDbDictionary
281
     1
  3
Standard
350
5A
  0
DICTIONARY
  5
15
102
{ACAD_REACTORS
330
B
102
}
330
B
100
AcDbDictionary
281
     1
  3
2dWireframe
350
14
  3
3D Hidden
350
7A0
  3
3dWireframe
350
5D
  3
Basic
350
79F
  3
Brighten
350
7A3
  3
ColorChange
350
7A7
  3
Conceptual
350
7A1
  3
Dim
350
7A2
  3
Facepattern
350
7A6
  3
Flat
350
79B
  3
FlatWithEdges
350
79C
  3
Gouraud
350
79D
  3
GouraudWithEdges
350
79E
  3
Linepattern
350
7A5
  3
Phong
350
7B1
  3
PhongWithEdges
350
7B2
  3
Realistic
350
5C
  3
Thicken
350
7A4
  0
XRECORD
  5
794
102
{ACAD_REACTORS
330
B
102
}
330
B
100
AcDbXrecord
280
     1
 90
        1
330
5A
  0
DICTIONARY
  5
795
102
{ACAD_REACTORS
330
B
102
}
330
B
100
AcDbDictionary
281
     1
  3
CANNOSCALE
350
798
  3
CMLEADERSTYLE
350
797
  3
CTABLESTYLE
350
796
  3
DIMASSOC
350
3BA8
  3
HIDETEXT
350
3BA7
  3
INDEXCTL
350
3BA6
  3
LIGHTINGUNITS
350
799
  3
MSLTSCALE
350
3BA4
  3
SORTENTS
350
3BA5
  0
DICTIONARY
  5
2B63
102
{ACAD_REACTORS
330
B
102
}
330
B
100
AcDbDictionary
281
     1
  3
Standard
350
2B64
  0
DICTIONARY
  5
2B65
102
{ACAD_REACTORS
330
B
102
}
330
B
100
AcDbDictionary
281
     1
  3
Medium Detail - WIEZBA
350
2B66
  3
Standard
350
2CE8
1001
AECBASE
1070
 10000
1005
2B66
  0
DICTIONARY
  5
2B67
102
{ACAD_REACTORS
330
B
102
}
330
B
100
AcDbDictionary
281
     1
  3
Model
350
2B68
  3
Model High Detail
350
2CE4
  3
Model Low Detail
350
2CE3
  3
Plan
350
2CDF
  3
Plan Diagnostic
350
2B69
  3
Plan High Detail
350
2CE2
  3
Plan Low Detail
350
2CE1
  3
Plan Medium - WIEZBA
350
2B6A
  3
Reflected
350
2CE0
  3
Section_Elev
350
2B6B
  0
DICTIONARY
  5
2B6C
102
{ACAD_REACTORS
330
B
102
}
330
B
100
AcDbDictionary
281
     1
  3
AecDbDispRep2dSection
350
2B6D
  3
AecDbDispRepAnchor
350
2C50
  3
AecDbDispRepAnchorBubToGrid
350
2B6E
  3
AecDbDispRepAnchorBubToGridMdl
350
2B6F
  3
AecDbDispRepAnchorBubToGridRcp
350
2C79
  3
AecDbDispRepAnchorEntToNode
350
2B70
  3
AecDbDispRepAnchorExtendedTagToEnt
350
2C53
  3
AecDbDispRepAnchorTagToEnt
350
2B71
  3
AecDbDispRepBdgElevLineModel
350
2B72
  3
AecDbDispRepBdgElevLinePlan
350
2B73
  3
AecDbDispRepBdgElevLinePlan100
350
2C85
  3
AecDbDispRepBdgElevLinePlan50
350
2C9E
  3
AecDbDispRepBdgElevLineRcp
350
2C55
  3
AecDbDispRepBdgSectionLineModel
350
2B74
  3
AecDbDispRepBdgSectionLinePlan
350
2B75
  3
AecDbDispRepBdgSectionLinePlan100
350
2C87
  3
AecDbDispRepBdgSectionLinePlan50
350
2CA0
  3
AecDbDispRepBdgSectionLineRcp
350
2C57
  3
AecDbDispRepBdgSectionModel
350
2C59
  3
AecDbDispRepBdgSectionSubDiv
350
2B76
  3
AecDbDispRepCeilingGrid
350
2B77
  3
AecDbDispRepCeilingGridModel
350
2B78
  3
AecDbDispRepCeilingGridPlan100
350
2C89
  3
AecDbDispRepCeilingGridPlan50
350
2CA2
  3
AecDbDispRepCeilingGridRcp
350
2B79
  3
AecDbDispRepClipVolModel
350
2B7A
  3
AecDbDispRepClipVolPlan
350
2B7B
  3
AecDbDispRepClipVolResSubDiv
350
2B7C
  3
AecDbDispRepClipVolResult
350
2B7D
  3
AecDbDispRepColumnGrid
350
2B7E
  3
AecDbDispRepColumnGridModel
350
2B7F
  3
AecDbDispRepColumnGridPlan100
350
2C8B
  3
AecDbDispRepColumnGridPlan50
350
2CA4
  3
AecDbDispRepColumnGridRcp
350
2C7B
  3
AecDbDispRepCurtainWallLayoutModel
350
2B80
  3
AecDbDispRepCurtainWallLayoutPlan
350
2B81
  3
AecDbDispRepCurtainWallLayoutPlan100
350
2C8D
  3
AecDbDispRepCurtainWallLayoutPlan50
350
2CA6
  3
AecDbDispRepCurtainWallUnitModel
350
2B82
  3
AecDbDispRepCurtainWallUnitPlan
350
2B83
  3
AecDbDispRepCurtainWallUnitPlan100
350
2C8F
  3
AecDbDispRepCurtainWallUnitPlan50
350
2CA8
  3
AecDbDispRepDimGroupPlan
350
2B84
  3
AecDbDispRepDimGroupPlan100
350
2CB9
  3
AecDbDispRepDimGroupPlan50
350
2CBB
  3
AecDbDispRepDisplayTheme
350
2B85
  3
AecDbDispRepDoorElev
350
2B86
  3
AecDbDispRepDoorModel
350
2B87
  3
AecDbDispRepDoorNominal
350
2B88
  3
AecDbDispRepDoorPlan
350
2B89
  3
AecDbDispRepDoorPlan50
350
2CBD
  3
AecDbDispRepDoorPlanHekto
350
2CBF
  3
AecDbDispRepDoorRcp
350
2C5A
  3
AecDbDispRepDoorThresholdPlan
350
2C5C
  3
AecDbDispRepDoorThresholdSymbolPlan
350
2CC1
  3
AecDbDispRepEditInPlaceProfile
350
2B8A
  3
AecDbDispRepEntRef
350
2B8B
  3
AecDbDispRepLayoutCurve
350
2B8C
  3
AecDbDispRepLayoutGrid2d
350
2B8D
  3
AecDbDispRepLayoutGrid3d
350
2B8E
  3
AecDbDispRepMaskBlockRef
350
2B8F
  3
AecDbDispRepMaskBlockRefRcp
350
2B90
  3
AecDbDispRepMassElemModel
350
2B91
  3
AecDbDispRepMassElemPlan100
350
2CC3
  3
AecDbDispRepMassElemPlan50
350
2CC5
  3
AecDbDispRepMassElemRcp
350
2C5E
  3
AecDbDispRepMassElemSchem
350
2B92
  3
AecDbDispRepMassGroupModel
350
2B93
  3
AecDbDispRepMassGroupPlan
350
2B94
  3
AecDbDispRepMassGroupPlan100
350
2CC7
  3
AecDbDispRepMassGroupPlan50
350
2CC9
  3
AecDbDispRepMassGroupRcp
350
2C60
  3
AecDbDispRepMaterial
350
2B95
  3
AecDbDispRepMaterial$General High Detail
350
2B96
  3
AecDbDispRepMaterial$General Low Detail
350
2B97
  3
AecDbDispRepMaterial$General Medium Detail
350
2B98
  3
AecDbDispRepMaterial$General Presentation
350
2B99
  3
AecDbDispRepMaterial$General Reflected
350
2B9A
  3
AecDbDispRepMaterial$General Reflected Screened
350
2B9B
  3
AecDbDispRepMaterial$General Screened
350
2B9C
  3
AecDbDispRepMvBlockRef
350
2B9D
  3
AecDbDispRepMvBlockRef$Plan
350
2B9E
  3
AecDbDispRepMvBlockRefModel
350
2B9F
  3
AecDbDispRepMvBlockRefPlan100
350
2C91
  3
AecDbDispRepMvBlockRefPlan50
350
2CAA
  3
AecDbDispRepMvBlockRefRcp
350
2C62
  3
AecDbDispRepOpening
350
2BA0
  3
AecDbDispRepOpeningModel
350
2BA1
  3
AecDbDispRepOpeningPlan100
350
2CCB
  3
AecDbDispRepOpeningPlan50
350
2CCD
  3
AecDbDispRepOpeningPlanReflected
350
2CCF
  3
AecDbDispRepOpeningSillPlan
350
2CD1
  3
AecDbDispRepPolygonModel
350
2BA2
  3
AecDbDispRepPolygonTrueColour
350
2C51
  3
AecDbDispRepRailingModel
350
2BA3
  3
AecDbDispRepRailingPlan
350
2BA4
  3
AecDbDispRepRailingPlan100
350
2CD3
  3
AecDbDispRepRailingPlan50
350
2CD5
  3
AecDbDispRepRoofModel
350
2BA5
  3
AecDbDispRepRoofPlan
350
2BA6
  3
AecDbDispRepRoofPlan100
350
2C92
  3
AecDbDispRepRoofPlan50
350
2CAB
  3
AecDbDispRepRoofRcp
350
2C63
  3
AecDbDispRepRoofSlabModel
350
2BA7
  3
AecDbDispRepRoofSlabPlan
350
2C67
  3
AecDbDispRepRoofSlabPlan$Plan Presentation
350
2BA8
  3
AecDbDispRepRoofSlabPlan100
350
2C94
  3
AecDbDispRepRoofSlabPlan50
350
2CAD
  3
AecDbDispRepScheduleTable
350
2BA9
  3
AecDbDispRepSlabModel
350
2BAA
  3
AecDbDispRepSlabPlan
350
2C65
  3
AecDbDispRepSlabPlan$Plan Presentation
350
2BAB
  3
AecDbDispRepSlabPlan100
350
2C96
  3
AecDbDispRepSlabPlan50
350
2CAF
  3
AecDbDispRepSlice
350
2BAC
  3
AecDbDispRepSpaceDecomposed
350
2BAD
  3
AecDbDispRepSpaceModel
350
2BAE
  3
AecDbDispRepSpacePlan
350
2BAF
  3
AecDbDispRepSpacePlan100
350
2C98
  3
AecDbDispRepSpacePlan50
350
2CB1
  3
AecDbDispRepSpaceRcp
350
2C69
  3
AecDbDispRepSpaceVolume
350
2C6B
  3
AecDbDispRepStairModel
350
2BB0
  3
AecDbDispRepStairPlan
350
2BB1
  3
AecDbDispRepStairPlan100
350
2CD7
  3
AecDbDispRepStairPlan50
350
2CD9
  3
AecDbDispRepStairPlanOverlapping
350
2C6D
  3
AecDbDispRepStairRcp
350
2C6F
  3
AecDbDispRepWallGraph
350
2BB2
  3
AecDbDispRepWallModel
350
2BB3
  3
AecDbDispRepWallPlan
350
2BB4
  3
AecDbDispRepWallPlan100
350
2C9A
  3
AecDbDispRepWallPlan50
350
2CB3
  3
AecDbDispRepWallRcp
350
2C71
  3
AecDbDispRepWallSchem
350
2BB5
  3
AecDbDispRepWindowAssemblyModel
350
2BB6
  3
AecDbDispRepWindowAssemblyPlan
350
2BB7
  3
AecDbDispRepWindowAssemblyPlan100
350
2BB8
  3
AecDbDispRepWindowAssemblyPlan50
350
2CB5
  3
AecDbDispRepWindowAssemblySillPlan
350
2C73
  3
AecDbDispRepWindowElev
350
2BB9
  3
AecDbDispRepWindowModel
350
2BBA
  3
AecDbDispRepWindowNominal
350
2BBB
  3
AecDbDispRepWindowPlan
350
2BBC
  3
AecDbDispRepWindowPlan100
350
2CDB
  3
AecDbDispRepWindowPlan50
350
2CDD
  3
AecDbDispRepWindowRcp
350
2C75
  3
AecDbDispRepWindowSillPlan
350
2C77
  3
AecDbDispRepZone
350
2BBD
  3
AecDbDispRepZonePlan100
350
2C9C
  3
AecDbDispRepZonePlan50
350
2CB7
  3
AecsDbDispRepMemberElevationDesign
350
2BBE
  3
AecsDbDispRepMemberElevationDetail
350
2C7D
  3
AecsDbDispRepMemberLogical
350
2BBF
  3
AecsDbDispRepMemberModelDesign
350
2BC0
  3
AecsDbDispRepMemberModelDetail
350
2C7F
  3
AecsDbDispRepMemberPlanDesign
350
2BC1
  3
AecsDbDispRepMemberPlanDetail
350
2C81
  3
AecsDbDispRepMemberPlanSketch
350
2C83
  0
DICTIONARY
  5
2BC2
102
{ACAD_REACTORS
330
B
102
}
330
B
100
AcDbDictionary
281
     1
  3
*A1
350
2BC3
  3
*A10
350
2BC4
  3
*A100
350
2C78
  3
*A101
350
2C7A
  3
*A102
350
2C7C
  3
*A103
350
2C7E
  3
*A104
350
2C80
  3
*A105
350
2C82
  3
*A106
350
2C84
  3
*A107
350
2C86
  3
*A108
350
2C88
  3
*A109
350
2C8A
  3
*A11
350
2BC5
  3
*A110
350
2C8C
  3
*A111
350
2C8E
  3
*A112
350
2C90
  3
*A113
350
2C93
  3
*A114
350
2C95
  3
*A115
350
2C97
  3
*A116
350
2C99
  3
*A117
350
2C9B
  3
*A118
350
2C9D
  3
*A119
350
2C9F
  3
*A12
350
2BC6
  3
*A120
350
2CA1
  3
*A121
350
2CA3
  3
*A122
350
2CA5
  3
*A123
350
2CA7
  3
*A124
350
2CA9
  3
*A125
350
2CAC
  3
*A126
350
2CAE
  3
*A127
350
2CB0
  3
*A128
350
2CB2
  3
*A129
350
2CB4
  3
*A13
350
2BC7
  3
*A130
350
2CB6
  3
*A131
350
2CB8
  3
*A132
350
2CBA
  3
*A133
350
2CBC
  3
*A134
350
2CBE
  3
*A135
350
2CC0
  3
*A136
350
2CC2
  3
*A137
350
2CC4
  3
*A138
350
2CC6
  3
*A139
350
2CC8
  3
*A14
350
2BC8
  3
*A140
350
2CCA
  3
*A141
350
2CCC
  3
*A142
350
2CCE
  3
*A143
350
2CD0
  3
*A144
350
2CD2
  3
*A145
350
2CD4
  3
*A146
350
2CD6
  3
*A147
350
2CD8
  3
*A148
350
2CDA
  3
*A149
350
2CDC
  3
*A15
350
2BC9
  3
*A150
350
2CDE
  3
*A16
350
2BCA
  3
*A17
350
2BCB
  3
*A18
350
2BCC
  3
*A19
350
2BCD
  3
*A2
350
2BCE
  3
*A20
350
2BCF
  3
*A21
350
2BD0
  3
*A22
350
2BD1
  3
*A23
350
2BD2
  3
*A24
350
2BD3
  3
*A25
350
2BD4
  3
*A26
350
2BD5
  3
*A27
350
2BD6
  3
*A28
350
2BD7
  3
*A29
350
2BD8
  3
*A3
350
2BD9
  3
*A30
350
2BDA
  3
*A31
350
2BDB
  3
*A32
350
2BDC
  3
*A33
350
2BDD
  3
*A34
350
2BDE
  3
*A35
350
2BDF
  3
*A36
350
2BE0
  3
*A37
350
2BE1
  3
*A38
350
2BE2
  3
*A39
350
2BE3
  3
*A4
350
2BE4
  3
*A40
350
2BE5
  3
*A41
350
2BE6
  3
*A42
350
2BE7
  3
*A43
350
2BE8
  3
*A44
350
2BE9
  3
*A45
350
2BEA
  3
*A46
350
2BEB
  3
*A47
350
2BEC
  3
*A48
350
2BED
  3
*A49
350
2BEE
  3
*A5
350
2BEF
  3
*A50
350
2BF0
  3
*A51
350
2BF1
  3
*A52
350
2BF2
  3
*A53
350
2BF3
  3
*A54
350
2BF4
  3
*A55
350
2BF5
  3
*A56
350
2BF6
  3
*A57
350
2BF7
  3
*A58
350
2BF8
  3
*A59
350
2BF9
  3
*A6
350
2BFA
  3
*A60
350
2BFB
  3
*A61
350
2BFC
  3
*A62
350
2BFD
  3
*A63
350
2BFE
  3
*A64
350
2BFF
  3
*A65
350
2C00
  3
*A66
350
2C01
  3
*A67
350
2C02
  3
*A68
350
2C03
  3
*A69
350
2C04
  3
*A7
350
2C05
  3
*A70
350
2C06
  3
*A71
350
2C07
  3
*A72
350
2C08
  3
*A73
350
2C09
  3
*A74
350
2C0A
  3
*A75
350
2C0B
  3
*A76
350
2C0C
  3
*A77
350
2C0D
  3
*A78
350
2C0E
  3
*A79
350
2C0F
  3
*A8
350
2C10
  3
*A80
350
2C11
  3
*A81
350
2C12
  3
*A82
350
2C52
  3
*A83
350
2C54
  3
*A84
350
2C56
  3
*A85
350
2C58
  3
*A86
350
2C5B
  3
*A87
350
2C5D
  3
*A88
350
2C5F
  3
*A89
350
2C61
  3
*A9
350
2C13
  3
*A90
350
2C64
  3
*A91
350
2C66
  3
*A92
350
2C68
  3
*A93
350
2C6A
  3
*A94
350
2C6C
  3
*A95
350
2C6E
  3
*A96
350
2C70
  3
*A97
350
2C72
  3
*A98
350
2C74
  3
*A99
350
2C76
  0
DICTIONARY
  5
2C14
102
{ACAD_REACTORS
330
B
102
}
330
B
100
AcDbDictionary
281
     1
  3
Standard
350
2C15
  0
DICTIONARY
  5
2C16
102
{ACAD_REACTORS
330
B
102
}
330
B
100
AcDbDictionary
281
     1
  3
Standard
350
2C17
  0
DICTIONARY
  5
2C22
102
{ACAD_REACTORS
330
B
102
}
330
B
100
AcDbDictionary
281
     1
  3
Standard
350
2C23
  0
DICTIONARY
  5
2C24
102
{ACAD_REACTORS
330
B
102
}
330
B
100
AcDbDictionary
281
     1
  3
Area
350
2C25
  3
Case - Lower
350
2C26
  3
Case - Upper
350
2C27
  3
Length - Long
350
2C28
  3
Length - Nominal
350
2C29
  3
Length - Short
350
2C2A
  3
Number - Object
350
2C2B
  3
poziom_bezwzgl
350
2C2C
  3
Standard
350
2C2D
  3
zaokragl do 1 miejsca po przecinku
350
2C2E
  0
DICTIONARY
  5
952
102
{ACAD_REACTORS
330
B
102
}
330
B
100
AcDbDictionary
281
     1
  3
SILNIK2
350
2C2F
  3
SpaceObjects_ver3
350
2C30
  0
DICTIONARY
  5
2C31
102
{ACAD_REACTORS
330
B
102
}
330
B
100
AcDbDictionary
281
     1
  3
Standard
350
2C32
  0
DICTIONARY
  5
2C33
102
{ACAD_REACTORS
330
B
102
}
330
B
100
AcDbDictionary
281
     1
  3
Standard
350
2C34
  0
DICTIONARY
  5
2C35
102
{ACAD_REACTORS
330
B
102
}
330
B
100
AcDbDictionary
281
     1
  3
pomieszczenia-parter - space ver3
350
2C36
  0
DICTIONARY
  5
2C3A
102
{ACAD_REACTORS
330
B
102
}
330
B
100
AcDbDictionary
281
     1
  3
Standard
350
2C3B
  0
DICTIONARY
  5
2C3C
102
{ACAD_REACTORS
330
B
102
}
330
B
100
AcDbDictionary
281
     1
  3
Standard
350
2C3D
  0
DICTIONARY
  5
2C3E
102
{ACAD_REACTORS
330
B
102
}
330
B
100
AcDbDictionary
281
     1
  3
Standard
350
2C3F
  0
DICTIONARY
  5
2C45
102
{ACAD_REACTORS
330
B
102
}
330
B
100
AcDbDictionary
281
     1
  3
AEC_VARS_ARCHBASE
350
2C46
  3
AEC_VARS_DWG_SETUP
350
2C47
  3
AEC_VARS_STRUCTUREBASE
350
2C4A
  3
AECMX_VARS_MUNICH
350
2C4B
  0
DICTIONARY
  5
2C4C
102
{ACAD_REACTORS
330
B
102
}
330
B
100
AcDbDictionary
281
     1
  3
Standard
350
2C4D
  0
XRECORD
  5
3BAA
102
{ACAD_REACTORS
330
B
102
}
330
B
100
AcDbXrecord
280
     1
  1
DWGPROPS COOKIE
  2

  3

  4

  6

  7

  8
beata.rzonca
  9

300
=
301
=
302
=
303
=
304
=
305
=
306
=
307
=
308
=
309
=
 40
21.76152694444445
 41
2450817.525937848
 42
2454965.630175776
  1

 90
        0
  0
DICTIONARY
  5
1F
102
{ACAD_REACTORS
330
1E
102
}
330
1E
100
AcDbDictionary
281
     1
  0
XRECORD
  5
8
102
{ACAD_REACTORS
330
7
102
}
330
7
100
AcDbXrecord
280
     1
290
     1
  0
XRECORD
  5
76
102
{ACAD_REACTORS
330
75
102
}
330
75
100
AcDbXrecord
280
     1
290
     1
  0
XRECORD
  5
58
102
{ACAD_REACTORS
330
57
102
}
330
57
100
AcDbXrecord
280
     1
290
     1
  0
XRECORD
  5
3A5
102
{ACAD_REACTORS
330
3A4
102
}
330
3A4
100
AcDbXrecord
280
     1
290
     1
  0
XRECORD
  5
80
102
{ACAD_REACTORS
330
7F
102
}
330
7F
100
AcDbXrecord
280
     1
290
     1
  0
SORTENTSTABLE
  5
790
102
{ACAD_REACTORS
330
3
102
}
330
3
100
AcDbSortentsTable
330
2
331
1DF8
  5
39F3
331
1D99
  5
1D99
331
1DDA
  5
1E00
331
1D81
  5
1D81
331
1D63
  5
1D63
331
1DFD
  5
39F8
331
1DBC
  5
1DBC
331
1D9E
  5
1D9E
331
1D86
  5
1D86
331
1D68
  5
1D68
331
1D45
  5
1D45
331
1E02
  5
39FD
331
1DC1
  5
1DC1
331
1D4A
  5
1D4A
331
1DA3
  5
1DA3
331
1D8B
  5
1D8B
331
1D6D
  5
1D6D
331
1E07
  5
3A02
331
1DC6
  5
1DC6
331
1D4F
  5
1D4F
331
1DA8
  5
1DA8
331
1D90
  5
1D90
331
1D72
  5
1D72
331
1DCB
  5
1DCB
331
1D54
  5
1D54
331
1DAD
  5
1DAD
331
1D95
  5
1D95
331
1D77
  5
1D77
331
1DB2
  5
1DB2
331
1D59
  5
1D59
331
1D7C
  5
1D7C
331
1DB7
  5
1DB7
331
1D5E
  5
1D5E
331
1A8B
  5
1A8B
331
1AA2
  5
1AA2
331
1D60
  5
1D60
331
1DFA
  5
39F5
331
1DB9
  5
1DB9
331
1D9B
  5
1D9B
331
1D83
  5
1D83
331
1D65
  5
1D65
331
1D42
  5
1D42
331
1DFF
  5
39FA
331
1DBE
  5
1DBE
331
1DA0
  5
1DA0
331
1D88
  5
1D88
331
1D6A
  5
1D6A
331
1D47
  5
1D47
331
1E04
  5
39FF
331
1DC3
  5
1DC3
331
1D4C
  5
1D4C
331
39E5
  5
1DCE
331
1DA5
  5
1DA5
331
1D8D
  5
1D8D
331
1D6F
  5
1D6F
331
1E09
  5
3A04
331
1DC8
  5
1DC8
331
1D51
  5
1D51
331
1DAA
  5
1DAA
331
1D92
  5
1D92
331
1D74
  5
1D74
331
1D56
  5
1D56
331
1DAF
  5
1DAF
331
1D97
  5
1D97
331
1D79
  5
1D79
331
1DF5
  5
39F0
331
1DB4
  5
1DB4
331
1DD7
  5
1DE3
331
1D7E
  5
1D7E
331
1D5B
  5
1D5B
331
1D98
  5
1D98
331
1DD9
  5
1DE4
331
1D80
  5
1D80
331
1D62
  5
1D62
331
1DFC
  5
39F7
331
1DBB
  5
1DBB
331
1D9D
  5
1D9D
331
1D85
  5
1D85
331
1D67
  5
1D67
331
1D44
  5
1D44
331
1E01
  5
39FC
331
1DC0
  5
1DC0
331
1D49
  5
1D49
331
1DA2
  5
1DA2
331
1D8A
  5
1D8A
331
1D6C
  5
1D6C
331
1AA1
  5
1AA1
331
1E06
  5
3A01
331
1DC5
  5
1DC5
331
1D4E
  5
1D4E
331
1DA7
  5
1DA7
331
1D8F
  5
1D8F
331
1D71
  5
1D71
331
1E0B
  5
3A09
331
1DCA
  5
1DCA
331
1D53
  5
1D53
331
1DAC
  5
1DAC
331
1D94
  5
1D94
331
1D76
  5
1D76
331
1DB1
  5
1DB1
331
1D58
  5
1D58
331
1D7B
  5
1D7B
331
1DF7
  5
39F2
331
1DB6
  5
1DB6
331
1D5D
  5
1D5D
331
1A8A
  5
1A8A
331
1DF9
  5
39F4
331
1DB8
  5
1DB8
331
1D9A
  5
1D9A
331
1D82
  5
1D82
331
1D64
  5
1D64
331
1D41
  5
1D41
331
1DFE
  5
39F9
331
1DBD
  5
1DBD
331
1D46
  5
1D46
331
1D9F
  5
1D9F
331
1D87
  5
1D87
331
1D69
  5
1D69
331
1A9E
  5
1A9E
331
1E03
  5
39FE
331
1DC2
  5
1DC2
331
1D4B
  5
1D4B
331
1DA4
  5
1DA4
331
1D8C
  5
1D8C
331
1D6E
  5
1D6E
331
1E08
  5
3A03
331
1DC7
  5
1DC7
331
1D50
  5
1D50
331
1DA9
  5
1DA9
331
1D91
  5
1D91
331
1D73
  5
1D73
331
1DCC
  5
1DCC
331
1D55
  5
1D55
331
1DAE
  5
1DAE
331
1D96
  5
1D96
331
1D78
  5
1D78
331
39F3
  5
39EE
331
1DB3
  5
1DB3
331
1DD6
  5
1DE0
331
1D7D
  5
1D7D
331
1D5F
  5
1D5F
331
1D5A
  5
1D5A
331
1D61
  5
1D61
331
1DFB
  5
39F6
331
1DBA
  5
1DBA
331
1D9C
  5
1D9C
331
1D84
  5
1D84
331
1D66
  5
1D66
331
1D43
  5
1D43
331
1E00
  5
39FB
331
1DBF
  5
1DBF
331
1D48
  5
1D48
331
1DA1
  5
1DA1
331
1D89
  5
1D89
331
1D6B
  5
1D6B
331
1AA0
  5
1AA0
331
1E05
  5
3A00
331
1DC4
  5
1DC4
331
1D4D
  5
1D4D
331
1DA6
  5
1DA6
331
1D8E
  5
1D8E
331
1D70
  5
1D70
331
1E0A
  5
3A05
331
1DC9
  5
1DC9
331
1D52
  5
1D52
331
1DAB
  5
1DAB
331
1D93
  5
1D93
331
1D75
  5
1D75
331
1D57
  5
1D57
331
1DB0
  5
1DB0
331
1D7A
  5
1D7A
331
1DF6
  5
39F1
331
1DB5
  5
1DB5
331
1D7F
  5
1D7F
331
1D5C
  5
1D5C
  0
SORTENTSTABLE
  5
78F
102
{ACAD_REACTORS
330
30
102
}
330
30
100
AcDbSortentsTable
330
2F
  0
LAYOUT
  5
1943
102
{ACAD_XDICTIONARY
360
3BB4
102
}
102
{ACAD_REACTORS
330
12
102
}
330
12
100
AcDbPlotSettings
  1

  2
CutePDF Writer
  4

  6

 40
0.0
 41
0.0
 42
0.0
 43
0.0
 44
0.0
 45
0.0
 46
0.0
 47
0.0
 48
0.0
 49
0.0
140
0.0
141
0.0
142
1.0
143
1.0
 70
   688
 72
     0
 73
     0
 74
     5
  7

 75
    16
147
1.0
148
0.0
149
0.0
100
AcDbLayout
  1
Layout1
 70
     1
 71
     1
 10
0.0
 20
0.0
 11
12.0
 21
9.0
 12
0.0
 22
0.0
 32
0.0
 14
0.0
 24
0.0
 34
0.0
 15
0.0
 25
0.0
 35
0.0
146
0.0
 13
0.0
 23
0.0
 33
0.0
 16
1.0
 26
0.0
 36
0.0
 17
0.0
 27
1.0
 37
0.0
 76
     0
330
1942
  0
LAYOUT
  5
11
102
{ACAD_XDICTIONARY
360
3BAD
102
}
102
{ACAD_REACTORS
330
12
102
}
330
12
100
AcDbPlotSettings
  1

  2
RICOH Aficio AP610N PCL 5e
  4
A4
  6
10-ele
 40
6.805083274841308
 41
5.027085781097412
 42
6.974411010742187
 43
5.027069091796875
 44
209.9733276367187
 45
296.9259948730469
 46
-3.903083324432671
 47
3.235920000076276
 48
67057.75918130524
 49
-45526.33714755503
140
77257.75918130527
141
-31506.33714755504
142
1.0
143
50.0
 70
 11940
 72
     1
 73
     0
 74
     4
  7
monochrome_140.ctb
 75
     0
147
0.0192346895442289
148
-67057.75918130524
149
45526.33714755503
100
AcDbLayout
  1
Model
 70
     1
 71
     0
 10
0.0
 20
0.0
 11
12.0
 21
9.0
 12
0.0
 22
0.0
 32
0.0
 14
0.0
 24
0.0
 34
0.0
 15
0.0
 25
0.0
 35
0.0
146
0.0
 13
0.0
 23
0.0
 33
0.0
 16
1.0
 26
0.0
 36
0.0
 17
0.0
 27
1.0
 37
0.0
 76
     0
330
2
331
29
1001
ACAD_PSEXT
1000
RICOH Aficio AP610N PCL 5e
1000
RICOH Aficio AP610N PCL 5e
1000
IP_192.168.0.252_tech
1000

1070
     0
  0
MATERIAL
  5
52
102
{ACAD_XDICTIONARY
360
3BB1
102
}
102
{ACAD_REACTORS
330
D
102
}
330
D
100
AcDbMaterial
  1
ByBlock
 73
     1
 78
     1
172
     1
176
     1
270
     1
274
     1
  0
MATERIAL
  5
51
102
{ACAD_XDICTIONARY
360
3BAF
102
}
102
{ACAD_REACTORS
330
D
102
}
330
D
100
AcDbMaterial
  1
ByLayer
 73
     1
 78
     1
172
     1
176
     1
270
     1
274
     1
  0
MATERIAL
  5
2551
102
{ACAD_XDICTIONARY
360
2552
102
}
102
{ACAD_REACTORS
330
D
102
}
330
D
100
AcDbMaterial
  1
General.Chip
 70
     1
 90
-1029332071
 71
     1
 91
-1029332071
 73
     1
 43
10.0
 43
0.0
 43
0.0
 43
0.0
 43
0.0
 43
10.0
 43
0.0
 43
0.0
 43
0.0
 43
0.0
 43
10.0
 43
0.0
 43
0.0
 43
0.0
 43
0.0
 43
1.0
 44
0.0
 76
     1
 92
-1023410177
 78
     1
172
     1
176
     1
270
     1
273
     1
274
     1
  0
MATERIAL
  5
C
102
{ACAD_XDICTIONARY
360
3BAB
102
}
102
{ACAD_REACTORS
330
D
102
}
330
D
100
AcDbMaterial
  1
Global
 73
     1
 78
     1
172
     1
176
     1
270
     1
274
     1
  0
MLEADERSTYLE
  5
7A9
102
{ACAD_REACTORS
330
7A8
102
}
330
7A8
100
AcDbMLeaderStyle
170
     2
171
     1
172
     0
 90
        2
 40
0.0
 41
0.0
173
     1
 91
-1056964608
340
24
 92
       -2
290
     1
 42
0.09
291
     1
 43
0.36
  3
Standard
 44
0.18
300

342
21
174
     1
178
     6
175
     1
176
     0
 93
-1056964608
 45
0.18
292
     0
297
     0
 46
0.18
 94
-1056964608
 47
1.0
 49
1.0
140
1.0
293
     1
141
0.0
294
     1
177
     0
142
1.0
295
     0
296
     0
143
0.125
1001
ACAD_MLEADERVER
1070
     2
  0
MLINESTYLE
  5
59
102
{ACAD_REACTORS
330
4F
102
}
330
4F
100
AcDbMlineStyle
  2
STANDARD
 70
     0
  3

 62
     0
 51
90.0
 52
90.0
 71
     2
 49
0.5
 62
   256
  6
BYLAYER
 49
-0.5
 62
   256
  6
BYLAYER
  0
ACDBPLACEHOLDER
  5
2549
102
{ACAD_REACTORS
330
A
102
}
330
A
  0
ACDBPLACEHOLDER
  5
254A
102
{ACAD_REACTORS
330
A
102
}
330
A
  0
ACDBPLACEHOLDER
  5
254B
102
{ACAD_REACTORS
330
A
102
}
330
A
  0
ACDBPLACEHOLDER
  5
9
102
{ACAD_REACTORS
330
A
102
}
330
A
  0
ACDBPLACEHOLDER
  5
254C
102
{ACAD_REACTORS
330
A
102
}
330
A
  0
ACDBPLACEHOLDER
  5
254E
102
{ACAD_REACTORS
330
A
102
}
330
A
  0
ACDBPLACEHOLDER
  5
254F
102
{ACAD_REACTORS
330
A
102
}
330
A
  0
ACDBPLACEHOLDER
  5
2550
102
{ACAD_REACTORS
330
A
102
}
330
A
  0
SCALE
  5
85B
102
{ACAD_REACTORS
330
54
102
}
330
54
100
AcDbScale
 70
     0
300
1:1_2
140
1.0
141
1.0
290
     0
  0
SCALE
  5
132C
102
{ACAD_REACTORS
330
54
102
}
330
54
100
AcDbScale
 70
     0
300
1:10_3
140
1.0
141
1.0
290
     0
  0
SCALE
  5
2572
102
{ACAD_REACTORS
330
54
102
}
330
54
100
AcDbScale
 70
     0
300
1/32" = 1'-0"_XREF
140
0.03125
141
12.0
290
     0
  0
SCALE
  5
2573
102
{ACAD_REACTORS
330
54
102
}
330
54
100
AcDbScale
 70
     0
300
1/16" = 1'-0"_XREF
140
0.0625
141
12.0
290
     0
  0
SCALE
  5
2574
102
{ACAD_REACTORS
330
54
102
}
330
54
100
AcDbScale
 70
     0
300
1:1_XREF
140
1.0
141
1.0
290
     0
  0
SCALE
  5
2575
102
{ACAD_REACTORS
330
54
102
}
330
54
100
AcDbScale
 70
     0
300
1:2_XREF
140
1.0
141
2.0
290
     0
  0
SCALE
  5
132D
102
{ACAD_REACTORS
330
54
102
}
330
54
100
AcDbScale
 70
     0
300
1:20_3
140
1.0
141
2.0
290
     0
  0
SCALE
  5
86F
102
{ACAD_REACTORS
330
54
102
}
330
54
100
AcDbScale
 70
     0
300
4:1
140
4.0
141
1.0
290
     0
  0
SCALE
  5
132E
102
{ACAD_REACTORS
330
54
102
}
330
54
100
AcDbScale
 70
     0
300
1:50_3
140
1.0
141
5.0
290
     0
  0
SCALE
  5
873
102
{ACAD_REACTORS
330
54
102
}
330
54
100
AcDbScale
 70
     0
300
1/128" = 1'-0"
140
0.0078125
141
12.0
290
     0
  0
SCALE
  5
132F
102
{ACAD_REACTORS
330
54
102
}
330
54
100
AcDbScale
 70
     0
300
1:100_3
140
1.0
141
10.0
290
     0
  0
SCALE
  5
869
102
{ACAD_REACTORS
330
54
102
}
330
54
100
AcDbScale
 70
     0
300
1:20_1
140
1.0
141
20.0
290
     0
  0
SCALE
  5
1330
102
{ACAD_REACTORS
330
54
102
}
330
54
100
AcDbScale
 70
     0
300
1:1_3
140
1.0
141
0.1
290
     0
  0
SCALE
  5
1331
102
{ACAD_REACTORS
330
54
102
}
330
54
100
AcDbScale
 70
     0
300
1:2_3
140
1.0
141
0.2
290
     0
  0
SCALE
  5
1332
102
{ACAD_REACTORS
330
54
102
}
330
54
100
AcDbScale
 70
     0
300
1:1_4
140
1.0
141
1.0
290
     0
  0
SCALE
  5
876
102
{ACAD_REACTORS
330
54
102
}
330
54
100
AcDbScale
 70
     0
300
1/16" = 1'-0"
140
0.0625
141
12.0
290
     0
  0
SCALE
  5
1333
102
{ACAD_REACTORS
330
54
102
}
330
54
100
AcDbScale
 70
     0
300
1:2_4
140
1.0
141
2.0
290
     0
  0
SCALE
  5
879
102
{ACAD_REACTORS
330
54
102
}
330
54
100
AcDbScale
 70
     0
300
3/16" = 1'-0"
140
0.1875
141
12.0
290
     0
  0
SCALE
  5
87B
102
{ACAD_REACTORS
330
54
102
}
330
54
100
AcDbScale
 70
     0
300
3/8" = 1'-0"
140
0.375
141
12.0
290
     0
  0
SCALE
  5
870
102
{ACAD_REACTORS
330
54
102
}
330
54
100
AcDbScale
 70
     0
300
8:1
140
8.0
141
1.0
290
     0
  0
SCALE
  5
1334
102
{ACAD_REACTORS
330
54
102
}
330
54
100
AcDbScale
 70
     0
300
1:5_4
140
1.0
141
5.0
290
     0
  0
SCALE
  5
1335
102
{ACAD_REACTORS
330
54
102
}
330
54
100
AcDbScale
 70
     0
300
1:10_4
140
1.0
141
10.0
290
     0
  0
SCALE
  5
1336
102
{ACAD_REACTORS
330
54
102
}
330
54
100
AcDbScale
 70
     0
300
1:20_4
140
1.0
141
20.0
290
     0
  0
SCALE
  5
1337
102
{ACAD_REACTORS
330
54
102
}
330
54
100
AcDbScale
 70
     0
300
1:50_4
140
1.0
141
50.0
290
     0
  0
SCALE
  5
87F
102
{ACAD_REACTORS
330
54
102
}
330
54
100
AcDbScale
 70
     0
300
1-1/2" = 1'-0"
140
1.5
141
12.0
290
     0
  0
SCALE
  5
881
102
{ACAD_REACTORS
330
54
102
}
330
54
100
AcDbScale
 70
     0
300
6" = 1'-0"
140
6.0
141
12.0
290
     0
  0
SCALE
  5
877
102
{ACAD_REACTORS
330
54
102
}
330
54
100
AcDbScale
 70
     0
300
3/32" = 1'-0"
140
0.09375
141
12.0
290
     0
  0
SCALE
  5
1338
102
{ACAD_REACTORS
330
54
102
}
330
54
100
AcDbScale
 70
     0
300
1:100_4
140
1.0
141
100.0
290
     0
  0
SCALE
  5
87C
102
{ACAD_REACTORS
330
54
102
}
330
54
100
AcDbScale
 70
     0
300
1/2" = 1'-0"
140
0.5
141
12.0
290
     0
  0
SCALE
  5
87D
102
{ACAD_REACTORS
330
54
102
}
330
54
100
AcDbScale
 70
     0
300
3/4" = 1'-0"
140
0.75
141
12.0
290
     0
  0
SCALE
  5
865
102
{ACAD_REACTORS
330
54
102
}
330
54
100
AcDbScale
 70
     0
300
1:5_1
140
1.0
141
5.0
290
     0
  0
SCALE
  5
860
102
{ACAD_REACTORS
330
54
102
}
330
54
100
AcDbScale
 70
     0
300
1:50_2
140
1.0
141
50.0
290
     0
  0
SCALE
  5
862
102
{ACAD_REACTORS
330
54
102
}
330
54
100
AcDbScale
 70
     0
300
1:1_1
140
1.0
141
1.0
290
     0
  0
SCALE
  5
87E
102
{ACAD_REACTORS
330
54
102
}
330
54
100
AcDbScale
 70
     0
300
1" = 1'-0"
140
1.0
141
12.0
290
     0
  0
SCALE
  5
168F
102
{ACAD_REACTORS
330
54
102
}
330
54
100
AcDbScale
 70
     0
300
1:1_3_1
140
1.0
141
1.0
290
     0
  0
SCALE
  5
1690
102
{ACAD_REACTORS
330
54
102
}
330
54
100
AcDbScale
 70
     0
300
1:2_3_1
140
1.0
141
2.0
290
     0
  0
SCALE
  5
1691
102
{ACAD_REACTORS
330
54
102
}
330
54
100
AcDbScale
 70
     0
300
1:5_3_1
140
1.0
141
5.0
290
     0
  0
SCALE
  5
868
102
{ACAD_REACTORS
330
54
102
}
330
54
100
AcDbScale
 70
     0
300
1:16
140
1.0
141
16.0
290
     0
  0
SCALE
  5
86A
102
{ACAD_REACTORS
330
54
102
}
330
54
100
AcDbScale
 70
     0
300
1:30
140
1.0
141
30.0
290
     0
  0
SCALE
  5
1692
102
{ACAD_REACTORS
330
54
102
}
330
54
100
AcDbScale
 70
     0
300
1:10_3_1
140
1.0
141
10.0
290
     0
  0
SCALE
  5
1693
102
{ACAD_REACTORS
330
54
102
}
330
54
100
AcDbScale
 70
     0
300
1:20_3_1
140
1.0
141
20.0
290
     0
  0
SCALE
  5
85E
102
{ACAD_REACTORS
330
54
102
}
330
54
100
AcDbScale
 70
     0
300
1:10_2
140
1.0
141
10.0
290
     0
  0
SCALE
  5
1694
102
{ACAD_REACTORS
330
54
102
}
330
54
100
AcDbScale
 70
     0
300
1:50_3_1
140
1.0
141
50.0
290
     0
  0
SCALE
  5
871
102
{ACAD_REACTORS
330
54
102
}
330
54
100
AcDbScale
 70
     0
300
10:1
140
10.0
141
1.0
290
     0
  0
SCALE
  5
1695
102
{ACAD_REACTORS
330
54
102
}
330
54
100
AcDbScale
 70
     0
300
1:100_3_1
140
1.0
141
100.0
290
     0
  0
SCALE
  5
882
102
{ACAD_REACTORS
330
54
102
}
330
54
100
AcDbScale
 70
     0
300
1'-0" = 1'-0"
140
12.0
141
12.0
290
     0
  0
SCALE
  5
866
102
{ACAD_REACTORS
330
54
102
}
330
54
100
AcDbScale
 70
     0
300
1:8
140
1.0
141
8.0
290
     0
  0
SCALE
  5
86D
102
{ACAD_REACTORS
330
54
102
}
330
54
100
AcDbScale
 70
     0
300
1:100_1
140
1.0
141
100.0
290
     0
  0
SCALE
  5
85D
102
{ACAD_REACTORS
330
54
102
}
330
54
100
AcDbScale
 70
     0
300
1:5_2
140
1.0
141
5.0
290
     0
  0
SCALE
  5
85F
102
{ACAD_REACTORS
330
54
102
}
330
54
100
AcDbScale
 70
     0
300
1:20_2
140
1.0
141
20.0
290
     0
  0
SCALE
  5
863
102
{ACAD_REACTORS
330
54
102
}
330
54
100
AcDbScale
 70
     0
300
1:2_1
140
1.0
141
2.0
290
     0
  0
SCALE
  5
85C
102
{ACAD_REACTORS
330
54
102
}
330
54
100
AcDbScale
 70
     0
300
1:2_2
140
1.0
141
2.0
290
     0
  0
SCALE
  5
874
102
{ACAD_REACTORS
330
54
102
}
330
54
100
AcDbScale
 70
     0
300
1/64" = 1'-0"
140
0.015625
141
12.0
290
     0
  0
SCALE
  5
867
102
{ACAD_REACTORS
330
54
102
}
330
54
100
AcDbScale
 70
     0
300
1:10_1
140
1.0
141
10.0
290
     0
  0
SCALE
  5
1A1C
102
{ACAD_REACTORS
330
54
102
}
330
54
100
AcDbScale
 70
     0
300
1:1_5
140
1.0
141
1.0
290
     0
  0
SCALE
  5
864
102
{ACAD_REACTORS
330
54
102
}
330
54
100
AcDbScale
 70
     0
300
1:4
140
1.0
141
4.0
290
     0
  0
SCALE
  5
1A1D
102
{ACAD_REACTORS
330
54
102
}
330
54
100
AcDbScale
 70
     0
300
1:2_5
140
1.0
141
2.0
290
     0
  0
SCALE
  5
1A1E
102
{ACAD_REACTORS
330
54
102
}
330
54
100
AcDbScale
 70
     0
300
1:5_5
140
1.0
141
5.0
290
     0
  0
SCALE
  5
1A1F
102
{ACAD_REACTORS
330
54
102
}
330
54
100
AcDbScale
 70
     0
300
1:10_5
140
1.0
141
10.0
290
     0
  0
SCALE
  5
86C
102
{ACAD_REACTORS
330
54
102
}
330
54
100
AcDbScale
 70
     0
300
1:50_1
140
1.0
141
50.0
290
     0
  0
SCALE
  5
1A20
102
{ACAD_REACTORS
330
54
102
}
330
54
100
AcDbScale
 70
     0
300
1:20_5
140
1.0
141
20.0
290
     0
  0
SCALE
  5
1A21
102
{ACAD_REACTORS
330
54
102
}
330
54
100
AcDbScale
 70
     0
300
1:50_5
140
1.0
141
50.0
290
     0
  0
SCALE
  5
1A22
102
{ACAD_REACTORS
330
54
102
}
330
54
100
AcDbScale
 70
     0
300
1:100_5
140
1.0
141
100.0
290
     0
  0
SCALE
  5
86B
102
{ACAD_REACTORS
330
54
102
}
330
54
100
AcDbScale
 70
     0
300
1:40
140
1.0
141
40.0
290
     0
  0
SCALE
  5
87A
102
{ACAD_REACTORS
330
54
102
}
330
54
100
AcDbScale
 70
     0
300
1/4" = 1'-0"
140
0.25
141
12.0
290
     0
  0
SCALE
  5
86E
102
{ACAD_REACTORS
330
54
102
}
330
54
100
AcDbScale
 70
     0
300
2:1
140
2.0
141
1.0
290
     0
  0
SCALE
  5
872
102
{ACAD_REACTORS
330
54
102
}
330
54
100
AcDbScale
 70
     0
300
100:1
140
100.0
141
1.0
290
     0
  0
SCALE
  5
880
102
{ACAD_REACTORS
330
54
102
}
330
54
100
AcDbScale
 70
     0
300
3" = 1'-0"
140
3.0
141
12.0
290
     0
  0
SCALE
  5
875
102
{ACAD_REACTORS
330
54
102
}
330
54
100
AcDbScale
 70
     0
300
1/32" = 1'-0"
140
0.03125
141
12.0
290
     0
  0
SCALE
  5
1C6B
102
{ACAD_REACTORS
330
54
102
}
330
54
100
AcDbScale
 70
     0
300
1 1/2" = 1'-0"
140
1.5
141
12.0
290
     0
  0
SCALE
  5
878
102
{ACAD_REACTORS
330
54
102
}
330
54
100
AcDbScale
 70
     0
300
1/8" = 1'-0"
140
0.125
141
12.0
290
     0
  0
SCALE
  5
2554
102
{ACAD_REACTORS
330
54
102
}
330
54
100
AcDbScale
 70
     0
300
1/64" = 1'-0"_XREF
140
0.015625
141
12.0
290
     0
  0
SCALE
  5
2555
102
{ACAD_REACTORS
330
54
102
}
330
54
100
AcDbScale
 70
     0
300
1:4_XREF
140
1.0
141
4.0
290
     0
  0
SCALE
  5
2556
102
{ACAD_REACTORS
330
54
102
}
330
54
100
AcDbScale
 70
     0
300
1:5_XREF
140
1.0
141
5.0
290
     0
  0
SCALE
  5
2557
102
{ACAD_REACTORS
330
54
102
}
330
54
100
AcDbScale
 70
     0
300
3/32" = 1'-0"_XREF
140
0.09375
141
12.0
290
     0
  0
SCALE
  5
2558
102
{ACAD_REACTORS
330
54
102
}
330
54
100
AcDbScale
 70
     0
300
1:8_XREF
140
1.0
141
8.0
290
     0
  0
SCALE
  5
2559
102
{ACAD_REACTORS
330
54
102
}
330
54
100
AcDbScale
 70
     0
300
1:10_XREF
140
1.0
141
10.0
290
     0
  0
SCALE
  5
255A
102
{ACAD_REACTORS
330
54
102
}
330
54
100
AcDbScale
 70
     0
300
1:16_XREF
140
1.0
141
16.0
290
     0
  0
SCALE
  5
255B
102
{ACAD_REACTORS
330
54
102
}
330
54
100
AcDbScale
 70
     0
300
1:20_XREF
140
1.0
141
20.0
290
     0
  0
SCALE
  5
255C
102
{ACAD_REACTORS
330
54
102
}
330
54
100
AcDbScale
 70
     0
300
1:30_XREF
140
1.0
141
30.0
290
     0
  0
SCALE
  5
255D
102
{ACAD_REACTORS
330
54
102
}
330
54
100
AcDbScale
 70
     0
300
1:40_XREF
140
1.0
141
40.0
290
     0
  0
SCALE
  5
861
102
{ACAD_REACTORS
330
54
102
}
330
54
100
AcDbScale
 70
     0
300
1:100_2
140
1.0
141
100.0
290
     0
  0
SCALE
  5
255E
102
{ACAD_REACTORS
330
54
102
}
330
54
100
AcDbScale
 70
     0
300
1:50_XREF
140
1.0
141
50.0
290
     0
  0
SCALE
  5
255F
102
{ACAD_REACTORS
330
54
102
}
330
54
100
AcDbScale
 70
     0
300
1 1/2" = 1'-0"_XREF
140
1.5
141
12.0
290
     0
  0
SCALE
  5
2560
102
{ACAD_REACTORS
330
54
102
}
330
54
100
AcDbScale
 70
     0
300
1:100_XREF
140
1.0
141
100.0
290
     0
  0
SCALE
  5
2561
102
{ACAD_REACTORS
330
54
102
}
330
54
100
AcDbScale
 70
     0
300
2:1_XREF
140
2.0
141
1.0
290
     0
  0
SCALE
  5
2562
102
{ACAD_REACTORS
330
54
102
}
330
54
100
AcDbScale
 70
     0
300
4:1_XREF
140
4.0
141
1.0
290
     0
  0
SCALE
  5
2563
102
{ACAD_REACTORS
330
54
102
}
330
54
100
AcDbScale
 70
     0
300
1/8" = 1'-0"_XREF
140
0.125
141
12.0
290
     0
  0
SCALE
  5
2564
102
{ACAD_REACTORS
330
54
102
}
330
54
100
AcDbScale
 70
     0
300
8:1_XREF
140
8.0
141
1.0
290
     0
  0
SCALE
  5
2565
102
{ACAD_REACTORS
330
54
102
}
330
54
100
AcDbScale
 70
     0
300
10:1_XREF
140
10.0
141
1.0
290
     0
  0
SCALE
  5
2566
102
{ACAD_REACTORS
330
54
102
}
330
54
100
AcDbScale
 70
     0
300
100:1_XREF
140
100.0
141
1.0
290
     0
  0
SCALE
  5
2567
102
{ACAD_REACTORS
330
54
102
}
330
54
100
AcDbScale
 70
     0
300
1/128" = 1'-0"_XREF
140
0.0078125
141
12.0
290
     0
  0
SCALE
  5
132B
102
{ACAD_REACTORS
330
54
102
}
330
54
100
AcDbScale
 70
     0
300
1:5_3
140
1.0
141
0.5
290
     0
  0
SCALE
  5
2568
102
{ACAD_REACTORS
330
54
102
}
330
54
100
AcDbScale
 70
     0
300
1-1/2" = 1'-0"_XREF
140
1.5
141
12.0
290
     0
  0
SCALE
  5
2569
102
{ACAD_REACTORS
330
54
102
}
330
54
100
AcDbScale
 70
     0
300
3/16" = 1'-0"_XREF
140
0.1875
141
12.0
290
     0
  0
SCALE
  5
256A
102
{ACAD_REACTORS
330
54
102
}
330
54
100
AcDbScale
 70
     0
300
3" = 1'-0"_XREF
140
3.0
141
12.0
290
     0
  0
SCALE
  5
256B
102
{ACAD_REACTORS
330
54
102
}
330
54
100
AcDbScale
 70
     0
300
1/4" = 1'-0"_XREF
140
0.25
141
12.0
290
     0
  0
SCALE
  5
256C
102
{ACAD_REACTORS
330
54
102
}
330
54
100
AcDbScale
 70
     0
300
3/8" = 1'-0"_XREF
140
0.375
141
12.0
290
     0
  0
SCALE
  5
256D
102
{ACAD_REACTORS
330
54
102
}
330
54
100
AcDbScale
 70
     0
300
1/2" = 1'-0"_XREF
140
0.5
141
12.0
290
     0
  0
SCALE
  5
256E
102
{ACAD_REACTORS
330
54
102
}
330
54
100
AcDbScale
 70
     0
300
3/4" = 1'-0"_XREF
140
0.75
141
12.0
290
     0
  0
SCALE
  5
256F
102
{ACAD_REACTORS
330
54
102
}
330
54
100
AcDbScale
 70
     0
300
1" = 1'-0"_XREF
140
1.0
141
12.0
290
     0
  0
SCALE
  5
2570
102
{ACAD_REACTORS
330
54
102
}
330
54
100
AcDbScale
 70
     0
300
6" = 1'-0"_XREF
140
6.0
141
12.0
290
     0
  0
SCALE
  5
2571
102
{ACAD_REACTORS
330
54
102
}
330
54
100
AcDbScale
 70
     0
300
1'-0" = 1'-0"_XREF
140
12.0
141
12.0
290
     0
  0
SCALE
  5
5E
102
{ACAD_REACTORS
330
54
102
}
330
54
100
AcDbScale
 70
     0
300
1:1
140
1.0
141
0.1
290
     0
  0
SCALE
  5
5F
102
{ACAD_REACTORS
330
54
102
}
330
54
100
AcDbScale
 70
     0
300
1:2
140
1.0
141
0.2
290
     0
  0
SCALE
  5
60
102
{ACAD_REACTORS
330
54
102
}
330
54
100
AcDbScale
 70
     0
300
1:2.5
140
1.0
141
0.25
290
     0
  0
SCALE
  5
61
102
{ACAD_REACTORS
330
54
102
}
330
54
100
AcDbScale
 70
     0
300
1:5
140
1.0
141
0.5
290
     0
  0
SCALE
  5
62
102
{ACAD_REACTORS
330
54
102
}
330
54
100
AcDbScale
 70
     0
300
1:7.5
140
1.0
141
0.75
290
     0
  0
SCALE
  5
63
102
{ACAD_REACTORS
330
54
102
}
330
54
100
AcDbScale
 70
     0
300
1:10
140
1.0
141
1.0
290
     1
  0
SCALE
  5
64
102
{ACAD_REACTORS
330
54
102
}
330
54
100
AcDbScale
 70
     0
300
1:20
140
1.0
141
2.0
290
     0
  0
SCALE
  5
65
102
{ACAD_REACTORS
330
54
102
}
330
54
100
AcDbScale
 70
     0
300
1:25
140
1.0
141
2.5
290
     0
  0
SCALE
  5
66
102
{ACAD_REACTORS
330
54
102
}
330
54
100
AcDbScale
 70
     0
300
1:50
140
1.0
141
5.0
290
     0
  0
SCALE
  5
67
102
{ACAD_REACTORS
330
54
102
}
330
54
100
AcDbScale
 70
     0
300
1:75
140
1.0
141
7.5
290
     0
  0
SCALE
  5
68
102
{ACAD_REACTORS
330
54
102
}
330
54
100
AcDbScale
 70
     0
300
1:100
140
1.0
141
10.0
290
     0
  0
SCALE
  5
69
102
{ACAD_REACTORS
330
54
102
}
330
54
100
AcDbScale
 70
     0
300
1:150
140
1.0
141
15.0
290
     0
  0
SCALE
  5
6A
102
{ACAD_REACTORS
330
54
102
}
330
54
100
AcDbScale
 70
     0
300
1:200
140
1.0
141
20.0
290
     0
  0
SCALE
  5
6B
102
{ACAD_REACTORS
330
54
102
}
330
54
100
AcDbScale
 70
     0
300
1:250
140
1.0
141
25.0
290
     0
  0
SCALE
  5
6C
102
{ACAD_REACTORS
330
54
102
}
330
54
100
AcDbScale
 70
     0
300
1:500
140
1.0
141
50.0
290
     0
  0
SCALE
  5
6D
102
{ACAD_REACTORS
330
54
102
}
330
54
100
AcDbScale
 70
     0
300
1:750
140
1.0
141
75.0
290
     0
  0
SCALE
  5
6E
102
{ACAD_REACTORS
330
54
102
}
330
54
100
AcDbScale
 70
     0
300
1:1000
140
1.0
141
100.0
290
     0
  0
SCALE
  5
6F
102
{ACAD_REACTORS
330
54
102
}
330
54
100
AcDbScale
 70
     0
300
1:1250
140
1.0
141
125.0
290
     0
  0
SCALE
  5
70
102
{ACAD_REACTORS
330
54
102
}
330
54
100
AcDbScale
 70
     0
300
1:2000
140
1.0
141
200.0
290
     0
  0
SCALE
  5
71
102
{ACAD_REACTORS
330
54
102
}
330
54
100
AcDbScale
 70
     0
300
1:2500
140
1.0
141
250.0
290
     0
  0
SCALE
  5
72
102
{ACAD_REACTORS
330
54
102
}
330
54
100
AcDbScale
 70
     0
300
1:5000
140
1.0
141
500.0
290
     0
  0
TABLESTYLE
  5
5A
102
{ACAD_XDICTIONARY
360
5B
102
}
102
{ACAD_REACTORS
330
55
102
}
330
55
100
AcDbTableStyle
  3
Standard
 70
     0
 71
     0
 40
0.06
 41
0.06
280
     0
281
     0
  7
STANDARD
140
0.18
170
     2
 62
     0
 63
     7
283
     0
274
    -2
284
     1
 64
     0
275
    -2
285
     1
 65
     0
276
    -2
286
     1
 66
     0
277
    -2
287
     1
 67
     0
278
    -2
288
     1
 68
     0
279
    -2
289
     1
 69
     0
  7
STANDARD
140
0.25
170
     5
 62
     0
 63
     7
283
     0
274
    -2
284
     1
 64
     0
275
    -2
285
     1
 65
     0
276
    -2
286
     1
 66
     0
277
    -2
287
     1
 67
     0
278
    -2
288
     1
 68
     0
279
    -2
289
     1
 69
     0
  7
STANDARD
140
0.18
170
     5
 62
     0
 63
     7
283
     0
274
    -2
284
     1
 64
     0
275
    -2
285
     1
 65
     0
276
    -2
286
     1
 66
     0
277
    -2
287
     1
 67
     0
278
    -2
288
     1
 68
     0
279
    -2
289
     1
 69
     0
  0
VISUALSTYLE
  5
14
102
{ACAD_REACTORS
330
15
102
}
330
15
100
AcDbVisualStyle
  2
2dWireframe
 70
     4
 71
     0
 72
     2
 73
     0
 90
        0
 40
-0.6
 41
-30.0
 62
     5
 63
     7
 74
     1
 91
        4
 64
     7
 65
   257
 75
     1
175
     1
 42
1.0
 92
        0
 66
   257
 43
1.0
 76
     1
 77
     6
 78
     2
 67
     7
 79
     5
170
     0
171
     0
290
     0
174
     0
 93
        1
 44
0.0
173
     0
291
     0
 45
0.0
1001
ACAD
1000
AcDbSavedByObjectVersion
1070
     0
  0
VISUALSTYLE
  5
7A0
102
{ACAD_REACTORS
330
15
102
}
330
15
100
AcDbVisualStyle
  2
3D Hidden
 70
     6
 71
     1
 72
     2
 73
     2
 90
        0
 40
-0.6
 41
-30.0
 62
     5
 63
     7
 74
     2
 91
        2
 64
     7
 65
   257
 75
     2
175
     1
 42
40.0
 92
        0
 66
   257
 43
1.0
 76
     1
 77
     6
 78
     2
 67
     7
 79
     3
170
     0
171
     0
290
     0
174
     0
 93
        1
 44
0.0
173
     0
291
     0
 45
0.0
1001
ACAD
1000
AcDbSavedByObjectVersion
1070
     0
  0
VISUALSTYLE
  5
5D
102
{ACAD_REACTORS
330
15
102
}
330
15
100
AcDbVisualStyle
  2
3dWireframe
 70
     5
 71
     0
 72
     2
 73
     0
 90
        0
 40
-0.6
 41
-30.0
 62
     5
 63
     7
 74
     1
 91
        4
 64
     7
 65
   257
 75
     1
175
     1
 42
1.0
 92
        0
 66
   257
 43
1.0
 76
     1
 77
     6
 78
     2
 67
     7
 79
     5
170
     0
171
     0
290
     0
174
     0
 93
        1
 44
0.0
173
     0
291
     0
 45
0.0
1001
ACAD
1000
AcDbSavedByObjectVersion
1070
     0
  0
VISUALSTYLE
  5
79F
102
{ACAD_REACTORS
330
15
102
}
330
15
100
AcDbVisualStyle
  2
Basic
 70
     7
 71
     1
 72
     0
 73
     1
 90
        0
 40
-0.6
 41
-30.0
 62
     5
 63
     7
 74
     0
 91
        4
 64
     7
 65
   257
 75
     1
175
     1
 42
1.0
 92
        8
 66
     7
 43
1.0
 76
     1
 77
     6
 78
     2
 67
     7
 79
     5
170
     0
171
     0
290
     0
174
     0
 93
        1
 44
0.0
173
     0
291
     1
 45
0.0
1001
ACAD
1000
AcDbSavedByObjectVersion
1070
     0
  0
VISUALSTYLE
  5
7A3
102
{ACAD_REACTORS
330
15
102
}
330
15
100
AcDbVisualStyle
  2
Brighten
 70
    12
 71
     2
 72
     2
 73
     0
 90
        0
 40
-0.6
 41
-30.0
 62
     5
 63
     7
 74
     1
 91
        4
 64
     7
 65
   257
 75
     1
175
     1
 42
1.0
 92
        8
 66
     7
 43
1.0
 76
     1
 77
     6
 78
     2
 67
     7
 79
     5
170
     0
171
     0
290
     0
174
     0
 93
        1
 44
50.0
173
     0
291
     1
 45
0.0
1001
ACAD
1000
AcDbSavedByObjectVersion
1070
     0
  0
VISUALSTYLE
  5
7A7
102
{ACAD_REACTORS
330
15
102
}
330
15
100
AcDbVisualStyle
  2
ColorChange
 70
    16
 71
     2
 72
     2
 73
     3
 90
        0
 40
-0.6
 41
-30.0
 62
     5
 63
     8
 74
     1
 91
        4
 64
     7
 65
   257
 75
     1
175
     1
 42
1.0
 92
        8
 66
     8
 43
1.0
 76
     1
 77
     6
 78
     2
 67
     7
 79
     5
170
     0
171
     0
290
     0
174
     0
 93
        1
 44
0.0
173
     0
291
     1
 45
0.0
1001
ACAD
1000
AcDbSavedByObjectVersion
1070
     0
  0
VISUALSTYLE
  5
7A1
102
{ACAD_REACTORS
330
15
102
}
330
15
100
AcDbVisualStyle
  2
Conceptual
 70
     9
 71
     3
 72
     2
 73
     0
 90
        0
 40
-0.6
 41
-30.0
 62
     5
 63
     7
 74
     2
 91
        2
 64
     7
 65
   257
 75
     1
175
     1
 42
40.0
 92
        8
 66
     7
 43
1.0
 76
     1
 77
     6
 78
     2
 67
     7
 79
     3
170
     0
171
     0
290
     0
174
     0
 93
        1
 44
0.0
173
     0
291
     0
 45
0.0
1001
ACAD
1000
AcDbSavedByObjectVersion
1070
     0
  0
VISUALSTYLE
  5
7A2
102
{ACAD_REACTORS
330
15
102
}
330
15
100
AcDbVisualStyle
  2
Dim
 70
    11
 71
     2
 72
     2
 73
     0
 90
        0
 40
-0.6
 41
-30.0
 62
     5
 63
     7
 74
     1
 91
        4
 64
     7
 65
   257
 75
     1
175
     1
 42
1.0
 92
        8
 66
     7
 43
1.0
 76
     1
 77
     6
 78
     2
 67
     7
 79
     5
170
     0
171
     0
290
     0
174
     0
 93
        1
 44
-50.0
173
     0
291
     1
 45
0.0
1001
ACAD
1000
AcDbSavedByObjectVersion
1070
     0
  0
VISUALSTYLE
  5
7A6
102
{ACAD_REACTORS
330
15
102
}
330
15
100
AcDbVisualStyle
  2
Facepattern
 70
    15
 71
     2
 72
     2
 73
     0
 90
        0
 40
-0.6
 41
-30.0
 62
     5
 63
     7
 74
     1
 91
        4
 64
     7
 65
   257
 75
     1
175
     1
 42
1.0
 92
        8
 66
     7
 43
1.0
 76
     1
 77
     6
 78
     2
 67
     7
 79
     5
170
     0
171
     0
290
     0
174
     0
 93
        1
 44
0.0
173
     0
291
     1
 45
0.0
1001
ACAD
1000
AcDbSavedByObjectVersion
1070
     0
  0
VISUALSTYLE
  5
79B
102
{ACAD_REACTORS
330
15
102
}
330
15
100
AcDbVisualStyle
  2
Flat
 70
     0
 71
     2
 72
     1
 73
     1
 90
        2
 40
-0.6
 41
30.0
 62
     5
 63
     7
 74
     0
 91
        4
 64
     7
 65
   257
 75
     1
175
     1
 42
1.0
 92
        8
 66
     7
 43
1.0
 76
     1
 77
     6
 78
     2
 67
     7
 79
     5
170
     0
171
     0
290
     0
174
     0
 93
       13
 44
0.0
173
     0
291
     0
 45
0.0
1001
ACAD
1000
AcDbSavedByObjectVersion
1070
     0
  0
VISUALSTYLE
  5
79C
102
{ACAD_REACTORS
330
15
102
}
330
15
100
AcDbVisualStyle
  2
FlatWithEdges
 70
     1
 71
     2
 72
     1
 73
     1
 90
        2
 40
-0.6
 41
30.0
 62
     5
 63
     7
 74
     1
 91
        4
 64
     7
 65
   257
 75
     1
175
     1
 42
1.0
 92
        0
 66
   257
 43
1.0
 76
     1
 77
     6
 78
     2
 67
     7
 79
     5
170
     0
171
     0
290
     0
174
     0
 93
       13
 44
0.0
173
     0
291
     0
 45
0.0
1001
ACAD
1000
AcDbSavedByObjectVersion
1070
     0
  0
VISUALSTYLE
  5
79D
102
{ACAD_REACTORS
330
15
102
}
330
15
100
AcDbVisualStyle
  2
Gouraud
 70
     2
 71
     2
 72
     2
 73
     1
 90
        2
 40
-0.6
 41
30.0
 62
     5
 63
     7
 74
     0
 91
        4
 64
     7
 65
   257
 75
     1
175
     1
 42
1.0
 92
        0
 66
     7
 43
1.0
 76
     1
 77
     6
 78
     2
 67
     7
 79
     5
170
     0
171
     0
290
     0
174
     0
 93
       13
 44
0.0
173
     0
291
     0
 45
0.0
1001
ACAD
1000
AcDbSavedByObjectVersion
1070
     0
  0
VISUALSTYLE
  5
79E
102
{ACAD_REACTORS
330
15
102
}
330
15
100
AcDbVisualStyle
  2
GouraudWithEdges
 70
     3
 71
     2
 72
     2
 73
     1
 90
        2
 40
-0.6
 41
30.0
 62
     5
 63
     7
 74
     1
 91
        4
 64
     7
 65
   257
 75
     1
175
     1
 42
1.0
 92
        0
 66
   257
 43
1.0
 76
     1
 77
     6
 78
     2
 67
     7
 79
     5
170
     0
171
     0
290
     0
174
     0
 93
       13
 44
0.0
173
     0
291
     0
 45
0.0
1001
ACAD
1000
AcDbSavedByObjectVersion
1070
     0
  0
VISUALSTYLE
  5
7A5
102
{ACAD_REACTORS
330
15
102
}
330
15
100
AcDbVisualStyle
  2
Linepattern
 70
    14
 71
     2
 72
     2
 73
     0
 90
        0
 40
-0.6
 41
-30.0
 62
     5
 63
     7
 74
     1
 91
        4
 64
     7
 65
   257
 75
     7
175
     7
 42
1.0
 92
        8
 66
     7
 43
1.0
 76
     1
 77
     6
 78
     2
 67
     7
 79
     5
170
     0
171
     0
290
     0
174
     0
 93
        1
 44
0.0
173
     0
291
     1
 45
0.0
1001
ACAD
1000
AcDbSavedByObjectVersion
1070
     0
  0
VISUALSTYLE
  5
7B1
102
{ACAD_REACTORS
330
15
102
}
330
15
100
AcDbVisualStyle
  2

 70
     8
 71
     2
 72
     2
 73
     0
 90
        0
 40
-0.6
 41
-30.0
 62
     5
 63
     7
 74
     0
 91
        0
 64
     7
 65
   257
 75
     1
175
     1
 42
1.0
 92
        8
 66
     8
 43
1.0
 76
     1
 77
     6
 78
     2
 67
     7
 79
     5
170
     0
171
     0
290
     0
174
     0
 93
       13
 44
0.0
173
     0
291
     0
 45
0.0
1001
ACAD
1000
AcDbSavedByObjectVersion
1070
     0
  0
VISUALSTYLE
  5
7B2
102
{ACAD_REACTORS
330
15
102
}
330
15
100
AcDbVisualStyle
  2

 70
     8
 71
     2
 72
     2
 73
     0
 90
        0
 40
-0.6
 41
-30.0
 62
     5
 63
     7
 74
     1
 91
        0
 64
     7
 65
   257
 75
     1
175
     1
 42
1.0
 92
        8
 66
     8
 43
1.0
 76
     1
 77
     6
 78
     2
 67
     7
 79
     5
170
     0
171
     0
290
     0
174
     0
 93
       13
 44
0.0
173
     0
291
     0
 45
0.0
1001
ACAD
1000
AcDbSavedByObjectVersion
1070
     0
  0
VISUALSTYLE
  5
5C
102
{ACAD_REACTORS
330
15
102
}
330
15
100
AcDbVisualStyle
  2
Realistic
 70
     8
 71
     2
 72
     2
 73
     0
 90
        0
 40
-0.6
 41
-30.0
 62
     5
 63
     7
 74
     1
 91
        0
 64
     7
 65
   257
 75
     1
175
     1
 42
1.0
 92
        8
 66
     8
 43
1.0
 76
     1
 77
     6
 78
     2
 67
     7
 79
     5
170
     0
171
     0
290
     0
174
     0
 93
       13
 44
0.0
173
     0
291
     0
 45
0.0
1001
ACAD
1000
AcDbSavedByObjectVersion
1070
     0
  0
VISUALSTYLE
  5
7A4
102
{ACAD_REACTORS
330
15
102
}
330
15
100
AcDbVisualStyle
  2
Thicken
 70
    13
 71
     2
 72
     2
 73
     0
 90
        0
 40
-0.6
 41
-30.0
 62
     5
 63
     7
 74
     1
 91
        4
 64
     7
 65
   257
 75
     1
175
     1
 42
1.0
 92
       12
 66
     7
 43
1.0
 76
     1
 77
     6
 78
     2
 67
     7
 79
     5
170
     0
171
     0
290
     0
174
     0
 93
        1
 44
0.0
173
     0
291
     1
 45
0.0
1001
ACAD
1000
AcDbSavedByObjectVersion
1070
     0
  0
DICTIONARYVAR
  5
798
102
{ACAD_REACTORS
330
795
102
}
330
795
100
DictionaryVariables
280
     0
  1
1:1
  0
DICTIONARYVAR
  5
797
102
{ACAD_REACTORS
330
795
102
}
330
795
100
DictionaryVariables
280
     0
  1
STANDARD
  0
DICTIONARYVAR
  5
796
102
{ACAD_REACTORS
330
795
102
}
330
795
100
DictionaryVariables
280
     0
  1
STANDARD
  0
DICTIONARYVAR
  5
3BA8
102
{ACAD_REACTORS
330
795
102
}
330
795
100
DictionaryVariables
280
     0
  1
1
  0
DICTIONARYVAR
  5
3BA7
102
{ACAD_REACTORS
330
795
102
}
330
795
100
DictionaryVariables
280
     0
  1
1
  0
DICTIONARYVAR
  5
3BA6
102
{ACAD_REACTORS
330
795
102
}
330
795
100
DictionaryVariables
280
     0
  1
0
  0
DICTIONARYVAR
  5
799
102
{ACAD_REACTORS
330
795
102
}
330
795
100
DictionaryVariables
280
     0
  1
0
  0
DICTIONARYVAR
  5
3BA4
102
{ACAD_REACTORS
330
795
102
}
330
795
100
DictionaryVariables
280
     0
  1
1
  0
DICTIONARYVAR
  5
3BA5
102
{ACAD_REACTORS
330
795
102
}
330
795
100
DictionaryVariables
280
     0
  1
127
  0
DICTIONARY
  5
3BB4
330
1943
100
AcDbDictionary
280
     1
281
     1
  3
ACAD_XREC_ROUNDTRIP
360
3BB5
  0
DICTIONARY
  5
3BAD
330
11
100
AcDbDictionary
280
     1
281
     1
  3
ACAD_XREC_ROUNDTRIP
360
3BAE
  0
DICTIONARY
  5
3BB1
330
52
100
AcDbDictionary
280
     1
281
     1
  3
ACAD_XREC_ROUNDTRIP
360
3BB2
  0
DICTIONARY
  5
3BAF
330
51
100
AcDbDictionary
280
     1
281
     1
  3
ACAD_XREC_ROUNDTRIP
360
3BB0
  0
DICTIONARY
  5
2552
330
2551
100
AcDbDictionary
280
     1
281
     1
  3
ACAD_XREC_ROUNDTRIP
360
3BB9
  3
VIZ XML Material Definition
360
2553
  0
DICTIONARY
  5
3BAB
330
C
100
AcDbDictionary
280
     1
281
     1
  3
ACAD_XREC_ROUNDTRIP
360
3BAC
  0
DICTIONARY
  5
5B
330
5A
100
AcDbDictionary
280
     1
281
     1
  3
ACAD_ROUNDTRIP_2008_TABLESTYLE_CELLSTYLEMAP
360
3BA9
  3
ACAD_XREC_ROUNDTRIP
360
3BB3
  0
XRECORD
  5
3BB5
102
{ACAD_REACTORS
330
3BB4
102
}
330
3BB4
100
AcDbXrecord
280
     1
102
SHADEPLOT
 70
     0
102
SHADEPLOTRESLEVEL
 70
     2
102
SHADEPLOTCUSTOMDPI
 70
   300
  0
XRECORD
  5
3BAE
102
{ACAD_REACTORS
330
3BAD
102
}
330
3BAD
100
AcDbXrecord
280
     1
102
SHADEPLOT
 70
     1
102
SHADEPLOTRESLEVEL
 70
     2
102
SHADEPLOTCUSTOMDPI
 70
   300
  0
XRECORD
  5
3BB2
102
{ACAD_REACTORS
330
3BB1
102
}
330
3BB1
100
AcDbXrecord
280
     1
102
MATERIAL
148
0.0
149
0.0
149
0.0
 93
        0
 94
       63
282
     0
 72
     1
 77
     1
171
     1
175
     1
179
     1
273
     0
  0
XRECORD
  5
3BB0
102
{ACAD_REACTORS
330
3BAF
102
}
330
3BAF
100
AcDbXrecord
280
     1
102
MATERIAL
148
0.0
149
0.0
149
0.0
 93
        0
 94
       63
282
     0
 72
     1
 77
     1
171
     1
175
     1
179
     1
273
     0
  0
XRECORD
  5
3BB9
102
{ACAD_REACTORS
330
2552
102
}
330
2552
100
AcDbXrecord
280
     1
102
MATERIAL
148
0.0
149
0.0
149
0.0
 93
        0
 94
       63
282
     0
 72
     1
 77
     1
171
     1
175
     1
179
     1
273
     1
  0
XRECORD
  5
2553
102
{ACAD_REACTORS
330
2552
102
}
330
2552
100
AcDbXrecord
280
     1
300
<Material id="{99120C30-EB7F-4CE3-A8EC-E4A5AC8B9576}" app="3DSVIZ">^M^J^I<LinearUnits unitType="m" unitScale="1.0"/>^M^J^I<ArchitecturalMaterial name="General.Chip">^M^J^I^I<ArchTemplateParameters name="Paper" classid_A="1901925249" classid_B="1933333956">^M^J^I^I^I<Arc
300
hShaderType type="Phong"/>^M^J^I^I^I<ArchReflectivity>^M^J^I^I^I^I<RGBf r="0.65" g="0.65" b="0.65"/>^M^J^I^I^I</ArchReflectivity>^M^J^I^I^I<ArchMinReflectivity>0.3</ArchMinReflectivity>^M^J^I^I^I<ArchMaxReflectivity>0.7</ArchMaxReflectivity>^M^J^I^I^I<ArchShininess>0.0</ArchShininess>^M
300
^J^I^I^I<ArchMinShininess>0.0</ArchMinShininess>^M^J^I^I^I<ArchMaxShinness>1.0</ArchMaxShinness>^M^J^I^I^I<ArchTransparency>0.0</ArchTransparency>^M^J^I^I^I<ArchMinTransparency>0.0</ArchMinTransparency>^M^J^I^I^I<ArchMaxTransparency>0.0</ArchMaxTransparency>^M^J^I^I^I<ArchIndexOfRefr
300
action>1.0</ArchIndexOfRefraction>^M^J^I^I^I<ArchMinIndexOfRefraction>1.0</ArchMinIndexOfRefraction>^M^J^I^I^I<ArchMaxIndexOfRefraction>1.0</ArchMaxIndexOfRefraction>^M^J^I^I^I<ArchSetParameters>1</ArchSetParameters>^M^J^I^I</ArchTemplateParameters>^M^J^I^I<ArchMatParameters>^M^J
300
^I^I^I<ArchDiffuseColor>^M^J^I^I^I^I<RGBf r="0.647059" g="0.639216" b="0.6"/>^M^J^I^I^I</ArchDiffuseColor>^M^J^I^I^I<ArchIndexOfRefraction>1.0</ArchIndexOfRefraction>^M^J^I^I^I<ArchTwoSided>0</ArchTwoSided>^M^J^I^I^I<ArchEmitLuminance>0</ArchEmitLuminance>^M^J^I^I^I<ArchColorBleedScale>1.
300
0</ArchColorBleedScale>^M^J^I^I^I<ArchReflectanceScale>1.0</ArchReflectanceScale>^M^J^I^I^I<ArchIndirectBumpAmount>1.0</ArchIndirectBumpAmount>^M^J^I^I^I<ArchTransmittanceScale>1.0</ArchTransmittanceScale>^M^J^I^I^I<ArchUseTextureSize>1</ArchUseTextureSize>^M^J^I^I^I<ArchTextureW
300
idth>40.0</ArchTextureWidth>^M^J^I^I^I<ArchTextureHeight>40.0</ArchTextureHeight>^M^J^I^I^I<ArchTextureUOffset>0.0</ArchTextureUOffset>^M^J^I^I^I<ArchTextureVOffset>0.0</ArchTextureVOffset>^M^J^I^I^I<ArchDiffuseAmount>1.0</ArchDiffuseAmount>^M^J^I^I^I<ArchShininess>0.0</ArchShini
300
ness>^M^J^I^I^I<ArchTransparency>0.0</ArchTransparency>^M^J^I^I^I<ArchLuminance>0.0</ArchLuminance>^M^J^I^I^I<ArchBumpMapAmount>0.15</ArchBumpMapAmount>^M^J^I^I^I<ArchCutoutMapAmount>1.0</ArchCutoutMapAmount>^M^J^I^I^I<ArchDisplayMapInViewport>0</ArchDisplayMapInViewport>^M^J^I^I</Ar
300
chMatParameters>^M^J^I^I<MapSet>^M^J^I^I^I<MapLib>^M^J^I^I^I^I<TextureMap name="Map #8" id="{EBBA9041-9C68-43B4-A7A8-66E4230A8BCD}">^M^J^I^I^I^I^I<DisplayMapInViewport>0</DisplayMapInViewport>^M^J^I^I^I^I^I<BitmapMap>^M^J^I^I^I^I^I^I<TexMapCoords2d>^M^J^I^I^I^I^I^I^I<TextureCoords>^M^J^I^I^I^I^I^I^I^I<Explicit
300
MapChannel CoordPlane="uv">^M^J^I^I^I^I^I^I^I^I^I<MapChannel>1</MapChannel>^M^J^I^I^I^I^I^I^I^I^I<UCoords>^M^J^I^I^I^I^I^I^I^I^I^I<OffsetCoord>19.5</OffsetCoord>^M^J^I^I^I^I^I^I^I^I^I^I<TilingCoord>0.025</TilingCoord>^M^J^I^I^I^I^I^I^I^I^I^I<TextureTiling Tiling="tile"/>^M^J^I^I^I^I^I^I^I^I^I</UCoords>^M^J^I^I^I^I^I^I^I^I^I<VCoords>^M
300
^J^I^I^I^I^I^I^I^I^I^I<OffsetCoord>19.5</OffsetCoord>^M^J^I^I^I^I^I^I^I^I^I^I<TilingCoord>0.025</TilingCoord>^M^J^I^I^I^I^I^I^I^I^I^I<TextureTiling Tiling="tile"/>^M^J^I^I^I^I^I^I^I^I^I</VCoords>^M^J^I^I^I^I^I^I^I^I^I<Angles>^M^J^I^I^I^I^I^I^I^I^I^I<UAngle>0.0</UAngle>^M^J^I^I^I^I^I^I^I^I^I^I<VAngle>0.0</VAngle>^M^J^I^I^I^I^I^I^I^I^I^I<WAngle>0.0
300
</WAngle>^M^J^I^I^I^I^I^I^I^I^I</Angles>^M^J^I^I^I^I^I^I^I^I^I<Blur>1.0</Blur>^M^J^I^I^I^I^I^I^I^I^I<BlurOffset>0.0</BlurOffset>^M^J^I^I^I^I^I^I^I^I</ExplicitMapChannel>^M^J^I^I^I^I^I^I^I</TextureCoords>^M^J^I^I^I^I^I^I</TexMapCoords2d>^M^J^I^I^I^I^I^I<TexMapNoise>^M^J^I^I^I^I^I^I^I<NoiseAmount>1.0</NoiseAmount>^M^J^I^I^I^I^I^I^I<NoiseLeve
300
ls>1</NoiseLevels>^M^J^I^I^I^I^I^I^I<NoiseSize>1.0</NoiseSize>^M^J^I^I^I^I^I^I^I<NoisePhase>0.0</NoisePhase>^M^J^I^I^I^I^I^I</TexMapNoise>^M^J^I^I^I^I^I^I<BitmapParameters>^M^J^I^I^I^I^I^I^I<BitmapFile filename="MEDRUST2.JPG"/>^M^J^I^I^I^I^I^I^I<Cropping on="0" CropType="crop">^M^J^I^I^I^I^I^I^I^I<UCrop>0.0</UCrop>^M
300
^J^I^I^I^I^I^I^I^I<VCrop>0.0</VCrop>^M^J^I^I^I^I^I^I^I^I<WCrop>1.0</WCrop>^M^J^I^I^I^I^I^I^I^I<HCrop>1.0</HCrop>^M^J^I^I^I^I^I^I^I^I<JitterPlacement on="0">1.0</JitterPlacement>^M^J^I^I^I^I^I^I^I</Cropping>^M^J^I^I^I^I^I^I^I<Filtering Type="pyramidal"/>^M^J^I^I^I^I^I^I^I<MonoChannelOutput Output="rgbIntensity"/>^M^J^I^I^I^I^I^I
300
^I<RGBChannelOutput Output="alphaAsGray"/>^M^J^I^I^I^I^I^I^I<AlphaSource Source="none"/>^M^J^I^I^I^I^I^I^I<PremultipliedAlpha>1</PremultipliedAlpha>^M^J^I^I^I^I^I^I</BitmapParameters>^M^J^I^I^I^I^I^I<TexMapOutput>^M^J^I^I^I^I^I^I^I<Invert>0</Invert>^M^J^I^I^I^I^I^I^I<Clamp>0</Clamp>^M^J^I^I^I^I^I^I^I<AlphaFromRGBInt
300
ensity>0</AlphaFromRGBIntensity>^M^J^I^I^I^I^I^I^I<OutputAmount>1.0</OutputAmount>^M^J^I^I^I^I^I^I^I<RGBOffset>0.0</RGBOffset>^M^J^I^I^I^I^I^I^I<RGBLevel>1.0</RGBLevel>^M^J^I^I^I^I^I^I^I<BumpAmount>1.0</BumpAmount>^M^J^I^I^I^I^I^I</TexMapOutput>^M^J^I^I^I^I^I</BitmapMap>^M^J^I^I^I^I</TextureMap>^M^J^I^I^I</MapLib>^M^J
300
^I^I^I<Map on="1" TexMapChannelNum="8" TexMapChannel="Bump Map" Amount="15" TexMapRef="{EBBA9041-9C68-43B4-A7A8-66E4230A8BCD}"/>^M^J^I^I</MapSet>^M^J^I</ArchitecturalMaterial>^M^J</Material>
  0
XRECORD
  5
3BAC
102
{ACAD_REACTORS
330
3BAB
102
}
330
3BAB
100
AcDbXrecord
280
     1
102
MATERIAL
148
0.0
149
0.0
149
0.0
 93
        0
 94
       63
282
     0
 72
     1
 77
     1
171
     1
175
     1
179
     1
273
     0
  0
CELLSTYLEMAP
  5
3BA9
102
{ACAD_REACTORS
330
5B
102
}
330
5B
100
AcDbCellStyleMap
 90
        3
300
CELLSTYLE
  1
TABLEFORMAT_BEGIN
 90
        5
170
     1
 91
        0
 92
    32768
 62
   257
 93
        1
300
CONTENTFORMAT
  1
CONTENTFORMAT_BEGIN
 90
        0
 91
        0
 92
        4
 93
        0
300

 40
0.0
140
1.0
 94
        5
 62
     0
340
21
144
0.25
309
CONTENTFORMAT_END
171
     0
 94
        6
 95
        1
302
GRIDFORMAT
  1
GRIDFORMAT_BEGIN
 90
        0
 91
        1
 62
     0
 92
       -2
340
0
 93
        0
 40
0.045
309
GRIDFORMAT_END
 95
        2
302
GRIDFORMAT
  1
GRIDFORMAT_BEGIN
 90
        0
 91
        1
 62
     0
 92
       -2
340
0
 93
        0
 40
0.045
309
GRIDFORMAT_END
 95
        4
302
GRIDFORMAT
  1
GRIDFORMAT_BEGIN
 90
        0
 91
        1
 62
     0
 92
       -2
340
0
 93
        0
 40
0.045
309
GRIDFORMAT_END
 95
        8
302
GRIDFORMAT
  1
GRIDFORMAT_BEGIN
 90
        0
 91
        1
 62
     0
 92
       -2
340
0
 93
        0
 40
0.045
309
GRIDFORMAT_END
 95
       16
302
GRIDFORMAT
  1
GRIDFORMAT_BEGIN
 90
        0
 91
        1
 62
     0
 92
       -2
340
0
 93
        0
 40
0.045
309
GRIDFORMAT_END
 95
       32
302
GRIDFORMAT
  1
GRIDFORMAT_BEGIN
 90
        0
 91
        1
 62
     0
 92
       -2
340
0
 93
        0
 40
0.045
309
GRIDFORMAT_END
309
TABLEFORMAT_END
  1
CELLSTYLE_BEGIN
 90
        1
 91
        1
300
_TITLE
309
CELLSTYLE_END
300
CELLSTYLE
  1
TABLEFORMAT_BEGIN
 90
        5
170
     1
 91
        0
 92
        0
 62
   257
 93
        1
300
CONTENTFORMAT
  1
CONTENTFORMAT_BEGIN
 90
        0
 91
        0
 92
        4
 93
        0
300

 40
0.0
140
1.0
 94
        5
 62
     0
340
21
144
0.18
309
CONTENTFORMAT_END
171
     0
 94
        6
 95
        1
302
GRIDFORMAT
  1
GRIDFORMAT_BEGIN
 90
        0
 91
        1
 62
     0
 92
       -2
340
0
 93
        0
 40
0.045
309
GRIDFORMAT_END
 95
        2
302
GRIDFORMAT
  1
GRIDFORMAT_BEGIN
 90
        0
 91
        1
 62
     0
 92
       -2
340
0
 93
        0
 40
0.045
309
GRIDFORMAT_END
 95
        4
302
GRIDFORMAT
  1
GRIDFORMAT_BEGIN
 90
        0
 91
        1
 62
     0
 92
       -2
340
0
 93
        0
 40
0.045
309
GRIDFORMAT_END
 95
        8
302
GRIDFORMAT
  1
GRIDFORMAT_BEGIN
 90
        0
 91
        1
 62
     0
 92
       -2
340
0
 93
        0
 40
0.045
309
GRIDFORMAT_END
 95
       16
302
GRIDFORMAT
  1
GRIDFORMAT_BEGIN
 90
        0
 91
        1
 62
     0
 92
       -2
340
0
 93
        0
 40
0.045
309
GRIDFORMAT_END
 95
       32
302
GRIDFORMAT
  1
GRIDFORMAT_BEGIN
 90
        0
 91
        1
 62
     0
 92
       -2
340
0
 93
        0
 40
0.045
309
GRIDFORMAT_END
309
TABLEFORMAT_END
  1
CELLSTYLE_BEGIN
 90
        2
 91
        1
300
_HEADER
309
CELLSTYLE_END
300
CELLSTYLE
  1
TABLEFORMAT_BEGIN
 90
        5
170
     1
 91
        0
 92
        0
 62
   257
 93
        1
300
CONTENTFORMAT
  1
CONTENTFORMAT_BEGIN
 90
        0
 91
        0
 92
        4
 93
        0
300

 40
0.0
140
1.0
 94
        2
 62
     0
340
21
144
0.18
309
CONTENTFORMAT_END
171
     0
 94
        6
 95
        1
302
GRIDFORMAT
  1
GRIDFORMAT_BEGIN
 90
        0
 91
        1
 62
     0
 92
       -2
340
0
 93
        0
 40
0.045
309
GRIDFORMAT_END
 95
        2
302
GRIDFORMAT
  1
GRIDFORMAT_BEGIN
 90
        0
 91
        1
 62
     0
 92
       -2
340
0
 93
        0
 40
0.045
309
GRIDFORMAT_END
 95
        4
302
GRIDFORMAT
  1
GRIDFORMAT_BEGIN
 90
        0
 91
        1
 62
     0
 92
       -2
340
0
 93
        0
 40
0.045
309
GRIDFORMAT_END
 95
        8
302
GRIDFORMAT
  1
GRIDFORMAT_BEGIN
 90
        0
 91
        1
 62
     0
 92
       -2
340
0
 93
        0
 40
0.045
309
GRIDFORMAT_END
 95
       16
302
GRIDFORMAT
  1
GRIDFORMAT_BEGIN
 90
        0
 91
        1
 62
     0
 92
       -2
340
0
 93
        0
 40
0.045
309
GRIDFORMAT_END
 95
       32
302
GRIDFORMAT
  1
GRIDFORMAT_BEGIN
 90
        0
 91
        1
 62
     0
 92
       -2
340
0
 93
        0
 40
0.045
309
GRIDFORMAT_END
309
TABLEFORMAT_END
  1
CELLSTYLE_BEGIN
 90
        3
 91
        2
300
_DATA
309
CELLSTYLE_END
  0
XRECORD
  5
3BB3
102
{ACAD_REACTORS
330
5B
102
}
330
5B
100
AcDbXrecord
280
     1
102
ACAD_ROUNDTRIP_PRE2007_TABLESTYLE
 90
        4
 91
        0
  1

 92
        4
 93
        0
  2

 94
        4
 95
        0
  3

  0
ENDSEC
  0
EOF
