  0
SECTION
  2
HEADER
  9
$ACADVER
  1
AC1015
  9
$ACADMAINTVER
 70
    20
  9
$DWGCODEPAGE
  3
ANSI_1250
  9
$INSBASE
 10
215187.233673673
 20
127657.5168525552
 30
0.0
  9
$EXTMIN
 10
215179.8459445826
 20
127651.5804863085
 30
-0.0014342167431352
  9
$EXTMAX
 10
225394.0788508593
 20
141681.8396902825
 30
47.00143443560395
  9
$LIMMIN
 10
0.0
 20
0.0
  9
$LIMMAX
 10
420.0
 20
297.0
  9
$ORTHOMODE
 70
     0
  9
$REGENMODE
 70
     1
  9
$FILLMODE
 70
     1
  9
$QTEXTMODE
 70
     0
  9
$MIRRTEXT
 70
     0
  9
$LTSCALE
 40
75.0
  9
$ATTMODE
 70
     1
  9
$TEXTSIZE
 40
20.0
  9
$TRACEWID
 40
1.0
  9
$TEXTSTYLE
  7
ROMANS
  9
$CLAYER
  8
NAPISY
  9
$CELTYPE
  6
ByLayer
  9
$CECOLOR
 62
   256
  9
$CELTSCALE
 40
1.0
  9
$DISPSILH
 70
     0
  9
$DIMSCALE
 40
1.0
  9
$DIMASZ
 40
30.0
  9
$DIMEXO
 40
43.0
  9
$DIMDLI
 40
0.0
  9
$DIMRND
 40
0.5
  9
$DIMDLE
 40
12.0
  9
$DIMEXE
 40
13.0
  9
$DIMTP
 40
0.0
  9
$DIMTM
 40
0.0
  9
$DIMTXT
 40
80.0
  9
$DIMCEN
 40
0.0
  9
$DIMTSZ
 40
0.0
  9
$DIMTOL
 70
     0
  9
$DIMLIM
 70
     0
  9
$DIMTIH
 70
     0
  9
$DIMTOH
 70
     0
  9
$DIMSE1
 70
     1
  9
$DIMSE2
 70
     1
  9
$DIMTAD
 70
     0
  9
$DIMZIN
 70
    12
  9
$DIMBLK
  1
B-DIM
  9
$DIMASO
 70
     1
  9
$DIMSHO
 70
     1
  9
$DIMPOST
  1

  9
$DIMAPOST
  1

  9
$DIMALT
 70
     0
  9
$DIMALTD
 70
     2
  9
$DIMALTF
 40
25.4
  9
$DIMLFAC
 40
1.0
  9
$DIMTOFL
 70
     1
  9
$DIMTVP
 40
1.0
  9
$DIMTIX
 70
     1
  9
$DIMSOXD
 70
     0
  9
$DIMSAH
 70
     0
  9
$DIMBLK1
  1

  9
$DIMBLK2
  1

  9
$DIMSTYLE
  2
500
  9
$DIMCLRD
 70
     1
  9
$DIMCLRE
 70
     1
  9
$DIMCLRT
 70
    10
  9
$DIMTFAC
 40
1.0
  9
$DIMGAP
 40
0.0
  9
$DIMJUST
 70
     0
  9
$DIMSD1
 70
     0
  9
$DIMSD2
 70
     0
  9
$DIMTOLJ
 70
     1
  9
$DIMTZIN
 70
     0
  9
$DIMALTZ
 70
     0
  9
$DIMALTTZ
 70
     0
  9
$DIMUPT
 70
     0
  9
$DIMDEC
 70
     1
  9
$DIMTDEC
 70
     1
  9
$DIMALTU
 70
     2
  9
$DIMALTTD
 70
     2
  9
$DIMTXSTY
  7
ROMANS
  9
$DIMAUNIT
 70
     0
  9
$DIMADEC
 70
     0
  9
$DIMALTRND
 40
0.0
  9
$DIMAZIN
 70
     0
  9
$DIMDSEP
 70
    46
  9
$DIMATFIT
 70
     3
  9
$DIMFRAC
 70
     0
  9
$DIMLDRBLK
  1
B-DIM
  9
$DIMLUNIT
 70
     2
  9
$DIMLWD
 70
    -2
  9
$DIMLWE
 70
    -2
  9
$DIMTMOVE
 70
     2
  9
$LUNITS
 70
     2
  9
$LUPREC
 70
     1
  9
$SKETCHINC
 40
1.0
  9
$FILLETRAD
 40
0.0
  9
$AUNITS
 70
     0
  9
$AUPREC
 70
     0
  9
$MENU
  1
.
  9
$ELEVATION
 40
0.0
  9
$PELEVATION
 40
0.0
  9
$THICKNESS
 40
0.0
  9
$LIMCHECK
 70
     0
  9
$CHAMFERA
 40
0.0
  9
$CHAMFERB
 40
0.0
  9
$CHAMFERC
 40
20.0
  9
$CHAMFERD
 40
0.0
  9
$SKPOLY
 70
     0
  9
$TDCREATE
 40
2452027.670547454
  9
$TDUCREATE
 40
2452027.587214121
  9
$TDUPDATE
 40
2455307.505989213
  9
$TDUUPDATE
 40
2455307.422655880
  9
$TDINDWG
 40
8.9115758565
  9
$TDUSRTIMER
 40
8.9115758565
  9
$USRTIMER
 70
     1
  9
$ANGBASE
 50
0.0
  9
$ANGDIR
 70
     0
  9
$PDMODE
 70
     0
  9
$PDSIZE
 40
0.0
  9
$PLINEWID
 40
0.0
  9
$SPLFRAME
 70
     0
  9
$SPLINETYPE
 70
     6
  9
$SPLINESEGS
 70
     8
  9
$HANDSEED
  5
1450D
  9
$SURFTAB1
 70
     6
  9
$SURFTAB2
 70
     6
  9
$SURFTYPE
 70
     6
  9
$SURFU
 70
     6
  9
$SURFV
 70
     6
  9
$UCSBASE
  2

  9
$UCSNAME
  2

  9
$UCSORG
 10
0.0
 20
0.0
 30
0.0
  9
$UCSXDIR
 10
1.0
 20
0.0
 30
0.0
  9
$UCSYDIR
 10
0.0
 20
1.0
 30
0.0
  9
$UCSORTHOREF
  2

  9
$UCSORTHOVIEW
 70
     0
  9
$UCSORGTOP
 10
0.0
 20
0.0
 30
0.0
  9
$UCSORGBOTTOM
 10
0.0
 20
0.0
 30
0.0
  9
$UCSORGLEFT
 10
0.0
 20
0.0
 30
0.0
  9
$UCSORGRIGHT
 10
0.0
 20
0.0
 30
0.0
  9
$UCSORGFRONT
 10
0.0
 20
0.0
 30
0.0
  9
$UCSORGBACK
 10
0.0
 20
0.0
 30
0.0
  9
$PUCSBASE
  2

  9
$PUCSNAME
  2

  9
$PUCSORG
 10
0.0
 20
0.0
 30
0.0
  9
$PUCSXDIR
 10
1.0
 20
0.0
 30
0.0
  9
$PUCSYDIR
 10
0.0
 20
1.0
 30
0.0
  9
$PUCSORTHOREF
  2

  9
$PUCSORTHOVIEW
 70
     0
  9
$PUCSORGTOP
 10
0.0
 20
0.0
 30
0.0
  9
$PUCSORGBOTTOM
 10
0.0
 20
0.0
 30
0.0
  9
$PUCSORGLEFT
 10
0.0
 20
0.0
 30
0.0
  9
$PUCSORGRIGHT
 10
0.0
 20
0.0
 30
0.0
  9
$PUCSORGFRONT
 10
0.0
 20
0.0
 30
0.0
  9
$PUCSORGBACK
 10
0.0
 20
0.0
 30
0.0
  9
$USERI1
 70
     0
  9
$USERI2
 70
     0
  9
$USERI3
 70
     0
  9
$USERI4
 70
     0
  9
$USERI5
 70
     0
  9
$USERR1
 40
0.0
  9
$USERR2
 40
0.0
  9
$USERR3
 40
0.0
  9
$USERR4
 40
0.0
  9
$USERR5
 40
0.0
  9
$WORLDVIEW
 70
     1
  9
$SHADEDGE
 70
     3
  9
$SHADEDIF
 70
    70
  9
$TILEMODE
 70
     1
  9
$MAXACTVP
 70
    64
  9
$PINSBASE
 10
0.0
 20
0.0
 30
0.0
  9
$PLIMCHECK
 70
     0
  9
$PEXTMIN
 10
1.000000000000000E+20
 20
1.000000000000000E+20
 30
1.000000000000000E+20
  9
$PEXTMAX
 10
-1.000000000000000E+20
 20
-1.000000000000000E+20
 30
-1.000000000000000E+20
  9
$PLIMMIN
 10
0.0
 20
0.0
  9
$PLIMMAX
 10
420.0
 20
297.0
  9
$UNITMODE
 70
     0
  9
$VISRETAIN
 70
     1
  9
$PLINEGEN
 70
     0
  9
$PSLTSCALE
 70
     1
  9
$TREEDEPTH
 70
  3020
  9
$CMLSTYLE
  2
Standard
  9
$CMLJUST
 70
     0
  9
$CMLSCALE
 40
20.0
  9
$PROXYGRAPHICS
 70
     1
  9
$MEASUREMENT
 70
     0
  9
$CELWEIGHT
370
    -1
  9
$ENDCAPS
280
     0
  9
$JOINSTYLE
280
     0
  9
$LWDISPLAY
290
     1
  9
$INSUNITS
 70
     1
  9
$HYPERLINKBASE
  1

  9
$STYLESHEET
  1
monochrome_140.ctb
  9
$XEDIT
290
     1
  9
$CEPSNTYPE
380
     0
  9
$PSTYLEMODE
290
     1
  9
$FINGERPRINTGUID
  2
{938A2469-3AF5-11D5-BC95-0050BABCE9EC}
  9
$VERSIONGUID
  2
{80579752-D726-416A-83A9-B19B1076714E}
  9
$EXTNAMES
290
     1
  9
$PSVPSCALE
 40
0.0
  9
$OLESTARTUP
290
     0
  0
ENDSEC
  0
SECTION
  2
CLASSES
  0
CLASS
  1
ACDBDICTIONARYWDFLT
  2
AcDbDictionaryWithDefault
  3
ObjectDBX Classes
 90
        0
280
     0
281
     0
  0
CLASS
  1
ACDBPLACEHOLDER
  2
AcDbPlaceHolder
  3
ObjectDBX Classes
 90
        0
280
     0
281
     0
  0
CLASS
  1
LAYOUT
  2
AcDbLayout
  3
ObjectDBX Classes
 90
        0
280
     0
281
     0
  0
CLASS
  1
DICTIONARYVAR
  2
AcDbDictionaryVar
  3
ObjectDBX Classes
 90
        0
280
     0
281
     0
  0
CLASS
  1
SORTENTSTABLE
  2
AcDbSortentsTable
  3
ObjectDBX Classes
 90
        0
280
     0
281
     0
  0
CLASS
  1
AEC_VARS_DWG_SETUP
  2
AecDbVarsDwgSetup
  3
AecBase50|Product Desc: Autodesk Architectural Desktop 2007 |Company: Autodesk,Inc. |WEB Address: www.autodesk.com
 90
      129
280
     0
281
     0
  0
CLASS
  1
AEC_DISP_REP_CONFIG
  2
AecDbDispRepConfig
  3
AecBase50|Product Desc: Autodesk Architectural Desktop 2007 |Company: Autodesk,Inc. |WEB Address: www.autodesk.com
 90
      129
280
     0
281
     0
  0
CLASS
  1
AEC_DISP_REP_SET
  2
AecDbDispRepSet
  3
AecBase50|Product Desc: Autodesk Architectural Desktop 2007 |Company: Autodesk,Inc. |WEB Address: www.autodesk.com
 90
      129
280
     0
281
     0
  0
CLASS
  1
AEC_DISP_REP_2D_SECTION
  2
AecDbDispRep2dSection
  3
AecBase50|Product Desc: Autodesk Architectural Desktop 2007 |Company: Autodesk,Inc. |WEB Address: www.autodesk.com
 90
      129
280
     0
281
     0
  0
CLASS
  1
AEC_DISP_REP_ANCHOR_BUB_TO_GRID
  2
AecDbDispRepAnchorBubToGrid
  3
AecStructureBase50|Product Desc: Autodesk Architectural Desktop 2007 |Company: Autodesk,Inc. |WEB Address: www.autodesk.com
 90
      129
280
     0
281
     0
  0
CLASS
  1
AEC_DISP_REP_ANCHOR_BUB_TO_GRID_MODEL
  2
AecDbDispRepAnchorBubToGridMdl
  3
AecStructureBase50|Product Desc: Autodesk Architectural Desktop 2007 |Company: Autodesk,Inc. |WEB Address: www.autodesk.com
 90
      129
280
     0
281
     0
  0
CLASS
  1
AEC_DISP_REP_ANCHOR_ENT_TO_NODE
  2
AecDbDispRepAnchorEntToNode
  3
AecBaseEx50|Product Desc: Autodesk Architectural Desktop 2007 |Company: Autodesk,Inc. |WEB Address: www.autodesk.com
 90
      129
280
     0
281
     0
  0
CLASS
  1
AEC_DISP_REP_ANCHOR_TAG_TO_ENT
  2
AecDbDispRepAnchorTagToEnt
  3
AecScheduleData50|Product Desc: Autodesk Architectural Desktop 2007 |Company: Autodesk,Inc. |WEB Address: www.autodesk.com
 90
      129
280
     0
281
     0
  0
CLASS
  1
AEC_DISP_REP_AREA
  2
AecDbDispRepArea
  3
AecAreaCalculationBase50|Product Desc: Autodesk Architectural Desktop 2007 |Company: Autodesk,Inc. |WEB Address: www.autodesk.com
 90
    32897
280
     0
281
     0
  0
CLASS
  1
AEC_DISP_REP_AREA_DECOMPOSED
  2
AecDbDispRepAreaDecomposed
  3
AecAreaCalculationBase50|Product Desc: Autodesk Architectural Desktop 2007 |Company: Autodesk,Inc. |WEB Address: www.autodesk.com
 90
    32897
280
     0
281
     0
  0
CLASS
  1
AEC_DISP_REP_AREAGROUP
  2
AecDbDispRepAreaGroup
  3
AecAreaCalculationBase50|Product Desc: Autodesk Architectural Desktop 2007 |Company: Autodesk,Inc. |WEB Address: www.autodesk.com
 90
    32897
280
     0
281
     0
  0
CLASS
  1
AEC_DISP_REP_BDG_ELEVLINE_MODEL
  2
AecDbDispRepBdgElevLineModel
  3
AecArchBase50|Product Desc: Autodesk Architectural Desktop 2007 |Company: Autodesk,Inc. |WEB Address: www.autodesk.com
 90
      129
280
     0
281
     0
  0
CLASS
  1
AEC_DISP_REP_BDG_SECTIONLINE_PLAN
  2
AecDbDispRepBdgElevLinePlan
  3
AecArchBase50|Product Desc: Autodesk Architectural Desktop 2007 |Company: Autodesk,Inc. |WEB Address: www.autodesk.com
 90
      129
280
     0
281
     0
  0
CLASS
  1
AEC_DISP_REP_BDG_SECTIONLINE_MODEL
  2
AecDbDispRepBdgSectionLineModel
  3
AecArchBase50|Product Desc: Autodesk Architectural Desktop 2007 |Company: Autodesk,Inc. |WEB Address: www.autodesk.com
 90
      129
280
     0
281
     0
  0
CLASS
  1
AEC_DISP_REP_BDG_SECTIONLINE_PLAN
  2
AecDbDispRepBdgSectionLinePlan
  3
AecArchBase50|Product Desc: Autodesk Architectural Desktop 2007 |Company: Autodesk,Inc. |WEB Address: www.autodesk.com
 90
      129
280
     0
281
     0
  0
CLASS
  1
AEC_DISP_REP_BDG_SECTION_SUBDIV
  2
AecDbDispRepBdgSectionSubDiv
  3
AecArchBase50|Product Desc: Autodesk Architectural Desktop 2007 |Company: Autodesk,Inc. |WEB Address: www.autodesk.com
 90
      129
280
     0
281
     0
  0
CLASS
  1
AEC_DISP_REP_CAMERA
  2
AecDbDispRepCamera
  3
AecBase50|Product Desc: Autodesk Architectural Desktop 2007 |Company: Autodesk,Inc. |WEB Address: www.autodesk.com
 90
    32897
280
     0
281
     0
  0
CLASS
  1
AEC_DISP_REP_CEILING_GRID
  2
AecDbDispRepCeilingGrid
  3
AecArchBase50|Product Desc: Autodesk Architectural Desktop 2007 |Company: Autodesk,Inc. |WEB Address: www.autodesk.com
 90
      893
280
     0
281
     0
  0
CLASS
  1
AEC_DISP_REP_CEILING_GRID_MODEL
  2
AecDbDispRepCeilingGridModel
  3
AecArchBase50|Product Desc: Autodesk Architectural Desktop 2007 |Company: Autodesk,Inc. |WEB Address: www.autodesk.com
 90
      129
280
     0
281
     0
  0
CLASS
  1
AEC_DISP_REP_CEILING_GRID_RCP
  2
AecDbDispRepCeilingGridRcp
  3
AecArchBase50|Product Desc: Autodesk Architectural Desktop 2007 |Company: Autodesk,Inc. |WEB Address: www.autodesk.com
 90
      129
280
     0
281
     0
  0
CLASS
  1
AEC_DISP_REP_CLIP_VOLUME_MODEL
  2
AecDbDispRepClipVolModel
  3
AecBase50|Product Desc: Autodesk Architectural Desktop 2007 |Company: Autodesk,Inc. |WEB Address: www.autodesk.com
 90
      129
280
     0
281
     0
  0
CLASS
  1
AEC_DISP_REP_CLIP_VOLUME_PLAN
  2
AecDbDispRepClipVolPlan
  3
AecBase50|Product Desc: Autodesk Architectural Desktop 2007 |Company: Autodesk,Inc. |WEB Address: www.autodesk.com
 90
      129
280
     0
281
     0
  0
CLASS
  1
AEC_DISP_REP_CLIP_VOLUME_RESULT_SUBDIV
  2
AecDbDispRepClipVolResSubDiv
  3
AecBase50|Product Desc: Autodesk Architectural Desktop 2007 |Company: Autodesk,Inc. |WEB Address: www.autodesk.com
 90
      129
280
     0
281
     0
  0
CLASS
  1
AEC_DISP_REP_CLIP_VOLUME_RESULT
  2
AecDbDispRepClipVolResult
  3
AecBase50|Product Desc: Autodesk Architectural Desktop 2007 |Company: Autodesk,Inc. |WEB Address: www.autodesk.com
 90
      129
280
     0
281
     0
  0
CLASS
  1
AEC_DISP_REP_COLUMN_GRID
  2
AecDbDispRepColumnGrid
  3
AecStructureBase50|Product Desc: Autodesk Architectural Desktop 2007 |Company: Autodesk,Inc. |WEB Address: www.autodesk.com
 90
      129
280
     0
281
     0
  0
CLASS
  1
AEC_DISP_REP_COLUMN_GRID_MODEL
  2
AecDbDispRepColumnGridModel
  3
AecStructureBase50|Product Desc: Autodesk Architectural Desktop 2007 |Company: Autodesk,Inc. |WEB Address: www.autodesk.com
 90
      129
280
     0
281
     0
  0
CLASS
  1
AEC_DISP_REP_CURTAIN_WALL_LAYOUT_MODEL
  2
AecDbDispRepCurtainWallLayoutModel
  3
AecArchBase50|Product Desc: Autodesk Architectural Desktop 2007 |Company: Autodesk,Inc. |WEB Address: www.autodesk.com
 90
      129
280
     0
281
     0
  0
CLASS
  1
AEC_DISP_REP_CURTAIN_WALL_LAYOUT_PLAN
  2
AecDbDispRepCurtainWallLayoutPlan
  3
AecArchBase50|Product Desc: Autodesk Architectural Desktop 2007 |Company: Autodesk,Inc. |WEB Address: www.autodesk.com
 90
      129
280
     0
281
     0
  0
CLASS
  1
AEC_DISP_REP_CURTAIN_WALL_UNIT_MODEL
  2
AecDbDispRepCurtainWallUnitModel
  3
AecArchBase50|Product Desc: Autodesk Architectural Desktop 2007 |Company: Autodesk,Inc. |WEB Address: www.autodesk.com
 90
      129
280
     0
281
     0
  0
CLASS
  1
AEC_DISP_REP_CURTAIN_WALL_UNIT_PLAN
  2
AecDbDispRepCurtainWallUnitPlan
  3
AecArchBase50|Product Desc: Autodesk Architectural Desktop 2007 |Company: Autodesk,Inc. |WEB Address: www.autodesk.com
 90
      129
280
     0
281
     0
  0
CLASS
  1
AEC_DB_DISP_REP_DIM_GROUP_PLAN
  2
AecDbDispRepDimGroupPlan
  3
AecArchDACHBase50|Product Desc: Autodesk Architectural Desktop 2007 |Company: Autodesk,Inc. |WEB Address: www.autodesk.com
 90
      129
280
     0
281
     0
  0
CLASS
  1
AEC_DISP_REP_DOOR_MODEL
  2
AecDbDispRepDoorModel
  3
AecArchBase50|Product Desc: Autodesk Architectural Desktop 2007 |Company: Autodesk,Inc. |WEB Address: www.autodesk.com
 90
      129
280
     0
281
     0
  0
CLASS
  1
AEC_DISP_REP_DOOR_NOMINAL
  2
AecDbDispRepDoorNominal
  3
AecArchBase50|Product Desc: Autodesk Architectural Desktop 2007 |Company: Autodesk,Inc. |WEB Address: www.autodesk.com
 90
      129
280
     0
281
     0
  0
CLASS
  1
AEC_DISP_REP_DOOR_PLAN
  2
AecDbDispRepDoorPlan
  3
AecArchBase50|Product Desc: Autodesk Architectural Desktop 2007 |Company: Autodesk,Inc. |WEB Address: www.autodesk.com
 90
      129
280
     0
281
     0
  0
CLASS
  1
AEC_DISP_REP_EDITINPLACEPROFILE
  2
AecDbDispRepEditInPlaceProfile
  3
AecBase50|Product Desc: Autodesk Architectural Desktop 2007 |Company: Autodesk,Inc. |WEB Address: www.autodesk.com
 90
      129
280
     0
281
     0
  0
CLASS
  1
AEC_DISP_REP_ENT_REF
  2
AecDbDispRepEntRef
  3
AecBase50|Product Desc: Autodesk Architectural Desktop 2007 |Company: Autodesk,Inc. |WEB Address: www.autodesk.com
 90
      129
280
     0
281
     0
  0
CLASS
  1
AEC_DISP_REP_LAYOUT_CURVE
  2
AecDbDispRepLayoutCurve
  3
AecBase50|Product Desc: Autodesk Architectural Desktop 2007 |Company: Autodesk,Inc. |WEB Address: www.autodesk.com
 90
      129
280
     0
281
     0
  0
CLASS
  1
AEC_DISP_REP_LAYOUT_GRID2D
  2
AecDbDispRepLayoutGrid2d
  3
AecBase50|Product Desc: Autodesk Architectural Desktop 2007 |Company: Autodesk,Inc. |WEB Address: www.autodesk.com
 90
      129
280
     0
281
     0
  0
CLASS
  1
AEC_DISP_REP_LAYOUT_GRID3D
  2
AecDbDispRepLayoutGrid3d
  3
AecBase50|Product Desc: Autodesk Architectural Desktop 2007 |Company: Autodesk,Inc. |WEB Address: www.autodesk.com
 90
      129
280
     0
281
     0
  0
CLASS
  1
AEC_DISP_REP_MASKBLOCK_REF
  2
AecDbDispRepMaskBlockRef
  3
AecBase50|Product Desc: Autodesk Architectural Desktop 2007 |Company: Autodesk,Inc. |WEB Address: www.autodesk.com
 90
      129
280
     0
281
     0
  0
CLASS
  1
AEC_DISP_REP_MASKBLOCK_REF_RCP
  2
AecDbDispRepMaskBlockRefRcp
  3
AecArchBase50|Product Desc: Autodesk Architectural Desktop 2007 |Company: Autodesk,Inc. |WEB Address: www.autodesk.com
 90
      129
280
     0
281
     0
  0
CLASS
  1
AEC_DISP_REP_MASS_ELEM_MODEL
  2
AecDbDispRepMassElemModel
  3
AecBaseEx50|Product Desc: Autodesk Architectural Desktop 2007 |Company: Autodesk,Inc. |WEB Address: www.autodesk.com
 90
      129
280
     0
281
     0
  0
CLASS
  1
AEC_DISP_REP_MASS_ELEM_SCHEM
  2
AecDbDispRepMassElemSchem
  3
AecBaseEx50|Product Desc: Autodesk Architectural Desktop 2007 |Company: Autodesk,Inc. |WEB Address: www.autodesk.com
 90
      129
280
     0
281
     0
  0
CLASS
  1
AEC_DISP_REP_MASS_GROUP_MODEL
  2
AecDbDispRepMassGroupModel
  3
AecBaseEx50|Product Desc: Autodesk Architectural Desktop 2007 |Company: Autodesk,Inc. |WEB Address: www.autodesk.com
 90
      129
280
     0
281
     0
  0
CLASS
  1
AEC_DISP_REP_MASS_GROUP_PLAN
  2
AecDbDispRepMassGroupPlan
  3
AecBaseEx50|Product Desc: Autodesk Architectural Desktop 2007 |Company: Autodesk,Inc. |WEB Address: www.autodesk.com
 90
      129
280
     0
281
     0
  0
CLASS
  1
AEC_DISP_REP_MATERIAL
  2
AecDbDispRepMaterial
  3
AecBase50|Product Desc: Autodesk Architectural Desktop 2007 |Company: Autodesk,Inc. |WEB Address: www.autodesk.com
 90
      129
280
     0
281
     0
  0
CLASS
  1
AEC_DISP_REP_MVBLOCK_REF
  2
AecDbDispRepMvBlockRef
  3
AecBase50|Product Desc: Autodesk Architectural Desktop 2007 |Company: Autodesk,Inc. |WEB Address: www.autodesk.com
 90
      129
280
     0
281
     0
  0
CLASS
  1
AEC_DISP_REP_MVBLOCK_REF_MODEL
  2
AecDbDispRepMvBlockRefModel
  3
AecBase50|Product Desc: Autodesk Architectural Desktop 2007 |Company: Autodesk,Inc. |WEB Address: www.autodesk.com
 90
      129
280
     0
281
     0
  0
CLASS
  1
AEC_DISP_REP_OPENING
  2
AecDbDispRepOpening
  3
AecArchBase50|Product Desc: Autodesk Architectural Desktop 2007 |Company: Autodesk,Inc. |WEB Address: www.autodesk.com
 90
      129
280
     0
281
     0
  0
CLASS
  1
AEC_DISP_REP_OPENING_MODEL
  2
AecDbDispRepOpeningModel
  3
AecArchBase50|Product Desc: Autodesk Architectural Desktop 2007 |Company: Autodesk,Inc. |WEB Address: www.autodesk.com
 90
      129
280
     0
281
     0
  0
CLASS
  1
AEC_DISP_REP_POLYGON_MODEL
  2
AecDbDispRepPolygonModel
  3
AecBaseEx50|Product Desc: Autodesk Architectural Desktop 2007 |Company: Autodesk,Inc. |WEB Address: www.autodesk.com
 90
      129
280
     0
281
     0
  0
CLASS
  1
AEC_DISP_REP_RAILING_MODEL
  2
AecDbDispRepRailingModel
  3
AecArchBase50|Product Desc: Autodesk Architectural Desktop 2007 |Company: Autodesk,Inc. |WEB Address: www.autodesk.com
 90
      129
280
     0
281
     0
  0
CLASS
  1
AEC_DISP_REP_RAILING_PLAN
  2
AecDbDispRepRailingPlan
  3
AecArchBase50|Product Desc: Autodesk Architectural Desktop 2007 |Company: Autodesk,Inc. |WEB Address: www.autodesk.com
 90
      129
280
     0
281
     0
  0
CLASS
  1
AEC_DISP_REP_ROOF_MODEL
  2
AecDbDispRepRoofModel
  3
AecArchBase50|Product Desc: Autodesk Architectural Desktop 2007 |Company: Autodesk,Inc. |WEB Address: www.autodesk.com
 90
      129
280
     0
281
     0
  0
CLASS
  1
AEC_DISP_REP_ROOF_PLAN
  2
AecDbDispRepRoofPlan
  3
AecArchBase50|Product Desc: Autodesk Architectural Desktop 2007 |Company: Autodesk,Inc. |WEB Address: www.autodesk.com
 90
      129
280
     0
281
     0
  0
CLASS
  1
AEC_DISP_REP_ROOFSLAB_MODEL
  2
AecDbDispRepRoofSlabModel
  3
AecArchBase50|Product Desc: Autodesk Architectural Desktop 2007 |Company: Autodesk,Inc. |WEB Address: www.autodesk.com
 90
      129
280
     0
281
     0
  0
CLASS
  1
AEC_DISP_REP_ROOFSLAB_PLAN
  2
AecDbDispRepRoofSlabPlan
  3
AecArchBase50|Product Desc: Autodesk Architectural Desktop 2007 |Company: Autodesk,Inc. |WEB Address: www.autodesk.com
 90
      129
280
     0
281
     0
  0
CLASS
  1
AEC_DISP_REP_SCHEDULE_TABLE
  2
AecDbDispRepScheduleTable
  3
AecSchedule50|Product Desc: Autodesk Architectural Desktop 2007 |Company: Autodesk,Inc. |WEB Address: www.autodesk.com
 90
      129
280
     0
281
     0
  0
CLASS
  1
AEC_DISP_REP_SLAB_MODEL
  2
AecDbDispRepSlabModel
  3
AecArchBase50|Product Desc: Autodesk Architectural Desktop 2007 |Company: Autodesk,Inc. |WEB Address: www.autodesk.com
 90
      129
280
     0
281
     0
  0
CLASS
  1
AEC_DISP_REP_SLAB_PLAN
  2
AecDbDispRepSlabPlan
  3
AecArchBase50|Product Desc: Autodesk Architectural Desktop 2007 |Company: Autodesk,Inc. |WEB Address: www.autodesk.com
 90
      129
280
     0
281
     0
  0
CLASS
  1
AEC_DISP_REP_SLICE
  2
AecDbDispRepSlice
  3
AecBase50|Product Desc: Autodesk Architectural Desktop 2007 |Company: Autodesk,Inc. |WEB Address: www.autodesk.com
 90
      129
280
     0
281
     0
  0
CLASS
  1
AEC_DISP_REP_SPACE_BOUNDARY_MODEL
  2
AecDbDispRepSpaceBoundaryModel
  3
AecArchBase50|Product Desc: Autodesk Architectural Desktop 2007 |Company: Autodesk,Inc. |WEB Address: www.autodesk.com
 90
    32897
280
     0
281
     0
  0
CLASS
  1
AEC_DISP_REP_SPACE_BOUNDARY_PLAN
  2
AecDbDispRepSpaceBoundaryPlan
  3
AecArchBase50|Product Desc: Autodesk Architectural Desktop 2007 |Company: Autodesk,Inc. |WEB Address: www.autodesk.com
 90
    32897
280
     0
281
     0
  0
CLASS
  1
AEC_DISP_REP_SPACE_BOUNDARY_SCHEM
  2
AecDbDispRepSpaceBoundarySketch
  3
AecArchBase50|Product Desc: Autodesk Architectural Desktop 2007 |Company: Autodesk,Inc. |WEB Address: www.autodesk.com
 90
    32897
280
     0
281
     0
  0
CLASS
  1
AEC_DISP_REP_SPACE_MODEL
  2
AecDbDispRepSpaceModel
  3
AecArchBase50|Product Desc: Autodesk Architectural Desktop 2007 |Company: Autodesk,Inc. |WEB Address: www.autodesk.com
 90
      129
280
     0
281
     0
  0
CLASS
  1
AEC_DISP_REP_SPACE_PLAN
  2
AecDbDispRepSpacePlan
  3
AecArchBase50|Product Desc: Autodesk Architectural Desktop 2007 |Company: Autodesk,Inc. |WEB Address: www.autodesk.com
 90
      129
280
     0
281
     0
  0
CLASS
  1
AEC_DISP_REP_STAIR_MODEL
  2
AecDbDispRepStairModel
  3
AecArchBase50|Product Desc: Autodesk Architectural Desktop 2007 |Company: Autodesk,Inc. |WEB Address: www.autodesk.com
 90
      129
280
     0
281
     0
  0
CLASS
  1
AEC_DISP_REP_STAIR_PLAN
  2
AecDbDispRepStairPlan
  3
AecArchBase50|Product Desc: Autodesk Architectural Desktop 2007 |Company: Autodesk,Inc. |WEB Address: www.autodesk.com
 90
      129
280
     0
281
     0
  0
CLASS
  1
AEC_DISP_REP_WALL_GRAPH
  2
AecDbDispRepWallGraph
  3
AecArchBase50|Product Desc: Autodesk Architectural Desktop 2007 |Company: Autodesk,Inc. |WEB Address: www.autodesk.com
 90
      129
280
     0
281
     0
  0
CLASS
  1
AEC_DISP_REP_WALL_MODEL
  2
AecDbDispRepWallModel
  3
AecArchBase50|Product Desc: Autodesk Architectural Desktop 2007 |Company: Autodesk,Inc. |WEB Address: www.autodesk.com
 90
      129
280
     0
281
     0
  0
CLASS
  1
AEC_DISP_REP_WALL_PLAN
  2
AecDbDispRepWallPlan
  3
AecArchBase50|Product Desc: Autodesk Architectural Desktop 2007 |Company: Autodesk,Inc. |WEB Address: www.autodesk.com
 90
      129
280
     0
281
     0
  0
CLASS
  1
AEC_DISP_REP_WALL_SCHEM
  2
AecDbDispRepWallSchem
  3
AecArchBase50|Product Desc: Autodesk Architectural Desktop 2007 |Company: Autodesk,Inc. |WEB Address: www.autodesk.com
 90
      129
280
     0
281
     0
  0
CLASS
  1
AEC_DISP_REP_WINDOW_ASSEMBLY_MODEL
  2
AecDbDispRepWindowAssemblyModel
  3
AecArchBase50|Product Desc: Autodesk Architectural Desktop 2007 |Company: Autodesk,Inc. |WEB Address: www.autodesk.com
 90
      129
280
     0
281
     0
  0
CLASS
  1
AEC_DISP_REP_WINDOW_ASSEMBLY_PLAN
  2
AecDbDispRepWindowAssemblyPlan
  3
AecArchBase50|Product Desc: Autodesk Architectural Desktop 2007 |Company: Autodesk,Inc. |WEB Address: www.autodesk.com
 90
      129
280
     0
281
     0
  0
CLASS
  1
AEC_AECDBDISPREPWINDOWASSEMBLYPLAN100
  2
AecDbDispRepWindowAssemblyPlan100
  3
AecArchDACHBase50|Product Desc: Autodesk Architectural Desktop 2007 |Company: Autodesk,Inc. |WEB Address: www.autodesk.com
 90
      129
280
     0
281
     0
  0
CLASS
  1
AEC_DISP_REP_WINDOW_MODEL
  2
AecDbDispRepWindowModel
  3
AecArchBase50|Product Desc: Autodesk Architectural Desktop 2007 |Company: Autodesk,Inc. |WEB Address: www.autodesk.com
 90
      129
280
     0
281
     0
  0
CLASS
  1
AEC_DISP_REP_WINDOW_NOMINAL
  2
AecDbDispRepWindowNominal
  3
AecArchBase50|Product Desc: Autodesk Architectural Desktop 2007 |Company: Autodesk,Inc. |WEB Address: www.autodesk.com
 90
      129
280
     0
281
     0
  0
CLASS
  1
AEC_DISP_REP_WINDOW_PLAN
  2
AecDbDispRepWindowPlan
  3
AecArchBase50|Product Desc: Autodesk Architectural Desktop 2007 |Company: Autodesk,Inc. |WEB Address: www.autodesk.com
 90
      129
280
     0
281
     0
  0
CLASS
  1
AECS_DISP_REP_MEMBER_LOGICAL
  2
AecsDbDispRepMemberLogical
  3
AecStructureBase50|Product Desc: Autodesk Architectural Desktop 2007 |Company: Autodesk,Inc. |WEB Address: www.autodesk.com
 90
      129
280
     0
281
     0
  0
CLASS
  1
AECS_DISP_REP_MEMBER_MODEL_DESIGN
  2
AecsDbDispRepMemberModelDesign
  3
AecStructureBase50|Product Desc: Autodesk Architectural Desktop 2007 |Company: Autodesk,Inc. |WEB Address: www.autodesk.com
 90
      129
280
     0
281
     0
  0
CLASS
  1
AECS_DISP_REP_MEMBER_PLAN_DESIGN
  2
AecsDbDispRepMemberPlanDesign
  3
AecStructureBase50|Product Desc: Autodesk Architectural Desktop 2007 |Company: Autodesk,Inc. |WEB Address: www.autodesk.com
 90
      129
280
     0
281
     0
  0
CLASS
  1
AEC_DISP_PROPS_ENT
  2
AecDbDispPropsEnt
  3
AecBase50|Product Desc: Autodesk Architectural Desktop 2007 |Company: Autodesk,Inc. |WEB Address: www.autodesk.com
 90
      129
280
     0
281
     0
  0
CLASS
  1
AEC_DISP_PROPS_CLIP_VOLUME
  2
AecDbDispPropsClipVol
  3
AecBase50|Product Desc: Autodesk Architectural Desktop 2007 |Company: Autodesk,Inc. |WEB Address: www.autodesk.com
 90
      129
280
     0
281
     0
  0
CLASS
  1
AEC_DISP_PROPS_SLICE
  2
AecDbDispPropsSlice
  3
AecBase50|Product Desc: Autodesk Architectural Desktop 2007 |Company: Autodesk,Inc. |WEB Address: www.autodesk.com
 90
      129
280
     0
281
     0
  0
CLASS
  1
AEC_DISP_PROPS_ROOFSLAB_PLAN
  2
AecDbDispPropsRoofSlabPlan
  3
AecArchBase50|Product Desc: Autodesk Architectural Desktop 2007 |Company: Autodesk,Inc. |WEB Address: www.autodesk.com
 90
      129
280
     0
281
     0
  0
CLASS
  1
AEC_DISP_PROPS_GRID_ASSEMBLY_MODEL
  2
AecDbDispPropsGridAssemblyModel
  3
AecArchBase50|Product Desc: Autodesk Architectural Desktop 2007 |Company: Autodesk,Inc. |WEB Address: www.autodesk.com
 90
      129
280
     0
281
     0
  0
CLASS
  1
AEC_DISP_PROPS_ROOF
  2
AecDbDispPropsRoof
  3
AecArchBase50|Product Desc: Autodesk Architectural Desktop 2007 |Company: Autodesk,Inc. |WEB Address: www.autodesk.com
 90
      129
280
     0
281
     0
  0
CLASS
  1
AEC_DISP_PROPS_SPACE_MODEL
  2
AecDbDispPropsSpaceModel
  3
AecArchBase50|Product Desc: Autodesk Architectural Desktop 2007 |Company: Autodesk,Inc. |WEB Address: www.autodesk.com
 90
      129
280
     0
281
     0
  0
CLASS
  1
AEC_DISP_PROPS_EDITINPLACEPROFILE_MODEL
  2
AecDbDispPropsEditInPlaceProfile
  3
AecBase50|Product Desc: Autodesk Architectural Desktop 2007 |Company: Autodesk,Inc. |WEB Address: www.autodesk.com
 90
      129
280
     0
281
     0
  0
CLASS
  1
AEC_DISP_PROPS_DOOR
  2
AecDbDispPropsDoor
  3
AecArchBase50|Product Desc: Autodesk Architectural Desktop 2007 |Company: Autodesk,Inc. |WEB Address: www.autodesk.com
 90
      129
280
     0
281
     0
  0
CLASS
  1
AEC_DISP_PROPS_MASKBLOCK
  2
AecDbDispPropsMaskBlock
  3
AecBase50|Product Desc: Autodesk Architectural Desktop 2007 |Company: Autodesk,Inc. |WEB Address: www.autodesk.com
 90
      129
280
     0
281
     0
  0
CLASS
  1
AEC_DISP_PROPS_SPACE_PLAN
  2
AecDbDispPropsSpacePlan
  3
AecArchBase50|Product Desc: Autodesk Architectural Desktop 2007 |Company: Autodesk,Inc. |WEB Address: www.autodesk.com
 90
      129
280
     0
281
     0
  0
CLASS
  1
AEC_DISP_PROPS_RAILING_PLAN
  2
AecDbDispPropsRailingPlan
  3
AecArchBase50|Product Desc: Autodesk Architectural Desktop 2007 |Company: Autodesk,Inc. |WEB Address: www.autodesk.com
 90
      129
280
     0
281
     0
  0
CLASS
  1
AEC_DISP_PROPS_LAYOUT_GRID2D
  2
AecDbDispPropsLayoutGrid2d
  3
AecBase50|Product Desc: Autodesk Architectural Desktop 2007 |Company: Autodesk,Inc. |WEB Address: www.autodesk.com
 90
      129
280
     0
281
     0
  0
CLASS
  1
AEC_DISP_PROPS_CLIP_VOLUME_RESULT
  2
AecDbDispPropsClipVolResSubDiv
  3
AecBase50|Product Desc: Autodesk Architectural Desktop 2007 |Company: Autodesk,Inc. |WEB Address: www.autodesk.com
 90
      129
280
     0
281
     0
  0
CLASS
  1
AEC_DISP_PROPS_STAIR_MODEL
  2
AecDbDispPropsStairModel
  3
AecArchBase50|Product Desc: Autodesk Architectural Desktop 2007 |Company: Autodesk,Inc. |WEB Address: www.autodesk.com
 90
      129
280
     0
281
     0
  0
CLASS
  1
AEC_DISP_PROPS_LAYOUT_CURVE
  2
AecDbDispPropsLayoutCurve
  3
AecBase50|Product Desc: Autodesk Architectural Desktop 2007 |Company: Autodesk,Inc. |WEB Address: www.autodesk.com
 90
      129
280
     0
281
     0
  0
CLASS
  1
AEC_DISP_PROPS_POLYGON_MODEL
  2
AecDbDispPropsPolygonModel
  3
AecBaseEx50|Product Desc: Autodesk Architectural Desktop 2007 |Company: Autodesk,Inc. |WEB Address: www.autodesk.com
 90
      129
280
     0
281
     0
  0
CLASS
  1
AEC_DISP_PROPS_MASS_GROUP
  2
AecDbDispPropsMassGroup
  3
AecBaseEx50|Product Desc: Autodesk Architectural Desktop 2007 |Company: Autodesk,Inc. |WEB Address: www.autodesk.com
 90
      129
280
     0
281
     0
  0
CLASS
  1
AEC_DISP_PROPS_STAIR_PLAN
  2
AecDbDispPropsStairPlan
  3
AecArchBase50|Product Desc: Autodesk Architectural Desktop 2007 |Company: Autodesk,Inc. |WEB Address: www.autodesk.com
 90
      129
280
     0
281
     0
  0
CLASS
  1
AEC_DISP_PROPS_OPENING
  2
AecDbDispPropsOpening
  3
AecArchBase50|Product Desc: Autodesk Architectural Desktop 2007 |Company: Autodesk,Inc. |WEB Address: www.autodesk.com
 90
      129
280
     0
281
     0
  0
CLASS
  1
AEC_DISP_PROPS_WALL_GRAPH
  2
AecDbDispPropsWallGraph
  3
AecArchBase50|Product Desc: Autodesk Architectural Desktop 2007 |Company: Autodesk,Inc. |WEB Address: www.autodesk.com
 90
      129
280
     0
281
     0
  0
CLASS
  1
AEC_DISP_PROPS_DOOR_NOMINAL
  2
AecDbDispPropsDoorNominal
  3
AecArchBase50|Product Desc: Autodesk Architectural Desktop 2007 |Company: Autodesk,Inc. |WEB Address: www.autodesk.com
 90
      129
280
     0
281
     0
  0
CLASS
  1
AEC_DISP_PROPS_SLAB
  2
AecDbDispPropsSlab
  3
AecArchBase50|Product Desc: Autodesk Architectural Desktop 2007 |Company: Autodesk,Inc. |WEB Address: www.autodesk.com
 90
      129
280
     0
281
     0
  0
CLASS
  1
AEC_DISP_PROPS_WALL_MODEL
  2
AecDbDispPropsWallModel
  3
AecArchBase50|Product Desc: Autodesk Architectural Desktop 2007 |Company: Autodesk,Inc. |WEB Address: www.autodesk.com
 90
      129
280
     0
281
     0
  0
CLASS
  1
AEC_DISP_PROPS_MATERIAL
  2
AecDbDispPropsMaterial
  3
AecBase50|Product Desc: Autodesk Architectural Desktop 2007 |Company: Autodesk,Inc. |WEB Address: www.autodesk.com
 90
      129
280
     0
281
     0
  0
CLASS
  1
AEC_DISP_PROPS_WINDOW
  2
AecDbDispPropsWindow
  3
AecArchBase50|Product Desc: Autodesk Architectural Desktop 2007 |Company: Autodesk,Inc. |WEB Address: www.autodesk.com
 90
      129
280
     0
281
     0
  0
CLASS
  1
AEC_DISP_PROPS_LAYOUT_GRID3D
  2
AecDbDispPropsLayoutGrid3d
  3
AecBase50|Product Desc: Autodesk Architectural Desktop 2007 |Company: Autodesk,Inc. |WEB Address: www.autodesk.com
 90
      129
280
     0
281
     0
  0
CLASS
  1
AEC_DISP_PROPS_GRID_ASSEMBLY_PLAN
  2
AecDbDispPropsGridAssemblyPlan
  3
AecArchBase50|Product Desc: Autodesk Architectural Desktop 2007 |Company: Autodesk,Inc. |WEB Address: www.autodesk.com
 90
      129
280
     0
281
     0
  0
CLASS
  1
AEC_DISP_PROPS_WALL_SCHEM
  2
AecDbDispPropsWallSchem
  3
AecArchBase50|Product Desc: Autodesk Architectural Desktop 2007 |Company: Autodesk,Inc. |WEB Address: www.autodesk.com
 90
      129
280
     0
281
     0
  0
CLASS
  1
AEC_DISP_PROPS_WALL_PLAN
  2
AecDbDispPropsWallPlan
  3
AecArchBase50|Product Desc: Autodesk Architectural Desktop 2007 |Company: Autodesk,Inc. |WEB Address: www.autodesk.com
 90
      129
280
     0
281
     0
  0
CLASS
  1
AEC_DISP_PROPS_SPACE_BOUNDARY
  2
AecDbDispPropsSpaceBoundary
  3
AecArchBase50|Product Desc: Autodesk Architectural Desktop 2007 |Company: Autodesk,Inc. |WEB Address: www.autodesk.com
 90
    32897
280
     0
281
     0
  0
CLASS
  1
AEC_DISP_PROPS_SLAB_PLAN
  2
AecDbDispPropsSlabPlan
  3
AecArchBase50|Product Desc: Autodesk Architectural Desktop 2007 |Company: Autodesk,Inc. |WEB Address: www.autodesk.com
 90
      129
280
     0
281
     0
  0
CLASS
  1
AEC_DISP_PROPS_RAILING_MODEL
  2
AecDbDispPropsRailingModel
  3
AecArchBase50|Product Desc: Autodesk Architectural Desktop 2007 |Company: Autodesk,Inc. |WEB Address: www.autodesk.com
 90
      129
280
     0
281
     0
  0
CLASS
  1
AEC_DISP_PROPS_MASS_ELEM_MODEL
  2
AecDbDispPropsMassElem
  3
AecBaseEx50|Product Desc: Autodesk Architectural Desktop 2007 |Company: Autodesk,Inc. |WEB Address: www.autodesk.com
 90
      129
280
     0
281
     0
  0
CLASS
  1
AEC_DISP_PROPS_DIM
  2
AecDbDispPropsDimGroup
  3
AecArchDACHBase50|Product Desc: Autodesk Architectural Desktop 2007 |Company: Autodesk,Inc. |WEB Address: www.autodesk.com
 90
      129
280
     0
281
     0
  0
CLASS
  1
AEC_DISP_PROPS_ROOFSLAB
  2
AecDbDispPropsRoofSlab
  3
AecArchBase50|Product Desc: Autodesk Architectural Desktop 2007 |Company: Autodesk,Inc. |WEB Address: www.autodesk.com
 90
      129
280
     0
281
     0
  0
CLASS
  1
AEC_DISP_PROPS_ENT_REF
  2
AecDbDispPropsEntRef
  3
AecBase50|Product Desc: Autodesk Architectural Desktop 2007 |Company: Autodesk,Inc. |WEB Address: www.autodesk.com
 90
      129
280
     0
281
     0
  0
CLASS
  1
AEC_DISP_PROPS_2D_SECTION
  2
AecDbDispProps2dSection
  3
AecBase50|Product Desc: Autodesk Architectural Desktop 2007 |Company: Autodesk,Inc. |WEB Address: www.autodesk.com
 90
      129
280
     0
281
     0
  0
CLASS
  1
AECS_DISP_PROPS_MEMBER_LOGICAL
  2
AecsDbDispPropsMemberLogical
  3
AecStructureBase50|Product Desc: Autodesk Architectural Desktop 2007 |Company: Autodesk,Inc. |WEB Address: www.autodesk.com
 90
      129
280
     0
281
     0
  0
CLASS
  1
AEC_DISP_PROPS_AREA_DECOMPOSED
  2
AecDbDispPropsAreaDecomposed
  3
AecAreaCalculationBase50|Product Desc: Autodesk Architectural Desktop 2007 |Company: Autodesk,Inc. |WEB Address: www.autodesk.com
 90
    32897
280
     0
281
     0
  0
CLASS
  1
AEC_DISP_PROPS_CAMERA
  2
AecDbDispPropsCamera
  3
AecBase50|Product Desc: Autodesk Architectural Desktop 2007 |Company: Autodesk,Inc. |WEB Address: www.autodesk.com
 90
    32897
280
     0
281
     0
  0
CLASS
  1
AECS_DISP_PROPS_MEMBER
  2
AecsDbDispPropsMember
  3
AecStructureBase50|Product Desc: Autodesk Architectural Desktop 2007 |Company: Autodesk,Inc. |WEB Address: www.autodesk.com
 90
      129
280
     0
281
     0
  0
CLASS
  1
AECS_DISP_PROPS_MEMBER_PLAN
  2
AecsDbDispPropsMemberPlan
  3
AecStructureBase50|Product Desc: Autodesk Architectural Desktop 2007 |Company: Autodesk,Inc. |WEB Address: www.autodesk.com
 90
      129
280
     0
281
     0
  0
CLASS
  1
AEC_DISP_PROPS_AREAGROUP
  2
AecDbDispPropsAreaGroup
  3
AecAreaCalculationBase50|Product Desc: Autodesk Architectural Desktop 2007 |Company: Autodesk,Inc. |WEB Address: www.autodesk.com
 90
    32897
280
     0
281
     0
  0
CLASS
  1
AEC_DISP_PROPS_WINDOW_NOMINAL
  2
AecDbDispPropsWindowNominal
  3
AecArchBase50|Product Desc: Autodesk Architectural Desktop 2007 |Company: Autodesk,Inc. |WEB Address: www.autodesk.com
 90
      129
280
     0
281
     0
  0
CLASS
  1
AEC_DISP_PROPS_AREA
  2
AecDbDispPropsArea
  3
AecAreaCalculationBase50|Product Desc: Autodesk Architectural Desktop 2007 |Company: Autodesk,Inc. |WEB Address: www.autodesk.com
 90
    32897
280
     0
281
     0
  0
CLASS
  1
AEC_DISP_PROPS_SCHEDULE_TABLE
  2
AecDbDispPropsScheduleTable
  3
AecSchedule50|Product Desc: Autodesk Architectural Desktop 2007 |Company: Autodesk,Inc. |WEB Address: www.autodesk.com
 90
      129
280
     0
281
     0
  0
CLASS
  1
AEC_LAYERKEY_STYLE
  2
AecDbLayerKeyStyle
  3
AecBase50|Product Desc: Autodesk Architectural Desktop 2007 |Company: Autodesk,Inc. |WEB Address: www.autodesk.com
 90
      129
280
     0
281
     0
  0
CLASS
  1
AEC_VARS_ARCHBASE
  2
AecDbVarsArchBase
  3
AecArchBase50|Product Desc: Autodesk Architectural Desktop 2007 |Company: Autodesk,Inc. |WEB Address: www.autodesk.com
 90
      129
280
     0
281
     0
  0
CLASS
  1
AEC_VARS_MUNICH
  2
AecDbVarsMunich
  3
AecArchDACHBase50|Product Desc: Autodesk Architectural Desktop 2007 |Company: Autodesk,Inc. |WEB Address: www.autodesk.com
 90
      129
280
     0
281
     0
  0
CLASS
  1
AEC_NOTIFICATION_TRACKER
  2
AecDbNotificationTracker
  3
AecBase50|Product Desc: Autodesk Architectural Desktop 2007 |Company: Autodesk,Inc. |WEB Address: www.autodesk.com
 90
      129
280
     0
281
     0
  0
CLASS
  1
AEC_DISP_REP_ANCHOR
  2
AecDbDispRepAnchor
  3
AecBase50|Product Desc: Autodesk Architectural Desktop 2007 |Company: Autodesk,Inc. |WEB Address: www.autodesk.com
 90
      129
280
     0
281
     0
  0
CLASS
  1
AEC_DISP_REP_POLYGON_TRUECOLOUR
  2
AecDbDispRepPolygonTrueColour
  3
AecBaseEx50|Product Desc: Autodesk Architectural Desktop 2007 |Company: Autodesk,Inc. |WEB Address: www.autodesk.com
 90
      129
280
     0
281
     0
  0
CLASS
  1
AEC_DISP_PROPS_POLYGON_TRUECOLOUR
  2
AecDbDispPropsPolygonTrueColour
  3
AecBaseEx50|Product Desc: Autodesk Architectural Desktop 2007 |Company: Autodesk,Inc. |WEB Address: www.autodesk.com
 90
      129
280
     0
281
     0
  0
CLASS
  1
AEC_DISP_REP_BDG_ELEVLINE_RCP
  2
AecDbDispRepBdgElevLineRcp
  3
AecArchBase50|Product Desc: Autodesk Architectural Desktop 2007 |Company: Autodesk,Inc. |WEB Address: www.autodesk.com
 90
      129
280
     0
281
     0
  0
CLASS
  1
AEC_DISP_REP_BDG_SECTIONLINE_RCP
  2
AecDbDispRepBdgSectionLineRcp
  3
AecArchBase50|Product Desc: Autodesk Architectural Desktop 2007 |Company: Autodesk,Inc. |WEB Address: www.autodesk.com
 90
      129
280
     0
281
     0
  0
CLASS
  1
AEC_DISP_REP_BDG_SECTION_MODEL
  2
AecDbDispRepBdgSectionModel
  3
AecArchBase50|Product Desc: Autodesk Architectural Desktop 2007 |Company: Autodesk,Inc. |WEB Address: www.autodesk.com
 90
      129
280
     0
281
     0
  0
CLASS
  1
AEC_DISP_REP_DOOR_ELEV
  2
AecDbDispRepDoorElev
  3
AecArchBase50|Product Desc: Autodesk Architectural Desktop 2007 |Company: Autodesk,Inc. |WEB Address: www.autodesk.com
 90
      129
280
     0
281
     0
  0
CLASS
  1
AEC_DISP_REP_DOOR_RCP
  2
AecDbDispRepDoorRcp
  3
AecArchBase50|Product Desc: Autodesk Architectural Desktop 2007 |Company: Autodesk,Inc. |WEB Address: www.autodesk.com
 90
      129
280
     0
281
     0
  0
CLASS
  1
AEC_DISP_REP_DOOR_THRESHOLD_PLAN
  2
AecDbDispRepDoorThresholdPlan
  3
AecArchBase50|Product Desc: Autodesk Architectural Desktop 2007 |Company: Autodesk,Inc. |WEB Address: www.autodesk.com
 90
      129
280
     0
281
     0
  0
CLASS
  1
AEC_DISP_PROPS_DOOR_THRESHOLD_PLAN
  2
AecDbDispPropsDoorThresholdPlan
  3
AecArchBase50|Product Desc: Autodesk Architectural Desktop 2007 |Company: Autodesk,Inc. |WEB Address: www.autodesk.com
 90
      129
280
     0
281
     0
  0
CLASS
  1
AEC_DISP_REP_MASS_ELEM_RCP
  2
AecDbDispRepMassElemRcp
  3
AecArchBase50|Product Desc: Autodesk Architectural Desktop 2007 |Company: Autodesk,Inc. |WEB Address: www.autodesk.com
 90
      129
280
     0
281
     0
  0
CLASS
  1
AEC_DISP_REP_MASS_GROUP_RCP
  2
AecDbDispRepMassGroupRcp
  3
AecArchBase50|Product Desc: Autodesk Architectural Desktop 2007 |Company: Autodesk,Inc. |WEB Address: www.autodesk.com
 90
      129
280
     0
281
     0
  0
CLASS
  1
AEC_DISP_REP_MVBLOCK_REF_RCP
  2
AecDbDispRepMvBlockRefRcp
  3
AecArchBase50|Product Desc: Autodesk Architectural Desktop 2007 |Company: Autodesk,Inc. |WEB Address: www.autodesk.com
 90
      129
280
     0
281
     0
  0
CLASS
  1
AEC_DISP_REP_ROOF_RCP
  2
AecDbDispRepRoofRcp
  3
AecArchBase50|Product Desc: Autodesk Architectural Desktop 2007 |Company: Autodesk,Inc. |WEB Address: www.autodesk.com
 90
      129
280
     0
281
     0
  0
CLASS
  1
AEC_DISP_REP_SPACE_BOUNDARY_DIAGRAM
  2
AecDbDispRepSpaceBoundaryDgrm
  3
AecArchBase50|Product Desc: Autodesk Architectural Desktop 2007 |Company: Autodesk,Inc. |WEB Address: www.autodesk.com
 90
    32897
280
     0
281
     0
  0
CLASS
  1
AEC_DISP_REP_SPACE_RCP
  2
AecDbDispRepSpaceRcp
  3
AecArchBase50|Product Desc: Autodesk Architectural Desktop 2007 |Company: Autodesk,Inc. |WEB Address: www.autodesk.com
 90
      129
280
     0
281
     0
  0
CLASS
  1
AEC_DISP_REP_SPACE_VOLUME
  2
AecDbDispRepSpaceVolume
  3
AecArchBase50|Product Desc: Autodesk Architectural Desktop 2007 |Company: Autodesk,Inc. |WEB Address: www.autodesk.com
 90
      129
280
     0
281
     0
  0
CLASS
  1
AEC_DISP_REP_STAIR_PLAN_OVERLAPPING
  2
AecDbDispRepStairPlanOverlapping
  3
AecArchBase50|Product Desc: Autodesk Architectural Desktop 2007 |Company: Autodesk,Inc. |WEB Address: www.autodesk.com
 90
      129
280
     0
281
     0
  0
CLASS
  1
AEC_DISP_PROPS_STAIR_PLAN_OVERLAPPING
  2
AecDbDispPropsStairPlanOverlapping
  3
AecArchBase50|Product Desc: Autodesk Architectural Desktop 2007 |Company: Autodesk,Inc. |WEB Address: www.autodesk.com
 90
      129
280
     0
281
     0
  0
CLASS
  1
AEC_DISP_REP_STAIR_RCP
  2
AecDbDispRepStairRcp
  3
AecArchBase50|Product Desc: Autodesk Architectural Desktop 2007 |Company: Autodesk,Inc. |WEB Address: www.autodesk.com
 90
      129
280
     0
281
     0
  0
CLASS
  1
AEC_DISP_REP_WALL_RCP
  2
AecDbDispRepWallRcp
  3
AecArchBase50|Product Desc: Autodesk Architectural Desktop 2007 |Company: Autodesk,Inc. |WEB Address: www.autodesk.com
 90
      129
280
     0
281
     0
  0
CLASS
  1
AEC_DISP_REP_WINDOWASSEMBLY_SILL_PLAN
  2
AecDbDispRepWindowAssemblySillPlan
  3
AecArchBase50|Product Desc: Autodesk Architectural Desktop 2007 |Company: Autodesk,Inc. |WEB Address: www.autodesk.com
 90
      129
280
     0
281
     0
  0
CLASS
  1
AEC_DISP_PROPS_WINDOW_ASSEMBLY_SILL_PLAN
  2
AecDbDispPropsWindowAssemblySillPlan
  3
AecArchBase50|Product Desc: Autodesk Architectural Desktop 2007 |Company: Autodesk,Inc. |WEB Address: www.autodesk.com
 90
      129
280
     0
281
     0
  0
CLASS
  1
AEC_DISP_REP_WINDOW_ELEV
  2
AecDbDispRepWindowElev
  3
AecArchBase50|Product Desc: Autodesk Architectural Desktop 2007 |Company: Autodesk,Inc. |WEB Address: www.autodesk.com
 90
      129
280
     0
281
     0
  0
CLASS
  1
AEC_DISP_REP_WINDOW_RCP
  2
AecDbDispRepWindowRcp
  3
AecArchBase50|Product Desc: Autodesk Architectural Desktop 2007 |Company: Autodesk,Inc. |WEB Address: www.autodesk.com
 90
      129
280
     0
281
     0
  0
CLASS
  1
AEC_DISP_REP_WINDOW_SILL_PLAN
  2
AecDbDispRepWindowSillPlan
  3
AecArchBase50|Product Desc: Autodesk Architectural Desktop 2007 |Company: Autodesk,Inc. |WEB Address: www.autodesk.com
 90
      129
280
     0
281
     0
  0
CLASS
  1
AEC_DISP_PROPS_WINDOW_SILL_PLAN
  2
AecDbDispPropsWindowSillPlan
  3
AecArchBase50|Product Desc: Autodesk Architectural Desktop 2007 |Company: Autodesk,Inc. |WEB Address: www.autodesk.com
 90
      129
280
     0
281
     0
  0
CLASS
  1
AEC_DISP_REP_ANCHOR_BUB_TO_GRID_RCP
  2
AecDbDispRepAnchorBubToGridRcp
  3
AecStructureBase50|Product Desc: Autodesk Architectural Desktop 2007 |Company: Autodesk,Inc. |WEB Address: www.autodesk.com
 90
      129
280
     0
281
     0
  0
CLASS
  1
AEC_DISP_REP_COLUMN_GRID_RCP
  2
AecDbDispRepColumnGridRcp
  3
AecStructureBase50|Product Desc: Autodesk Architectural Desktop 2007 |Company: Autodesk,Inc. |WEB Address: www.autodesk.com
 90
      129
280
     0
281
     0
  0
CLASS
  1
AECS_DISP_REP_MEMBER_ELEVATION_DESIGN
  2
AecsDbDispRepMemberElevationDesign
  3
AecStructureBase50|Product Desc: Autodesk Architectural Desktop 2007 |Company: Autodesk,Inc. |WEB Address: www.autodesk.com
 90
      129
280
     0
281
     0
  0
CLASS
  1
AECS_DISP_PROPS_MEMBER_PROJECTED
  2
AecsDbDispPropsMemberProjected
  3
AecStructureBase50|Product Desc: Autodesk Architectural Desktop 2007 |Company: Autodesk,Inc. |WEB Address: www.autodesk.com
 90
      129
280
     0
281
     0
  0
CLASS
  1
AECS_DISP_REP_MEMBER_ELEVATION_DETAIL
  2
AecsDbDispRepMemberElevationDetail
  3
AecStructureBase50|Product Desc: Autodesk Architectural Desktop 2007 |Company: Autodesk,Inc. |WEB Address: www.autodesk.com
 90
      129
280
     0
281
     0
  0
CLASS
  1
AECS_DISP_REP_MEMBER_MODEL_DETAIL
  2
AecsDbDispRepMemberModelDetail
  3
AecStructureBase50|Product Desc: Autodesk Architectural Desktop 2007 |Company: Autodesk,Inc. |WEB Address: www.autodesk.com
 90
      129
280
     0
281
     0
  0
CLASS
  1
AECS_DISP_REP_MEMBER_PLAN_DETAIL
  2
AecsDbDispRepMemberPlanDetail
  3
AecStructureBase50|Product Desc: Autodesk Architectural Desktop 2007 |Company: Autodesk,Inc. |WEB Address: www.autodesk.com
 90
      129
280
     0
281
     0
  0
CLASS
  1
AECS_DISP_REP_MEMBER_PLAN_SKETCH
  2
AecsDbDispRepMemberPlanSketch
  3
AecStructureBase50|Product Desc: Autodesk Architectural Desktop 2007 |Company: Autodesk,Inc. |WEB Address: www.autodesk.com
 90
      129
280
     0
281
     0
  0
CLASS
  1
AECS_DISP_PROPS_MEMBER_PLAN_SKETCH
  2
AecsDbDispPropsMemberPlanSketch
  3
AecStructureBase50|Product Desc: Autodesk Architectural Desktop 2007 |Company: Autodesk,Inc. |WEB Address: www.autodesk.com
 90
      129
280
     0
281
     0
  0
CLASS
  1
AEC_AECDBDISPREPAREA100
  2
AecDbDispRepArea100
  3
AecArchDACHBase50|Product Desc: Autodesk Architectural Desktop 2007 |Company: Autodesk,Inc. |WEB Address: www.autodesk.com
 90
    32897
280
     0
281
     0
  0
CLASS
  1
AEC_AECDBDISPREPAREAGROUP100
  2
AecDbDispRepAreaGroup100
  3
AecArchDACHBase50|Product Desc: Autodesk Architectural Desktop 2007 |Company: Autodesk,Inc. |WEB Address: www.autodesk.com
 90
    32897
280
     0
281
     0
  0
CLASS
  1
AEC_AECDBDISPREPBDGELEVLINEPLAN100
  2
AecDbDispRepBdgElevLinePlan100
  3
AecArchDACHBase50|Product Desc: Autodesk Architectural Desktop 2007 |Company: Autodesk,Inc. |WEB Address: www.autodesk.com
 90
      129
280
     0
281
     0
  0
CLASS
  1
AEC_AECDBDISPREPBDGSECTIONLINEPLAN100
  2
AecDbDispRepBdgSectionLinePlan100
  3
AecArchDACHBase50|Product Desc: Autodesk Architectural Desktop 2007 |Company: Autodesk,Inc. |WEB Address: www.autodesk.com
 90
      129
280
     0
281
     0
  0
CLASS
  1
AEC_AECDBDISPREPCEILINGGRIDPLAN100
  2
AecDbDispRepCeilingGridPlan100
  3
AecArchDACHBase50|Product Desc: Autodesk Architectural Desktop 2007 |Company: Autodesk,Inc. |WEB Address: www.autodesk.com
 90
      129
280
     0
281
     0
  0
CLASS
  1
AEC_AECDBDISPREPCOLUMNGRIDPLAN100
  2
AecDbDispRepColumnGridPlan100
  3
AecArchDACHBase50|Product Desc: Autodesk Architectural Desktop 2007 |Company: Autodesk,Inc. |WEB Address: www.autodesk.com
 90
      129
280
     0
281
     0
  0
CLASS
  1
AEC_AECDBDISPREPCURTAINWALLLAYOUTPLAN100
  2
AecDbDispRepCurtainWallLayoutPlan100
  3
AecArchDACHBase50|Product Desc: Autodesk Architectural Desktop 2007 |Company: Autodesk,Inc. |WEB Address: www.autodesk.com
 90
      129
280
     0
281
     0
  0
CLASS
  1
AEC_AECDBDISPREPCURTAINWALLUNITPLAN100
  2
AecDbDispRepCurtainWallUnitPlan100
  3
AecArchDACHBase50|Product Desc: Autodesk Architectural Desktop 2007 |Company: Autodesk,Inc. |WEB Address: www.autodesk.com
 90
      129
280
     0
281
     0
  0
CLASS
  1
AEC_AECDBDISPREPMVBLOCKREFPLAN100
  2
AecDbDispRepMvBlockRefPlan100
  3
AecArchDACHBase50|Product Desc: Autodesk Architectural Desktop 2007 |Company: Autodesk,Inc. |WEB Address: www.autodesk.com
 90
      129
280
     0
281
     0
  0
CLASS
  1
AEC_AECDBDISPREPROOFPLAN100
  2
AecDbDispRepRoofPlan100
  3
AecArchDACHBase50|Product Desc: Autodesk Architectural Desktop 2007 |Company: Autodesk,Inc. |WEB Address: www.autodesk.com
 90
      129
280
     0
281
     0
  0
CLASS
  1
AEC_AECDBDISPREPROOFSLABPLAN100
  2
AecDbDispRepRoofSlabPlan100
  3
AecArchDACHBase50|Product Desc: Autodesk Architectural Desktop 2007 |Company: Autodesk,Inc. |WEB Address: www.autodesk.com
 90
      129
280
     0
281
     0
  0
CLASS
  1
AEC_AECDBDISPREPSLABPLAN100
  2
AecDbDispRepSlabPlan100
  3
AecArchDACHBase50|Product Desc: Autodesk Architectural Desktop 2007 |Company: Autodesk,Inc. |WEB Address: www.autodesk.com
 90
      129
280
     0
281
     0
  0
CLASS
  1
AEC_AECDBDISPREPSPACEBOUNDARYPLAN100
  2
AecDbDispRepSpaceBoundaryPlan100
  3
AecArchDACHBase50|Product Desc: Autodesk Architectural Desktop 2007 |Company: Autodesk,Inc. |WEB Address: www.autodesk.com
 90
    32897
280
     0
281
     0
  0
CLASS
  1
AEC_AECDBDISPREPSPACEPLAN100
  2
AecDbDispRepSpacePlan100
  3
AecArchDACHBase50|Product Desc: Autodesk Architectural Desktop 2007 |Company: Autodesk,Inc. |WEB Address: www.autodesk.com
 90
      129
280
     0
281
     0
  0
CLASS
  1
AEC_AECDBDISPREPWALLPLAN100
  2
AecDbDispRepWallPlan100
  3
AecArchDACHBase50|Product Desc: Autodesk Architectural Desktop 2007 |Company: Autodesk,Inc. |WEB Address: www.autodesk.com
 90
      129
280
     0
281
     0
  0
CLASS
  1
AEC_AECDBDISPREPAREA50
  2
AecDbDispRepArea50
  3
AecArchDACHBase50|Product Desc: Autodesk Architectural Desktop 2007 |Company: Autodesk,Inc. |WEB Address: www.autodesk.com
 90
    32897
280
     0
281
     0
  0
CLASS
  1
AEC_AECDBDISPREPAREAGROUP50
  2
AecDbDispRepAreaGroup50
  3
AecArchDACHBase50|Product Desc: Autodesk Architectural Desktop 2007 |Company: Autodesk,Inc. |WEB Address: www.autodesk.com
 90
    32897
280
     0
281
     0
  0
CLASS
  1
AEC_AECDBDISPREPBDGELEVLINEPLAN50
  2
AecDbDispRepBdgElevLinePlan50
  3
AecArchDACHBase50|Product Desc: Autodesk Architectural Desktop 2007 |Company: Autodesk,Inc. |WEB Address: www.autodesk.com
 90
      129
280
     0
281
     0
  0
CLASS
  1
AEC_AECDBDISPREPBDGSECTIONLINEPLAN50
  2
AecDbDispRepBdgSectionLinePlan50
  3
AecArchDACHBase50|Product Desc: Autodesk Architectural Desktop 2007 |Company: Autodesk,Inc. |WEB Address: www.autodesk.com
 90
      129
280
     0
281
     0
  0
CLASS
  1
AEC_AECDBDISPREPCEILINGGRIDPLAN50
  2
AecDbDispRepCeilingGridPlan50
  3
AecArchDACHBase50|Product Desc: Autodesk Architectural Desktop 2007 |Company: Autodesk,Inc. |WEB Address: www.autodesk.com
 90
      129
280
     0
281
     0
  0
CLASS
  1
AEC_AECDBDISPREPCOLUMNGRIDPLAN50
  2
AecDbDispRepColumnGridPlan50
  3
AecArchDACHBase50|Product Desc: Autodesk Architectural Desktop 2007 |Company: Autodesk,Inc. |WEB Address: www.autodesk.com
 90
      129
280
     0
281
     0
  0
CLASS
  1
AEC_AECDBDISPREPCURTAINWALLLAYOUTPLAN50
  2
AecDbDispRepCurtainWallLayoutPlan50
  3
AecArchDACHBase50|Product Desc: Autodesk Architectural Desktop 2007 |Company: Autodesk,Inc. |WEB Address: www.autodesk.com
 90
      129
280
     0
281
     0
  0
CLASS
  1
AEC_AECDBDISPREPCURTAINWALLUNITPLAN50
  2
AecDbDispRepCurtainWallUnitPlan50
  3
AecArchDACHBase50|Product Desc: Autodesk Architectural Desktop 2007 |Company: Autodesk,Inc. |WEB Address: www.autodesk.com
 90
      129
280
     0
281
     0
  0
CLASS
  1
AEC_AECDBDISPREPMVBLOCKREFPLAN50
  2
AecDbDispRepMvBlockRefPlan50
  3
AecArchDACHBase50|Product Desc: Autodesk Architectural Desktop 2007 |Company: Autodesk,Inc. |WEB Address: www.autodesk.com
 90
      129
280
     0
281
     0
  0
CLASS
  1
AEC_AECDBDISPREPROOFPLAN50
  2
AecDbDispRepRoofPlan50
  3
AecArchDACHBase50|Product Desc: Autodesk Architectural Desktop 2007 |Company: Autodesk,Inc. |WEB Address: www.autodesk.com
 90
      129
280
     0
281
     0
  0
CLASS
  1
AEC_AECDBDISPREPROOFSLABPLAN50
  2
AecDbDispRepRoofSlabPlan50
  3
AecArchDACHBase50|Product Desc: Autodesk Architectural Desktop 2007 |Company: Autodesk,Inc. |WEB Address: www.autodesk.com
 90
      129
280
     0
281
     0
  0
CLASS
  1
AEC_AECDBDISPREPSLABPLAN50
  2
AecDbDispRepSlabPlan50
  3
AecArchDACHBase50|Product Desc: Autodesk Architectural Desktop 2007 |Company: Autodesk,Inc. |WEB Address: www.autodesk.com
 90
      129
280
     0
281
     0
  0
CLASS
  1
AEC_AECDBDISPREPSPACEBOUNDARYPLAN50
  2
AecDbDispRepSpaceBoundaryPlan50
  3
AecArchDACHBase50|Product Desc: Autodesk Architectural Desktop 2007 |Company: Autodesk,Inc. |WEB Address: www.autodesk.com
 90
    32897
280
     0
281
     0
  0
CLASS
  1
AEC_AECDBDISPREPSPACEPLAN50
  2
AecDbDispRepSpacePlan50
  3
AecArchDACHBase50|Product Desc: Autodesk Architectural Desktop 2007 |Company: Autodesk,Inc. |WEB Address: www.autodesk.com
 90
      129
280
     0
281
     0
  0
CLASS
  1
AEC_AECDBDISPREPWALLPLAN50
  2
AecDbDispRepWallPlan50
  3
AecArchDACHBase50|Product Desc: Autodesk Architectural Desktop 2007 |Company: Autodesk,Inc. |WEB Address: www.autodesk.com
 90
      129
280
     0
281
     0
  0
CLASS
  1
AEC_AECDBDISPREPWINDOWASSEMBLYPLAN50
  2
AecDbDispRepWindowAssemblyPlan50
  3
AecArchDACHBase50|Product Desc: Autodesk Architectural Desktop 2007 |Company: Autodesk,Inc. |WEB Address: www.autodesk.com
 90
      129
280
     0
281
     0
  0
CLASS
  1
AEC_DB_DISP_REP_DIM_GROUP_PLAN100
  2
AecDbDispRepDimGroupPlan100
  3
AecArchDACHBase50|Product Desc: Autodesk Architectural Desktop 2007 |Company: Autodesk,Inc. |WEB Address: www.autodesk.com
 90
      129
280
     0
281
     0
  0
CLASS
  1
AEC_DB_DISP_REP_DIM_GROUP_PLAN50
  2
AecDbDispRepDimGroupPlan50
  3
AecArchDACHBase50|Product Desc: Autodesk Architectural Desktop 2007 |Company: Autodesk,Inc. |WEB Address: www.autodesk.com
 90
      129
280
     0
281
     0
  0
CLASS
  1
AEC_DISP_REP_DOOR_PLAN_50
  2
AecDbDispRepDoorPlan50
  3
AecArchDACHBase50|Product Desc: Autodesk Architectural Desktop 2007 |Company: Autodesk,Inc. |WEB Address: www.autodesk.com
 90
      129
280
     0
281
     0
  0
CLASS
  1
AEC_DISP_PROPS_DOOR_PLAN_50
  2
AecDbDispPropsDoorPlan50
  3
AecArchDACHBase50|Product Desc: Autodesk Architectural Desktop 2007 |Company: Autodesk,Inc. |WEB Address: www.autodesk.com
 90
      129
280
     0
281
     0
  0
CLASS
  1
AEC_DISP_REP_DOOR_PLAN_HEKTO
  2
AecDbDispRepDoorPlanHekto
  3
AecArchDACHBase50|Product Desc: Autodesk Architectural Desktop 2007 |Company: Autodesk,Inc. |WEB Address: www.autodesk.com
 90
      129
280
     0
281
     0
  0
CLASS
  1
AEC_DISP_PROPS_DOOR_PLAN_100
  2
AecDbDispPropsDoorPlan100
  3
AecArchDACHBase50|Product Desc: Autodesk Architectural Desktop 2007 |Company: Autodesk,Inc. |WEB Address: www.autodesk.com
 90
      129
280
     0
281
     0
  0
CLASS
  1
AEC_DISP_REP_DOOR_THRESHOLD_SYMBOL_PLAN
  2
AecDbDispRepDoorThresholdSymbolPlan
  3
AecArchDACHBase50|Product Desc: Autodesk Architectural Desktop 2007 |Company: Autodesk,Inc. |WEB Address: www.autodesk.com
 90
      129
280
     0
281
     0
  0
CLASS
  1
AEC_DISP_PROPS_DOOR_THRESHOLD_SYMBOL_PLAN
  2
AecDbDispPropsDoorThresholdSymbolPlan
  3
AecArchDACHBase50|Product Desc: Autodesk Architectural Desktop 2007 |Company: Autodesk,Inc. |WEB Address: www.autodesk.com
 90
      129
280
     0
281
     0
  0
CLASS
  1
AEC_DISPREPAECDBDISPREPMASSELEMPLAN100
  2
AecDbDispRepMassElemPlan100
  3
AecArchDACHBase50|Product Desc: Autodesk Architectural Desktop 2007 |Company: Autodesk,Inc. |WEB Address: www.autodesk.com
 90
      129
280
     0
281
     0
  0
CLASS
  1
AEC_DISPROPSMASSELEMPLANCOMMON
  2
AecDbDispPropsMassElemPlanCommon
  3
AecArchDACHBase50|Product Desc: Autodesk Architectural Desktop 2007 |Company: Autodesk,Inc. |WEB Address: www.autodesk.com
 90
      129
280
     0
281
     0
  0
CLASS
  1
AEC_DISPREPAECDBDISPREPMASSELEMPLAN50
  2
AecDbDispRepMassElemPlan50
  3
AecArchDACHBase50|Product Desc: Autodesk Architectural Desktop 2007 |Company: Autodesk,Inc. |WEB Address: www.autodesk.com
 90
      129
280
     0
281
     0
  0
CLASS
  1
AEC_DISPREPAECDBDISPREPMASSGROUPPLAN100
  2
AecDbDispRepMassGroupPlan100
  3
AecArchDACHBase50|Product Desc: Autodesk Architectural Desktop 2007 |Company: Autodesk,Inc. |WEB Address: www.autodesk.com
 90
      129
280
     0
281
     0
  0
CLASS
  1
AEC_DISPROPSMASSGROUPPLANCOMMON
  2
AecDbDispPropsMassGroupPlanCommon
  3
AecArchDACHBase50|Product Desc: Autodesk Architectural Desktop 2007 |Company: Autodesk,Inc. |WEB Address: www.autodesk.com
 90
      129
280
     0
281
     0
  0
CLASS
  1
AEC_DISPREPAECDBDISPREPMASSGROUPPLAN50
  2
AecDbDispRepMassGroupPlan50
  3
AecArchDACHBase50|Product Desc: Autodesk Architectural Desktop 2007 |Company: Autodesk,Inc. |WEB Address: www.autodesk.com
 90
      129
280
     0
281
     0
  0
CLASS
  1
AEC_DISPREPAECDBDISPREPOPENINGPLAN100
  2
AecDbDispRepOpeningPlan100
  3
AecArchDACHBase50|Product Desc: Autodesk Architectural Desktop 2007 |Company: Autodesk,Inc. |WEB Address: www.autodesk.com
 90
      129
280
     0
281
     0
  0
CLASS
  1
AEC_DISPROPSOPENINGPLANCOMMONHATCHED
  2
AecDbDispPropsOpeningPlanCommonHatched
  3
AecArchDACHBase50|Product Desc: Autodesk Architectural Desktop 2007 |Company: Autodesk,Inc. |WEB Address: www.autodesk.com
 90
      129
280
     0
281
     0
  0
CLASS
  1
AEC_DISPREPAECDBDISPREPOPENINGPLAN50
  2
AecDbDispRepOpeningPlan50
  3
AecArchDACHBase50|Product Desc: Autodesk Architectural Desktop 2007 |Company: Autodesk,Inc. |WEB Address: www.autodesk.com
 90
      129
280
     0
281
     0
  0
CLASS
  1
AEC_DISPREPAECDBDISPREPOPENINGPLANREFLECTED
  2
AecDbDispRepOpeningPlanReflected
  3
AecArchDACHBase50|Product Desc: Autodesk Architectural Desktop 2007 |Company: Autodesk,Inc. |WEB Address: www.autodesk.com
 90
      129
280
     0
281
     0
  0
CLASS
  1
AEC_DISPROPSOPENINGPLANCOMMON
  2
AecDbDispPropsOpeningPlanCommon
  3
AecArchDACHBase50|Product Desc: Autodesk Architectural Desktop 2007 |Company: Autodesk,Inc. |WEB Address: www.autodesk.com
 90
      129
280
     0
281
     0
  0
CLASS
  1
AEC_DISPREPAECDBDISPREPOPENINGSILLPLAN
  2
AecDbDispRepOpeningSillPlan
  3
AecArchDACHBase50|Product Desc: Autodesk Architectural Desktop 2007 |Company: Autodesk,Inc. |WEB Address: www.autodesk.com
 90
      129
280
     0
281
     0
  0
CLASS
  1
AEC_DISPROPSOPENINGSILLPLAN
  2
AecDbDispPropsOpeningSillPlan
  3
AecArchDACHBase50|Product Desc: Autodesk Architectural Desktop 2007 |Company: Autodesk,Inc. |WEB Address: www.autodesk.com
 90
      129
280
     0
281
     0
  0
CLASS
  1
AEC_DISP_REP_RAILING_PLAN_100
  2
AecDbDispRepRailingPlan100
  3
AecArchDACHBase50|Product Desc: Autodesk Architectural Desktop 2007 |Company: Autodesk,Inc. |WEB Address: www.autodesk.com
 90
      129
280
     0
281
     0
  0
CLASS
  1
AEC_DISP_ROPS_RAILING_PLAN_100
  2
AecDbDispPropsRailingPlan100
  3
AecArchDACHBase50|Product Desc: Autodesk Architectural Desktop 2007 |Company: Autodesk,Inc. |WEB Address: www.autodesk.com
 90
      129
280
     0
281
     0
  0
CLASS
  1
AEC_DISP_REP_RAILING_PLAN_50
  2
AecDbDispRepRailingPlan50
  3
AecArchDACHBase50|Product Desc: Autodesk Architectural Desktop 2007 |Company: Autodesk,Inc. |WEB Address: www.autodesk.com
 90
      129
280
     0
281
     0
  0
CLASS
  1
AEC_DISP_ROPS_RAILING_PLAN_50
  2
AecDbDispPropsRailingPlan50
  3
AecArchDACHBase50|Product Desc: Autodesk Architectural Desktop 2007 |Company: Autodesk,Inc. |WEB Address: www.autodesk.com
 90
      129
280
     0
281
     0
  0
CLASS
  1
AEC_DISP_REP_STAIR_PLAN_100
  2
AecDbDispRepStairPlan100
  3
AecArchDACHBase50|Product Desc: Autodesk Architectural Desktop 2007 |Company: Autodesk,Inc. |WEB Address: www.autodesk.com
 90
      129
280
     0
281
     0
  0
CLASS
  1
AEC_DISP_ROPS_STAIR_PLAN_100
  2
AecDbDispPropsStairPlan100
  3
AecArchDACHBase50|Product Desc: Autodesk Architectural Desktop 2007 |Company: Autodesk,Inc. |WEB Address: www.autodesk.com
 90
      129
280
     0
281
     0
  0
CLASS
  1
AEC_DISP_REP_STAIR_PLAN_50
  2
AecDbDispRepStairPlan50
  3
AecArchDACHBase50|Product Desc: Autodesk Architectural Desktop 2007 |Company: Autodesk,Inc. |WEB Address: www.autodesk.com
 90
      129
280
     0
281
     0
  0
CLASS
  1
AEC_DISP_ROPS_STAIR_PLAN_50
  2
AecDbDispPropsStairPlan50
  3
AecArchDACHBase50|Product Desc: Autodesk Architectural Desktop 2007 |Company: Autodesk,Inc. |WEB Address: www.autodesk.com
 90
      129
280
     0
281
     0
  0
CLASS
  1
AEC_DISP_REP_WINDOW_PLAN_100
  2
AecDbDispRepWindowPlan100
  3
AecArchDACHBase50|Product Desc: Autodesk Architectural Desktop 2007 |Company: Autodesk,Inc. |WEB Address: www.autodesk.com
 90
      129
280
     0
281
     0
  0
CLASS
  1
AEC_DISP_PROPS_WINDOW_PLAN_100
  2
AecDbDispPropsWindowPlan100
  3
AecArchDACHBase50|Product Desc: Autodesk Architectural Desktop 2007 |Company: Autodesk,Inc. |WEB Address: www.autodesk.com
 90
      129
280
     0
281
     0
  0
CLASS
  1
AEC_DISP_REP_WINDOW_PLAN_50
  2
AecDbDispRepWindowPlan50
  3
AecArchDACHBase50|Product Desc: Autodesk Architectural Desktop 2007 |Company: Autodesk,Inc. |WEB Address: www.autodesk.com
 90
      129
280
     0
281
     0
  0
CLASS
  1
AEC_DISP_PROPS_WINDOW_PLAN_50
  2
AecDbDispPropsWindowPlan50
  3
AecArchDACHBase50|Product Desc: Autodesk Architectural Desktop 2007 |Company: Autodesk,Inc. |WEB Address: www.autodesk.com
 90
      129
280
     0
281
     0
  0
CLASS
  1
BINRECORD
  2
AcAecBinRecord
  3
AecBase50|Product Desc: Autodesk Architectural Desktop 2007 |Company: Autodesk,Inc. |WEB Address: www.autodesk.com
 90
      129
280
     0
281
     0
  0
CLASS
  1
SPATIAL_FILTER
  2
AcDbSpatialFilter
  3
ObjectDBX Classes
 90
    32768
280
     0
281
     0
  0
CLASS
  1
AEC_VARS_STRUCTUREBASE
  2
AecsDbVarsStructureBase
  3
AecStructureBase50|Product Desc: Autodesk Architectural Desktop 2007 |Company: Autodesk,Inc. |WEB Address: www.autodesk.com
 90
    32897
280
     0
281
     0
  0
CLASS
  1
DIMASSOC
  2
AcDbDimAssoc
  3
"AcDbDimAssoc|Product Desc:     AcDim ARX App For Dimension|Company:          Autodesk, Inc.|WEB Address:      www.autodesk.com"
 90
    32768
280
     0
281
     0
  0
CLASS
  1
TABLESTYLE
  2
AcDbTableStyle
  3
ObjectDBX Classes
 90
     4095
280
     0
281
     0
  0
CLASS
  1
MATERIAL
  2
AcDbMaterial
  3
ObjectDBX Classes
 90
     1153
280
     0
281
     0
  0
CLASS
  1
VISUALSTYLE
  2
AcDbVisualStyle
  3
ObjectDBX Classes
 90
     4095
280
     0
281
     0
  0
CLASS
  1
EXACXREFPANELOBJECT
  2
ExAcXREFPanelObject
  3
EXAC_ESW
 90
     1025
280
     0
281
     0
  0
CLASS
  1
NPOCOLLECTION
  2
AcDbImpNonPersistentObjectsCollection
  3
ObjectDBX Classes
 90
     1153
280
     0
281
     0
  0
CLASS
  1
AEC_AECDBDISPREPZONE100
  2
AecDbDispRepZonePlan100
  3
AecArchDACHBase50|Product Desc: Autodesk Architectural Desktop 2007 |Company: Autodesk,Inc. |WEB Address: www.autodesk.com
 90
      129
280
     0
281
     0
  0
CLASS
  1
AEC_DISP_PROPS_ZONE
  2
AecDbDispPropsZone
  3
AecArchBase50|Product Desc: Autodesk Architectural Desktop 2007 |Company: Autodesk,Inc. |WEB Address: www.autodesk.com
 90
      129
280
     0
281
     0
  0
CLASS
  1
AEC_AECDBDISPREPZONE50
  2
AecDbDispRepZonePlan50
  3
AecArchDACHBase50|Product Desc: Autodesk Architectural Desktop 2007 |Company: Autodesk,Inc. |WEB Address: www.autodesk.com
 90
      129
280
     0
281
     0
  0
CLASS
  1
AEC_DISP_REP_DISPLAYTHEME
  2
AecDbDispRepDisplayTheme
  3
AecBase50|Product Desc: Autodesk Architectural Desktop 2007 |Company: Autodesk,Inc. |WEB Address: www.autodesk.com
 90
      129
280
     0
281
     0
  0
CLASS
  1
AEC_DISP_PROPS_DISPLAYTHEME
  2
AecDbDispPropsDisplayTheme
  3
AecBase50|Product Desc: Autodesk Architectural Desktop 2007 |Company: Autodesk,Inc. |WEB Address: www.autodesk.com
 90
      129
280
     0
281
     0
  0
CLASS
  1
AEC_DISP_REP_ANCHOR_EXT_TAG_TO_ENT
  2
AecDbDispRepAnchorExtendedTagToEnt
  3
AecScheduleData50|Product Desc: Autodesk Architectural Desktop 2007 |Company: Autodesk,Inc. |WEB Address: www.autodesk.com
 90
      129
280
     0
281
     0
  0
CLASS
  1
AEC_DISP_REP_SPACE_DECOMPOSED
  2
AecDbDispRepSpaceDecomposed
  3
AecArchBase50|Product Desc: Autodesk Architectural Desktop 2007 |Company: Autodesk,Inc. |WEB Address: www.autodesk.com
 90
      129
280
     0
281
     0
  0
CLASS
  1
AEC_DISP_PROPS_SPACE_DECOMPOSED
  2
AecDbDispPropsSpaceDecomposed
  3
AecArchBase50|Product Desc: Autodesk Architectural Desktop 2007 |Company: Autodesk,Inc. |WEB Address: www.autodesk.com
 90
      129
280
     0
281
     0
  0
CLASS
  1
AEC_DISP_REP_ZONE
  2
AecDbDispRepZone
  3
AecArchBase50|Product Desc: Autodesk Architectural Desktop 2007 |Company: Autodesk,Inc. |WEB Address: www.autodesk.com
 90
      129
280
     0
281
     0
  0
CLASS
  1
ACAD_EVALUATION_GRAPH
  2
AcDbEvalGraph
  3
ObjectDBX Classes
 90
    33921
280
     0
281
     0
  0
CLASS
  1
BLOCKFLIPPARAMETER
  2
AcDbBlockFlipParameter
  3
ObjectDBX Classes
 90
    33921
280
     0
281
     0
  0
CLASS
  1
BLOCKFLIPGRIP
  2
AcDbBlockFlipGrip
  3
ObjectDBX Classes
 90
    33921
280
     0
281
     0
  0
CLASS
  1
BLOCKGRIPLOCATIONCOMPONENT
  2
AcDbBlockGripExpr
  3
ObjectDBX Classes
 90
    33921
280
     0
281
     0
  0
CLASS
  1
BLOCKFLIPACTION
  2
AcDbBlockFlipAction
  3
ObjectDBX Classes
 90
    33921
280
     0
281
     0
  0
CLASS
  1
BLOCKROTATIONPARAMETER
  2
AcDbBlockRotationParameter
  3
ObjectDBX Classes
 90
    33921
280
     0
281
     0
  0
CLASS
  1
BLOCKROTATIONGRIP
  2
AcDbBlockRotationGrip
  3
ObjectDBX Classes
 90
    33921
280
     0
281
     0
  0
CLASS
  1
BLOCKROTATEACTION
  2
AcDbBlockRotateAction
  3
ObjectDBX Classes
 90
    33921
280
     0
281
     0
  0
CLASS
  1
BLOCKBASEPOINTPARAMETER
  2
AcDbBlockBasepointParameter
  3
ObjectDBX Classes
 90
    33921
280
     0
281
     0
  0
CLASS
  1
ACDB_DYNAMICBLOCKPURGEPREVENTER_VERSION
  2
AcDbDynamicBlockPurgePreventer
  3
ObjectDBX Classes
 90
    33921
280
     0
281
     0
  0
CLASS
  1
ACDB_BLOCKREPRESENTATION_DATA
  2
AcDbBlockRepresentationData
  3
ObjectDBX Classes
 90
    33921
280
     0
281
     0
  0
CLASS
  1
SCALE
  2
AcDbScale
  3
ObjectDBX Classes
 90
     1153
280
     0
281
     0
  0
CLASS
  1
MLEADERSTYLE
  2
AcDbMLeaderStyle
  3
ACDB_MLEADERSTYLE_CLASS
 90
     4095
280
     0
281
     0
  0
CLASS
  1
CELLSTYLEMAP
  2
AcDbCellStyleMap
  3
ObjectDBX Classes
 90
     1152
280
     0
281
     0
  0
CLASS
  1
AEC_REFEDIT_STATUS_TRACKER
  2
AecDbRefEditStatusTracker
  3
AecArchBase50|Product Desc: Autodesk Architectural Desktop 2007 |Company: Autodesk,Inc. |WEB Address: www.autodesk.com
 90
      129
280
     0
281
     0
  0
ENDSEC
  0
SECTION
  2
TABLES
  0
TABLE
  2
VPORT
  5
1C
330
0
100
AcDbSymbolTable
 70
     1
  0
VPORT
  5
1728
330
1C
100
AcDbSymbolTableRecord
100
AcDbViewportTableRecord
  2
*Active
 70
     0
 10
0.0
 20
0.0
 11
1.0
 21
1.0
 12
221689.2440750855
 22
136896.44368845
 13
0.0
 23
0.0
 14
10.0
 24
10.0
 15
10.0
 25
10.0
 16
0.0
 26
0.0
 36
1.0
 17
0.0
 27
0.0
 37
0.0
 40
4917.236491796724
 41
1.78072625698324
 42
50.0
 43
0.0
 44
0.0
 50
0.0
 51
0.0
 71
     0
 72
  1000
 73
     1
 74
     1
 75
     0
 76
     0
 77
     0
 78
     0
281
     0
 65
     1
110
0.0
120
0.0
130
0.0
111
1.0
121
0.0
131
0.0
112
0.0
122
1.0
132
0.0
 79
     0
146
0.0
  0
ENDTAB
  0
TABLE
  2
LTYPE
  5
17
330
0
100
AcDbSymbolTable
 70
     2
  0
LTYPE
  5
18
330
17
100
AcDbSymbolTableRecord
100
AcDbLinetypeTableRecord
  2
ByBlock
 70
     0
  3

 72
    65
 73
     0
 40
0.0
  0
LTYPE
  5
19
330
17
100
AcDbSymbolTableRecord
100
AcDbLinetypeTableRecord
  2
ByLayer
 70
     0
  3

 72
    65
 73
     0
 40
0.0
  0
LTYPE
  5
8
330
17
100
AcDbSymbolTableRecord
100
AcDbLinetypeTableRecord
  2
Continuous
 70
     0
  3
Solid line
 72
    65
 73
     0
 40
0.0
  0
LTYPE
  5
158
330
17
100
AcDbSymbolTableRecord
100
AcDbLinetypeTableRecord
  2
HIDDEN
 70
     0
  3
Hidden __ __ __ __ __ __ __ __ __ __ __ __ __ _
 72
    65
 73
     2
 40
0.375
 49
0.25
 74
     0
 49
-0.125
 74
     0
  0
ENDTAB
  0
TABLE
  2
LAYER
  5
11
102
{ACAD_XDICTIONARY
360
12
102
}
330
0
100
AcDbSymbolTable
 70
     7
  0
LAYER
  5
4
102
{ACAD_XDICTIONARY
360
12E25
102
}
330
11
100
AcDbSymbolTableRecord
100
AcDbLayerTableRecord
  2
0
 70
     0
 62
     7
  6
Continuous
370
    -3
390
5
1001
RAK
1000
{ACET-LAYISO
1070
     0
1070
     7
1000
Continuous
1071
       -3
1071
        1
1005
5
1000
ACET-LAYISO}
  0
LAYER
  5
65
330
11
100
AcDbSymbolTableRecord
100
AcDbLayerTableRecord
  2
DEFPOINTS
 70
     0
 62
     7
  6
Continuous
290
     0
370
    -3
390
5
1001
RAK
1000
{ACET-LAYISO
1070
     0
1070
     7
1000
Continuous
1071
       -3
1071
        0
1005
5
1000
ACET-LAYISO}
  0
LAYER
  5
15E
102
{ACAD_XDICTIONARY
360
12E27
102
}
330
11
100
AcDbSymbolTableRecord
100
AcDbLayerTableRecord
  2
RAMKI-A4
 70
     0
 62
     2
  6
Continuous
290
     0
370
    -3
390
5
1001
RAK
1000
{ACET-LAYISO
1070
     0
1070
     2
1000
Continuous
1071
       -3
1071
        0
1005
5
1000
ACET-LAYISO}
  0
LAYER
  5
143
102
{ACAD_XDICTIONARY
360
12E2B
102
}
330
11
100
AcDbSymbolTableRecord
100
AcDbLayerTableRecord
  2
NAPISY
 70
     0
 62
   140
  6
Continuous
370
    -3
390
5
1001
RAK
1000
{ACET-LAYISO
1070
     0
1070
   140
1000
Continuous
1071
       -3
1071
        1
1005
5
1000
ACET-LAYISO}
  0
LAYER
  5
2081
102
{ACAD_XDICTIONARY
360
12E31
102
}
330
11
100
AcDbSymbolTableRecord
100
AcDbLayerTableRecord
  2
0Wymiary-PL
 70
     0
 62
     1
  6
Continuous
370
     5
390
5
  0
ENDTAB
  0
TABLE
  2
STYLE
  5
14
330
0
100
AcDbSymbolTable
 70
     4
  0
STYLE
  5
15
330
14
100
AcDbSymbolTableRecord
100
AcDbTextStyleTableRecord
  2
Standard
 70
     0
 40
0.0
 41
1.0
 50
0.0
 71
     0
 42
2.5
  3
txt
  4

  0
STYLE
  5
22
330
14
100
AcDbSymbolTableRecord
100
AcDbTextStyleTableRecord
  2
ROMANS
 70
     0
 40
0.0
 41
0.9
 50
0.0
 71
     0
 42
20.0
  3
romans.shx
  4

  0
STYLE
  5
144
330
14
100
AcDbSymbolTableRecord
100
AcDbTextStyleTableRecord
  2
AVA
 70
     0
 40
0.0
 41
1.0
 50
0.0
 71
     0
 42
158.5644099714409
  3
ARIAL.TTF
  4

1001
ACAD
1000
Arial CE
1071
    60962
  0
ENDTAB
  0
TABLE
  2
VIEW
  5
1A
330
0
100
AcDbSymbolTable
 70
     1
  0
VIEW
  5
C
330
1A
100
AcDbSymbolTableRecord
100
AcDbViewTableRecord
  2
RODODENDRON 5
 70
     0
 40
14020.0
 10
220287.1664355166
 20
148687.514558954
 41
10200.00000000003
 11
0.0
 21
0.0
 31
1.0
 12
0.0
 22
0.0
 32
0.0
 42
50.0
 43
0.0
 44
0.0
 50
0.0
 71
     0
281
     0
 72
     1
110
0.0
120
0.0
130
0.0
111
1.0
121
0.0
131
0.0
112
0.0
122
1.0
132
0.0
 79
     0
146
0.0
  0
ENDTAB
  0
TABLE
  2
UCS
  5
1B
330
0
100
AcDbSymbolTable
 70
     0
  0
ENDTAB
  0
TABLE
  2
APPID
  5
1E
330
0
100
AcDbSymbolTable
 70
    20
  0
APPID
  5
1F
330
1E
100
AcDbSymbolTableRecord
100
AcDbRegAppTableRecord
  2
ACAD
 70
     0
  0
APPID
  5
1E1
330
1E
100
AcDbSymbolTableRecord
100
AcDbRegAppTableRecord
  2
RAK
 70
     0
  0
APPID
  5
1E2
330
1E
100
AcDbSymbolTableRecord
100
AcDbRegAppTableRecord
  2
AcAecLayerStandard
 70
     0
  0
APPID
  5
A87
330
1E
100
AcDbSymbolTableRecord
100
AcDbRegAppTableRecord
  2
ACAD_PSEXT
 70
     0
  0
APPID
  5
C44
330
1E
100
AcDbSymbolTableRecord
100
AcDbRegAppTableRecord
  2
DCO15
 70
     0
  0
APPID
  5
1744
330
1E
100
AcDbSymbolTableRecord
100
AcDbRegAppTableRecord
  2
ACAD_EXEMPT_FROM_CAD_STANDARDS
 70
     0
  0
APPID
  5
1745
330
1E
100
AcDbSymbolTableRecord
100
AcDbRegAppTableRecord
  2
ACAD_DSTYLE_DIM_LINETYPE
 70
     0
  0
APPID
  5
1746
330
1E
100
AcDbSymbolTableRecord
100
AcDbRegAppTableRecord
  2
ACAD_DSTYLE_DIM_EXT1_LINETYPE
 70
     0
  0
APPID
  5
1747
330
1E
100
AcDbSymbolTableRecord
100
AcDbRegAppTableRecord
  2
ACAD_DSTYLE_DIM_EXT2_LINETYPE
 70
     0
  0
APPID
  5
1988
330
1E
100
AcDbSymbolTableRecord
100
AcDbRegAppTableRecord
  2
AcLayerTools
 70
     0
  0
APPID
  5
6A86
330
1E
100
AcDbSymbolTableRecord
100
AcDbRegAppTableRecord
  2
AcDbBlockRepETag
 70
     0
  0
APPID
  5
82FB
330
1E
100
AcDbSymbolTableRecord
100
AcDbRegAppTableRecord
  2
AECBASE
 70
     0
  0
APPID
  5
82FC
330
1E
100
AcDbSymbolTableRecord
100
AcDbRegAppTableRecord
  2
AEC_OBJVER_INFO
 70
     0
  0
APPID
  5
D8C8
330
1E
100
AcDbSymbolTableRecord
100
AcDbRegAppTableRecord
  2
AcDbDynamicBlockGUID
 70
     0
  0
APPID
  5
D8C9
330
1E
100
AcDbSymbolTableRecord
100
AcDbRegAppTableRecord
  2
CADZOOKSMATERIAL
 70
     0
  0
APPID
  5
EFA3
330
1E
100
AcDbSymbolTableRecord
100
AcDbRegAppTableRecord
  2
ACAUTHENVIRON
 70
     0
  0
APPID
  5
EFA4
330
1E
100
AcDbSymbolTableRecord
100
AcDbRegAppTableRecord
  2
AcDbDynamicBlockTrueName
 70
     0
  0
APPID
  5
EFA5
330
1E
100
AcDbSymbolTableRecord
100
AcDbRegAppTableRecord
  2
AcDbBlockRepBTag
 70
     0
  0
APPID
  5
EFA6
330
1E
100
AcDbSymbolTableRecord
100
AcDbRegAppTableRecord
  2
AEC_SCHEDULE_TAG
 70
     0
  0
APPID
  5
12E1D
330
1E
100
AcDbSymbolTableRecord
100
AcDbRegAppTableRecord
  2
ACAD_MLEADERVER
 70
     0
  0
ENDTAB
  0
TABLE
  2
DIMSTYLE
  5
20
330
0
100
AcDbSymbolTable
 70
     6
100
AcDbDimStyleTable
 71
     2
340
21
340
2B
  0
DIMSTYLE
105
21
102
{ACAD_REACTORS
330
13FA7
330
13FC8
330
13FD3
330
13FDE
330
13FEB
330
13FF6
330
14003
330
14431
330
14432
330
14433
330
14434
330
14435
330
14436
330
14437
102
}
330
20
100
AcDbSymbolTableRecord
100
AcDbDimStyleTableRecord
  2
500
 70
     0
 41
30.0
 42
43.0
 43
0.0
 44
13.0
 45
0.5
 46
12.0
 73
     0
 74
     0
 75
     1
 76
     1
 78
    12
140
80.0
141
0.0
145
1.0
147
0.0
172
     1
174
     1
176
     1
177
     1
178
    10
271
     1
272
     1
279
     2
340
22
341
23
342
23
  0
DIMSTYLE
105
2B
330
20
100
AcDbSymbolTableRecord
100
AcDbDimStyleTableRecord
  2
Standard
 70
     0
340
15
  0
ENDTAB
  0
TABLE
  2
BLOCK_RECORD
  5
1
330
0
100
AcDbSymbolTable
 70
    27
  0
BLOCK_RECORD
  5
2
102
{ACAD_XDICTIONARY
360
1FEF
102
}
330
1
100
AcDbSymbolTableRecord
100
AcDbBlockTableRecord
  2
*Model_Space
340
A
  0
BLOCK_RECORD
  5
D
330
1
100
AcDbSymbolTableRecord
100
AcDbBlockTableRecord
  2
*Paper_Space
340
10
  0
BLOCK_RECORD
  5
23
102
{ACAD_XDICTIONARY
360
24
102
}
330
1
100
AcDbSymbolTableRecord
100
AcDbBlockTableRecord
  2
B-DIM
340
0
102
{BLKREFS
331
14024
331
14025
331
1402B
331
1402C
331
14054
331
14055
331
1405B
331
1405C
331
14064
331
14065
331
1406B
331
1406C
331
141DD
331
141DE
331
14308
331
14309
331
1430F
331
14310
331
14318
331
14319
331
1431F
331
14320
331
14326
331
14327
331
1432D
331
1432E
331
14334
331
14335
331
144C0
331
144C1
331
144C7
331
144C8
331
144D0
331
144D1
331
144D7
331
144D8
331
144DF
331
144E0
331
144E6
331
144E7
331
144ED
331
144EE
102
}
  0
BLOCK_RECORD
  5
13FA8
330
1
100
AcDbSymbolTableRecord
100
AcDbBlockTableRecord
  2
*D1
340
0
  0
BLOCK_RECORD
  5
13FC9
330
1
100
AcDbSymbolTableRecord
100
AcDbBlockTableRecord
  2
*D2
340
0
  0
BLOCK_RECORD
  5
13FD4
330
1
100
AcDbSymbolTableRecord
100
AcDbBlockTableRecord
  2
*D3
340
0
  0
BLOCK_RECORD
  5
13FDF
330
1
100
AcDbSymbolTableRecord
100
AcDbBlockTableRecord
  2
*D4
340
0
  0
BLOCK_RECORD
  5
13FEC
330
1
100
AcDbSymbolTableRecord
100
AcDbBlockTableRecord
  2
*D5
340
0
  0
BLOCK_RECORD
  5
13FF7
330
1
100
AcDbSymbolTableRecord
100
AcDbBlockTableRecord
  2
*D6
340
0
  0
BLOCK_RECORD
  5
14004
330
1
100
AcDbSymbolTableRecord
100
AcDbBlockTableRecord
  2
*D7
340
0
  0
BLOCK_RECORD
  5
1445E
330
1
100
AcDbSymbolTableRecord
100
AcDbBlockTableRecord
  2
*D19
340
0
  0
BLOCK_RECORD
  5
14468
330
1
100
AcDbSymbolTableRecord
100
AcDbBlockTableRecord
  2
*D20
340
0
  0
BLOCK_RECORD
  5
14472
330
1
100
AcDbSymbolTableRecord
100
AcDbBlockTableRecord
  2
*D21
340
0
  0
BLOCK_RECORD
  5
1447C
330
1
100
AcDbSymbolTableRecord
100
AcDbBlockTableRecord
  2
*D22
340
0
  0
BLOCK_RECORD
  5
14488
330
1
100
AcDbSymbolTableRecord
100
AcDbBlockTableRecord
  2
*D23
340
0
  0
BLOCK_RECORD
  5
14492
330
1
100
AcDbSymbolTableRecord
100
AcDbBlockTableRecord
  2
*D24
340
0
  0
BLOCK_RECORD
  5
1449E
330
1
100
AcDbSymbolTableRecord
100
AcDbBlockTableRecord
  2
*D25
340
0
  0
ENDTAB
  0
ENDSEC
  0
SECTION
  2
BLOCKS
  0
BLOCK
  5
3
330
2
100
AcDbEntity
  8
0
100
AcDbBlockBegin
  2
*Model_Space
 70
     0
 10
0.0
 20
0.0
 30
0.0
  3
*Model_Space
  1

  0
ENDBLK
  5
9
330
2
100
AcDbEntity
  8
0
100
AcDbBlockEnd
  0
BLOCK
  5
E
330
D
100
AcDbEntity
 67
     1
  8
0
100
AcDbBlockBegin
  2
*Paper_Space
 70
     0
 10
0.0
 20
0.0
 30
0.0
  3
*Paper_Space
  1

  0
ENDBLK
  5
F
330
D
100
AcDbEntity
 67
     1
  8
0
100
AcDbBlockEnd
  0
BLOCK
  5
26
330
23
100
AcDbEntity
  8
0
100
AcDbBlockBegin
  2
B-DIM
 70
     0
 10
0.0
 20
0.0
 30
0.0
  3
B-DIM
  1

  0
LINE
  5
27
330
23
100
AcDbEntity
  8
0
 62
     1
100
AcDbLine
 10
0.000000000000091
 20
-1.1
 30
0.0
 11
0.000000000000091
 21
1.1
 31
0.0
  0
LWPOLYLINE
  5
28
330
23
100
AcDbEntity
  8
0
 62
     1
100
AcDbPolyline
 90
        2
 70
     0
 43
0.3
 10
-0.7071067811864851
 20
-0.7071067811864851
 10
0.707106781186576
 20
0.707106781186576
  0
LINE
  5
29
330
23
100
AcDbEntity
  8
0
 62
     1
100
AcDbLine
 10
1.20000000000009
 20
0.0
 30
0.0
 11
-1.199999999999909
 21
0.0
 31
0.0
  0
ENDBLK
  5
2A
330
23
100
AcDbEntity
  8
0
100
AcDbBlockEnd
  0
BLOCK
  5
13FA9
330
13FA8
100
AcDbEntity
  8
0
100
AcDbBlockBegin
  2
*D1
 70
     1
 10
0.0
 20
0.0
 30
0.0
  3
*D1
  1

  0
LINE
  5
141DC
330
13FA8
100
AcDbEntity
  8
0Wymiary-PL
 62
     1
370
    -2
100
AcDbLine
 10
217507.3470202255
 20
137082.5110778243
 30
0.0
 11
217507.3470202255
 21
135892.5110778243
 31
0.0
  0
INSERT
  5
141DD
330
13FA8
100
AcDbEntity
  8
0Wymiary-PL
 62
     1
370
    -2
100
AcDbBlockReference
  2
B-DIM
 10
217507.3470202255
 20
137112.5110778243
 30
0.0
 41
30.0
 42
30.0
 43
30.0
 50
90.0
  0
INSERT
  5
141DE
330
13FA8
100
AcDbEntity
  8
0Wymiary-PL
 62
     1
370
    -2
100
AcDbBlockReference
  2
B-DIM
 10
217507.3470202255
 20
135862.5110778243
 30
0.0
 41
30.0
 42
30.0
 43
30.0
 50
270.0
  0
MTEXT
  5
141DF
330
13FA8
100
AcDbEntity
  8
0Wymiary-PL
 62
    10
100
AcDbMText
 10
217427.3470202254
 20
136487.5110778244
 30
0.0
 40
80.0
 41
0.0
 71
     5
 72
     1
  1
\A1;1250
  7
ROMANS
 11
0.0000000000000001
 21
1.0
 31
0.0
 73
     1
 44
1.0
1001
ACAD
1000
MTEXTBEGIN
1070
    73
1070
     1
1070
    44
1040
1.0
1070
    74
1070
     0
1000
MTEXTEND
  0
POINT
  5
141E0
330
13FA8
100
AcDbEntity
  8
DEFPOINTS
 62
     0
100
AcDbPoint
 10
218124.7730185638
 20
137112.5110778243
 30
0.0
  0
POINT
  5
141E1
330
13FA8
100
AcDbEntity
  8
DEFPOINTS
 62
     0
100
AcDbPoint
 10
218220.104869565
 20
135862.5110778243
 30
0.0
  0
POINT
  5
141E2
330
13FA8
100
AcDbEntity
  8
DEFPOINTS
 62
     0
100
AcDbPoint
 10
217507.3470202255
 20
135862.5110778243
 30
0.0
  0
ENDBLK
  5
13FAA
330
13FA8
100
AcDbEntity
  8
0
100
AcDbBlockEnd
  0
BLOCK
  5
13FCA
330
13FC9
100
AcDbEntity
  8
0
100
AcDbBlockBegin
  2
*D2
 70
     1
 10
0.0
 20
0.0
 30
0.0
  3
*D2
  1

  0
LINE
  5
14023
330
13FC9
100
AcDbEntity
  8
0Wymiary-PL
 62
     1
370
    -2
100
AcDbLine
 10
217507.3470202255
 20
135832.5110778243
 30
0.0
 11
217507.3470202255
 21
135592.5110778243
 31
0.0
  0
INSERT
  5
14024
330
13FC9
100
AcDbEntity
  8
0Wymiary-PL
 62
     1
370
    -2
100
AcDbBlockReference
  2
B-DIM
 10
217507.3470202255
 20
135862.5110778243
 30
0.0
 41
30.0
 42
30.0
 43
30.0
 50
90.0
  0
INSERT
  5
14025
330
13FC9
100
AcDbEntity
  8
0Wymiary-PL
 62
     1
370
    -2
100
AcDbBlockReference
  2
B-DIM
 10
217507.3470202255
 20
135562.5110778243
 30
0.0
 41
30.0
 42
30.0
 43
30.0
 50
270.0
  0
MTEXT
  5
14026
330
13FC9
100
AcDbEntity
  8
0Wymiary-PL
 62
    10
100
AcDbMText
 10
217427.3470202254
 20
135712.5110778244
 30
0.0
 40
80.0
 41
0.0
 71
     5
 72
     1
  1
\A1;300
  7
ROMANS
 11
0.0000000000000001
 21
1.0
 31
0.0
 73
     1
 44
1.0
1001
ACAD
1000
MTEXTBEGIN
1070
    73
1070
     1
1070
    44
1040
1.0
1070
    74
1070
     0
1000
MTEXTEND
  0
POINT
  5
14027
330
13FC9
100
AcDbEntity
  8
DEFPOINTS
 62
     0
100
AcDbPoint
 10
218220.104869565
 20
135862.5110778243
 30
0.0
  0
POINT
  5
14028
330
13FC9
100
AcDbEntity
  8
DEFPOINTS
 62
     0
100
AcDbPoint
 10
218703.0079276164
 20
135562.5110778243
 30
0.0
  0
POINT
  5
14029
330
13FC9
100
AcDbEntity
  8
DEFPOINTS
 62
     0
100
AcDbPoint
 10
217507.3470202255
 20
135562.5110778243
 30
0.0
  0
ENDBLK
  5
13FCB
330
13FC9
100
AcDbEntity
  8
0
100
AcDbBlockEnd
  0
BLOCK
  5
13FD5
330
13FD4
100
AcDbEntity
  8
0
100
AcDbBlockBegin
  2
*D3
 70
     1
 10
0.0
 20
0.0
 30
0.0
  3
*D3
  1

  0
LINE
  5
1402A
330
13FD4
100
AcDbEntity
  8
0Wymiary-PL
 62
     1
370
    -2
100
AcDbLine
 10
217344.8664950212
 20
135592.5110778243
 30
0.0
 11
217344.8664950212
 21
137082.5110778243
 31
0.0
  0
INSERT
  5
1402B
330
13FD4
100
AcDbEntity
  8
0Wymiary-PL
 62
     1
370
    -2
100
AcDbBlockReference
  2
B-DIM
 10
217344.8664950212
 20
135562.5110778243
 30
0.0
 41
30.0
 42
30.0
 43
30.0
 50
270.0
  0
INSERT
  5
1402C
330
13FD4
100
AcDbEntity
  8
0Wymiary-PL
 62
     1
370
    -2
100
AcDbBlockReference
  2
B-DIM
 10
217344.8664950212
 20
137112.5110778243
 30
0.0
 41
30.0
 42
30.0
 43
30.0
 50
90.0
  0
MTEXT
  5
1402D
330
13FD4
100
AcDbEntity
  8
0Wymiary-PL
 62
    10
100
AcDbMText
 10
217264.8664950211
 20
136337.5110778244
 30
0.0
 40
80.0
 41
0.0
 71
     5
 72
     1
  1
\A1;1550
  7
ROMANS
 11
0.0000000000000001
 21
1.0
 31
0.0
 73
     1
 44
1.0
1001
ACAD
1000
MTEXTBEGIN
1070
    73
1070
     1
1070
    44
1040
1.0
1070
    74
1070
     0
1000
MTEXTEND
  0
POINT
  5
1402E
330
13FD4
100
AcDbEntity
  8
DEFPOINTS
 62
     0
100
AcDbPoint
 10
218664.7730185638
 20
135562.5110778243
 30
0.0
  0
POINT
  5
1402F
330
13FD4
100
AcDbEntity
  8
DEFPOINTS
 62
     0
100
AcDbPoint
 10
218124.7730185638
 20
137112.5110778243
 30
0.0
  0
POINT
  5
14030
330
13FD4
100
AcDbEntity
  8
DEFPOINTS
 62
     0
100
AcDbPoint
 10
217344.8664950212
 20
137112.5110778243
 30
0.0
  0
ENDBLK
  5
13FD6
330
13FD4
100
AcDbEntity
  8
0
100
AcDbBlockEnd
  0
BLOCK
  5
13FE0
330
13FDF
100
AcDbEntity
  8
0
100
AcDbBlockBegin
  2
*D4
 70
     1
 10
0.0
 20
0.0
 30
0.0
  3
*D4
  1

  0
LINE
  5
14051
330
13FDF
100
AcDbEntity
  8
0Wymiary-PL
 62
     1
370
    -2
100
AcDbLine
 10
218064.7730185638
 20
137331.4663191592
 30
0.0
 11
218034.7730185637
 21
137331.4663191592
 31
0.0
  0
LINE
  5
14052
330
13FDF
100
AcDbEntity
  8
0Wymiary-PL
 62
     1
370
    -2
100
AcDbLine
 10
218154.7730185638
 20
137331.4663191592
 30
0.0
 11
218184.7730185638
 21
137331.4663191592
 31
0.0
  0
LINE
  5
14053
330
13FDF
100
AcDbEntity
  8
0Wymiary-PL
 62
     1
370
    -2
100
AcDbLine
 10
218094.7730185637
 20
137331.4663191592
 30
0.0
 11
218124.7730185638
 21
137331.4663191592
 31
0.0
  0
INSERT
  5
14054
330
13FDF
100
AcDbEntity
  8
0Wymiary-PL
 62
     1
370
    -2
100
AcDbBlockReference
  2
B-DIM
 10
218094.7730185637
 20
137331.4663191592
 30
0.0
 41
30.0
 42
30.0
 43
30.0
  0
INSERT
  5
14055
330
13FDF
100
AcDbEntity
  8
0Wymiary-PL
 62
     1
370
    -2
100
AcDbBlockReference
  2
B-DIM
 10
218124.7730185638
 20
137331.4663191592
 30
0.0
 41
30.0
 42
30.0
 43
30.0
 50
180.0
  0
MTEXT
  5
14056
330
13FDF
100
AcDbEntity
  8
0Wymiary-PL
 62
    10
100
AcDbMText
 10
218109.7730185638
 20
137411.4663191593
 30
0.0
 40
80.0
 41
0.0
 71
     5
 72
     1
  1
\A1;30
  7
ROMANS
 73
     1
 44
1.0
1001
ACAD
1000
MTEXTBEGIN
1070
    73
1070
     1
1070
    44
1040
1.0
1070
    74
1070
     0
1000
MTEXTEND
  0
POINT
  5
14057
330
13FDF
100
AcDbEntity
  8
DEFPOINTS
 62
     0
100
AcDbPoint
 10
218094.7730185637
 20
136757.5596115028
 30
0.0
  0
POINT
  5
14058
330
13FDF
100
AcDbEntity
  8
DEFPOINTS
 62
     0
100
AcDbPoint
 10
218124.7730185638
 20
136757.5596115028
 30
0.0
  0
POINT
  5
14059
330
13FDF
100
AcDbEntity
  8
DEFPOINTS
 62
     0
100
AcDbPoint
 10
218124.7730185638
 20
137331.4663191592
 30
0.0
  0
ENDBLK
  5
13FE1
330
13FDF
100
AcDbEntity
  8
0
100
AcDbBlockEnd
  0
BLOCK
  5
13FED
330
13FEC
100
AcDbEntity
  8
0
100
AcDbBlockBegin
  2
*D5
 70
     1
 10
0.0
 20
0.0
 30
0.0
  3
*D5
  1

  0
LINE
  5
1405A
330
13FEC
100
AcDbEntity
  8
0Wymiary-PL
 62
     1
370
    -2
100
AcDbLine
 10
218154.7730185638
 20
137331.4663191592
 30
0.0
 11
219214.7730185638
 21
137331.4663191592
 31
0.0
  0
INSERT
  5
1405B
330
13FEC
100
AcDbEntity
  8
0Wymiary-PL
 62
     1
370
    -2
100
AcDbBlockReference
  2
B-DIM
 10
218124.7730185638
 20
137331.4663191592
 30
0.0
 41
30.0
 42
30.0
 43
30.0
 50
180.0
  0
INSERT
  5
1405C
330
13FEC
100
AcDbEntity
  8
0Wymiary-PL
 62
     1
370
    -2
100
AcDbBlockReference
  2
B-DIM
 10
219244.7730185637
 20
137331.4663191592
 30
0.0
 41
30.0
 42
30.0
 43
30.0
  0
MTEXT
  5
1405D
330
13FEC
100
AcDbEntity
  8
0Wymiary-PL
 62
    10
100
AcDbMText
 10
218684.7730185638
 20
137411.4663191593
 30
0.0
 40
80.0
 41
0.0
 71
     5
 72
     1
  1
\A1;1120
  7
ROMANS
 73
     1
 44
1.0
1001
ACAD
1000
MTEXTBEGIN
1070
    73
1070
     1
1070
    44
1040
1.0
1070
    74
1070
     0
1000
MTEXTEND
  0
POINT
  5
1405E
330
13FEC
100
AcDbEntity
  8
DEFPOINTS
 62
     0
100
AcDbPoint
 10
218124.7730185638
 20
136757.5596115028
 30
0.0
  0
POINT
  5
1405F
330
13FEC
100
AcDbEntity
  8
DEFPOINTS
 62
     0
100
AcDbPoint
 10
219244.7730185637
 20
137192.5596115028
 30
0.0
  0
POINT
  5
14060
330
13FEC
100
AcDbEntity
  8
DEFPOINTS
 62
     0
100
AcDbPoint
 10
219244.7730185637
 20
137331.4663191592
 30
0.0
  0
ENDBLK
  5
13FEE
330
13FEC
100
AcDbEntity
  8
0
100
AcDbBlockEnd
  0
BLOCK
  5
13FF8
330
13FF7
100
AcDbEntity
  8
0
100
AcDbBlockBegin
  2
*D6
 70
     1
 10
0.0
 20
0.0
 30
0.0
  3
*D6
  1

  0
LINE
  5
14061
330
13FF7
100
AcDbEntity
  8
0Wymiary-PL
 62
     1
370
    -2
100
AcDbLine
 10
219214.7730185638
 20
137331.4663191592
 30
0.0
 11
219184.7730185638
 21
137331.4663191592
 31
0.0
  0
LINE
  5
14062
330
13FF7
100
AcDbEntity
  8
0Wymiary-PL
 62
     1
370
    -2
100
AcDbLine
 10
219374.7730185637
 20
137331.4663191592
 30
0.0
 11
219404.7730185637
 21
137331.4663191592
 31
0.0
  0
LINE
  5
14063
330
13FF7
100
AcDbEntity
  8
0Wymiary-PL
 62
     1
370
    -2
100
AcDbLine
 10
219244.7730185637
 20
137331.4663191592
 30
0.0
 11
219344.7730185637
 21
137331.4663191592
 31
0.0
  0
INSERT
  5
14064
330
13FF7
100
AcDbEntity
  8
0Wymiary-PL
 62
     1
370
    -2
100
AcDbBlockReference
  2
B-DIM
 10
219244.7730185637
 20
137331.4663191592
 30
0.0
 41
30.0
 42
30.0
 43
30.0
  0
INSERT
  5
14065
330
13FF7
100
AcDbEntity
  8
0Wymiary-PL
 62
     1
370
    -2
100
AcDbBlockReference
  2
B-DIM
 10
219344.7730185637
 20
137331.4663191592
 30
0.0
 41
30.0
 42
30.0
 43
30.0
 50
180.0
  0
MTEXT
  5
14066
330
13FF7
100
AcDbEntity
  8
0Wymiary-PL
 62
    10
100
AcDbMText
 10
219294.7730185638
 20
137411.4663191593
 30
0.0
 40
80.0
 41
0.0
 71
     5
 72
     1
  1
\A1;100
  7
ROMANS
 73
     1
 44
1.0
1001
ACAD
1000
MTEXTBEGIN
1070
    73
1070
     1
1070
    44
1040
1.0
1070
    74
1070
     0
1000
MTEXTEND
  0
POINT
  5
14067
330
13FF7
100
AcDbEntity
  8
DEFPOINTS
 62
     0
100
AcDbPoint
 10
219244.7730185637
 20
137192.5596115028
 30
0.0
  0
POINT
  5
14068
330
13FF7
100
AcDbEntity
  8
DEFPOINTS
 62
     0
100
AcDbPoint
 10
219344.7730185637
 20
136577.5596115028
 30
0.0
  0
POINT
  5
14069
330
13FF7
100
AcDbEntity
  8
DEFPOINTS
 62
     0
100
AcDbPoint
 10
219344.7730185637
 20
137331.4663191592
 30
0.0
  0
ENDBLK
  5
13FF9
330
13FF7
100
AcDbEntity
  8
0
100
AcDbBlockEnd
  0
BLOCK
  5
14005
330
14004
100
AcDbEntity
  8
0
100
AcDbBlockBegin
  2
*D7
 70
     1
 10
0.0
 20
0.0
 30
0.0
  3
*D7
  1

  0
LINE
  5
1406A
330
14004
100
AcDbEntity
  8
0Wymiary-PL
 62
     1
370
    -2
100
AcDbLine
 10
219314.7730185638
 20
137520.6792018239
 30
0.0
 11
218124.7730185638
 21
137520.6792018239
 31
0.0
  0
INSERT
  5
1406B
330
14004
100
AcDbEntity
  8
0Wymiary-PL
 62
     1
370
    -2
100
AcDbBlockReference
  2
B-DIM
 10
219344.7730185638
 20
137520.6792018239
 30
0.0
 41
30.0
 42
30.0
 43
30.0
  0
INSERT
  5
1406C
330
14004
100
AcDbEntity
  8
0Wymiary-PL
 62
     1
370
    -2
100
AcDbBlockReference
  2
B-DIM
 10
218094.7730185637
 20
137520.6792018239
 30
0.0
 41
30.0
 42
30.0
 43
30.0
 50
180.0
  0
MTEXT
  5
1406D
330
14004
100
AcDbEntity
  8
0Wymiary-PL
 62
    10
100
AcDbMText
 10
218719.7730185638
 20
137600.6792018239
 30
0.0
 40
80.0
 41
0.0
 71
     5
 72
     1
  1
\A1;1250
  7
ROMANS
 73
     1
 44
1.0
1001
ACAD
1000
MTEXTBEGIN
1070
    73
1070
     1
1070
    44
1040
1.0
1070
    74
1070
     0
1000
MTEXTEND
  0
POINT
  5
1406E
330
14004
100
AcDbEntity
  8
DEFPOINTS
 62
     0
100
AcDbPoint
 10
219344.7730185638
 20
136577.5596115028
 30
0.0
  0
POINT
  5
1406F
330
14004
100
AcDbEntity
  8
DEFPOINTS
 62
     0
100
AcDbPoint
 10
218094.7730185637
 20
136757.5596115028
 30
0.0
  0
POINT
  5
14070
330
14004
100
AcDbEntity
  8
DEFPOINTS
 62
     0
100
AcDbPoint
 10
218094.7730185637
 20
137520.6792018239
 30
0.0
  0
ENDBLK
  5
14006
330
14004
100
AcDbEntity
  8
0
100
AcDbBlockEnd
  0
BLOCK
  5
1445F
330
1445E
100
AcDbEntity
  8
0
100
AcDbBlockBegin
  2
*D19
 70
     1
 10
0.0
 20
0.0
 30
0.0
  3
*D19
  1

  0
LINE
  5
144DE
330
1445E
100
AcDbEntity
  8
0Wymiary-PL
 62
     1
370
    -2
100
AcDbLine
 10
223340.4650119488
 20
137082.5110778243
 30
0.0
 11
223340.4650119488
 21
135892.5110778243
 31
0.0
  0
INSERT
  5
144DF
330
1445E
100
AcDbEntity
  8
0Wymiary-PL
 62
     1
370
    -2
100
AcDbBlockReference
  2
B-DIM
 10
223340.4650119488
 20
137112.5110778243
 30
0.0
 41
30.0
 42
30.0
 43
30.0
 50
90.0
  0
INSERT
  5
144E0
330
1445E
100
AcDbEntity
  8
0Wymiary-PL
 62
     1
370
    -2
100
AcDbBlockReference
  2
B-DIM
 10
223340.4650119488
 20
135862.5110778243
 30
0.0
 41
30.0
 42
30.0
 43
30.0
 50
270.0
  0
MTEXT
  5
144E1
330
1445E
100
AcDbEntity
  8
0Wymiary-PL
 62
    10
100
AcDbMText
 10
223260.4650119488
 20
136487.5110778244
 30
0.0
 40
80.0
 41
0.0
 71
     5
 72
     1
  1
\A1;1250
  7
ROMANS
 11
0.0000000000000001
 21
1.0
 31
0.0
 73
     1
 44
1.0
1001
ACAD
1000
MTEXTBEGIN
1070
    73
1070
     1
1070
    44
1040
1.0
1070
    74
1070
     0
1000
MTEXTEND
  0
POINT
  5
144E2
330
1445E
100
AcDbEntity
  8
DEFPOINTS
 62
     0
100
AcDbPoint
 10
222723.0390136105
 20
137112.5110778243
 30
0.0
  0
POINT
  5
144E3
330
1445E
100
AcDbEntity
  8
DEFPOINTS
 62
     0
100
AcDbPoint
 10
222627.7071626093
 20
135862.5110778243
 30
0.0
  0
POINT
  5
144E4
330
1445E
100
AcDbEntity
  8
DEFPOINTS
 62
     0
100
AcDbPoint
 10
223340.4650119488
 20
135862.5110778243
 30
0.0
  0
ENDBLK
  5
14460
330
1445E
100
AcDbEntity
  8
0
100
AcDbBlockEnd
  0
BLOCK
  5
14469
330
14468
100
AcDbEntity
  8
0
100
AcDbBlockBegin
  2
*D20
 70
     1
 10
0.0
 20
0.0
 30
0.0
  3
*D20
  1

  0
LINE
  5
144E5
330
14468
100
AcDbEntity
  8
0Wymiary-PL
 62
     1
370
    -2
100
AcDbLine
 10
223340.4650119488
 20
135832.5110778243
 30
0.0
 11
223340.4650119488
 21
135592.5110778243
 31
0.0
  0
INSERT
  5
144E6
330
14468
100
AcDbEntity
  8
0Wymiary-PL
 62
     1
370
    -2
100
AcDbBlockReference
  2
B-DIM
 10
223340.4650119488
 20
135862.5110778243
 30
0.0
 41
30.0
 42
30.0
 43
30.0
 50
90.0
  0
INSERT
  5
144E7
330
14468
100
AcDbEntity
  8
0Wymiary-PL
 62
     1
370
    -2
100
AcDbBlockReference
  2
B-DIM
 10
223340.4650119488
 20
135562.5110778243
 30
0.0
 41
30.0
 42
30.0
 43
30.0
 50
270.0
  0
MTEXT
  5
144E8
330
14468
100
AcDbEntity
  8
0Wymiary-PL
 62
    10
100
AcDbMText
 10
223260.4650119488
 20
135712.5110778244
 30
0.0
 40
80.0
 41
0.0
 71
     5
 72
     1
  1
\A1;300
  7
ROMANS
 11
0.0000000000000001
 21
1.0
 31
0.0
 73
     1
 44
1.0
1001
ACAD
1000
MTEXTBEGIN
1070
    73
1070
     1
1070
    44
1040
1.0
1070
    74
1070
     0
1000
MTEXTEND
  0
POINT
  5
144E9
330
14468
100
AcDbEntity
  8
DEFPOINTS
 62
     0
100
AcDbPoint
 10
222627.7071626093
 20
135862.5110778243
 30
0.0
  0
POINT
  5
144EA
330
14468
100
AcDbEntity
  8
DEFPOINTS
 62
     0
100
AcDbPoint
 10
222144.8041045579
 20
135562.5110778243
 30
0.0
  0
POINT
  5
144EB
330
14468
100
AcDbEntity
  8
DEFPOINTS
 62
     0
100
AcDbPoint
 10
223340.4650119488
 20
135562.5110778243
 30
0.0
  0
ENDBLK
  5
1446A
330
14468
100
AcDbEntity
  8
0
100
AcDbBlockEnd
  0
BLOCK
  5
14473
330
14472
100
AcDbEntity
  8
0
100
AcDbBlockBegin
  2
*D21
 70
     1
 10
0.0
 20
0.0
 30
0.0
  3
*D21
  1

  0
LINE
  5
144EC
330
14472
100
AcDbEntity
  8
0Wymiary-PL
 62
     1
370
    -2
100
AcDbLine
 10
223502.9455371531
 20
135592.5110778243
 30
0.0
 11
223502.9455371531
 21
137082.5110778243
 31
0.0
  0
INSERT
  5
144ED
330
14472
100
AcDbEntity
  8
0Wymiary-PL
 62
     1
370
    -2
100
AcDbBlockReference
  2
B-DIM
 10
223502.9455371531
 20
135562.5110778243
 30
0.0
 41
30.0
 42
30.0
 43
30.0
 50
270.0
  0
INSERT
  5
144EE
330
14472
100
AcDbEntity
  8
0Wymiary-PL
 62
     1
370
    -2
100
AcDbBlockReference
  2
B-DIM
 10
223502.9455371531
 20
137112.5110778243
 30
0.0
 41
30.0
 42
30.0
 43
30.0
 50
90.0
  0
MTEXT
  5
144EF
330
14472
100
AcDbEntity
  8
0Wymiary-PL
 62
    10
100
AcDbMText
 10
223422.9455371531
 20
136337.5110778244
 30
0.0
 40
80.0
 41
0.0
 71
     5
 72
     1
  1
\A1;1550
  7
ROMANS
 11
0.0000000000000001
 21
1.0
 31
0.0
 73
     1
 44
1.0
1001
ACAD
1000
MTEXTBEGIN
1070
    73
1070
     1
1070
    44
1040
1.0
1070
    74
1070
     0
1000
MTEXTEND
  0
POINT
  5
144F0
330
14472
100
AcDbEntity
  8
DEFPOINTS
 62
     0
100
AcDbPoint
 10
222183.0390136105
 20
135562.5110778243
 30
0.0
  0
POINT
  5
144F1
330
14472
100
AcDbEntity
  8
DEFPOINTS
 62
     0
100
AcDbPoint
 10
222723.0390136105
 20
137112.5110778243
 30
0.0
  0
POINT
  5
144F2
330
14472
100
AcDbEntity
  8
DEFPOINTS
 62
     0
100
AcDbPoint
 10
223502.9455371531
 20
137112.5110778243
 30
0.0
  0
ENDBLK
  5
14474
330
14472
100
AcDbEntity
  8
0
100
AcDbBlockEnd
  0
BLOCK
  5
1447D
330
1447C
100
AcDbEntity
  8
0
100
AcDbBlockBegin
  2
*D22
 70
     1
 10
0.0
 20
0.0
 30
0.0
  3
*D22
  1

  0
LINE
  5
144BD
330
1447C
100
AcDbEntity
  8
0Wymiary-PL
 62
     1
370
    -2
100
AcDbLine
 10
222735.0054711813
 20
137331.4663191592
 30
0.0
 11
222765.0054711813
 21
137331.4663191592
 31
0.0
  0
LINE
  5
144BE
330
1447C
100
AcDbEntity
  8
0Wymiary-PL
 62
     1
370
    -2
100
AcDbLine
 10
222645.0054711813
 20
137331.4663191592
 30
0.0
 11
222615.0054711813
 21
137331.4663191592
 31
0.0
  0
LINE
  5
144BF
330
1447C
100
AcDbEntity
  8
0Wymiary-PL
 62
     1
370
    -2
100
AcDbLine
 10
222705.0054711813
 20
137331.4663191592
 30
0.0
 11
222675.0054711813
 21
137331.4663191592
 31
0.0
  0
INSERT
  5
144C0
330
1447C
100
AcDbEntity
  8
0Wymiary-PL
 62
     1
370
    -2
100
AcDbBlockReference
  2
B-DIM
 10
222705.0054711813
 20
137331.4663191592
 30
0.0
 41
30.0
 42
30.0
 43
30.0
 50
180.0
  0
INSERT
  5
144C1
330
1447C
100
AcDbEntity
  8
0Wymiary-PL
 62
     1
370
    -2
100
AcDbBlockReference
  2
B-DIM
 10
222675.0054711813
 20
137331.4663191592
 30
0.0
 41
30.0
 42
30.0
 43
30.0
  0
MTEXT
  5
144C2
330
1447C
100
AcDbEntity
  8
0Wymiary-PL
 62
    10
100
AcDbMText
 10
222690.0054711813
 20
137411.4663191593
 30
0.0
 40
80.0
 41
0.0
 71
     5
 72
     1
  1
\A1;30
  7
ROMANS
 73
     1
 44
1.0
1001
ACAD
1000
MTEXTBEGIN
1070
    73
1070
     1
1070
    44
1040
1.0
1070
    74
1070
     0
1000
MTEXTEND
  0
POINT
  5
144C3
330
1447C
100
AcDbEntity
  8
DEFPOINTS
 62
     0
100
AcDbPoint
 10
222705.0054711813
 20
136757.5596115028
 30
0.0
  0
POINT
  5
144C4
330
1447C
100
AcDbEntity
  8
DEFPOINTS
 62
     0
100
AcDbPoint
 10
222675.0054711813
 20
136757.5596115028
 30
0.0
  0
POINT
  5
144C5
330
1447C
100
AcDbEntity
  8
DEFPOINTS
 62
     0
100
AcDbPoint
 10
222675.0054711813
 20
137331.4663191592
 30
0.0
  0
ENDBLK
  5
1447E
330
1447C
100
AcDbEntity
  8
0
100
AcDbBlockEnd
  0
BLOCK
  5
14489
330
14488
100
AcDbEntity
  8
0
100
AcDbBlockBegin
  2
*D23
 70
     1
 10
0.0
 20
0.0
 30
0.0
  3
*D23
  1

  0
LINE
  5
144C6
330
14488
100
AcDbEntity
  8
0Wymiary-PL
 62
     1
370
    -2
100
AcDbLine
 10
222645.0054711813
 20
137331.4663191592
 30
0.0
 11
221585.0054711813
 21
137331.4663191592
 31
0.0
  0
INSERT
  5
144C7
330
14488
100
AcDbEntity
  8
0Wymiary-PL
 62
     1
370
    -2
100
AcDbBlockReference
  2
B-DIM
 10
222675.0054711813
 20
137331.4663191592
 30
0.0
 41
30.0
 42
30.0
 43
30.0
  0
INSERT
  5
144C8
330
14488
100
AcDbEntity
  8
0Wymiary-PL
 62
     1
370
    -2
100
AcDbBlockReference
  2
B-DIM
 10
221555.0054711813
 20
137331.4663191592
 30
0.0
 41
30.0
 42
30.0
 43
30.0
 50
180.0
  0
MTEXT
  5
144C9
330
14488
100
AcDbEntity
  8
0Wymiary-PL
 62
    10
100
AcDbMText
 10
222115.0054711813
 20
137411.4663191593
 30
0.0
 40
80.0
 41
0.0
 71
     5
 72
     1
  1
\A1;1120
  7
ROMANS
 73
     1
 44
1.0
1001
ACAD
1000
MTEXTBEGIN
1070
    73
1070
     1
1070
    44
1040
1.0
1070
    74
1070
     0
1000
MTEXTEND
  0
POINT
  5
144CA
330
14488
100
AcDbEntity
  8
DEFPOINTS
 62
     0
100
AcDbPoint
 10
222675.0054711813
 20
136757.5596115028
 30
0.0
  0
POINT
  5
144CB
330
14488
100
AcDbEntity
  8
DEFPOINTS
 62
     0
100
AcDbPoint
 10
221555.0054711813
 20
137192.5596115028
 30
0.0
  0
POINT
  5
144CC
330
14488
100
AcDbEntity
  8
DEFPOINTS
 62
     0
100
AcDbPoint
 10
221555.0054711813
 20
137331.4663191592
 30
0.0
  0
ENDBLK
  5
1448A
330
14488
100
AcDbEntity
  8
0
100
AcDbBlockEnd
  0
BLOCK
  5
14493
330
14492
100
AcDbEntity
  8
0
100
AcDbBlockBegin
  2
*D24
 70
     1
 10
0.0
 20
0.0
 30
0.0
  3
*D24
  1

  0
LINE
  5
144CD
330
14492
100
AcDbEntity
  8
0Wymiary-PL
 62
     1
370
    -2
100
AcDbLine
 10
221585.0054711813
 20
137331.4663191592
 30
0.0
 11
221615.0054711813
 21
137331.4663191592
 31
0.0
  0
LINE
  5
144CE
330
14492
100
AcDbEntity
  8
0Wymiary-PL
 62
     1
370
    -2
100
AcDbLine
 10
221425.0054711813
 20
137331.4663191592
 30
0.0
 11
221395.0054711814
 21
137331.4663191592
 31
0.0
  0
LINE
  5
144CF
330
14492
100
AcDbEntity
  8
0Wymiary-PL
 62
     1
370
    -2
100
AcDbLine
 10
221555.0054711813
 20
137331.4663191592
 30
0.0
 11
221455.0054711813
 21
137331.4663191592
 31
0.0
  0
INSERT
  5
144D0
330
14492
100
AcDbEntity
  8
0Wymiary-PL
 62
     1
370
    -2
100
AcDbBlockReference
  2
B-DIM
 10
221555.0054711813
 20
137331.4663191592
 30
0.0
 41
30.0
 42
30.0
 43
30.0
 50
180.0
  0
INSERT
  5
144D1
330
14492
100
AcDbEntity
  8
0Wymiary-PL
 62
     1
370
    -2
100
AcDbBlockReference
  2
B-DIM
 10
221455.0054711813
 20
137331.4663191592
 30
0.0
 41
30.0
 42
30.0
 43
30.0
  0
MTEXT
  5
144D2
330
14492
100
AcDbEntity
  8
0Wymiary-PL
 62
    10
100
AcDbMText
 10
221505.0054711813
 20
137411.4663191593
 30
0.0
 40
80.0
 41
0.0
 71
     5
 72
     1
  1
\A1;100
  7
ROMANS
 73
     1
 44
1.0
1001
ACAD
1000
MTEXTBEGIN
1070
    73
1070
     1
1070
    44
1040
1.0
1070
    74
1070
     0
1000
MTEXTEND
  0
POINT
  5
144D3
330
14492
100
AcDbEntity
  8
DEFPOINTS
 62
     0
100
AcDbPoint
 10
221555.0054711813
 20
137192.5596115028
 30
0.0
  0
POINT
  5
144D4
330
14492
100
AcDbEntity
  8
DEFPOINTS
 62
     0
100
AcDbPoint
 10
221455.0054711813
 20
136577.5596115028
 30
0.0
  0
POINT
  5
144D5
330
14492
100
AcDbEntity
  8
DEFPOINTS
 62
     0
100
AcDbPoint
 10
221455.0054711813
 20
137331.4663191592
 30
0.0
  0
ENDBLK
  5
14494
330
14492
100
AcDbEntity
  8
0
100
AcDbBlockEnd
  0
BLOCK
  5
1449F
330
1449E
100
AcDbEntity
  8
0
100
AcDbBlockBegin
  2
*D25
 70
     1
 10
0.0
 20
0.0
 30
0.0
  3
*D25
  1

  0
LINE
  5
144D6
330
1449E
100
AcDbEntity
  8
0Wymiary-PL
 62
     1
370
    -2
100
AcDbLine
 10
221485.0054711813
 20
137520.6792018239
 30
0.0
 11
222675.0054711813
 21
137520.6792018239
 31
0.0
  0
INSERT
  5
144D7
330
1449E
100
AcDbEntity
  8
0Wymiary-PL
 62
     1
370
    -2
100
AcDbBlockReference
  2
B-DIM
 10
221455.0054711813
 20
137520.6792018239
 30
0.0
 41
30.0
 42
30.0
 43
30.0
 50
180.0
  0
INSERT
  5
144D8
330
1449E
100
AcDbEntity
  8
0Wymiary-PL
 62
     1
370
    -2
100
AcDbBlockReference
  2
B-DIM
 10
222705.0054711813
 20
137520.6792018239
 30
0.0
 41
30.0
 42
30.0
 43
30.0
  0
MTEXT
  5
144D9
330
1449E
100
AcDbEntity
  8
0Wymiary-PL
 62
    10
100
AcDbMText
 10
222080.0054711813
 20
137600.6792018239
 30
0.0
 40
80.0
 41
0.0
 71
     5
 72
     1
  1
\A1;1250
  7
ROMANS
 73
     1
 44
1.0
1001
ACAD
1000
MTEXTBEGIN
1070
    73
1070
     1
1070
    44
1040
1.0
1070
    74
1070
     0
1000
MTEXTEND
  0
POINT
  5
144DA
330
1449E
100
AcDbEntity
  8
DEFPOINTS
 62
     0
100
AcDbPoint
 10
221455.0054711813
 20
136577.5596115028
 30
0.0
  0
POINT
  5
144DB
330
1449E
100
AcDbEntity
  8
DEFPOINTS
 62
     0
100
AcDbPoint
 10
222705.0054711813
 20
136757.5596115028
 30
0.0
  0
POINT
  5
144DC
330
1449E
100
AcDbEntity
  8
DEFPOINTS
 62
     0
100
AcDbPoint
 10
222705.0054711813
 20
137520.6792018239
 30
0.0
  0
ENDBLK
  5
144A0
330
1449E
100
AcDbEntity
  8
0
100
AcDbBlockEnd
  0
ENDSEC
  0
SECTION
  2
ENTITIES
  0
TEXT
  5
142
330
2
100
AcDbEntity
  8
NAPISY
370
     5
100
AcDbText
 10
216646.5520012698
 20
128323.0717886572
 30
0.0
 40
100.0
  1
   O B R Y S   B U D Y N K U           S K A L A   1 : 5 0 0 
  7
AVA
100
AcDbText
  0
LINE
  5
157
330
2
100
AcDbEntity
  8
NAPISY
  6
HIDDEN
 62
     1
 48
8.0
370
     5
100
AcDbLine
 10
220399.8892448725
 20
132297.6012553763
 30
0.0
 11
220399.8892448725
 21
139759.3884878306
 31
0.0
  0
TEXT
  5
159
330
2
100
AcDbEntity
  8
NAPISY
370
     5
100
AcDbText
 10
220340.3680678792
 20
132512.3704586351
 30
0.0
 40
100.0
  1
OŚ ODBICIA LUSTRZANEGO
 50
90.0
  7
AVA
100
AcDbText
  0
TEXT
  5
15C
330
2
100
AcDbEntity
  8
NAPISY
370
     5
100
AcDbText
 10
216666.4297817526
 20
141116.3055269018
 30
0.0
 40
150.0
  1
"DOM  W  DATURACH"
  7
AVA
100
AcDbText
  0
LINE
  5
13F20
330
2
100
AcDbEntity
  8
0
 48
4.0
370
     5
100
AcDbLine
 10
218664.7730185637
 20
135732.5110778243
 30
0.0
 11
218317.7730185638
 21
135732.5110778243
 31
0.0
  0
LINE
  5
13F21
330
2
100
AcDbEntity
  8
0
 48
4.0
370
     5
100
AcDbLine
 10
218317.7730185638
 20
135732.5110778243
 30
0.0
 11
218317.7730185638
 21
135862.5110778243
 31
0.0
  0
LINE
  5
13F22
330
2
100
AcDbEntity
  8
0
 48
4.0
370
     5
100
AcDbLine
 10
218287.7730185638
 20
135862.5110778243
 30
0.0
 11
218287.7730185638
 21
135702.5110778243
 31
0.0
  0
LINE
  5
13F23
330
2
100
AcDbEntity
  8
0
 48
4.0
370
     5
100
AcDbLine
 10
218287.7730185638
 20
135702.5110778243
 30
0.0
 11
218664.7730185637
 21
135702.5110778243
 31
0.0
  0
LINE
  5
13F29
330
2
100
AcDbEntity
  8
0
 48
4.0
370
     5
100
AcDbLine
 10
218347.7730185638
 20
135862.5110778243
 30
0.0
 11
218347.7730185638
 21
135762.5110778243
 31
0.0
  0
LINE
  5
13F2A
330
2
100
AcDbEntity
  8
0
 48
4.0
370
     5
100
AcDbLine
 10
218347.7730185638
 20
135762.5110778243
 30
0.0
 11
218664.7730185637
 21
135762.5110778243
 31
0.0
  0
LINE
  5
13F2B
330
2
100
AcDbEntity
  8
0
 48
4.0
370
     5
100
AcDbLine
 10
219254.7730185637
 20
135462.5110778243
 30
0.0
 11
219254.7730185637
 21
135622.5110778243
 31
0.0
  0
LINE
  5
13F2C
330
2
100
AcDbEntity
  8
0
 48
4.0
370
     5
100
AcDbLine
 10
219254.7730185637
 20
135462.5110778243
 30
0.0
 11
218754.7730185638
 21
135462.5110778243
 31
0.0
  0
LINE
  5
13F2D
330
2
100
AcDbEntity
  8
0
 48
4.0
370
     5
100
AcDbLine
 10
218754.7730185638
 20
135462.5110778243
 30
0.0
 11
218754.7730185638
 21
135622.5110778243
 31
0.0
  0
LINE
  5
13F2E
330
2
100
AcDbEntity
  8
0
 48
4.0
370
     5
100
AcDbLine
 10
219444.7730185638
 20
136224.5110778243
 30
0.0
 11
219444.7730185638
 21
136344.5110778243
 31
0.0
  0
LINE
  5
13F2F
330
2
100
AcDbEntity
  8
0
 48
4.0
370
     5
100
AcDbLine
 10
219444.7730185638
 20
136344.5110778243
 30
0.0
 11
219344.7730185638
 21
136344.5110778243
 31
0.0
  0
LINE
  5
13F30
330
2
100
AcDbEntity
  8
0
 48
4.0
370
     5
100
AcDbLine
 10
219344.7730185638
 20
136224.5110778243
 30
0.0
 11
219444.7730185638
 21
136224.5110778243
 31
0.0
  0
LINE
  5
13F31
330
2
100
AcDbEntity
  8
0
 48
4.0
370
     5
100
AcDbLine
 10
218362.7730185638
 20
135817.5110778243
 30
0.0
 11
218416.7730185638
 21
135817.5110778243
 31
0.0
  0
LINE
  5
13F32
330
2
100
AcDbEntity
  8
0
 48
4.0
370
     5
100
AcDbLine
 10
218416.7730185638
 20
135817.5110778243
 30
0.0
 11
218416.7730185638
 21
135894.4347478525
 31
0.0
  0
LINE
  5
13F33
330
2
100
AcDbEntity
  8
0
 48
4.0
370
     5
100
AcDbLine
 10
218362.7730185638
 20
135862.5110778243
 30
0.0
 11
218362.7730185638
 21
135817.5110778243
 31
0.0
  0
HATCH
  5
13F34
330
2
100
AcDbEntity
  8
0
 48
4.0
370
     5
100
AcDbHatch
 10
0.0
 20
0.0
 30
0.0
210
0.0
220
0.0
230
1.0
  2
SOLID
 70
     1
 71
     0
 91
        1
 92
        7
 72
     0
 73
     1
 93
        4
 10
218673.7730185638
 20
135861.5110778243
 10
218664.7730185637
 20
135861.5110778243
 10
218664.7730185637
 20
135822.5110778243
 10
218673.7730185638
 20
135822.5110778243
 97
        0
 75
     0
 76
     1
 47
0.8813169182921605
 98
        1
 10
218670.2632045762
 20
135839.5007672171
1001
ACAD
1010
0.0
1020
0.0
1030
0.0
  0
HATCH
  5
13F35
330
2
100
AcDbEntity
  8
0
 48
4.0
370
     5
100
AcDbHatch
 10
0.0
 20
0.0
 30
0.0
210
0.0
220
0.0
230
1.0
  2
SOLID
 70
     1
 71
     0
 91
        1
 92
        7
 72
     0
 73
     1
 93
        8
 10
218678.7730185637
 20
135866.5110778243
 10
218664.7730185637
 20
135866.5110778243
 10
218664.7730185637
 20
135861.5110778243
 10
218673.7730185638
 20
135861.5110778243
 10
218673.7730185638
 20
135822.5110778243
 10
218664.7730185637
 20
135822.5110778243
 10
218664.7730185637
 20
135817.5110778243
 10
218678.7730185637
 20
135817.5110778243
 97
        0
 75
     0
 76
     1
 47
0.3037416654421845
 98
        1
 10
218670.9129400134
 20
135862.9054721054
1001
ACAD
1010
0.0
1020
0.0
1030
0.0
  0
LINE
  5
13F36
330
2
100
AcDbEntity
  8
0
 48
4.0
370
     5
100
AcDbLine
 10
218673.7730185638
 20
135822.5110778243
 30
0.0
 11
218629.7730185637
 21
135822.5110778243
 31
0.0
  0
LINE
  5
13F37
330
2
100
AcDbEntity
  8
0
 48
4.0
370
     5
100
AcDbLine
 10
218629.7730185637
 20
135861.5110778243
 30
0.0
 11
218673.7730185638
 21
135861.5110778243
 31
0.0
  0
LINE
  5
13F38
330
2
100
AcDbEntity
  8
0
 48
4.0
370
     5
100
AcDbLine
 10
218673.7730185638
 20
135861.5110778243
 30
0.0
 11
218673.7730185638
 21
135822.5110778243
 31
0.0
  0
HATCH
  5
13F39
330
2
100
AcDbEntity
  8
0
 48
4.0
370
     5
100
AcDbHatch
 10
0.0
 20
0.0
 30
0.0
210
0.0
220
0.0
230
1.0
  2
SOLID
 70
     1
 71
     0
 91
        1
 92
        7
 72
     0
 73
     1
 93
       12
 10
218754.7730185638
 20
135622.5110778243
 10
218724.7730185637
 20
135622.5110778243
 10
218724.7730185637
 20
135972.5110778243
 10
218571.7730185638
 20
135972.5110778243
 10
218571.7730185638
 20
135912.5110778243
 10
218664.7730185637
 20
135912.5110778243
 10
218664.7730185637
 20
135866.5110778243
 10
218678.7730185637
 20
135866.5110778243
 10
218678.7730185637
 20
135817.5110778243
 10
218664.7730185637
 20
135817.5110778243
 10
218664.7730185637
 20
135562.5110778243
 10
218754.7730185638
 20
135562.5110778243
 97
        0
 75
     0
 76
     1
 47
3.647281816525914
 98
        1
 10
218728.433804609
 20
135615.8731148864
1001
ACAD
1010
0.0
1020
0.0
1030
0.0
  0
LINE
  5
13F3A
330
2
100
AcDbEntity
  8
0
 48
4.0
370
     5
100
AcDbLine
 10
218678.7730185637
 20
135817.5110778243
 30
0.0
 11
218624.7730185638
 21
135817.5110778243
 31
0.0
  0
LINE
  5
13F3B
330
2
100
AcDbEntity
  8
0
 48
4.0
370
     5
100
AcDbLine
 10
218624.7730185638
 20
135817.5110778243
 30
0.0
 11
218624.7730185638
 21
135866.5110778243
 31
0.0
  0
LINE
  5
13F3C
330
2
100
AcDbEntity
  8
0
 48
4.0
370
     5
100
AcDbLine
 10
218624.7730185638
 20
135866.5110778243
 30
0.0
 11
218678.7730185637
 21
135866.5110778243
 31
0.0
  0
LINE
  5
13F3D
330
2
100
AcDbEntity
  8
0
 48
4.0
370
     5
100
AcDbLine
 10
218678.7730185637
 20
135866.5110778243
 30
0.0
 11
218678.7730185637
 21
135817.5110778243
 31
0.0
  0
LINE
  5
13F3E
102
{ACAD_REACTORS
330
14219
102
}
330
2
100
AcDbEntity
  8
0
 48
4.0
370
     5
100
AcDbLine
 10
218124.7730185638
 20
135862.5110778243
 30
0.0
 11
218124.7730185638
 21
136297.5110778243
 31
0.0
  0
LINE
  5
13F3F
330
2
100
AcDbEntity
  8
0
 48
4.0
370
     5
100
AcDbLine
 10
218124.7730185638
 20
135912.5110778243
 30
0.0
 11
218119.7730185638
 21
135912.5110778243
 31
0.0
  0
LINE
  5
13F40
330
2
100
AcDbEntity
  8
0
 48
4.0
370
     5
100
AcDbLine
 10
218119.7730185638
 20
135912.5110778243
 30
0.0
 11
218119.7730185638
 21
135857.5110778243
 31
0.0
  0
LINE
  5
13F41
330
2
100
AcDbEntity
  8
0
 48
4.0
370
     5
100
AcDbLine
 10
218119.7730185638
 20
135857.5110778243
 30
0.0
 11
218184.7730185638
 21
135857.5110778243
 31
0.0
  0
LINE
  5
13F42
330
2
100
AcDbEntity
  8
0
 48
4.0
370
     5
100
AcDbLine
 10
218184.7730185638
 20
135857.5110778243
 30
0.0
 11
218184.7730185638
 21
135862.5110778243
 31
0.0
  0
LINE
  5
13F43
102
{ACAD_REACTORS
330
14219
102
}
330
2
100
AcDbEntity
  8
0
 48
4.0
370
     5
100
AcDbLine
 10
218124.7730185638
 20
135862.5110778243
 30
0.0
 11
218367.7730185638
 21
135862.5110778243
 31
0.0
  0
LINE
  5
13F44
330
2
100
AcDbEntity
  8
0
 48
4.0
370
     5
100
AcDbLine
 10
218664.7730185637
 20
135562.5110778243
 30
0.0
 11
218664.7730185637
 21
135912.5110778243
 31
0.0
  0
LINE
  5
13F45
330
2
100
AcDbEntity
  8
0
 48
4.0
370
     5
100
AcDbLine
 10
218664.7730185637
 20
135612.5110778243
 30
0.0
 11
218659.7730185638
 21
135612.5110778243
 31
0.0
  0
LINE
  5
13F46
330
2
100
AcDbEntity
  8
0
 48
4.0
370
     5
100
AcDbLine
 10
218659.7730185638
 20
135612.5110778243
 30
0.0
 11
218659.7730185638
 21
135557.5110778243
 31
0.0
  0
LINE
  5
13F47
330
2
100
AcDbEntity
  8
0
 48
4.0
370
     5
100
AcDbLine
 10
218659.7730185638
 20
135557.5110778243
 30
0.0
 11
218724.7730185637
 21
135557.5110778243
 31
0.0
  0
LINE
  5
13F48
330
2
100
AcDbEntity
  8
0
 48
4.0
370
     5
100
AcDbLine
 10
219284.7730185638
 20
135557.5110778243
 30
0.0
 11
219349.7730185637
 21
135557.5110778243
 31
0.0
  0
LINE
  5
13F49
330
2
100
AcDbEntity
  8
0
 48
4.0
370
     5
100
AcDbLine
 10
219284.7730185638
 20
135557.5110778243
 30
0.0
 11
219284.7730185638
 21
135562.5110778243
 31
0.0
  0
LINE
  5
13F4A
102
{ACAD_REACTORS
330
14219
102
}
330
2
100
AcDbEntity
  8
0
 48
4.0
370
     5
100
AcDbLine
 10
219344.7730185638
 20
135562.5110778243
 30
0.0
 11
219344.7730185637
 21
136497.5110778243
 31
0.0
  0
LINE
  5
13F4B
330
2
100
AcDbEntity
  8
0
 48
4.0
370
     5
100
AcDbLine
 10
219344.7730185638
 20
135612.5110778243
 30
0.0
 11
219349.7730185637
 21
135612.5110778243
 31
0.0
  0
LINE
  5
13F4C
330
2
100
AcDbEntity
  8
0
 48
4.0
370
     5
100
AcDbLine
 10
219349.7730185637
 20
135612.5110778243
 30
0.0
 11
219349.7730185637
 21
135557.5110778243
 31
0.0
  0
LINE
  5
13F4D
330
2
100
AcDbEntity
  8
0
 48
4.0
370
     5
100
AcDbLine
 10
218724.7730185637
 20
135557.5110778243
 30
0.0
 11
218724.7730185637
 21
135562.5110778243
 31
0.0
  0
LINE
  5
13F4E
330
2
100
AcDbEntity
  8
0
 48
4.0
370
     5
100
AcDbLine
 10
218124.7730185638
 20
137062.5110778243
 30
0.0
 11
218119.7730185638
 21
137062.5110778243
 31
0.0
  0
LINE
  5
13F4F
330
2
100
AcDbEntity
  8
0
 48
4.0
370
     5
100
AcDbLine
 10
218119.7730185638
 20
137062.5110778243
 30
0.0
 11
218119.7730185638
 21
137117.5110778243
 31
0.0
  0
LINE
  5
13F50
330
2
100
AcDbEntity
  8
0
 48
4.0
370
     5
100
AcDbLine
 10
218119.7730185638
 20
137117.5110778243
 30
0.0
 11
218184.7730185638
 21
137117.5110778243
 31
0.0
  0
LINE
  5
13F51
330
2
100
AcDbEntity
  8
0
 48
4.0
370
     5
100
AcDbLine
 10
218184.7730185638
 20
137117.5110778243
 30
0.0
 11
218184.7730185638
 21
137112.5110778243
 31
0.0
  0
LINE
  5
13F52
102
{ACAD_REACTORS
330
14219
102
}
330
2
100
AcDbEntity
  8
0
 48
4.0
370
     5
100
AcDbLine
 10
218124.7730185638
 20
137112.5110778243
 30
0.0
 11
219244.7730185637
 21
137112.5110778243
 31
0.0
  0
LINE
  5
13F53
102
{ACAD_REACTORS
330
14219
102
}
330
2
100
AcDbEntity
  8
0
 48
4.0
370
     5
100
AcDbLine
 10
218094.7730185637
 20
136297.5110778243
 30
0.0
 11
218094.7730185637
 21
136677.5110778243
 31
0.0
  0
LINE
  5
13F54
330
2
100
AcDbEntity
  8
0
 48
4.0
370
     5
100
AcDbLine
 10
218089.7730185638
 20
136335.8095718483
 30
0.0
 11
218089.7730185638
 21
136292.5110778243
 31
0.0
  0
HATCH
  5
13F56
330
2
100
AcDbEntity
  8
0
 48
4.0
370
     5
100
AcDbHatch
 10
0.0
 20
0.0
 30
0.0
210
0.0
220
0.0
230
1.0
  2
SOLID
 70
     1
 71
     0
 91
        1
 92
        7
 72
     0
 73
     1
 93
        4
 10
218138.7730185638
 20
136297.5110778243
 10
218124.7730185638
 20
136297.5110778243
 10
218124.7730185638
 20
136292.5110778243
 10
218138.7730185638
 20
136292.5110778243
 97
        0
 75
     0
 76
     1
 47
0.293194517489128
 98
        1
 10
218134.1530454921
 20
136293.8131567639
1001
ACAD
1010
0.0
1020
0.0
1030
0.0
  0
LINE
  5
13F57
102
{ACAD_REACTORS
330
14219
102
}
330
2
100
AcDbEntity
  8
0
 48
4.0
370
     5
100
AcDbLine
 10
218089.7730185638
 20
136292.5110778243
 30
0.0
 11
218138.7730185638
 21
136292.5110778243
 31
0.0
  0
LINE
  5
13F58
102
{ACAD_REACTORS
330
14219
102
}
330
2
100
AcDbEntity
  8
0
 48
4.0
370
     5
100
AcDbLine
 10
218138.7730185638
 20
136292.5110778243
 30
0.0
 11
218138.7730185638
 21
136297.5110778243
 31
0.0
  0
LINE
  5
13F59
102
{ACAD_REACTORS
330
14219
102
}
330
2
100
AcDbEntity
  8
0
 48
4.0
370
     5
100
AcDbLine
 10
218138.7730185638
 20
136297.5110778243
 30
0.0
 11
218094.7730185637
 21
136297.5110778243
 31
0.0
  0
LINE
  5
13F5A
330
2
100
AcDbEntity
  8
0
 48
4.0
370
     5
100
AcDbLine
 10
218094.7730185637
 20
136639.2125838004
 30
0.0
 11
218089.7730185638
 21
136639.2125838004
 31
0.0
  0
LINE
  5
13F5B
330
2
100
AcDbEntity
  8
0
 48
4.0
370
     5
100
AcDbLine
 10
218089.7730185638
 20
136639.2125838004
 30
0.0
 11
218089.7730185638
 21
136682.5110778243
 31
0.0
  0
LINE
  5
13F5C
330
2
100
AcDbEntity
  8
0
 48
4.0
370
     5
100
AcDbLine
 10
218089.7730185638
 20
136682.5110778243
 30
0.0
 11
218124.7730185638
 21
136682.5110778243
 31
0.0
  0
LINE
  5
13F5D
102
{ACAD_REACTORS
330
14219
102
}
330
2
100
AcDbEntity
  8
0
 48
4.0
370
     5
100
AcDbLine
 10
218124.7730185638
 20
136677.5110778243
 30
0.0
 11
218124.7730185638
 21
137112.5110778243
 31
0.0
  0
LINE
  5
13F5E
330
2
100
AcDbEntity
  8
0
 48
4.0
370
     5
100
AcDbLine
 10
219244.7730185637
 20
137062.5110778243
 30
0.0
 11
219249.7730185638
 21
137062.5110778243
 31
0.0
  0
LINE
  5
13F5F
330
2
100
AcDbEntity
  8
0
 48
4.0
370
     5
100
AcDbLine
 10
219249.7730185638
 20
137062.5110778243
 30
0.0
 11
219249.7730185638
 21
137117.5110778243
 31
0.0
  0
LINE
  5
13F60
330
2
100
AcDbEntity
  8
0
 48
4.0
370
     5
100
AcDbLine
 10
219249.7730185638
 20
137117.5110778243
 30
0.0
 11
219184.7730185638
 21
137117.5110778243
 31
0.0
  0
LINE
  5
13F61
330
2
100
AcDbEntity
  8
0
 48
4.0
370
     5
100
AcDbLine
 10
219184.7730185638
 20
137117.5110778243
 30
0.0
 11
219184.7730185638
 21
137112.5110778243
 31
0.0
  0
LINE
  5
13F63
330
2
100
AcDbEntity
  8
0
 48
4.0
370
     5
100
AcDbLine
 10
219344.7730185638
 20
136447.5110778243
 30
0.0
 11
219349.7730185637
 21
136447.5110778243
 31
0.0
  0
LINE
  5
13F64
330
2
100
AcDbEntity
  8
0
 48
4.0
370
     5
100
AcDbLine
 10
219349.7730185637
 20
136447.5110778243
 30
0.0
 11
219349.7730185637
 21
136502.5110778243
 31
0.0
  0
LINE
  5
13F65
330
2
100
AcDbEntity
  8
0
 48
4.0
370
     5
100
AcDbLine
 10
219349.7730185637
 20
136502.5110778243
 30
0.0
 11
219284.7730185638
 21
136502.5110778243
 31
0.0
  0
LINE
  5
13F66
330
2
100
AcDbEntity
  8
0
 48
4.0
370
     5
100
AcDbLine
 10
219284.7730185638
 20
136502.5110778243
 30
0.0
 11
219284.7730185638
 21
136497.5110778243
 31
0.0
  0
LINE
  5
13F67
330
2
100
AcDbEntity
  8
0
 48
4.0
370
     5
100
AcDbLine
 10
218754.7730185638
 20
135462.5110778243
 30
0.0
 11
219004.7730185638
 21
135562.5110778243
 31
0.0
  0
LINE
  5
13F68
330
2
100
AcDbEntity
  8
0
 48
4.0
370
     5
100
AcDbLine
 10
219004.7730185638
 20
135562.5110778243
 30
0.0
 11
219254.7730185637
 21
135462.5110778243
 31
0.0
  0
HATCH
  5
13F84
330
2
100
AcDbEntity
  8
0
 48
4.0
370
     5
100
AcDbHatch
 10
0.0
 20
0.0
 30
0.0
210
0.0
220
0.0
230
1.0
  2
SOLID
 70
     1
 71
     0
 91
        1
 92
        7
 72
     0
 73
     1
 93
        6
 10
219344.7730185637
 20
136234.5110778243
 10
219284.7730185637
 20
136234.5110778243
 10
219284.7730185638
 20
135622.5110778243
 10
219254.7730185637
 20
135622.5110778243
 10
219254.7730185637
 20
135562.5110778243
 10
219344.7730185638
 20
135562.5110778243
 97
        0
 75
     0
 76
     1
 47
3.647281816525914
 98
        1
 10
219323.304458341
 20
135692.4660137987
1001
ACAD
1010
0.0
1020
0.0
1030
0.0
  0
LINE
  5
13F85
102
{ACAD_REACTORS
330
14219
102
}
330
2
100
AcDbEntity
  8
0
 48
4.0
370
     5
100
AcDbLine
 10
218124.7730185638
 20
136677.5110778243
 30
0.0
 11
218094.7730185637
 21
136677.5110778243
 31
0.0
  0
LINE
  5
13F86
102
{ACAD_REACTORS
330
14219
102
}
330
2
100
AcDbEntity
  8
0
 48
4.0
370
     5
100
AcDbLine
 10
218367.7730185638
 20
135862.5110778243
 30
0.0
 11
218367.7730185638
 21
135822.5110778243
 31
0.0
  0
LINE
  5
13F87
102
{ACAD_REACTORS
330
14219
102
}
330
2
100
AcDbEntity
  8
0
 48
4.0
370
     5
100
AcDbLine
 10
218367.7730185638
 20
135822.5110778243
 30
0.0
 11
218411.7730185638
 21
135822.5110778243
 31
0.0
  0
LINE
  5
13F88
102
{ACAD_REACTORS
330
14219
102
}
330
2
100
AcDbEntity
  8
0
 48
4.0
370
     5
100
AcDbLine
 10
218411.7730185638
 20
135822.5110778243
 30
0.0
 11
218411.7730185638
 21
135889.3567434479
 31
0.0
  0
LINE
  5
13F89
102
{ACAD_REACTORS
330
14219
102
}
330
2
100
AcDbEntity
  8
0
 48
4.0
370
     5
100
AcDbLine
 10
218411.7730185638
 20
135889.3567434479
 30
0.0
 11
218434.9273576355
 21
135912.5110778243
 31
0.0
  0
LINE
  5
13F8A
102
{ACAD_REACTORS
330
14219
102
}
330
2
100
AcDbEntity
  8
0
 48
4.0
370
     5
100
AcDbLine
 10
218434.9273576355
 20
135912.5110778243
 30
0.0
 11
218664.7730185637
 21
135912.5110778243
 31
0.0
  0
HATCH
  5
13F8B
330
2
100
AcDbEntity
  8
0
 48
4.0
370
     5
100
AcDbHatch
 10
0.0
 20
0.0
 30
0.0
210
0.0
220
0.0
230
1.0
  2
SOLID
 70
     1
 71
     0
 91
        1
 92
        7
 72
     0
 73
     1
 93
        4
 10
218629.7730185637
 20
135822.5110778243
 10
218664.7730185637
 20
135822.5110778243
 10
218664.7730185637
 20
135861.5110778243
 10
218629.7730185637
 20
135861.5110778243
 97
        0
 75
     0
 76
     1
 47
1.751130788831676
 98
        1
 10
218645.1817139796
 20
135843.3337749341
1001
ACAD
1010
0.0
1020
0.0
1030
0.0
  0
LINE
  5
13F8D
330
2
100
AcDbEntity
  8
0
 48
4.0
370
     5
100
AcDbLine
 10
218664.7730185637
 20
135562.5110778243
 30
0.0
 11
219344.7730185638
 21
135562.5110778243
 31
0.0
  0
LINE
  5
13F8F
102
{ACAD_REACTORS
330
14219
102
}
330
2
100
AcDbEntity
  8
0
 48
4.0
370
     5
100
AcDbLine
 10
219244.7730185637
 20
136497.5110778243
 30
0.0
 11
219344.7730185638
 21
136497.5110778243
 31
0.0
  0
LINE
  5
13F90
102
{ACAD_REACTORS
330
14219
102
}
330
2
100
AcDbEntity
  8
0
 48
4.0
370
     5
100
AcDbLine
 10
219244.7730185637
 20
136497.5110778243
 30
0.0
 11
219244.7730185637
 21
137112.5110778243
 31
0.0
  0
LINE
  5
13F91
102
{ACAD_REACTORS
330
14219
102
}
330
2
100
AcDbEntity
  8
0
 48
4.0
370
     5
100
AcDbLine
 10
218184.7730185638
 20
137052.5110778243
 30
0.0
 11
218184.7730185638
 21
136617.5110778243
 31
0.0
  0
LINE
  5
13F92
102
{ACAD_REACTORS
330
14219
102
}
330
2
100
AcDbEntity
  8
0
 48
4.0
370
     5
100
AcDbLine
 10
218184.7730185638
 20
136617.5110778243
 30
0.0
 11
218154.7730185638
 21
136617.5110778243
 31
0.0
  0
LINE
  5
13F93
102
{ACAD_REACTORS
330
14219
102
}
330
2
100
AcDbEntity
  8
0
 48
4.0
370
     5
100
AcDbLine
 10
218154.7730185638
 20
136617.5110778243
 30
0.0
 11
218154.7730185638
 21
136357.5110778243
 31
0.0
  0
LINE
  5
13F94
102
{ACAD_REACTORS
330
14219
102
}
330
2
100
AcDbEntity
  8
0
 48
4.0
370
     5
100
AcDbLine
 10
218154.7730185638
 20
136357.5110778243
 30
0.0
 11
218184.7730185638
 21
136357.5110778243
 31
0.0
  0
LINE
  5
13F95
102
{ACAD_REACTORS
330
14219
102
}
330
2
100
AcDbEntity
  8
0
 48
4.0
370
     5
100
AcDbLine
 10
218184.7730185638
 20
136357.5110778243
 30
0.0
 11
218184.7730185638
 21
135922.5110778243
 31
0.0
  0
LINE
  5
13F96
102
{ACAD_REACTORS
330
14219
102
}
330
2
100
AcDbEntity
  8
0
 48
4.0
370
     5
100
AcDbLine
 10
218184.7730185638
 20
135922.5110778243
 30
0.0
 11
218360.0745373176
 21
135922.5110778243
 31
0.0
  0
LINE
  5
13F97
102
{ACAD_REACTORS
330
14219
102
}
330
2
100
AcDbEntity
  8
0
 48
4.0
370
     5
100
AcDbLine
 10
218360.0745373176
 20
135922.5110778243
 30
0.0
 11
218410.0745474568
 21
135972.5110778243
 31
0.0
  0
LINE
  5
13F98
102
{ACAD_REACTORS
330
14219
102
}
330
2
100
AcDbEntity
  8
0
 48
4.0
370
     5
100
AcDbLine
 10
218410.0745474568
 20
135972.5110778243
 30
0.0
 11
218724.7730185637
 21
135972.5110778243
 31
0.0
  0
LINE
  5
13F99
330
2
100
AcDbEntity
  8
0
 48
4.0
370
     5
100
AcDbLine
 10
218724.7730185637
 20
135972.5110778243
 30
0.0
 11
218724.7730185637
 21
135622.5110778243
 31
0.0
  0
LINE
  5
13F9A
330
2
100
AcDbEntity
  8
0
 48
4.0
370
     5
100
AcDbLine
 10
218724.7730185637
 20
135622.5110778243
 30
0.0
 11
219284.7730185638
 21
135622.5110778243
 31
0.0
  0
LINE
  5
13F9B
102
{ACAD_REACTORS
330
14219
102
}
330
2
100
AcDbEntity
  8
0
 48
4.0
370
     5
100
AcDbLine
 10
219284.7730185638
 20
135622.5110778243
 30
0.0
 11
219284.7730185637
 21
136437.5110778243
 31
0.0
  0
LINE
  5
13F9C
102
{ACAD_REACTORS
330
14219
102
}
330
2
100
AcDbEntity
  8
0
 48
4.0
370
     5
100
AcDbLine
 10
219284.7730185637
 20
136437.5110778243
 30
0.0
 11
219184.7730185638
 21
136437.5110778243
 31
0.0
  0
LINE
  5
13F9D
102
{ACAD_REACTORS
330
14219
102
}
330
2
100
AcDbEntity
  8
0
 48
4.0
370
     5
100
AcDbLine
 10
219184.7730185638
 20
136437.5110778243
 30
0.0
 11
219184.7730185638
 21
137052.5110778243
 31
0.0
  0
LINE
  5
13F9E
102
{ACAD_REACTORS
330
14219
102
}
330
2
100
AcDbEntity
  8
0
 48
4.0
370
     5
100
AcDbLine
 10
219184.7730185638
 20
137052.5110778243
 30
0.0
 11
218184.7730185638
 21
137052.5110778243
 31
0.0
  0
LINE
  5
13F9F
330
2
100
AcDbEntity
  8
0
 48
4.0
370
     5
100
AcDbLine
 10
219344.7730185638
 20
136234.5110778243
 30
0.0
 11
219284.7730185637
 21
136234.5110778243
 31
0.0
  0
LINE
  5
13FA0
102
{ACAD_REACTORS
330
14219
102
}
330
2
100
AcDbEntity
  8
0
 48
4.0
370
     5
100
AcDbLine
 10
219344.7730185638
 20
136334.5110778243
 30
0.0
 11
219284.7730185637
 21
136334.5110778243
 31
0.0
  0
LINE
  5
13FA3
330
2
100
AcDbEntity
  8
0
 48
4.0
370
     5
100
AcDbLine
 10
218571.7730185638
 20
135912.5110778243
 30
0.0
 11
218571.7730185638
 21
135972.5110778243
 31
0.0
  0
LINE
  5
13FA4
102
{ACAD_REACTORS
330
14219
102
}
330
2
100
AcDbEntity
  8
0
 48
4.0
370
     5
100
AcDbLine
 10
218471.7730185638
 20
135912.5110778243
 30
0.0
 11
218471.7730185638
 21
135972.5110778243
 31
0.0
  0
LINE
  5
13FA5
330
2
100
AcDbEntity
  8
0
 48
4.0
370
     5
100
AcDbLine
 10
218629.7730185637
 20
135822.5110778243
 30
0.0
 11
218629.7730185637
 21
135861.5110778243
 31
0.0
  0
LINE
  5
13FA6
330
2
100
AcDbEntity
  8
0
 48
4.0
370
     5
100
AcDbLine
 10
218094.7730185637
 20
136335.8095718483
 30
0.0
 11
218089.7730185638
 21
136335.8095718483
 31
0.0
  0
DIMENSION
  5
13FA7
330
2
100
AcDbEntity
  8
0Wymiary-PL
100
AcDbDimension
  2
*D1
 10
217507.3470202255
 20
135862.5110778243
 30
0.0
 11
217427.3470202254
 21
136487.5110778244
 31
0.0
 70
    32
 71
     5
 42
1250.0
  3
500
100
AcDbAlignedDimension
 13
218124.7730185638
 23
137112.5110778243
 33
0.0
 14
218220.104869565
 24
135862.5110778243
 34
0.0
 50
90.0
100
AcDbRotatedDimension
  0
DIMENSION
  5
13FC8
330
2
100
AcDbEntity
  8
0Wymiary-PL
100
AcDbDimension
  2
*D2
 10
217507.3470202255
 20
135562.5110778243
 30
0.0
 11
217427.3470202254
 21
135712.5110778244
 31
0.0
 70
    32
 71
     5
 42
300.0
  3
500
100
AcDbAlignedDimension
 13
218220.104869565
 23
135862.5110778243
 33
0.0
 14
218703.0079276164
 24
135562.5110778243
 34
0.0
 50
90.0
100
AcDbRotatedDimension
  0
DIMENSION
  5
13FD3
330
2
100
AcDbEntity
  8
0Wymiary-PL
100
AcDbDimension
  2
*D3
 10
217344.8664950212
 20
137112.5110778243
 30
0.0
 11
217264.8664950211
 21
136337.5110778244
 31
0.0
 70
    32
 71
     5
 42
1550.0
  3
500
100
AcDbAlignedDimension
 13
218664.7730185638
 23
135562.5110778243
 33
0.0
 14
218124.7730185638
 24
137112.5110778243
 34
0.0
 50
90.0
100
AcDbRotatedDimension
  0
DIMENSION
  5
13FDE
330
2
100
AcDbEntity
  8
0Wymiary-PL
100
AcDbDimension
  2
*D4
 10
218124.7730185638
 20
137331.4663191592
 30
0.0
 11
218109.7730185638
 21
137411.4663191593
 31
0.0
 70
    32
 71
     5
 42
30.0
  3
500
100
AcDbAlignedDimension
 13
218094.7730185637
 23
136757.5596115028
 33
0.0
 14
218124.7730185638
 24
136757.5596115028
 34
0.0
100
AcDbRotatedDimension
  0
DIMENSION
  5
13FEB
330
2
100
AcDbEntity
  8
0Wymiary-PL
100
AcDbDimension
  2
*D5
 10
219244.7730185637
 20
137331.4663191592
 30
0.0
 11
218684.7730185638
 21
137411.4663191593
 31
0.0
 70
    32
 71
     5
 42
1120.0
  3
500
100
AcDbAlignedDimension
 13
218124.7730185638
 23
136757.5596115028
 33
0.0
 14
219244.7730185637
 24
137192.5596115028
 34
0.0
100
AcDbRotatedDimension
  0
DIMENSION
  5
13FF6
330
2
100
AcDbEntity
  8
0Wymiary-PL
100
AcDbDimension
  2
*D6
 10
219344.7730185637
 20
137331.4663191592
 30
0.0
 11
219294.7730185638
 21
137411.4663191593
 31
0.0
 70
    32
 71
     5
 42
99.9999999999709
  3
500
100
AcDbAlignedDimension
 13
219244.7730185637
 23
137192.5596115028
 33
0.0
 14
219344.7730185637
 24
136577.5596115028
 34
0.0
100
AcDbRotatedDimension
  0
DIMENSION
  5
14003
330
2
100
AcDbEntity
  8
0Wymiary-PL
100
AcDbDimension
  2
*D7
 10
218094.7730185637
 20
137520.6792018239
 30
0.0
 11
218719.7730185638
 21
137600.6792018239
 31
0.0
 70
    32
 71
     5
 42
1250.000000000029
  3
500
100
AcDbAlignedDimension
 13
219344.7730185638
 23
136577.5596115028
 33
0.0
 14
218094.7730185637
 24
136757.5596115028
 34
0.0
100
AcDbRotatedDimension
  0
LWPOLYLINE
  5
141CF
330
2
100
AcDbEntity
  8
RAMKI-A4
370
     5
100
AcDbPolyline
 90
        4
 70
     1
 43
0.0
 10
215187.2000545948
 20
127657.5157057546
 10
215187.2000545948
 20
141677.5157057546
 10
225387.2000545948
 20
141677.5157057546
 10
225387.2000545948
 20
127657.5157057546
  0
HATCH
  5
14219
330
2
100
AcDbEntity
  8
0
 48
4.0
370
     5
100
AcDbHatch
 10
0.0
 20
0.0
 30
0.0
210
0.0
220
0.0
230
1.0
  2
SOLID
 70
     1
 71
     1
 91
        1
 92
        7
 72
     0
 73
     1
 93
       31
 10
218471.7730185637
 20
135972.5110778243
 10
218410.0745474568
 20
135972.5110778243
 10
218360.0745373176
 20
135922.5110778243
 10
218184.7730185638
 20
135922.5110778243
 10
218184.7730185638
 20
136357.5110778243
 10
218154.7730185638
 20
136357.5110778243
 10
218154.7730185638
 20
136617.5110778243
 10
218184.7730185638
 20
136617.5110778243
 10
218184.7730185638
 20
137052.5110778243
 10
219184.7730185638
 20
137052.5110778244
 10
219184.7730185637
 20
136437.5110778243
 10
219284.7730185637
 20
136437.5110778243
 10
219284.7730185637
 20
136334.5110778243
 10
219344.7730185637
 20
136334.5110778243
 10
219344.7730185637
 20
136497.5110778243
 10
219244.7730185637
 20
136497.5110778243
 10
219244.7730185637
 20
137112.5110778243
 10
218124.7730185638
 20
137112.5110778243
 10
218124.7730185638
 20
136677.5110778243
 10
218094.7730185637
 20
136677.5110778243
 10
218094.7730185637
 20
136297.5110778243
 10
218138.7730185638
 20
136297.5110778243
 10
218138.7730185638
 20
136292.5110778243
 10
218124.7730185638
 20
136292.5110778243
 10
218124.7730185638
 20
135862.5110778243
 10
218367.7730185637
 20
135862.5110778243
 10
218367.7730185638
 20
135822.5110778243
 10
218411.7730185638
 20
135822.5110778243
 10
218411.7730185638
 20
135889.356743448
 10
218434.9273576355
 20
135912.5110778243
 10
218471.7730185638
 20
135912.5110778243
 97
       31
330
13F98
330
13F97
330
13F96
330
13F95
330
13F94
330
13F93
330
13F92
330
13F91
330
13F9E
330
13F9D
330
13F9C
330
13F9B
330
13FA0
330
13F4A
330
13F8F
330
13F90
330
13F52
330
13F5D
330
13F85
330
13F53
330
13F59
330
13F58
330
13F57
330
13F3E
330
13F43
330
13F86
330
13F87
330
13F88
330
13F89
330
13F8A
330
13FA4
 75
     0
 76
     1
 47
2.658974757223401
 98
        1
 10
218233.4182801813
 20
135915.5513928241
1001
ACAD
1010
0.0
1020
0.0
1030
0.0
  0
LINE
  5
14394
330
2
100
AcDbEntity
  8
0
 48
4.0
370
     5
100
AcDbLine
 10
217752.0052523893
 20
136306.8540626344
 30
0.0
 11
217809.9263873518
 21
136322.5110778243
 31
0.0
  0
LINE
  5
14398
330
2
100
AcDbEntity
  8
0
 48
4.0
370
     5
100
AcDbLine
 10
217827.5802207803
 20
136266.3293889754
 30
0.0
 11
217784.2949298827
 21
136247.7968961122
 31
0.0
  0
LINE
  5
14399
330
2
100
AcDbEntity
  8
0
 48
4.0
370
     5
100
AcDbLine
 10
217849.7166212952
 20
136211.7581532475
 30
0.0
 11
217820.174756947
 21
136192.4178755093
 31
0.0
  0
LINE
  5
1439A
330
2
100
AcDbEntity
  8
0
 48
4.0
370
     5
100
AcDbLine
 10
217876.1907786331
 20
136159.1543607047
 30
0.0
 11
217839.4914393063
 21
136126.7081617592
 31
0.0
  0
LINE
  5
1439B
330
2
100
AcDbEntity
  8
0
 48
4.0
370
     5
100
AcDbLine
 10
217906.8295061139
 20
136108.8621309373
 30
0.0
 11
217885.7811165793
 21
136083.6206512093
 31
0.0
  0
LINE
  5
1439C
330
2
100
AcDbEntity
  8
0
 48
4.0
370
     5
100
AcDbLine
 10
217941.4323735819
 20
136061.2104619253
 30
0.0
 11
217917.1833188184
 21
136021.425371405
 31
0.0
  0
LINE
  5
1439D
330
2
100
AcDbEntity
  8
0
 48
4.0
370
     5
100
AcDbLine
 10
217979.7730185638
 20
136016.5110778243
 30
0.0
 11
217968.2625983918
 21
135989.444821927
 31
0.0
  0
LINE
  5
1439E
330
2
100
AcDbEntity
  8
0
 48
4.0
370
     5
100
AcDbLine
 10
218004.1063518971
 20
136016.5110778243
 30
0.0
 11
217988.8066457151
 21
135973.3391598764
 31
0.0
  0
LINE
  5
1439F
330
2
100
AcDbEntity
  8
0
 48
4.0
370
     5
100
AcDbLine
 10
218038.4396852304
 20
136016.5110778243
 30
0.0
 11
218031.2603426649
 21
135989.4282067593
 31
0.0
  0
LINE
  5
143A0
330
2
100
AcDbEntity
  8
0
 48
4.0
370
     5
100
AcDbLine
 10
218072.7730185638
 20
136016.5110778243
 30
0.0
 11
218061.9592574061
 21
135967.5615043199
 31
0.0
  0
LINE
  5
143A1
330
2
100
AcDbEntity
  8
0
 48
4.0
370
     5
100
AcDbLine
 10
218107.1063518971
 20
136016.5110778243
 30
0.0
 11
218101.5837049917
 21
135981.3450054028
 31
0.0
  0
LINE
  5
143A2
330
2
100
AcDbEntity
  8
0
 48
4.0
370
     5
100
AcDbLine
 10
218124.7730185638
 20
135956.5110778243
 30
0.0
 11
217954.2569215854
 21
135956.5110778243
 31
0.0
  0
ARC
  5
143A4
330
2
100
AcDbEntity
  8
0
 48
4.0
370
     5
100
AcDbCircle
 10
218512.8072052707
 20
136512.5110778243
 30
0.0
 40
788.1081267217664
100
AcDbArc
 50
135.1311024178729
 51
224.868897582127
  0
LINE
  5
143A6
330
2
100
AcDbEntity
  8
0
 48
4.0
370
     5
100
AcDbLine
 10
217752.0052523893
 20
136718.1680930143
 30
0.0
 11
217809.9263873518
 21
136702.5110778243
 31
0.0
  0
LINE
  5
143A7
330
2
100
AcDbEntity
  8
0
 48
4.0
370
     5
100
AcDbLine
 10
217827.5802207803
 20
136758.6927666732
 30
0.0
 11
217784.2949298827
 21
136777.2252595365
 31
0.0
  0
LINE
  5
143A8
330
2
100
AcDbEntity
  8
0
 48
4.0
370
     5
100
AcDbLine
 10
217849.7166212952
 20
136813.2640024011
 30
0.0
 11
217820.174756947
 21
136832.6042801393
 31
0.0
  0
LINE
  5
143A9
330
2
100
AcDbEntity
  8
0
 48
4.0
370
     5
100
AcDbLine
 10
217876.1907786331
 20
136865.8677949439
 30
0.0
 11
217839.4914393063
 21
136898.3139938895
 31
0.0
  0
LINE
  5
143AA
330
2
100
AcDbEntity
  8
0
 48
4.0
370
     5
100
AcDbLine
 10
217906.8295061139
 20
136916.1600247114
 30
0.0
 11
217885.7811165793
 21
136941.4015044394
 31
0.0
  0
LINE
  5
143AB
330
2
100
AcDbEntity
  8
0
 48
4.0
370
     5
100
AcDbLine
 10
217941.4323735819
 20
136963.8116937234
 30
0.0
 11
217917.1833188184
 21
137003.5967842437
 31
0.0
  0
LINE
  5
143AC
330
2
100
AcDbEntity
  8
0
 48
4.0
370
     5
100
AcDbLine
 10
217979.7730185638
 20
137008.5110778243
 30
0.0
 11
217968.2625983918
 21
137035.5773337216
 31
0.0
  0
LINE
  5
143AD
330
2
100
AcDbEntity
  8
0
 48
4.0
370
     5
100
AcDbLine
 10
218004.1063518971
 20
137008.5110778243
 30
0.0
 11
217988.8066457151
 21
137051.6829957723
 31
0.0
  0
LINE
  5
143AE
330
2
100
AcDbEntity
  8
0
 48
4.0
370
     5
100
AcDbLine
 10
218038.4396852304
 20
137008.5110778243
 30
0.0
 11
218031.2603426649
 21
137035.5939488894
 31
0.0
  0
LINE
  5
143AF
330
2
100
AcDbEntity
  8
0
 48
4.0
370
     5
100
AcDbLine
 10
218072.7730185638
 20
137008.5110778243
 30
0.0
 11
218061.9592574061
 21
137057.4606513287
 31
0.0
  0
LINE
  5
143B0
330
2
100
AcDbEntity
  8
0
 48
4.0
370
     5
100
AcDbLine
 10
218107.1063518971
 20
137008.5110778243
 30
0.0
 11
218101.5837049917
 21
137043.6771502458
 31
0.0
  0
LINE
  5
143B1
330
2
100
AcDbEntity
  8
0
 48
4.0
370
     5
100
AcDbLine
 10
218119.7730185638
 20
137068.5110778243
 30
0.0
 11
217954.2569215854
 21
137068.5110778243
 31
0.0
  0
ARC
  5
143B5
330
2
100
AcDbEntity
  8
0
 48
4.0
370
     5
100
AcDbCircle
 10
218512.8072052707
 20
136512.5110778243
 30
37.0
 40
728.1081267217664
100
AcDbArc
 50
137.0611435648812
 51
164.873545731493
  0
ARC
  5
143B6
330
2
100
AcDbEntity
  8
0
 48
4.0
370
     5
100
AcDbCircle
 10
218512.8072052707
 20
136512.5110778243
 30
37.0
 40
728.1081267217664
100
AcDbArc
 50
195.126454268507
 51
222.9388564351188
  0
LINE
  5
143B7
330
2
100
AcDbEntity
  8
0
 48
4.0
370
     5
100
AcDbLine
 10
218124.7730185638
 20
137008.5110778243
 30
37.0
 11
217979.7730185638
 21
137008.5110778243
 31
37.0
  0
LINE
  5
143B8
330
2
100
AcDbEntity
  8
0
 48
4.0
370
     5
100
AcDbLine
 10
218124.7730185638
 20
137008.5110778243
 30
0.0
 11
217979.7730185638
 21
137008.5110778243
 31
0.0
  0
ARC
  5
143B9
330
2
100
AcDbEntity
  8
0
 48
4.0
370
     5
100
AcDbCircle
 10
218512.8072052707
 20
136512.5110778243
 30
0.0
 40
728.108126721766
100
AcDbArc
 50
137.0611435648812
 51
222.9388564351188
  0
ARC
  5
143BB
330
2
100
AcDbEntity
  8
0
 48
4.0
370
     5
100
AcDbCircle
 10
-218512.8072052707
 20
136512.5110778243
 30
0.0
 40
758.1081267217621
210
0.0
220
0.0
230
-1.0
100
AcDbArc
 50
344.873545731493
 51
15.12645426850698
  0
ARC
  5
143BC
330
2
100
AcDbEntity
  8
0
 48
4.0
370
     5
100
AcDbCircle
 10
218512.8072052707
 20
136512.5110778243
 30
0.0
 40
758.1081267217642
100
AcDbArc
 50
164.873545731493
 51
195.126454268507
  0
ARC
  5
143BD
330
2
100
AcDbEntity
  8
0
 48
4.0
370
     5
100
AcDbCircle
 10
-218512.8072052707
 20
136512.5110778243
 30
0.0
 40
728.1081267217639
210
0.0
220
0.0
230
-1.0
100
AcDbArc
 50
344.873545731493
 51
15.12645426850698
  0
LINE
  5
143BE
330
2
100
AcDbEntity
  8
0
 48
4.0
370
     5
100
AcDbLine
 10
218124.7730185638
 20
137008.5110778243
 30
47.0
 11
218124.7730185638
 21
137068.5110778243
 31
47.0
  0
LINE
  5
143BF
330
2
100
AcDbEntity
  8
0
 48
4.0
370
     5
100
AcDbLine
 10
218119.7730185638
 20
137068.5110778243
 30
47.0
 11
217954.2569215854
 21
137068.5110778243
 31
47.0
  0
ARC
  5
143C0
330
2
100
AcDbEntity
  8
0
 48
4.0
370
     5
100
AcDbCircle
 10
218512.8072052707
 20
136512.5110778243
 30
47.0
 40
788.1081267217682
100
AcDbArc
 50
135.1311024178729
 51
224.868897582127
  0
LINE
  5
143C1
330
2
100
AcDbEntity
  8
0
 48
4.0
370
     5
100
AcDbLine
 10
217954.2569215854
 20
135956.5110778243
 30
47.0
 11
218124.7730185638
 21
135956.5110778243
 31
47.0
  0
LINE
  5
143C6
330
2
100
AcDbEntity
  8
0
 48
4.0
370
     5
100
AcDbLine
 10
217979.7730185638
 20
136016.5110778243
 30
0.0
 11
218124.7730185638
 21
136016.5110778243
 31
0.0
  0
LINE
  5
143CF
330
2
100
AcDbEntity
  8
0
 48
4.0
370
     5
100
AcDbLine
 10
222135.0054711813
 20
135732.5110778243
 30
0.0
 11
222482.0054711813
 21
135732.5110778243
 31
0.0
  0
LINE
  5
143D0
330
2
100
AcDbEntity
  8
0
 48
4.0
370
     5
100
AcDbLine
 10
222482.0054711813
 20
135732.5110778243
 30
0.0
 11
222482.0054711813
 21
135862.5110778243
 31
0.0
  0
LINE
  5
143D1
330
2
100
AcDbEntity
  8
0
 48
4.0
370
     5
100
AcDbLine
 10
222512.0054711813
 20
135862.5110778243
 30
0.0
 11
222512.0054711813
 21
135702.5110778243
 31
0.0
  0
LINE
  5
143D2
330
2
100
AcDbEntity
  8
0
 48
4.0
370
     5
100
AcDbLine
 10
222512.0054711813
 20
135702.5110778243
 30
0.0
 11
222135.0054711813
 21
135702.5110778243
 31
0.0
  0
LINE
  5
143D3
330
2
100
AcDbEntity
  8
0
 48
4.0
370
     5
100
AcDbLine
 10
222452.0054711813
 20
135862.5110778243
 30
0.0
 11
222452.0054711813
 21
135762.5110778243
 31
0.0
  0
LINE
  5
143D4
330
2
100
AcDbEntity
  8
0
 48
4.0
370
     5
100
AcDbLine
 10
222452.0054711813
 20
135762.5110778243
 30
0.0
 11
222135.0054711813
 21
135762.5110778243
 31
0.0
  0
LINE
  5
143D5
330
2
100
AcDbEntity
  8
0
 48
4.0
370
     5
100
AcDbLine
 10
221545.0054711813
 20
135462.5110778243
 30
0.0
 11
221545.0054711813
 21
135622.5110778243
 31
0.0
  0
LINE
  5
143D6
330
2
100
AcDbEntity
  8
0
 48
4.0
370
     5
100
AcDbLine
 10
221545.0054711813
 20
135462.5110778243
 30
0.0
 11
222045.0054711813
 21
135462.5110778243
 31
0.0
  0
LINE
  5
143D7
330
2
100
AcDbEntity
  8
0
 48
4.0
370
     5
100
AcDbLine
 10
222045.0054711813
 20
135462.5110778243
 30
0.0
 11
222045.0054711813
 21
135622.5110778243
 31
0.0
  0
LINE
  5
143D8
330
2
100
AcDbEntity
  8
0
 48
4.0
370
     5
100
AcDbLine
 10
221355.0054711813
 20
136224.5110778243
 30
0.0
 11
221355.0054711813
 21
136344.5110778243
 31
0.0
  0
LINE
  5
143D9
330
2
100
AcDbEntity
  8
0
 48
4.0
370
     5
100
AcDbLine
 10
221355.0054711813
 20
136344.5110778243
 30
0.0
 11
221455.0054711813
 21
136344.5110778243
 31
0.0
  0
LINE
  5
143DA
330
2
100
AcDbEntity
  8
0
 48
4.0
370
     5
100
AcDbLine
 10
221455.0054711813
 20
136224.5110778243
 30
0.0
 11
221355.0054711813
 21
136224.5110778243
 31
0.0
  0
LINE
  5
143DB
330
2
100
AcDbEntity
  8
0
 48
4.0
370
     5
100
AcDbLine
 10
222437.0054711813
 20
135817.5110778243
 30
0.0
 11
222383.0054711813
 21
135817.5110778243
 31
0.0
  0
LINE
  5
143DC
330
2
100
AcDbEntity
  8
0
 48
4.0
370
     5
100
AcDbLine
 10
222383.0054711813
 20
135817.5110778243
 30
0.0
 11
222383.0054711813
 21
135894.4347478525
 31
0.0
  0
LINE
  5
143DD
330
2
100
AcDbEntity
  8
0
 48
4.0
370
     5
100
AcDbLine
 10
222437.0054711813
 20
135862.5110778243
 30
0.0
 11
222437.0054711813
 21
135817.5110778243
 31
0.0
  0
HATCH
  5
143DE
330
2
100
AcDbEntity
  8
0
 48
4.0
370
     5
100
AcDbHatch
 10
0.0
 20
0.0
 30
0.0
210
0.0
220
0.0
230
1.0
  2
SOLID
 70
     1
 71
     0
 91
        1
 92
        7
 72
     0
 73
     1
 93
        4
 10
222126.0054711813
 20
135861.5110778243
 10
222135.0054711813
 20
135861.5110778243
 10
222135.0054711813
 20
135822.5110778243
 10
222126.0054711813
 20
135822.5110778243
 97
        0
 75
     0
 76
     1
 47
0.8813169182921605
 98
        1
 10
222129.5152851689
 20
135839.5007672171
1001
ACAD
1010
0.0
1020
0.0
1030
0.0
  0
HATCH
  5
143DF
330
2
100
AcDbEntity
  8
0
 48
4.0
370
     5
100
AcDbHatch
 10
0.0
 20
0.0
 30
0.0
210
0.0
220
0.0
230
1.0
  2
SOLID
 70
     1
 71
     0
 91
        1
 92
        7
 72
     0
 73
     1
 93
        8
 10
222121.0054711813
 20
135866.5110778243
 10
222135.0054711813
 20
135866.5110778243
 10
222135.0054711813
 20
135861.5110778243
 10
222126.0054711813
 20
135861.5110778243
 10
222126.0054711813
 20
135822.5110778243
 10
222135.0054711813
 20
135822.5110778243
 10
222135.0054711813
 20
135817.5110778243
 10
222121.0054711813
 20
135817.5110778243
 97
        0
 75
     0
 76
     1
 47
0.3037416654421845
 98
        1
 10
222128.8655497317
 20
135862.9054721054
1001
ACAD
1010
0.0
1020
0.0
1030
0.0
  0
LINE
  5
143E0
330
2
100
AcDbEntity
  8
0
 48
4.0
370
     5
100
AcDbLine
 10
222126.0054711813
 20
135822.5110778243
 30
0.0
 11
222170.0054711813
 21
135822.5110778243
 31
0.0
  0
LINE
  5
143E1
330
2
100
AcDbEntity
  8
0
 48
4.0
370
     5
100
AcDbLine
 10
222170.0054711813
 20
135861.5110778243
 30
0.0
 11
222126.0054711813
 21
135861.5110778243
 31
0.0
  0
LINE
  5
143E2
330
2
100
AcDbEntity
  8
0
 48
4.0
370
     5
100
AcDbLine
 10
222126.0054711813
 20
135861.5110778243
 30
0.0
 11
222126.0054711813
 21
135822.5110778243
 31
0.0
  0
HATCH
  5
143E3
330
2
100
AcDbEntity
  8
0
 48
4.0
370
     5
100
AcDbHatch
 10
0.0
 20
0.0
 30
0.0
210
0.0
220
0.0
230
1.0
  2
SOLID
 70
     1
 71
     0
 91
        1
 92
        7
 72
     0
 73
     1
 93
       12
 10
222045.0054711813
 20
135622.5110778243
 10
222075.0054711813
 20
135622.5110778243
 10
222075.0054711813
 20
135972.5110778243
 10
222228.0054711813
 20
135972.5110778243
 10
222228.0054711813
 20
135912.5110778243
 10
222135.0054711813
 20
135912.5110778243
 10
222135.0054711813
 20
135866.5110778243
 10
222121.0054711813
 20
135866.5110778243
 10
222121.0054711813
 20
135817.5110778243
 10
222135.0054711813
 20
135817.5110778243
 10
222135.0054711813
 20
135562.5110778243
 10
222045.0054711813
 20
135562.5110778243
 97
        0
 75
     0
 76
     1
 47
3.647281816525914
 98
        1
 10
222071.3446851361
 20
135615.8731148864
1001
ACAD
1010
0.0
1020
0.0
1030
0.0
  0
LINE
  5
143E4
330
2
100
AcDbEntity
  8
0
 48
4.0
370
     5
100
AcDbLine
 10
222121.0054711813
 20
135817.5110778243
 30
0.0
 11
222175.0054711813
 21
135817.5110778243
 31
0.0
  0
LINE
  5
143E5
330
2
100
AcDbEntity
  8
0
 48
4.0
370
     5
100
AcDbLine
 10
222175.0054711813
 20
135817.5110778243
 30
0.0
 11
222175.0054711813
 21
135866.5110778243
 31
0.0
  0
LINE
  5
143E6
330
2
100
AcDbEntity
  8
0
 48
4.0
370
     5
100
AcDbLine
 10
222175.0054711813
 20
135866.5110778243
 30
0.0
 11
222121.0054711813
 21
135866.5110778243
 31
0.0
  0
LINE
  5
143E7
330
2
100
AcDbEntity
  8
0
 48
4.0
370
     5
100
AcDbLine
 10
222121.0054711813
 20
135866.5110778243
 30
0.0
 11
222121.0054711813
 21
135817.5110778243
 31
0.0
  0
HATCH
  5
143E8
330
2
100
AcDbEntity
  8
0
 48
4.0
370
     5
100
AcDbHatch
 10
0.0
 20
0.0
 30
0.0
210
0.0
220
0.0
230
1.0
  2
SOLID
 70
     1
 71
     1
 91
        1
 92
        7
 72
     0
 73
     1
 93
       31
 10
222328.0054711813
 20
135912.5110778243
 10
222364.8511321096
 20
135912.5110778243
 10
222388.0054711813
 20
135889.356743448
 10
222388.0054711813
 20
135822.5110778243
 10
222432.0054711814
 20
135822.5110778243
 10
222432.0054711813
 20
135862.5110778243
 10
222675.0054711813
 20
135862.5110778243
 10
222675.0054711813
 20
136292.5110778243
 10
222661.0054711814
 20
136292.5110778243
 10
222661.0054711813
 20
136297.5110778243
 10
222705.0054711813
 20
136297.5110778243
 10
222705.0054711813
 20
136677.5110778243
 10
222675.0054711813
 20
136677.5110778243
 10
222675.0054711813
 20
137112.5110778243
 10
221555.0054711813
 20
137112.5110778243
 10
221555.0054711813
 20
136497.5110778243
 10
221455.0054711813
 20
136497.5110778243
 10
221455.0054711813
 20
136334.5110778243
 10
221515.0054711814
 20
136334.5110778243
 10
221515.0054711813
 20
136437.5110778243
 10
221615.0054711813
 20
136437.5110778243
 10
221615.0054711813
 20
137052.5110778244
 10
222615.0054711813
 20
137052.5110778243
 10
222615.0054711813
 20
136617.5110778243
 10
222645.0054711813
 20
136617.5110778243
 10
222645.0054711813
 20
136357.5110778243
 10
222615.0054711813
 20
136357.5110778243
 10
222615.0054711813
 20
135922.5110778243
 10
222439.7039524275
 20
135922.5110778243
 10
222389.7039422883
 20
135972.5110778243
 10
222328.0054711813
 20
135972.5110778243
 97
       31
330
14424
330
14423
330
14422
330
14421
330
14420
330
1441F
330
1441E
330
1441D
330
1442A
330
14429
330
14428
330
14427
330
1442C
330
143F5
330
1441B
330
1441C
330
143FD
330
14407
330
14413
330
143FE
330
14403
330
14402
330
14401
330
143E9
330
143EE
330
14414
330
14415
330
14416
330
14417
330
14418
330
1442E
 75
     0
 76
     1
 47
2.658974757223401
 98
        1
 10
222566.3602095637
 20
135915.5513928241
1001
ACAD
1010
0.0
1020
0.0
1030
0.0
  0
LINE
  5
143E9
102
{ACAD_REACTORS
330
143E8
102
}
330
2
100
AcDbEntity
  8
0
 48
4.0
370
     5
100
AcDbLine
 10
222675.0054711813
 20
135862.5110778243
 30
0.0
 11
222675.0054711813
 21
136297.5110778243
 31
0.0
  0
LINE
  5
143EA
330
2
100
AcDbEntity
  8
0
 48
4.0
370
     5
100
AcDbLine
 10
222675.0054711813
 20
135912.5110778243
 30
0.0
 11
222680.0054711813
 21
135912.5110778243
 31
0.0
  0
LINE
  5
143EB
330
2
100
AcDbEntity
  8
0
 48
4.0
370
     5
100
AcDbLine
 10
222680.0054711813
 20
135912.5110778243
 30
0.0
 11
222680.0054711813
 21
135857.5110778243
 31
0.0
  0
LINE
  5
143EC
330
2
100
AcDbEntity
  8
0
 48
4.0
370
     5
100
AcDbLine
 10
222680.0054711813
 20
135857.5110778243
 30
0.0
 11
222615.0054711813
 21
135857.5110778243
 31
0.0
  0
LINE
  5
143ED
330
2
100
AcDbEntity
  8
0
 48
4.0
370
     5
100
AcDbLine
 10
222615.0054711813
 20
135857.5110778243
 30
0.0
 11
222615.0054711813
 21
135862.5110778243
 31
0.0
  0
LINE
  5
143EE
102
{ACAD_REACTORS
330
143E8
102
}
330
2
100
AcDbEntity
  8
0
 48
4.0
370
     5
100
AcDbLine
 10
222675.0054711813
 20
135862.5110778243
 30
0.0
 11
222432.0054711813
 21
135862.5110778243
 31
0.0
  0
LINE
  5
143EF
330
2
100
AcDbEntity
  8
0
 48
4.0
370
     5
100
AcDbLine
 10
222135.0054711813
 20
135562.5110778243
 30
0.0
 11
222135.0054711813
 21
135912.5110778243
 31
0.0
  0
LINE
  5
143F0
330
2
100
AcDbEntity
  8
0
 48
4.0
370
     5
100
AcDbLine
 10
222135.0054711813
 20
135612.5110778243
 30
0.0
 11
222140.0054711813
 21
135612.5110778243
 31
0.0
  0
LINE
  5
143F1
330
2
100
AcDbEntity
  8
0
 48
4.0
370
     5
100
AcDbLine
 10
222140.0054711813
 20
135612.5110778243
 30
0.0
 11
222140.0054711813
 21
135557.5110778243
 31
0.0
  0
LINE
  5
143F2
330
2
100
AcDbEntity
  8
0
 48
4.0
370
     5
100
AcDbLine
 10
222140.0054711813
 20
135557.5110778243
 30
0.0
 11
222075.0054711813
 21
135557.5110778243
 31
0.0
  0
LINE
  5
143F3
330
2
100
AcDbEntity
  8
0
 48
4.0
370
     5
100
AcDbLine
 10
221515.0054711813
 20
135557.5110778243
 30
0.0
 11
221450.0054711813
 21
135557.5110778243
 31
0.0
  0
LINE
  5
143F4
330
2
100
AcDbEntity
  8
0
 48
4.0
370
     5
100
AcDbLine
 10
221515.0054711813
 20
135557.5110778243
 30
0.0
 11
221515.0054711813
 21
135562.5110778243
 31
0.0
  0
LINE
  5
143F5
102
{ACAD_REACTORS
330
143E8
102
}
330
2
100
AcDbEntity
  8
0
 48
4.0
370
     5
100
AcDbLine
 10
221455.0054711813
 20
135562.5110778243
 30
0.0
 11
221455.0054711813
 21
136497.5110778243
 31
0.0
  0
LINE
  5
143F6
330
2
100
AcDbEntity
  8
0
 48
4.0
370
     5
100
AcDbLine
 10
221455.0054711813
 20
135612.5110778243
 30
0.0
 11
221450.0054711813
 21
135612.5110778243
 31
0.0
  0
LINE
  5
143F7
330
2
100
AcDbEntity
  8
0
 48
4.0
370
     5
100
AcDbLine
 10
221450.0054711813
 20
135612.5110778243
 30
0.0
 11
221450.0054711813
 21
135557.5110778243
 31
0.0
  0
LINE
  5
143F8
330
2
100
AcDbEntity
  8
0
 48
4.0
370
     5
100
AcDbLine
 10
222075.0054711813
 20
135557.5110778243
 30
0.0
 11
222075.0054711813
 21
135562.5110778243
 31
0.0
  0
LINE
  5
143F9
330
2
100
AcDbEntity
  8
0
 48
4.0
370
     5
100
AcDbLine
 10
222675.0054711813
 20
137062.5110778243
 30
0.0
 11
222680.0054711813
 21
137062.5110778243
 31
0.0
  0
LINE
  5
143FA
330
2
100
AcDbEntity
  8
0
 48
4.0
370
     5
100
AcDbLine
 10
222680.0054711813
 20
137062.5110778243
 30
0.0
 11
222680.0054711813
 21
137117.5110778243
 31
0.0
  0
LINE
  5
143FB
330
2
100
AcDbEntity
  8
0
 48
4.0
370
     5
100
AcDbLine
 10
222680.0054711813
 20
137117.5110778243
 30
0.0
 11
222615.0054711813
 21
137117.5110778243
 31
0.0
  0
LINE
  5
143FC
330
2
100
AcDbEntity
  8
0
 48
4.0
370
     5
100
AcDbLine
 10
222615.0054711813
 20
137117.5110778243
 30
0.0
 11
222615.0054711813
 21
137112.5110778243
 31
0.0
  0
LINE
  5
143FD
102
{ACAD_REACTORS
330
143E8
102
}
330
2
100
AcDbEntity
  8
0
 48
4.0
370
     5
100
AcDbLine
 10
222675.0054711813
 20
137112.5110778243
 30
0.0
 11
221555.0054711813
 21
137112.5110778243
 31
0.0
  0
LINE
  5
143FE
102
{ACAD_REACTORS
330
143E8
102
}
330
2
100
AcDbEntity
  8
0
 48
4.0
370
     5
100
AcDbLine
 10
222705.0054711813
 20
136297.5110778243
 30
0.0
 11
222705.0054711813
 21
136677.5110778243
 31
0.0
  0
LINE
  5
143FF
330
2
100
AcDbEntity
  8
0
 48
4.0
370
     5
100
AcDbLine
 10
222710.0054711813
 20
136335.8095718483
 30
0.0
 11
222710.0054711813
 21
136292.5110778243
 31
0.0
  0
HATCH
  5
14400
330
2
100
AcDbEntity
  8
0
 48
4.0
370
     5
100
AcDbHatch
 10
0.0
 20
0.0
 30
0.0
210
0.0
220
0.0
230
1.0
  2
SOLID
 70
     1
 71
     0
 91
        1
 92
        7
 72
     0
 73
     1
 93
        4
 10
222661.0054711813
 20
136297.5110778243
 10
222675.0054711813
 20
136297.5110778243
 10
222675.0054711813
 20
136292.5110778243
 10
222661.0054711813
 20
136292.5110778243
 97
        0
 75
     0
 76
     1
 47
0.293194517489128
 98
        1
 10
222665.6254442529
 20
136293.8131567639
1001
ACAD
1010
0.0
1020
0.0
1030
0.0
  0
LINE
  5
14401
102
{ACAD_REACTORS
330
143E8
102
}
330
2
100
AcDbEntity
  8
0
 48
4.0
370
     5
100
AcDbLine
 10
222710.0054711813
 20
136292.5110778243
 30
0.0
 11
222661.0054711813
 21
136292.5110778243
 31
0.0
  0
LINE
  5
14402
102
{ACAD_REACTORS
330
143E8
102
}
330
2
100
AcDbEntity
  8
0
 48
4.0
370
     5
100
AcDbLine
 10
222661.0054711813
 20
136292.5110778243
 30
0.0
 11
222661.0054711813
 21
136297.5110778243
 31
0.0
  0
LINE
  5
14403
102
{ACAD_REACTORS
330
143E8
102
}
330
2
100
AcDbEntity
  8
0
 48
4.0
370
     5
100
AcDbLine
 10
222661.0054711813
 20
136297.5110778243
 30
0.0
 11
222705.0054711813
 21
136297.5110778243
 31
0.0
  0
LINE
  5
14404
330
2
100
AcDbEntity
  8
0
 48
4.0
370
     5
100
AcDbLine
 10
222705.0054711813
 20
136639.2125838004
 30
0.0
 11
222710.0054711813
 21
136639.2125838004
 31
0.0
  0
LINE
  5
14405
330
2
100
AcDbEntity
  8
0
 48
4.0
370
     5
100
AcDbLine
 10
222710.0054711813
 20
136639.2125838004
 30
0.0
 11
222710.0054711813
 21
136682.5110778243
 31
0.0
  0
LINE
  5
14406
330
2
100
AcDbEntity
  8
0
 48
4.0
370
     5
100
AcDbLine
 10
222710.0054711813
 20
136682.5110778243
 30
0.0
 11
222675.0054711813
 21
136682.5110778243
 31
0.0
  0
LINE
  5
14407
102
{ACAD_REACTORS
330
143E8
102
}
330
2
100
AcDbEntity
  8
0
 48
4.0
370
     5
100
AcDbLine
 10
222675.0054711813
 20
136677.5110778243
 30
0.0
 11
222675.0054711813
 21
137112.5110778243
 31
0.0
  0
LINE
  5
14408
330
2
100
AcDbEntity
  8
0
 48
4.0
370
     5
100
AcDbLine
 10
221555.0054711813
 20
137062.5110778243
 30
0.0
 11
221550.0054711813
 21
137062.5110778243
 31
0.0
  0
LINE
  5
14409
330
2
100
AcDbEntity
  8
0
 48
4.0
370
     5
100
AcDbLine
 10
221550.0054711813
 20
137062.5110778243
 30
0.0
 11
221550.0054711813
 21
137117.5110778243
 31
0.0
  0
LINE
  5
1440A
330
2
100
AcDbEntity
  8
0
 48
4.0
370
     5
100
AcDbLine
 10
221550.0054711813
 20
137117.5110778243
 30
0.0
 11
221615.0054711813
 21
137117.5110778243
 31
0.0
  0
LINE
  5
1440B
330
2
100
AcDbEntity
  8
0
 48
4.0
370
     5
100
AcDbLine
 10
221615.0054711813
 20
137117.5110778243
 30
0.0
 11
221615.0054711813
 21
137112.5110778243
 31
0.0
  0
LINE
  5
1440C
330
2
100
AcDbEntity
  8
0
 48
4.0
370
     5
100
AcDbLine
 10
221455.0054711813
 20
136447.5110778243
 30
0.0
 11
221450.0054711813
 21
136447.5110778243
 31
0.0
  0
LINE
  5
1440D
330
2
100
AcDbEntity
  8
0
 48
4.0
370
     5
100
AcDbLine
 10
221450.0054711813
 20
136447.5110778243
 30
0.0
 11
221450.0054711813
 21
136502.5110778243
 31
0.0
  0
LINE
  5
1440E
330
2
100
AcDbEntity
  8
0
 48
4.0
370
     5
100
AcDbLine
 10
221450.0054711813
 20
136502.5110778243
 30
0.0
 11
221515.0054711813
 21
136502.5110778243
 31
0.0
  0
LINE
  5
1440F
330
2
100
AcDbEntity
  8
0
 48
4.0
370
     5
100
AcDbLine
 10
221515.0054711813
 20
136502.5110778243
 30
0.0
 11
221515.0054711813
 21
136497.5110778243
 31
0.0
  0
LINE
  5
14410
330
2
100
AcDbEntity
  8
0
 48
4.0
370
     5
100
AcDbLine
 10
222045.0054711813
 20
135462.5110778243
 30
0.0
 11
221795.0054711813
 21
135562.5110778243
 31
0.0
  0
LINE
  5
14411
330
2
100
AcDbEntity
  8
0
 48
4.0
370
     5
100
AcDbLine
 10
221795.0054711813
 20
135562.5110778243
 30
0.0
 11
221545.0054711813
 21
135462.5110778243
 31
0.0
  0
HATCH
  5
14412
330
2
100
AcDbEntity
  8
0
 48
4.0
370
     5
100
AcDbHatch
 10
0.0
 20
0.0
 30
0.0
210
0.0
220
0.0
230
1.0
  2
SOLID
 70
     1
 71
     0
 91
        1
 92
        7
 72
     0
 73
     1
 93
        6
 10
221455.0054711813
 20
136234.5110778243
 10
221515.0054711813
 20
136234.5110778243
 10
221515.0054711813
 20
135622.5110778243
 10
221545.0054711813
 20
135622.5110778243
 10
221545.0054711813
 20
135562.5110778243
 10
221455.0054711813
 20
135562.5110778243
 97
        0
 75
     0
 76
     1
 47
3.647281816525914
 98
        1
 10
221476.474031404
 20
135692.4660137987
1001
ACAD
1010
0.0
1020
0.0
1030
0.0
  0
LINE
  5
14413
102
{ACAD_REACTORS
330
143E8
102
}
330
2
100
AcDbEntity
  8
0
 48
4.0
370
     5
100
AcDbLine
 10
222675.0054711813
 20
136677.5110778243
 30
0.0
 11
222705.0054711813
 21
136677.5110778243
 31
0.0
  0
LINE
  5
14414
102
{ACAD_REACTORS
330
143E8
102
}
330
2
100
AcDbEntity
  8
0
 48
4.0
370
     5
100
AcDbLine
 10
222432.0054711813
 20
135862.5110778243
 30
0.0
 11
222432.0054711813
 21
135822.5110778243
 31
0.0
  0
LINE
  5
14415
102
{ACAD_REACTORS
330
143E8
102
}
330
2
100
AcDbEntity
  8
0
 48
4.0
370
     5
100
AcDbLine
 10
222432.0054711813
 20
135822.5110778243
 30
0.0
 11
222388.0054711813
 21
135822.5110778243
 31
0.0
  0
LINE
  5
14416
102
{ACAD_REACTORS
330
143E8
102
}
330
2
100
AcDbEntity
  8
0
 48
4.0
370
     5
100
AcDbLine
 10
222388.0054711813
 20
135822.5110778243
 30
0.0
 11
222388.0054711813
 21
135889.3567434479
 31
0.0
  0
LINE
  5
14417
102
{ACAD_REACTORS
330
143E8
102
}
330
2
100
AcDbEntity
  8
0
 48
4.0
370
     5
100
AcDbLine
 10
222388.0054711813
 20
135889.3567434479
 30
0.0
 11
222364.8511321095
 21
135912.5110778243
 31
0.0
  0
LINE
  5
14418
102
{ACAD_REACTORS
330
143E8
102
}
330
2
100
AcDbEntity
  8
0
 48
4.0
370
     5
100
AcDbLine
 10
222364.8511321095
 20
135912.5110778243
 30
0.0
 11
222135.0054711813
 21
135912.5110778243
 31
0.0
  0
HATCH
  5
14419
330
2
100
AcDbEntity
  8
0
 48
4.0
370
     5
100
AcDbHatch
 10
0.0
 20
0.0
 30
0.0
210
0.0
220
0.0
230
1.0
  2
SOLID
 70
     1
 71
     0
 91
        1
 92
        7
 72
     0
 73
     1
 93
        4
 10
222170.0054711813
 20
135822.5110778243
 10
222135.0054711813
 20
135822.5110778243
 10
222135.0054711813
 20
135861.5110778243
 10
222170.0054711813
 20
135861.5110778243
 97
        0
 75
     0
 76
     1
 47
1.751130788831676
 98
        1
 10
222154.5967757655
 20
135843.3337749341
1001
ACAD
1010
0.0
1020
0.0
1030
0.0
  0
LINE
  5
1441A
330
2
100
AcDbEntity
  8
0
 48
4.0
370
     5
100
AcDbLine
 10
222135.0054711813
 20
135562.5110778243
 30
0.0
 11
221455.0054711813
 21
135562.5110778243
 31
0.0
  0
LINE
  5
1441B
102
{ACAD_REACTORS
330
143E8
102
}
330
2
100
AcDbEntity
  8
0
 48
4.0
370
     5
100
AcDbLine
 10
221555.0054711813
 20
136497.5110778243
 30
0.0
 11
221455.0054711813
 21
136497.5110778243
 31
0.0
  0
LINE
  5
1441C
102
{ACAD_REACTORS
330
143E8
102
}
330
2
100
AcDbEntity
  8
0
 48
4.0
370
     5
100
AcDbLine
 10
221555.0054711813
 20
136497.5110778243
 30
0.0
 11
221555.0054711813
 21
137112.5110778243
 31
0.0
  0
LINE
  5
1441D
102
{ACAD_REACTORS
330
143E8
102
}
330
2
100
AcDbEntity
  8
0
 48
4.0
370
     5
100
AcDbLine
 10
222615.0054711813
 20
137052.5110778243
 30
0.0
 11
222615.0054711813
 21
136617.5110778243
 31
0.0
  0
LINE
  5
1441E
102
{ACAD_REACTORS
330
143E8
102
}
330
2
100
AcDbEntity
  8
0
 48
4.0
370
     5
100
AcDbLine
 10
222615.0054711813
 20
136617.5110778243
 30
0.0
 11
222645.0054711813
 21
136617.5110778243
 31
0.0
  0
LINE
  5
1441F
102
{ACAD_REACTORS
330
143E8
102
}
330
2
100
AcDbEntity
  8
0
 48
4.0
370
     5
100
AcDbLine
 10
222645.0054711813
 20
136617.5110778243
 30
0.0
 11
222645.0054711813
 21
136357.5110778243
 31
0.0
  0
LINE
  5
14420
102
{ACAD_REACTORS
330
143E8
102
}
330
2
100
AcDbEntity
  8
0
 48
4.0
370
     5
100
AcDbLine
 10
222645.0054711813
 20
136357.5110778243
 30
0.0
 11
222615.0054711813
 21
136357.5110778243
 31
0.0
  0
LINE
  5
14421
102
{ACAD_REACTORS
330
143E8
102
}
330
2
100
AcDbEntity
  8
0
 48
4.0
370
     5
100
AcDbLine
 10
222615.0054711813
 20
136357.5110778243
 30
0.0
 11
222615.0054711813
 21
135922.5110778243
 31
0.0
  0
LINE
  5
14422
102
{ACAD_REACTORS
330
143E8
102
}
330
2
100
AcDbEntity
  8
0
 48
4.0
370
     5
100
AcDbLine
 10
222615.0054711813
 20
135922.5110778243
 30
0.0
 11
222439.7039524275
 21
135922.5110778243
 31
0.0
  0
LINE
  5
14423
102
{ACAD_REACTORS
330
143E8
102
}
330
2
100
AcDbEntity
  8
0
 48
4.0
370
     5
100
AcDbLine
 10
222439.7039524275
 20
135922.5110778243
 30
0.0
 11
222389.7039422883
 21
135972.5110778243
 31
0.0
  0
LINE
  5
14424
102
{ACAD_REACTORS
330
143E8
102
}
330
2
100
AcDbEntity
  8
0
 48
4.0
370
     5
100
AcDbLine
 10
222389.7039422883
 20
135972.5110778243
 30
0.0
 11
222075.0054711813
 21
135972.5110778243
 31
0.0
  0
LINE
  5
14425
330
2
100
AcDbEntity
  8
0
 48
4.0
370
     5
100
AcDbLine
 10
222075.0054711813
 20
135972.5110778243
 30
0.0
 11
222075.0054711813
 21
135622.5110778243
 31
0.0
  0
LINE
  5
14426
330
2
100
AcDbEntity
  8
0
 48
4.0
370
     5
100
AcDbLine
 10
222075.0054711813
 20
135622.5110778243
 30
0.0
 11
221515.0054711813
 21
135622.5110778243
 31
0.0
  0
LINE
  5
14427
102
{ACAD_REACTORS
330
143E8
102
}
330
2
100
AcDbEntity
  8
0
 48
4.0
370
     5
100
AcDbLine
 10
221515.0054711813
 20
135622.5110778243
 30
0.0
 11
221515.0054711813
 21
136437.5110778243
 31
0.0
  0
LINE
  5
14428
102
{ACAD_REACTORS
330
143E8
102
}
330
2
100
AcDbEntity
  8
0
 48
4.0
370
     5
100
AcDbLine
 10
221515.0054711813
 20
136437.5110778243
 30
0.0
 11
221615.0054711813
 21
136437.5110778243
 31
0.0
  0
LINE
  5
14429
102
{ACAD_REACTORS
330
143E8
102
}
330
2
100
AcDbEntity
  8
0
 48
4.0
370
     5
100
AcDbLine
 10
221615.0054711813
 20
136437.5110778243
 30
0.0
 11
221615.0054711813
 21
137052.5110778243
 31
0.0
  0
LINE
  5
1442A
102
{ACAD_REACTORS
330
143E8
102
}
330
2
100
AcDbEntity
  8
0
 48
4.0
370
     5
100
AcDbLine
 10
221615.0054711813
 20
137052.5110778243
 30
0.0
 11
222615.0054711813
 21
137052.5110778243
 31
0.0
  0
LINE
  5
1442B
330
2
100
AcDbEntity
  8
0
 48
4.0
370
     5
100
AcDbLine
 10
221455.0054711813
 20
136234.5110778243
 30
0.0
 11
221515.0054711813
 21
136234.5110778243
 31
0.0
  0
LINE
  5
1442C
102
{ACAD_REACTORS
330
143E8
102
}
330
2
100
AcDbEntity
  8
0
 48
4.0
370
     5
100
AcDbLine
 10
221455.0054711813
 20
136334.5110778243
 30
0.0
 11
221515.0054711813
 21
136334.5110778243
 31
0.0
  0
LINE
  5
1442D
330
2
100
AcDbEntity
  8
0
 48
4.0
370
     5
100
AcDbLine
 10
222228.0054711813
 20
135912.5110778243
 30
0.0
 11
222228.0054711813
 21
135972.5110778243
 31
0.0
  0
LINE
  5
1442E
102
{ACAD_REACTORS
330
143E8
102
}
330
2
100
AcDbEntity
  8
0
 48
4.0
370
     5
100
AcDbLine
 10
222328.0054711813
 20
135912.5110778243
 30
0.0
 11
222328.0054711813
 21
135972.5110778243
 31
0.0
  0
LINE
  5
1442F
330
2
100
AcDbEntity
  8
0
 48
4.0
370
     5
100
AcDbLine
 10
222170.0054711813
 20
135822.5110778243
 30
0.0
 11
222170.0054711813
 21
135861.5110778243
 31
0.0
  0
LINE
  5
14430
330
2
100
AcDbEntity
  8
0
 48
4.0
370
     5
100
AcDbLine
 10
222705.0054711813
 20
136335.8095718483
 30
0.0
 11
222710.0054711813
 21
136335.8095718483
 31
0.0
  0
DIMENSION
  5
14431
330
2
100
AcDbEntity
  8
0Wymiary-PL
100
AcDbDimension
  2
*D19
 10
223340.4650119488
 20
135862.5110778243
 30
0.0
 11
223260.4650119488
 21
136487.5110778244
 31
0.0
 70
    32
 71
     5
 42
1250.0
  3
500
100
AcDbAlignedDimension
 13
222723.0390136105
 23
137112.5110778243
 33
0.0
 14
222627.7071626093
 24
135862.5110778243
 34
0.0
 50
90.0
100
AcDbRotatedDimension
  0
DIMENSION
  5
14432
330
2
100
AcDbEntity
  8
0Wymiary-PL
100
AcDbDimension
  2
*D20
 10
223340.4650119488
 20
135562.5110778243
 30
0.0
 11
223260.4650119488
 21
135712.5110778244
 31
0.0
 70
    32
 71
     5
 42
300.0
  3
500
100
AcDbAlignedDimension
 13
222627.7071626093
 23
135862.5110778243
 33
0.0
 14
222144.8041045579
 24
135562.5110778243
 34
0.0
 50
90.0
100
AcDbRotatedDimension
  0
DIMENSION
  5
14433
330
2
100
AcDbEntity
  8
0Wymiary-PL
100
AcDbDimension
  2
*D21
 10
223502.9455371531
 20
137112.5110778243
 30
0.0
 11
223422.9455371531
 21
136337.5110778244
 31
0.0
 70
    32
 71
     5
 42
1550.0
  3
500
100
AcDbAlignedDimension
 13
222183.0390136105
 23
135562.5110778243
 33
0.0
 14
222723.0390136105
 24
137112.5110778243
 34
0.0
 50
90.0
100
AcDbRotatedDimension
  0
DIMENSION
  5
14434
330
2
100
AcDbEntity
  8
0Wymiary-PL
100
AcDbDimension
  2
*D22
 10
222675.0054711813
 20
137331.4663191592
 30
0.0
 11
222690.0054711813
 21
137411.4663191593
 31
0.0
 70
    32
 71
     5
 42
30.0
  3
500
100
AcDbAlignedDimension
 13
222705.0054711813
 23
136757.5596115028
 33
0.0
 14
222675.0054711813
 24
136757.5596115028
 34
0.0
 50
180.0
100
AcDbRotatedDimension
  0
DIMENSION
  5
14435
330
2
100
AcDbEntity
  8
0Wymiary-PL
100
AcDbDimension
  2
*D23
 10
221555.0054711813
 20
137331.4663191592
 30
0.0
 11
222115.0054711813
 21
137411.4663191593
 31
0.0
 70
    32
 71
     5
 42
1120.0
  3
500
100
AcDbAlignedDimension
 13
222675.0054711813
 23
136757.5596115028
 33
0.0
 14
221555.0054711813
 24
137192.5596115028
 34
0.0
 50
180.0
100
AcDbRotatedDimension
  0
DIMENSION
  5
14436
330
2
100
AcDbEntity
  8
0Wymiary-PL
100
AcDbDimension
  2
*D24
 10
221455.0054711813
 20
137331.4663191592
 30
0.0
 11
221505.0054711813
 21
137411.4663191593
 31
0.0
 70
    32
 71
     5
 42
99.9999999999709
  3
500
100
AcDbAlignedDimension
 13
221555.0054711813
 23
137192.5596115028
 33
0.0
 14
221455.0054711813
 24
136577.5596115028
 34
0.0
 50
180.0
100
AcDbRotatedDimension
  0
DIMENSION
  5
14437
330
2
100
AcDbEntity
  8
0Wymiary-PL
100
AcDbDimension
  2
*D25
 10
222705.0054711813
 20
137520.6792018239
 30
0.0
 11
222080.0054711813
 21
137600.6792018239
 31
0.0
 70
    32
 71
     5
 42
1250.000000000029
  3
500
100
AcDbAlignedDimension
 13
221455.0054711813
 23
136577.5596115028
 33
0.0
 14
222705.0054711813
 24
136757.5596115028
 34
0.0
 50
180.0
100
AcDbRotatedDimension
  0
LINE
  5
14438
330
2
100
AcDbEntity
  8
0
 48
4.0
370
     5
100
AcDbLine
 10
223047.7732373557
 20
136306.8540626344
 30
0.0
 11
222989.8521023933
 21
136322.5110778243
 31
0.0
  0
LINE
  5
14439
330
2
100
AcDbEntity
  8
0
 48
4.0
370
     5
100
AcDbLine
 10
222972.1982689648
 20
136266.3293889754
 30
0.0
 11
223015.4835598624
 21
136247.7968961122
 31
0.0
  0
LINE
  5
1443A
330
2
100
AcDbEntity
  8
0
 48
4.0
370
     5
100
AcDbLine
 10
222950.0618684498
 20
136211.7581532475
 30
0.0
 11
222979.6037327981
 21
136192.4178755093
 31
0.0
  0
LINE
  5
1443B
330
2
100
AcDbEntity
  8
0
 48
4.0
370
     5
100
AcDbLine
 10
222923.5877111119
 20
136159.1543607047
 30
0.0
 11
222960.2870504388
 21
136126.7081617592
 31
0.0
  0
LINE
  5
1443C
330
2
100
AcDbEntity
  8
0
 48
4.0
370
     5
100
AcDbLine
 10
222892.9489836311
 20
136108.8621309373
 30
0.0
 11
222913.9973731657
 21
136083.6206512093
 31
0.0
  0
LINE
  5
1443D
330
2
100
AcDbEntity
  8
0
 48
4.0
370
     5
100
AcDbLine
 10
222858.3461161632
 20
136061.2104619253
 30
0.0
 11
222882.5951709267
 21
136021.425371405
 31
0.0
  0
LINE
  5
1443E
330
2
100
AcDbEntity
  8
0
 48
4.0
370
     5
100
AcDbLine
 10
222820.0054711813
 20
136016.5110778243
 30
0.0
 11
222831.5158913533
 21
135989.444821927
 31
0.0
  0
LINE
  5
1443F
330
2
100
AcDbEntity
  8
0
 48
4.0
370
     5
100
AcDbLine
 10
222795.672137848
 20
136016.5110778243
 30
0.0
 11
222810.97184403
 21
135973.3391598764
 31
0.0
  0
LINE
  5
14440
330
2
100
AcDbEntity
  8
0
 48
4.0
370
     5
100
AcDbLine
 10
222761.3388045146
 20
136016.5110778243
 30
0.0
 11
222768.5181470802
 21
135989.4282067593
 31
0.0
  0
LINE
  5
14441
330
2
100
AcDbEntity
  8
0
 48
4.0
370
     5
100
AcDbLine
 10
222727.0054711813
 20
136016.5110778243
 30
0.0
 11
222737.819232339
 21
135967.5615043199
 31
0.0
  0
LINE
  5
14442
330
2
100
AcDbEntity
  8
0
 48
4.0
370
     5
100
AcDbLine
 10
222692.672137848
 20
136016.5110778243
 30
0.0
 11
222698.1947847534
 21
135981.3450054028
 31
0.0
  0
LINE
  5
14443
330
2
100
AcDbEntity
  8
0
 48
4.0
370
     5
100
AcDbLine
 10
222675.0054711813
 20
135956.5110778243
 30
0.0
 11
222845.5215681597
 21
135956.5110778243
 31
0.0
  0
ARC
  5
14444
330
2
100
AcDbEntity
  8
0
 48
4.0
370
     5
100
AcDbCircle
 10
222286.9712844744
 20
136512.5110778243
 30
0.0
 40
788.1081267217664
100
AcDbArc
 50
315.1311024186492
 51
44.86889758135084
  0
LINE
  5
14445
330
2
100
AcDbEntity
  8
0
 48
4.0
370
     5
100
AcDbLine
 10
223047.7732373557
 20
136718.1680930143
 30
0.0
 11
222989.8521023933
 21
136702.5110778243
 31
0.0
  0
LINE
  5
14446
330
2
100
AcDbEntity
  8
0
 48
4.0
370
     5
100
AcDbLine
 10
222972.1982689648
 20
136758.6927666732
 30
0.0
 11
223015.4835598624
 21
136777.2252595365
 31
0.0
  0
LINE
  5
14447
330
2
100
AcDbEntity
  8
0
 48
4.0
370
     5
100
AcDbLine
 10
222950.0618684498
 20
136813.2640024011
 30
0.0
 11
222979.6037327981
 21
136832.6042801393
 31
0.0
  0
LINE
  5
14448
330
2
100
AcDbEntity
  8
0
 48
4.0
370
     5
100
AcDbLine
 10
222923.5877111119
 20
136865.8677949439
 30
0.0
 11
222960.2870504388
 21
136898.3139938895
 31
0.0
  0
LINE
  5
14449
330
2
100
AcDbEntity
  8
0
 48
4.0
370
     5
100
AcDbLine
 10
222892.9489836311
 20
136916.1600247114
 30
0.0
 11
222913.9973731657
 21
136941.4015044394
 31
0.0
  0
LINE
  5
1444A
330
2
100
AcDbEntity
  8
0
 48
4.0
370
     5
100
AcDbLine
 10
222858.3461161632
 20
136963.8116937234
 30
0.0
 11
222882.5951709267
 21
137003.5967842437
 31
0.0
  0
LINE
  5
1444B
330
2
100
AcDbEntity
  8
0
 48
4.0
370
     5
100
AcDbLine
 10
222820.0054711813
 20
137008.5110778243
 30
0.0
 11
222831.5158913533
 21
137035.5773337216
 31
0.0
  0
LINE
  5
1444C
330
2
100
AcDbEntity
  8
0
 48
4.0
370
     5
100
AcDbLine
 10
222795.672137848
 20
137008.5110778243
 30
0.0
 11
222810.97184403
 21
137051.6829957723
 31
0.0
  0
LINE
  5
1444D
330
2
100
AcDbEntity
  8
0
 48
4.0
370
     5
100
AcDbLine
 10
222761.3388045146
 20
137008.5110778243
 30
0.0
 11
222768.5181470802
 21
137035.5939488894
 31
0.0
  0
LINE
  5
1444E
330
2
100
AcDbEntity
  8
0
 48
4.0
370
     5
100
AcDbLine
 10
222727.0054711813
 20
137008.5110778243
 30
0.0
 11
222737.819232339
 21
137057.4606513287
 31
0.0
  0
LINE
  5
1444F
330
2
100
AcDbEntity
  8
0
 48
4.0
370
     5
100
AcDbLine
 10
222692.672137848
 20
137008.5110778243
 30
0.0
 11
222698.1947847534
 21
137043.6771502458
 31
0.0
  0
LINE
  5
14450
330
2
100
AcDbEntity
  8
0
 48
4.0
370
     5
100
AcDbLine
 10
222680.0054711813
 20
137068.5110778243
 30
0.0
 11
222845.5215681597
 21
137068.5110778243
 31
0.0
  0
LINE
  5
14451
330
2
100
AcDbEntity
  8
0
 48
4.0
370
     5
100
AcDbLine
 10
222820.0054711813
 20
136016.5110778243
 30
0.0
 11
222675.0054711813
 21
136016.5110778243
 31
0.0
  0
ARC
  5
14452
330
2
100
AcDbEntity
  8
0
 48
4.0
370
     5
100
AcDbCircle
 10
222286.9712844744
 20
136512.5110778243
 30
37.0
 40
728.1081267217664
100
AcDbArc
 50
15.12645426824631
 51
42.9388564348201
  0
ARC
  5
14453
330
2
100
AcDbEntity
  8
0
 48
4.0
370
     5
100
AcDbCircle
 10
222286.9712844744
 20
136512.5110778243
 30
37.0
 40
728.1081267217664
100
AcDbArc
 50
317.0611435651799
 51
344.8735457317537
  0
LINE
  5
14454
330
2
100
AcDbEntity
  8
0
 48
4.0
370
     5
100
AcDbLine
 10
222675.0054711813
 20
137008.5110778243
 30
37.0
 11
222820.0054711813
 21
137008.5110778243
 31
37.0
  0
LINE
  5
14455
330
2
100
AcDbEntity
  8
0
 48
4.0
370
     5
100
AcDbLine
 10
222675.0054711813
 20
137008.5110778243
 30
0.0
 11
222820.0054711813
 21
137008.5110778243
 31
0.0
  0
ARC
  5
14456
330
2
100
AcDbEntity
  8
0
 48
4.0
370
     5
100
AcDbCircle
 10
222286.9712844744
 20
136512.5110778243
 30
0.0
 40
728.108126721766
100
AcDbArc
 50
317.0611435651799
 51
42.9388564348201
  0
ARC
  5
14457
330
2
100
AcDbEntity
  8
0
 48
4.0
370
     5
100
AcDbCircle
 10
-222286.9712844744
 20
136512.5110778243
 30
0.0
 40
758.1081267217621
210
0.0
220
0.0
230
-1.0
100
AcDbArc
 50
164.8735457317537
 51
195.1264542682463
  0
ARC
  5
14458
330
2
100
AcDbEntity
  8
0
 48
4.0
370
     5
100
AcDbCircle
 10
222286.9712844744
 20
136512.5110778243
 30
0.0
 40
758.1081267217642
100
AcDbArc
 50
344.8735457317537
 51
15.12645426824631
  0
ARC
  5
14459
330
2
100
AcDbEntity
  8
0
 48
4.0
370
     5
100
AcDbCircle
 10
-222286.9712844744
 20
136512.5110778243
 30
0.0
 40
728.1081267217639
210
0.0
220
0.0
230
-1.0
100
AcDbArc
 50
164.8735457317537
 51
195.1264542682463
  0
LINE
  5
1445A
330
2
100
AcDbEntity
  8
0
 48
4.0
370
     5
100
AcDbLine
 10
222675.0054711813
 20
137008.5110778243
 30
47.0
 11
222675.0054711813
 21
137068.5110778243
 31
47.0
  0
LINE
  5
1445B
330
2
100
AcDbEntity
  8
0
 48
4.0
370
     5
100
AcDbLine
 10
222680.0054711813
 20
137068.5110778243
 30
47.0
 11
222845.5215681597
 21
137068.5110778243
 31
47.0
  0
ARC
  5
1445C
330
2
100
AcDbEntity
  8
0
 48
4.0
370
     5
100
AcDbCircle
 10
222286.9712844744
 20
136512.5110778243
 30
47.0
 40
788.1081267217682
100
AcDbArc
 50
315.1311024186492
 51
44.86889758135084
  0
LINE
  5
1445D
330
2
100
AcDbEntity
  8
0
 48
4.0
370
     5
100
AcDbLine
 10
222845.5215681597
 20
135956.5110778243
 30
47.0
 11
222675.0054711813
 21
135956.5110778243
 31
47.0
  0
ENDSEC
  0
SECTION
  2
OBJECTS
  0
DICTIONARY
  5
7
330
0
100
AcDbDictionary
281
     1
  3
ACAD_COLOR
350
31
  3
ACAD_GROUP
350
2D
  3
ACAD_LAYOUT
350
B
  3
ACAD_MATERIAL
350
30
  3
ACAD_MLEADERSTYLE
350
12E1B
  3
ACAD_MLINESTYLE
350
2E
  3
ACAD_PLOTSETTINGS
350
2F
  3
ACAD_PLOTSTYLENAME
350
6
  3
ACAD_SCALELIST
350
12E0B
  3
ACAD_TABLESTYLE
350
DF2
  3
ACAD_VISUALSTYLE
350
172D
  3
AcAec
350
8309
  3
ACDB_RECOMPOSE_DATA
350
13133
  3
AcDbVariableDictionary
350
E04
  3
AEC_2D_SECTION_STYLES
350
6852
  3
AEC_CLASSIFICATION_SYSTEM_DEFS
350
3C3
  3
AEC_CLEANUP_GROUP_DEFS
350
6863
  3
AEC_CURTAIN_WALL_LAYOUT_STYLES
350
6864
  3
AEC_CURTAIN_WALL_UNIT_STYLES
350
6865
  3
AEC_DIM_STYLES
350
6871
  3
AEC_DISP_REP_CONFIGURATIONS
350
69A3
  3
AEC_DISP_REP_SETS
350
6999
  3
AEC_DISP_REPS
350
6873
  3
AEC_DISPLAY_PROPS_DEFAULTS
350
6875
  3
AEC_DISPLAYTHEME_STYLES
350
6870
  3
AEC_DOOR_STYLES
350
685B
  3
AEC_ENDCAP_STYLES
350
685C
  3
AEC_LAYERKEY_STYLES
350
685A
  3
AEC_LIST_DEFINITIONS
350
6855
  3
AEC_MASKBLOCK_DEFS
350
684E
  3
AEC_MASS_ELEM_STYLES
350
6854
  3
AEC_MATERIAL_DEFS
350
6853
  3
AEC_MVBLOCK_DEFS
350
684F
  3
AEC_OPENING_ENDCAP_STYLES
350
686C
  3
AEC_POLYGON_STYLES
350
6851
  3
AEC_PROFILE_DEFS
350
6850
  3
AEC_PROPERTY_FORMAT_DEFS
350
6856
  3
AEC_PROPERTY_SET_DEFS
350
3C4
  3
AEC_RAILING_STYLES
350
6867
  3
AEC_ROOFSLAB_STYLES
350
6868
  3
AEC_ROOFSLABEDGE_STYLES
350
6869
  3
AEC_SCHEDULE_TABLE_STYLES
350
6857
  3
AEC_SLAB_STYLES
350
686A
  3
AEC_SLABEDGE_STYLES
350
686B
  3
AEC_SPACE_MODIFIERS
350
686D
  3
AEC_SPACE_STYLES
350
685D
  3
AEC_STAIR_STYLES
350
685E
  3
AEC_STAIR_WINDER_STYLES
350
685F
  3
AEC_STRUCTURALMEMBER_STYLES
350
6858
  3
AEC_VARS
350
687A
  3
AEC_WALL_STYLES
350
6861
  3
AEC_WALLMOD_STYLES
350
6860
  3
AEC_WINDOW_ASSEMBLY_STYLES
350
6866
  3
AEC_WINDOW_STYLES
350
6862
  3
AEC_ZONE_DEFS
350
686F
  3
AEC_ZONE_STYLES
350
686E
  3
AECS_MEMBER_NODE_SHAPE
350
6859
  3
ASE_INDEX_DICTIONARY
350
13A99
  3
BNS_VARIABLES
350
41C3
  3
DWGPROPS
350
14501
  0
DICTIONARY
  5
12
330
11
100
AcDbDictionary
280
     1
281
     1
  3
ACAD_LAYERFILTERS
360
8311
  3
ACAD_LAYERSTATES
360
13
  3
ACLYDICTIONARY
360
8310
  0
DICTIONARY
  5
12E25
330
4
100
AcDbDictionary
280
     1
281
     1
  3
ADSK_XREC_LAYER_RECONCILED
360
12E26
  0
DICTIONARY
  5
12E27
330
15E
100
AcDbDictionary
280
     1
281
     1
  3
ADSK_XREC_LAYER_RECONCILED
360
12E28
  0
DICTIONARY
  5
12E2B
330
143
100
AcDbDictionary
280
     1
281
     1
  3
ADSK_XREC_LAYER_RECONCILED
360
12E2C
  0
DICTIONARY
  5
12E31
330
2081
100
AcDbDictionary
280
     1
281
     1
  3
ADSK_XREC_LAYER_RECONCILED
360
12E32
  0
DICTIONARY
  5
1FEF
330
2
100
AcDbDictionary
280
     1
281
     1
  3
ACAD_SORTENTS
360
1FF0
  0
DICTIONARY
  5
24
330
23
100
AcDbDictionary
280
     1
281
     1
  3
ACAD_SORTENTS
360
117C
  0
DICTIONARY
  5
31
102
{ACAD_REACTORS
330
7
102
}
330
7
100
AcDbDictionary
281
     1
  0
DICTIONARY
  5
2D
102
{ACAD_REACTORS
330
7
102
}
330
7
100
AcDbDictionary
281
     1
  0
DICTIONARY
  5
B
102
{ACAD_REACTORS
330
7
102
}
330
7
100
AcDbDictionary
281
     1
  3
Layout1
350
10
  3
Model
350
A
  0
DICTIONARY
  5
30
102
{ACAD_REACTORS
330
7
102
}
330
7
100
AcDbDictionary
281
     1
  3
ByBlock
350
172B
  3
ByLayer
350
172A
  3
Global
350
172C
  0
DICTIONARY
  5
12E1B
102
{ACAD_REACTORS
330
7
102
}
330
7
100
AcDbDictionary
281
     1
  3
Standard
350
12E1C
  0
DICTIONARY
  5
2E
102
{ACAD_REACTORS
330
7
102
}
330
7
100
AcDbDictionary
281
     1
  3
Standard
350
33
  0
DICTIONARY
  5
2F
102
{ACAD_REACTORS
330
7
102
}
330
7
100
AcDbDictionary
281
     1
  0
ACDBDICTIONARYWDFLT
  5
6
102
{ACAD_REACTORS
330
7
102
}
330
7
100
AcDbDictionary
281
     1
  3
Normal
350
5
100
AcDbDictionaryWithDefault
340
5
  0
DICTIONARY
  5
12E0B
102
{ACAD_REACTORS
330
7
102
}
330
7
100
AcDbDictionary
281
     1
  3
A0
350
12E0C
  3
A1
350
12E0D
  3
A2
350
12E0E
  3
A3
350
12E0F
  3
A4
350
12E10
  3
A5
350
12E11
  3
A6
350
12E12
  3
A7
350
12E13
  3
A8
350
12E14
  3
A9
350
12E15
  3
B0
350
12E16
  3
B1
350
12E17
  3
B2
350
12E18
  3
B3
350
12E19
  3
B4
350
12E1A
  0
DICTIONARY
  5
DF2
102
{ACAD_REACTORS
330
7
102
}
330
7
100
AcDbDictionary
281
     1
  3
Standard
350
DF3
  0
DICTIONARY
  5
172D
102
{ACAD_REACTORS
330
7
102
}
330
7
100
AcDbDictionary
281
     1
  3
2dWireframe
350
1733
  3
3D Hidden
350
12DA2
  3
3dWireframe
350
12DA1
  3
Basic
350
1732
  3
Brighten
350
1739
  3
ColorChange
350
173D
  3
Conceptual
350
12DA3
  3
Dim
350
1738
  3
Facepattern
350
173C
  3
Flat
350
172E
  3
FlatWithEdges
350
172F
  3
Gouraud
350
1730
  3
GouraudWithEdges
350
1731
  3
Linepattern
350
173B
  3
Realistic
350
12DA4
  3
Thicken
350
173A
  0
DICTIONARY
  5
8309
102
{ACAD_REACTORS
330
7
102
}
330
7
100
AcDbDictionary
281
     1
  3
AcAecLayerManager
350
830A
  0
XRECORD
  5
13133
102
{ACAD_REACTORS
330
7
102
}
330
7
100
AcDbXrecord
280
     1
 90
        1
330
DF3
  0
DICTIONARY
  5
E04
102
{ACAD_REACTORS
330
7
102
}
330
7
100
AcDbDictionary
281
     1
  3
CANNOSCALE
350
13136
  3
CMLEADERSTYLE
350
13134
  3
CTABLESTYLE
350
E05
  3
DIMASSOC
350
144FF
  3
HIDETEXT
350
144FE
  3
INDEXCTL
350
144FD
  3
LAYEREVAL
350
13138
  3
LAYERNOTIFY
350
13139
  3
LIGHTINGUNITS
350
13137
  3
MSLTSCALE
350
13135
  3
SORTENTS
350
144FC
  0
DICTIONARY
  5
6852
102
{ACAD_REACTORS
330
7
102
}
330
7
100
AcDbDictionary
281
     1
  0
DICTIONARY
  5
3C3
102
{ACAD_REACTORS
330
7
102
}
330
7
100
AcDbDictionary
281
     1
  0
DICTIONARY
  5
6863
102
{ACAD_REACTORS
330
7
102
}
330
7
100
AcDbDictionary
281
     1
  0
DICTIONARY
  5
6864
102
{ACAD_REACTORS
330
7
102
}
330
7
100
AcDbDictionary
281
     1
  0
DICTIONARY
  5
6865
102
{ACAD_REACTORS
330
7
102
}
330
7
100
AcDbDictionary
281
     1
  0
DICTIONARY
  5
6871
102
{ACAD_REACTORS
330
7
102
}
330
7
100
AcDbDictionary
281
     1
  0
DICTIONARY
  5
69A3
102
{ACAD_REACTORS
330
7
102
}
330
7
100
AcDbDictionary
281
     1
  3
Medium Detail
350
82FE
  3
Standard
350
69A4
  0
DICTIONARY
  5
6999
102
{ACAD_REACTORS
330
7
102
}
330
7
100
AcDbDictionary
281
     1
  3
Elevation
350
699D
  3
Model
350
699A
  3
Model High Detail
350
69A1
  3
Model Low Detail
350
69A0
  3
Plan
350
699B
  3
Plan Diagnostic
350
69A2
  3
Plan High Detail
350
699F
  3
Plan Low Detail
350
699E
  3
Reflected
350
699C
  0
DICTIONARY
  5
6873
102
{ACAD_REACTORS
330
7
102
}
330
7
100
AcDbDictionary
281
     1
  3
AecDbDispRep2dSection
350
68D5
  3
AecDbDispRepAnchor
350
68D7
  3
AecDbDispRepAnchorBubToGrid
350
697D
  3
AecDbDispRepAnchorBubToGridMdl
350
697F
  3
AecDbDispRepAnchorBubToGridRcp
350
6981
  3
AecDbDispRepAnchorEntToNode
350
68D8
  3
AecDbDispRepAnchorExtendedTagToEnt
350
6903
  3
AecDbDispRepAnchorTagToEnt
350
6901
  3
AecDbDispRepBdgElevLineModel
350
6907
  3
AecDbDispRepBdgElevLinePlan
350
6909
  3
AecDbDispRepBdgElevLinePlan100
350
6874
  3
AecDbDispRepBdgElevLinePlan50
350
6892
  3
AecDbDispRepBdgElevLineRcp
350
690B
  3
AecDbDispRepBdgSectionLineModel
350
690D
  3
AecDbDispRepBdgSectionLinePlan
350
690F
  3
AecDbDispRepBdgSectionLinePlan100
350
6877
  3
AecDbDispRepBdgSectionLinePlan50
350
6894
  3
AecDbDispRepBdgSectionLineRcp
350
6911
  3
AecDbDispRepBdgSectionModel
350
6913
  3
AecDbDispRepBdgSectionSubDiv
350
6914
  3
AecDbDispRepCeilingGrid
350
6916
  3
AecDbDispRepCeilingGridModel
350
6918
  3
AecDbDispRepCeilingGridPlan100
350
6879
  3
AecDbDispRepCeilingGridPlan50
350
6896
  3
AecDbDispRepCeilingGridRcp
350
691A
  3
AecDbDispRepClipVolModel
350
68DA
  3
AecDbDispRepClipVolPlan
350
68DC
  3
AecDbDispRepClipVolResSubDiv
350
68DF
  3
AecDbDispRepClipVolResult
350
68DE
  3
AecDbDispRepColumnGrid
350
6983
  3
AecDbDispRepColumnGridModel
350
6985
  3
AecDbDispRepColumnGridPlan100
350
687D
  3
AecDbDispRepColumnGridPlan50
350
6898
  3
AecDbDispRepColumnGridRcp
350
6987
  3
AecDbDispRepCurtainWallLayoutModel
350
691C
  3
AecDbDispRepCurtainWallLayoutPlan
350
691E
  3
AecDbDispRepCurtainWallLayoutPlan100
350
687F
  3
AecDbDispRepCurtainWallLayoutPlan50
350
689A
  3
AecDbDispRepCurtainWallUnitModel
350
6920
  3
AecDbDispRepCurtainWallUnitPlan
350
6922
  3
AecDbDispRepCurtainWallUnitPlan100
350
6881
  3
AecDbDispRepCurtainWallUnitPlan50
350
689C
  3
AecDbDispRepDimGroupPlan
350
68B1
  3
AecDbDispRepDimGroupPlan100
350
68AD
  3
AecDbDispRepDimGroupPlan50
350
68AF
  3
AecDbDispRepDisplayTheme
350
68E1
  3
AecDbDispRepDoorElev
350
6926
  3
AecDbDispRepDoorModel
350
6924
  3
AecDbDispRepDoorNominal
350
692A
  3
AecDbDispRepDoorPlan
350
6928
  3
AecDbDispRepDoorPlan50
350
68B3
  3
AecDbDispRepDoorPlanHekto
350
68B5
  3
AecDbDispRepDoorRcp
350
692C
  3
AecDbDispRepDoorThresholdPlan
350
692E
  3
AecDbDispRepDoorThresholdSymbolPlan
350
68B7
  3
AecDbDispRepEditInPlaceProfile
350
68E3
  3
AecDbDispRepEntRef
350
68E5
  3
AecDbDispRepLayoutCurve
350
68E7
  3
AecDbDispRepLayoutGrid2d
350
68E9
  3
AecDbDispRepLayoutGrid3d
350
68EB
  3
AecDbDispRepMaskBlockRef
350
68ED
  3
AecDbDispRepMaskBlockRefRcp
350
6930
  3
AecDbDispRepMassElemModel
350
68F9
  3
AecDbDispRepMassElemPlan100
350
68B9
  3
AecDbDispRepMassElemPlan50
350
68BB
  3
AecDbDispRepMassElemRcp
350
6932
  3
AecDbDispRepMassElemSchem
350
68FB
  3
AecDbDispRepMassGroupModel
350
68FD
  3
AecDbDispRepMassGroupPlan
350
68FF
  3
AecDbDispRepMassGroupPlan100
350
68BD
  3
AecDbDispRepMassGroupPlan50
350
68BF
  3
AecDbDispRepMassGroupRcp
350
6934
  3
AecDbDispRepMaterial
350
68EF
  3
AecDbDispRepMvBlockRef
350
68F1
  3
AecDbDispRepMvBlockRef$Plan
350
8301
  3
AecDbDispRepMvBlockRefModel
350
68F2
  3
AecDbDispRepMvBlockRefPlan100
350
6883
  3
AecDbDispRepMvBlockRefPlan50
350
689E
  3
AecDbDispRepMvBlockRefRcp
350
6936
  3
AecDbDispRepOpening
350
6937
  3
AecDbDispRepOpeningModel
350
6939
  3
AecDbDispRepOpeningPlan100
350
68C1
  3
AecDbDispRepOpeningPlan50
350
68C3
  3
AecDbDispRepOpeningPlanReflected
350
68C5
  3
AecDbDispRepOpeningSillPlan
350
68C7
  3
AecDbDispRepPolygonModel
350
68F3
  3
AecDbDispRepPolygonTrueColour
350
68F5
  3
AecDbDispRepRailingModel
350
693B
  3
AecDbDispRepRailingPlan
350
693D
  3
AecDbDispRepRailingPlan100
350
68C9
  3
AecDbDispRepRailingPlan50
350
68CB
  3
AecDbDispRepRoofModel
350
693F
  3
AecDbDispRepRoofPlan
350
6941
  3
AecDbDispRepRoofPlan100
350
6884
  3
AecDbDispRepRoofPlan50
350
689F
  3
AecDbDispRepRoofRcp
350
6943
  3
AecDbDispRepRoofSlabModel
350
6947
  3
AecDbDispRepRoofSlabPlan
350
694B
  3
AecDbDispRepRoofSlabPlan100
350
6886
  3
AecDbDispRepRoofSlabPlan50
350
68A1
  3
AecDbDispRepScheduleTable
350
6905
  3
AecDbDispRepSlabModel
350
6945
  3
AecDbDispRepSlabPlan
350
6949
  3
AecDbDispRepSlabPlan100
350
6888
  3
AecDbDispRepSlabPlan50
350
68A3
  3
AecDbDispRepSlice
350
68F7
  3
AecDbDispRepSpaceDecomposed
350
694D
  3
AecDbDispRepSpaceModel
350
694F
  3
AecDbDispRepSpacePlan
350
6951
  3
AecDbDispRepSpacePlan100
350
688A
  3
AecDbDispRepSpacePlan50
350
68A5
  3
AecDbDispRepSpaceRcp
350
6953
  3
AecDbDispRepSpaceVolume
350
6955
  3
AecDbDispRepStairModel
350
6957
  3
AecDbDispRepStairPlan
350
6959
  3
AecDbDispRepStairPlan100
350
68CD
  3
AecDbDispRepStairPlan50
350
68CF
  3
AecDbDispRepStairPlanOverlapping
350
695B
  3
AecDbDispRepStairRcp
350
695D
  3
AecDbDispRepWallGraph
350
695F
  3
AecDbDispRepWallModel
350
6961
  3
AecDbDispRepWallPlan
350
6963
  3
AecDbDispRepWallPlan100
350
688C
  3
AecDbDispRepWallPlan50
350
68A7
  3
AecDbDispRepWallRcp
350
6965
  3
AecDbDispRepWallSchem
350
6967
  3
AecDbDispRepWindowAssemblyModel
350
6969
  3
AecDbDispRepWindowAssemblyPlan
350
696B
  3
AecDbDispRepWindowAssemblyPlan100
350
688E
  3
AecDbDispRepWindowAssemblyPlan50
350
68A9
  3
AecDbDispRepWindowAssemblySillPlan
350
696D
  3
AecDbDispRepWindowElev
350
6971
  3
AecDbDispRepWindowModel
350
696F
  3
AecDbDispRepWindowNominal
350
6975
  3
AecDbDispRepWindowPlan
350
6973
  3
AecDbDispRepWindowPlan100
350
68D1
  3
AecDbDispRepWindowPlan50
350
68D3
  3
AecDbDispRepWindowRcp
350
6977
  3
AecDbDispRepWindowSillPlan
350
6979
  3
AecDbDispRepZone
350
697B
  3
AecDbDispRepZonePlan100
350
6890
  3
AecDbDispRepZonePlan50
350
68AB
  3
AecsDbDispRepMemberElevationDesign
350
6989
  3
AecsDbDispRepMemberElevationDetail
350
698B
  3
AecsDbDispRepMemberLogical
350
698D
  3
AecsDbDispRepMemberModelDesign
350
698F
  3
AecsDbDispRepMemberModelDetail
350
6991
  3
AecsDbDispRepMemberPlanDesign
350
6993
  3
AecsDbDispRepMemberPlanDetail
350
6995
  3
AecsDbDispRepMemberPlanSketch
350
6997
  0
DICTIONARY
  5
6875
102
{ACAD_REACTORS
330
7
102
}
330
7
100
AcDbDictionary
281
     1
  3
*A1
350
6876
  3
*A10
350
6958
  3
*A100
350
696C
  3
*A101
350
68DB
  3
*A102
350
6938
  3
*A103
350
6927
  3
*A104
350
693E
  3
*A105
350
6960
  3
*A106
350
68BC
  3
*A107
350
6885
  3
*A108
350
68EC
  3
*A109
350
68D0
  3
*A11
350
693C
  3
*A110
350
6887
  3
*A111
350
6970
  3
*A112
350
6996
  3
*A113
350
6923
  3
*A114
350
68C4
  3
*A115
350
68C6
  3
*A116
350
68B8
  3
*A117
350
6921
  3
*A118
350
698A
  3
*A119
350
697E
  3
*A12
350
691F
  3
*A120
350
68E0
  3
*A121
350
698E
  3
*A122
350
690A
  3
*A123
350
6966
  3
*A124
350
6944
  3
*A125
350
6984
  3
*A126
350
68DD
  3
*A127
350
687C
  3
*A128
350
6919
  3
*A129
350
68B4
  3
*A13
350
6990
  3
*A130
350
694C
  3
*A131
350
695A
  3
*A132
350
68E2
  3
*A133
350
68E4
  3
*A134
350
6940
  3
*A135
350
6878
  3
*A136
350
694A
  3
*A137
350
68A2
  3
*A138
350
688D
  3
*A139
350
6948
  3
*A14
350
696E
  3
*A140
350
6902
  3
*A141
350
690C
  3
*A15
350
68AC
  3
*A16
350
68D6
  3
*A17
350
6976
  3
*A18
350
6910
  3
*A19
350
6912
  3
*A2
350
688F
  3
*A20
350
6904
  3
*A21
350
6974
  3
*A22
350
68C8
  3
*A23
350
68BA
  3
*A24
350
6972
  3
*A25
350
692F
  3
*A26
350
68CC
  3
*A27
350
695C
  3
*A28
350
68A0
  3
*A29
350
6998
  3
*A3
350
68A6
  3
*A30
350
68C2
  3
*A31
350
692D
  3
*A32
350
68FE
  3
*A33
350
696A
  3
*A34
350
6900
  3
*A35
350
68CE
  3
*A36
350
6882
  3
*A37
350
6893
  3
*A38
350
6931
  3
*A39
350
6933
  3
*A4
350
6929
  3
*A40
350
6994
  3
*A41
350
68E6
  3
*A42
350
6880
  3
*A43
350
68EA
  3
*A44
350
6891
  3
*A45
350
687E
  3
*A46
350
68AA
  3
*A47
350
6952
  3
*A48
350
695E
  3
*A49
350
68F6
  3
*A5
350
698C
  3
*A50
350
6925
  3
*A51
350
68B2
  3
*A52
350
6962
  3
*A53
350
6964
  3
*A54
350
68A8
  3
*A55
350
6954
  3
*A56
350
68B0
  3
*A57
350
6917
  3
*A58
350
6906
  3
*A59
350
68AE
  3
*A6
350
697A
  3
*A60
350
6982
  3
*A61
350
691B
  3
*A62
350
6895
  3
*A63
350
68E8
  3
*A64
350
68D9
  3
*A65
350
68EE
  3
*A66
350
690E
  3
*A67
350
6980
  3
*A68
350
694E
  3
*A69
350
68A4
  3
*A7
350
6992
  3
*A70
350
6950
  3
*A71
350
691D
  3
*A72
350
6942
  3
*A73
350
68D4
  3
*A74
350
6986
  3
*A75
350
6988
  3
*A76
350
697C
  3
*A77
350
68D2
  3
*A78
350
6935
  3
*A79
350
692B
  3
*A8
350
6899
  3
*A80
350
693A
  3
*A81
350
68BE
  3
*A82
350
6915
  3
*A83
350
68F4
  3
*A84
350
6889
  3
*A85
350
6897
  3
*A86
350
6946
  3
*A87
350
68CA
  3
*A88
350
6978
  3
*A89
350
68FC
  3
*A9
350
6908
  3
*A90
350
689B
  3
*A91
350
689D
  3
*A92
350
68F0
  3
*A93
350
688B
  3
*A94
350
68FA
  3
*A95
350
6968
  3
*A96
350
6956
  3
*A97
350
68F8
  3
*A98
350
68B6
  3
*A99
350
68C0
  0
DICTIONARY
  5
6870
102
{ACAD_REACTORS
330
7
102
}
330
7
100
AcDbDictionary
281
     1
  0
DICTIONARY
  5
685B
102
{ACAD_REACTORS
330
7
102
}
330
7
100
AcDbDictionary
281
     1
  0
DICTIONARY
  5
685C
102
{ACAD_REACTORS
330
7
102
}
330
7
100
AcDbDictionary
281
     1
  0
DICTIONARY
  5
685A
102
{ACAD_REACTORS
330
7
102
}
330
7
100
AcDbDictionary
281
     1
  3
AIA (256 Color)
350
8304
  0
DICTIONARY
  5
6855
102
{ACAD_REACTORS
330
7
102
}
330
7
100
AcDbDictionary
281
     1
  0
DICTIONARY
  5
684E
102
{ACAD_REACTORS
330
7
102
}
330
7
100
AcDbDictionary
281
     1
  0
DICTIONARY
  5
6854
102
{ACAD_REACTORS
330
7
102
}
330
7
100
AcDbDictionary
281
     1
  0
DICTIONARY
  5
6853
102
{ACAD_REACTORS
330
7
102
}
330
7
100
AcDbDictionary
281
     1
  0
DICTIONARY
  5
684F
102
{ACAD_REACTORS
330
7
102
}
330
7
100
AcDbDictionary
281
     1
  0
DICTIONARY
  5
686C
102
{ACAD_REACTORS
330
7
102
}
330
7
100
AcDbDictionary
281
     1
  0
DICTIONARY
  5
6851
102
{ACAD_REACTORS
330
7
102
}
330
7
100
AcDbDictionary
281
     1
  0
DICTIONARY
  5
6850
102
{ACAD_REACTORS
330
7
102
}
330
7
100
AcDbDictionary
281
     1
  0
DICTIONARY
  5
6856
102
{ACAD_REACTORS
330
7
102
}
330
7
100
AcDbDictionary
281
     1
  0
DICTIONARY
  5
3C4
102
{ACAD_REACTORS
330
7
102
}
330
7
100
AcDbDictionary
281
     1
  0
DICTIONARY
  5
6867
102
{ACAD_REACTORS
330
7
102
}
330
7
100
AcDbDictionary
281
     1
  0
DICTIONARY
  5
6868
102
{ACAD_REACTORS
330
7
102
}
330
7
100
AcDbDictionary
281
     1
  0
DICTIONARY
  5
6869
102
{ACAD_REACTORS
330
7
102
}
330
7
100
AcDbDictionary
281
     1
  0
DICTIONARY
  5
6857
102
{ACAD_REACTORS
330
7
102
}
330
7
100
AcDbDictionary
281
     1
  0
DICTIONARY
  5
686A
102
{ACAD_REACTORS
330
7
102
}
330
7
100
AcDbDictionary
281
     1
  0
DICTIONARY
  5
686B
102
{ACAD_REACTORS
330
7
102
}
330
7
100
AcDbDictionary
281
     1
  0
DICTIONARY
  5
686D
102
{ACAD_REACTORS
330
7
102
}
330
7
100
AcDbDictionary
281
     1
  0
DICTIONARY
  5
685D
102
{ACAD_REACTORS
330
7
102
}
330
7
100
AcDbDictionary
281
     1
  0
DICTIONARY
  5
685E
102
{ACAD_REACTORS
330
7
102
}
330
7
100
AcDbDictionary
281
     1
  0
DICTIONARY
  5
685F
102
{ACAD_REACTORS
330
7
102
}
330
7
100
AcDbDictionary
281
     1
  0
DICTIONARY
  5
6858
102
{ACAD_REACTORS
330
7
102
}
330
7
100
AcDbDictionary
281
     1
  0
DICTIONARY
  5
687A
102
{ACAD_REACTORS
330
7
102
}
330
7
100
AcDbDictionary
281
     1
  3
AEC_VARS_ARCHBASE
350
8307
  3
AEC_VARS_DWG_SETUP
350
687B
  3
AECMX_VARS_MUNICH
350
8308
  0
DICTIONARY
  5
6861
102
{ACAD_REACTORS
330
7
102
}
330
7
100
AcDbDictionary
281
     1
  0
DICTIONARY
  5
6860
102
{ACAD_REACTORS
330
7
102
}
330
7
100
AcDbDictionary
281
     1
  0
DICTIONARY
  5
6866
102
{ACAD_REACTORS
330
7
102
}
330
7
100
AcDbDictionary
281
     1
  0
DICTIONARY
  5
6862
102
{ACAD_REACTORS
330
7
102
}
330
7
100
AcDbDictionary
281
     1
  0
DICTIONARY
  5
686F
102
{ACAD_REACTORS
330
7
102
}
330
7
100
AcDbDictionary
281
     1
  0
DICTIONARY
  5
686E
102
{ACAD_REACTORS
330
7
102
}
330
7
100
AcDbDictionary
281
     1
  0
DICTIONARY
  5
6859
102
{ACAD_REACTORS
330
7
102
}
330
7
100
AcDbDictionary
281
     1
  0
DICTIONARY
  5
13A99
102
{ACAD_REACTORS
330
7
102
}
330
7
100
AcDbDictionary
281
     1
  3
ASEBlockHierarchyIndexRecord
350
13A9A
1001
DCO15
1040
1685171013.468
  0
DICTIONARY
  5
41C3
102
{ACAD_REACTORS
330
7
102
}
330
7
100
AcDbDictionary
281
     1
  3
ACET-OVERKILL-FUZZ
350
143CB
  3
ACET-OVERKILL-NO-ENDTOEND
350
143CE
  3
ACET-OVERKILL-NO-PARTIAL
350
143CD
  3
ACET-OVERKILL-NO-PLINES
350
143CC
  0
XRECORD
  5
14501
102
{ACAD_REACTORS
330
7
102
}
330
7
100
AcDbXrecord
280
     1
  1
DWGPROPS COOKIE
  2

  3

  4

  6

  7

  8
anna.bogusz
  9

300
=
301
=
302
=
303
=
304
=
305
=
306
=
307
=
308
=
309
=
 40
8.91157386574074
 41
2452027.670547454
 42
2455307.505989213
  1

 90
        0
  0
DICTIONARY
  5
8311
102
{ACAD_REACTORS
330
12
102
}
330
12
100
AcDbDictionary
281
     1
  0
DICTIONARY
  5
13
102
{ACAD_REACTORS
330
12
102
}
330
12
100
AcDbDictionary
281
     1
  0
DICTIONARY
  5
8310
102
{ACAD_REACTORS
330
12
102
}
330
12
100
AcDbDictionary
281
     1
1001
ACAD
1000
<All
  0
XRECORD
  5
12E26
102
{ACAD_REACTORS
330
12E25
102
}
330
12E25
100
AcDbXrecord
280
     1
290
     1
  0
XRECORD
  5
12E28
102
{ACAD_REACTORS
330
12E27
102
}
330
12E27
100
AcDbXrecord
280
     1
290
     1
  0
XRECORD
  5
12E2C
102
{ACAD_REACTORS
330
12E2B
102
}
330
12E2B
100
AcDbXrecord
280
     1
290
     1
  0
XRECORD
  5
12E32
102
{ACAD_REACTORS
330
12E31
102
}
330
12E31
100
AcDbXrecord
280
     1
290
     1
  0
SORTENTSTABLE
  5
1FF0
102
{ACAD_REACTORS
330
1FEF
102
}
330
1FEF
100
AcDbSortentsTable
330
2
331
143A2
  5
143A2
331
13F23
  5
13F28
331
13F99
  5
13F9F
331
143AA
  5
143AA
331
13F2B
  5
13F30
331
13F33
  5
13F38
331
13F3B
  5
13F40
331
13F43
  5
13F49
331
13F4B
  5
13F51
331
13F8A
  5
13F91
331
14219
  5
13F43
331
13F53
  5
13F59
331
13F92
  5
13F98
331
1439B
  5
1439B
331
13F5B
  5
13F61
331
13F63
  5
13F69
331
13F9A
  5
13FA0
331
143AB
  5
143AB
331
13F2C
  5
13F31
331
13F34
  5
13F39
331
143BB
  5
143C0
331
13F3C
  5
13F41
331
159
  5
159
331
13F44
  5
13F4A
331
13F4C
  5
13F52
331
13F8B
  5
13F93
331
14394
  5
14394
331
13F54
  5
13F5B
331
13F93
  5
13F99
331
1439C
  5
1439C
331
13F5C
  5
13F62
331
143A4
  5
143A4
331
13F64
  5
13F6A
331
13F9B
  5
13FA1
331
143AC
  5
143AC
331
13F2D
  5
13F32
331
13FA3
  5
13FBD
331
13F35
  5
13F3A
331
143BC
  5
143C1
331
13F3D
  5
13F42
331
142
  5
142
331
13FD3
  5
14072
331
13F45
  5
13F4B
331
13F84
  5
13F8A
331
13F4D
  5
13F53
331
13F94
  5
13F9A
331
13FEB
  5
14074
331
1439D
  5
1439D
331
13F5D
  5
13F63
331
13F65
  5
13F6B
331
13F9C
  5
13FA2
331
143AD
  5
143AD
331
13F2E
  5
13F33
331
13FA4
  5
13FC8
331
143B5
  5
143BA
331
14003
  5
141F2
331
13F36
  5
13F3B
331
143BD
  5
143C2
331
13F3E
  5
13F44
331
13F46
  5
13F4C
331
13F85
  5
13F8B
331
13F4E
  5
13F54
331
13F8D
  5
13F94
331
13F56
  5
13F5C
331
13F95
  5
13F9B
331
1439E
  5
1439E
331
13F5E
  5
13F64
331
143A6
  5
143A6
331
13F66
  5
13F6C
331
13F9D
  5
13FA3
331
143AE
  5
143AE
331
13F2F
  5
13F34
331
13FA5
  5
13FD3
331
143B6
  5
143BB
331
13F37
  5
13F3C
331
143BE
  5
143C3
331
13F3F
  5
13F45
331
15C
  5
15C
331
143C6
  5
143B7
331
13F47
  5
13F4D
331
13F86
  5
13F8C
331
13F4F
  5
13F55
331
13F57
  5
13F5D
331
13F96
  5
13F9C
331
1439F
  5
1439F
331
13F5F
  5
13F65
331
13F20
  5
13F25
331
143A7
  5
143A7
331
13F67
  5
13F6D
331
13F9E
  5
13FA4
331
143AF
  5
143AF
331
13F30
  5
13F35
331
13FA6
  5
13FDE
331
143B7
  5
143BC
331
13F38
  5
13F3D
331
143BF
  5
143C4
331
13F40
  5
13F46
331
13F48
  5
13F4E
331
13F87
  5
13F8D
331
13FDE
  5
14073
331
13F50
  5
13F56
331
13F8F
  5
13F95
331
14398
  5
14398
331
13F58
  5
13F5E
331
13F97
  5
13F9D
331
143A0
  5
143A0
331
13F21
  5
13F26
331
13F60
  5
13F67
331
13FF6
  5
14075
331
143A8
  5
143A8
331
13F29
  5
13F2E
331
13F68
  5
13F6E
331
13F9F
  5
13FA7
331
143B0
  5
143B0
331
13F31
  5
13F36
331
13FA7
  5
14003
331
143B8
  5
143BD
331
13F39
  5
13F3E
331
143C0
  5
143C5
331
13F41
  5
13F47
331
141CF
  5
13F20
331
13F49
  5
13F4F
331
13F88
  5
13F8E
331
13F51
  5
13F57
331
13F90
  5
13F96
331
14399
  5
14399
331
13F59
  5
13F5F
331
143A1
  5
143A1
331
13F22
  5
13F27
331
13F61
  5
13F68
331
13F98
  5
13F9E
331
143A9
  5
143A9
331
13F2A
  5
13F2F
331
13FA0
  5
13FB2
331
143B1
  5
143B1
331
13F32
  5
13F37
331
143B9
  5
143BE
331
13FC8
  5
14071
331
13F3A
  5
13F3F
331
157
  5
157
331
143C1
  5
143C6
331
13F42
  5
13F48
331
13F4A
  5
13F50
331
13F89
  5
13F8F
331
13F52
  5
13F58
331
13F91
  5
13F97
331
1439A
  5
1439A
331
13F5A
  5
13F60
  0
SORTENTSTABLE
  5
117C
102
{ACAD_REACTORS
330
24
102
}
330
24
100
AcDbSortentsTable
330
23
  0
LAYOUT
  5
10
102
{ACAD_XDICTIONARY
360
14504
102
}
102
{ACAD_REACTORS
330
B
102
}
330
B
100
AcDbPlotSettings
  1

  2
C:\PROGRAM FILES\AUTOCAD LT 2000\plotters\DWF ePlot.pc3
  4

  6

 40
0.0
 41
0.0
 42
0.0
 43
0.0
 44
0.0
 45
0.0
 46
0.0
 47
0.0
 48
0.0
 49
0.0
140
0.0
141
0.0
142
1.0
143
1.0
 70
   688
 72
     0
 73
     0
 74
     5
  7
monochrome_140.ctb
 75
    16
147
1.0
148
0.0
149
0.0
100
AcDbLayout
  1
Layout1
 70
     1
 71
     1
 10
0.0
 20
0.0
 11
420.0
 21
297.0
 12
0.0
 22
0.0
 32
0.0
 14
1.000000000000000E+20
 24
1.000000000000000E+20
 34
1.000000000000000E+20
 15
-1.000000000000000E+20
 25
-1.000000000000000E+20
 35
-1.000000000000000E+20
146
0.0
 13
0.0
 23
0.0
 33
0.0
 16
1.0
 26
0.0
 36
0.0
 17
0.0
 27
1.0
 37
0.0
 76
     0
330
D
  0
LAYOUT
  5
A
102
{ACAD_XDICTIONARY
360
14502
102
}
102
{ACAD_REACTORS
330
B
102
}
330
B
100
AcDbPlotSettings
  1

  2
PDFCreator
  4
A4
  6
RODODENDRON 5
 40
3.174999952316284
 41
3.174999952316284
 42
3.175003051757812
 43
3.17498779296875
 44
209.8886566162109
 45
297.0530090332031
 46
-0.230673193931878
 47
5.151510643959028
 48
215187.2000545948
 49
127657.5157057546
140
225387.2000545948
141
141677.5157057546
142
1.0
143
50.0
 70
 11956
 72
     1
 73
     0
 74
     4
  7
monochrome_140.ctb
 75
    25
147
0.02
148
-215187.2000545948
149
-127657.5157057546
100
AcDbLayout
  1
Model
 70
     1
 71
     0
 10
0.0
 20
0.0
 11
12.0
 21
9.0
 12
0.0
 22
0.0
 32
0.0
 14
0.0
 24
0.0
 34
0.0
 15
0.0
 25
0.0
 35
0.0
146
0.0
 13
0.0
 23
0.0
 33
0.0
 16
1.0
 26
0.0
 36
0.0
 17
0.0
 27
1.0
 37
0.0
 76
     0
330
2
331
1728
1001
ACAD_PSEXT
1000
PDFCreator
1000
PDFCreator
1000
PDFCreator:
1000
eDoc Printer
1070
     0
  0
MATERIAL
  5
172B
102
{ACAD_XDICTIONARY
360
14509
102
}
102
{ACAD_REACTORS
330
30
102
}
330
30
100
AcDbMaterial
  1
ByBlock
 73
     1
 78
     1
172
     1
176
     1
270
     1
274
     1
  0
MATERIAL
  5
172A
102
{ACAD_XDICTIONARY
360
14507
102
}
102
{ACAD_REACTORS
330
30
102
}
330
30
100
AcDbMaterial
  1
ByLayer
 73
     1
 78
     1
172
     1
176
     1
270
     1
274
     1
  0
MATERIAL
  5
172C
102
{ACAD_XDICTIONARY
360
1450B
102
}
102
{ACAD_REACTORS
330
30
102
}
330
30
100
AcDbMaterial
  1
Global
 73
     1
 78
     1
172
     1
176
     1
270
     1
274
     1
  0
MLEADERSTYLE
  5
12E1C
102
{ACAD_REACTORS
330
12E1B
102
}
330
12E1B
100
AcDbMLeaderStyle
170
     2
171
     1
172
     0
 90
        2
 40
0.0
 41
0.0
173
     1
 91
-1056964608
340
18
 92
       -2
290
     1
 42
0.09
291
     1
 43
0.36
  3
Standard
 44
0.18
300

342
15
174
     1
178
     6
175
     1
176
     0
 93
-1056964608
 45
0.18
292
     0
297
     0
 46
0.18
 94
-1056964608
 47
1.0
 49
1.0
140
1.0
293
     1
141
0.0
294
     1
177
     0
142
1.0
295
     0
296
     0
143
0.125
1001
ACAD_MLEADERVER
1070
     2
  0
MLINESTYLE
  5
33
102
{ACAD_REACTORS
330
2E
102
}
330
2E
100
AcDbMlineStyle
  2
STANDARD
 70
     0
  3

 62
   256
 51
90.0
 52
90.0
 71
     2
 49
0.5
 62
   256
  6
BYLAYER
 49
-0.5
 62
   256
  6
BYLAYER
  0
ACDBPLACEHOLDER
  5
5
102
{ACAD_REACTORS
330
6
102
}
330
6
  0
SCALE
  5
12E0C
102
{ACAD_REACTORS
330
12E0B
102
}
330
12E0B
100
AcDbScale
 70
     0
300
1/64" = 1'-0"
140
0.015625
141
12.0
290
     0
  0
SCALE
  5
12E0D
102
{ACAD_REACTORS
330
12E0B
102
}
330
12E0B
100
AcDbScale
 70
     0
300
1/32" = 1'-0"
140
0.03125
141
12.0
290
     0
  0
SCALE
  5
12E0E
102
{ACAD_REACTORS
330
12E0B
102
}
330
12E0B
100
AcDbScale
 70
     0
300
1/16" = 1'-0"
140
0.0625
141
12.0
290
     0
  0
SCALE
  5
12E0F
102
{ACAD_REACTORS
330
12E0B
102
}
330
12E0B
100
AcDbScale
 70
     0
300
3/32" = 1'-0"
140
0.09375
141
12.0
290
     0
  0
SCALE
  5
12E10
102
{ACAD_REACTORS
330
12E0B
102
}
330
12E0B
100
AcDbScale
 70
     0
300
1/8" = 1'-0"
140
0.125
141
12.0
290
     0
  0
SCALE
  5
12E11
102
{ACAD_REACTORS
330
12E0B
102
}
330
12E0B
100
AcDbScale
 70
     0
300
3/16" = 1'-0"
140
0.1875
141
12.0
290
     0
  0
SCALE
  5
12E12
102
{ACAD_REACTORS
330
12E0B
102
}
330
12E0B
100
AcDbScale
 70
     0
300
1/4" = 1'-0"
140
0.25
141
12.0
290
     0
  0
SCALE
  5
12E13
102
{ACAD_REACTORS
330
12E0B
102
}
330
12E0B
100
AcDbScale
 70
     0
300
3/8" = 1'-0"
140
0.375
141
12.0
290
     0
  0
SCALE
  5
12E14
102
{ACAD_REACTORS
330
12E0B
102
}
330
12E0B
100
AcDbScale
 70
     0
300
1/2" = 1'-0"
140
0.5
141
12.0
290
     0
  0
SCALE
  5
12E15
102
{ACAD_REACTORS
330
12E0B
102
}
330
12E0B
100
AcDbScale
 70
     0
300
3/4" = 1'-0"
140
0.75
141
12.0
290
     0
  0
SCALE
  5
12E16
102
{ACAD_REACTORS
330
12E0B
102
}
330
12E0B
100
AcDbScale
 70
     0
300
1" = 1'-0"
140
1.0
141
12.0
290
     0
  0
SCALE
  5
12E17
102
{ACAD_REACTORS
330
12E0B
102
}
330
12E0B
100
AcDbScale
 70
     0
300
1 1/2" = 1'-0"
140
1.5
141
12.0
290
     0
  0
SCALE
  5
12E18
102
{ACAD_REACTORS
330
12E0B
102
}
330
12E0B
100
AcDbScale
 70
     0
300
3" = 1'-0"
140
3.0
141
12.0
290
     0
  0
SCALE
  5
12E19
102
{ACAD_REACTORS
330
12E0B
102
}
330
12E0B
100
AcDbScale
 70
     0
300
6" = 1'-0"
140
6.0
141
12.0
290
     0
  0
SCALE
  5
12E1A
102
{ACAD_REACTORS
330
12E0B
102
}
330
12E0B
100
AcDbScale
 70
     0
300
1'-0" = 1'-0"
140
12.0
141
12.0
290
     1
  0
TABLESTYLE
  5
DF3
102
{ACAD_XDICTIONARY
360
13131
102
}
102
{ACAD_REACTORS
330
DF2
102
}
330
DF2
100
AcDbTableStyle
  3
Standard
 70
     0
 71
     0
 40
0.06
 41
0.06
280
     0
281
     0
  7
Standard
140
0.18
170
     2
 62
     0
 63
     7
283
     0
274
    -2
284
     1
 64
     0
275
    -2
285
     1
 65
     0
276
    -2
286
     1
 66
     0
277
    -2
287
     1
 67
     0
278
    -2
288
     1
 68
     0
279
    -2
289
     1
 69
     0
  7
Standard
140
0.25
170
     5
 62
     0
 63
     7
283
     0
274
    -2
284
     1
 64
     0
275
    -2
285
     1
 65
     0
276
    -2
286
     1
 66
     0
277
    -2
287
     1
 67
     0
278
    -2
288
     1
 68
     0
279
    -2
289
     1
 69
     0
  7
Standard
140
0.18
170
     5
 62
     0
 63
     7
283
     0
274
    -2
284
     1
 64
     0
275
    -2
285
     1
 65
     0
276
    -2
286
     1
 66
     0
277
    -2
287
     1
 67
     0
278
    -2
288
     1
 68
     0
279
    -2
289
     1
 69
     0
  0
VISUALSTYLE
  5
1733
102
{ACAD_REACTORS
330
172D
102
}
330
172D
100
AcDbVisualStyle
  2
2dWireframe
 70
     4
 71
     0
 72
     2
 73
     0
 90
        0
 40
-0.6
 41
-30.0
 62
     5
 63
     7
 74
     1
 91
        4
 64
     7
 65
   257
 75
     1
175
     1
 42
1.0
 92
        0
 66
   257
 43
1.0
 76
     1
 77
     6
 78
     2
 67
     7
 79
     5
170
     0
171
     0
290
     0
174
     0
 93
        1
 44
0.0
173
     0
291
     0
 45
0.0
1001
ACAD
1000
AcDbSavedByObjectVersion
1070
     0
  0
VISUALSTYLE
  5
12DA2
102
{ACAD_REACTORS
330
172D
102
}
330
172D
100
AcDbVisualStyle
  2
3D Hidden
 70
     6
 71
     1
 72
     2
 73
     2
 90
        0
 40
-0.6
 41
-30.0
 62
     5
 63
     7
 74
     2
 91
        2
 64
     7
 65
   257
 75
     2
175
     1
 42
40.0
 92
        0
 66
   257
 43
1.0
 76
     1
 77
     6
 78
     2
 67
     7
 79
     3
170
     0
171
     0
290
     0
174
     0
 93
        1
 44
0.0
173
     0
291
     0
 45
0.0
1001
ACAD
1000
AcDbSavedByObjectVersion
1070
     0
  0
VISUALSTYLE
  5
12DA1
102
{ACAD_REACTORS
330
172D
102
}
330
172D
100
AcDbVisualStyle
  2
3dWireframe
 70
     5
 71
     0
 72
     2
 73
     0
 90
        0
 40
-0.6
 41
-30.0
 62
     5
 63
     7
 74
     1
 91
        4
 64
     7
 65
   257
 75
     1
175
     1
 42
1.0
 92
        0
 66
   257
 43
1.0
 76
     1
 77
     6
 78
     2
 67
     7
 79
     5
170
     0
171
     0
290
     0
174
     0
 93
        1
 44
0.0
173
     0
291
     0
 45
0.0
1001
ACAD
1000
AcDbSavedByObjectVersion
1070
     0
  0
VISUALSTYLE
  5
1732
102
{ACAD_REACTORS
330
172D
102
}
330
172D
100
AcDbVisualStyle
  2
Basic
 70
     7
 71
     1
 72
     0
 73
     1
 90
        0
 40
-0.6
 41
-30.0
 62
     5
 63
     7
 74
     0
 91
        4
 64
     7
 65
   257
 75
     1
175
     1
 42
1.0
 92
        8
 66
     7
 43
1.0
 76
     1
 77
     6
 78
     2
 67
     7
 79
     5
170
     0
171
     0
290
     0
174
     0
 93
        1
 44
0.0
173
     0
291
     1
 45
0.0
1001
ACAD
1000
AcDbSavedByObjectVersion
1070
     0
  0
VISUALSTYLE
  5
1739
102
{ACAD_REACTORS
330
172D
102
}
330
172D
100
AcDbVisualStyle
  2
Brighten
 70
    12
 71
     2
 72
     2
 73
     0
 90
        0
 40
-0.6
 41
-30.0
 62
     5
 63
     7
 74
     1
 91
        4
 64
     7
 65
   257
 75
     1
175
     1
 42
1.0
 92
        8
 66
     7
 43
1.0
 76
     1
 77
     6
 78
     2
 67
     7
 79
     5
170
     0
171
     0
290
     0
174
     0
 93
        1
 44
50.0
173
     0
291
     1
 45
0.0
1001
ACAD
1000
AcDbSavedByObjectVersion
1070
     0
  0
VISUALSTYLE
  5
173D
102
{ACAD_REACTORS
330
172D
102
}
330
172D
100
AcDbVisualStyle
  2
ColorChange
 70
    16
 71
     2
 72
     2
 73
     3
 90
        0
 40
-0.6
 41
-30.0
 62
     5
 63
     8
 74
     1
 91
        4
 64
     7
 65
   257
 75
     1
175
     1
 42
1.0
 92
        8
 66
     8
 43
1.0
 76
     1
 77
     6
 78
     2
 67
     7
 79
     5
170
     0
171
     0
290
     0
174
     0
 93
        1
 44
0.0
173
     0
291
     1
 45
0.0
1001
ACAD
1000
AcDbSavedByObjectVersion
1070
     0
  0
VISUALSTYLE
  5
12DA3
102
{ACAD_REACTORS
330
172D
102
}
330
172D
100
AcDbVisualStyle
  2
Conceptual
 70
     9
 71
     3
 72
     2
 73
     0
 90
        0
 40
-0.6
 41
-30.0
 62
     5
 63
     7
 74
     2
 91
        2
 64
     7
 65
   257
 75
     1
175
     1
 42
40.0
 92
        8
 66
     7
 43
1.0
 76
     1
 77
     6
 78
     2
 67
     7
 79
     3
170
     0
171
     0
290
     0
174
     0
 93
        1
 44
0.0
173
     0
291
     0
 45
0.0
1001
ACAD
1000
AcDbSavedByObjectVersion
1070
     0
  0
VISUALSTYLE
  5
1738
102
{ACAD_REACTORS
330
172D
102
}
330
172D
100
AcDbVisualStyle
  2
Dim
 70
    11
 71
     2
 72
     2
 73
     0
 90
        0
 40
-0.6
 41
-30.0
 62
     5
 63
     7
 74
     1
 91
        4
 64
     7
 65
   257
 75
     1
175
     1
 42
1.0
 92
        8
 66
     7
 43
1.0
 76
     1
 77
     6
 78
     2
 67
     7
 79
     5
170
     0
171
     0
290
     0
174
     0
 93
        1
 44
-50.0
173
     0
291
     1
 45
0.0
1001
ACAD
1000
AcDbSavedByObjectVersion
1070
     0
  0
VISUALSTYLE
  5
173C
102
{ACAD_REACTORS
330
172D
102
}
330
172D
100
AcDbVisualStyle
  2
Facepattern
 70
    15
 71
     2
 72
     2
 73
     0
 90
        0
 40
-0.6
 41
-30.0
 62
     5
 63
     7
 74
     1
 91
        4
 64
     7
 65
   257
 75
     1
175
     1
 42
1.0
 92
        8
 66
     7
 43
1.0
 76
     1
 77
     6
 78
     2
 67
     7
 79
     5
170
     0
171
     0
290
     0
174
     0
 93
        1
 44
0.0
173
     0
291
     1
 45
0.0
1001
ACAD
1000
AcDbSavedByObjectVersion
1070
     0
  0
VISUALSTYLE
  5
172E
102
{ACAD_REACTORS
330
172D
102
}
330
172D
100
AcDbVisualStyle
  2
Flat
 70
     0
 71
     2
 72
     1
 73
     1
 90
        2
 40
-0.6
 41
30.0
 62
     5
 63
     7
 74
     0
 91
        4
 64
     7
 65
   257
 75
     1
175
     1
 42
1.0
 92
        8
 66
     7
 43
1.0
 76
     1
 77
     6
 78
     2
 67
     7
 79
     5
170
     0
171
     0
290
     0
174
     0
 93
       13
 44
0.0
173
     0
291
     1
 45
0.0
1001
ACAD
1000
AcDbSavedByObjectVersion
1070
     0
  0
VISUALSTYLE
  5
172F
102
{ACAD_REACTORS
330
172D
102
}
330
172D
100
AcDbVisualStyle
  2
FlatWithEdges
 70
     1
 71
     2
 72
     1
 73
     1
 90
        2
 40
-0.6
 41
30.0
 62
     5
 63
     7
 74
     1
 91
        4
 64
     7
 65
   257
 75
     1
175
     1
 42
1.0
 92
        0
 66
   257
 43
1.0
 76
     1
 77
     6
 78
     2
 67
     7
 79
     5
170
     0
171
     0
290
     0
174
     0
 93
       13
 44
0.0
173
     0
291
     1
 45
0.0
1001
ACAD
1000
AcDbSavedByObjectVersion
1070
     0
  0
VISUALSTYLE
  5
1730
102
{ACAD_REACTORS
330
172D
102
}
330
172D
100
AcDbVisualStyle
  2
Gouraud
 70
     2
 71
     2
 72
     2
 73
     1
 90
        2
 40
-0.6
 41
30.0
 62
     5
 63
     7
 74
     0
 91
        4
 64
     7
 65
   257
 75
     1
175
     1
 42
1.0
 92
        0
 66
     7
 43
1.0
 76
     1
 77
     6
 78
     2
 67
     7
 79
     5
170
     0
171
     0
290
     0
174
     0
 93
       13
 44
0.0
173
     0
291
     1
 45
0.0
1001
ACAD
1000
AcDbSavedByObjectVersion
1070
     0
  0
VISUALSTYLE
  5
1731
102
{ACAD_REACTORS
330
172D
102
}
330
172D
100
AcDbVisualStyle
  2
GouraudWithEdges
 70
     3
 71
     2
 72
     2
 73
     1
 90
        2
 40
-0.6
 41
30.0
 62
     5
 63
     7
 74
     1
 91
        4
 64
     7
 65
   257
 75
     1
175
     1
 42
1.0
 92
        0
 66
   257
 43
1.0
 76
     1
 77
     6
 78
     2
 67
     7
 79
     5
170
     0
171
     0
290
     0
174
     0
 93
       13
 44
0.0
173
     0
291
     1
 45
0.0
1001
ACAD
1000
AcDbSavedByObjectVersion
1070
     0
  0
VISUALSTYLE
  5
173B
102
{ACAD_REACTORS
330
172D
102
}
330
172D
100
AcDbVisualStyle
  2
Linepattern
 70
    14
 71
     2
 72
     2
 73
     0
 90
        0
 40
-0.6
 41
-30.0
 62
     5
 63
     7
 74
     1
 91
        4
 64
     7
 65
   257
 75
     7
175
     7
 42
1.0
 92
        8
 66
     7
 43
1.0
 76
     1
 77
     6
 78
     2
 67
     7
 79
     5
170
     0
171
     0
290
     0
174
     0
 93
        1
 44
0.0
173
     0
291
     1
 45
0.0
1001
ACAD
1000
AcDbSavedByObjectVersion
1070
     0
  0
VISUALSTYLE
  5
12DA4
102
{ACAD_REACTORS
330
172D
102
}
330
172D
100
AcDbVisualStyle
  2
Realistic
 70
     8
 71
     2
 72
     2
 73
     0
 90
        0
 40
-0.6
 41
-30.0
 62
     5
 63
     7
 74
     1
 91
        0
 64
     7
 65
   257
 75
     1
175
     1
 42
1.0
 92
        8
 66
     8
 43
1.0
 76
     1
 77
     6
 78
     2
 67
     7
 79
     5
170
     0
171
     0
290
     0
174
     0
 93
       13
 44
0.0
173
     0
291
     0
 45
0.0
1001
ACAD
1000
AcDbSavedByObjectVersion
1070
     0
  0
VISUALSTYLE
  5
173A
102
{ACAD_REACTORS
330
172D
102
}
330
172D
100
AcDbVisualStyle
  2
Thicken
 70
    13
 71
     2
 72
     2
 73
     0
 90
        0
 40
-0.6
 41
-30.0
 62
     5
 63
     7
 74
     1
 91
        4
 64
     7
 65
   257
 75
     1
175
     1
 42
1.0
 92
       12
 66
     7
 43
1.0
 76
     1
 77
     6
 78
     2
 67
     7
 79
     5
170
     0
171
     0
290
     0
174
     0
 93
        1
 44
0.0
173
     0
291
     1
 45
0.0
1001
ACAD
1000
AcDbSavedByObjectVersion
1070
     0
  0
DICTIONARY
  5
830A
102
{ACAD_REACTORS
330
8309
102
}
330
8309
100
AcDbDictionary
280
     1
281
     1
  3
Standards
360
830B
  0
DICTIONARYVAR
  5
13136
102
{ACAD_REACTORS
330
E04
102
}
330
E04
100
DictionaryVariables
280
     0
  1
1/8" = 1'-0"
  0
DICTIONARYVAR
  5
13134
102
{ACAD_REACTORS
330
E04
102
}
330
E04
100
DictionaryVariables
280
     0
  1
STANDARD
  0
DICTIONARYVAR
  5
E05
102
{ACAD_REACTORS
330
E04
102
}
330
E04
100
DictionaryVariables
280
     0
  1
STANDARD
  0
DICTIONARYVAR
  5
144FF
102
{ACAD_REACTORS
330
E04
102
}
330
E04
100
DictionaryVariables
280
     0
  1
1
  0
DICTIONARYVAR
  5
144FE
102
{ACAD_REACTORS
330
E04
102
}
330
E04
100
DictionaryVariables
280
     0
  1
1
  0
DICTIONARYVAR
  5
144FD
102
{ACAD_REACTORS
330
E04
102
}
330
E04
100
DictionaryVariables
280
     0
  1
0
  0
DICTIONARYVAR
  5
13138
102
{ACAD_REACTORS
330
E04
102
}
330
E04
100
DictionaryVariables
280
     0
  1
1
  0
DICTIONARYVAR
  5
13139
102
{ACAD_REACTORS
330
E04
102
}
330
E04
100
DictionaryVariables
280
     0
  1
15
  0
DICTIONARYVAR
  5
13137
102
{ACAD_REACTORS
330
E04
102
}
330
E04
100
DictionaryVariables
280
     0
  1
0
  0
DICTIONARYVAR
  5
13135
102
{ACAD_REACTORS
330
E04
102
}
330
E04
100
DictionaryVariables
280
     0
  1
0
  0
DICTIONARYVAR
  5
144FC
102
{ACAD_REACTORS
330
E04
102
}
330
E04
100
DictionaryVariables
280
     0
  1
127
  0
XRECORD
  5
13A9A
102
{ACAD_REACTORS
330
13A99
102
}
330
13A99
100
AcDbXrecord
280
     1
330
141DD
330
141DE
330
14024
330
14025
330
1402B
330
1402C
330
14054
330
14055
330
1405B
330
1405C
330
14064
330
14065
330
1406B
330
1406C
330
144DF
330
144E0
330
144E6
330
144E7
330
144ED
330
144EE
330
144C0
330
144C1
330
144C7
330
144C8
330
144D0
330
144D1
330
144D7
330
144D8
  0
XRECORD
  5
143CB
102
{ACAD_REACTORS
330
41C3
102
}
330
41C3
100
AcDbXrecord
280
     1
 40
0.000001
  0
XRECORD
  5
143CE
102
{ACAD_REACTORS
330
41C3
102
}
330
41C3
100
AcDbXrecord
280
     1
 70
     0
  0
XRECORD
  5
143CD
102
{ACAD_REACTORS
330
41C3
102
}
330
41C3
100
AcDbXrecord
280
     1
 70
     0
  0
XRECORD
  5
143CC
102
{ACAD_REACTORS
330
41C3
102
}
330
41C3
100
AcDbXrecord
280
     1
 70
     0
  0
DICTIONARY
  5
14504
330
10
100
AcDbDictionary
280
     1
281
     1
  3
ACAD_XREC_ROUNDTRIP
360
14505
  0
DICTIONARY
  5
14502
330
A
100
AcDbDictionary
280
     1
281
     1
  3
ACAD_XREC_ROUNDTRIP
360
14503
  0
DICTIONARY
  5
14509
330
172B
100
AcDbDictionary
280
     1
281
     1
  3
ACAD_XREC_ROUNDTRIP
360
1450A
  0
DICTIONARY
  5
14507
330
172A
100
AcDbDictionary
280
     1
281
     1
  3
ACAD_XREC_ROUNDTRIP
360
14508
  0
DICTIONARY
  5
1450B
330
172C
100
AcDbDictionary
280
     1
281
     1
  3
ACAD_XREC_ROUNDTRIP
360
1450C
  0
DICTIONARY
  5
13131
330
DF3
100
AcDbDictionary
280
     1
281
     1
  3
ACAD_ROUNDTRIP_2008_TABLESTYLE_CELLSTYLEMAP
360
14500
  3
ACAD_XREC_ROUNDTRIP
360
14506
  0
BINRECORD
  5
830B
102
{ACAD_REACTORS
330
830A
102
}
330
830A
100
AcAecBinRecord
 90
        0
 91
    19403
 70
     0
310
0100FFFEFF0D4100490041002000560065007200730069006F006E00200033000500FFFF01001C004163416563556B4C6179657244657363726970746976654669656C64FFFEFF154400690073006300690070006C0069006E0065002000440065007300690067006E00610074006F0072000102000000007B333637354541
310
46100100002100000070BA406CD0EA76040B00FFFEFF001500FFFEFF01440002000000FFFEFF07500072006F0063006500730073000E00FFFEFF01440002000000FFFEFF12500072006F0063006500730073002000440065006D006F006C006900740069006F006E00000000000000FFFEFF01560002000000FFFEFF0E5000
310
72006F0063006500730073002000560061006300750075006D00000000000000FFFEFF01450002000000FFFEFF12500072006F006300650073007300200045006C0065006300740072006900630061006C00000000000000FFFEFF01570002000000FFFEFF0E500072006F0063006500730073002000570061007400650072
310
007300000000000000FFFEFF01580002000000FFFEFF0F500072006F00630065007300730020004500780068006100750073007400000000000000FFFEFF01470002000000FFFEFF0D500072006F006300650073007300200047006100730065007300000000000000FFFEFF014F0002000000FFFEFF0B500072006F006300
310
65007300730020004F0069006C00000000000000FFFEFF01500002000000FFFEFF0E500072006F006300650073007300200050006900700069006E006700000000000000FFFEFF01510002000000FFFEFF11500072006F0063006500730073002000450071007500690070006D0065006E007400000000000000FFFEFF0152
310
0002000000FFFEFF19500072006F006300650073007300200044007200610069006E0073002000260020005200650063006C00610069006D007300000000000000FFFEFF01410002000000FFFEFF0C500072006F00630065007300730020004100690072007300000000000000FFFEFF01530002000000FFFEFF0C50007200
310
6F00630065007300730020005300690074006500000000000000FFFEFF01540002000000FFFEFF18500072006F006300650073007300200045006E0074007200610069006E0065006400200053006F006C00690064007300000000000000FFFEFF01430002000000FFFEFF11500072006F0063006500730073002000430068
310
0065006D006900630061006C00730000000000000000000000FFFEFF01560002000000FFFEFF1053007500720076006500790020002F0020004D0061007000700069006E0067000500FFFEFF01460002000000FFFEFF0C4600690065006C0064002000530075007200760065007900000000000000FFFEFF01490002000000
310
FFFEFF0E4400690067006900740061006C002000530075007200760065007900000000000000FFFEFF014A0002000000FFFEFF1F53007500720076006500790020002F0020004D0061007000700069006E006700200028005500730065007200200044006500660069006E00650064002900000000000000FFFEFF014B0002
310
000000FFFEFF1F53007500720076006500790020002F0020004D0061007000700069006E006700200028005500730065007200200044006500660069006E00650064002900000000000000FFFEFF01410002000000FFFEFF0D410065007200690061006C00200053007500720076006500790000000000000000000000FFFE
310
FF01450002000000FFFEFF0A45006C0065006300740072006900630061006C000900FFFEFF01440002000000FFFEFF1545006C0065006300740072006900630061006C002000440065006D006F006C006900740069006F006E00000000000000FFFEFF01590002000000FFFEFF1C45006C0065006300740072006900630061
310
006C00200041007500780069006C0069006100720079002000530079007300740065006D007300000000000000FFFEFF01490002000000FFFEFF1A45006C0065006300740072006900630061006C00200049006E0073007400720075006D0065006E0074006100740069006F006E00000000000000FFFEFF014A0002000000
310
FFFEFF1945006C0065006300740072006900630061006C00200028005500730065007200200044006500660069006E00650064002900000000000000FFFEFF014B0002000000FFFEFF1945006C0065006300740072006900630061006C00200028005500730065007200200044006500660069006E00650064002900000000
310
000000FFFEFF014C0002000000FFFEFF1345006C0065006300740072006900630061006C0020004C00690067006800740069006E006700000000000000FFFEFF01500002000000FFFEFF1045006C0065006300740072006900630061006C00200050006F00770065007200000000000000FFFEFF01530002000000FFFEFF0F
310
45006C0065006300740072006900630061006C0020005300690074006500000000000000FFFEFF01540002000000FFFEFF1D45006C0065006300740072006900630061006C002000540065006C00650063006F006D006D0075006E00690063006100740069006F006E00730000000000000000000000FFFEFF015700020000
310
00FFFEFF0B43006900760069006C00200057006F0072006B0073000200FFFEFF014A0002000000FFFEFF1A43006900760069006C00200057006F0072006B007300200028005500730065007200200044006500660069006E00650064002900000000000000FFFEFF014B0002000000FFFEFF1A43006900760069006C002000
310
57006F0072006B007300200028005500730065007200200044006500660069006E0065006400290000000000000000000000FFFEFF01460002000000FFFEFF0F46006900720065002000500072006F00740065006300740069006F006E000400FFFEFF014A0002000000FFFEFF134600690072006500200028005500730065
310
007200200044006500660069006E00650064002900000000000000FFFEFF014B0002000000FFFEFF134600690072006500200028005500730065007200200044006500660069006E00650064002900000000000000FFFEFF01410002000000FFFEFF184600690072006500200044006500740065006300740069006F006E00
310
200061006E006400200041006C00610072006D00000000000000FFFEFF01530002000000FFFEFF10460069007200650020005300750070007000720065007300730069006F006E0000000000000000000000FFFEFF01470002000000FFFEFF07470065006E006500720061006C000500FFFEFF01490002000000FFFEFF1347
310
0065006E006500720061006C00200049006E0066006F0072006D006100740069006F006E00000000000000FFFEFF014A0002000000FFFEFF16470065006E006500720061006C00200028005500730065007200200044006500660069006E00650064002900000000000000FFFEFF014B0002000000FFFEFF16470065006E00
310
6500720061006C00200028005500730065007200200044006500660069006E00650064002900000000000000FFFEFF01520002000000FFFEFF10470065006E006500720061006C0020005200650073006F007500720063006500000000000000FFFEFF01430002000000FFFEFF13470065006E006500720061006C00200043
310
006F006E0074007200610063007400750061006C0000000000000000000000FFFEFF01580002000000FFFEFF114F00740068006500720020004400690073006300690070006C0069006E00650073000200FFFEFF014A0002000000FFFEFF204F00740068006500720020004400690073006300690070006C0069006E006500
310
7300200028005500730065007200200044006500660069006E00650064002900000000000000FFFEFF014B0002000000FFFEFF204F00740068006500720020004400690073006300690070006C0069006E0065007300200028005500730065007200200044006500660069006E0065006400290000000000000000000000FF
310
FEFF01480002000000FFFEFF13480061007A006100720064006F007500730020004D006100740065007200690061006C0073000700FFFEFF014A0002000000FFFEFF22480061007A006100720064006F007500730020004D006100740065007200690061006C00730020002800550073006500720020004400650066006900
310
6E00650064002900000000000000FFFEFF014B0002000000FFFEFF22480061007A006100720064006F007500730020004D006100740065007200690061006C007300200028005500730065007200200044006500660069006E00650064002900000000000000FFFEFF014C0002000000FFFEFF044C00650061006400000000
310
000000FFFEFF01500002000000FFFEFF03500043004200000000000000FFFEFF01520002000000FFFEFF0C5200650066007200690067006500720061006E0074007300000000000000FFFEFF01410002000000FFFEFF084100730062006500730074006F007300000000000000FFFEFF01430002000000FFFEFF0943006800
310
65006D006900630061006C00730000000000000000000000FFFEFF01490002000000FFFEFF0949006E0074006500720069006F00720073000600FFFEFF01440002000000FFFEFF1349006E0074006500720069006F0072002000440065006D006F006C006900740069006F006E00000000000000FFFEFF01460002000000FF
310
FEFF1149006E0074006500720069006F0072002000460069006E0069007300680065007300000000000000FFFEFF01470002000000FFFEFF1249006E0074006500720069006F0072007300200047007200610070006800690063007300000000000000FFFEFF014A0002000000FFFEFF1849006E0074006500720069006F00
310
72007300200028005500730065007200200044006500660069006E00650064002900000000000000FFFEFF014B0002000000FFFEFF1849006E0074006500720069006F0072007300200028005500730065007200200044006500660069006E00650064002900000000000000FFFEFF014E0002000000FFFEFF0F49006E0074
310
006500720069006F0072002000440065007300690067006E0000000000000000000000FFFEFF015A0002000000FFFEFF1A43006F006E00740072006100630074006F00720020002F002000530068006F0070002000440072006100770069006E00670073000200FFFEFF014A0002000000FFFEFF2943006F006E0074007200
310
6100630074006F00720020002F002000530068006F0070002000440072006100770069006E0067007300200028005500730065007200200044006500660069006E00650064002900000000000000FFFEFF014B0002000000FFFEFF2943006F006E00740072006100630074006F00720020002F002000530068006F00700020
310
00440072006100770069006E0067007300200028005500730065007200200044006500660069006E0065006400290000000000000000000000FFFEFF014C0002000000FFFEFF094C0061006E006400730063006100700065000500FFFEFF01440002000000FFFEFF144C0061006E0064007300630061007000650020004400
310
65006D006F006C006900740069006F006E00000000000000FFFEFF01490002000000FFFEFF144C0061006E006400730063006100700065002000490072007200690067006100740069006F006E00000000000000FFFEFF014A0002000000FFFEFF184C0061006E006400730063006100700065002000280055007300650072
310
00200044006500660069006E00650064002900000000000000FFFEFF014B0002000000FFFEFF184C0061006E00640073006300610070006500200028005500730065007200200044006500660069006E00650064002900000000000000FFFEFF01500002000000FFFEFF124C0061006E006400730063006100700065002000
310
50006C0061006E00740069006E00670000000000000000000000FFFEFF014D0002000000FFFEFF0A4D0065006300680061006E006900630061006C000700FFFEFF01440002000000FFFEFF154D0065006300680061006E006900630061006C002000440065006D006F006C006900740069006F006E00000000000000FFFEFF
310
01480002000000FFFEFF0F4D0065006300680061006E006900630061006C0020004800560041004300000000000000FFFEFF01490002000000FFFEFF1A4D0065006300680061006E006900630061006C00200049006E0073007400720075006D0065006E0074006100740069006F006E00000000000000FFFEFF014A000200
310
0000FFFEFF194D0065006300680061006E006900630061006C00200028005500730065007200200044006500660069006E00650064002900000000000000FFFEFF014B0002000000FFFEFF194D0065006300680061006E006900630061006C00200028005500730065007200200044006500660069006E0065006400290000
310
0000000000FFFEFF01500002000000FFFEFF114D0065006300680061006E006900630061006C00200050006900700069006E006700000000000000FFFEFF01530002000000FFFEFF0F4D0065006300680061006E006900630061006C002000530069007400650000000000000000000000FFFEFF014F0002000000FFFEFF0A
310
4F007000650072006100740069006F006E0073000200FFFEFF014A0002000000FFFEFF194F007000650072006100740069006F006E007300200028005500730065007200200044006500660069006E00650064002900000000000000FFFEFF014B0002000000FFFEFF194F007000650072006100740069006F006E00730020
310
0028005500730065007200200044006500660069006E0065006400290000000000000000000000FFFEFF01500002000000FFFEFF0850006C0075006D00620069006E0067000600FFFEFF01440002000000FFFEFF1350006C0075006D00620069006E0067002000440065006D006F006C006900740069006F006E0000000000
310
0000FFFEFF014A0002000000FFFEFF1750006C0075006D00620069006E006700200028005500730065007200200044006500660069006E00650064002900000000000000FFFEFF014B0002000000FFFEFF1750006C0075006D00620069006E006700200028005500730065007200200044006500660069006E006500640029
310
00000000000000FFFEFF01500002000000FFFEFF0F50006C0075006D00620069006E006700200050006900700069006E006700000000000000FFFEFF01510002000000FFFEFF1250006C0075006D00620069006E0067002000450071007500690070006D0065006E007400000000000000FFFEFF01530002000000FFFEFF0D
310
50006C0075006D00620069006E0067002000530069007400650000000000000000000000FFFEFF01510002000000FFFEFF09450071007500690070006D0065006E0074001100FFFEFF01440002000000FFFEFF1344006500740065006E00740069006F006E002000450071007500690070006D0065006E0074000000000000
310
00FFFEFF01560002000000FFFEFF1C56006900640065006F002F00500068006F0074006F0067007200610070006800690063002000450071007500690070006D0065006E007400000000000000FFFEFF01450002000000FFFEFF1545006400750063006100740069006F006E0061006C002000450071007500690070006D00
310
65006E007400000000000000FFFEFF01460002000000FFFEFF1646006F006F006400200053006500720076006900630065002000450071007500690070006D0065006E007400000000000000FFFEFF01590002000000FFFEFF12530065006300750072006900740079002000450071007500690070006D0065006E00740000
310
0000000000FFFEFF01480002000000FFFEFF1248006F00730070006900740061006C002000450071007500690070006D0065006E007400000000000000FFFEFF014A0002000000FFFEFF18450071007500690070006D0065006E007400200028005500730065007200200044006500660069006E0065006400290000000000
310
0000FFFEFF014B0002000000FFFEFF18450071007500690070006D0065006E007400200028005500730065007200200044006500660069006E00650064002900000000000000FFFEFF014C0002000000FFFEFF144C00610062006F007200610074006F00720079002000450071007500690070006D0065006E007400000000
310
000000FFFEFF014D0002000000FFFEFF154D00610069006E00740065006E0061006E00630065002000450071007500690070006D0065006E007400000000000000FFFEFF01500002000000FFFEFF155000610072006B0069006E00670020004C006F0074002000450071007500690070006D0065006E007400000000000000
310
FFFEFF01520002000000FFFEFF10520065007400610069006C002000450071007500690070006D0065006E007400000000000000FFFEFF01410002000000FFFEFF124100740068006C0065007400690063002000450071007500690070006D0065006E007400000000000000FFFEFF01530002000000FFFEFF0E5300690074
310
0065002000450071007500690070006D0065006E007400000000000000FFFEFF01420002000000FFFEFF0E420061006E006B002000450071007500690070006D0065006E007400000000000000FFFEFF01540002000000FFFEFF145400680065006100740072006900630061006C002000450071007500690070006D006500
310
6E007400000000000000FFFEFF01430002000000FFFEFF16440072007900200043006C00650061006E0069006E0067002000450071007500690070006D0065006E00740000000000000000000000FFFEFF01410002000000FFFEFF0D4100720063006800690074006500630074007500720061006C000A00FFFEFF01440002
310
000000FFFEFF184100720063006800690074006500630074007500720061006C002000440065006D006F006C006900740069006F006E00000000000000FFFEFF01450002000000FFFEFF164100720063006800690074006500630074007500720061006C00200045006C0065006D0065006E0074007300000000000000FFFE
310
FF01460002000000FFFEFF164100720063006800690074006500630074007500720061006C002000460069006E0069007300680065007300000000000000FFFEFF01470002000000FFFEFF164100720063006800690074006500630074007500720061006C00200047007200610070006800690063007300000000000000FF
310
FEFF01490002000000FFFEFF164100720063006800690074006500630074007500720061006C00200049006E0074006500720069006F007200000000000000FFFEFF014A0002000000FFFEFF1C4100720063006800690074006500630074007500720061006C00200028005500730065007200200044006500660069006E00
310
650064002900000000000000FFFEFF014B0002000000FFFEFF1C4100720063006800690074006500630074007500720061006C00200028005500730065007200200044006500660069006E00650064002900000000000000FFFEFF01500002000000FFFEFF144100720063006800690074006500630074007500720061006C
310
00200050006100760069006E006700000000000000FFFEFF01530002000000FFFEFF124100720063006800690074006500630074007500720061006C0020005300690074006500000000000000FFFEFF01540002000000FFFEFF1C4100720063006800690074006500630074007500720061006C0020005400720061006E00
310
730070006F00720074006100740069006F006E0000000000000001000000FFFEFF01520002000000FFFEFF085200650073006F0075007200630065000700FFFEFF01450002000000FFFEFF135200650073006F007500720063006500200045006C0065006300740072006900630061006C00000000000000FFFEFF014A0002
310
000000FFFEFF175200650073006F007500720063006500200028005500730065007200200044006500660069006E00650064002900000000000000FFFEFF014B0002000000FFFEFF175200650073006F007500720063006500200028005500730065007200200044006500660069006E00650064002900000000000000FFFE
310
FF014D0002000000FFFEFF135200650073006F00750072006300650020004D0065006300680061006E006900630061006C00000000000000FFFEFF01410002000000FFFEFF165200650073006F00750072006300650020004100720063006800690074006500630074007500720061006C00000000000000FFFEFF01530002
310
000000FFFEFF135200650073006F00750072006300650020005300740072007500630074007500720061006C00000000000000FFFEFF01430002000000FFFEFF0E5200650073006F007500720063006500200043006900760069006C0000000000000000000000FFFEFF01420002000000FFFEFF0C470065006F0074006500
310
630068006E006900630061006C000200FFFEFF014A0002000000FFFEFF1B470065006F0074006500630068006E006900630061006C00200028005500730065007200200044006500660069006E00650064002900000000000000FFFEFF014B0002000000FFFEFF1B470065006F0074006500630068006E006900630061006C
310
00200028005500730065007200200044006500660069006E0065006400290000000000000000000000FFFEFF01530002000000FFFEFF0A5300740072007500630074007500720061006C000600FFFEFF01440002000000FFFEFF155300740072007500630074007500720061006C002000440065006D006F006C0069007400
310
69006F006E00000000000000FFFEFF01460002000000FFFEFF125300740072007500630074007500720061006C0020004600720061006D0069006E006700000000000000FFFEFF014A0002000000FFFEFF195300740072007500630074007500720061006C00200028005500730065007200200044006500660069006E0065
310
0064002900000000000000FFFEFF014B0002000000FFFEFF195300740072007500630074007500720061006C00200028005500730065007200200044006500660069006E00650064002900000000000000FFFEFF01530002000000FFFEFF0F5300740072007500630074007500720061006C00200053006900740065000000
310
00000000FFFEFF01420002000000FFFEFF175300740072007500630074007500720061006C00200053007500620073007400720075006300740075007200650000000000000000000000FFFEFF01430002000000FFFEFF0543006900760069006C000900FFFEFF01440002000000FFFEFF1043006900760069006C00200044
310
0065006D006F006C006900740069006F006E00000000000000FFFEFF01550002000000FFFEFF0F43006900760069006C0020005500740069006C0069007400690065007300000000000000FFFEFF01470002000000FFFEFF0D43006900760069006C002000470072006100640069006E006700000000000000FFFEFF014900
310
02000000FFFEFF1243006900760069006C00200049006D00700072006F00760065006D0065006E0074007300000000000000FFFEFF014A0002000000FFFEFF1443006900760069006C00200028005500730065007200200044006500660069006E00650064002900000000000000FFFEFF014B0002000000FFFEFF14430069
310
00760069006C00200028005500730065007200200044006500660069006E00650064002900000000000000FFFEFF01500002000000FFFEFF0C43006900760069006C00200050006100760069006E006700000000000000FFFEFF01530002000000FFFEFF0A43006900760069006C0020005300690074006500000000000000
310
FFFEFF01540002000000FFFEFF1443006900760069006C0020005400720061006E00730070006F00720074006100740069006F006E0000000000000000000000FFFEFF01540002000000FFFEFF12540065006C00650063006F006D006D0075006E00690063006100740069006F006E0073000900FFFEFF01590002000000FF
310
FEFF0853006500630075007200690074007900000000000000FFFEFF01490002000000FFFEFF0849006E0074006500720063006F006D00000000000000FFFEFF014A0002000000FFFEFF21540065006C00650063006F006D006D0075006E00690063006100740069006F006E00730020002800550073006500720020004400
310
6500660069006E00650064002900000000000000FFFEFF014B0002000000FFFEFF21540065006C00650063006F006D006D0075006E00690063006100740069006F006E007300200028005500730065007200200044006500660069006E00650064002900000000000000FFFEFF014D0002000000FFFEFF0A4D006F006E0069
310
0074006F00720069006E006700000000000000FFFEFF014E0002000000FFFEFF0D440061007400610020004E006500740077006F0072006B007300000000000000FFFEFF01410002000000FFFEFF0E41007500640069006F0020002F002000560069007300750061006C00000000000000FFFEFF01540002000000FFFEFF09
310
540065006C006500700068006F006E006500000000000000FFFEFF01430002000000FFFEFF1143006C006F0063006B00200061006E0064002000500072006F006700720061006D00000000000000000000000180FFFEFF054D0061006A006F0072000300000000000000000000000000000000000000000000000000000000
310
000000FFFEFF002300FFFEFF052D0046006C006F00720002000000FFFEFF0546006C006F006F007200000000000000FFFEFF052D004500710070006D0002000000FFFEFF09450071007500690070006D0065006E007400000000000000FFFEFF052D00530069007400650002000000FFFEFF09530069007400650020007000
310
6C0061006E00000000000000FFFEFF052D0050006C0061006E0002000000FFFEFF154B0065007900200070006C0061006E002000280066006C006F006F007200200070006C0061006E002900000000000000FFFEFF052D004400650074006C0002000000FFFEFF06440065007400610069006C00000000000000FFFEFF052D
310
0054006F0070006F0002000000FFFEFF0A54006F0070006F00670072006100700068007900000000000000FFFEFF052D004300740072006C0002000000FFFEFF0E43006F006E00740072006F006C00200050006F0069006E0074007300000000000000FFFEFF052D004600750072006E0002000000FFFEFF0B460075007200
310
6E0069007300680069006E0067007300000000000000FFFEFF052D0053006C006100620002000000FFFEFF0553006C00610062007300000000000000FFFEFF052D0050006F006C00790002000000FFFEFF0850006F006C00790067006F006E007300000000000000FFFEFF052D0043006F006D006D0002000000FFFEFF1254
310
0065006C00650063006F006D006D0075006E00690063006100740069006F006E007300000000000000FFFEFF052D00570061006C006C0002000000FFFEFF05570061006C006C007300000000000000FFFEFF052D0047006C0061007A0002000000FFFEFF0747006C0061007A0069006E006700000000000000FFFEFF052D00
310
410072006500610002000000FFFEFF044100720065006100000000000000FFFEFF052D0043006F006400650002000000FFFEFF1443006F0064006500200063006F006D0070006C00690061006E0063006500200070006C0061006E00000000000000FFFEFF052D005300740072006D0002000000FFFEFF0844007200610069
310
006E00610067006500000000000000FFFEFF052D0044006F006F00720002000000FFFEFF0544006F006F0072007300000000000000FFFEFF052D0041006E006E006F0002000000FFFEFF0A41006E006E006F0074006100740069006F006E00000000000000FFFEFF052D004200650061006D0002000000FFFEFF0542006500
310
61006D007300000000000000FFFEFF052D004C0069007400650002000000FFFEFF114C00690067006800740069006E006700200066006900780074007500720065007300000000000000FFFEFF052D00480056004100430002000000FFFEFF044800560041004300000000000000FFFEFF052D004100630063007300020000
310
00FFFEFF0B410063006300650073007300200070006C0061006E00000000000000FFFEFF052D0043006F006C00730002000000FFFEFF0743006F006C0075006D006E007300000000000000FFFEFF052D0043006C006E00670002000000FFFEFF074300650069006C0069006E006700000000000000FFFEFF052D0045007600
310
6100630002000000FFFEFF0F450076006100630075006100740069006F006E00200070006C0061006E00000000000000FFFEFF052D0043006F006E00760002000000FFFEFF1143006F006E0076006500790069006E0067002000730079007300740065006D007300000000000000FFFEFF052D005300650063007400020000
310
00FFFEFF07530065006300740069006F006E00000000000000FFFEFF052D00500072006F00700002000000FFFEFF08500072006F0070006500720074007900000000000000FFFEFF052D0052006F006F00660002000000FFFEFF0452006F006F006600000000000000FFFEFF052D0045006C006500630002000000FFFEFF0A
310
45006C0065006300740072006900630061006C00000000000000FFFEFF052D00470072006900640002000000FFFEFF0A470072006900640020006C0069006E0065007300000000000000FFFEFF052D00540069006E006E0002000000FFFEFF1E54007200690061006E00670075006C00610074006500640020006900720072
310
006500670075006C006100720020006E006500740077006F0072006B00000000000000FFFEFF052D00500072006F00740002000000FFFEFF1646006900720065002000700072006F00740065006300740069006F006E002000730079007300740065006D00000000000000FFFEFF052D00460069007200650002000000FFFE
310
FF1446006900720065002000700072006F00740065006300740069006F006E00200070006C0061006E00000000000000FFFEFF052D0045006C006500760002000000FFFEFF0945006C00650076006100740069006F006E000000000000000180FFFEFF074D0069006E006F00720020003100040000000000000000F00E7704
310
00000000000000000000000000000000F00000FFFEFF006A00FFFEFF052D00410062006F00760002000000FFFEFF0E45006C0065006D0065006E00740073002000610062006F0076006500000000000000FFFEFF052D005400610062006C0002000000FFFEFF0B440061007400610020007400610062006C00650073000000
310
00000000FFFEFF052D00420064007200790002000000FFFEFF0842006F0075006E006400610072007900000000000000FFFEFF052D004500710070006D0002000000FFFEFF09450071007500690070006D0065006E007400000000000000FFFEFF052D0043006E007400720002000000FFFEFF0A430065006E007400650072
310
006C0069006E006500000000000000FFFEFF052D0057006B007300660002000000FFFEFF1E530079007300740065006D00200077006F0072006B0020007300750072006600610063006500200063006F006D0070006F006E0065006E0074007300000000000000FFFEFF052D00420072006E00670002000000FFFEFF1A4200
310
65006100720069006E0067007300200026002000640069007300740061006E006300650020006C006100620065006C007300000000000000FFFEFF052D00530077006300680002000000FFFEFF0853007700690074006300680065007300000000000000FFFEFF052D005400680069006E0002000000FFFEFF195400680069
310
006E0020007700650069006700680074002000670072006100700068006900630020006C0069006E0065007300000000000000FFFEFF052D00520061006900730002000000FFFEFF06520061006900730065006400000000000000FFFEFF052D004F00700065006E0002000000FFFEFF084F00700065006E0069006E006700
310
7300000000000000FFFEFF052D004E0070006C00740002000000FFFEFF204E006F006E002D0070006C006F007400740069006E00670020006700720061007000680069006300200069006E0066006F0072006D006100740069006F006E00000000000000FFFEFF052D00500072006F00660002000000FFFEFF08500072006F
310
00660069006C0065007300000000000000FFFEFF052D005200650066006C0002000000FFFEFF0E5200650066006C0065006300740065006400200050006C0061006E00000000000000FFFEFF052D00460069006E00650002000000FFFEFF19460069006E006500200077006500690067006800740020006700720061007000
310
68006900630020006C0069006E0065007300000000000000FFFEFF052D004100700070006C0002000000FFFEFF0A4100700070006C00690061006E00630065007300000000000000FFFEFF052D00440069006D00730002000000FFFEFF0A440069006D0065006E00730069006F006E007300000000000000FFFEFF052D0050
310
006F007700720002000000FFFEFF0550006F00770065007200000000000000FFFEFF052D0053006C006100620002000000FFFEFF0553006C00610062007300000000000000FFFEFF052D0043006F006E006E0002000000FFFEFF0B43006F006E006E0065006300740069006F006E007300000000000000FFFEFF052D005700
310
61006C006C0002000000FFFEFF05570061006C006C007300000000000000FFFEFF052D004100730073006D0002000000FFFEFF0A41007300730065006D0062006C00690065007300000000000000FFFEFF052D005600680063006C0002000000FFFEFF08560065006800690063006C0065007300000000000000FFFEFF052D
310
0043006F006D006D0002000000FFFEFF1A540065006C006500700068006F006E0065002C00200063006F006D006D0075006E00690063006100740069006F006E0073002000000000000000FFFEFF052D00460072006500650002000000FFFEFF0C46007200650065007300740061006E00640069006E006700000000000000
310
FFFEFF052D00530079006D00620002000000FFFEFF07530079006D0062006F006C007300000000000000FFFEFF052D00520064006D00650002000000FFFEFF1B52006500610064002D006D00650020006C006100790065007200200028006E006F007400200070006C006F0074007400650064002900000000000000FFFEFF
310
052D0053006C006300650002000000FFFEFF0653006C006900630065007300000000000000FFFEFF052D00460061007300630002000000FFFEFF074600610073006300690061007300000000000000FFFEFF052D00460069006C00650002000000FFFEFF0D460069006C006500200063006100620069006E00650074007300
310
000000000000FFFEFF052D004D00610073006B0002000000FFFEFF1241004400540020004D00610073006B0069006E00670020004F0062006A00650063007400000000000000FFFEFF052D004A0061006D00620002000000FFFEFF1544006F006F007200200061006E0064002000770069006E0064006F00770020006A0061
310
006D0062007300000000000000FFFEFF052D005300690067006E0002000000FFFEFF055300690067006E007300000000000000FFFEFF052D0046006E007300680002000000FFFEFF08460069006E0069007300680065007300000000000000FFFEFF052D00530063006800640002000000FFFEFF0953006300680065006400
310
75006C0065007300000000000000FFFEFF052D00500072006800740002000000FFFEFF0E5000610072007400690061006C002000680065006900670068007400000000000000FFFEFF052D00470072007000730002000000FFFEFF06470072006F00750070007300000000000000FFFEFF052D00540068006C006400020000
310
00FFFEFF0A5400680072006500730068006F006C0064007300000000000000FFFEFF052D005300630072006E0002000000FFFEFF14530063007200650065006E006500640020004200610063006B00670072006F0075006E0064007300000000000000FFFEFF052D0043006F006D00700002000000FFFEFF1349006E007400
310
650072006E0061006C00200063006F006D0070006F006E0065006E0074007300000000000000FFFEFF052D005400690074006C0002000000FFFEFF18440072006100770069006E00670020006F0072002000640065007400610069006C0020007400690074006C0065007300000000000000FFFEFF052D0054006500780074
310
0002000000FFFEFF045400650078007400000000000000FFFEFF052D004D00610072006B0002000000FFFEFF1D4D00610072006B006500720073002C00200062007200650061006B0020006D00610072006B0073002C0020006C00650061006400650072007300000000000000FFFEFF052D00460075006C006C0002000000
310
FFFEFF0B460075006C006C002D00680065006900670068007400000000000000FFFEFF052D00450076007400720002000000FFFEFF1B45006C0065007600610074006F00720020006300610072007300200061006E0064002000650071007500690070006D0065006E007400000000000000FFFEFF052D0053007000630065
310
0002000000FFFEFF0553007000610063006500000000000000FFFEFF052D00530075007300700002000000FFFEFF12530075007300700065006E00640065006400200065006C0065006D0065006E0074007300000000000000FFFEFF052D00540065006500730002000000FFFEFF094D00610069006E002000740065006500
310
7300000000000000FFFEFF052D00460069007800740002000000FFFEFF1170006C0075006D00620069006E006700200066006900780074007500720065007300000000000000FFFEFF052D00520065006600720002000000FFFEFF195200650066006500720065006E00630065002C002000650078007400650072006E0061
310
006C002000660069006C0065007300000000000000FFFEFF052D004C00610062006C0002000000FFFEFF064C006100620065006C007300000000000000FFFEFF052D004C0069007400650002000000FFFEFF084C00690067006800740069006E006700000000000000FFFEFF052D00480065007600790002000000FFFEFF1A
310
4800650061007600790020007700650069006700680074002000670072006100700068006900630020006C0069006E0065007300000000000000FFFEFF052D00480065006100640002000000FFFEFF1744006F006F007200200061006E0064002000770069006E0064006F0077002000680065006100640065007200730000
310
0000000000FFFEFF052D004C00650067006E0002000000FFFEFF144C006500670065006E00640073002C002000530079006D0062006F006C0020006B00650079007300000000000000FFFEFF052D004B00650079006E0002000000FFFEFF084B00650079006E006F00740065007300000000000000FFFEFF052D0046006900
310
7800640002000000FFFEFF0F460069007800650064002000650071007500690070006D0065006E007400000000000000FFFEFF052D004C00650076006C0002000000FFFEFF274C006500760065006C0020006300680061006E006700650073002C002000720061006D00700073002C00200070006900740073002C00200064
310
0065007000720065007300730069006F006E007300000000000000FFFEFF052D004D00650064006D0002000000FFFEFF1B4D0065006400690075006D0020007700650069006700680074002000670072006100700068006900630020006C0069006E0065007300000000000000FFFEFF052D0042006C006F00770002000000
310
FFFEFF0E45006C0065006D0065006E00740073002000620065006C006F007700000000000000FFFEFF052D00410063006300730002000000FFFEFF06410063006300650073007300000000000000FFFEFF052D004F0063006300700002000000FFFEFF1A4F00630063007500700061006E00740020006F007200200065006D
310
0070006C006F0079006500650020006E0061006D0065007300000000000000FFFEFF052D00430061007300650002000000FFFEFF08430061007300650077006F0072006B00000000000000FFFEFF052D00520065007600730002000000FFFEFF095200650076006900730069006F006E007300000000000000FFFEFF052D00
310
420072006300650002000000FFFEFF06420072006100630065007300000000000000FFFEFF052D00480069006400650002000000FFFEFF0E480069006400640065006E0020006F0062006A006500630074007300000000000000FFFEFF052D0043006C006E00670002000000FFFEFF074300650069006C0069006E00670000
310
0000000000FFFEFF052D005500740069006C0002000000FFFEFF095500740069006C0069007400690065007300000000000000FFFEFF052D00500061007400740002000000FFFEFF19540065007800740075007200650020006F00720020006800610074006300680020007000610074007400650072006E00730000000000
310
0000FFFEFF052D00430061007600690002000000FFFEFF06430061007600690074007900000000000000FFFEFF052D0050006C006E00740002000000FFFEFF0650006C0061006E0074007300000000000000FFFEFF052D00530074007200730002000000FFFEFF215300740061006900720020007400720065006100640073
310
002C00200065007300630061006C00610074006F00720073002C0020006C00610064006400650072007300000000000000FFFEFF052D00520065007600630002000000FFFEFF0F5200650076006900730069006F006E00200063006C006F00750064007300000000000000FFFEFF052D004D006F007600650002000000FFFE
310
FF124D006F0076006500610062006C0065002000650071007500690070006D0065006E007400000000000000FFFEFF052D005000650070006C0002000000FFFEFF06500065006F0070006C006500000000000000FFFEFF052D00440065006D006F0002000000FFFEFF0A440065006D006F006C006900740069006F006E0000
310
0000000000FFFEFF052D00430075007200740002000000FFFEFF0C4300750072007400610069006E002000570061006C006C00000000000000FFFEFF052D005700640077006B0002000000FFFEFF164100720063006800690074006500630074007500720061006C00200077006F006F00640077006F0072006B0000000000
310
0000FFFEFF052D004E006F007400650002000000FFFEFF054E006F00740065007300000000000000FFFEFF052D004F0076006800640002000000FFFEFF084F007600650072006800650061006400000000000000FFFEFF052D00530075006200740002000000FFFEFF14530075006200740072006100630074006900760065
310
00200065006C0065006D0065006E0074007300000000000000FFFEFF052D00530044004600460002000000FFFEFF1053007500700070006C0079002000640069006600660075007300650072007300000000000000FFFEFF052D00530074006F00720002000000FFFEFF19530079007300740065006D002000730074006F00
310
7200610067006500200063006F006D0070006F006E0065006E0074007300000000000000FFFEFF052D004900640065006E0002000000FFFEFF134900640065006E00740069006600690063006100740069006F006E0020005400610067007300000000000000FFFEFF052D004800720061006C0002000000FFFEFF16480061
310
006E0064007200610069006C0073002C0020006700750061007200640020007200610069006C007300000000000000FFFEFF052D00570069006400650002000000FFFEFF19570069006400650020007700650069006700680074002000670072006100700068006900630020006C0069006E0065007300000000000000FFFE
310
FF052D004D0061007300730002000000FFFEFF104D0061007300730069006E006700200045006C0065006D0065006E0074007300000000000000FFFEFF052D004C0069006E00650002000000FFFEFF0D44006500660069006E0069006E00670020004C0069006E006500000000000000FFFEFF052D00560069006500770002
310
000000FFFEFF13560069006500770070006F0072007400200044006500660069006E006900740069006F006E00000000000000FFFEFF052D0050006B006E00670002000000FFFEFF075000610072006B0069006E006700000000000000FFFEFF052D00520044004600460002000000FFFEFF14520065007400750072006E00
310
20006100690072002000640069006600660075007300650072007300000000000000FFFEFF052D00530065006100740002000000FFFEFF07530065006100740069006E006700000000000000FFFEFF052D0050006E006C00730002000000FFFEFF0D530079007300740065006D002000700061006E0065006C007300000000
310
000000FFFEFF052D004D0061007400630002000000FFFEFF0B4D00610074006300680020006C0069006E0065007300000000000000FFFEFF052D00410064007400760002000000FFFEFF1141006400640069007400690076006500200065006C0065006D0065006E0074007300000000000000FFFEFF052D00430068006100
310
730002000000FFFEFF0543006800610073006500000000000000FFFEFF052D005300700063006C0002000000FFFEFF0B5300700065006300690061006C007400690065007300000000000000FFFEFF052D00470072006900640002000000FFFEFF044700720069006400000000000000FFFEFF052D004E00690063006E0002
310
000000FFFEFF0F4E006F007400200069006E00200063006F006E0074007200610063007400000000000000FFFEFF052D004D0063007500740002000000FFFEFF164D00610069006E00200063007500740020006C0069006E006500200065006C0065006D0065006E0074007300000000000000FFFEFF052D00460069007200
310
650002000000FFFEFF0A46006900720065002000770061006C006C007300000000000000FFFEFF052D00530069006C006C0002000000FFFEFF0C570069006E0064006F0077002000730069006C006C007300000000000000FFFEFF052D005400700074006E0002000000FFFEFF1154006F0069006C00650074002000700061
310
00720074006900740069006F006E007300000000000000FFFEFF052D00520069007300720002000000FFFEFF0C530074006100690072002000720069007300650072007300000000000000FFFEFF052D004F0074006C006E0002000000FFFEFF074F00750074006C0069006E006500000000000000FFFEFF052D0054007400
310
6C00620002000000FFFEFF1642006F007200640065007200200061006E00640020007400690074006C006500200062006C006F0063006B000000000000000180FFFEFF074D0069006E006F0072002000320005000000004164642062656C6F77207468652073656C6563746564206974656DFFFEFF001600FFFEFF052D0041
310
0062006F00760002000000FFFEFF0E45006C0065006D0065006E00740073002000610062006F0076006500000000000000FFFEFF052D00420064007200790002000000FFFEFF0D4500640067006500200062006F0075006E006400610072007900000000000000FFFEFF052D005400680069006E0002000000FFFEFF0E4D00
310
69006E006F00720020006C0069006E00650077006F0072006B00000000000000FFFEFF052D004E0070006C00740002000000FFFEFF154E006F006E002D0070006C006F007400740069006E006700200065006C0065006D0065006E0074007300000000000000FFFEFF052D005200650066006C0002000000FFFEFF0F520065
310
0066006C0065006300740065006400200050006C0061006E007300000000000000FFFEFF052D00440069006D00730002000000FFFEFF0A440069006D0065006E00730069006F006E007300000000000000FFFEFF052D005300630061006C0002000000FFFEFF10470072006100700068006900630061006C00200053006300
310
61006C0065007300000000000000FFFEFF052D0053006C006300650002000000FFFEFF0653006C006900630065007300000000000000FFFEFF052D0047006C0061007A0002000000FFFEFF0747006C0061007A0069006E006700000000000000FFFEFF052D00460061007300630002000000FFFEFF06460061007300630069
310
006100000000000000FFFEFF052D00470072007000730002000000FFFEFF06470072006F00750070007300000000000000FFFEFF052D005400690074006C0002000000FFFEFF065400690074006C0065007300000000000000FFFEFF052D00530066006900740002000000FFFEFF0653006F00660066006900740000000000
310
0000FFFEFF052D00500061007400740002000000FFFEFF0E4800610074006300680020007000610074007400650072006E007300000000000000FFFEFF052D00480069006400650002000000FFFEFF0F480069006400640065006E00200065006C0065006D0065006E0074007300000000000000FFFEFF052D004E006F0074
310
00650002000000FFFEFF16470065006E006500720061006C0020005400650078007400200061006E00640020004E006F00740065007300000000000000FFFEFF052D0055006E006900740002000000FFFEFF0455006E0069007400000000000000FFFEFF052D004900640065006E0002000000FFFEFF0A4900640065006E00
310
740069006600690065007200000000000000FFFEFF052D004C0069006E00650002000000FFFEFF10470065006E006500720061006C0020006C0069006E00650077006F0072006B00000000000000FFFEFF052D00530069006C006C0002000000FFFEFF05530069006C006C007300000000000000FFFEFF052D005200690073
310
00720002000000FFFEFF06520069007300650072007300000000000000FFFEFF052D004F0074006C006E0002000000FFFEFF074F00750074006C0069006E0065000000000000000180FFFEFF06530074006100740075007300060000000000000000A434770470040000B10000005073770400000000050000FFFEFF000F00
310
FFFEFF022D00310002000000FFFEFF075000680061007300650020003100000000000000FFFEFF022D00320002000000FFFEFF075000680061007300650020003200000000000000FFFEFF022D00540002000000FFFEFF0E540065006D0070006F007200610072007900200077006F0072006B00000000000000FFFEFF022D
310
00330002000000FFFEFF075000680061007300650020003300000000000000FFFEFF022D00440002000000FFFEFF144500780069007300740069006E006700200074006F002000640065006D006F006C00690073006800000000000000FFFEFF022D00340002000000FFFEFF07500068006100730065002000340000000000
310
0000FFFEFF022D00450002000000FFFEFF124500780069007300740069006E006700200074006F002000720065006D00610069006E00000000000000FFFEFF022D00350002000000FFFEFF075000680061007300650020003500000000000000FFFEFF022D00460002000000FFFEFF0B460075007400750072006500200077
310
006F0072006B00000000000000FFFEFF022D00360002000000FFFEFF075000680061007300650020003600000000000000FFFEFF022D00370002000000FFFEFF075000680061007300650020003700000000000000FFFEFF022D00380002000000FFFEFF075000680061007300650020003800000000000000FFFEFF022D00
310
390002000000FFFEFF075000680061007300650020003900000000000000FFFEFF022D004D0002000000FFFEFF114900740065006D007300200074006F0020006200650020006D006F00760065006400000000000000FFFEFF022D004E0002000000FFFEFF084E0065007700200077006F0072006B000000000000000600FF
310
FF04001A004163416563556B4C61796572436F6D706F6E656E744669656C64FFFEFF174400690073006300690070006C0069006E0065002000440065007300690067006E00610074006F0072002000310001000000FFFEFF0440002C0040004000000000000100000000FFFEFF014100000000000780FFFEFF174400690073
310
006300690070006C0069006E0065002000440065007300690067006E00610074006F0072002000320001000000FFFEFF0440002C0040004000010000000100000000FFFEFF014400000000000780FFFEFF054D0061006A006F00720005000000FFFEFF052D00400040004000400000000000010000002DFFFEFF052D005700
310
61006C006C00000000000780FFFEFF064D0069006E006F007200310005000000FFFEFF022D002A0001000000010000002DFFFEFF052D004900640065006E00000000000780FFFEFF064D0069006E006F007200320005000000FFFEFF022D002A0001000000010000002DFFFEFF052D005400650078007400000000000780FF
310
FEFF0653007400610074007500730002000000FFFEFF022D002A0001000000010000002DFFFEFF022D004E0000000000050000010203040500FFFEFF00FFFEFF0320002D002000FFFEFF022C002000FFFEFF012000FFFEFF0320002D002000FFFEFF00
  0
XRECORD
  5
14505
102
{ACAD_REACTORS
330
14504
102
}
330
14504
100
AcDbXrecord
280
     1
102
SHADEPLOT
 70
     0
102
SHADEPLOTRESLEVEL
 70
     2
102
SHADEPLOTCUSTOMDPI
 70
   300
  0
XRECORD
  5
14503
102
{ACAD_REACTORS
330
14502
102
}
330
14502
100
AcDbXrecord
280
     1
102
SHADEPLOT
 70
     1
102
SHADEPLOTRESLEVEL
 70
     2
102
SHADEPLOTCUSTOMDPI
 70
   300
  0
XRECORD
  5
1450A
102
{ACAD_REACTORS
330
14509
102
}
330
14509
100
AcDbXrecord
280
     1
102
MATERIAL
148
0.0
149
0.0
149
0.0
 93
        0
 94
       63
282
     0
 72
     1
 77
     1
171
     1
175
     1
179
     1
273
     0
  0
XRECORD
  5
14508
102
{ACAD_REACTORS
330
14507
102
}
330
14507
100
AcDbXrecord
280
     1
102
MATERIAL
148
0.0
149
0.0
149
0.0
 93
        0
 94
       63
282
     0
 72
     1
 77
     1
171
     1
175
     1
179
     1
273
     0
  0
XRECORD
  5
1450C
102
{ACAD_REACTORS
330
1450B
102
}
330
1450B
100
AcDbXrecord
280
     1
102
MATERIAL
148
0.0
149
0.0
149
0.0
 93
        0
 94
       63
282
     0
 72
     1
 77
     1
171
     1
175
     1
179
     1
273
     0
  0
CELLSTYLEMAP
  5
14500
102
{ACAD_REACTORS
330
13131
102
}
330
13131
100
AcDbCellStyleMap
 90
        3
300
CELLSTYLE
  1
TABLEFORMAT_BEGIN
 90
        5
170
     1
 91
        0
 92
    32768
 62
   257
 93
        1
300
CONTENTFORMAT
  1
CONTENTFORMAT_BEGIN
 90
        0
 91
        0
 92
        4
 93
        0
300

 40
0.0
140
1.0
 94
        5
 62
     0
340
15
144
0.25
309
CONTENTFORMAT_END
171
     0
 94
        6
 95
        1
302
GRIDFORMAT
  1
GRIDFORMAT_BEGIN
 90
        0
 91
        1
 62
     0
 92
       -2
340
0
 93
        0
 40
0.045
309
GRIDFORMAT_END
 95
        2
302
GRIDFORMAT
  1
GRIDFORMAT_BEGIN
 90
        0
 91
        1
 62
     0
 92
       -2
340
0
 93
        0
 40
0.045
309
GRIDFORMAT_END
 95
        4
302
GRIDFORMAT
  1
GRIDFORMAT_BEGIN
 90
        0
 91
        1
 62
     0
 92
       -2
340
0
 93
        0
 40
0.045
309
GRIDFORMAT_END
 95
        8
302
GRIDFORMAT
  1
GRIDFORMAT_BEGIN
 90
        0
 91
        1
 62
     0
 92
       -2
340
0
 93
        0
 40
0.045
309
GRIDFORMAT_END
 95
       16
302
GRIDFORMAT
  1
GRIDFORMAT_BEGIN
 90
        0
 91
        1
 62
     0
 92
       -2
340
0
 93
        0
 40
0.045
309
GRIDFORMAT_END
 95
       32
302
GRIDFORMAT
  1
GRIDFORMAT_BEGIN
 90
        0
 91
        1
 62
     0
 92
       -2
340
0
 93
        0
 40
0.045
309
GRIDFORMAT_END
309
TABLEFORMAT_END
  1
CELLSTYLE_BEGIN
 90
        1
 91
        1
300
_TITLE
309
CELLSTYLE_END
300
CELLSTYLE
  1
TABLEFORMAT_BEGIN
 90
        5
170
     1
 91
        0
 92
        0
 62
   257
 93
        1
300
CONTENTFORMAT
  1
CONTENTFORMAT_BEGIN
 90
        0
 91
        0
 92
        4
 93
        0
300

 40
0.0
140
1.0
 94
        5
 62
     0
340
15
144
0.18
309
CONTENTFORMAT_END
171
     0
 94
        6
 95
        1
302
GRIDFORMAT
  1
GRIDFORMAT_BEGIN
 90
        0
 91
        1
 62
     0
 92
       -2
340
0
 93
        0
 40
0.045
309
GRIDFORMAT_END
 95
        2
302
GRIDFORMAT
  1
GRIDFORMAT_BEGIN
 90
        0
 91
        1
 62
     0
 92
       -2
340
0
 93
        0
 40
0.045
309
GRIDFORMAT_END
 95
        4
302
GRIDFORMAT
  1
GRIDFORMAT_BEGIN
 90
        0
 91
        1
 62
     0
 92
       -2
340
0
 93
        0
 40
0.045
309
GRIDFORMAT_END
 95
        8
302
GRIDFORMAT
  1
GRIDFORMAT_BEGIN
 90
        0
 91
        1
 62
     0
 92
       -2
340
0
 93
        0
 40
0.045
309
GRIDFORMAT_END
 95
       16
302
GRIDFORMAT
  1
GRIDFORMAT_BEGIN
 90
        0
 91
        1
 62
     0
 92
       -2
340
0
 93
        0
 40
0.045
309
GRIDFORMAT_END
 95
       32
302
GRIDFORMAT
  1
GRIDFORMAT_BEGIN
 90
        0
 91
        1
 62
     0
 92
       -2
340
0
 93
        0
 40
0.045
309
GRIDFORMAT_END
309
TABLEFORMAT_END
  1
CELLSTYLE_BEGIN
 90
        2
 91
        1
300
_HEADER
309
CELLSTYLE_END
300
CELLSTYLE
  1
TABLEFORMAT_BEGIN
 90
        5
170
     1
 91
        0
 92
        0
 62
   257
 93
        1
300
CONTENTFORMAT
  1
CONTENTFORMAT_BEGIN
 90
        0
 91
        0
 92
        4
 93
        0
300

 40
0.0
140
1.0
 94
        2
 62
     0
340
15
144
0.18
309
CONTENTFORMAT_END
171
     0
 94
        6
 95
        1
302
GRIDFORMAT
  1
GRIDFORMAT_BEGIN
 90
        0
 91
        1
 62
     0
 92
       -2
340
0
 93
        0
 40
0.045
309
GRIDFORMAT_END
 95
        2
302
GRIDFORMAT
  1
GRIDFORMAT_BEGIN
 90
        0
 91
        1
 62
     0
 92
       -2
340
0
 93
        0
 40
0.045
309
GRIDFORMAT_END
 95
        4
302
GRIDFORMAT
  1
GRIDFORMAT_BEGIN
 90
        0
 91
        1
 62
     0
 92
       -2
340
0
 93
        0
 40
0.045
309
GRIDFORMAT_END
 95
        8
302
GRIDFORMAT
  1
GRIDFORMAT_BEGIN
 90
        0
 91
        1
 62
     0
 92
       -2
340
0
 93
        0
 40
0.045
309
GRIDFORMAT_END
 95
       16
302
GRIDFORMAT
  1
GRIDFORMAT_BEGIN
 90
        0
 91
        1
 62
     0
 92
       -2
340
0
 93
        0
 40
0.045
309
GRIDFORMAT_END
 95
       32
302
GRIDFORMAT
  1
GRIDFORMAT_BEGIN
 90
        0
 91
        1
 62
     0
 92
       -2
340
0
 93
        0
 40
0.045
309
GRIDFORMAT_END
309
TABLEFORMAT_END
  1
CELLSTYLE_BEGIN
 90
        3
 91
        2
300
_DATA
309
CELLSTYLE_END
  0
XRECORD
  5
14506
102
{ACAD_REACTORS
330
13131
102
}
330
13131
100
AcDbXrecord
280
     1
102
ACAD_ROUNDTRIP_PRE2007_TABLESTYLE
 90
        4
 91
        0
  1

 92
        4
 93
        0
  2

 94
        4
 95
        0
  3

  0
ENDSEC
  0
EOF
