  0
SECTION
  2
HEADER
  9
$ACADVER
  1
AC1015
  9
$ACADMAINTVER
 70
    18
  9
$DWGCODEPAGE
  3
ANSI_1250
  9
$INSBASE
 10
215187.233673673
 20
127657.5168525552
 30
0.0
  9
$EXTMIN
 10
1.000000000000000E+20
 20
1.000000000000000E+20
 30
1.000000000000000E+20
  9
$EXTMAX
 10
0.0
 20
0.0
 30
0.0
  9
$LIMMIN
 10
0.0
 20
0.0
  9
$LIMMAX
 10
420.0
 20
297.0
  9
$ORTHOMODE
 70
     1
  9
$REGENMODE
 70
     1
  9
$FILLMODE
 70
     1
  9
$QTEXTMODE
 70
     0
  9
$MIRRTEXT
 70
     0
  9
$LTSCALE
 40
75.0
  9
$ATTMODE
 70
     1
  9
$TEXTSIZE
 40
20.0
  9
$TRACEWID
 40
1.0
  9
$TEXTSTYLE
  7
ROMANS
  9
$CLAYER
  8
0Wymiary-PL
  9
$CELTYPE
  6
ByLayer
  9
$CECOLOR
 62
   256
  9
$CELTSCALE
 40
1.0
  9
$DISPSILH
 70
     0
  9
$DIMSCALE
 40
10.0
  9
$DIMASZ
 40
1.0
  9
$DIMEXO
 40
43.0
  9
$DIMDLI
 40
24.0
  9
$DIMRND
 40
0.5
  9
$DIMDLE
 40
12.0
  9
$DIMEXE
 40
13.0
  9
$DIMTP
 40
0.0
  9
$DIMTM
 40
0.0
  9
$DIMTXT
 40
30.0
  9
$DIMCEN
 40
0.0
  9
$DIMTSZ
 40
0.0
  9
$DIMTOL
 70
     0
  9
$DIMLIM
 70
     0
  9
$DIMTIH
 70
     0
  9
$DIMTOH
 70
     0
  9
$DIMSE1
 70
     1
  9
$DIMSE2
 70
     1
  9
$DIMTAD
 70
     1
  9
$DIMZIN
 70
     8
  9
$DIMBLK
  1
B-DIM_W
  9
$DIMASO
 70
     1
  9
$DIMSHO
 70
     1
  9
$DIMPOST
  1

  9
$DIMAPOST
  1

  9
$DIMALT
 70
     0
  9
$DIMALTD
 70
     2
  9
$DIMALTF
 40
25.4
  9
$DIMLFAC
 40
1.0
  9
$DIMTOFL
 70
     1
  9
$DIMTVP
 40
1.0
  9
$DIMTIX
 70
     1
  9
$DIMSOXD
 70
     0
  9
$DIMSAH
 70
     0
  9
$DIMBLK1
  1

  9
$DIMBLK2
  1

  9
$DIMSTYLE
  2
100-PRw
  9
$DIMCLRD
 70
     1
  9
$DIMCLRE
 70
     1
  9
$DIMCLRT
 70
   140
  9
$DIMTFAC
 40
1.0
  9
$DIMGAP
 40
8.0
  9
$DIMJUST
 70
     0
  9
$DIMSD1
 70
     0
  9
$DIMSD2
 70
     0
  9
$DIMTOLJ
 70
     1
  9
$DIMTZIN
 70
     0
  9
$DIMALTZ
 70
     0
  9
$DIMALTTZ
 70
     0
  9
$DIMUPT
 70
     0
  9
$DIMDEC
 70
     1
  9
$DIMTDEC
 70
     1
  9
$DIMALTU
 70
     2
  9
$DIMALTTD
 70
     2
  9
$DIMTXSTY
  7
ROMANS
  9
$DIMAUNIT
 70
     0
  9
$DIMADEC
 70
     0
  9
$DIMALTRND
 40
0.0
  9
$DIMAZIN
 70
     0
  9
$DIMDSEP
 70
    46
  9
$DIMATFIT
 70
     3
  9
$DIMFRAC
 70
     0
  9
$DIMLDRBLK
  1
Dot
  9
$DIMLUNIT
 70
     2
  9
$DIMLWD
 70
     5
  9
$DIMLWE
 70
    -2
  9
$DIMTMOVE
 70
     2
  9
$LUNITS
 70
     2
  9
$LUPREC
 70
     1
  9
$SKETCHINC
 40
1.0
  9
$FILLETRAD
 40
0.0
  9
$AUNITS
 70
     0
  9
$AUPREC
 70
     0
  9
$MENU
  1
.
  9
$ELEVATION
 40
0.0
  9
$PELEVATION
 40
0.0
  9
$THICKNESS
 40
0.0
  9
$LIMCHECK
 70
     0
  9
$CHAMFERA
 40
0.0
  9
$CHAMFERB
 40
0.0
  9
$CHAMFERC
 40
20.0
  9
$CHAMFERD
 40
0.0
  9
$SKPOLY
 70
     0
  9
$TDCREATE
 40
2452027.670547454
  9
$TDUCREATE
 40
2452027.587214121
  9
$TDUPDATE
 40
2455077.381006574
  9
$TDUUPDATE
 40
2455077.297673241
  9
$TDINDWG
 40
9.0703209606
  9
$TDUSRTIMER
 40
9.0703209606
  9
$USRTIMER
 70
     1
  9
$ANGBASE
 50
0.0
  9
$ANGDIR
 70
     0
  9
$PDMODE
 70
     0
  9
$PDSIZE
 40
0.0
  9
$PLINEWID
 40
0.0
  9
$SPLFRAME
 70
     0
  9
$SPLINETYPE
 70
     6
  9
$SPLINESEGS
 70
     8
  9
$HANDSEED
  5
3AE
  9
$SURFTAB1
 70
     6
  9
$SURFTAB2
 70
     6
  9
$SURFTYPE
 70
     6
  9
$SURFU
 70
     6
  9
$SURFV
 70
     6
  9
$UCSBASE
  2

  9
$UCSNAME
  2

  9
$UCSORG
 10
0.0
 20
0.0
 30
0.0
  9
$UCSXDIR
 10
1.0
 20
0.0
 30
0.0
  9
$UCSYDIR
 10
0.0
 20
1.0
 30
0.0
  9
$UCSORTHOREF
  2

  9
$UCSORTHOVIEW
 70
     0
  9
$UCSORGTOP
 10
0.0
 20
0.0
 30
0.0
  9
$UCSORGBOTTOM
 10
0.0
 20
0.0
 30
0.0
  9
$UCSORGLEFT
 10
0.0
 20
0.0
 30
0.0
  9
$UCSORGRIGHT
 10
0.0
 20
0.0
 30
0.0
  9
$UCSORGFRONT
 10
0.0
 20
0.0
 30
0.0
  9
$UCSORGBACK
 10
0.0
 20
0.0
 30
0.0
  9
$PUCSBASE
  2

  9
$PUCSNAME
  2

  9
$PUCSORG
 10
0.0
 20
0.0
 30
0.0
  9
$PUCSXDIR
 10
1.0
 20
0.0
 30
0.0
  9
$PUCSYDIR
 10
0.0
 20
1.0
 30
0.0
  9
$PUCSORTHOREF
  2

  9
$PUCSORTHOVIEW
 70
     0
  9
$PUCSORGTOP
 10
0.0
 20
0.0
 30
0.0
  9
$PUCSORGBOTTOM
 10
0.0
 20
0.0
 30
0.0
  9
$PUCSORGLEFT
 10
0.0
 20
0.0
 30
0.0
  9
$PUCSORGRIGHT
 10
0.0
 20
0.0
 30
0.0
  9
$PUCSORGFRONT
 10
0.0
 20
0.0
 30
0.0
  9
$PUCSORGBACK
 10
0.0
 20
0.0
 30
0.0
  9
$USERI1
 70
     0
  9
$USERI2
 70
     0
  9
$USERI3
 70
     0
  9
$USERI4
 70
     0
  9
$USERI5
 70
     0
  9
$USERR1
 40
0.0
  9
$USERR2
 40
0.0
  9
$USERR3
 40
0.0
  9
$USERR4
 40
0.0
  9
$USERR5
 40
0.0
  9
$WORLDVIEW
 70
     1
  9
$SHADEDGE
 70
     3
  9
$SHADEDIF
 70
    70
  9
$TILEMODE
 70
     1
  9
$MAXACTVP
 70
    64
  9
$PINSBASE
 10
0.0
 20
0.0
 30
0.0
  9
$PLIMCHECK
 70
     0
  9
$PEXTMIN
 10
1.049999952316284
 20
0.7999999523162842
 30
0.0
  9
$PEXTMAX
 10
9.449999570846559
 20
7.199999570846558
 30
0.0
  9
$PLIMMIN
 10
-0.2500002402958907
 20
-0.2499999962453767
  9
$PLIMMAX
 10
10.74999951940822
 20
8.249999763458733
  9
$UNITMODE
 70
     0
  9
$VISRETAIN
 70
     1
  9
$PLINEGEN
 70
     0
  9
$PSLTSCALE
 70
     1
  9
$TREEDEPTH
 70
  3020
  9
$CMLSTYLE
  2
Standard
  9
$CMLJUST
 70
     0
  9
$CMLSCALE
 40
20.0
  9
$PROXYGRAPHICS
 70
     1
  9
$MEASUREMENT
 70
     0
  9
$CELWEIGHT
370
    -1
  9
$ENDCAPS
280
     0
  9
$JOINSTYLE
280
     0
  9
$LWDISPLAY
290
     0
  9
$INSUNITS
 70
     5
  9
$HYPERLINKBASE
  1

  9
$STYLESHEET
  1

  9
$XEDIT
290
     1
  9
$CEPSNTYPE
380
     0
  9
$PSTYLEMODE
290
     1
  9
$FINGERPRINTGUID
  2
{A4667840-219B-450B-8939-82028C47FAB0}
  9
$VERSIONGUID
  2
{EC0C7C2D-FEB3-4542-8DB7-3DA3F2EA978F}
  9
$EXTNAMES
290
     1
  9
$PSVPSCALE
 40
0.0
  9
$OLESTARTUP
290
     0
  0
ENDSEC
  0
SECTION
  2
CLASSES
  0
CLASS
  1
ACDBDICTIONARYWDFLT
  2
AcDbDictionaryWithDefault
  3
ObjectDBX Classes
 90
        0
280
     0
281
     0
  0
CLASS
  1
ACDBPLACEHOLDER
  2
AcDbPlaceHolder
  3
ObjectDBX Classes
 90
        0
280
     0
281
     0
  0
CLASS
  1
LAYOUT
  2
AcDbLayout
  3
ObjectDBX Classes
 90
        0
280
     0
281
     0
  0
CLASS
  1
DICTIONARYVAR
  2
AcDbDictionaryVar
  3
ObjectDBX Classes
 90
        0
280
     0
281
     0
  0
CLASS
  1
SORTENTSTABLE
  2
AcDbSortentsTable
  3
ObjectDBX Classes
 90
        0
280
     0
281
     0
  0
CLASS
  1
AEC_VARS_DWG_SETUP
  2
AecDbVarsDwgSetup
  3
AecBase50|Product Desc: Autodesk Architectural Desktop 2007 |Company: Autodesk,Inc. |WEB Address: www.autodesk.com
 90
    32897
280
     0
281
     0
  0
CLASS
  1
AEC_DISP_REP_CONFIG
  2
AecDbDispRepConfig
  3
AecBase50|Product Desc: Autodesk Architectural Desktop 2007 |Company: Autodesk,Inc. |WEB Address: www.autodesk.com
 90
    32897
280
     0
281
     0
  0
CLASS
  1
AEC_DISP_REP_SET
  2
AecDbDispRepSet
  3
AecBase50|Product Desc: Autodesk Architectural Desktop 2007 |Company: Autodesk,Inc. |WEB Address: www.autodesk.com
 90
    32897
280
     0
281
     0
  0
CLASS
  1
AEC_DISP_REP_2D_SECTION
  2
AecDbDispRep2dSection
  3
AecBase50|Product Desc: Autodesk Architectural Desktop 2007 |Company: Autodesk,Inc. |WEB Address: www.autodesk.com
 90
    32897
280
     0
281
     0
  0
CLASS
  1
AEC_DISP_REP_ANCHOR_BUB_TO_GRID
  2
AecDbDispRepAnchorBubToGrid
  3
AecStructureBase50|Product Desc: Autodesk Architectural Desktop 2007 |Company: Autodesk,Inc. |WEB Address: www.autodesk.com
 90
    32897
280
     0
281
     0
  0
CLASS
  1
AEC_DISP_REP_ANCHOR_BUB_TO_GRID_MODEL
  2
AecDbDispRepAnchorBubToGridMdl
  3
AecStructureBase50|Product Desc: Autodesk Architectural Desktop 2007 |Company: Autodesk,Inc. |WEB Address: www.autodesk.com
 90
    32897
280
     0
281
     0
  0
CLASS
  1
AEC_DISP_REP_ANCHOR_ENT_TO_NODE
  2
AecDbDispRepAnchorEntToNode
  3
AecBaseEx50|Product Desc: Autodesk Architectural Desktop 2007 |Company: Autodesk,Inc. |WEB Address: www.autodesk.com
 90
    32897
280
     0
281
     0
  0
CLASS
  1
AEC_DISP_REP_ANCHOR_TAG_TO_ENT
  2
AecDbDispRepAnchorTagToEnt
  3
AecScheduleData50|Product Desc: Autodesk Architectural Desktop 2007 |Company: Autodesk,Inc. |WEB Address: www.autodesk.com
 90
    32897
280
     0
281
     0
  0
CLASS
  1
AEC_DISP_REP_AREA
  2
AecDbDispRepArea
  3
AecAreaCalculationBase50|Product Desc: Autodesk Architectural Desktop 2007 |Company: Autodesk,Inc. |WEB Address: www.autodesk.com
 90
    32897
280
     0
281
     0
  0
CLASS
  1
AEC_DISP_REP_AREA_DECOMPOSED
  2
AecDbDispRepAreaDecomposed
  3
AecAreaCalculationBase50|Product Desc: Autodesk Architectural Desktop 2007 |Company: Autodesk,Inc. |WEB Address: www.autodesk.com
 90
    32897
280
     0
281
     0
  0
CLASS
  1
AEC_DISP_REP_AREAGROUP
  2
AecDbDispRepAreaGroup
  3
AecAreaCalculationBase50|Product Desc: Autodesk Architectural Desktop 2007 |Company: Autodesk,Inc. |WEB Address: www.autodesk.com
 90
    32897
280
     0
281
     0
  0
CLASS
  1
AEC_DISP_REP_BDG_ELEVLINE_MODEL
  2
AecDbDispRepBdgElevLineModel
  3
AecArchBase50|Product Desc: Autodesk Architectural Desktop 2007 |Company: Autodesk,Inc. |WEB Address: www.autodesk.com
 90
    32897
280
     0
281
     0
  0
CLASS
  1
AEC_DISP_REP_BDG_SECTIONLINE_PLAN
  2
AecDbDispRepBdgElevLinePlan
  3
AecArchBase50|Product Desc: Autodesk Architectural Desktop 2007 |Company: Autodesk,Inc. |WEB Address: www.autodesk.com
 90
    32897
280
     0
281
     0
  0
CLASS
  1
AEC_DISP_REP_BDG_SECTIONLINE_MODEL
  2
AecDbDispRepBdgSectionLineModel
  3
AecArchBase50|Product Desc: Autodesk Architectural Desktop 2007 |Company: Autodesk,Inc. |WEB Address: www.autodesk.com
 90
    32897
280
     0
281
     0
  0
CLASS
  1
AEC_DISP_REP_BDG_SECTIONLINE_PLAN
  2
AecDbDispRepBdgSectionLinePlan
  3
AecArchBase50|Product Desc: Autodesk Architectural Desktop 2007 |Company: Autodesk,Inc. |WEB Address: www.autodesk.com
 90
    32897
280
     0
281
     0
  0
CLASS
  1
AEC_DISP_REP_BDG_SECTION_SUBDIV
  2
AecDbDispRepBdgSectionSubDiv
  3
AecArchBase50|Product Desc: Autodesk Architectural Desktop 2007 |Company: Autodesk,Inc. |WEB Address: www.autodesk.com
 90
    32897
280
     0
281
     0
  0
CLASS
  1
AEC_DISP_REP_CAMERA
  2
AecDbDispRepCamera
  3
AecBase50|Product Desc: Autodesk Architectural Desktop 2007 |Company: Autodesk,Inc. |WEB Address: www.autodesk.com
 90
    32897
280
     0
281
     0
  0
CLASS
  1
AEC_DISP_REP_CEILING_GRID
  2
AecDbDispRepCeilingGrid
  3
AecArchBase50|Product Desc: Autodesk Architectural Desktop 2007 |Company: Autodesk,Inc. |WEB Address: www.autodesk.com
 90
    33661
280
     0
281
     0
  0
CLASS
  1
AEC_DISP_REP_CEILING_GRID_MODEL
  2
AecDbDispRepCeilingGridModel
  3
AecArchBase50|Product Desc: Autodesk Architectural Desktop 2007 |Company: Autodesk,Inc. |WEB Address: www.autodesk.com
 90
    32897
280
     0
281
     0
  0
CLASS
  1
AEC_DISP_REP_CEILING_GRID_RCP
  2
AecDbDispRepCeilingGridRcp
  3
AecArchBase50|Product Desc: Autodesk Architectural Desktop 2007 |Company: Autodesk,Inc. |WEB Address: www.autodesk.com
 90
    32897
280
     0
281
     0
  0
CLASS
  1
AEC_DISP_REP_CLIP_VOLUME_MODEL
  2
AecDbDispRepClipVolModel
  3
AecBase50|Product Desc: Autodesk Architectural Desktop 2007 |Company: Autodesk,Inc. |WEB Address: www.autodesk.com
 90
    32897
280
     0
281
     0
  0
CLASS
  1
AEC_DISP_REP_CLIP_VOLUME_PLAN
  2
AecDbDispRepClipVolPlan
  3
AecBase50|Product Desc: Autodesk Architectural Desktop 2007 |Company: Autodesk,Inc. |WEB Address: www.autodesk.com
 90
    32897
280
     0
281
     0
  0
CLASS
  1
AEC_DISP_REP_CLIP_VOLUME_RESULT_SUBDIV
  2
AecDbDispRepClipVolResSubDiv
  3
AecBase50|Product Desc: Autodesk Architectural Desktop 2007 |Company: Autodesk,Inc. |WEB Address: www.autodesk.com
 90
    32897
280
     0
281
     0
  0
CLASS
  1
AEC_DISP_REP_CLIP_VOLUME_RESULT
  2
AecDbDispRepClipVolResult
  3
AecBase50|Product Desc: Autodesk Architectural Desktop 2007 |Company: Autodesk,Inc. |WEB Address: www.autodesk.com
 90
    32897
280
     0
281
     0
  0
CLASS
  1
AEC_DISP_REP_COLUMN_GRID
  2
AecDbDispRepColumnGrid
  3
AecStructureBase50|Product Desc: Autodesk Architectural Desktop 2007 |Company: Autodesk,Inc. |WEB Address: www.autodesk.com
 90
    32897
280
     0
281
     0
  0
CLASS
  1
AEC_DISP_REP_COLUMN_GRID_MODEL
  2
AecDbDispRepColumnGridModel
  3
AecStructureBase50|Product Desc: Autodesk Architectural Desktop 2007 |Company: Autodesk,Inc. |WEB Address: www.autodesk.com
 90
    32897
280
     0
281
     0
  0
CLASS
  1
AEC_DISP_REP_CURTAIN_WALL_LAYOUT_MODEL
  2
AecDbDispRepCurtainWallLayoutModel
  3
AecArchBase50|Product Desc: Autodesk Architectural Desktop 2007 |Company: Autodesk,Inc. |WEB Address: www.autodesk.com
 90
    32897
280
     0
281
     0
  0
CLASS
  1
AEC_DISP_REP_CURTAIN_WALL_LAYOUT_PLAN
  2
AecDbDispRepCurtainWallLayoutPlan
  3
AecArchBase50|Product Desc: Autodesk Architectural Desktop 2007 |Company: Autodesk,Inc. |WEB Address: www.autodesk.com
 90
    32897
280
     0
281
     0
  0
CLASS
  1
AEC_DISP_REP_CURTAIN_WALL_UNIT_MODEL
  2
AecDbDispRepCurtainWallUnitModel
  3
AecArchBase50|Product Desc: Autodesk Architectural Desktop 2007 |Company: Autodesk,Inc. |WEB Address: www.autodesk.com
 90
    32897
280
     0
281
     0
  0
CLASS
  1
AEC_DISP_REP_CURTAIN_WALL_UNIT_PLAN
  2
AecDbDispRepCurtainWallUnitPlan
  3
AecArchBase50|Product Desc: Autodesk Architectural Desktop 2007 |Company: Autodesk,Inc. |WEB Address: www.autodesk.com
 90
    32897
280
     0
281
     0
  0
CLASS
  1
AEC_DB_DISP_REP_DIM_GROUP_PLAN
  2
AecDbDispRepDimGroupPlan
  3
AecArchDACHBase50|Product Desc: Autodesk Architectural Desktop 2007 |Company: Autodesk,Inc. |WEB Address: www.autodesk.com
 90
    32897
280
     0
281
     0
  0
CLASS
  1
AEC_DISP_REP_DOOR_MODEL
  2
AecDbDispRepDoorModel
  3
AecArchBase50|Product Desc: Autodesk Architectural Desktop 2007 |Company: Autodesk,Inc. |WEB Address: www.autodesk.com
 90
    32897
280
     0
281
     0
  0
CLASS
  1
AEC_DISP_REP_DOOR_NOMINAL
  2
AecDbDispRepDoorNominal
  3
AecArchBase50|Product Desc: Autodesk Architectural Desktop 2007 |Company: Autodesk,Inc. |WEB Address: www.autodesk.com
 90
    32897
280
     0
281
     0
  0
CLASS
  1
AEC_DISP_REP_DOOR_PLAN
  2
AecDbDispRepDoorPlan
  3
AecArchBase50|Product Desc: Autodesk Architectural Desktop 2007 |Company: Autodesk,Inc. |WEB Address: www.autodesk.com
 90
    32897
280
     0
281
     0
  0
CLASS
  1
AEC_DISP_REP_EDITINPLACEPROFILE
  2
AecDbDispRepEditInPlaceProfile
  3
AecBase50|Product Desc: Autodesk Architectural Desktop 2007 |Company: Autodesk,Inc. |WEB Address: www.autodesk.com
 90
    32897
280
     0
281
     0
  0
CLASS
  1
AEC_DISP_REP_ENT_REF
  2
AecDbDispRepEntRef
  3
AecBase50|Product Desc: Autodesk Architectural Desktop 2007 |Company: Autodesk,Inc. |WEB Address: www.autodesk.com
 90
    32897
280
     0
281
     0
  0
CLASS
  1
AEC_DISP_REP_LAYOUT_CURVE
  2
AecDbDispRepLayoutCurve
  3
AecBase50|Product Desc: Autodesk Architectural Desktop 2007 |Company: Autodesk,Inc. |WEB Address: www.autodesk.com
 90
    32897
280
     0
281
     0
  0
CLASS
  1
AEC_DISP_REP_LAYOUT_GRID2D
  2
AecDbDispRepLayoutGrid2d
  3
AecBase50|Product Desc: Autodesk Architectural Desktop 2007 |Company: Autodesk,Inc. |WEB Address: www.autodesk.com
 90
    32897
280
     0
281
     0
  0
CLASS
  1
AEC_DISP_REP_LAYOUT_GRID3D
  2
AecDbDispRepLayoutGrid3d
  3
AecBase50|Product Desc: Autodesk Architectural Desktop 2007 |Company: Autodesk,Inc. |WEB Address: www.autodesk.com
 90
    32897
280
     0
281
     0
  0
CLASS
  1
AEC_DISP_REP_MASKBLOCK_REF
  2
AecDbDispRepMaskBlockRef
  3
AecBase50|Product Desc: Autodesk Architectural Desktop 2007 |Company: Autodesk,Inc. |WEB Address: www.autodesk.com
 90
    32897
280
     0
281
     0
  0
CLASS
  1
AEC_DISP_REP_MASKBLOCK_REF_RCP
  2
AecDbDispRepMaskBlockRefRcp
  3
AecArchBase50|Product Desc: Autodesk Architectural Desktop 2007 |Company: Autodesk,Inc. |WEB Address: www.autodesk.com
 90
    32897
280
     0
281
     0
  0
CLASS
  1
AEC_DISP_REP_MASS_ELEM_MODEL
  2
AecDbDispRepMassElemModel
  3
AecBaseEx50|Product Desc: Autodesk Architectural Desktop 2007 |Company: Autodesk,Inc. |WEB Address: www.autodesk.com
 90
    32897
280
     0
281
     0
  0
CLASS
  1
AEC_DISP_REP_MASS_ELEM_SCHEM
  2
AecDbDispRepMassElemSchem
  3
AecBaseEx50|Product Desc: Autodesk Architectural Desktop 2007 |Company: Autodesk,Inc. |WEB Address: www.autodesk.com
 90
    32897
280
     0
281
     0
  0
CLASS
  1
AEC_DISP_REP_MASS_GROUP_MODEL
  2
AecDbDispRepMassGroupModel
  3
AecBaseEx50|Product Desc: Autodesk Architectural Desktop 2007 |Company: Autodesk,Inc. |WEB Address: www.autodesk.com
 90
    32897
280
     0
281
     0
  0
CLASS
  1
AEC_DISP_REP_MASS_GROUP_PLAN
  2
AecDbDispRepMassGroupPlan
  3
AecBaseEx50|Product Desc: Autodesk Architectural Desktop 2007 |Company: Autodesk,Inc. |WEB Address: www.autodesk.com
 90
    32897
280
     0
281
     0
  0
CLASS
  1
AEC_DISP_REP_MATERIAL
  2
AecDbDispRepMaterial
  3
AecBase50|Product Desc: Autodesk Architectural Desktop 2007 |Company: Autodesk,Inc. |WEB Address: www.autodesk.com
 90
    32897
280
     0
281
     0
  0
CLASS
  1
AEC_DISP_REP_MVBLOCK_REF
  2
AecDbDispRepMvBlockRef
  3
AecBase50|Product Desc: Autodesk Architectural Desktop 2007 |Company: Autodesk,Inc. |WEB Address: www.autodesk.com
 90
    32897
280
     0
281
     0
  0
CLASS
  1
AEC_DISP_REP_MVBLOCK_REF_MODEL
  2
AecDbDispRepMvBlockRefModel
  3
AecBase50|Product Desc: Autodesk Architectural Desktop 2007 |Company: Autodesk,Inc. |WEB Address: www.autodesk.com
 90
    32897
280
     0
281
     0
  0
CLASS
  1
AEC_DISP_REP_OPENING
  2
AecDbDispRepOpening
  3
AecArchBase50|Product Desc: Autodesk Architectural Desktop 2007 |Company: Autodesk,Inc. |WEB Address: www.autodesk.com
 90
    32897
280
     0
281
     0
  0
CLASS
  1
AEC_DISP_REP_OPENING_MODEL
  2
AecDbDispRepOpeningModel
  3
AecArchBase50|Product Desc: Autodesk Architectural Desktop 2007 |Company: Autodesk,Inc. |WEB Address: www.autodesk.com
 90
    32897
280
     0
281
     0
  0
CLASS
  1
AEC_DISP_REP_POLYGON_MODEL
  2
AecDbDispRepPolygonModel
  3
AecBaseEx50|Product Desc: Autodesk Architectural Desktop 2007 |Company: Autodesk,Inc. |WEB Address: www.autodesk.com
 90
    32897
280
     0
281
     0
  0
CLASS
  1
AEC_DISP_REP_RAILING_MODEL
  2
AecDbDispRepRailingModel
  3
AecArchBase50|Product Desc: Autodesk Architectural Desktop 2007 |Company: Autodesk,Inc. |WEB Address: www.autodesk.com
 90
    32897
280
     0
281
     0
  0
CLASS
  1
AEC_DISP_REP_RAILING_PLAN
  2
AecDbDispRepRailingPlan
  3
AecArchBase50|Product Desc: Autodesk Architectural Desktop 2007 |Company: Autodesk,Inc. |WEB Address: www.autodesk.com
 90
    32897
280
     0
281
     0
  0
CLASS
  1
AEC_DISP_REP_ROOF_MODEL
  2
AecDbDispRepRoofModel
  3
AecArchBase50|Product Desc: Autodesk Architectural Desktop 2007 |Company: Autodesk,Inc. |WEB Address: www.autodesk.com
 90
    32897
280
     0
281
     0
  0
CLASS
  1
AEC_DISP_REP_ROOF_PLAN
  2
AecDbDispRepRoofPlan
  3
AecArchBase50|Product Desc: Autodesk Architectural Desktop 2007 |Company: Autodesk,Inc. |WEB Address: www.autodesk.com
 90
    32897
280
     0
281
     0
  0
CLASS
  1
AEC_DISP_REP_ROOFSLAB_MODEL
  2
AecDbDispRepRoofSlabModel
  3
AecArchBase50|Product Desc: Autodesk Architectural Desktop 2007 |Company: Autodesk,Inc. |WEB Address: www.autodesk.com
 90
    32897
280
     0
281
     0
  0
CLASS
  1
AEC_DISP_REP_ROOFSLAB_PLAN
  2
AecDbDispRepRoofSlabPlan
  3
AecArchBase50|Product Desc: Autodesk Architectural Desktop 2007 |Company: Autodesk,Inc. |WEB Address: www.autodesk.com
 90
    32897
280
     0
281
     0
  0
CLASS
  1
AEC_DISP_REP_SCHEDULE_TABLE
  2
AecDbDispRepScheduleTable
  3
AecSchedule50|Product Desc: Autodesk Architectural Desktop 2007 |Company: Autodesk,Inc. |WEB Address: www.autodesk.com
 90
    32897
280
     0
281
     0
  0
CLASS
  1
AEC_DISP_REP_SLAB_MODEL
  2
AecDbDispRepSlabModel
  3
AecArchBase50|Product Desc: Autodesk Architectural Desktop 2007 |Company: Autodesk,Inc. |WEB Address: www.autodesk.com
 90
    32897
280
     0
281
     0
  0
CLASS
  1
AEC_DISP_REP_SLAB_PLAN
  2
AecDbDispRepSlabPlan
  3
AecArchBase50|Product Desc: Autodesk Architectural Desktop 2007 |Company: Autodesk,Inc. |WEB Address: www.autodesk.com
 90
    32897
280
     0
281
     0
  0
CLASS
  1
AEC_DISP_REP_SLICE
  2
AecDbDispRepSlice
  3
AecBase50|Product Desc: Autodesk Architectural Desktop 2007 |Company: Autodesk,Inc. |WEB Address: www.autodesk.com
 90
    32897
280
     0
281
     0
  0
CLASS
  1
AEC_DISP_REP_SPACE_BOUNDARY_MODEL
  2
AecDbDispRepSpaceBoundaryModel
  3
AecArchBase50|Product Desc: Autodesk Architectural Desktop 2007 |Company: Autodesk,Inc. |WEB Address: www.autodesk.com
 90
    32897
280
     0
281
     0
  0
CLASS
  1
AEC_DISP_REP_SPACE_BOUNDARY_PLAN
  2
AecDbDispRepSpaceBoundaryPlan
  3
AecArchBase50|Product Desc: Autodesk Architectural Desktop 2007 |Company: Autodesk,Inc. |WEB Address: www.autodesk.com
 90
    32897
280
     0
281
     0
  0
CLASS
  1
AEC_DISP_REP_SPACE_BOUNDARY_SCHEM
  2
AecDbDispRepSpaceBoundarySketch
  3
AecArchBase50|Product Desc: Autodesk Architectural Desktop 2007 |Company: Autodesk,Inc. |WEB Address: www.autodesk.com
 90
    32897
280
     0
281
     0
  0
CLASS
  1
AEC_DISP_REP_SPACE_MODEL
  2
AecDbDispRepSpaceModel
  3
AecArchBase50|Product Desc: Autodesk Architectural Desktop 2007 |Company: Autodesk,Inc. |WEB Address: www.autodesk.com
 90
    32897
280
     0
281
     0
  0
CLASS
  1
AEC_DISP_REP_SPACE_PLAN
  2
AecDbDispRepSpacePlan
  3
AecArchBase50|Product Desc: Autodesk Architectural Desktop 2007 |Company: Autodesk,Inc. |WEB Address: www.autodesk.com
 90
    32897
280
     0
281
     0
  0
CLASS
  1
AEC_DISP_REP_STAIR_MODEL
  2
AecDbDispRepStairModel
  3
AecArchBase50|Product Desc: Autodesk Architectural Desktop 2007 |Company: Autodesk,Inc. |WEB Address: www.autodesk.com
 90
    32897
280
     0
281
     0
  0
CLASS
  1
AEC_DISP_REP_STAIR_PLAN
  2
AecDbDispRepStairPlan
  3
AecArchBase50|Product Desc: Autodesk Architectural Desktop 2007 |Company: Autodesk,Inc. |WEB Address: www.autodesk.com
 90
    32897
280
     0
281
     0
  0
CLASS
  1
AEC_DISP_REP_WALL_GRAPH
  2
AecDbDispRepWallGraph
  3
AecArchBase50|Product Desc: Autodesk Architectural Desktop 2007 |Company: Autodesk,Inc. |WEB Address: www.autodesk.com
 90
    32897
280
     0
281
     0
  0
CLASS
  1
AEC_DISP_REP_WALL_MODEL
  2
AecDbDispRepWallModel
  3
AecArchBase50|Product Desc: Autodesk Architectural Desktop 2007 |Company: Autodesk,Inc. |WEB Address: www.autodesk.com
 90
    32897
280
     0
281
     0
  0
CLASS
  1
AEC_DISP_REP_WALL_PLAN
  2
AecDbDispRepWallPlan
  3
AecArchBase50|Product Desc: Autodesk Architectural Desktop 2007 |Company: Autodesk,Inc. |WEB Address: www.autodesk.com
 90
    32897
280
     0
281
     0
  0
CLASS
  1
AEC_DISP_REP_WALL_SCHEM
  2
AecDbDispRepWallSchem
  3
AecArchBase50|Product Desc: Autodesk Architectural Desktop 2007 |Company: Autodesk,Inc. |WEB Address: www.autodesk.com
 90
    32897
280
     0
281
     0
  0
CLASS
  1
AEC_DISP_REP_WINDOW_ASSEMBLY_MODEL
  2
AecDbDispRepWindowAssemblyModel
  3
AecArchBase50|Product Desc: Autodesk Architectural Desktop 2007 |Company: Autodesk,Inc. |WEB Address: www.autodesk.com
 90
    32897
280
     0
281
     0
  0
CLASS
  1
AEC_DISP_REP_WINDOW_ASSEMBLY_PLAN
  2
AecDbDispRepWindowAssemblyPlan
  3
AecArchBase50|Product Desc: Autodesk Architectural Desktop 2007 |Company: Autodesk,Inc. |WEB Address: www.autodesk.com
 90
    32897
280
     0
281
     0
  0
CLASS
  1
AEC_AECDBDISPREPWINDOWASSEMBLYPLAN100
  2
AecDbDispRepWindowAssemblyPlan100
  3
AecArchDACHBase50|Product Desc: Autodesk Architectural Desktop 2007 |Company: Autodesk,Inc. |WEB Address: www.autodesk.com
 90
    32897
280
     0
281
     0
  0
CLASS
  1
AEC_DISP_REP_WINDOW_MODEL
  2
AecDbDispRepWindowModel
  3
AecArchBase50|Product Desc: Autodesk Architectural Desktop 2007 |Company: Autodesk,Inc. |WEB Address: www.autodesk.com
 90
    32897
280
     0
281
     0
  0
CLASS
  1
AEC_DISP_REP_WINDOW_NOMINAL
  2
AecDbDispRepWindowNominal
  3
AecArchBase50|Product Desc: Autodesk Architectural Desktop 2007 |Company: Autodesk,Inc. |WEB Address: www.autodesk.com
 90
    32897
280
     0
281
     0
  0
CLASS
  1
AEC_DISP_REP_WINDOW_PLAN
  2
AecDbDispRepWindowPlan
  3
AecArchBase50|Product Desc: Autodesk Architectural Desktop 2007 |Company: Autodesk,Inc. |WEB Address: www.autodesk.com
 90
    32897
280
     0
281
     0
  0
CLASS
  1
AECS_DISP_REP_MEMBER_LOGICAL
  2
AecsDbDispRepMemberLogical
  3
AecStructureBase50|Product Desc: Autodesk Architectural Desktop 2007 |Company: Autodesk,Inc. |WEB Address: www.autodesk.com
 90
    32897
280
     0
281
     0
  0
CLASS
  1
AECS_DISP_REP_MEMBER_MODEL_DESIGN
  2
AecsDbDispRepMemberModelDesign
  3
AecStructureBase50|Product Desc: Autodesk Architectural Desktop 2007 |Company: Autodesk,Inc. |WEB Address: www.autodesk.com
 90
    32897
280
     0
281
     0
  0
CLASS
  1
AECS_DISP_REP_MEMBER_PLAN_DESIGN
  2
AecsDbDispRepMemberPlanDesign
  3
AecStructureBase50|Product Desc: Autodesk Architectural Desktop 2007 |Company: Autodesk,Inc. |WEB Address: www.autodesk.com
 90
    32897
280
     0
281
     0
  0
CLASS
  1
AEC_DISP_PROPS_ENT
  2
AecDbDispPropsEnt
  3
AecBase50|Product Desc: Autodesk Architectural Desktop 2007 |Company: Autodesk,Inc. |WEB Address: www.autodesk.com
 90
    32897
280
     0
281
     0
  0
CLASS
  1
AEC_DISP_PROPS_CLIP_VOLUME
  2
AecDbDispPropsClipVol
  3
AecBase50|Product Desc: Autodesk Architectural Desktop 2007 |Company: Autodesk,Inc. |WEB Address: www.autodesk.com
 90
    32897
280
     0
281
     0
  0
CLASS
  1
AEC_DISP_PROPS_SLICE
  2
AecDbDispPropsSlice
  3
AecBase50|Product Desc: Autodesk Architectural Desktop 2007 |Company: Autodesk,Inc. |WEB Address: www.autodesk.com
 90
    32897
280
     0
281
     0
  0
CLASS
  1
AEC_DISP_PROPS_ROOFSLAB_PLAN
  2
AecDbDispPropsRoofSlabPlan
  3
AecArchBase50|Product Desc: Autodesk Architectural Desktop 2007 |Company: Autodesk,Inc. |WEB Address: www.autodesk.com
 90
    32897
280
     0
281
     0
  0
CLASS
  1
AEC_DISP_PROPS_GRID_ASSEMBLY_MODEL
  2
AecDbDispPropsGridAssemblyModel
  3
AecArchBase50|Product Desc: Autodesk Architectural Desktop 2007 |Company: Autodesk,Inc. |WEB Address: www.autodesk.com
 90
    32897
280
     0
281
     0
  0
CLASS
  1
AEC_DISP_PROPS_ROOF
  2
AecDbDispPropsRoof
  3
AecArchBase50|Product Desc: Autodesk Architectural Desktop 2007 |Company: Autodesk,Inc. |WEB Address: www.autodesk.com
 90
    32897
280
     0
281
     0
  0
CLASS
  1
AEC_DISP_PROPS_SPACE_MODEL
  2
AecDbDispPropsSpaceModel
  3
AecArchBase50|Product Desc: Autodesk Architectural Desktop 2007 |Company: Autodesk,Inc. |WEB Address: www.autodesk.com
 90
    32897
280
     0
281
     0
  0
CLASS
  1
AEC_DISP_PROPS_EDITINPLACEPROFILE_MODEL
  2
AecDbDispPropsEditInPlaceProfile
  3
AecBase50|Product Desc: Autodesk Architectural Desktop 2007 |Company: Autodesk,Inc. |WEB Address: www.autodesk.com
 90
    32897
280
     0
281
     0
  0
CLASS
  1
AEC_DISP_PROPS_DOOR
  2
AecDbDispPropsDoor
  3
AecArchBase50|Product Desc: Autodesk Architectural Desktop 2007 |Company: Autodesk,Inc. |WEB Address: www.autodesk.com
 90
    32897
280
     0
281
     0
  0
CLASS
  1
AEC_DISP_PROPS_MASKBLOCK
  2
AecDbDispPropsMaskBlock
  3
AecBase50|Product Desc: Autodesk Architectural Desktop 2007 |Company: Autodesk,Inc. |WEB Address: www.autodesk.com
 90
    32897
280
     0
281
     0
  0
CLASS
  1
AEC_DISP_PROPS_SPACE_PLAN
  2
AecDbDispPropsSpacePlan
  3
AecArchBase50|Product Desc: Autodesk Architectural Desktop 2007 |Company: Autodesk,Inc. |WEB Address: www.autodesk.com
 90
    32897
280
     0
281
     0
  0
CLASS
  1
AEC_DISP_PROPS_RAILING_PLAN
  2
AecDbDispPropsRailingPlan
  3
AecArchBase50|Product Desc: Autodesk Architectural Desktop 2007 |Company: Autodesk,Inc. |WEB Address: www.autodesk.com
 90
    32897
280
     0
281
     0
  0
CLASS
  1
AEC_DISP_PROPS_LAYOUT_GRID2D
  2
AecDbDispPropsLayoutGrid2d
  3
AecBase50|Product Desc: Autodesk Architectural Desktop 2007 |Company: Autodesk,Inc. |WEB Address: www.autodesk.com
 90
    32897
280
     0
281
     0
  0
CLASS
  1
AEC_DISP_PROPS_CLIP_VOLUME_RESULT
  2
AecDbDispPropsClipVolResSubDiv
  3
AecBase50|Product Desc: Autodesk Architectural Desktop 2007 |Company: Autodesk,Inc. |WEB Address: www.autodesk.com
 90
    32897
280
     0
281
     0
  0
CLASS
  1
AEC_DISP_PROPS_STAIR_MODEL
  2
AecDbDispPropsStairModel
  3
AecArchBase50|Product Desc: Autodesk Architectural Desktop 2007 |Company: Autodesk,Inc. |WEB Address: www.autodesk.com
 90
    32897
280
     0
281
     0
  0
CLASS
  1
AEC_DISP_PROPS_LAYOUT_CURVE
  2
AecDbDispPropsLayoutCurve
  3
AecBase50|Product Desc: Autodesk Architectural Desktop 2007 |Company: Autodesk,Inc. |WEB Address: www.autodesk.com
 90
    32897
280
     0
281
     0
  0
CLASS
  1
AEC_DISP_PROPS_POLYGON_MODEL
  2
AecDbDispPropsPolygonModel
  3
AecBaseEx50|Product Desc: Autodesk Architectural Desktop 2007 |Company: Autodesk,Inc. |WEB Address: www.autodesk.com
 90
    32897
280
     0
281
     0
  0
CLASS
  1
AEC_DISP_PROPS_MASS_GROUP
  2
AecDbDispPropsMassGroup
  3
AecBaseEx50|Product Desc: Autodesk Architectural Desktop 2007 |Company: Autodesk,Inc. |WEB Address: www.autodesk.com
 90
    32897
280
     0
281
     0
  0
CLASS
  1
AEC_DISP_PROPS_STAIR_PLAN
  2
AecDbDispPropsStairPlan
  3
AecArchBase50|Product Desc: Autodesk Architectural Desktop 2007 |Company: Autodesk,Inc. |WEB Address: www.autodesk.com
 90
    32897
280
     0
281
     0
  0
CLASS
  1
AEC_DISP_PROPS_OPENING
  2
AecDbDispPropsOpening
  3
AecArchBase50|Product Desc: Autodesk Architectural Desktop 2007 |Company: Autodesk,Inc. |WEB Address: www.autodesk.com
 90
    32897
280
     0
281
     0
  0
CLASS
  1
AEC_DISP_PROPS_WALL_GRAPH
  2
AecDbDispPropsWallGraph
  3
AecArchBase50|Product Desc: Autodesk Architectural Desktop 2007 |Company: Autodesk,Inc. |WEB Address: www.autodesk.com
 90
    32897
280
     0
281
     0
  0
CLASS
  1
AEC_DISP_PROPS_DOOR_NOMINAL
  2
AecDbDispPropsDoorNominal
  3
AecArchBase50|Product Desc: Autodesk Architectural Desktop 2007 |Company: Autodesk,Inc. |WEB Address: www.autodesk.com
 90
    32897
280
     0
281
     0
  0
CLASS
  1
AEC_DISP_PROPS_SLAB
  2
AecDbDispPropsSlab
  3
AecArchBase50|Product Desc: Autodesk Architectural Desktop 2007 |Company: Autodesk,Inc. |WEB Address: www.autodesk.com
 90
    32897
280
     0
281
     0
  0
CLASS
  1
AEC_DISP_PROPS_WALL_MODEL
  2
AecDbDispPropsWallModel
  3
AecArchBase50|Product Desc: Autodesk Architectural Desktop 2007 |Company: Autodesk,Inc. |WEB Address: www.autodesk.com
 90
    32897
280
     0
281
     0
  0
CLASS
  1
AEC_DISP_PROPS_MATERIAL
  2
AecDbDispPropsMaterial
  3
AecBase50|Product Desc: Autodesk Architectural Desktop 2007 |Company: Autodesk,Inc. |WEB Address: www.autodesk.com
 90
    32897
280
     0
281
     0
  0
CLASS
  1
AEC_DISP_PROPS_WINDOW
  2
AecDbDispPropsWindow
  3
AecArchBase50|Product Desc: Autodesk Architectural Desktop 2007 |Company: Autodesk,Inc. |WEB Address: www.autodesk.com
 90
    32897
280
     0
281
     0
  0
CLASS
  1
AEC_DISP_PROPS_LAYOUT_GRID3D
  2
AecDbDispPropsLayoutGrid3d
  3
AecBase50|Product Desc: Autodesk Architectural Desktop 2007 |Company: Autodesk,Inc. |WEB Address: www.autodesk.com
 90
    32897
280
     0
281
     0
  0
CLASS
  1
AEC_DISP_PROPS_GRID_ASSEMBLY_PLAN
  2
AecDbDispPropsGridAssemblyPlan
  3
AecArchBase50|Product Desc: Autodesk Architectural Desktop 2007 |Company: Autodesk,Inc. |WEB Address: www.autodesk.com
 90
    32897
280
     0
281
     0
  0
CLASS
  1
AEC_DISP_PROPS_WALL_SCHEM
  2
AecDbDispPropsWallSchem
  3
AecArchBase50|Product Desc: Autodesk Architectural Desktop 2007 |Company: Autodesk,Inc. |WEB Address: www.autodesk.com
 90
    32897
280
     0
281
     0
  0
CLASS
  1
AEC_DISP_PROPS_WALL_PLAN
  2
AecDbDispPropsWallPlan
  3
AecArchBase50|Product Desc: Autodesk Architectural Desktop 2007 |Company: Autodesk,Inc. |WEB Address: www.autodesk.com
 90
    32897
280
     0
281
     0
  0
CLASS
  1
AEC_DISP_PROPS_SPACE_BOUNDARY
  2
AecDbDispPropsSpaceBoundary
  3
AecArchBase50|Product Desc: Autodesk Architectural Desktop 2007 |Company: Autodesk,Inc. |WEB Address: www.autodesk.com
 90
    32897
280
     0
281
     0
  0
CLASS
  1
AEC_DISP_PROPS_SLAB_PLAN
  2
AecDbDispPropsSlabPlan
  3
AecArchBase50|Product Desc: Autodesk Architectural Desktop 2007 |Company: Autodesk,Inc. |WEB Address: www.autodesk.com
 90
    32897
280
     0
281
     0
  0
CLASS
  1
AEC_DISP_PROPS_RAILING_MODEL
  2
AecDbDispPropsRailingModel
  3
AecArchBase50|Product Desc: Autodesk Architectural Desktop 2007 |Company: Autodesk,Inc. |WEB Address: www.autodesk.com
 90
    32897
280
     0
281
     0
  0
CLASS
  1
AEC_DISP_PROPS_MASS_ELEM_MODEL
  2
AecDbDispPropsMassElem
  3
AecBaseEx50|Product Desc: Autodesk Architectural Desktop 2007 |Company: Autodesk,Inc. |WEB Address: www.autodesk.com
 90
    32897
280
     0
281
     0
  0
CLASS
  1
AEC_DISP_PROPS_DIM
  2
AecDbDispPropsDimGroup
  3
AecArchDACHBase50|Product Desc: Autodesk Architectural Desktop 2007 |Company: Autodesk,Inc. |WEB Address: www.autodesk.com
 90
    32897
280
     0
281
     0
  0
CLASS
  1
AEC_DISP_PROPS_ROOFSLAB
  2
AecDbDispPropsRoofSlab
  3
AecArchBase50|Product Desc: Autodesk Architectural Desktop 2007 |Company: Autodesk,Inc. |WEB Address: www.autodesk.com
 90
    32897
280
     0
281
     0
  0
CLASS
  1
AEC_DISP_PROPS_ENT_REF
  2
AecDbDispPropsEntRef
  3
AecBase50|Product Desc: Autodesk Architectural Desktop 2007 |Company: Autodesk,Inc. |WEB Address: www.autodesk.com
 90
    32897
280
     0
281
     0
  0
CLASS
  1
AEC_DISP_PROPS_2D_SECTION
  2
AecDbDispProps2dSection
  3
AecBase50|Product Desc: Autodesk Architectural Desktop 2007 |Company: Autodesk,Inc. |WEB Address: www.autodesk.com
 90
    32897
280
     0
281
     0
  0
CLASS
  1
AECS_DISP_PROPS_MEMBER_LOGICAL
  2
AecsDbDispPropsMemberLogical
  3
AecStructureBase50|Product Desc: Autodesk Architectural Desktop 2007 |Company: Autodesk,Inc. |WEB Address: www.autodesk.com
 90
    32897
280
     0
281
     0
  0
CLASS
  1
AEC_DISP_PROPS_AREA_DECOMPOSED
  2
AecDbDispPropsAreaDecomposed
  3
AecAreaCalculationBase50|Product Desc: Autodesk Architectural Desktop 2007 |Company: Autodesk,Inc. |WEB Address: www.autodesk.com
 90
    32897
280
     0
281
     0
  0
CLASS
  1
AEC_DISP_PROPS_CAMERA
  2
AecDbDispPropsCamera
  3
AecBase50|Product Desc: Autodesk Architectural Desktop 2007 |Company: Autodesk,Inc. |WEB Address: www.autodesk.com
 90
    32897
280
     0
281
     0
  0
CLASS
  1
AECS_DISP_PROPS_MEMBER
  2
AecsDbDispPropsMember
  3
AecStructureBase50|Product Desc: Autodesk Architectural Desktop 2007 |Company: Autodesk,Inc. |WEB Address: www.autodesk.com
 90
    32897
280
     0
281
     0
  0
CLASS
  1
AECS_DISP_PROPS_MEMBER_PLAN
  2
AecsDbDispPropsMemberPlan
  3
AecStructureBase50|Product Desc: Autodesk Architectural Desktop 2007 |Company: Autodesk,Inc. |WEB Address: www.autodesk.com
 90
    32897
280
     0
281
     0
  0
CLASS
  1
AEC_DISP_PROPS_AREAGROUP
  2
AecDbDispPropsAreaGroup
  3
AecAreaCalculationBase50|Product Desc: Autodesk Architectural Desktop 2007 |Company: Autodesk,Inc. |WEB Address: www.autodesk.com
 90
    32897
280
     0
281
     0
  0
CLASS
  1
AEC_DISP_PROPS_WINDOW_NOMINAL
  2
AecDbDispPropsWindowNominal
  3
AecArchBase50|Product Desc: Autodesk Architectural Desktop 2007 |Company: Autodesk,Inc. |WEB Address: www.autodesk.com
 90
    32897
280
     0
281
     0
  0
CLASS
  1
AEC_DISP_PROPS_AREA
  2
AecDbDispPropsArea
  3
AecAreaCalculationBase50|Product Desc: Autodesk Architectural Desktop 2007 |Company: Autodesk,Inc. |WEB Address: www.autodesk.com
 90
    32897
280
     0
281
     0
  0
CLASS
  1
AEC_DISP_PROPS_SCHEDULE_TABLE
  2
AecDbDispPropsScheduleTable
  3
AecSchedule50|Product Desc: Autodesk Architectural Desktop 2007 |Company: Autodesk,Inc. |WEB Address: www.autodesk.com
 90
    32897
280
     0
281
     0
  0
CLASS
  1
AEC_LAYERKEY_STYLE
  2
AecDbLayerKeyStyle
  3
AecBase50|Product Desc: Autodesk Architectural Desktop 2007 |Company: Autodesk,Inc. |WEB Address: www.autodesk.com
 90
    32897
280
     0
281
     0
  0
CLASS
  1
AEC_VARS_ARCHBASE
  2
AecDbVarsArchBase
  3
AecArchBase50|Product Desc: Autodesk Architectural Desktop 2007 |Company: Autodesk,Inc. |WEB Address: www.autodesk.com
 90
    32897
280
     0
281
     0
  0
CLASS
  1
AEC_VARS_MUNICH
  2
AecDbVarsMunich
  3
AecArchDACHBase50|Product Desc: Autodesk Architectural Desktop 2007 |Company: Autodesk,Inc. |WEB Address: www.autodesk.com
 90
    32897
280
     0
281
     0
  0
CLASS
  1
AEC_NOTIFICATION_TRACKER
  2
AecDbNotificationTracker
  3
AecBase50|Product Desc: Autodesk Architectural Desktop 2007 |Company: Autodesk,Inc. |WEB Address: www.autodesk.com
 90
    32897
280
     0
281
     0
  0
CLASS
  1
AEC_DISP_REP_ANCHOR
  2
AecDbDispRepAnchor
  3
AecBase50|Product Desc: Autodesk Architectural Desktop 2007 |Company: Autodesk,Inc. |WEB Address: www.autodesk.com
 90
    32897
280
     0
281
     0
  0
CLASS
  1
AEC_DISP_REP_POLYGON_TRUECOLOUR
  2
AecDbDispRepPolygonTrueColour
  3
AecBaseEx50|Product Desc: Autodesk Architectural Desktop 2007 |Company: Autodesk,Inc. |WEB Address: www.autodesk.com
 90
    32897
280
     0
281
     0
  0
CLASS
  1
AEC_DISP_PROPS_POLYGON_TRUECOLOUR
  2
AecDbDispPropsPolygonTrueColour
  3
AecBaseEx50|Product Desc: Autodesk Architectural Desktop 2007 |Company: Autodesk,Inc. |WEB Address: www.autodesk.com
 90
    32897
280
     0
281
     0
  0
CLASS
  1
AEC_DISP_REP_BDG_ELEVLINE_RCP
  2
AecDbDispRepBdgElevLineRcp
  3
AecArchBase50|Product Desc: Autodesk Architectural Desktop 2007 |Company: Autodesk,Inc. |WEB Address: www.autodesk.com
 90
    32897
280
     0
281
     0
  0
CLASS
  1
AEC_DISP_REP_BDG_SECTIONLINE_RCP
  2
AecDbDispRepBdgSectionLineRcp
  3
AecArchBase50|Product Desc: Autodesk Architectural Desktop 2007 |Company: Autodesk,Inc. |WEB Address: www.autodesk.com
 90
    32897
280
     0
281
     0
  0
CLASS
  1
AEC_DISP_REP_BDG_SECTION_MODEL
  2
AecDbDispRepBdgSectionModel
  3
AecArchBase50|Product Desc: Autodesk Architectural Desktop 2007 |Company: Autodesk,Inc. |WEB Address: www.autodesk.com
 90
    32897
280
     0
281
     0
  0
CLASS
  1
AEC_DISP_REP_DOOR_ELEV
  2
AecDbDispRepDoorElev
  3
AecArchBase50|Product Desc: Autodesk Architectural Desktop 2007 |Company: Autodesk,Inc. |WEB Address: www.autodesk.com
 90
    32897
280
     0
281
     0
  0
CLASS
  1
AEC_DISP_REP_DOOR_RCP
  2
AecDbDispRepDoorRcp
  3
AecArchBase50|Product Desc: Autodesk Architectural Desktop 2007 |Company: Autodesk,Inc. |WEB Address: www.autodesk.com
 90
    32897
280
     0
281
     0
  0
CLASS
  1
AEC_DISP_REP_DOOR_THRESHOLD_PLAN
  2
AecDbDispRepDoorThresholdPlan
  3
AecArchBase50|Product Desc: Autodesk Architectural Desktop 2007 |Company: Autodesk,Inc. |WEB Address: www.autodesk.com
 90
    32897
280
     0
281
     0
  0
CLASS
  1
AEC_DISP_PROPS_DOOR_THRESHOLD_PLAN
  2
AecDbDispPropsDoorThresholdPlan
  3
AecArchBase50|Product Desc: Autodesk Architectural Desktop 2007 |Company: Autodesk,Inc. |WEB Address: www.autodesk.com
 90
    32897
280
     0
281
     0
  0
CLASS
  1
AEC_DISP_REP_MASS_ELEM_RCP
  2
AecDbDispRepMassElemRcp
  3
AecArchBase50|Product Desc: Autodesk Architectural Desktop 2007 |Company: Autodesk,Inc. |WEB Address: www.autodesk.com
 90
    32897
280
     0
281
     0
  0
CLASS
  1
AEC_DISP_REP_MASS_GROUP_RCP
  2
AecDbDispRepMassGroupRcp
  3
AecArchBase50|Product Desc: Autodesk Architectural Desktop 2007 |Company: Autodesk,Inc. |WEB Address: www.autodesk.com
 90
    32897
280
     0
281
     0
  0
CLASS
  1
AEC_DISP_REP_MVBLOCK_REF_RCP
  2
AecDbDispRepMvBlockRefRcp
  3
AecArchBase50|Product Desc: Autodesk Architectural Desktop 2007 |Company: Autodesk,Inc. |WEB Address: www.autodesk.com
 90
    32897
280
     0
281
     0
  0
CLASS
  1
AEC_DISP_REP_ROOF_RCP
  2
AecDbDispRepRoofRcp
  3
AecArchBase50|Product Desc: Autodesk Architectural Desktop 2007 |Company: Autodesk,Inc. |WEB Address: www.autodesk.com
 90
    32897
280
     0
281
     0
  0
CLASS
  1
AEC_DISP_REP_SPACE_BOUNDARY_DIAGRAM
  2
AecDbDispRepSpaceBoundaryDgrm
  3
AecArchBase50|Product Desc: Autodesk Architectural Desktop 2007 |Company: Autodesk,Inc. |WEB Address: www.autodesk.com
 90
    32897
280
     0
281
     0
  0
CLASS
  1
AEC_DISP_REP_SPACE_RCP
  2
AecDbDispRepSpaceRcp
  3
AecArchBase50|Product Desc: Autodesk Architectural Desktop 2007 |Company: Autodesk,Inc. |WEB Address: www.autodesk.com
 90
    32897
280
     0
281
     0
  0
CLASS
  1
AEC_DISP_REP_SPACE_VOLUME
  2
AecDbDispRepSpaceVolume
  3
AecArchBase50|Product Desc: Autodesk Architectural Desktop 2007 |Company: Autodesk,Inc. |WEB Address: www.autodesk.com
 90
    32897
280
     0
281
     0
  0
CLASS
  1
AEC_DISP_REP_STAIR_PLAN_OVERLAPPING
  2
AecDbDispRepStairPlanOverlapping
  3
AecArchBase50|Product Desc: Autodesk Architectural Desktop 2007 |Company: Autodesk,Inc. |WEB Address: www.autodesk.com
 90
    32897
280
     0
281
     0
  0
CLASS
  1
AEC_DISP_PROPS_STAIR_PLAN_OVERLAPPING
  2
AecDbDispPropsStairPlanOverlapping
  3
AecArchBase50|Product Desc: Autodesk Architectural Desktop 2007 |Company: Autodesk,Inc. |WEB Address: www.autodesk.com
 90
    32897
280
     0
281
     0
  0
CLASS
  1
AEC_DISP_REP_STAIR_RCP
  2
AecDbDispRepStairRcp
  3
AecArchBase50|Product Desc: Autodesk Architectural Desktop 2007 |Company: Autodesk,Inc. |WEB Address: www.autodesk.com
 90
    32897
280
     0
281
     0
  0
CLASS
  1
AEC_DISP_REP_WALL_RCP
  2
AecDbDispRepWallRcp
  3
AecArchBase50|Product Desc: Autodesk Architectural Desktop 2007 |Company: Autodesk,Inc. |WEB Address: www.autodesk.com
 90
    32897
280
     0
281
     0
  0
CLASS
  1
AEC_DISP_REP_WINDOWASSEMBLY_SILL_PLAN
  2
AecDbDispRepWindowAssemblySillPlan
  3
AecArchBase50|Product Desc: Autodesk Architectural Desktop 2007 |Company: Autodesk,Inc. |WEB Address: www.autodesk.com
 90
    32897
280
     0
281
     0
  0
CLASS
  1
AEC_DISP_PROPS_WINDOW_ASSEMBLY_SILL_PLAN
  2
AecDbDispPropsWindowAssemblySillPlan
  3
AecArchBase50|Product Desc: Autodesk Architectural Desktop 2007 |Company: Autodesk,Inc. |WEB Address: www.autodesk.com
 90
    32897
280
     0
281
     0
  0
CLASS
  1
AEC_DISP_REP_WINDOW_ELEV
  2
AecDbDispRepWindowElev
  3
AecArchBase50|Product Desc: Autodesk Architectural Desktop 2007 |Company: Autodesk,Inc. |WEB Address: www.autodesk.com
 90
    32897
280
     0
281
     0
  0
CLASS
  1
AEC_DISP_REP_WINDOW_RCP
  2
AecDbDispRepWindowRcp
  3
AecArchBase50|Product Desc: Autodesk Architectural Desktop 2007 |Company: Autodesk,Inc. |WEB Address: www.autodesk.com
 90
    32897
280
     0
281
     0
  0
CLASS
  1
AEC_DISP_REP_WINDOW_SILL_PLAN
  2
AecDbDispRepWindowSillPlan
  3
AecArchBase50|Product Desc: Autodesk Architectural Desktop 2007 |Company: Autodesk,Inc. |WEB Address: www.autodesk.com
 90
    32897
280
     0
281
     0
  0
CLASS
  1
AEC_DISP_PROPS_WINDOW_SILL_PLAN
  2
AecDbDispPropsWindowSillPlan
  3
AecArchBase50|Product Desc: Autodesk Architectural Desktop 2007 |Company: Autodesk,Inc. |WEB Address: www.autodesk.com
 90
    32897
280
     0
281
     0
  0
CLASS
  1
AEC_DISP_REP_ANCHOR_BUB_TO_GRID_RCP
  2
AecDbDispRepAnchorBubToGridRcp
  3
AecStructureBase50|Product Desc: Autodesk Architectural Desktop 2007 |Company: Autodesk,Inc. |WEB Address: www.autodesk.com
 90
    32897
280
     0
281
     0
  0
CLASS
  1
AEC_DISP_REP_COLUMN_GRID_RCP
  2
AecDbDispRepColumnGridRcp
  3
AecStructureBase50|Product Desc: Autodesk Architectural Desktop 2007 |Company: Autodesk,Inc. |WEB Address: www.autodesk.com
 90
    32897
280
     0
281
     0
  0
CLASS
  1
AECS_DISP_REP_MEMBER_ELEVATION_DESIGN
  2
AecsDbDispRepMemberElevationDesign
  3
AecStructureBase50|Product Desc: Autodesk Architectural Desktop 2007 |Company: Autodesk,Inc. |WEB Address: www.autodesk.com
 90
    32897
280
     0
281
     0
  0
CLASS
  1
AECS_DISP_PROPS_MEMBER_PROJECTED
  2
AecsDbDispPropsMemberProjected
  3
AecStructureBase50|Product Desc: Autodesk Architectural Desktop 2007 |Company: Autodesk,Inc. |WEB Address: www.autodesk.com
 90
    32897
280
     0
281
     0
  0
CLASS
  1
AECS_DISP_REP_MEMBER_ELEVATION_DETAIL
  2
AecsDbDispRepMemberElevationDetail
  3
AecStructureBase50|Product Desc: Autodesk Architectural Desktop 2007 |Company: Autodesk,Inc. |WEB Address: www.autodesk.com
 90
    32897
280
     0
281
     0
  0
CLASS
  1
AECS_DISP_REP_MEMBER_MODEL_DETAIL
  2
AecsDbDispRepMemberModelDetail
  3
AecStructureBase50|Product Desc: Autodesk Architectural Desktop 2007 |Company: Autodesk,Inc. |WEB Address: www.autodesk.com
 90
    32897
280
     0
281
     0
  0
CLASS
  1
AECS_DISP_REP_MEMBER_PLAN_DETAIL
  2
AecsDbDispRepMemberPlanDetail
  3
AecStructureBase50|Product Desc: Autodesk Architectural Desktop 2007 |Company: Autodesk,Inc. |WEB Address: www.autodesk.com
 90
    32897
280
     0
281
     0
  0
CLASS
  1
AECS_DISP_REP_MEMBER_PLAN_SKETCH
  2
AecsDbDispRepMemberPlanSketch
  3
AecStructureBase50|Product Desc: Autodesk Architectural Desktop 2007 |Company: Autodesk,Inc. |WEB Address: www.autodesk.com
 90
    32897
280
     0
281
     0
  0
CLASS
  1
AECS_DISP_PROPS_MEMBER_PLAN_SKETCH
  2
AecsDbDispPropsMemberPlanSketch
  3
AecStructureBase50|Product Desc: Autodesk Architectural Desktop 2007 |Company: Autodesk,Inc. |WEB Address: www.autodesk.com
 90
    32897
280
     0
281
     0
  0
CLASS
  1
AEC_AECDBDISPREPAREA100
  2
AecDbDispRepArea100
  3
AecArchDACHBase50|Product Desc: Autodesk Architectural Desktop 2007 |Company: Autodesk,Inc. |WEB Address: www.autodesk.com
 90
    32897
280
     0
281
     0
  0
CLASS
  1
AEC_AECDBDISPREPAREAGROUP100
  2
AecDbDispRepAreaGroup100
  3
AecArchDACHBase50|Product Desc: Autodesk Architectural Desktop 2007 |Company: Autodesk,Inc. |WEB Address: www.autodesk.com
 90
    32897
280
     0
281
     0
  0
CLASS
  1
AEC_AECDBDISPREPBDGELEVLINEPLAN100
  2
AecDbDispRepBdgElevLinePlan100
  3
AecArchDACHBase50|Product Desc: Autodesk Architectural Desktop 2007 |Company: Autodesk,Inc. |WEB Address: www.autodesk.com
 90
    32897
280
     0
281
     0
  0
CLASS
  1
AEC_AECDBDISPREPBDGSECTIONLINEPLAN100
  2
AecDbDispRepBdgSectionLinePlan100
  3
AecArchDACHBase50|Product Desc: Autodesk Architectural Desktop 2007 |Company: Autodesk,Inc. |WEB Address: www.autodesk.com
 90
    32897
280
     0
281
     0
  0
CLASS
  1
AEC_AECDBDISPREPCEILINGGRIDPLAN100
  2
AecDbDispRepCeilingGridPlan100
  3
AecArchDACHBase50|Product Desc: Autodesk Architectural Desktop 2007 |Company: Autodesk,Inc. |WEB Address: www.autodesk.com
 90
    32897
280
     0
281
     0
  0
CLASS
  1
AEC_AECDBDISPREPCOLUMNGRIDPLAN100
  2
AecDbDispRepColumnGridPlan100
  3
AecArchDACHBase50|Product Desc: Autodesk Architectural Desktop 2007 |Company: Autodesk,Inc. |WEB Address: www.autodesk.com
 90
    32897
280
     0
281
     0
  0
CLASS
  1
AEC_AECDBDISPREPCURTAINWALLLAYOUTPLAN100
  2
AecDbDispRepCurtainWallLayoutPlan100
  3
AecArchDACHBase50|Product Desc: Autodesk Architectural Desktop 2007 |Company: Autodesk,Inc. |WEB Address: www.autodesk.com
 90
    32897
280
     0
281
     0
  0
CLASS
  1
AEC_AECDBDISPREPCURTAINWALLUNITPLAN100
  2
AecDbDispRepCurtainWallUnitPlan100
  3
AecArchDACHBase50|Product Desc: Autodesk Architectural Desktop 2007 |Company: Autodesk,Inc. |WEB Address: www.autodesk.com
 90
    32897
280
     0
281
     0
  0
CLASS
  1
AEC_AECDBDISPREPMVBLOCKREFPLAN100
  2
AecDbDispRepMvBlockRefPlan100
  3
AecArchDACHBase50|Product Desc: Autodesk Architectural Desktop 2007 |Company: Autodesk,Inc. |WEB Address: www.autodesk.com
 90
    32897
280
     0
281
     0
  0
CLASS
  1
AEC_AECDBDISPREPROOFPLAN100
  2
AecDbDispRepRoofPlan100
  3
AecArchDACHBase50|Product Desc: Autodesk Architectural Desktop 2007 |Company: Autodesk,Inc. |WEB Address: www.autodesk.com
 90
    32897
280
     0
281
     0
  0
CLASS
  1
AEC_AECDBDISPREPROOFSLABPLAN100
  2
AecDbDispRepRoofSlabPlan100
  3
AecArchDACHBase50|Product Desc: Autodesk Architectural Desktop 2007 |Company: Autodesk,Inc. |WEB Address: www.autodesk.com
 90
    32897
280
     0
281
     0
  0
CLASS
  1
AEC_AECDBDISPREPSLABPLAN100
  2
AecDbDispRepSlabPlan100
  3
AecArchDACHBase50|Product Desc: Autodesk Architectural Desktop 2007 |Company: Autodesk,Inc. |WEB Address: www.autodesk.com
 90
    32897
280
     0
281
     0
  0
CLASS
  1
AEC_AECDBDISPREPSPACEBOUNDARYPLAN100
  2
AecDbDispRepSpaceBoundaryPlan100
  3
AecArchDACHBase50|Product Desc: Autodesk Architectural Desktop 2007 |Company: Autodesk,Inc. |WEB Address: www.autodesk.com
 90
    32897
280
     0
281
     0
  0
CLASS
  1
AEC_AECDBDISPREPSPACEPLAN100
  2
AecDbDispRepSpacePlan100
  3
AecArchDACHBase50|Product Desc: Autodesk Architectural Desktop 2007 |Company: Autodesk,Inc. |WEB Address: www.autodesk.com
 90
    32897
280
     0
281
     0
  0
CLASS
  1
AEC_AECDBDISPREPWALLPLAN100
  2
AecDbDispRepWallPlan100
  3
AecArchDACHBase50|Product Desc: Autodesk Architectural Desktop 2007 |Company: Autodesk,Inc. |WEB Address: www.autodesk.com
 90
    32897
280
     0
281
     0
  0
CLASS
  1
AEC_AECDBDISPREPAREA50
  2
AecDbDispRepArea50
  3
AecArchDACHBase50|Product Desc: Autodesk Architectural Desktop 2007 |Company: Autodesk,Inc. |WEB Address: www.autodesk.com
 90
    32897
280
     0
281
     0
  0
CLASS
  1
AEC_AECDBDISPREPAREAGROUP50
  2
AecDbDispRepAreaGroup50
  3
AecArchDACHBase50|Product Desc: Autodesk Architectural Desktop 2007 |Company: Autodesk,Inc. |WEB Address: www.autodesk.com
 90
    32897
280
     0
281
     0
  0
CLASS
  1
AEC_AECDBDISPREPBDGELEVLINEPLAN50
  2
AecDbDispRepBdgElevLinePlan50
  3
AecArchDACHBase50|Product Desc: Autodesk Architectural Desktop 2007 |Company: Autodesk,Inc. |WEB Address: www.autodesk.com
 90
    32897
280
     0
281
     0
  0
CLASS
  1
AEC_AECDBDISPREPBDGSECTIONLINEPLAN50
  2
AecDbDispRepBdgSectionLinePlan50
  3
AecArchDACHBase50|Product Desc: Autodesk Architectural Desktop 2007 |Company: Autodesk,Inc. |WEB Address: www.autodesk.com
 90
    32897
280
     0
281
     0
  0
CLASS
  1
AEC_AECDBDISPREPCEILINGGRIDPLAN50
  2
AecDbDispRepCeilingGridPlan50
  3
AecArchDACHBase50|Product Desc: Autodesk Architectural Desktop 2007 |Company: Autodesk,Inc. |WEB Address: www.autodesk.com
 90
    32897
280
     0
281
     0
  0
CLASS
  1
AEC_AECDBDISPREPCOLUMNGRIDPLAN50
  2
AecDbDispRepColumnGridPlan50
  3
AecArchDACHBase50|Product Desc: Autodesk Architectural Desktop 2007 |Company: Autodesk,Inc. |WEB Address: www.autodesk.com
 90
    32897
280
     0
281
     0
  0
CLASS
  1
AEC_AECDBDISPREPCURTAINWALLLAYOUTPLAN50
  2
AecDbDispRepCurtainWallLayoutPlan50
  3
AecArchDACHBase50|Product Desc: Autodesk Architectural Desktop 2007 |Company: Autodesk,Inc. |WEB Address: www.autodesk.com
 90
    32897
280
     0
281
     0
  0
CLASS
  1
AEC_AECDBDISPREPCURTAINWALLUNITPLAN50
  2
AecDbDispRepCurtainWallUnitPlan50
  3
AecArchDACHBase50|Product Desc: Autodesk Architectural Desktop 2007 |Company: Autodesk,Inc. |WEB Address: www.autodesk.com
 90
    32897
280
     0
281
     0
  0
CLASS
  1
AEC_AECDBDISPREPMVBLOCKREFPLAN50
  2
AecDbDispRepMvBlockRefPlan50
  3
AecArchDACHBase50|Product Desc: Autodesk Architectural Desktop 2007 |Company: Autodesk,Inc. |WEB Address: www.autodesk.com
 90
    32897
280
     0
281
     0
  0
CLASS
  1
AEC_AECDBDISPREPROOFPLAN50
  2
AecDbDispRepRoofPlan50
  3
AecArchDACHBase50|Product Desc: Autodesk Architectural Desktop 2007 |Company: Autodesk,Inc. |WEB Address: www.autodesk.com
 90
    32897
280
     0
281
     0
  0
CLASS
  1
AEC_AECDBDISPREPROOFSLABPLAN50
  2
AecDbDispRepRoofSlabPlan50
  3
AecArchDACHBase50|Product Desc: Autodesk Architectural Desktop 2007 |Company: Autodesk,Inc. |WEB Address: www.autodesk.com
 90
    32897
280
     0
281
     0
  0
CLASS
  1
AEC_AECDBDISPREPSLABPLAN50
  2
AecDbDispRepSlabPlan50
  3
AecArchDACHBase50|Product Desc: Autodesk Architectural Desktop 2007 |Company: Autodesk,Inc. |WEB Address: www.autodesk.com
 90
    32897
280
     0
281
     0
  0
CLASS
  1
AEC_AECDBDISPREPSPACEBOUNDARYPLAN50
  2
AecDbDispRepSpaceBoundaryPlan50
  3
AecArchDACHBase50|Product Desc: Autodesk Architectural Desktop 2007 |Company: Autodesk,Inc. |WEB Address: www.autodesk.com
 90
    32897
280
     0
281
     0
  0
CLASS
  1
AEC_AECDBDISPREPSPACEPLAN50
  2
AecDbDispRepSpacePlan50
  3
AecArchDACHBase50|Product Desc: Autodesk Architectural Desktop 2007 |Company: Autodesk,Inc. |WEB Address: www.autodesk.com
 90
    32897
280
     0
281
     0
  0
CLASS
  1
AEC_AECDBDISPREPWALLPLAN50
  2
AecDbDispRepWallPlan50
  3
AecArchDACHBase50|Product Desc: Autodesk Architectural Desktop 2007 |Company: Autodesk,Inc. |WEB Address: www.autodesk.com
 90
    32897
280
     0
281
     0
  0
CLASS
  1
AEC_AECDBDISPREPWINDOWASSEMBLYPLAN50
  2
AecDbDispRepWindowAssemblyPlan50
  3
AecArchDACHBase50|Product Desc: Autodesk Architectural Desktop 2007 |Company: Autodesk,Inc. |WEB Address: www.autodesk.com
 90
    32897
280
     0
281
     0
  0
CLASS
  1
AEC_DB_DISP_REP_DIM_GROUP_PLAN100
  2
AecDbDispRepDimGroupPlan100
  3
AecArchDACHBase50|Product Desc: Autodesk Architectural Desktop 2007 |Company: Autodesk,Inc. |WEB Address: www.autodesk.com
 90
    32897
280
     0
281
     0
  0
CLASS
  1
AEC_DB_DISP_REP_DIM_GROUP_PLAN50
  2
AecDbDispRepDimGroupPlan50
  3
AecArchDACHBase50|Product Desc: Autodesk Architectural Desktop 2007 |Company: Autodesk,Inc. |WEB Address: www.autodesk.com
 90
    32897
280
     0
281
     0
  0
CLASS
  1
AEC_DISP_REP_DOOR_PLAN_50
  2
AecDbDispRepDoorPlan50
  3
AecArchDACHBase50|Product Desc: Autodesk Architectural Desktop 2007 |Company: Autodesk,Inc. |WEB Address: www.autodesk.com
 90
    32897
280
     0
281
     0
  0
CLASS
  1
AEC_DISP_PROPS_DOOR_PLAN_50
  2
AecDbDispPropsDoorPlan50
  3
AecArchDACHBase50|Product Desc: Autodesk Architectural Desktop 2007 |Company: Autodesk,Inc. |WEB Address: www.autodesk.com
 90
    32897
280
     0
281
     0
  0
CLASS
  1
AEC_DISP_REP_DOOR_PLAN_HEKTO
  2
AecDbDispRepDoorPlanHekto
  3
AecArchDACHBase50|Product Desc: Autodesk Architectural Desktop 2007 |Company: Autodesk,Inc. |WEB Address: www.autodesk.com
 90
    32897
280
     0
281
     0
  0
CLASS
  1
AEC_DISP_PROPS_DOOR_PLAN_100
  2
AecDbDispPropsDoorPlan100
  3
AecArchDACHBase50|Product Desc: Autodesk Architectural Desktop 2007 |Company: Autodesk,Inc. |WEB Address: www.autodesk.com
 90
    32897
280
     0
281
     0
  0
CLASS
  1
AEC_DISP_REP_DOOR_THRESHOLD_SYMBOL_PLAN
  2
AecDbDispRepDoorThresholdSymbolPlan
  3
AecArchDACHBase50|Product Desc: Autodesk Architectural Desktop 2007 |Company: Autodesk,Inc. |WEB Address: www.autodesk.com
 90
    32897
280
     0
281
     0
  0
CLASS
  1
AEC_DISP_PROPS_DOOR_THRESHOLD_SYMBOL_PLAN
  2
AecDbDispPropsDoorThresholdSymbolPlan
  3
AecArchDACHBase50|Product Desc: Autodesk Architectural Desktop 2007 |Company: Autodesk,Inc. |WEB Address: www.autodesk.com
 90
    32897
280
     0
281
     0
  0
CLASS
  1
AEC_DISPREPAECDBDISPREPMASSELEMPLAN100
  2
AecDbDispRepMassElemPlan100
  3
AecArchDACHBase50|Product Desc: Autodesk Architectural Desktop 2007 |Company: Autodesk,Inc. |WEB Address: www.autodesk.com
 90
    32897
280
     0
281
     0
  0
CLASS
  1
AEC_DISPROPSMASSELEMPLANCOMMON
  2
AecDbDispPropsMassElemPlanCommon
  3
AecArchDACHBase50|Product Desc: Autodesk Architectural Desktop 2007 |Company: Autodesk,Inc. |WEB Address: www.autodesk.com
 90
    32897
280
     0
281
     0
  0
CLASS
  1
AEC_DISPREPAECDBDISPREPMASSELEMPLAN50
  2
AecDbDispRepMassElemPlan50
  3
AecArchDACHBase50|Product Desc: Autodesk Architectural Desktop 2007 |Company: Autodesk,Inc. |WEB Address: www.autodesk.com
 90
    32897
280
     0
281
     0
  0
CLASS
  1
AEC_DISPREPAECDBDISPREPMASSGROUPPLAN100
  2
AecDbDispRepMassGroupPlan100
  3
AecArchDACHBase50|Product Desc: Autodesk Architectural Desktop 2007 |Company: Autodesk,Inc. |WEB Address: www.autodesk.com
 90
    32897
280
     0
281
     0
  0
CLASS
  1
AEC_DISPROPSMASSGROUPPLANCOMMON
  2
AecDbDispPropsMassGroupPlanCommon
  3
AecArchDACHBase50|Product Desc: Autodesk Architectural Desktop 2007 |Company: Autodesk,Inc. |WEB Address: www.autodesk.com
 90
    32897
280
     0
281
     0
  0
CLASS
  1
AEC_DISPREPAECDBDISPREPMASSGROUPPLAN50
  2
AecDbDispRepMassGroupPlan50
  3
AecArchDACHBase50|Product Desc: Autodesk Architectural Desktop 2007 |Company: Autodesk,Inc. |WEB Address: www.autodesk.com
 90
    32897
280
     0
281
     0
  0
CLASS
  1
AEC_DISPREPAECDBDISPREPOPENINGPLAN100
  2
AecDbDispRepOpeningPlan100
  3
AecArchDACHBase50|Product Desc: Autodesk Architectural Desktop 2007 |Company: Autodesk,Inc. |WEB Address: www.autodesk.com
 90
    32897
280
     0
281
     0
  0
CLASS
  1
AEC_DISPROPSOPENINGPLANCOMMONHATCHED
  2
AecDbDispPropsOpeningPlanCommonHatched
  3
AecArchDACHBase50|Product Desc: Autodesk Architectural Desktop 2007 |Company: Autodesk,Inc. |WEB Address: www.autodesk.com
 90
    32897
280
     0
281
     0
  0
CLASS
  1
AEC_DISPREPAECDBDISPREPOPENINGPLAN50
  2
AecDbDispRepOpeningPlan50
  3
AecArchDACHBase50|Product Desc: Autodesk Architectural Desktop 2007 |Company: Autodesk,Inc. |WEB Address: www.autodesk.com
 90
    32897
280
     0
281
     0
  0
CLASS
  1
AEC_DISPREPAECDBDISPREPOPENINGPLANREFLECTED
  2
AecDbDispRepOpeningPlanReflected
  3
AecArchDACHBase50|Product Desc: Autodesk Architectural Desktop 2007 |Company: Autodesk,Inc. |WEB Address: www.autodesk.com
 90
    32897
280
     0
281
     0
  0
CLASS
  1
AEC_DISPROPSOPENINGPLANCOMMON
  2
AecDbDispPropsOpeningPlanCommon
  3
AecArchDACHBase50|Product Desc: Autodesk Architectural Desktop 2007 |Company: Autodesk,Inc. |WEB Address: www.autodesk.com
 90
    32897
280
     0
281
     0
  0
CLASS
  1
AEC_DISPREPAECDBDISPREPOPENINGSILLPLAN
  2
AecDbDispRepOpeningSillPlan
  3
AecArchDACHBase50|Product Desc: Autodesk Architectural Desktop 2007 |Company: Autodesk,Inc. |WEB Address: www.autodesk.com
 90
    32897
280
     0
281
     0
  0
CLASS
  1
AEC_DISPROPSOPENINGSILLPLAN
  2
AecDbDispPropsOpeningSillPlan
  3
AecArchDACHBase50|Product Desc: Autodesk Architectural Desktop 2007 |Company: Autodesk,Inc. |WEB Address: www.autodesk.com
 90
    32897
280
     0
281
     0
  0
CLASS
  1
AEC_DISP_REP_RAILING_PLAN_100
  2
AecDbDispRepRailingPlan100
  3
AecArchDACHBase50|Product Desc: Autodesk Architectural Desktop 2007 |Company: Autodesk,Inc. |WEB Address: www.autodesk.com
 90
    32897
280
     0
281
     0
  0
CLASS
  1
AEC_DISP_ROPS_RAILING_PLAN_100
  2
AecDbDispPropsRailingPlan100
  3
AecArchDACHBase50|Product Desc: Autodesk Architectural Desktop 2007 |Company: Autodesk,Inc. |WEB Address: www.autodesk.com
 90
    32897
280
     0
281
     0
  0
CLASS
  1
AEC_DISP_REP_RAILING_PLAN_50
  2
AecDbDispRepRailingPlan50
  3
AecArchDACHBase50|Product Desc: Autodesk Architectural Desktop 2007 |Company: Autodesk,Inc. |WEB Address: www.autodesk.com
 90
    32897
280
     0
281
     0
  0
CLASS
  1
AEC_DISP_ROPS_RAILING_PLAN_50
  2
AecDbDispPropsRailingPlan50
  3
AecArchDACHBase50|Product Desc: Autodesk Architectural Desktop 2007 |Company: Autodesk,Inc. |WEB Address: www.autodesk.com
 90
    32897
280
     0
281
     0
  0
CLASS
  1
AEC_DISP_REP_STAIR_PLAN_100
  2
AecDbDispRepStairPlan100
  3
AecArchDACHBase50|Product Desc: Autodesk Architectural Desktop 2007 |Company: Autodesk,Inc. |WEB Address: www.autodesk.com
 90
    32897
280
     0
281
     0
  0
CLASS
  1
AEC_DISP_ROPS_STAIR_PLAN_100
  2
AecDbDispPropsStairPlan100
  3
AecArchDACHBase50|Product Desc: Autodesk Architectural Desktop 2007 |Company: Autodesk,Inc. |WEB Address: www.autodesk.com
 90
    32897
280
     0
281
     0
  0
CLASS
  1
AEC_DISP_REP_STAIR_PLAN_50
  2
AecDbDispRepStairPlan50
  3
AecArchDACHBase50|Product Desc: Autodesk Architectural Desktop 2007 |Company: Autodesk,Inc. |WEB Address: www.autodesk.com
 90
    32897
280
     0
281
     0
  0
CLASS
  1
AEC_DISP_ROPS_STAIR_PLAN_50
  2
AecDbDispPropsStairPlan50
  3
AecArchDACHBase50|Product Desc: Autodesk Architectural Desktop 2007 |Company: Autodesk,Inc. |WEB Address: www.autodesk.com
 90
    32897
280
     0
281
     0
  0
CLASS
  1
AEC_DISP_REP_WINDOW_PLAN_100
  2
AecDbDispRepWindowPlan100
  3
AecArchDACHBase50|Product Desc: Autodesk Architectural Desktop 2007 |Company: Autodesk,Inc. |WEB Address: www.autodesk.com
 90
    32897
280
     0
281
     0
  0
CLASS
  1
AEC_DISP_PROPS_WINDOW_PLAN_100
  2
AecDbDispPropsWindowPlan100
  3
AecArchDACHBase50|Product Desc: Autodesk Architectural Desktop 2007 |Company: Autodesk,Inc. |WEB Address: www.autodesk.com
 90
    32897
280
     0
281
     0
  0
CLASS
  1
AEC_DISP_REP_WINDOW_PLAN_50
  2
AecDbDispRepWindowPlan50
  3
AecArchDACHBase50|Product Desc: Autodesk Architectural Desktop 2007 |Company: Autodesk,Inc. |WEB Address: www.autodesk.com
 90
    32897
280
     0
281
     0
  0
CLASS
  1
AEC_DISP_PROPS_WINDOW_PLAN_50
  2
AecDbDispPropsWindowPlan50
  3
AecArchDACHBase50|Product Desc: Autodesk Architectural Desktop 2007 |Company: Autodesk,Inc. |WEB Address: www.autodesk.com
 90
    32897
280
     0
281
     0
  0
CLASS
  1
BINRECORD
  2
AcAecBinRecord
  3
AecBase50|Product Desc: Autodesk Architectural Desktop 2007 |Company: Autodesk,Inc. |WEB Address: www.autodesk.com
 90
    32897
280
     0
281
     0
  0
CLASS
  1
SPATIAL_FILTER
  2
AcDbSpatialFilter
  3
ObjectDBX Classes
 90
    32768
280
     0
281
     0
  0
CLASS
  1
AEC_VARS_STRUCTUREBASE
  2
AecsDbVarsStructureBase
  3
AecStructureBase50|Product Desc: Autodesk Architectural Desktop 2007 |Company: Autodesk,Inc. |WEB Address: www.autodesk.com
 90
    32897
280
     0
281
     0
  0
CLASS
  1
DIMASSOC
  2
AcDbDimAssoc
  3
"AcDbDimAssoc|Product Desc:     AcDim ARX App For Dimension|Company:          Autodesk, Inc.|WEB Address:      www.autodesk.com"
 90
    32768
280
     0
281
     0
  0
CLASS
  1
TABLESTYLE
  2
AcDbTableStyle
  3
ObjectDBX Classes
 90
     4095
280
     0
281
     0
  0
CLASS
  1
MATERIAL
  2
AcDbMaterial
  3
ObjectDBX Classes
 90
     1153
280
     0
281
     0
  0
CLASS
  1
VISUALSTYLE
  2
AcDbVisualStyle
  3
ObjectDBX Classes
 90
     4095
280
     0
281
     0
  0
CLASS
  1
EXACXREFPANELOBJECT
  2
ExAcXREFPanelObject
  3
EXAC_ESW
 90
    33793
280
     1
281
     0
  0
CLASS
  1
NPOCOLLECTION
  2
AcDbImpNonPersistentObjectsCollection
  3
ObjectDBX Classes
 90
    33921
280
     0
281
     0
  0
CLASS
  1
AEC_AECDBDISPREPZONE100
  2
AecDbDispRepZonePlan100
  3
AecArchDACHBase50|Product Desc: Autodesk Architectural Desktop 2007 |Company: Autodesk,Inc. |WEB Address: www.autodesk.com
 90
    32897
280
     0
281
     0
  0
CLASS
  1
AEC_DISP_PROPS_ZONE
  2
AecDbDispPropsZone
  3
AecArchBase50|Product Desc: Autodesk Architectural Desktop 2007 |Company: Autodesk,Inc. |WEB Address: www.autodesk.com
 90
    32897
280
     0
281
     0
  0
CLASS
  1
AEC_AECDBDISPREPZONE50
  2
AecDbDispRepZonePlan50
  3
AecArchDACHBase50|Product Desc: Autodesk Architectural Desktop 2007 |Company: Autodesk,Inc. |WEB Address: www.autodesk.com
 90
    32897
280
     0
281
     0
  0
CLASS
  1
AEC_DISP_REP_DISPLAYTHEME
  2
AecDbDispRepDisplayTheme
  3
AecBase50|Product Desc: Autodesk Architectural Desktop 2007 |Company: Autodesk,Inc. |WEB Address: www.autodesk.com
 90
    32897
280
     0
281
     0
  0
CLASS
  1
AEC_DISP_PROPS_DISPLAYTHEME
  2
AecDbDispPropsDisplayTheme
  3
AecBase50|Product Desc: Autodesk Architectural Desktop 2007 |Company: Autodesk,Inc. |WEB Address: www.autodesk.com
 90
    32897
280
     0
281
     0
  0
CLASS
  1
AEC_DISP_REP_ANCHOR_EXT_TAG_TO_ENT
  2
AecDbDispRepAnchorExtendedTagToEnt
  3
AecScheduleData50|Product Desc: Autodesk Architectural Desktop 2007 |Company: Autodesk,Inc. |WEB Address: www.autodesk.com
 90
    32897
280
     0
281
     0
  0
CLASS
  1
AEC_DISP_REP_SPACE_DECOMPOSED
  2
AecDbDispRepSpaceDecomposed
  3
AecArchBase50|Product Desc: Autodesk Architectural Desktop 2007 |Company: Autodesk,Inc. |WEB Address: www.autodesk.com
 90
    32897
280
     0
281
     0
  0
CLASS
  1
AEC_DISP_PROPS_SPACE_DECOMPOSED
  2
AecDbDispPropsSpaceDecomposed
  3
AecArchBase50|Product Desc: Autodesk Architectural Desktop 2007 |Company: Autodesk,Inc. |WEB Address: www.autodesk.com
 90
    32897
280
     0
281
     0
  0
CLASS
  1
AEC_DISP_REP_ZONE
  2
AecDbDispRepZone
  3
AecArchBase50|Product Desc: Autodesk Architectural Desktop 2007 |Company: Autodesk,Inc. |WEB Address: www.autodesk.com
 90
    32897
280
     0
281
     0
  0
CLASS
  1
ACAD_EVALUATION_GRAPH
  2
AcDbEvalGraph
  3
ObjectDBX Classes
 90
    33921
280
     0
281
     0
  0
CLASS
  1
BLOCKFLIPPARAMETER
  2
AcDbBlockFlipParameter
  3
ObjectDBX Classes
 90
    33921
280
     0
281
     0
  0
CLASS
  1
BLOCKFLIPGRIP
  2
AcDbBlockFlipGrip
  3
ObjectDBX Classes
 90
    33921
280
     0
281
     0
  0
CLASS
  1
BLOCKGRIPLOCATIONCOMPONENT
  2
AcDbBlockGripExpr
  3
ObjectDBX Classes
 90
    33921
280
     0
281
     0
  0
CLASS
  1
BLOCKFLIPACTION
  2
AcDbBlockFlipAction
  3
ObjectDBX Classes
 90
    33921
280
     0
281
     0
  0
CLASS
  1
BLOCKROTATIONPARAMETER
  2
AcDbBlockRotationParameter
  3
ObjectDBX Classes
 90
    33921
280
     0
281
     0
  0
CLASS
  1
BLOCKROTATIONGRIP
  2
AcDbBlockRotationGrip
  3
ObjectDBX Classes
 90
    33921
280
     0
281
     0
  0
CLASS
  1
BLOCKROTATEACTION
  2
AcDbBlockRotateAction
  3
ObjectDBX Classes
 90
    33921
280
     0
281
     0
  0
CLASS
  1
BLOCKBASEPOINTPARAMETER
  2
AcDbBlockBasepointParameter
  3
ObjectDBX Classes
 90
    33921
280
     0
281
     0
  0
CLASS
  1
ACDB_DYNAMICBLOCKPURGEPREVENTER_VERSION
  2
AcDbDynamicBlockPurgePreventer
  3
ObjectDBX Classes
 90
    33921
280
     0
281
     0
  0
CLASS
  1
ACDB_BLOCKREPRESENTATION_DATA
  2
AcDbBlockRepresentationData
  3
ObjectDBX Classes
 90
    33921
280
     0
281
     0
  0
CLASS
  1
BLOCKVISIBILITYPARAMETER
  2
AcDbBlockVisibilityParameter
  3
ObjectDBX Classes
 90
    33921
280
     0
281
     0
  0
CLASS
  1
BLOCKVISIBILITYGRIP
  2
AcDbBlockVisibilityGrip
  3
ObjectDBX Classes
 90
    33921
280
     0
281
     0
  0
CLASS
  1
BLOCKLINEARPARAMETER
  2
AcDbBlockLinearParameter
  3
ObjectDBX Classes
 90
    33921
280
     0
281
     0
  0
CLASS
  1
BLOCKSTRETCHACTION
  2
AcDbBlockStretchAction
  3
ObjectDBX Classes
 90
    33921
280
     0
281
     0
  0
CLASS
  1
BLOCKLOOKUPPARAMETER
  2
AcDbBlockLookupParameter
  3
ObjectDBX Classes
 90
    33921
280
     0
281
     0
  0
CLASS
  1
BLOCKLOOKUPGRIP
  2
AcDbBlockLookupGrip
  3
ObjectDBX Classes
 90
    33921
280
     0
281
     0
  0
CLASS
  1
BLOCKLOOKUPACTION
  2
AcDbBlockLookupAction
  3
ObjectDBX Classes
 90
    33921
280
     0
281
     0
  0
CLASS
  1
BLOCKMOVEACTION
  2
AcDbBlockMoveAction
  3
ObjectDBX Classes
 90
    33921
280
     0
281
     0
  0
CLASS
  1
BLOCKLINEARGRIP
  2
AcDbBlockLinearGrip
  3
ObjectDBX Classes
 90
    33921
280
     0
281
     0
  0
CLASS
  1
OBJECT_PTR
  2
CAseDLPNTableRecord
  3
ASE-LPNTableRecord
 90
        1
280
     0
281
     0
  0
CLASS
  1
SCALE
  2
AcDbScale
  3
ObjectDBX Classes
 90
     1153
280
     0
281
     0
  0
CLASS
  1
MLEADERSTYLE
  2
AcDbMLeaderStyle
  3
ACDB_MLEADERSTYLE_CLASS
 90
    36863
280
     0
281
     0
  0
CLASS
  1
CELLSTYLEMAP
  2
AcDbCellStyleMap
  3
ObjectDBX Classes
 90
     1152
280
     0
281
     0
  0
CLASS
  1
AEC_REFEDIT_STATUS_TRACKER
  2
AecDbRefEditStatusTracker
  3
AecArchBase50|Product Desc: Autodesk Architectural Desktop 2007 |Company: Autodesk,Inc. |WEB Address: www.autodesk.com
 90
    32897
280
     0
281
     0
  0
CLASS
  1
AEC_MVBLOCK_REF
  2
AecDbMvBlockRef
  3
AecBase50|Product Desc: Autodesk Architectural Desktop 2007 |Company: Autodesk,Inc. |WEB Address: www.autodesk.com
 90
    33661
280
     0
281
     1
  0
CLASS
  1
AEC_ANCHOR_MVB_TO_UCS
  2
AecDbAnchorMVBToUCS
  3
AecBase50|Product Desc: Autodesk Architectural Desktop 2007 |Company: Autodesk,Inc. |WEB Address: www.autodesk.com
 90
    32897
280
     0
281
     0
  0
CLASS
  1
AEC_CLASSIFICATION_SYSTEM_DEF
  2
AecDbClassificationSystemDef
  3
AecBase50|Product Desc: Autodesk Architectural Desktop 2007 |Company: Autodesk,Inc. |WEB Address: www.autodesk.com
 90
    32897
280
     0
281
     0
  0
CLASS
  1
AEC_CLASSIFICATION_DEF
  2
AecDbClassificationDef
  3
AecBase50|Product Desc: Autodesk Architectural Desktop 2007 |Company: Autodesk,Inc. |WEB Address: www.autodesk.com
 90
    32897
280
     0
281
     0
  0
CLASS
  1
AEC_MVBLOCK_DEF
  2
AecDbMvBlockDef
  3
AecBase50|Product Desc: Autodesk Architectural Desktop 2007 |Company: Autodesk,Inc. |WEB Address: www.autodesk.com
 90
    32897
280
     0
281
     0
  0
CLASS
  1
AEC_SPACE
  2
AecDbSpace
  3
AecArchBase50|Product Desc: Autodesk Architectural Desktop 2007 |Company: Autodesk,Inc. |WEB Address: www.autodesk.com
 90
    33661
280
     0
281
     1
  0
CLASS
  1
AecDbPropertySet
  2
AecDbPropertySet
  3
AecScheduleData50|Product Desc: Autodesk Architectural Desktop 2007 |Company: Autodesk,Inc. |WEB Address: www.autodesk.com
 90
    32897
280
     0
281
     0
  0
CLASS
  1
AEC_CLEANUP_GROUP_DEF
  2
AecDbCleanupGroupDef
  3
AecArchBase50|Product Desc: Autodesk Architectural Desktop 2007 |Company: Autodesk,Inc. |WEB Address: www.autodesk.com
 90
    32897
280
     0
281
     0
  0
CLASS
  1
AEC_ENDCAP_STYLE
  2
AecDbEndcapStyle
  3
AecArchBase50|Product Desc: Autodesk Architectural Desktop 2007 |Company: Autodesk,Inc. |WEB Address: www.autodesk.com
 90
    32897
280
     0
281
     0
  0
CLASS
  1
AEC_LIST_DEF
  2
AecDbListDefinition
  3
AecBase50|Product Desc: Autodesk Architectural Desktop 2007 |Company: Autodesk,Inc. |WEB Address: www.autodesk.com
 90
    32897
280
     0
281
     0
  0
CLASS
  1
AEC_LIST_DEF
  2
AecDbListItem
  3
AecBase50|Product Desc: Autodesk Architectural Desktop 2007 |Company: Autodesk,Inc. |WEB Address: www.autodesk.com
 90
    32897
280
     0
281
     0
  0
CLASS
  1
AEC_MATERIAL_DEF
  2
AecDbMaterialDef
  3
AecBase50|Product Desc: Autodesk Architectural Desktop 2007 |Company: Autodesk,Inc. |WEB Address: www.autodesk.com
 90
    32897
280
     0
281
     0
  0
CLASS
  1
AEC_FRAME_DEF
  2
AecDbOpeningEndcapStyle
  3
AecArchBase50|Product Desc: Autodesk Architectural Desktop 2007 |Company: Autodesk,Inc. |WEB Address: www.autodesk.com
 90
    32897
280
     0
281
     0
  0
CLASS
  1
AEC_SCHEDULE_DATA_FORMAT
  2
AecDbScheduleDataFormat
  3
AecScheduleData50|Product Desc: Autodesk Architectural Desktop 2007 |Company: Autodesk,Inc. |WEB Address: www.autodesk.com
 90
    32897
280
     0
281
     0
  0
CLASS
  1
AEC_PROPERTY_SET_DEF
  2
AecDbPropertySetDef
  3
AecScheduleData50|Product Desc: Autodesk Architectural Desktop 2007 |Company: Autodesk,Inc. |WEB Address: www.autodesk.com
 90
    32897
280
     0
281
     0
  0
CLASS
  1
AEC_ROOFSLAB_STYLE
  2
AecDbRoofSlabStyle
  3
AecArchBase50|Product Desc: Autodesk Architectural Desktop 2007 |Company: Autodesk,Inc. |WEB Address: www.autodesk.com
 90
    32897
280
     0
281
     0
  0
CLASS
  1
AEC_ROOFSLABEDGE_STYLE
  2
AecDbRoofSlabEdgeStyle
  3
AecArchBase50|Product Desc: Autodesk Architectural Desktop 2007 |Company: Autodesk,Inc. |WEB Address: www.autodesk.com
 90
    32897
280
     0
281
     0
  0
CLASS
  1
AEC_SLAB_STYLE
  2
AecDbSlabStyle
  3
AecArchBase50|Product Desc: Autodesk Architectural Desktop 2007 |Company: Autodesk,Inc. |WEB Address: www.autodesk.com
 90
    32897
280
     0
281
     0
  0
CLASS
  1
AEC_SLABEDGE_STYLE
  2
AecDbSlabEdgeStyle
  3
AecArchBase50|Product Desc: Autodesk Architectural Desktop 2007 |Company: Autodesk,Inc. |WEB Address: www.autodesk.com
 90
    32897
280
     0
281
     0
  0
CLASS
  1
AEC_SPACE_STYLES
  2
AecDbSpaceStyle
  3
AecArchBase50|Product Desc: Autodesk Architectural Desktop 2007 |Company: Autodesk,Inc. |WEB Address: www.autodesk.com
 90
    32897
280
     0
281
     0
  0
CLASS
  1
AEC_WALL_STYLE
  2
AecDbWallStyle
  3
AecArchBase50|Product Desc: Autodesk Architectural Desktop 2007 |Company: Autodesk,Inc. |WEB Address: www.autodesk.com
 90
    32897
280
     0
281
     0
  0
CLASS
  1
AEC_SCHEDULE_TABLE_STYLE
  2
AecDbScheduleTableStyle
  3
AecSchedule50|Product Desc: Autodesk Architectural Desktop 2007 |Company: Autodesk,Inc. |WEB Address: www.autodesk.com
 90
    32897
280
     0
281
     0
  0
CLASS
  1
AEC_SCHEDULE_TABLE
  2
AecDbScheduleTable
  3
AecSchedule50|Product Desc: Autodesk Architectural Desktop 2007 |Company: Autodesk,Inc. |WEB Address: www.autodesk.com
 90
    33661
280
     0
281
     1
  0
CLASS
  1
SOLID_BACKGROUND
  2
AcDbSolidBackground
  3
SCENEOE
 90
    36863
280
     0
281
     0
  0
ENDSEC
  0
SECTION
  2
TABLES
  0
TABLE
  2
VPORT
  5
322
330
0
100
AcDbSymbolTable
 70
     1
  0
VPORT
  5
323
330
322
100
AcDbSymbolTableRecord
100
AcDbViewportTableRecord
  2
*Active
 70
     0
 10
0.0
 20
0.0
 11
1.0
 21
1.0
 12
217256.7991196583
 22
135531.4795271554
 13
0.0
 23
0.0
 14
10.0
 24
10.0
 15
10.0
 25
10.0
 16
0.0
 26
0.0
 36
1.0
 17
0.0
 27
0.0
 37
0.0
 40
20075.05625169258
 41
1.765927977839335
 42
50.0
 43
0.0
 44
0.0
 50
0.0
 51
0.0
 71
     0
 72
  1000
 73
     1
 74
     1
 75
     0
 76
     0
 77
     0
 78
     0
281
     0
 65
     1
110
0.0
120
0.0
130
0.0
111
1.0
121
0.0
131
0.0
112
0.0
122
1.0
132
0.0
 79
     0
146
0.0
  0
ENDTAB
  0
TABLE
  2
LTYPE
  5
31D
330
0
100
AcDbSymbolTable
 70
     2
  0
LTYPE
  5
31E
330
31D
100
AcDbSymbolTableRecord
100
AcDbLinetypeTableRecord
  2
ByBlock
 70
     0
  3

 72
    65
 73
     0
 40
0.0
  0
LTYPE
  5
31F
330
31D
100
AcDbSymbolTableRecord
100
AcDbLinetypeTableRecord
  2
ByLayer
 70
     0
  3

 72
    65
 73
     0
 40
0.0
  0
LTYPE
  5
E
330
31D
100
AcDbSymbolTableRecord
100
AcDbLinetypeTableRecord
  2
Continuous
 70
     0
  3
Solid line
 72
    65
 73
     0
 40
0.0
  0
LTYPE
  5
14
330
31D
100
AcDbSymbolTableRecord
100
AcDbLinetypeTableRecord
  2
HIDDEN
 70
     0
  3
Hidden __ __ __ __ __ __ __ __ __ __ __ __ __ _
 72
    65
 73
     2
 40
0.375
 49
0.25
 74
     0
 49
-0.125
 74
     0
  0
ENDTAB
  0
TABLE
  2
LAYER
  5
315
102
{ACAD_XDICTIONARY
360
316
102
}
330
0
100
AcDbSymbolTable
 70
     8
  0
LAYER
  5
6
102
{ACAD_XDICTIONARY
360
7
102
}
330
315
100
AcDbSymbolTableRecord
100
AcDbLayerTableRecord
  2
0
 70
     0
 62
     7
  6
Continuous
370
    -3
390
9
1001
RAK
1000
{ACET-LAYISO
1070
     0
1070
     7
1000
Continuous
1071
       -3
1071
        1
1005
9
1000
ACET-LAYISO}
  0
LAYER
  5
103
330
315
100
AcDbSymbolTableRecord
100
AcDbLayerTableRecord
  2
DEFPOINTS
 70
     0
 62
     7
  6
Continuous
290
     0
370
    -3
390
9
1001
RAK
1000
{ACET-LAYISO
1070
     0
1070
     7
1000
Continuous
1071
       -3
1071
        0
1005
9
1000
ACET-LAYISO}
  0
LAYER
  5
1C
102
{ACAD_XDICTIONARY
360
1D
102
}
330
315
100
AcDbSymbolTableRecord
100
AcDbLayerTableRecord
  2
RAMKI-A4
 70
     0
 62
     2
  6
Continuous
290
     0
370
    -3
390
9
1001
RAK
1000
{ACET-LAYISO
1070
     0
1070
     2
1000
Continuous
1071
       -3
1071
        0
1005
9
1000
ACET-LAYISO}
  0
LAYER
  5
186
102
{ACAD_XDICTIONARY
360
187
102
}
330
315
100
AcDbSymbolTableRecord
100
AcDbLayerTableRecord
  2
0Wymiary-PL
 70
     0
 62
     1
  6
Continuous
370
     5
390
9
  0
LAYER
  5
16
102
{ACAD_XDICTIONARY
360
17
102
}
330
315
100
AcDbSymbolTableRecord
100
AcDbLayerTableRecord
  2
0Napisy-PL
 70
     0
 62
   140
  6
Continuous
370
    15
390
9
1001
RAK
1000
{ACET-LAYISO
1070
     0
1070
   140
1000
Continuous
1071
       15
1071
        1
1005
9
1000
ACET-LAYISO}
  0
LAYER
  5
11
102
{ACAD_XDICTIONARY
360
12
102
}
330
315
100
AcDbSymbolTableRecord
100
AcDbLayerTableRecord
  2
0Napisy
 70
     0
 62
   140
  6
Continuous
370
    15
390
9
1001
RAK
1000
{ACET-LAYISO
1070
     0
1070
    33
1000
Continuous
1071
       18
1071
        1
1005
9
1000
ACET-LAYISO}
  0
LAYER
  5
32F
330
315
100
AcDbSymbolTableRecord
100
AcDbLayerTableRecord
  2
WYMIARY
 70
     0
 62
     1
  6
Continuous
370
    -3
390
9
1001
RAK
1000
{ACET-LAYISO
1070
     0
1070
     1
1000
CONTINUOUS
1071
       -3
1071
        1
1005
9
1000
ACET-LAYISO}
  0
LAYER
  5
18A
330
315
100
AcDbSymbolTableRecord
100
AcDbLayerTableRecord
  2
0Hatch
 70
     0
 62
   122
  6
Continuous
370
     5
390
9
  0
ENDTAB
  0
TABLE
  2
STYLE
  5
31A
330
0
100
AcDbSymbolTable
 70
     4
  0
STYLE
  5
31B
330
31A
100
AcDbSymbolTableRecord
100
AcDbTextStyleTableRecord
  2
Standard
 70
     0
 40
0.0
 41
1.0
 50
0.0
 71
     0
 42
2.5
  3
txt
  4

  0
STYLE
  5
101
330
31A
100
AcDbSymbolTableRecord
100
AcDbTextStyleTableRecord
  2
ROMANS
 70
     0
 40
0.0
 41
0.9
 50
0.0
 71
     0
 42
20.0
  3
romans.shx
  4

  0
STYLE
  5
19
330
31A
100
AcDbSymbolTableRecord
100
AcDbTextStyleTableRecord
  2
AVA
 70
     0
 40
0.0
 41
1.0
 50
0.0
 71
     0
 42
158.5644099714409
  3
ARIAL.TTF
  4

1001
ACAD
1000
Arial CE
1071
    60962
  0
STYLE
  5
20
330
31A
100
AcDbSymbolTableRecord
100
AcDbTextStyleTableRecord
  2
ARIAL
 70
     0
 40
0.0
 41
1.0
 50
0.0
 71
     0
 42
20.0
  3
ARIAL.TTF
  4

1001
ACAD
1000
Arial CE
1071
    60962
  0
ENDTAB
  0
TABLE
  2
VIEW
  5
320
330
0
100
AcDbSymbolTable
 70
     1
  0
VIEW
  5
307
330
320
100
AcDbSymbolTableRecord
100
AcDbViewTableRecord
  2
RODODENDRON 5
 70
     0
 40
14020.0
 10
220287.1664355166
 20
148687.514558954
 41
10200.00000000003
 11
0.0
 21
0.0
 31
1.0
 12
0.0
 22
0.0
 32
0.0
 42
50.0
 43
0.0
 44
0.0
 50
0.0
 71
     0
281
     0
 72
     1
110
0.0
120
0.0
130
0.0
111
1.0
121
0.0
131
0.0
112
0.0
122
1.0
132
0.0
 79
     0
146
0.0
  0
ENDTAB
  0
TABLE
  2
UCS
  5
321
330
0
100
AcDbSymbolTable
 70
     0
  0
ENDTAB
  0
TABLE
  2
APPID
  5
324
330
0
100
AcDbSymbolTable
 70
     5
  0
APPID
  5
1A
330
324
100
AcDbSymbolTableRecord
100
AcDbRegAppTableRecord
  2
ACAD
 70
     0
  0
APPID
  5
F
330
324
100
AcDbSymbolTableRecord
100
AcDbRegAppTableRecord
  2
RAK
 70
     0
  0
APPID
  5
30A
330
324
100
AcDbSymbolTableRecord
100
AcDbRegAppTableRecord
  2
ACAD_PSEXT
 70
     0
  0
APPID
  5
22
330
324
100
AcDbSymbolTableRecord
100
AcDbRegAppTableRecord
  2
DCO15
 70
     0
  0
APPID
  5
21
330
324
100
AcDbSymbolTableRecord
100
AcDbRegAppTableRecord
  2
AcDbBlockRepETag
 70
     0
  0
ENDTAB
  0
TABLE
  2
DIMSTYLE
  5
325
330
0
100
AcDbSymbolTable
 70
     3
100
AcDbDimStyleTable
 71
     3
340
326
340
107
340
331
  0
DIMSTYLE
105
107
102
{ACAD_REACTORS
330
F2
330
108
330
113
330
11E
330
129
330
134
330
13F
330
14C
330
157
330
164
330
16F
330
17A
330
192
330
268
330
273
330
27E
330
289
330
294
330
29F
330
2AA
330
2B7
330
2C2
330
2CF
330
2DA
330
2E5
330
2F7
102
}
330
325
100
AcDbSymbolTableRecord
100
AcDbDimStyleTableRecord
  2
500
 70
     0
 41
30.0
 42
43.0
 43
0.0
 44
13.0
 45
0.5
 46
12.0
 73
     0
 74
     0
 75
     1
 76
     1
 78
    12
140
80.0
141
0.0
145
1.0
147
0.0
172
     1
174
     1
176
     1
177
     1
178
   140
271
     1
272
     1
279
     2
340
101
341
F7
342
F7
  0
DIMSTYLE
105
331
330
325
100
AcDbSymbolTableRecord
100
AcDbDimStyleTableRecord
  2
Standard
 70
     0
340
31B
  0
DIMSTYLE
105
326
330
325
100
AcDbSymbolTableRecord
100
AcDbDimStyleTableRecord
  2
100-PRw
 70
     0
 41
1.0
 42
43.0
 43
24.0
 44
13.0
 45
0.5
 46
12.0
 73
     0
 74
     0
 75
     1
 76
     1
 77
     1
 78
     8
140
30.0
141
0.0
145
1.0
147
8.0
172
     1
174
     1
176
     1
177
     1
178
   140
271
     1
272
     1
279
     2
340
101
341
327
342
32C
371
     5
  0
ENDTAB
  0
TABLE
  2
BLOCK_RECORD
  5
1
330
0
100
AcDbSymbolTable
 70
    29
  0
BLOCK_RECORD
  5
2
102
{ACAD_XDICTIONARY
360
3
102
}
330
1
100
AcDbSymbolTableRecord
100
AcDbBlockTableRecord
  2
*Model_Space
340
305
  0
BLOCK_RECORD
  5
30B
330
1
100
AcDbSymbolTableRecord
100
AcDbBlockTableRecord
  2
*Paper_Space
340
312
  0
BLOCK_RECORD
  5
F7
102
{ACAD_XDICTIONARY
360
F8
102
}
330
1
100
AcDbSymbolTableRecord
100
AcDbBlockTableRecord
  2
B-DIM
340
0
102
{BLKREFS
331
12D
331
12E
331
150
331
151
331
198
331
199
331
F6
331
FF
331
10C
331
10D
331
117
331
118
331
122
331
123
331
17E
331
17F
331
173
331
174
331
168
331
169
331
15D
331
15E
331
145
331
146
331
138
331
139
331
26C
331
26D
331
277
331
278
331
282
331
283
331
28D
331
28E
331
298
331
299
331
2A3
331
2A4
331
2B0
331
2B1
331
2BB
331
2BC
331
2C8
331
2C9
331
2D3
331
2D4
331
2DE
331
2DF
331
2E9
331
2EA
331
2FD
331
2FE
102
}
  0
BLOCK_RECORD
  5
327
330
1
100
AcDbSymbolTableRecord
100
AcDbBlockTableRecord
  2
_Dot
340
0
  0
BLOCK_RECORD
  5
32C
330
1
100
AcDbSymbolTableRecord
100
AcDbBlockTableRecord
  2
B-DIM_W
340
0
310
2800000020000000200000000100080000000000000400000000000000000000000000000000000000000000000080000080000000808000800000008000800080800000C0C0C000C0DCC000F0CAA6000020400000206000002080000020A0000020C0000020E00000400000004020000040400000406000004080000040A0
310
000040C0000040E00000600000006020000060400000606000006080000060A0000060C0000060E00000800000008020000080400000806000008080000080A0000080C0000080E00000A0000000A0200000A0400000A0600000A0800000A0A00000A0C00000A0E00000C0000000C0200000C0400000C0600000C0800000C0
310
A00000C0C00000C0E00000E0000000E0200000E0400000E0600000E0800000E0A00000E0C00000E0E00040000000400020004000400040006000400080004000A0004000C0004000E00040200000402020004020400040206000402080004020A0004020C0004020E000404000004040200040404000404060004040800040
310
40A0004040C0004040E00040600000406020004060400040606000406080004060A0004060C0004060E00040800000408020004080400040806000408080004080A0004080C0004080E00040A0000040A0200040A0400040A0600040A0800040A0A00040A0C00040A0E00040C0000040C0200040C0400040C0600040C08000
310
40C0A00040C0C00040C0E00040E0000040E0200040E0400040E0600040E0800040E0A00040E0C00040E0E00080000000800020008000400080006000800080008000A0008000C0008000E00080200000802020008020400080206000802080008020A0008020C0008020E00080400000804020008040400080406000804080
310
008040A0008040C0008040E00080600000806020008060400080606000806080008060A0008060C0008060E00080800000808020008080400080806000808080008080A0008080C0008080E00080A0000080A0200080A0400080A0600080A0800080A0A00080A0C00080A0E00080C0000080C0200080C0400080C0600080C0
310
800080C0A00080C0C00080C0E00080E0000080E0200080E0400080E0600080E0800080E0A00080E0C00080E0E000C0000000C0002000C0004000C0006000C0008000C000A000C000C000C000E000C0200000C0202000C0204000C0206000C0208000C020A000C020C000C020E000C0400000C0402000C0404000C0406000C0
310
408000C040A000C040C000C040E000C0600000C0602000C0604000C0606000C0608000C060A000C060C000C060E000C0800000C0802000C0804000C0806000C0808000C080A000C080C000C080E000C0A00000C0A02000C0A04000C0A06000C0A08000C0A0A000C0A0C000C0A0E000C0C00000C0C02000C0C04000C0C06000
310
C0C08000C0C0A000F0FBFF00A4A0A000808080000000FF0000FF000000FFFF00FF000000FF00FF00FFFF0000FFFFFF0000000000000000000000000000000000000000000000000000000000000000000000000000000000000000000000000000000000000000000000000000000000000000000000000000000000000000
310
00000000000000000000000000000000000000000000000000000000000000000000000000000000000000000000000000000000000000000000000000000000000000000000000000000000000000000000000000000000000000000000000000000000000000000000000000000000000000000000000000000000000000
310
00000000000000000000000000000000000000000000000000000000000000000000000000000000000000000000000000000000000000000000000000000000000000000000000000000000000000000000000000000000000000000000000000000000000000000000000000000000000000000000000000000000000000
310
00000000000000000000000000000000000000F9F9F9F9F9F9F900000000000000000000000000000000000000000000000000F9000000000000F9F9F9F9F9F900000000000000000000000000000000000000F9000000000000000000000000F9F9F9F9F90000000000000000000000000000F90000000000000000000000
310
000000000000F9F9F9F9F9F90000000000000000F90000000000000000000000000000000000000000000000F9F9F9F9F9F90000F900000000000000000000000000000000000000000000F9F9F9F9F9F9F90000F90000000000000000000000000000F9F9F9F9F9F9F9F9000000000000000000F900000000000000F9F9F9
310
F9F9F9F90000000000000000000000000000000000F9F9F9F9F9F9F9F90000000000000000000000000000000000000000000000000000000000000000000000000000000000000000000000000000000000000000000000000000000000000000000000000000000000000000000000000000000000000000000000000000
310
00000000000000000000000000000000000000000000000000000000000000000000000000000000000000000000000000000000000000000000000000000000000000000000000000000000000000000000000000000000000000000000000000000000000000000000000000000000000000000000000000000000000000
310
00000000000000000000000000000000000000000000000000000000000000000000000000000000000000000000000000000000000000000000000000000000000000000000000000000000000000000000000000000000000000000000000000000000000000000000000000000000000000000000000000000000000000
310
0000000000000000000000000000000000000000000000000000000000000000000000000000000000000000000000000000000000000000
  0
BLOCK_RECORD
  5
F3
330
1
100
AcDbSymbolTableRecord
100
AcDbBlockTableRecord
  2
*D3
340
0
  0
BLOCK_RECORD
  5
109
330
1
100
AcDbSymbolTableRecord
100
AcDbBlockTableRecord
  2
*D4
340
0
  0
BLOCK_RECORD
  5
114
330
1
100
AcDbSymbolTableRecord
100
AcDbBlockTableRecord
  2
*D5
340
0
  0
BLOCK_RECORD
  5
11F
330
1
100
AcDbSymbolTableRecord
100
AcDbBlockTableRecord
  2
*D6
340
0
  0
BLOCK_RECORD
  5
12A
330
1
100
AcDbSymbolTableRecord
100
AcDbBlockTableRecord
  2
*D7
340
0
  0
BLOCK_RECORD
  5
135
330
1
100
AcDbSymbolTableRecord
100
AcDbBlockTableRecord
  2
*D8
340
0
  0
BLOCK_RECORD
  5
140
330
1
100
AcDbSymbolTableRecord
100
AcDbBlockTableRecord
  2
*D9
340
0
  0
BLOCK_RECORD
  5
14D
330
1
100
AcDbSymbolTableRecord
100
AcDbBlockTableRecord
  2
*D10
340
0
  0
BLOCK_RECORD
  5
158
330
1
100
AcDbSymbolTableRecord
100
AcDbBlockTableRecord
  2
*D11
340
0
  0
BLOCK_RECORD
  5
165
330
1
100
AcDbSymbolTableRecord
100
AcDbBlockTableRecord
  2
*D12
340
0
  0
BLOCK_RECORD
  5
170
330
1
100
AcDbSymbolTableRecord
100
AcDbBlockTableRecord
  2
*D13
340
0
  0
BLOCK_RECORD
  5
17B
330
1
100
AcDbSymbolTableRecord
100
AcDbBlockTableRecord
  2
*D14
340
0
  0
BLOCK_RECORD
  5
193
330
1
100
AcDbSymbolTableRecord
100
AcDbBlockTableRecord
  2
*D15
340
0
  0
BLOCK_RECORD
  5
269
330
1
100
AcDbSymbolTableRecord
100
AcDbBlockTableRecord
  2
*D16
340
0
  0
BLOCK_RECORD
  5
274
330
1
100
AcDbSymbolTableRecord
100
AcDbBlockTableRecord
  2
*D17
340
0
  0
BLOCK_RECORD
  5
27F
330
1
100
AcDbSymbolTableRecord
100
AcDbBlockTableRecord
  2
*D18
340
0
  0
BLOCK_RECORD
  5
28A
330
1
100
AcDbSymbolTableRecord
100
AcDbBlockTableRecord
  2
*D19
340
0
  0
BLOCK_RECORD
  5
295
330
1
100
AcDbSymbolTableRecord
100
AcDbBlockTableRecord
  2
*D20
340
0
  0
BLOCK_RECORD
  5
2A0
330
1
100
AcDbSymbolTableRecord
100
AcDbBlockTableRecord
  2
*D21
340
0
  0
BLOCK_RECORD
  5
2AB
330
1
100
AcDbSymbolTableRecord
100
AcDbBlockTableRecord
  2
*D22
340
0
  0
BLOCK_RECORD
  5
2B8
330
1
100
AcDbSymbolTableRecord
100
AcDbBlockTableRecord
  2
*D23
340
0
  0
BLOCK_RECORD
  5
2C3
330
1
100
AcDbSymbolTableRecord
100
AcDbBlockTableRecord
  2
*D24
340
0
  0
BLOCK_RECORD
  5
2D0
330
1
100
AcDbSymbolTableRecord
100
AcDbBlockTableRecord
  2
*D25
340
0
  0
BLOCK_RECORD
  5
2DB
330
1
100
AcDbSymbolTableRecord
100
AcDbBlockTableRecord
  2
*D26
340
0
  0
BLOCK_RECORD
  5
2E6
330
1
100
AcDbSymbolTableRecord
100
AcDbBlockTableRecord
  2
*D27
340
0
  0
BLOCK_RECORD
  5
2F8
330
1
100
AcDbSymbolTableRecord
100
AcDbBlockTableRecord
  2
*D28
340
0
  0
ENDTAB
  0
ENDSEC
  0
SECTION
  2
BLOCKS
  0
BLOCK
  5
5
330
2
100
AcDbEntity
  8
0
100
AcDbBlockBegin
  2
*Model_Space
 70
     0
 10
0.0
 20
0.0
 30
0.0
  3
*Model_Space
  1

  0
ENDBLK
  5
304
330
2
100
AcDbEntity
  8
0
100
AcDbBlockEnd
  0
BLOCK
  5
30C
330
30B
100
AcDbEntity
 67
     1
  8
0
100
AcDbBlockBegin
  2
*Paper_Space
 70
     0
 10
0.0
 20
0.0
 30
0.0
  3
*Paper_Space
  1

  0
ENDBLK
  5
311
330
30B
100
AcDbEntity
 67
     1
  8
0
100
AcDbBlockEnd
  0
BLOCK
  5
FA
330
F7
100
AcDbEntity
  8
0
100
AcDbBlockBegin
  2
B-DIM
 70
     0
 10
0.0
 20
0.0
 30
0.0
  3
B-DIM
  1

  0
LINE
  5
FB
330
F7
100
AcDbEntity
  8
0
 62
     1
100
AcDbLine
 10
0.000000000000091
 20
-1.1
 30
0.0
 11
0.000000000000091
 21
1.1
 31
0.0
  0
LWPOLYLINE
  5
FC
330
F7
100
AcDbEntity
  8
0
 62
     1
100
AcDbPolyline
 90
        2
 70
     0
 43
0.3
 10
-0.7071067811864851
 20
-0.7071067811864851
 10
0.707106781186576
 20
0.707106781186576
  0
LINE
  5
FD
330
F7
100
AcDbEntity
  8
0
 62
     1
100
AcDbLine
 10
1.20000000000009
 20
0.0
 30
0.0
 11
-1.199999999999909
 21
0.0
 31
0.0
  0
ENDBLK
  5
FE
330
F7
100
AcDbEntity
  8
0
100
AcDbBlockEnd
  0
BLOCK
  5
328
330
327
100
AcDbEntity
  8
0
100
AcDbBlockBegin
  2
_Dot
 70
     0
 10
0.0
 20
0.0
 30
0.0
  3
_Dot
  1

  0
LWPOLYLINE
  5
329
330
327
100
AcDbEntity
  8
0
  6
ByBlock
 62
     0
100
AcDbPolyline
 90
        2
 70
     1
 43
0.5
 10
-0.25
 20
0.0
 42
1.0
 10
0.25
 20
0.0
 42
1.0
  0
LINE
  5
32A
330
327
100
AcDbEntity
  8
0
  6
ByBlock
 62
     0
370
    -2
100
AcDbLine
 10
-0.5
 20
0.0
 30
0.0
 11
-1.0
 21
0.0
 31
0.0
  0
ENDBLK
  5
32B
330
327
100
AcDbEntity
  8
0
100
AcDbBlockEnd
  0
BLOCK
  5
32D
330
32C
100
AcDbEntity
  8
0
 48
4.0
100
AcDbBlockBegin
  2
B-DIM_W
 70
     0
 10
0.0
 20
0.0
 30
0.0
  3
B-DIM_W
  1

  0
SOLID
  5
32E
330
32C
100
AcDbEntity
  8
WYMIARY
 62
     1
 48
4.0
100
AcDbTrace
 10
-18.00000000000182
 20
3.000000000001818
 30
0.0
 11
0.0
 21
0.0
 31
0.0
 12
-18.00000000000182
 22
-3.000000000001818
 32
0.0
 13
-18.00000000000182
 23
-3.000000000001818
 33
0.0
  0
ENDBLK
  5
330
330
32C
100
AcDbEntity
  8
0
 48
4.0
100
AcDbBlockEnd
  0
BLOCK
  5
F4
330
F3
100
AcDbEntity
  8
0
100
AcDbBlockBegin
  2
*D3
 70
     1
 10
0.0
 20
0.0
 30
0.0
  3
*D3
  1

  0
LINE
  5
F5
330
F3
100
AcDbEntity
  8
0
 62
     1
370
    -2
100
AcDbLine
 10
217233.359506988
 20
135132.6124251055
 30
0.0
 11
217742.4093876373
 21
135132.6124251055
 31
0.0
  0
INSERT
  5
F6
330
F3
100
AcDbEntity
  8
0
 62
     1
370
    -2
100
AcDbBlockReference
  2
B-DIM
 10
217203.359506988
 20
135132.6124251055
 30
0.0
 41
30.0
 42
30.0
 43
30.0
 50
180.0
  0
INSERT
  5
FF
330
F3
100
AcDbEntity
  8
0
 62
     1
370
    -2
100
AcDbBlockReference
  2
B-DIM
 10
217772.4093876373
 20
135132.6124251055
 30
0.0
 41
30.0
 42
30.0
 43
30.0
  0
MTEXT
  5
100
330
F3
100
AcDbEntity
  8
0
 62
   140
370
     5
100
AcDbMText
 10
217487.8844473127
 20
135212.6124251055
 30
0.0
 40
80.0
 41
0.0
 71
     5
 72
     1
  1
\A1;569
  7
ROMANS
 73
     1
 44
1.0
1001
ACAD
1000
MTEXTBEGIN
1070
    73
1070
     1
1070
    44
1040
1.0
1070
    74
1070
     0
1000
MTEXTEND
  0
POINT
  5
102
330
F3
100
AcDbEntity
  8
DEFPOINTS
 62
     0
100
AcDbPoint
 10
217203.359506988
 20
135604.9940308093
 30
0.0
  0
POINT
  5
104
330
F3
100
AcDbEntity
  8
DEFPOINTS
 62
     0
100
AcDbPoint
 10
217772.4093876373
 20
135604.9970155199
 30
0.0
  0
POINT
  5
105
330
F3
100
AcDbEntity
  8
DEFPOINTS
 62
     0
100
AcDbPoint
 10
217772.4093876373
 20
135132.6124251055
 30
0.0
  0
ENDBLK
  5
106
330
F3
100
AcDbEntity
  8
0
100
AcDbBlockEnd
  0
BLOCK
  5
10A
330
109
100
AcDbEntity
  8
0
100
AcDbBlockBegin
  2
*D4
 70
     1
 10
0.0
 20
0.0
 30
0.0
  3
*D4
  1

  0
LINE
  5
10B
330
109
100
AcDbEntity
  8
0
 62
     1
370
    -2
100
AcDbLine
 10
217802.4093876373
 20
135132.6124251055
 30
0.0
 11
218533.4104969348
 21
135132.6124251055
 31
0.0
  0
INSERT
  5
10C
330
109
100
AcDbEntity
  8
0
 62
     1
370
    -2
100
AcDbBlockReference
  2
B-DIM
 10
217772.4093876373
 20
135132.6124251055
 30
0.0
 41
30.0
 42
30.0
 43
30.0
 50
180.0
  0
INSERT
  5
10D
330
109
100
AcDbEntity
  8
0
 62
     1
370
    -2
100
AcDbBlockReference
  2
B-DIM
 10
218563.4104969348
 20
135132.6124251055
 30
0.0
 41
30.0
 42
30.0
 43
30.0
  0
MTEXT
  5
10E
330
109
100
AcDbEntity
  8
0
 62
   140
370
     5
100
AcDbMText
 10
218167.909942286
 20
135212.6124251055
 30
0.0
 40
80.0
 41
0.0
 71
     5
 72
     1
  1
\A1;791
  7
ROMANS
 73
     1
 44
1.0
1001
ACAD
1000
MTEXTBEGIN
1070
    73
1070
     1
1070
    44
1040
1.0
1070
    74
1070
     0
1000
MTEXTEND
  0
POINT
  5
10F
330
109
100
AcDbEntity
  8
DEFPOINTS
 62
     0
100
AcDbPoint
 10
217772.4093876373
 20
135604.9970155199
 30
0.0
  0
POINT
  5
110
330
109
100
AcDbEntity
  8
DEFPOINTS
 62
     0
100
AcDbPoint
 10
218563.4104969348
 20
135229.9923476189
 30
0.0
  0
POINT
  5
111
330
109
100
AcDbEntity
  8
DEFPOINTS
 62
     0
100
AcDbPoint
 10
218563.4104969348
 20
135132.6124251055
 30
0.0
  0
ENDBLK
  5
112
330
109
100
AcDbEntity
  8
0
100
AcDbBlockEnd
  0
BLOCK
  5
115
330
114
100
AcDbEntity
  8
0
100
AcDbBlockBegin
  2
*D5
 70
     1
 10
0.0
 20
0.0
 30
0.0
  3
*D5
  1

  0
LINE
  5
116
330
114
100
AcDbEntity
  8
0
 62
     1
370
    -2
100
AcDbLine
 10
218593.4104969348
 20
135132.6124251055
 30
0.0
 11
219420.4088563722
 21
135132.6124251055
 31
0.0
  0
INSERT
  5
117
330
114
100
AcDbEntity
  8
0
 62
     1
370
    -2
100
AcDbBlockReference
  2
B-DIM
 10
218563.4104969348
 20
135132.6124251055
 30
0.0
 41
30.0
 42
30.0
 43
30.0
 50
180.0
  0
INSERT
  5
118
330
114
100
AcDbEntity
  8
0
 62
     1
370
    -2
100
AcDbBlockReference
  2
B-DIM
 10
219450.4088563721
 20
135132.6124251055
 30
0.0
 41
30.0
 42
30.0
 43
30.0
  0
MTEXT
  5
119
330
114
100
AcDbEntity
  8
0
 62
   140
370
     5
100
AcDbMText
 10
219006.9096766535
 20
135212.6124251055
 30
0.0
 40
80.0
 41
0.0
 71
     5
 72
     1
  1
\A1;887
  7
ROMANS
 73
     1
 44
1.0
1001
ACAD
1000
MTEXTBEGIN
1070
    73
1070
     1
1070
    44
1040
1.0
1070
    74
1070
     0
1000
MTEXTEND
  0
POINT
  5
11A
330
114
100
AcDbEntity
  8
DEFPOINTS
 62
     0
100
AcDbPoint
 10
218563.4104969348
 20
135229.9923476189
 30
0.0
  0
POINT
  5
11B
330
114
100
AcDbEntity
  8
DEFPOINTS
 62
     0
100
AcDbPoint
 10
219450.4088563721
 20
135604.9969429634
 30
0.0
  0
POINT
  5
11C
330
114
100
AcDbEntity
  8
DEFPOINTS
 62
     0
100
AcDbPoint
 10
219450.4088563721
 20
135132.6124251055
 30
0.0
  0
ENDBLK
  5
11D
330
114
100
AcDbEntity
  8
0
100
AcDbBlockEnd
  0
BLOCK
  5
120
330
11F
100
AcDbEntity
  8
0
100
AcDbBlockBegin
  2
*D6
 70
     1
 10
0.0
 20
0.0
 30
0.0
  3
*D6
  1

  0
LINE
  5
121
330
11F
100
AcDbEntity
  8
0
 62
     1
370
    -2
100
AcDbLine
 10
217233.3591412185
 20
134977.3103151121
 30
0.0
 11
219420.4088563722
 21
134977.3103151121
 31
0.0
  0
INSERT
  5
122
330
11F
100
AcDbEntity
  8
0
 62
     1
370
    -2
100
AcDbBlockReference
  2
B-DIM
 10
217203.3591412184
 20
134977.3103151121
 30
0.0
 41
30.0
 42
30.0
 43
30.0
 50
180.0
  0
INSERT
  5
123
330
11F
100
AcDbEntity
  8
0
 62
     1
370
    -2
100
AcDbBlockReference
  2
B-DIM
 10
219450.4088563721
 20
134977.3103151121
 30
0.0
 41
30.0
 42
30.0
 43
30.0
  0
MTEXT
  5
124
330
11F
100
AcDbEntity
  8
0
 62
   140
370
     5
100
AcDbMText
 10
218326.8839987953
 20
135057.3103151121
 30
0.0
 40
80.0
 41
0.0
 71
     5
 72
     1
  1
\A1;2247
  7
ROMANS
 73
     1
 44
1.0
1001
ACAD
1000
MTEXTBEGIN
1070
    73
1070
     1
1070
    44
1040
1.0
1070
    74
1070
     0
1000
MTEXTEND
  0
POINT
  5
125
330
11F
100
AcDbEntity
  8
DEFPOINTS
 62
     0
100
AcDbPoint
 10
217203.3591412184
 20
135618.9969505767
 30
0.0
  0
POINT
  5
126
330
11F
100
AcDbEntity
  8
DEFPOINTS
 62
     0
100
AcDbPoint
 10
219450.4088563721
 20
135745.6325677976
 30
0.0
  0
POINT
  5
127
330
11F
100
AcDbEntity
  8
DEFPOINTS
 62
     0
100
AcDbPoint
 10
219450.4088563721
 20
134977.3103151121
 30
0.0
  0
ENDBLK
  5
128
330
11F
100
AcDbEntity
  8
0
100
AcDbBlockEnd
  0
BLOCK
  5
12B
330
12A
100
AcDbEntity
  8
0
100
AcDbBlockBegin
  2
*D7
 70
     1
 10
0.0
 20
0.0
 30
0.0
  3
*D7
  1

  0
LINE
  5
12C
330
12A
100
AcDbEntity
  8
0
 62
     1
370
    -2
100
AcDbLine
 10
217044.7982661412
 20
135554.6046634018
 30
0.0
 11
217044.7982661412
 21
135869.6047337102
 31
0.0
  0
INSERT
  5
12D
330
12A
100
AcDbEntity
  8
0
 62
     1
370
    -2
100
AcDbBlockReference
  2
B-DIM
 10
217044.7982661412
 20
135524.6046634018
 30
0.0
 41
30.0
 42
30.0
 43
30.0
 50
270.0
  0
INSERT
  5
12E
330
12A
100
AcDbEntity
  8
0
 62
     1
370
    -2
100
AcDbBlockReference
  2
B-DIM
 10
217044.7982661412
 20
135899.6047337102
 30
0.0
 41
30.0
 42
30.0
 43
30.0
 50
90.0
  0
MTEXT
  5
12F
330
12A
100
AcDbEntity
  8
0
 62
   140
370
     5
100
AcDbMText
 10
216964.7982661411
 20
135712.1046985561
 30
0.0
 40
80.0
 41
0.0
 71
     5
 72
     1
  1
\A1;375
  7
ROMANS
 11
0.0000000000000001
 21
1.0
 31
0.0
 73
     1
 44
1.0
1001
ACAD
1000
MTEXTBEGIN
1070
    73
1070
     1
1070
    44
1040
1.0
1070
    74
1070
     0
1000
MTEXTEND
  0
POINT
  5
130
330
12A
100
AcDbEntity
  8
DEFPOINTS
 62
     0
100
AcDbPoint
 10
217772.4093876373
 20
135524.6046634018
 30
0.0
  0
POINT
  5
131
330
12A
100
AcDbEntity
  8
DEFPOINTS
 62
     0
100
AcDbPoint
 10
217772.4093876373
 20
135899.6047337102
 30
0.0
  0
POINT
  5
132
330
12A
100
AcDbEntity
  8
DEFPOINTS
 62
     0
100
AcDbPoint
 10
217044.7982661412
 20
135899.6047337102
 30
0.0
  0
ENDBLK
  5
133
330
12A
100
AcDbEntity
  8
0
100
AcDbBlockEnd
  0
BLOCK
  5
136
330
135
100
AcDbEntity
  8
0
100
AcDbBlockBegin
  2
*D8
 70
     1
 10
0.0
 20
0.0
 30
0.0
  3
*D8
  1

  0
LINE
  5
137
330
135
100
AcDbEntity
  8
0
 62
     1
370
    -2
100
AcDbLine
 10
217044.7982661412
 20
135929.6047337102
 30
0.0
 11
217044.7982661412
 21
136555.6046619721
 31
0.0
  0
INSERT
  5
138
330
135
100
AcDbEntity
  8
0
 62
     1
370
    -2
100
AcDbBlockReference
  2
B-DIM
 10
217044.7982661412
 20
135899.6047337102
 30
0.0
 41
30.0
 42
30.0
 43
30.0
 50
270.0
  0
INSERT
  5
139
330
135
100
AcDbEntity
  8
0
 62
     1
370
    -2
100
AcDbBlockReference
  2
B-DIM
 10
217044.7982661412
 20
136585.6046619721
 30
0.0
 41
30.0
 42
30.0
 43
30.0
 50
90.0
  0
MTEXT
  5
13A
330
135
100
AcDbEntity
  8
0
 62
   140
370
     5
100
AcDbMText
 10
216964.7982661411
 20
136242.6046978412
 30
0.0
 40
80.0
 41
0.0
 71
     5
 72
     1
  1
\A1;677
  7
ROMANS
 11
0.0000000000000001
 21
1.0
 31
0.0
 73
     1
 44
1.0
1001
ACAD
1000
MTEXTBEGIN
1070
    73
1070
     1
1070
    44
1040
1.0
1070
    74
1070
     0
1000
MTEXTEND
  0
POINT
  5
13B
330
135
100
AcDbEntity
  8
DEFPOINTS
 62
     0
100
AcDbPoint
 10
217772.4093876373
 20
135899.6047337102
 30
0.0
  0
POINT
  5
13C
330
135
100
AcDbEntity
  8
DEFPOINTS
 62
     0
100
AcDbPoint
 10
217342.3537177743
 20
136585.6046619721
 30
0.0
  0
POINT
  5
13D
330
135
100
AcDbEntity
  8
DEFPOINTS
 62
     0
100
AcDbPoint
 10
217044.7982661412
 20
136585.6046619721
 30
0.0
  0
ENDBLK
  5
13E
330
135
100
AcDbEntity
  8
0
100
AcDbBlockEnd
  0
BLOCK
  5
141
330
140
100
AcDbEntity
  8
0
100
AcDbBlockBegin
  2
*D9
 70
     1
 10
0.0
 20
0.0
 30
0.0
  3
*D9
  1

  0
LINE
  5
142
330
140
100
AcDbEntity
  8
0
 62
     1
370
    -2
100
AcDbLine
 10
217044.7982661412
 20
136555.6046619721
 30
0.0
 11
217044.7982661412
 21
136525.6046619721
 31
0.0
  0
LINE
  5
143
330
140
100
AcDbEntity
  8
0
 62
     1
370
    -2
100
AcDbLine
 10
217044.7982661412
 20
136754.6007073143
 30
0.0
 11
217044.7982661412
 21
136784.6007073143
 31
0.0
  0
LINE
  5
144
330
140
100
AcDbEntity
  8
0
 62
     1
370
    -2
100
AcDbLine
 10
217044.7982661412
 20
136585.6046619721
 30
0.0
 11
217044.7982661412
 21
136724.6007073143
 31
0.0
  0
INSERT
  5
145
330
140
100
AcDbEntity
  8
0
 62
     1
370
    -2
100
AcDbBlockReference
  2
B-DIM
 10
217044.7982661412
 20
136585.6046619721
 30
0.0
 41
30.0
 42
30.0
 43
30.0
 50
90.0
  0
INSERT
  5
146
330
140
100
AcDbEntity
  8
0
 62
     1
370
    -2
100
AcDbBlockReference
  2
B-DIM
 10
217044.7982661412
 20
136724.6007073143
 30
0.0
 41
30.0
 42
30.0
 43
30.0
 50
270.0
  0
MTEXT
  5
147
330
140
100
AcDbEntity
  8
0
 62
   140
370
     5
100
AcDbMText
 10
216964.7982661411
 20
136655.1026846433
 30
0.0
 40
80.0
 41
0.0
 71
     5
 72
     1
  1
\A1;148
  7
ROMANS
 11
0.0000000000000001
 21
1.0
 31
0.0
 73
     1
 44
1.0
1001
ACAD
1000
MTEXTBEGIN
1070
    73
1070
     1
1070
    44
1040
1.0
1070
    74
1070
     0
1000
MTEXTEND
  0
POINT
  5
148
330
140
100
AcDbEntity
  8
DEFPOINTS
 62
     0
100
AcDbPoint
 10
217342.3537177743
 20
136585.6046619721
 30
0.0
  0
POINT
  5
149
330
140
100
AcDbEntity
  8
DEFPOINTS
 62
     0
100
AcDbPoint
 10
218162.4091412627
 20
136724.6007073143
 30
0.0
  0
POINT
  5
14A
330
140
100
AcDbEntity
  8
DEFPOINTS
 62
     0
100
AcDbPoint
 10
217044.7982661412
 20
136724.6007073143
 30
0.0
  0
ENDBLK
  5
14B
330
140
100
AcDbEntity
  8
0
100
AcDbBlockEnd
  0
BLOCK
  5
14E
330
14D
100
AcDbEntity
  8
0
100
AcDbBlockBegin
  2
*D10
 70
     1
 10
0.0
 20
0.0
 30
0.0
  3
*D10
  1

  0
LINE
  5
14F
330
14D
100
AcDbEntity
  8
0
 62
     1
370
    -2
100
AcDbLine
 10
216875.6424595646
 20
135470.6080084133
 30
0.0
 11
216875.6424595646
 21
136694.6005729945
 31
0.0
  0
INSERT
  5
150
330
14D
100
AcDbEntity
  8
0
 62
     1
370
    -2
100
AcDbBlockReference
  2
B-DIM
 10
216875.6424595646
 20
135440.6080084133
 30
0.0
 41
30.0
 42
30.0
 43
30.0
 50
270.0
  0
INSERT
  5
151
330
14D
100
AcDbEntity
  8
0
 62
     1
370
    -2
100
AcDbBlockReference
  2
B-DIM
 10
216875.6424595646
 20
136724.6005729945
 30
0.0
 41
30.0
 42
30.0
 43
30.0
 50
90.0
  0
MTEXT
  5
152
330
14D
100
AcDbEntity
  8
0
 62
   140
370
     5
100
AcDbMText
 10
216795.6424595646
 20
136082.604290704
 30
0.0
 40
80.0
 41
0.0
 71
     5
 72
     1
  1
\A1;1284
  7
ROMANS
 11
0.0000000000000001
 21
1.0
 31
0.0
 73
     1
 44
1.0
1001
ACAD
1000
MTEXTBEGIN
1070
    73
1070
     1
1070
    44
1040
1.0
1070
    74
1070
     0
1000
MTEXTEND
  0
POINT
  5
153
330
14D
100
AcDbEntity
  8
DEFPOINTS
 62
     0
100
AcDbPoint
 10
218162.4063386194
 20
135440.6080084133
 30
0.0
  0
POINT
  5
154
330
14D
100
AcDbEntity
  8
DEFPOINTS
 62
     0
100
AcDbPoint
 10
218333.5741482264
 20
136724.6005729945
 30
0.0
  0
POINT
  5
155
330
14D
100
AcDbEntity
  8
DEFPOINTS
 62
     0
100
AcDbPoint
 10
216875.6424595646
 20
136724.6005729945
 30
0.0
  0
ENDBLK
  5
156
330
14D
100
AcDbEntity
  8
0
100
AcDbBlockEnd
  0
BLOCK
  5
159
330
158
100
AcDbEntity
  8
0
100
AcDbBlockBegin
  2
*D11
 70
     1
 10
0.0
 20
0.0
 30
0.0
  3
*D11
  1

  0
LINE
  5
15A
330
158
100
AcDbEntity
  8
0
 62
     1
370
    -2
100
AcDbLine
 10
217173.3622283452
 20
137183.4141019435
 30
0.0
 11
217143.3622283452
 21
137183.4141019435
 31
0.0
  0
LINE
  5
15B
330
158
100
AcDbEntity
  8
0
 62
     1
370
    -2
100
AcDbLine
 10
217372.4836684878
 20
137183.4141019435
 30
0.0
 11
217402.4836684878
 21
137183.4141019435
 31
0.0
  0
LINE
  5
15C
330
158
100
AcDbEntity
  8
0
 62
     1
370
    -2
100
AcDbLine
 10
217203.3622283452
 20
137183.4141019435
 30
0.0
 11
217342.4836684878
 21
137183.4141019435
 31
0.0
  0
INSERT
  5
15D
330
158
100
AcDbEntity
  8
0
 62
     1
370
    -2
100
AcDbBlockReference
  2
B-DIM
 10
217203.3622283452
 20
137183.4141019435
 30
0.0
 41
30.0
 42
30.0
 43
30.0
  0
INSERT
  5
15E
330
158
100
AcDbEntity
  8
0
 62
     1
370
    -2
100
AcDbBlockReference
  2
B-DIM
 10
217342.4836684878
 20
137183.4141019435
 30
0.0
 41
30.0
 42
30.0
 43
30.0
 50
180.0
  0
MTEXT
  5
15F
330
158
100
AcDbEntity
  8
0
 62
   140
370
     5
100
AcDbMText
 10
217272.9229484165
 20
137263.4141019435
 30
0.0
 40
80.0
 41
0.0
 71
     5
 72
     1
  1
\A1;148
  7
ROMANS
 73
     1
 44
1.0
1001
ACAD
1000
MTEXTBEGIN
1070
    73
1070
     1
1070
    44
1040
1.0
1070
    74
1070
     0
1000
MTEXTEND
  0
POINT
  5
160
330
158
100
AcDbEntity
  8
DEFPOINTS
 62
     0
100
AcDbPoint
 10
217203.3622283452
 20
135938.6034706832
 30
0.0
  0
POINT
  5
161
330
158
100
AcDbEntity
  8
DEFPOINTS
 62
     0
100
AcDbPoint
 10
217342.4836684878
 20
135938.6314145441
 30
0.0
  0
POINT
  5
162
330
158
100
AcDbEntity
  8
DEFPOINTS
 62
     0
100
AcDbPoint
 10
217342.4836684878
 20
137183.4141019435
 30
0.0
  0
ENDBLK
  5
163
330
158
100
AcDbEntity
  8
0
100
AcDbBlockEnd
  0
BLOCK
  5
166
330
165
100
AcDbEntity
  8
0
100
AcDbBlockBegin
  2
*D12
 70
     1
 10
0.0
 20
0.0
 30
0.0
  3
*D12
  1

  0
LINE
  5
167
330
165
100
AcDbEntity
  8
0
 62
     1
370
    -2
100
AcDbLine
 10
217372.4836684878
 20
137183.4141019435
 30
0.0
 11
218132.4091412628
 21
137183.4141019435
 31
0.0
  0
INSERT
  5
168
330
165
100
AcDbEntity
  8
0
 62
     1
370
    -2
100
AcDbBlockReference
  2
B-DIM
 10
217342.4836684878
 20
137183.4141019435
 30
0.0
 41
30.0
 42
30.0
 43
30.0
 50
180.0
  0
INSERT
  5
169
330
165
100
AcDbEntity
  8
0
 62
     1
370
    -2
100
AcDbBlockReference
  2
B-DIM
 10
218162.4091412627
 20
137183.4141019435
 30
0.0
 41
30.0
 42
30.0
 43
30.0
  0
MTEXT
  5
16A
330
165
100
AcDbEntity
  8
0
 62
   140
370
     5
100
AcDbMText
 10
217752.4464048753
 20
137263.4141019435
 30
0.0
 40
80.0
 41
0.0
 71
     5
 72
     1
  1
\A1;807
  7
ROMANS
 73
     1
 44
1.0
1001
ACAD
1000
MTEXTBEGIN
1070
    73
1070
     1
1070
    44
1040
1.0
1070
    74
1070
     0
1000
MTEXTEND
  0
POINT
  5
16B
330
165
100
AcDbEntity
  8
DEFPOINTS
 62
     0
100
AcDbPoint
 10
217342.4836684878
 20
135938.6314145441
 30
0.0
  0
POINT
  5
16C
330
165
100
AcDbEntity
  8
DEFPOINTS
 62
     0
100
AcDbPoint
 10
218162.4091412627
 20
136588.6046619721
 30
0.0
  0
POINT
  5
16D
330
165
100
AcDbEntity
  8
DEFPOINTS
 62
     0
100
AcDbPoint
 10
218162.4091412627
 20
137183.4141019435
 30
0.0
  0
ENDBLK
  5
16E
330
165
100
AcDbEntity
  8
0
100
AcDbBlockEnd
  0
BLOCK
  5
171
330
170
100
AcDbEntity
  8
0
100
AcDbBlockBegin
  2
*D13
 70
     1
 10
0.0
 20
0.0
 30
0.0
  3
*D13
  1

  0
LINE
  5
172
330
170
100
AcDbEntity
  8
0
 62
     1
370
    -2
100
AcDbLine
 10
218192.4091412628
 20
137183.4141019435
 30
0.0
 11
218923.4088562782
 21
137183.4141019435
 31
0.0
  0
INSERT
  5
173
330
170
100
AcDbEntity
  8
0
 62
     1
370
    -2
100
AcDbBlockReference
  2
B-DIM
 10
218162.4091412627
 20
137183.4141019435
 30
0.0
 41
30.0
 42
30.0
 43
30.0
 50
180.0
  0
INSERT
  5
174
330
170
100
AcDbEntity
  8
0
 62
     1
370
    -2
100
AcDbBlockReference
  2
B-DIM
 10
218953.4088562782
 20
137183.4141019435
 30
0.0
 41
30.0
 42
30.0
 43
30.0
  0
MTEXT
  5
175
330
170
100
AcDbEntity
  8
0
 62
   140
370
     5
100
AcDbMText
 10
218557.9089987705
 20
137263.4141019435
 30
0.0
 40
80.0
 41
0.0
 71
     5
 72
     1
  1
\A1;799
  7
ROMANS
 73
     1
 44
1.0
1001
ACAD
1000
MTEXTBEGIN
1070
    73
1070
     1
1070
    44
1040
1.0
1070
    74
1070
     0
1000
MTEXTEND
  0
POINT
  5
176
330
170
100
AcDbEntity
  8
DEFPOINTS
 62
     0
100
AcDbPoint
 10
218162.4091412627
 20
136588.6046619721
 30
0.0
  0
POINT
  5
177
330
170
100
AcDbEntity
  8
DEFPOINTS
 62
     0
100
AcDbPoint
 10
218953.4088562782
 20
136724.6036925797
 30
0.0
  0
POINT
  5
178
330
170
100
AcDbEntity
  8
DEFPOINTS
 62
     0
100
AcDbPoint
 10
218953.4088562782
 20
137183.4141019435
 30
0.0
  0
ENDBLK
  5
179
330
170
100
AcDbEntity
  8
0
100
AcDbBlockEnd
  0
BLOCK
  5
17C
330
17B
100
AcDbEntity
  8
0
100
AcDbBlockBegin
  2
*D14
 70
     1
 10
0.0
 20
0.0
 30
0.0
  3
*D14
  1

  0
LINE
  5
17D
330
17B
100
AcDbEntity
  8
0
 62
     1
370
    -2
100
AcDbLine
 10
218983.4088562782
 20
137183.4141019435
 30
0.0
 11
219420.4088563722
 21
137183.4141019435
 31
0.0
  0
INSERT
  5
17E
330
17B
100
AcDbEntity
  8
0
 62
     1
370
    -2
100
AcDbBlockReference
  2
B-DIM
 10
218953.4088562782
 20
137183.4141019435
 30
0.0
 41
30.0
 42
30.0
 43
30.0
 50
180.0
  0
INSERT
  5
17F
330
17B
100
AcDbEntity
  8
0
 62
     1
370
    -2
100
AcDbBlockReference
  2
B-DIM
 10
219450.4088563721
 20
137183.4141019435
 30
0.0
 41
30.0
 42
30.0
 43
30.0
  0
MTEXT
  5
180
330
17B
100
AcDbEntity
  8
0
 62
   140
370
     5
100
AcDbMText
 10
219201.9088563252
 20
137263.4141019435
 30
0.0
 40
80.0
 41
0.0
 71
     5
 72
     1
  1
\A1;493
  7
ROMANS
 73
     1
 44
1.0
1001
ACAD
1000
MTEXTBEGIN
1070
    73
1070
     1
1070
    44
1040
1.0
1070
    74
1070
     0
1000
MTEXTEND
  0
POINT
  5
181
330
17B
100
AcDbEntity
  8
DEFPOINTS
 62
     0
100
AcDbPoint
 10
218953.4088562782
 20
136724.6036925797
 30
0.0
  0
POINT
  5
182
330
17B
100
AcDbEntity
  8
DEFPOINTS
 62
     0
100
AcDbPoint
 10
219450.4088563721
 20
136724.6000350299
 30
0.0
  0
POINT
  5
183
330
17B
100
AcDbEntity
  8
DEFPOINTS
 62
     0
100
AcDbPoint
 10
219450.4088563721
 20
137183.4141019435
 30
0.0
  0
ENDBLK
  5
184
330
17B
100
AcDbEntity
  8
0
100
AcDbBlockEnd
  0
BLOCK
  5
194
330
193
100
AcDbEntity
  8
0
100
AcDbBlockBegin
  2
*D15
 70
     1
 10
0.0
 20
0.0
 30
0.0
  3
*D15
  1

  0
LINE
  5
195
330
193
100
AcDbEntity
  8
0
 62
     1
370
    -2
100
AcDbLine
 10
217044.7982661412
 20
135410.6080084133
 30
0.0
 11
217044.7982661412
 21
135380.6080084133
 31
0.0
  0
LINE
  5
196
330
193
100
AcDbEntity
  8
0
 62
     1
370
    -2
100
AcDbLine
 10
217044.7982661412
 20
135554.6000658092
 30
0.0
 11
217044.7982661412
 21
135584.6000658092
 31
0.0
  0
LINE
  5
197
330
193
100
AcDbEntity
  8
0
 62
     1
370
    -2
100
AcDbLine
 10
217044.7982661412
 20
135440.6080084133
 30
0.0
 11
217044.7982661412
 21
135524.6000658092
 31
0.0
  0
INSERT
  5
198
330
193
100
AcDbEntity
  8
0
 62
     1
370
    -2
100
AcDbBlockReference
  2
B-DIM
 10
217044.7982661412
 20
135440.6080084133
 30
0.0
 41
30.0
 42
30.0
 43
30.0
 50
90.0
  0
INSERT
  5
199
330
193
100
AcDbEntity
  8
0
 62
     1
370
    -2
100
AcDbBlockReference
  2
B-DIM
 10
217044.7982661412
 20
135524.6000658092
 30
0.0
 41
30.0
 42
30.0
 43
30.0
 50
270.0
  0
MTEXT
  5
19A
330
193
100
AcDbEntity
  8
0
 62
   140
370
     5
100
AcDbMText
 10
216964.7982661411
 20
135482.6040371113
 30
0.0
 40
80.0
 41
0.0
 71
     5
 72
     1
  1
\A1;84
  7
ROMANS
 11
0.0000000000000001
 21
1.0
 31
0.0
 73
     1
 44
1.0
1001
ACAD
1000
MTEXTBEGIN
1070
    73
1070
     1
1070
    44
1040
1.0
1070
    74
1070
     0
1000
MTEXTEND
  0
POINT
  5
19B
330
193
100
AcDbEntity
  8
DEFPOINTS
 62
     0
100
AcDbPoint
 10
218162.4063386194
 20
135440.6080084133
 30
0.0
  0
POINT
  5
19C
330
193
100
AcDbEntity
  8
DEFPOINTS
 62
     0
100
AcDbPoint
 10
218162.4063386194
 20
135524.6000658092
 30
0.0
  0
POINT
  5
19D
330
193
100
AcDbEntity
  8
DEFPOINTS
 62
     0
100
AcDbPoint
 10
217044.7982661412
 20
135524.6000658092
 30
0.0
  0
ENDBLK
  5
19E
330
193
100
AcDbEntity
  8
0
100
AcDbBlockEnd
  0
BLOCK
  5
26A
330
269
100
AcDbEntity
  8
0
100
AcDbBlockBegin
  2
*D16
 70
     1
 10
0.0
 20
0.0
 30
0.0
  3
*D16
  1

  0
LINE
  5
26B
330
269
100
AcDbEntity
  8
0
 62
     1
370
    -2
100
AcDbLine
 10
223566.4189827571
 20
135132.6124251056
 30
0.0
 11
223057.3691021078
 21
135132.6124251056
 31
0.0
  0
INSERT
  5
26C
330
269
100
AcDbEntity
  8
0
 62
     1
370
    -2
100
AcDbBlockReference
  2
B-DIM
 10
223596.4189827571
 20
135132.6124251056
 30
0.0
 41
30.0
 42
30.0
 43
30.0
 50
0.0000000000019984
  0
INSERT
  5
26D
330
269
100
AcDbEntity
  8
0
 62
     1
370
    -2
100
AcDbBlockReference
  2
B-DIM
 10
223027.3691021078
 20
135132.6124251056
 30
0.0
 41
30.0
 42
30.0
 43
30.0
 50
180.000000000002
  0
MTEXT
  5
26E
330
269
100
AcDbEntity
  8
0
 62
   140
370
     5
100
AcDbMText
 10
223311.8940424324
 20
135212.6124251056
 30
0.0
 40
80.0
 41
0.0
 71
     5
 72
     1
  1
\A1;569
  7
ROMANS
 73
     1
 44
1.0
1001
ACAD
1000
MTEXTBEGIN
1070
    73
1070
     1
1070
    44
1040
1.0
1070
    74
1070
     0
1000
MTEXTEND
  0
POINT
  5
26F
330
269
100
AcDbEntity
  8
DEFPOINTS
 62
     0
100
AcDbPoint
 10
223596.4189827571
 20
135604.9940308094
 30
0.0
  0
POINT
  5
270
330
269
100
AcDbEntity
  8
DEFPOINTS
 62
     0
100
AcDbPoint
 10
223027.3691021078
 20
135604.99701552
 30
0.0
  0
POINT
  5
271
330
269
100
AcDbEntity
  8
DEFPOINTS
 62
     0
100
AcDbPoint
 10
223027.3691021078
 20
135132.6124251056
 30
0.0
  0
ENDBLK
  5
272
330
269
100
AcDbEntity
  8
0
100
AcDbBlockEnd
  0
BLOCK
  5
275
330
274
100
AcDbEntity
  8
0
100
AcDbBlockBegin
  2
*D17
 70
     1
 10
0.0
 20
0.0
 30
0.0
  3
*D17
  1

  0
LINE
  5
276
330
274
100
AcDbEntity
  8
0
 62
     1
370
    -2
100
AcDbLine
 10
222997.3691021077
 20
135132.6124251056
 30
0.0
 11
222266.3679928103
 21
135132.6124251056
 31
0.0
  0
INSERT
  5
277
330
274
100
AcDbEntity
  8
0
 62
     1
370
    -2
100
AcDbBlockReference
  2
B-DIM
 10
223027.3691021078
 20
135132.6124251056
 30
0.0
 41
30.0
 42
30.0
 43
30.0
 50
0.0000000000019984
  0
INSERT
  5
278
330
274
100
AcDbEntity
  8
0
 62
     1
370
    -2
100
AcDbBlockReference
  2
B-DIM
 10
222236.3679928103
 20
135132.6124251056
 30
0.0
 41
30.0
 42
30.0
 43
30.0
 50
180.000000000002
  0
MTEXT
  5
279
330
274
100
AcDbEntity
  8
0
 62
   140
370
     5
100
AcDbMText
 10
222631.868547459
 20
135212.6124251056
 30
0.0
 40
80.0
 41
0.0
 71
     5
 72
     1
  1
\A1;791
  7
ROMANS
 73
     1
 44
1.0
1001
ACAD
1000
MTEXTBEGIN
1070
    73
1070
     1
1070
    44
1040
1.0
1070
    74
1070
     0
1000
MTEXTEND
  0
POINT
  5
27A
330
274
100
AcDbEntity
  8
DEFPOINTS
 62
     0
100
AcDbPoint
 10
223027.3691021078
 20
135604.99701552
 30
0.0
  0
POINT
  5
27B
330
274
100
AcDbEntity
  8
DEFPOINTS
 62
     0
100
AcDbPoint
 10
222236.3679928103
 20
135229.992347619
 30
0.0
  0
POINT
  5
27C
330
274
100
AcDbEntity
  8
DEFPOINTS
 62
     0
100
AcDbPoint
 10
222236.3679928103
 20
135132.6124251056
 30
0.0
  0
ENDBLK
  5
27D
330
274
100
AcDbEntity
  8
0
100
AcDbBlockEnd
  0
BLOCK
  5
280
330
27F
100
AcDbEntity
  8
0
100
AcDbBlockBegin
  2
*D18
 70
     1
 10
0.0
 20
0.0
 30
0.0
  3
*D18
  1

  0
LINE
  5
281
330
27F
100
AcDbEntity
  8
0
 62
     1
370
    -2
100
AcDbLine
 10
222206.3679928103
 20
135132.6124251056
 30
0.0
 11
221379.3696333729
 21
135132.6124251055
 31
0.0
  0
INSERT
  5
282
330
27F
100
AcDbEntity
  8
0
 62
     1
370
    -2
100
AcDbBlockReference
  2
B-DIM
 10
222236.3679928103
 20
135132.6124251056
 30
0.0
 41
30.0
 42
30.0
 43
30.0
 50
0.0000000000019984
  0
INSERT
  5
283
330
27F
100
AcDbEntity
  8
0
 62
     1
370
    -2
100
AcDbBlockReference
  2
B-DIM
 10
221349.3696333729
 20
135132.6124251055
 30
0.0
 41
30.0
 42
30.0
 43
30.0
 50
180.000000000002
  0
MTEXT
  5
284
330
27F
100
AcDbEntity
  8
0
 62
   140
370
     5
100
AcDbMText
 10
221792.8688130916
 20
135212.6124251056
 30
0.0
 40
80.0
 41
0.0
 71
     5
 72
     1
  1
\A1;887
  7
ROMANS
 73
     1
 44
1.0
1001
ACAD
1000
MTEXTBEGIN
1070
    73
1070
     1
1070
    44
1040
1.0
1070
    74
1070
     0
1000
MTEXTEND
  0
POINT
  5
285
330
27F
100
AcDbEntity
  8
DEFPOINTS
 62
     0
100
AcDbPoint
 10
222236.3679928103
 20
135229.992347619
 30
0.0
  0
POINT
  5
286
330
27F
100
AcDbEntity
  8
DEFPOINTS
 62
     0
100
AcDbPoint
 10
221349.3696333729
 20
135604.9969429634
 30
0.0
  0
POINT
  5
287
330
27F
100
AcDbEntity
  8
DEFPOINTS
 62
     0
100
AcDbPoint
 10
221349.3696333729
 20
135132.6124251055
 30
0.0
  0
ENDBLK
  5
288
330
27F
100
AcDbEntity
  8
0
100
AcDbBlockEnd
  0
BLOCK
  5
28B
330
28A
100
AcDbEntity
  8
0
100
AcDbBlockBegin
  2
*D19
 70
     1
 10
0.0
 20
0.0
 30
0.0
  3
*D19
  1

  0
LINE
  5
28C
330
28A
100
AcDbEntity
  8
0
 62
     1
370
    -2
100
AcDbLine
 10
223566.4193485266
 20
134977.3103151123
 30
0.0
 11
221379.3696333729
 21
134977.3103151122
 31
0.0
  0
INSERT
  5
28D
330
28A
100
AcDbEntity
  8
0
 62
     1
370
    -2
100
AcDbBlockReference
  2
B-DIM
 10
223596.4193485266
 20
134977.3103151123
 30
0.0
 41
30.0
 42
30.0
 43
30.0
 50
0.0000000000019984
  0
INSERT
  5
28E
330
28A
100
AcDbEntity
  8
0
 62
     1
370
    -2
100
AcDbBlockReference
  2
B-DIM
 10
221349.3696333729
 20
134977.3103151122
 30
0.0
 41
30.0
 42
30.0
 43
30.0
 50
180.000000000002
  0
MTEXT
  5
28F
330
28A
100
AcDbEntity
  8
0
 62
   140
370
     5
100
AcDbMText
 10
222472.8944909498
 20
135057.3103151122
 30
0.0
 40
80.0
 41
0.0
 71
     5
 72
     1
  1
\A1;2247
  7
ROMANS
 73
     1
 44
1.0
1001
ACAD
1000
MTEXTBEGIN
1070
    73
1070
     1
1070
    44
1040
1.0
1070
    74
1070
     0
1000
MTEXTEND
  0
POINT
  5
290
330
28A
100
AcDbEntity
  8
DEFPOINTS
 62
     0
100
AcDbPoint
 10
223596.4193485266
 20
135618.9969505768
 30
0.0
  0
POINT
  5
291
330
28A
100
AcDbEntity
  8
DEFPOINTS
 62
     0
100
AcDbPoint
 10
221349.3696333729
 20
135745.6325677977
 30
0.0
  0
POINT
  5
292
330
28A
100
AcDbEntity
  8
DEFPOINTS
 62
     0
100
AcDbPoint
 10
221349.3696333729
 20
134977.3103151122
 30
0.0
  0
ENDBLK
  5
293
330
28A
100
AcDbEntity
  8
0
100
AcDbBlockEnd
  0
BLOCK
  5
296
330
295
100
AcDbEntity
  8
0
100
AcDbBlockBegin
  2
*D20
 70
     1
 10
0.0
 20
0.0
 30
0.0
  3
*D20
  1

  0
LINE
  5
297
330
295
100
AcDbEntity
  8
0
 62
     1
370
    -2
100
AcDbLine
 10
223754.9802236039
 20
135554.6046634019
 30
0.0
 11
223754.9802236039
 21
135869.6047337103
 31
0.0
  0
INSERT
  5
298
330
295
100
AcDbEntity
  8
0
 62
     1
370
    -2
100
AcDbBlockReference
  2
B-DIM
 10
223754.9802236039
 20
135524.6046634019
 30
0.0
 41
30.0
 42
30.0
 43
30.0
 50
270.0
  0
INSERT
  5
299
330
295
100
AcDbEntity
  8
0
 62
     1
370
    -2
100
AcDbBlockReference
  2
B-DIM
 10
223754.9802236039
 20
135899.6047337102
 30
0.0
 41
30.0
 42
30.0
 43
30.0
 50
90.0
  0
MTEXT
  5
29A
330
295
100
AcDbEntity
  8
0
 62
   140
370
     5
100
AcDbMText
 10
223674.9802236039
 20
135712.1046985561
 30
0.0
 40
80.0
 41
0.0
 71
     5
 72
     1
  1
\A1;375
  7
ROMANS
 11
0.0000000000000001
 21
1.0
 31
0.0
 73
     1
 44
1.0
1001
ACAD
1000
MTEXTBEGIN
1070
    73
1070
     1
1070
    44
1040
1.0
1070
    74
1070
     0
1000
MTEXTEND
  0
POINT
  5
29B
330
295
100
AcDbEntity
  8
DEFPOINTS
 62
     0
100
AcDbPoint
 10
223027.3691021078
 20
135524.6046634019
 30
0.0
  0
POINT
  5
29C
330
295
100
AcDbEntity
  8
DEFPOINTS
 62
     0
100
AcDbPoint
 10
223027.3691021078
 20
135899.6047337102
 30
0.0
  0
POINT
  5
29D
330
295
100
AcDbEntity
  8
DEFPOINTS
 62
     0
100
AcDbPoint
 10
223754.9802236039
 20
135899.6047337102
 30
0.0
  0
ENDBLK
  5
29E
330
295
100
AcDbEntity
  8
0
100
AcDbBlockEnd
  0
BLOCK
  5
2A1
330
2A0
100
AcDbEntity
  8
0
100
AcDbBlockBegin
  2
*D21
 70
     1
 10
0.0
 20
0.0
 30
0.0
  3
*D21
  1

  0
LINE
  5
2A2
330
2A0
100
AcDbEntity
  8
0
 62
     1
370
    -2
100
AcDbLine
 10
223754.9802236038
 20
135929.6047337102
 30
0.0
 11
223754.9802236038
 21
136555.6046619722
 31
0.0
  0
INSERT
  5
2A3
330
2A0
100
AcDbEntity
  8
0
 62
     1
370
    -2
100
AcDbBlockReference
  2
B-DIM
 10
223754.9802236038
 20
135899.6047337102
 30
0.0
 41
30.0
 42
30.0
 43
30.0
 50
270.0
  0
INSERT
  5
2A4
330
2A0
100
AcDbEntity
  8
0
 62
     1
370
    -2
100
AcDbBlockReference
  2
B-DIM
 10
223754.9802236038
 20
136585.6046619722
 30
0.0
 41
30.0
 42
30.0
 43
30.0
 50
90.0
  0
MTEXT
  5
2A5
330
2A0
100
AcDbEntity
  8
0
 62
   140
370
     5
100
AcDbMText
 10
223674.9802236039
 20
136242.6046978413
 30
0.0
 40
80.0
 41
0.0
 71
     5
 72
     1
  1
\A1;677
  7
ROMANS
 11
0.0000000000000001
 21
1.0
 31
0.0
 73
     1
 44
1.0
1001
ACAD
1000
MTEXTBEGIN
1070
    73
1070
     1
1070
    44
1040
1.0
1070
    74
1070
     0
1000
MTEXTEND
  0
POINT
  5
2A6
330
2A0
100
AcDbEntity
  8
DEFPOINTS
 62
     0
100
AcDbPoint
 10
223027.3691021078
 20
135899.6047337102
 30
0.0
  0
POINT
  5
2A7
330
2A0
100
AcDbEntity
  8
DEFPOINTS
 62
     0
100
AcDbPoint
 10
223457.4247719708
 20
136585.6046619722
 30
0.0
  0
POINT
  5
2A8
330
2A0
100
AcDbEntity
  8
DEFPOINTS
 62
     0
100
AcDbPoint
 10
223754.9802236038
 20
136585.6046619722
 30
0.0
  0
ENDBLK
  5
2A9
330
2A0
100
AcDbEntity
  8
0
100
AcDbBlockEnd
  0
BLOCK
  5
2AC
330
2AB
100
AcDbEntity
  8
0
100
AcDbBlockBegin
  2
*D22
 70
     1
 10
0.0
 20
0.0
 30
0.0
  3
*D22
  1

  0
LINE
  5
2AD
330
2AB
100
AcDbEntity
  8
0
 62
     1
370
    -2
100
AcDbLine
 10
223754.9802236038
 20
136555.6046619722
 30
0.0
 11
223754.9802236038
 21
136525.6046619722
 31
0.0
  0
LINE
  5
2AE
330
2AB
100
AcDbEntity
  8
0
 62
     1
370
    -2
100
AcDbLine
 10
223754.9802236038
 20
136754.6007073144
 30
0.0
 11
223754.9802236038
 21
136784.6007073144
 31
0.0
  0
LINE
  5
2AF
330
2AB
100
AcDbEntity
  8
0
 62
     1
370
    -2
100
AcDbLine
 10
223754.9802236038
 20
136585.6046619722
 30
0.0
 11
223754.9802236038
 21
136724.6007073144
 31
0.0
  0
INSERT
  5
2B0
330
2AB
100
AcDbEntity
  8
0
 62
     1
370
    -2
100
AcDbBlockReference
  2
B-DIM
 10
223754.9802236038
 20
136585.6046619722
 30
0.0
 41
30.0
 42
30.0
 43
30.0
 50
90.0
  0
INSERT
  5
2B1
330
2AB
100
AcDbEntity
  8
0
 62
     1
370
    -2
100
AcDbBlockReference
  2
B-DIM
 10
223754.9802236038
 20
136724.6007073144
 30
0.0
 41
30.0
 42
30.0
 43
30.0
 50
270.0
  0
MTEXT
  5
2B2
330
2AB
100
AcDbEntity
  8
0
 62
   140
370
     5
100
AcDbMText
 10
223674.9802236039
 20
136655.1026846434
 30
0.0
 40
80.0
 41
0.0
 71
     5
 72
     1
  1
\A1;148
  7
ROMANS
 11
0.0000000000000001
 21
1.0
 31
0.0
 73
     1
 44
1.0
1001
ACAD
1000
MTEXTBEGIN
1070
    73
1070
     1
1070
    44
1040
1.0
1070
    74
1070
     0
1000
MTEXTEND
  0
POINT
  5
2B3
330
2AB
100
AcDbEntity
  8
DEFPOINTS
 62
     0
100
AcDbPoint
 10
223457.4247719708
 20
136585.6046619722
 30
0.0
  0
POINT
  5
2B4
330
2AB
100
AcDbEntity
  8
DEFPOINTS
 62
     0
100
AcDbPoint
 10
222637.3693484823
 20
136724.6007073144
 30
0.0
  0
POINT
  5
2B5
330
2AB
100
AcDbEntity
  8
DEFPOINTS
 62
     0
100
AcDbPoint
 10
223754.9802236038
 20
136724.6007073144
 30
0.0
  0
ENDBLK
  5
2B6
330
2AB
100
AcDbEntity
  8
0
100
AcDbBlockEnd
  0
BLOCK
  5
2B9
330
2B8
100
AcDbEntity
  8
0
100
AcDbBlockBegin
  2
*D23
 70
     1
 10
0.0
 20
0.0
 30
0.0
  3
*D23
  1

  0
LINE
  5
2BA
330
2B8
100
AcDbEntity
  8
0
 62
     1
370
    -2
100
AcDbLine
 10
223924.1360301804
 20
135470.6080084133
 30
0.0
 11
223924.1360301804
 21
136694.6005729946
 31
0.0
  0
INSERT
  5
2BB
330
2B8
100
AcDbEntity
  8
0
 62
     1
370
    -2
100
AcDbBlockReference
  2
B-DIM
 10
223924.1360301804
 20
135440.6080084133
 30
0.0
 41
30.0
 42
30.0
 43
30.0
 50
270.0
  0
INSERT
  5
2BC
330
2B8
100
AcDbEntity
  8
0
 62
     1
370
    -2
100
AcDbBlockReference
  2
B-DIM
 10
223924.1360301804
 20
136724.6005729946
 30
0.0
 41
30.0
 42
30.0
 43
30.0
 50
90.0
  0
MTEXT
  5
2BD
330
2B8
100
AcDbEntity
  8
0
 62
   140
370
     5
100
AcDbMText
 10
223844.1360301804
 20
136082.604290704
 30
0.0
 40
80.0
 41
0.0
 71
     5
 72
     1
  1
\A1;1284
  7
ROMANS
 11
0.0000000000000001
 21
1.0
 31
0.0
 73
     1
 44
1.0
1001
ACAD
1000
MTEXTBEGIN
1070
    73
1070
     1
1070
    44
1040
1.0
1070
    74
1070
     0
1000
MTEXTEND
  0
POINT
  5
2BE
330
2B8
100
AcDbEntity
  8
DEFPOINTS
 62
     0
100
AcDbPoint
 10
222637.3721511256
 20
135440.6080084133
 30
0.0
  0
POINT
  5
2BF
330
2B8
100
AcDbEntity
  8
DEFPOINTS
 62
     0
100
AcDbPoint
 10
222466.2043415186
 20
136724.6005729946
 30
0.0
  0
POINT
  5
2C0
330
2B8
100
AcDbEntity
  8
DEFPOINTS
 62
     0
100
AcDbPoint
 10
223924.1360301804
 20
136724.6005729946
 30
0.0
  0
ENDBLK
  5
2C1
330
2B8
100
AcDbEntity
  8
0
100
AcDbBlockEnd
  0
BLOCK
  5
2C4
330
2C3
100
AcDbEntity
  8
0
100
AcDbBlockBegin
  2
*D24
 70
     1
 10
0.0
 20
0.0
 30
0.0
  3
*D24
  1

  0
LINE
  5
2C5
330
2C3
100
AcDbEntity
  8
0
 62
     1
370
    -2
100
AcDbLine
 10
223626.4162613998
 20
137183.4141019436
 30
0.0
 11
223656.4162613998
 21
137183.4141019436
 31
0.0
  0
LINE
  5
2C6
330
2C3
100
AcDbEntity
  8
0
 62
     1
370
    -2
100
AcDbLine
 10
223427.2948212572
 20
137183.4141019436
 30
0.0
 11
223397.2948212572
 21
137183.4141019436
 31
0.0
  0
LINE
  5
2C7
330
2C3
100
AcDbEntity
  8
0
 62
     1
370
    -2
100
AcDbLine
 10
223596.4162613998
 20
137183.4141019436
 30
0.0
 11
223457.2948212572
 21
137183.4141019436
 31
0.0
  0
INSERT
  5
2C8
330
2C3
100
AcDbEntity
  8
0
 62
     1
370
    -2
100
AcDbBlockReference
  2
B-DIM
 10
223596.4162613998
 20
137183.4141019436
 30
0.0
 41
30.0
 42
30.0
 43
30.0
 50
180.000000000002
  0
INSERT
  5
2C9
330
2C3
100
AcDbEntity
  8
0
 62
     1
370
    -2
100
AcDbBlockReference
  2
B-DIM
 10
223457.2948212572
 20
137183.4141019436
 30
0.0
 41
30.0
 42
30.0
 43
30.0
 50
0.0000000000019847
  0
MTEXT
  5
2CA
330
2C3
100
AcDbEntity
  8
0
 62
   140
370
     5
100
AcDbMText
 10
223526.8555413286
 20
137263.4141019436
 30
0.0
 40
80.0
 41
0.0
 71
     5
 72
     1
  1
\A1;148
  7
ROMANS
 73
     1
 44
1.0
1001
ACAD
1000
MTEXTBEGIN
1070
    73
1070
     1
1070
    44
1040
1.0
1070
    74
1070
     0
1000
MTEXTEND
  0
POINT
  5
2CB
330
2C3
100
AcDbEntity
  8
DEFPOINTS
 62
     0
100
AcDbPoint
 10
223596.4162613999
 20
135938.6034706833
 30
0.0
  0
POINT
  5
2CC
330
2C3
100
AcDbEntity
  8
DEFPOINTS
 62
     0
100
AcDbPoint
 10
223457.2948212573
 20
135938.6314145442
 30
0.0
  0
POINT
  5
2CD
330
2C3
100
AcDbEntity
  8
DEFPOINTS
 62
     0
100
AcDbPoint
 10
223457.2948212572
 20
137183.4141019436
 30
0.0
  0
ENDBLK
  5
2CE
330
2C3
100
AcDbEntity
  8
0
100
AcDbBlockEnd
  0
BLOCK
  5
2D1
330
2D0
100
AcDbEntity
  8
0
100
AcDbBlockBegin
  2
*D25
 70
     1
 10
0.0
 20
0.0
 30
0.0
  3
*D25
  1

  0
LINE
  5
2D2
330
2D0
100
AcDbEntity
  8
0
 62
     1
370
    -2
100
AcDbLine
 10
223427.2948212572
 20
137183.4141019436
 30
0.0
 11
222667.3693484823
 21
137183.4141019435
 31
0.0
  0
INSERT
  5
2D3
330
2D0
100
AcDbEntity
  8
0
 62
     1
370
    -2
100
AcDbBlockReference
  2
B-DIM
 10
223457.2948212572
 20
137183.4141019436
 30
0.0
 41
30.0
 42
30.0
 43
30.0
 50
0.0000000000019984
  0
INSERT
  5
2D4
330
2D0
100
AcDbEntity
  8
0
 62
     1
370
    -2
100
AcDbBlockReference
  2
B-DIM
 10
222637.3693484823
 20
137183.4141019435
 30
0.0
 41
30.0
 42
30.0
 43
30.0
 50
180.000000000002
  0
MTEXT
  5
2D5
330
2D0
100
AcDbEntity
  8
0
 62
   140
370
     5
100
AcDbMText
 10
223047.3320848698
 20
137263.4141019435
 30
0.0
 40
80.0
 41
0.0
 71
     5
 72
     1
  1
\A1;807
  7
ROMANS
 73
     1
 44
1.0
1001
ACAD
1000
MTEXTBEGIN
1070
    73
1070
     1
1070
    44
1040
1.0
1070
    74
1070
     0
1000
MTEXTEND
  0
POINT
  5
2D6
330
2D0
100
AcDbEntity
  8
DEFPOINTS
 62
     0
100
AcDbPoint
 10
223457.2948212573
 20
135938.6314145442
 30
0.0
  0
POINT
  5
2D7
330
2D0
100
AcDbEntity
  8
DEFPOINTS
 62
     0
100
AcDbPoint
 10
222637.3693484823
 20
136588.6046619722
 30
0.0
  0
POINT
  5
2D8
330
2D0
100
AcDbEntity
  8
DEFPOINTS
 62
     0
100
AcDbPoint
 10
222637.3693484823
 20
137183.4141019435
 30
0.0
  0
ENDBLK
  5
2D9
330
2D0
100
AcDbEntity
  8
0
100
AcDbBlockEnd
  0
BLOCK
  5
2DC
330
2DB
100
AcDbEntity
  8
0
100
AcDbBlockBegin
  2
*D26
 70
     1
 10
0.0
 20
0.0
 30
0.0
  3
*D26
  1

  0
LINE
  5
2DD
330
2DB
100
AcDbEntity
  8
0
 62
     1
370
    -2
100
AcDbLine
 10
222607.3693484822
 20
137183.4141019435
 30
0.0
 11
221876.3696334669
 21
137183.4141019435
 31
0.0
  0
INSERT
  5
2DE
330
2DB
100
AcDbEntity
  8
0
 62
     1
370
    -2
100
AcDbBlockReference
  2
B-DIM
 10
222637.3693484823
 20
137183.4141019435
 30
0.0
 41
30.0
 42
30.0
 43
30.0
 50
0.0000000000019984
  0
INSERT
  5
2DF
330
2DB
100
AcDbEntity
  8
0
 62
     1
370
    -2
100
AcDbBlockReference
  2
B-DIM
 10
221846.3696334668
 20
137183.4141019435
 30
0.0
 41
30.0
 42
30.0
 43
30.0
 50
180.000000000002
  0
MTEXT
  5
2E0
330
2DB
100
AcDbEntity
  8
0
 62
   140
370
     5
100
AcDbMText
 10
222241.8694909746
 20
137263.4141019435
 30
0.0
 40
80.0
 41
0.0
 71
     5
 72
     1
  1
\A1;799
  7
ROMANS
 73
     1
 44
1.0
1001
ACAD
1000
MTEXTBEGIN
1070
    73
1070
     1
1070
    44
1040
1.0
1070
    74
1070
     0
1000
MTEXTEND
  0
POINT
  5
2E1
330
2DB
100
AcDbEntity
  8
DEFPOINTS
 62
     0
100
AcDbPoint
 10
222637.3693484823
 20
136588.6046619722
 30
0.0
  0
POINT
  5
2E2
330
2DB
100
AcDbEntity
  8
DEFPOINTS
 62
     0
100
AcDbPoint
 10
221846.3696334668
 20
136724.6036925797
 30
0.0
  0
POINT
  5
2E3
330
2DB
100
AcDbEntity
  8
DEFPOINTS
 62
     0
100
AcDbPoint
 10
221846.3696334668
 20
137183.4141019435
 30
0.0
  0
ENDBLK
  5
2E4
330
2DB
100
AcDbEntity
  8
0
100
AcDbBlockEnd
  0
BLOCK
  5
2E7
330
2E6
100
AcDbEntity
  8
0
100
AcDbBlockBegin
  2
*D27
 70
     1
 10
0.0
 20
0.0
 30
0.0
  3
*D27
  1

  0
LINE
  5
2E8
330
2E6
100
AcDbEntity
  8
0
 62
     1
370
    -2
100
AcDbLine
 10
221816.3696334668
 20
137183.4141019435
 30
0.0
 11
221379.3696333729
 21
137183.4141019435
 31
0.0
  0
INSERT
  5
2E9
330
2E6
100
AcDbEntity
  8
0
 62
     1
370
    -2
100
AcDbBlockReference
  2
B-DIM
 10
221846.3696334668
 20
137183.4141019435
 30
0.0
 41
30.0
 42
30.0
 43
30.0
 50
0.0000000000019984
  0
INSERT
  5
2EA
330
2E6
100
AcDbEntity
  8
0
 62
     1
370
    -2
100
AcDbBlockReference
  2
B-DIM
 10
221349.3696333729
 20
137183.4141019435
 30
0.0
 41
30.0
 42
30.0
 43
30.0
 50
180.000000000002
  0
MTEXT
  5
2EB
330
2E6
100
AcDbEntity
  8
0
 62
   140
370
     5
100
AcDbMText
 10
221597.8696334198
 20
137263.4141019435
 30
0.0
 40
80.0
 41
0.0
 71
     5
 72
     1
  1
\A1;493
  7
ROMANS
 73
     1
 44
1.0
1001
ACAD
1000
MTEXTBEGIN
1070
    73
1070
     1
1070
    44
1040
1.0
1070
    74
1070
     0
1000
MTEXTEND
  0
POINT
  5
2EC
330
2E6
100
AcDbEntity
  8
DEFPOINTS
 62
     0
100
AcDbPoint
 10
221846.3696334668
 20
136724.6036925797
 30
0.0
  0
POINT
  5
2ED
330
2E6
100
AcDbEntity
  8
DEFPOINTS
 62
     0
100
AcDbPoint
 10
221349.3696333729
 20
136724.6000350299
 30
0.0
  0
POINT
  5
2EE
330
2E6
100
AcDbEntity
  8
DEFPOINTS
 62
     0
100
AcDbPoint
 10
221349.3696333729
 20
137183.4141019435
 30
0.0
  0
ENDBLK
  5
2EF
330
2E6
100
AcDbEntity
  8
0
100
AcDbBlockEnd
  0
BLOCK
  5
2F9
330
2F8
100
AcDbEntity
  8
0
100
AcDbBlockBegin
  2
*D28
 70
     1
 10
0.0
 20
0.0
 30
0.0
  3
*D28
  1

  0
LINE
  5
2FA
330
2F8
100
AcDbEntity
  8
0
 62
     1
370
    -2
100
AcDbLine
 10
223754.9802236039
 20
135410.6080084133
 30
0.0
 11
223754.9802236039
 21
135380.6080084133
 31
0.0
  0
LINE
  5
2FB
330
2F8
100
AcDbEntity
  8
0
 62
     1
370
    -2
100
AcDbLine
 10
223754.9802236039
 20
135554.6000658093
 30
0.0
 11
223754.9802236039
 21
135584.6000658093
 31
0.0
  0
LINE
  5
2FC
330
2F8
100
AcDbEntity
  8
0
 62
     1
370
    -2
100
AcDbLine
 10
223754.9802236039
 20
135440.6080084133
 30
0.0
 11
223754.9802236039
 21
135524.6000658093
 31
0.0
  0
INSERT
  5
2FD
330
2F8
100
AcDbEntity
  8
0
 62
     1
370
    -2
100
AcDbBlockReference
  2
B-DIM
 10
223754.9802236039
 20
135440.6080084133
 30
0.0
 41
30.0
 42
30.0
 43
30.0
 50
90.0
  0
INSERT
  5
2FE
330
2F8
100
AcDbEntity
  8
0
 62
     1
370
    -2
100
AcDbBlockReference
  2
B-DIM
 10
223754.9802236039
 20
135524.6000658093
 30
0.0
 41
30.0
 42
30.0
 43
30.0
 50
270.0
  0
MTEXT
  5
2FF
330
2F8
100
AcDbEntity
  8
0
 62
   140
370
     5
100
AcDbMText
 10
223674.9802236039
 20
135482.6040371113
 30
0.0
 40
80.0
 41
0.0
 71
     5
 72
     1
  1
\A1;84
  7
ROMANS
 11
0.0000000000000001
 21
1.0
 31
0.0
 73
     1
 44
1.0
1001
ACAD
1000
MTEXTBEGIN
1070
    73
1070
     1
1070
    44
1040
1.0
1070
    74
1070
     0
1000
MTEXTEND
  0
POINT
  5
300
330
2F8
100
AcDbEntity
  8
DEFPOINTS
 62
     0
100
AcDbPoint
 10
222637.3721511256
 20
135440.6080084133
 30
0.0
  0
POINT
  5
301
330
2F8
100
AcDbEntity
  8
DEFPOINTS
 62
     0
100
AcDbPoint
 10
222637.3721511256
 20
135524.6000658093
 30
0.0
  0
POINT
  5
302
330
2F8
100
AcDbEntity
  8
DEFPOINTS
 62
     0
100
AcDbPoint
 10
223754.9802236039
 20
135524.6000658093
 30
0.0
  0
ENDBLK
  5
303
330
2F8
100
AcDbEntity
  8
0
100
AcDbBlockEnd
  0
ENDSEC
  0
SECTION
  2
ENTITIES
  0
LINE
  5
10
330
2
100
AcDbEntity
  8
0Napisy
  6
HIDDEN
 62
     1
 48
8.0
370
     5
100
AcDbLine
 10
220399.8892448725
 20
132297.6012553763
 30
0.0
 11
220399.8892448725
 21
138473.1198157809
 31
0.0
  0
TEXT
  5
15
330
2
100
AcDbEntity
  8
0Napisy-PL
370
     5
100
AcDbText
 10
216666.4297817526
 20
141116.3055269018
 30
0.0
 40
150.0
  1
"DOM W BORRAGO (G)"
  7
AVA
100
AcDbText
  0
LWPOLYLINE
  5
1B
330
2
100
AcDbEntity
  8
RAMKI-A4
370
     5
100
AcDbPolyline
 90
        4
 70
     1
 43
0.0
 10
215187.2000545948
 20
127657.5157057546
 10
215187.2000545948
 20
141677.5157057546
 10
225387.2000545948
 20
141677.5157057546
 10
225387.2000545948
 20
127657.5157057546
  0
MTEXT
  5
1F
102
{ACAD_XDICTIONARY
360
39E
102
}
330
2
100
AcDbEntity
  8
0Napisy
100
AcDbMText
 10
216765.396492656
 20
140932.3689550166
 30
0.0
 40
150.0
 41
0.0
 71
     1
 72
     5
  1
{\fArial|b0|i0|c238|p34;MO\U+017BNA WKLEI\U+0106 DO PROJEKTU ZAGOSPODAROWANIA TERENU}
  7
ARIAL
 73
     1
 44
1.0
1001
AcDbBlockRepETag
1070
     1
1071
      383
1005
1F
1001
DCO15
1071
        1
1071
        1
1000
_tabelka_-_inform_i_etykiety_Link1
1004
19000000
1000
_tabelka_Arial151
1001
ACAD
1000
MTEXTBEGIN
1070
    73
1070
     1
1070
    44
1040
1.0
1070
    74
1070
     0
1000
MTEXTEND
  0
MTEXT
  5
23
102
{ACAD_XDICTIONARY
360
3A0
102
}
330
2
100
AcDbEntity
  8
0Napisy
100
AcDbMText
 10
220212.6558968869
 20
132370.0274562156
 30
0.0
 40
100.0
 41
0.0
 71
     1
 72
     5
  1
{\fArial|b0|i0|c238|p34;O\U+015A ODBICIA LUSTRZANEGO}
  7
ARIAL
 11
0.0000000000000001
 21
1.0
 31
0.0
 73
     1
 44
1.0
1001
AcDbBlockRepETag
1070
     1
1071
      383
1005
1F
1001
DCO15
1071
        1
1071
        1
1000
_tabelka_-_inform_i_etykiety_Link1
1004
1B000000
1000
_tabelka_Arial151
1001
ACAD
1000
MTEXTBEGIN
1070
    73
1070
     1
1070
    44
1040
1.0
1070
    74
1070
     0
1000
MTEXTEND
  0
MTEXT
  5
24
330
2
100
AcDbEntity
  8
0Napisy
100
AcDbMText
 10
216789.6764640862
 20
128621.06909775
 30
0.0
 40
100.0
 41
0.0
 71
     1
 72
     5
  1
{\fArial|b0|i0|c238|p34;OBRYS  BUDYNKU}
  7
ARIAL
 73
     1
 44
1.0
1001
AcDbBlockRepETag
1070
     1
1071
      383
1005
1F
1001
DCO15
1071
        1
1071
        1
1000
_tabelka_-_inform_i_etykiety_Link1
1004
1A000000
1000
_tabelka_Arial151
1001
ACAD
1000
MTEXTBEGIN
1070
    73
1070
     1
1070
    44
1040
1.0
1070
    74
1070
     0
1000
MTEXTEND
  0
MTEXT
  5
25
330
2
100
AcDbEntity
  8
0Napisy
100
AcDbMText
 10
216789.6764640862
 20
128371.0690977501
 30
0.0
 40
100.0
 41
0.0
 71
     1
 72
     5
  1
{\fArial|b0|i0|c238|p34;Skala:}
  7
ARIAL
 73
     1
 44
1.0
1001
AcDbBlockRepETag
1070
     1
1071
      383
1005
1F
1001
DCO15
1071
        1
1071
        1
1000
_tabelka_-_inform_i_etykiety_Link1
1004
08000000
1000
_tabelka_Arial151
1001
ACAD
1000
MTEXTBEGIN
1070
    73
1070
     1
1070
    44
1040
1.0
1070
    74
1070
     0
1000
MTEXTEND
  0
TEXT
  5
26
330
2
100
AcDbEntity
  8
0Napisy
100
AcDbText
 10
217457.3675813689
 20
128269.3637771498
 30
0.0
 40
100.0
  1
1:500
  7
ARIAL
100
AcDbText
1001
AcDbBlockRepETag
1070
     1
1071
      383
1005
1F
1001
DCO15
1071
        1
1071
        1
1000
_tabelka_-_inform_i_etykiety_Link1
1004
08000000
1000
_tabelka_Arial151
  0
HATCH
  5
27
330
2
100
AcDbEntity
  8
0
370
     5
100
AcDbHatch
 10
0.0
 20
0.0
 30
0.0
210
0.0
220
0.0
230
1.0
  2
SOLID
 70
     1
 71
     0
 91
        1
 92
        7
 72
     0
 73
     1
 93
        8
 10
217589.2444101265
 20
135913.6046674556
 10
217346.2704824391
 20
135913.6046682813
 10
217366.5328418532
 20
135938.6046619721
 10
217408.9091412628
 20
135938.6046619721
 10
217408.9091412628
 20
135938.6046680381
 10
217416.3591412627
 20
135938.6046680117
 10
217416.3591412627
 20
135938.6046619721
 10
217602.0240894837
 20
135938.6052678116
 97
        0
 75
     0
 76
     1
 47
0.7364256644526343
 98
        1
 10
217423.2532220736
 20
135921.6370050854
1001
ACAD
1010
0.0
1020
0.0
1030
0.0
  0
LINE
  5
28
330
2
100
AcDbEntity
  8
0
370
     5
100
AcDbLine
 10
217408.9091412628
 20
135938.6046619721
 30
0.0
 11
217340.4849468973
 21
135938.6046619721
 31
0.0
  0
LINE
  5
29
330
2
100
AcDbEntity
  8
0
370
     5
100
AcDbLine
 10
218696.4088562782
 20
136685.6036925797
 30
0.0
 11
218776.4088562782
 21
136685.6036925797
 31
0.0
  0
LINE
  5
2A
330
2
100
AcDbEntity
  8
0
370
     5
100
AcDbLine
 10
219119.4040233057
 20
135938.6046627336
 30
0.0
 11
219179.4040233057
 21
135938.6046627336
 31
0.0
  0
LINE
  5
2B
330
2
100
AcDbEntity
  8
0
370
     5
100
AcDbLine
 10
219411.4088563722
 20
136549.6046619721
 30
0.0
 11
219411.4088563722
 21
136400.6046628563
 31
0.0
  0
LINE
  5
2C
330
2
100
AcDbEntity
  8
0
370
     5
100
AcDbLine
 10
219411.4088563722
 20
136240.6046628563
 30
0.0
 11
219411.4088563722
 21
136150.6046637404
 31
0.0
  0
LINE
  5
2D
330
2
100
AcDbEntity
  8
0
370
     5
100
AcDbLine
 10
219351.4088563722
 20
135938.6046619995
 30
0.0
 11
219411.4088563722
 21
135938.6046612813
 31
0.0
  0
LINE
  5
2E
330
2
100
AcDbEntity
  8
0
370
     5
100
AcDbLine
 10
219411.4088563722
 20
135938.6046612813
 30
0.0
 11
219411.4088563722
 21
136153.0859872585
 31
0.0
  0
HATCH
  5
2F
330
2
100
AcDbEntity
  8
0
370
     5
100
AcDbHatch
 10
0.0
 20
0.0
 30
0.0
210
0.0
220
0.0
230
1.0
  2
SOLID
 70
     1
 71
     0
 91
        1
 92
        7
 72
     0
 73
     1
 93
        7
 10
219266.4088563279
 20
135913.6046614515
 10
219046.4088563278
 20
135913.6046622316
 10
219046.4088563527
 20
135920.6046622316
 10
219046.4088564165
 20
135938.6046622316
 10
219179.404023723
 20
135938.60466176
 10
219262.0888563721
 20
135938.6046614668
 10
219266.4088564165
 20
135938.6046614515
 97
        0
 75
     0
 76
     1
 47
0.7515315768655191
 98
        1
 10
219110.2843392884
 20
135931.5160064643
1001
ACAD
1010
0.0
1020
0.0
1030
0.0
  0
LINE
  5
30
330
2
100
AcDbEntity
  8
0
370
     5
100
AcDbLine
 10
219112.3140237229
 20
135938.6046627966
 30
0.0
 11
219262.0888563721
 21
135938.6046614668
 31
0.0
  0
LINE
  5
31
330
2
100
AcDbEntity
  8
0
370
     5
100
AcDbLine
 10
217203.3591412628
 20
135938.6046685623
 30
0.0
 11
217203.3591412628
 21
135948.6037750875
 31
0.0
  0
LINE
  5
32
330
2
100
AcDbEntity
  8
0
370
     5
100
AcDbLine
 10
218527.4062812442
 20
136685.6036925797
 30
0.0
 11
218201.4091412627
 21
136685.6036925797
 31
0.0
  0
LINE
  5
33
330
2
100
AcDbEntity
  8
0
370
     5
100
AcDbLine
 10
218696.4088562782
 20
136685.6036925797
 30
0.0
 11
218539.4062812443
 21
136685.6036925797
 31
0.0
  0
LINE
  5
34
330
2
100
AcDbEntity
  8
0
370
     5
100
AcDbLine
 10
219251.3991910737
 20
135938.6046619995
 30
0.0
 11
219191.3991910737
 21
135938.6046612813
 31
0.0
  0
LINE
  5
35
330
2
100
AcDbEntity
  8
0
370
     5
100
AcDbLine
 10
218939.4088562782
 20
136549.6046619646
 30
0.0
 11
218939.4088562782
 21
136571.6046619721
 31
0.0
  0
LINE
  5
36
330
2
100
AcDbEntity
  8
0
370
     5
100
AcDbLine
 10
218953.4088562782
 20
136571.6046619721
 30
0.0
 11
218953.4088562782
 21
136588.6046619721
 31
0.0
  0
LINE
  5
37
330
2
100
AcDbEntity
  8
0
370
     5
100
AcDbLine
 10
217253.3600803168
 20
136853.6003587081
 30
0.0
 11
217253.3600803168
 21
135938.6044751746
 31
0.0
  0
LINE
  5
38
330
2
100
AcDbEntity
  8
0
370
     5
100
AcDbLine
 10
217253.3600803168
 20
135938.6044751746
 30
0.0
 11
217203.3622283429
 21
135938.6044755128
 31
0.0
  0
LINE
  5
39
330
2
100
AcDbEntity
  8
0
370
     5
100
AcDbLine
 10
217203.3622283429
 20
135938.6044755128
 30
0.0
 11
217203.3600803168
 21
136853.6003587081
 31
0.0
  0
LINE
  5
3A
330
2
100
AcDbEntity
  8
0
370
     5
100
AcDbLine
 10
217203.3600803168
 20
136853.6003587081
 30
0.0
 11
217253.3600803168
 21
136853.6003587081
 31
0.0
  0
LINE
  5
3B
330
2
100
AcDbEntity
  8
0
370
     5
100
AcDbLine
 10
217253.3600813325
 20
136783.5997439347
 30
0.0
 11
217253.3600813325
 21
136853.6003590362
 31
0.0
  0
LINE
  5
3C
330
2
100
AcDbEntity
  8
0
370
     5
100
AcDbLine
 10
217253.3600813325
 20
136853.6003590362
 30
0.0
 11
217861.0922282985
 21
136853.6003590362
 31
0.0
  0
LINE
  5
3D
330
2
100
AcDbEntity
  8
0
370
     5
100
AcDbLine
 10
217253.3600813325
 20
136818.6003590362
 30
0.0
 11
217861.0922282985
 21
136818.6003590362
 31
0.0
  0
LINE
  5
3E
330
2
100
AcDbEntity
  8
0
370
     5
100
AcDbLine
 10
217861.0922282985
 20
137044.6003590362
 30
0.0
 11
217861.0922282985
 21
136743.6003590309
 31
0.0
  0
LINE
  5
3F
330
2
100
AcDbEntity
  8
0
370
     5
100
AcDbLine
 10
217861.0922282985
 20
137044.6003590362
 30
0.0
 11
218121.0922282986
 21
137044.6003590362
 31
0.0
  0
LINE
  5
40
330
2
100
AcDbEntity
  8
0
370
     5
100
AcDbLine
 10
217901.0922282985
 20
137009.6003590362
 30
0.0
 11
218086.0922282985
 21
137009.6003590362
 31
0.0
  0
LINE
  5
41
330
2
100
AcDbEntity
  8
0
370
     5
100
AcDbLine
 10
218086.0922282985
 20
137009.6003590362
 30
0.0
 11
218086.0922282985
 21
136724.601021436
 31
0.0
  0
LINE
  5
42
330
2
100
AcDbEntity
  8
0
370
     5
100
AcDbLine
 10
218086.0922282985
 20
136724.601021436
 30
0.0
 11
218051.0922282985
 21
136724.601021436
 31
0.0
  0
LINE
  5
43
330
2
100
AcDbEntity
  8
0
370
     5
100
AcDbLine
 10
218051.0922282985
 20
136974.6003590362
 30
0.0
 11
218051.0922282985
 21
136724.5999420089
 31
0.0
  0
LINE
  5
44
330
2
100
AcDbEntity
  8
0
370
     5
100
AcDbLine
 10
218121.0922282986
 20
137044.6003590362
 30
0.0
 11
218121.0922282986
 21
136724.5999420089
 31
0.0
  0
LINE
  5
45
330
2
100
AcDbEntity
  8
0
370
     5
100
AcDbLine
 10
218121.0922282986
 20
136724.5999420089
 30
0.0
 11
218051.0922282985
 21
136724.5999420089
 31
0.0
  0
LINE
  5
46
330
2
100
AcDbEntity
  8
0
370
     5
100
AcDbLine
 10
217901.0922282985
 20
137044.6003590362
 30
0.0
 11
217901.0922282985
 21
136743.6003590362
 31
0.0
  0
HATCH
  5
47
330
2
100
AcDbEntity
  8
0
370
     5
100
AcDbHatch
 10
0.0
 20
0.0
 30
0.0
210
0.0
220
0.0
230
1.0
  2
SOLID
 70
     1
 71
     0
 91
        1
 92
        7
 72
     0
 73
     1
 93
        6
 10
217786.4093876373
 20
135581.9436686109
 10
217772.4093876373
 20
135569.9252095949
 10
217772.4093876373
 20
135899.6046667491
 10
217203.3595069333
 20
135899.604668767
 10
217203.3592443848
 20
135913.604668767
 10
217786.4093876373
 20
135913.6046667855
 97
        0
 75
     0
 76
     1
 47
0.7669476626705299
 98
        1
 10
217633.9223253657
 20
135909.0885035636
1001
ACAD
1010
0.0
1020
0.0
1030
0.0
  0
HATCH
  5
48
330
2
100
AcDbEntity
  8
0
370
     5
100
AcDbHatch
 10
0.0
 20
0.0
 30
0.0
210
0.0
220
0.0
230
1.0
  2
SOLID
 70
     1
 71
     0
 91
        1
 92
        7
 72
     0
 73
     1
 93
        6
 10
217267.0890753974
 20
135913.6046685504
 10
217203.3592443847
 20
135913.604668767
 10
217203.3587755705
 20
135938.6034706291
 10
217253.3600803168
 20
135938.6042532977
 10
217253.3600803168
 20
135938.5984600252
 10
217279.7996579134
 20
135938.6035238823
 97
        0
 75
     0
 76
     1
 47
0.4075911598035821
 98
        1
 10
217238.1102006706
 20
135923.3391341828
1001
ACAD
1010
0.0
1020
0.0
1030
0.0
  0
LINE
  5
49
330
2
100
AcDbEntity
  8
0
370
     5
100
AcDbLine
 10
217203.359506988
 20
135899.6017489996
 30
0.0
 11
217203.3587755096
 21
135938.606715561
 31
0.0
  0
LINE
  5
4A
330
2
100
AcDbEntity
  8
0
370
     5
100
AcDbLine
 10
217203.3587755096
 20
135938.606715561
 30
0.0
 11
217356.3591401404
 21
135938.6095848482
 31
0.0
  0
LINE
  5
4B
330
2
100
AcDbEntity
  8
0
370
     5
100
AcDbLine
 10
218176.4091412627
 20
136724.6005729945
 30
0.0
 11
218176.4091412627
 21
136571.6044682843
 31
0.0
  0
LINE
  5
4C
330
2
100
AcDbEntity
  8
0
370
     5
100
AcDbLine
 10
218176.4091412627
 20
136724.6005729945
 30
0.0
 11
218939.4088562782
 21
136724.6005729945
 31
0.0
  0
LINE
  5
4D
330
2
100
AcDbEntity
  8
0
370
     5
100
AcDbLine
 10
218939.4088562782
 20
136724.6005729945
 30
0.0
 11
218939.4088562782
 21
136724.6000350299
 31
0.0
  0
HATCH
  5
4E
330
2
100
AcDbEntity
  8
0
370
     5
100
AcDbHatch
 10
0.0
 20
0.0
 30
0.0
210
0.0
220
0.0
230
1.0
  2
SOLID
 70
     1
 71
     0
 91
        1
 92
        7
 72
     0
 73
     1
 93
        6
 10
219450.4088563721
 20
136199.1259682109
 10
219436.4088563721
 20
136198.8471087708
 10
219436.4088563721
 20
136710.6036925797
 10
219336.4088563722
 20
136710.6036925797
 10
219336.4088563722
 20
136724.6000350299
 10
219450.4088563721
 20
136724.6000350299
 97
        0
 75
     0
 76
     1
 47
1.220094644956875
 98
        1
 10
219442.1645452587
 20
136718.0437023777
1001
ACAD
1010
0.0
1020
0.0
1030
0.0
  0
LINE
  5
4F
330
2
100
AcDbEntity
  8
0
370
     5
100
AcDbLine
 10
218939.4088562782
 20
136724.6000350299
 30
0.0
 11
219450.4088563721
 21
136724.6000350299
 31
0.0
  0
LINE
  5
50
330
2
100
AcDbEntity
  8
0
370
     5
100
AcDbLine
 10
219450.4088563721
 20
136724.6000350299
 30
0.0
 11
219450.4088563721
 21
135899.6046611536
 31
0.0
  0
LINE
  5
51
330
2
100
AcDbEntity
  8
0
370
     5
100
AcDbLine
 10
217861.092227814
 20
136783.5997439347
 30
0.0
 11
217861.092227814
 21
136743.6003590309
 31
0.0
  0
LINE
  5
52
330
2
100
AcDbEntity
  8
0
370
     5
100
AcDbLine
 10
217861.092227814
 20
136743.6003590309
 30
0.0
 11
217901.0922282985
 21
136743.6003590362
 31
0.0
  0
LINE
  5
53
330
2
100
AcDbEntity
  8
0
370
     5
100
AcDbLine
 10
217901.0922278139
 20
136743.6003590362
 30
0.0
 11
217901.0922278139
 21
136974.6003590362
 31
0.0
  0
LINE
  5
54
330
2
100
AcDbEntity
  8
0
370
     5
100
AcDbLine
 10
217901.0922278139
 20
136974.6003590362
 30
0.0
 11
218051.0922282985
 21
136974.6003590362
 31
0.0
  0
LINE
  5
55
330
2
100
AcDbEntity
  8
0
370
     5
100
AcDbLine
 10
218051.092227814
 20
136974.6003590362
 30
0.0
 11
218051.092227814
 21
136724.6007621577
 31
0.0
  0
LINE
  5
56
330
2
100
AcDbEntity
  8
0
370
     5
100
AcDbLine
 10
218051.092227814
 20
136724.6007621577
 30
0.0
 11
218176.4091407782
 21
136724.6007004168
 31
0.0
  0
LINE
  5
57
330
2
100
AcDbEntity
  8
0
370
     5
100
AcDbLine
 10
218176.4091407782
 20
136724.6007004168
 30
0.0
 11
218176.4091407782
 21
136571.6044682843
 31
0.0
  0
LINE
  5
58
330
2
100
AcDbEntity
  8
0
370
     5
100
AcDbLine
 10
217253.3600798323
 20
135938.5984600251
 30
0.0
 11
217356.3579310385
 21
135938.6181867549
 31
0.0
  0
LINE
  5
59
330
2
100
AcDbEntity
  8
0
370
     5
100
AcDbLine
 10
217253.3600808014
 20
136783.5997439347
 30
0.0
 11
217253.3600798323
 21
135938.5984600251
 31
0.0
  0
LINE
  5
5A
330
2
100
AcDbEntity
  8
0
370
     5
100
AcDbLine
 10
217253.3600800683
 20
136783.5997439347
 30
0.0
 11
217861.0922282985
 21
136783.5997439347
 31
0.0
  0
LINE
  5
5B
330
2
100
AcDbEntity
  8
0
370
     5
100
AcDbLine
 10
217253.3600800683
 20
136783.5997439347
 30
0.0
 11
217253.3600803168
 21
135938.5984600251
 31
0.0
  0
3DFACE
  5
5C
330
2
100
AcDbEntity
  8
0
370
     5
100
AcDbFace
 10
219430.4086198565
 20
135899.6041090531
 30
0.0
 11
219430.4086198565
 21
135899.6041090531
 31
0.0
 12
219430.4090928875
 22
135574.5982910471
 32
0.0
 13
219430.4086198565
 23
135899.6041090531
 33
0.0
  0
3DFACE
  5
5D
330
2
100
AcDbEntity
  8
0
370
     5
100
AcDbFace
 10
219430.4090928875
 20
135574.5982910471
 30
0.0
 11
219430.4090928875
 21
135574.5982910471
 31
0.0
 12
218953.4103958007
 22
135574.5982910471
 32
0.0
 13
218953.4103958007
 23
135574.5982910471
 33
0.0
  0
LINE
  5
5E
330
2
100
AcDbEntity
  8
0
370
     5
100
AcDbLine
 10
218563.4104967556
 20
135524.6000658092
 30
0.0
 11
218563.4104970937
 21
135574.5975351302
 31
0.0
  0
LINE
  5
5F
330
2
100
AcDbEntity
  8
0
370
     5
100
AcDbLine
 10
218563.4104970937
 20
135574.5975351302
 30
0.0
 11
219450.4088563721
 21
135574.5996174298
 31
0.0
  0
LINE
  5
60
330
2
100
AcDbEntity
  8
0
370
     5
100
AcDbLine
 10
219450.4088563721
 20
135574.5996174298
 30
0.0
 11
219450.4088563721
 21
135524.6000658092
 31
0.0
  0
LINE
  5
61
330
2
100
AcDbEntity
  8
0
370
     5
100
AcDbLine
 10
218953.4103960672
 20
135574.5982080456
 30
0.0
 11
218563.4104969348
 21
135574.5982106832
 31
0.0
  0
LINE
  5
62
330
2
100
AcDbEntity
  8
0
370
     5
100
AcDbLine
 10
218563.4104969348
 20
135574.5982106832
 30
0.0
 11
218563.4104969348
 21
135524.6000658092
 31
0.0
  0
LINE
  5
63
330
2
100
AcDbEntity
  8
0
370
     5
100
AcDbLine
 10
217772.4093876373
 20
135524.6000658092
 30
0.0
 11
219450.4088563721
 21
135524.6000658092
 31
0.0
  0
LINE
  5
64
330
2
100
AcDbEntity
  8
0
370
     5
100
AcDbLine
 10
217772.4093876373
 20
135524.6000658092
 30
0.0
 11
217772.4093876373
 21
135899.6047337102
 31
0.0
  0
LINE
  5
65
330
2
100
AcDbEntity
  8
0
370
     5
100
AcDbLine
 10
217811.4093876373
 20
135938.6046666648
 30
0.0
 11
217811.4093876373
 21
135563.6046634018
 31
0.0
  0
LINE
  5
66
330
2
100
AcDbEntity
  8
0
370
     5
100
AcDbLine
 10
217811.4093876373
 20
135563.6046634018
 30
0.0
 11
217871.4093876373
 21
135563.6046634018
 31
0.0
  0
LINE
  5
67
330
2
100
AcDbEntity
  8
0
370
     5
100
AcDbLine
 10
218904.4071811709
 20
135563.6046634018
 30
0.0
 11
218904.4071866799
 21
135574.5983356472
 31
0.0
  0
LINE
  5
68
330
2
100
AcDbEntity
  8
0
370
     5
100
AcDbLine
 10
218904.4071866799
 20
135574.5983356472
 30
0.0
 11
218993.4104969348
 21
135574.5983356472
 31
0.0
  0
LINE
  5
69
330
2
100
AcDbEntity
  8
0
370
     5
100
AcDbLine
 10
218993.4104969348
 20
135574.5983356472
 30
0.0
 11
218993.4104969348
 21
135563.6046634018
 31
0.0
  0
HATCH
  5
6A
330
2
100
AcDbEntity
  8
0
370
     5
100
AcDbHatch
 10
0.0
 20
0.0
 30
0.0
210
0.0
220
0.0
230
1.0
  2
SOLID
 70
     1
 71
     0
 91
        1
 92
        7
 72
     0
 73
     1
 93
        4
 10
218993.4104969348
 20
135563.6046634018
 10
218993.4104969348
 20
135538.6046634018
 10
218904.4071811708
 20
135538.6046634018
 10
218904.4071811708
 20
135563.6046634018
 97
        0
 75
     0
 76
     1
 47
0.466679632707678
 98
        1
 10
218952.8249404177
 20
135558.0627652283
1001
ACAD
1010
0.0
1020
0.0
1030
0.0
  0
LINE
  5
6B
330
2
100
AcDbEntity
  8
0
370
     5
100
AcDbLine
 10
218904.4071811708
 20
135524.6046634018
 30
0.0
 11
218993.4104969348
 21
135524.6046634018
 31
0.0
  0
LINE
  5
6C
330
2
100
AcDbEntity
  8
0
370
     5
100
AcDbLine
 10
218993.4104969348
 20
135524.6046634018
 30
0.0
 11
218993.4104969348
 21
135574.5983356472
 31
0.0
  0
LINE
  5
6D
330
2
100
AcDbEntity
  8
0
370
     5
100
AcDbLine
 10
218993.4104969348
 20
135574.5983356472
 30
0.0
 11
218904.4071811708
 21
135574.5983356472
 31
0.0
  0
LINE
  5
6E
330
2
100
AcDbEntity
  8
0
370
     5
100
AcDbLine
 10
218904.4071811708
 20
135574.5983356472
 30
0.0
 11
218904.4071811708
 21
135524.6046634018
 31
0.0
  0
LINE
  5
6F
330
2
100
AcDbEntity
  8
0
370
     5
100
AcDbLine
 10
217203.3593420215
 20
135938.6046687658
 30
0.0
 11
217203.3589405039
 21
135948.6037750875
 31
0.0
  0
LINE
  5
70
330
2
100
AcDbEntity
  8
0
370
     5
100
AcDbLine
 10
217356.3600990616
 20
135938.6037713971
 30
0.0
 11
217203.3593420215
 21
135938.6046687658
 31
0.0
  0
LINE
  5
71
330
2
100
AcDbEntity
  8
0
370
     5
100
AcDbLine
 10
217203.3604491118
 20
135938.6034706554
 30
0.0
 11
217203.3578334181
 21
136724.6065415842
 31
0.0
  0
LINE
  5
72
330
2
100
AcDbEntity
  8
0
370
     5
100
AcDbLine
 10
218051.0922282985
 20
136724.6057646658
 30
0.0
 11
219336.4088563722
 21
136724.6045867187
 31
0.0
  0
LINE
  5
73
330
2
100
AcDbEntity
  8
0
370
     5
100
AcDbLine
 10
219336.4088563722
 20
136724.6045867187
 30
0.0
 11
219336.4088563722
 21
136685.6036925797
 31
0.0
  0
LINE
  5
74
330
2
100
AcDbEntity
  8
0
370
     5
100
AcDbLine
 10
219336.4088563722
 20
136685.6036925797
 30
0.0
 11
219411.4088563722
 21
136685.6036925797
 31
0.0
  0
LINE
  5
75
330
2
100
AcDbEntity
  8
0
370
     5
100
AcDbLine
 10
219411.4088563722
 20
136685.6036925797
 30
0.0
 11
219411.4087190763
 21
136571.6046619721
 31
0.0
  0
LINE
  5
76
330
2
100
AcDbEntity
  8
0
370
     5
100
AcDbLine
 10
217356.3591412627
 20
135938.6058655383
 30
0.0
 11
217203.3604491118
 21
135938.6034706554
 31
0.0
  0
LINE
  5
77
330
2
100
AcDbEntity
  8
0
370
     5
100
AcDbLine
 10
218162.4105540068
 20
135524.6027896029
 30
0.0
 11
218563.4062815474
 21
135524.6041547368
 31
0.0
  0
HATCH
  5
78
330
2
100
AcDbEntity
  8
0
370
     5
100
AcDbHatch
 10
0.0
 20
0.0
 30
0.0
210
0.0
220
0.0
230
1.0
  2
SOLID
 70
     1
 71
     0
 91
        1
 92
        7
 72
     0
 73
     1
 93
        4
 10
218563.4062815474
 20
135524.6046634018
 10
218321.4091412628
 20
135524.6046634018
 10
218321.4091412628
 20
135538.6046634018
 10
218563.4062815474
 20
135538.6046634018
 97
        0
 75
     0
 76
     1
 47
0.4242041208907327
 98
        1
 10
218365.7765387312
 20
135531.6398420058
1001
ACAD
1010
0.0
1020
0.0
1030
0.0
  0
HATCH
  5
79
330
2
100
AcDbEntity
  8
0
370
     5
100
AcDbHatch
 10
0.0
 20
0.0
 30
0.0
210
0.0
220
0.0
230
1.0
  2
SOLID
 70
     1
 71
     0
 91
        1
 92
        7
 72
     0
 73
     1
 93
        8
 10
218563.4062815474
 20
135538.6046634018
 10
218321.4091412628
 20
135538.6046634018
 10
218321.4091412627
 20
135563.6046634018
 10
218524.4062815474
 20
135563.6046634018
 10
218524.4062815474
 20
135583.6046634018
 10
218549.4062815474
 20
135583.6046634018
 10
218549.4062815475
 20
135563.6046634018
 10
218563.4062815474
 20
135563.6046634018
 97
        0
 75
     0
 76
     1
 47
0.4242041208907327
 98
        1
 10
218365.7765387312
 20
135550.3048313642
1001
ACAD
1010
0.0
1020
0.0
1030
0.0
  0
LINE
  5
7A
330
2
100
AcDbEntity
  8
0
370
     5
100
AcDbLine
 10
218563.4062815474
 20
135899.6039357466
 30
0.0
 11
218953.4104969348
 21
135899.6038253554
 31
0.0
  0
LINE
  5
7B
330
2
100
AcDbEntity
  8
0
370
     5
100
AcDbLine
 10
218904.4071811709
 20
135563.6046634018
 30
0.0
 11
218904.4071553623
 21
135574.5983356472
 31
0.0
  0
LINE
  5
7C
330
2
100
AcDbEntity
  8
0
370
     5
100
AcDbLine
 10
218904.4071553623
 20
135574.5983356472
 30
0.0
 11
218993.4104969348
 21
135574.5982910471
 31
0.0
  0
LINE
  5
7D
330
2
100
AcDbEntity
  8
0
370
     5
100
AcDbLine
 10
218993.4104969348
 20
135574.5982910471
 30
0.0
 11
218993.4104969348
 21
135563.6046634018
 31
0.0
  0
LINE
  5
7E
330
2
100
AcDbEntity
  8
0
370
     5
100
AcDbLine
 10
218993.4104969348
 20
135563.6046634018
 30
0.0
 11
218904.4071811709
 21
135563.6046634018
 31
0.0
  0
LINE
  5
7F
330
2
100
AcDbEntity
  8
0
370
     5
390
80
100
AcDbLine
 10
218162.4105540068
 20
135538.6027910181
 30
0.0
 11
217786.4093876373
 21
135538.6027910181
 31
0.0
  0
LINE
  5
81
330
2
100
AcDbEntity
  8
0
370
     5
390
80
100
AcDbLine
 10
217786.4093876373
 20
135538.6027910181
 30
0.0
 11
217786.4093876373
 21
135913.6046692005
 31
0.0
  0
HATCH
  5
82
330
2
100
AcDbEntity
  8
0
370
     5
100
AcDbHatch
 10
0.0
 20
0.0
 30
0.0
210
0.0
220
0.0
230
1.0
  2
SOLID
 70
     1
 71
     0
 91
        1
 92
        7
 72
     0
 73
     1
 93
       11
 10
219436.4088563722
 20
136198.8471087708
 10
219411.4088563722
 20
136198.349145485
 10
219411.4088563722
 20
136549.6046619721
 10
219411.4087190763
 20
136549.6046619721
 10
219411.4087190764
 20
136574.6046619721
 10
219411.4088563722
 20
136574.6046619721
 10
219411.4088563722
 20
136588.6046619721
 10
219411.4088563722
 20
136685.6036925797
 10
219336.4088563722
 20
136685.6036925797
 10
219336.4088563722
 20
136710.6036925797
 10
219436.4088563721
 20
136710.6036925797
 97
        0
 75
     0
 76
     1
 47
1.73828156867186
 98
        1
 10
219421.9946203514
 20
136677.5026458895
1001
ACAD
1010
0.0
1020
0.0
1030
0.0
  0
LINE
  5
83
330
2
100
AcDbEntity
  8
0
370
     5
100
AcDbLine
 10
219411.4088563722
 20
136574.6046619721
 30
0.0
 11
219411.4087190763
 21
136574.6046619721
 31
0.0
  0
LINE
  5
84
330
2
100
AcDbEntity
  8
0
370
     5
100
AcDbLine
 10
219411.4087190763
 20
136549.6046619721
 30
0.0
 11
219411.4087190763
 21
136588.6046619721
 31
0.0
  0
LINE
  5
85
330
2
100
AcDbEntity
  8
0
370
     5
100
AcDbLine
 10
219411.4087190763
 20
136588.6046619721
 30
0.0
 11
219411.4088563722
 21
136588.6046619721
 31
0.0
  0
HATCH
  5
86
330
2
100
AcDbEntity
  8
0
370
     5
100
AcDbHatch
 10
0.0
 20
0.0
 30
0.0
210
0.0
220
0.0
230
1.0
  2
SOLID
 70
     1
 71
     0
 91
        1
 92
        7
 72
     0
 73
     1
 93
        4
 10
218946.4087190764
 20
136549.6046619721
 10
218939.4088562782
 20
136549.6046619721
 10
218939.4088562782
 20
136562.1046619721
 10
218946.4087190764
 20
136562.1046619721
 97
        0
 75
     0
 76
     1
 47
0.0956359271760192
 98
        1
 10
218944.1810640419
 20
136554.6320949581
1001
ACAD
1010
0.0
1020
0.0
1030
0.0
  0
LINE
  5
87
330
2
100
AcDbEntity
  8
0
370
     5
100
AcDbLine
 10
218946.4087190764
 20
136549.6046619721
 30
0.0
 11
218939.4088562631
 21
136549.6046619721
 31
0.0
  0
LINE
  5
88
330
2
100
AcDbEntity
  8
0
370
     5
100
AcDbLine
 10
218946.4087190764
 20
136562.1046619721
 30
0.0
 11
218946.4087190764
 21
136549.6046619721
 31
0.0
  0
LINE
  5
89
330
2
100
AcDbEntity
  8
0
370
     5
390
8A
100
AcDbLine
 10
218162.4091412627
 20
136562.1046619721
 30
0.0
 11
218176.4091412627
 21
136562.1046619721
 31
0.0
  0
LINE
  5
8B
330
2
100
AcDbEntity
  8
0
370
     5
390
8A
100
AcDbLine
 10
218162.4091412627
 20
136588.6046619721
 30
0.0
 11
218162.4091412627
 21
136562.1046619721
 31
0.0
  0
LINE
  5
8C
330
2
100
AcDbEntity
  8
0
370
     5
390
8A
100
AcDbLine
 10
217339.3591412628
 20
135938.6046682847
 30
0.0
 11
217378.3591412628
 21
135938.6046681464
 31
0.0
  0
HATCH
  5
8D
330
2
100
AcDbEntity
  8
0
370
     5
100
AcDbHatch
 10
0.0
 20
0.0
 30
0.0
210
0.0
220
0.0
230
1.0
  2
SOLID
 70
     1
 71
     0
 91
        1
 92
        7
 72
     0
 73
     1
 93
        6
 10
219450.4088563721
 20
135899.6046607991
 10
219336.4088562782
 20
135899.6046612033
 10
219336.4088563278
 20
135913.6046612033
 10
219436.4088563721
 20
135913.6046608487
 10
219436.4088563721
 20
136198.8471087708
 10
219450.4088563721
 20
136199.1259682109
 97
        0
 75
     0
 76
     1
 47
0.6130100040153476
 98
        1
 10
219423.7036389492
 20
135906.9028358362
1001
ACAD
1010
0.0
1020
0.0
1030
0.0
  0
LINE
  5
8E
330
2
100
AcDbEntity
  8
0
370
     5
100
AcDbLine
 10
219411.4088563722
 20
136574.6046619721
 30
0.0
 11
219411.4088563722
 21
136588.6046619721
 31
0.0
  0
LINE
  5
8F
330
2
100
AcDbEntity
  8
0
370
     5
100
AcDbLine
 10
219411.4088563722
 20
136588.6046619721
 30
0.0
 11
219411.4088563722
 21
136685.6036925797
 31
0.0
  0
LINE
  5
90
330
2
100
AcDbEntity
  8
0
370
     5
100
AcDbLine
 10
219450.4088563721
 20
136724.6036925797
 30
0.0
 11
219450.4088563721
 21
135899.6046607991
 31
0.0
  0
LINE
  5
91
330
2
100
AcDbEntity
  8
0
370
     5
100
AcDbLine
 10
219411.4088563722
 20
135938.6046609374
 30
0.0
 11
219411.4088563722
 21
136153.0859872585
 31
0.0
  0
LINE
  5
92
330
2
100
AcDbEntity
  8
0
370
     5
100
AcDbLine
 10
219411.4088563722
 20
136150.6046637404
 30
0.0
 11
219411.4088563722
 21
136549.6046619721
 31
0.0
  0
LINE
  5
93
330
2
100
AcDbEntity
  8
0
370
     5
390
8A
100
AcDbLine
 10
218914.4088562782
 20
135938.604662789
 30
0.0
 11
218939.4088562782
 21
135938.604662611
 31
0.0
  0
LINE
  5
94
330
2
100
AcDbEntity
  8
0
370
     5
100
AcDbLine
 10
218696.4088562782
 20
136685.6036925797
 30
0.0
 11
218539.4062812443
 21
136685.6036925797
 31
0.0
  0
LINE
  5
95
330
2
100
AcDbEntity
  8
0
370
     5
100
AcDbLine
 10
218539.4062812443
 20
136685.6036925797
 30
0.0
 11
218201.4091412627
 21
136685.6036925797
 31
0.0
  0
LINE
  5
96
330
2
100
AcDbEntity
  8
0
370
     5
100
AcDbLine
 10
218162.4091412627
 20
136724.6036925797
 30
0.0
 11
218953.4088562782
 21
136724.6036925797
 31
0.0
  0
LINE
  5
97
330
2
100
AcDbEntity
  8
0
370
     5
100
AcDbLine
 10
218914.4088562782
 20
136685.6036925797
 30
0.0
 11
218696.4088562782
 21
136685.6036925797
 31
0.0
  0
LINE
  5
98
330
2
100
AcDbEntity
  8
0
370
     5
100
AcDbLine
 10
219411.4088563722
 20
136685.6036925797
 30
0.0
 11
219336.4088563722
 21
136685.6036925797
 31
0.0
  0
LINE
  5
99
330
2
100
AcDbEntity
  8
0
370
     5
100
AcDbLine
 10
219336.4088563722
 20
136685.6036925797
 30
0.0
 11
219336.4088563722
 21
136724.6036925797
 31
0.0
  0
LINE
  5
9A
330
2
100
AcDbEntity
  8
0
370
     5
100
AcDbLine
 10
219336.4088563722
 20
136724.6036925797
 30
0.0
 11
219450.4088563721
 21
136724.6036925797
 31
0.0
  0
HATCH
  5
9B
330
2
100
AcDbEntity
  8
0
370
     5
100
AcDbHatch
 10
0.0
 20
0.0
 30
0.0
210
0.0
220
0.0
230
1.0
  2
SOLID
 70
     1
 71
     0
 91
        1
 92
        7
 72
     0
 73
     1
 93
        4
 10
217811.4093876373
 20
135603.4052025682
 10
217786.4093876373
 20
135581.9436686109
 10
217786.4093876372
 20
135913.6046667855
 10
217811.4093876373
 20
135913.6046667005
 97
        0
 75
     0
 76
     1
 47
1.1779256844559
 98
        1
 10
217798.9507170907
 20
135825.6275424364
1001
ACAD
1010
0.0
1020
0.0
1030
0.0
  0
HATCH
  5
9C
330
2
100
AcDbEntity
  8
0
370
     5
100
AcDbHatch
 10
0.0
 20
0.0
 30
0.0
210
0.0
220
0.0
230
1.0
  2
SOLID
 70
     1
 71
     0
 91
        1
 92
        7
 72
     0
 73
     1
 93
        3
 10
217317.5470210312
 20
135913.604668379
 10
217306.4641896432
 20
135913.6046684167
 10
217311.1291491521
 20
135921.183734925
 97
        0
 75
     0
 76
     1
 47
0.2008036567263383
 98
        1
 10
217312.0680831595
 20
135915.431010537
1001
ACAD
1010
0.0
1020
0.0
1030
0.0
  0
LINE
  5
9D
330
2
100
AcDbEntity
  8
0
370
     5
100
AcDbLine
 10
217203.3591413071
 20
135938.604668767
 30
0.0
 11
217811.4093876373
 21
135938.6046666649
 31
0.0
  0
LINE
  5
9E
330
2
100
AcDbEntity
  8
0
370
     5
100
AcDbLine
 10
217772.4093876373
 20
135899.6046667491
 30
0.0
 11
217203.3591411688
 21
135899.604668767
 31
0.0
  0
LINE
  5
9F
330
2
100
AcDbEntity
  8
0
370
     5
100
AcDbLine
 10
217203.3591411688
 20
135899.604668767
 30
0.0
 11
217203.3591413071
 21
135938.604668767
 31
0.0
  0
HATCH
  5
A0
330
2
100
AcDbEntity
  8
0
370
     5
100
AcDbHatch
 10
0.0
 20
0.0
 30
0.0
210
0.0
220
0.0
230
1.0
  2
SOLID
 70
     1
 71
     0
 91
        1
 92
        7
 72
     0
 73
     1
 93
        4
 10
219266.4088562782
 20
135899.6046614515
 10
219046.4088562782
 20
135899.6046622316
 10
219046.4088563278
 20
135913.6046622316
 10
219266.4088563278
 20
135913.6046614515
 97
        0
 75
     0
 76
     1
 47
0.7515315768655191
 98
        1
 10
219087.7214656665
 20
135908.2185388011
1001
ACAD
1010
0.0
1020
0.0
1030
0.0
  0
HATCH
  5
A1
330
2
100
AcDbEntity
  8
0
370
     5
100
AcDbHatch
 10
0.0
 20
0.0
 30
0.0
210
0.0
220
0.0
230
1.0
  2
SOLID
 70
     1
 71
     0
 91
        1
 92
        7
 72
     0
 73
     1
 93
        4
 10
218976.4088562782
 20
135899.6046624799
 10
218821.4062812301
 20
135899.6046630295
 10
218821.4062812797
 20
135913.6046630295
 10
218976.4088563278
 20
135913.6046624799
 97
        0
 75
     0
 76
     1
 47
0.7515315768655191
 98
        1
 10
218905.714138445
 20
135910.473115598
1001
ACAD
1010
0.0
1020
0.0
1030
0.0
  0
HATCH
  5
A2
330
2
100
AcDbEntity
  8
0
370
     5
100
AcDbHatch
 10
0.0
 20
0.0
 30
0.0
210
0.0
220
0.0
230
1.0
  2
SOLID
 70
     1
 71
     0
 91
        1
 92
        7
 72
     0
 73
     1
 93
        4
 10
218976.4088564165
 20
135938.6046624799
 10
218976.4088563279
 20
135913.6046624799
 10
218821.4062812797
 20
135913.6046630295
 10
218821.4062813683
 20
135938.6046630294
 97
        0
 75
     0
 76
     1
 47
0.7515315768655191
 98
        1
 10
218900.4495046011
 20
135926.2552837477
1001
ACAD
1010
0.0
1020
0.0
1030
0.0
  0
HATCH
  5
A3
330
2
100
AcDbEntity
  8
0
370
     5
100
AcDbHatch
 10
0.0
 20
0.0
 30
0.0
210
0.0
220
0.0
230
1.0
  2
SOLID
 70
     1
 71
     0
 91
        1
 92
        7
 72
     0
 73
     1
 93
        6
 10
218549.4062815475
 20
135913.604663994
 10
218721.4062812797
 20
135913.6046633841
 10
218721.4062812301
 20
135899.6046633841
 10
218563.4062815474
 20
135899.6046639443
 10
218563.4062815474
 20
135873.6046634018
 10
218549.4062815475
 20
135873.6046634018
 97
        0
 75
     0
 76
     1
 47
0.531080233538673
 98
        1
 10
218556.2594365579
 20
135903.543200426
1001
ACAD
1010
0.0
1020
0.0
1030
0.0
  0
HATCH
  5
A4
330
2
100
AcDbEntity
  8
0
370
     5
100
AcDbHatch
 10
0.0
 20
0.0
 30
0.0
210
0.0
220
0.0
230
1.0
  2
SOLID
 70
     1
 71
     0
 91
        1
 92
        7
 72
     0
 73
     1
 93
        4
 10
218640.8975666338
 20
135913.6046636695
 10
218570.3397665928
 20
135913.6046639197
 10
218565.0494456151
 20
135938.6046639385
 10
218614.1784792411
 20
135938.6046637643
 97
        0
 75
     0
 76
     1
 47
0.3704935916859522
 98
        1
 10
218601.8141985114
 20
135926.5812553105
1001
ACAD
1010
0.0
1020
0.0
1030
0.0
  0
LINE
  5
A5
330
2
100
AcDbEntity
  8
0
370
     5
100
AcDbLine
 10
218672.4062812443
 20
135938.6046635578
 30
0.0
 11
218721.4062813684
 21
135938.6046633841
 31
0.0
  0
LINE
  5
A6
330
2
100
AcDbEntity
  8
0
370
     5
100
AcDbLine
 10
218721.4062813684
 20
135938.6046633841
 30
0.0
 11
218721.4062812301
 21
135899.6046633841
 31
0.0
  0
LINE
  5
A7
330
2
100
AcDbEntity
  8
0
370
     5
100
AcDbLine
 10
218721.4062812301
 20
135899.6046633841
 30
0.0
 11
218563.4062815474
 21
135899.6046639443
 31
0.0
  0
LINE
  5
A8
330
2
100
AcDbEntity
  8
0
370
     5
100
AcDbLine
 10
218821.4062813683
 20
135938.6046630295
 30
0.0
 11
218976.4088564165
 21
135938.6046624799
 31
0.0
  0
LINE
  5
A9
330
2
100
AcDbEntity
  8
0
370
     5
100
AcDbLine
 10
218976.4088564165
 20
135938.6046624799
 30
0.0
 11
218976.4088562782
 21
135899.6046624799
 31
0.0
  0
LINE
  5
AA
330
2
100
AcDbEntity
  8
0
370
     5
100
AcDbLine
 10
218976.4088562782
 20
135899.6046624799
 30
0.0
 11
218821.4062812301
 21
135899.6046630295
 31
0.0
  0
LINE
  5
AB
330
2
100
AcDbEntity
  8
0
370
     5
100
AcDbLine
 10
218821.4062812301
 20
135899.6046630295
 30
0.0
 11
218821.4062813683
 21
135938.6046630295
 31
0.0
  0
LINE
  5
AC
330
2
100
AcDbEntity
  8
0
370
     5
100
AcDbLine
 10
218976.4088564165
 20
135938.6046624799
 30
0.0
 11
219179.404023723
 21
135938.60466176
 31
0.0
  0
LINE
  5
AD
330
2
100
AcDbEntity
  8
0
370
     5
100
AcDbLine
 10
219191.404023723
 20
135938.6046617175
 30
0.0
 11
219266.4088564165
 21
135938.6046614515
 31
0.0
  0
LINE
  5
AE
330
2
100
AcDbEntity
  8
0
370
     5
100
AcDbLine
 10
219266.4088562782
 20
135899.6046614515
 30
0.0
 11
219046.4088562782
 21
135899.6046622316
 31
0.0
  0
LINE
  5
AF
330
2
100
AcDbEntity
  8
0
370
     5
100
AcDbLine
 10
219266.4088564165
 20
135938.6046614515
 30
0.0
 11
219411.4088563722
 21
135938.6046609374
 31
0.0
  0
LINE
  5
B0
330
2
100
AcDbEntity
  8
0
370
     5
100
AcDbLine
 10
219450.4088563721
 20
135899.6046607991
 30
0.0
 11
218976.4088562782
 21
135899.6046624799
 31
0.0
  0
LINE
  5
B1
330
2
100
AcDbEntity
  8
0
370
     5
100
AcDbLine
 10
218162.4091412627
 20
136562.1046619721
 30
0.0
 11
218162.4091412627
 21
136724.6036925797
 31
0.0
  0
LINE
  5
B2
330
2
100
AcDbEntity
  8
0
370
     5
100
AcDbLine
 10
218914.4088562782
 20
136685.6036925797
 30
0.0
 11
218914.4088562782
 21
136546.6046619722
 31
0.0
  0
HATCH
  5
B3
330
2
100
AcDbEntity
  8
0
370
     5
100
AcDbHatch
 10
0.0
 20
0.0
 30
0.0
210
0.0
220
0.0
230
1.0
  2
SOLID
 70
     1
 71
     0
 91
        1
 92
        7
 72
     0
 73
     1
 93
        4
 10
218549.4062815475
 20
135873.6046634018
 10
218524.4062815474
 20
135873.6046634018
 10
218524.4062815474
 20
135895.660754972
 10
218549.4062815475
 20
135894.9387606072
 97
        0
 75
     0
 76
     1
 47
0.3704935916859522
 98
        1
 10
218539.1537767163
 20
135889.5318745861
1001
ACAD
1010
0.0
1020
0.0
1030
0.0
  0
HATCH
  5
B4
330
2
100
AcDbEntity
  8
0
370
     5
100
AcDbHatch
 10
0.0
 20
0.0
 30
0.0
210
0.0
220
0.0
230
1.0
  2
SOLID
 70
     1
 71
     1
 91
        1
 92
        7
 72
     0
 73
     1
 93
        4
 10
218563.4062815474
 20
135583.6046634018
 10
218549.4062815475
 20
135583.6046634018
 10
218549.4062815474
 20
135563.6046634018
 10
218563.4062815475
 20
135563.6046634018
 97
        4
330
BE
330
B5
330
B7
330
B8
 75
     0
 76
     1
 47
0.2977476392511335
 98
        1
 10
218561.3945592944
 20
135574.3235429367
1001
ACAD
1010
0.0
1020
0.0
1030
0.0
  0
LINE
  5
B5
102
{ACAD_REACTORS
330
B4
102
}
330
2
100
AcDbEntity
  8
0
370
     5
100
AcDbLine
 10
218549.4062815474
 20
135563.6046634018
 30
0.0
 11
218549.4062815474
 21
135583.6046634018
 31
0.0
  0
LINE
  5
B6
330
2
100
AcDbEntity
  8
0
370
     5
100
AcDbLine
 10
218524.4062815474
 20
135563.6046634018
 30
0.0
 11
218524.4062815474
 21
135583.6046634018
 31
0.0
  0
LINE
  5
B7
102
{ACAD_REACTORS
330
B4
102
}
330
2
100
AcDbEntity
  8
0
370
     5
100
AcDbLine
 10
218524.4062815474
 20
135583.6046634018
 30
0.0
 11
218563.4062815474
 21
135583.6046634018
 31
0.0
  0
LINE
  5
B8
102
{ACAD_REACTORS
330
B4
102
}
330
2
100
AcDbEntity
  8
0
370
     5
100
AcDbLine
 10
218563.4062815474
 20
135583.6046634018
 30
0.0
 11
218563.4062815474
 21
135563.6046634018
 31
0.0
  0
LINE
  5
B9
330
2
100
AcDbEntity
  8
0
370
     5
100
AcDbLine
 10
218524.4062815474
 20
135873.6046634018
 30
0.0
 11
218524.4062815474
 21
135938.6046640825
 31
0.0
  0
LINE
  5
BA
330
2
100
AcDbEntity
  8
0
370
     5
100
AcDbLine
 10
218563.4062815474
 20
135899.6046639443
 30
0.0
 11
218563.4062815474
 21
135873.6046634018
 31
0.0
  0
LINE
  5
BB
330
2
100
AcDbEntity
  8
0
370
     5
100
AcDbLine
 10
218563.4062815474
 20
135873.6046634018
 30
0.0
 11
218524.4062815474
 21
135873.6046634018
 31
0.0
  0
LINE
  5
BC
330
2
100
AcDbEntity
  8
0
370
     5
390
8A
100
AcDbLine
 10
218524.4062815474
 20
135583.6046634018
 30
0.0
 11
218524.4062815474
 21
135873.6046634018
 31
0.0
  0
LINE
  5
BD
330
2
100
AcDbEntity
  8
0
370
     5
390
8A
100
AcDbLine
 10
218563.4062815474
 20
135873.6046634018
 30
0.0
 11
218563.4062815474
 21
135583.6046634018
 31
0.0
  0
LINE
  5
BE
102
{ACAD_REACTORS
330
B4
102
}
330
2
100
AcDbEntity
  8
0
370
     5
100
AcDbLine
 10
218549.4062815474
 20
135563.6046634018
 30
0.0
 11
218563.4062815474
 21
135563.6046634018
 31
0.0
  0
HATCH
  5
BF
330
2
100
AcDbEntity
  8
0
370
     5
100
AcDbHatch
 10
0.0
 20
0.0
 30
0.0
210
0.0
220
0.0
230
1.0
  2
SOLID
 70
     1
 71
     0
 91
        1
 92
        7
 72
     0
 73
     1
 93
        4
 10
218993.4104969347
 20
135524.6046634018
 10
218904.4071811708
 20
135524.6046634018
 10
218904.4071811708
 20
135538.6046634018
 10
218993.4104969347
 20
135538.6046634018
 97
        0
 75
     0
 76
     1
 47
0.466679632707678
 98
        1
 10
218954.6930978053
 20
135536.1288223144
1001
ACAD
1010
0.0
1020
0.0
1030
0.0
  0
LINE
  5
C0
330
2
100
AcDbEntity
  8
0
370
     5
100
AcDbLine
 10
218904.4071811708
 20
135538.6046634018
 30
0.0
 11
218993.4104969348
 21
135538.6046634018
 31
0.0
  0
HATCH
  5
C1
330
2
100
AcDbEntity
  8
0
370
     5
100
AcDbHatch
 10
0.0
 20
0.0
 30
0.0
210
0.0
220
0.0
230
1.0
  2
SOLID
 70
     1
 71
     0
 91
        1
 92
        7
 72
     0
 73
     1
 93
        4
 10
218281.4091412627
 20
135524.6046634018
 10
218241.4091412628
 20
135524.6046634018
 10
218241.4091412628
 20
135538.6046634018
 10
218281.4091412627
 20
135538.6046634018
 97
        0
 75
     0
 76
     1
 47
0.4242041208907327
 98
        1
 10
218250.6297239816
 20
135534.6236602117
1001
ACAD
1010
0.0
1020
0.0
1030
0.0
  0
HATCH
  5
C2
330
2
100
AcDbEntity
  8
0
370
     5
100
AcDbHatch
 10
0.0
 20
0.0
 30
0.0
210
0.0
220
0.0
230
1.0
  2
SOLID
 70
     1
 71
     0
 91
        1
 92
        7
 72
     0
 73
     1
 93
        4
 10
218281.4091412628
 20
135563.6046634018
 10
218281.4091412628
 20
135538.6046634018
 10
218241.4091412628
 20
135538.6046634018
 10
218241.4091412628
 20
135563.6046634018
 97
        0
 75
     0
 76
     1
 47
0.4242041208907327
 98
        1
 10
218256.148539874
 20
135553.2886495702
1001
ACAD
1010
0.0
1020
0.0
1030
0.0
  0
HATCH
  5
C3
330
2
100
AcDbEntity
  8
0
370
     5
100
AcDbHatch
 10
0.0
 20
0.0
 30
0.0
210
0.0
220
0.0
230
1.0
  2
SOLID
 70
     1
 71
     0
 91
        1
 92
        7
 72
     0
 73
     1
 93
        6
 10
218201.4091412627
 20
135524.6046634018
 10
217772.4093876372
 20
135524.6046634018
 10
217772.4093876373
 20
135569.9252095948
 10
217786.4093876373
 20
135581.9436686109
 10
217786.4093876373
 20
135538.6046634018
 10
218201.4091412628
 20
135538.6046634018
 97
        0
 75
     0
 76
     1
 47
0.8610494639451177
 98
        1
 10
217793.5194642006
 20
135532.5563228384
1001
ACAD
1010
0.0
1020
0.0
1030
0.0
  0
HATCH
  5
C4
330
2
100
AcDbEntity
  8
0
370
     5
100
AcDbHatch
 10
0.0
 20
0.0
 30
0.0
210
0.0
220
0.0
230
1.0
  2
SOLID
 70
     1
 71
     0
 91
        1
 92
        7
 72
     0
 73
     1
 93
        6
 10
218201.4091412627
 20
135538.6046634018
 10
217786.4093876373
 20
135538.6046634018
 10
217786.4093876373
 20
135581.9436686109
 10
217811.4093876373
 20
135603.4052025682
 10
217811.4093876373
 20
135563.6046634018
 10
218201.4091412628
 20
135563.6046634018
 97
        0
 75
     0
 76
     1
 47
0.8610494639451177
 98
        1
 10
217899.5080982734
 20
135554.0825564775
1001
ACAD
1010
0.0
1020
0.0
1030
0.0
  0
LINE
  5
C5
330
2
100
AcDbEntity
  8
0
370
     5
100
AcDbLine
 10
217811.4093876373
 20
135563.6046634018
 30
0.0
 11
218201.4091412627
 21
135563.6046634018
 31
0.0
  0
LINE
  5
C6
102
{ACAD_REACTORS
330
EE
102
}
330
2
100
AcDbEntity
  8
0
370
     5
100
AcDbLine
 10
218201.4091412627
 20
135563.6046634018
 30
0.0
 11
218201.4091412627
 21
135524.6046634018
 31
0.0
  0
LINE
  5
C7
330
2
100
AcDbEntity
  8
0
370
     5
100
AcDbLine
 10
218201.4091412627
 20
135524.6046634018
 30
0.0
 11
217772.4093876373
 21
135524.6046634018
 31
0.0
  0
LINE
  5
C8
330
2
100
AcDbEntity
  8
0
370
     5
100
AcDbLine
 10
218241.4091412628
 20
135563.6046634018
 30
0.0
 11
218281.4091412627
 21
135563.6046634018
 31
0.0
  0
LINE
  5
C9
102
{ACAD_REACTORS
330
EF
102
}
330
2
100
AcDbEntity
  8
0
370
     5
100
AcDbLine
 10
218281.4091412627
 20
135563.6046634018
 30
0.0
 11
218281.4091412627
 21
135524.6046634018
 31
0.0
  0
LINE
  5
CA
330
2
100
AcDbEntity
  8
0
370
     5
100
AcDbLine
 10
218281.4091412627
 20
135524.6046634018
 30
0.0
 11
218241.4091412628
 21
135524.6046634018
 31
0.0
  0
LINE
  5
CB
102
{ACAD_REACTORS
330
EE
102
}
330
2
100
AcDbEntity
  8
0
370
     5
100
AcDbLine
 10
218241.4091412628
 20
135524.6046634018
 30
0.0
 11
218241.4091412628
 21
135563.6046634018
 31
0.0
  0
LINE
  5
CC
330
2
100
AcDbEntity
  8
0
370
     5
100
AcDbLine
 10
218321.4091412628
 20
135563.6046634018
 30
0.0
 11
218524.4062815474
 21
135563.6046634018
 31
0.0
  0
LINE
  5
CD
330
2
100
AcDbEntity
  8
0
370
     5
100
AcDbLine
 10
218563.4062815474
 20
135563.6046634018
 30
0.0
 11
218563.4104969348
 21
135563.6046634018
 31
0.0
  0
LINE
  5
CE
330
2
100
AcDbEntity
  8
0
370
     5
100
AcDbLine
 10
218563.4104969348
 20
135563.6046634018
 30
0.0
 11
218563.4104969348
 21
135524.6046634018
 31
0.0
  0
LINE
  5
CF
330
2
100
AcDbEntity
  8
0
370
     5
100
AcDbLine
 10
218563.4104969348
 20
135524.6046634018
 30
0.0
 11
218321.4091412628
 21
135524.6046634018
 31
0.0
  0
LINE
  5
D0
102
{ACAD_REACTORS
330
EF
102
}
330
2
100
AcDbEntity
  8
0
370
     5
100
AcDbLine
 10
218321.4091412628
 20
135524.6046634018
 30
0.0
 11
218321.4091412628
 21
135563.6046634018
 31
0.0
  0
LINE
  5
D1
330
2
100
AcDbEntity
  8
0
370
     5
100
AcDbLine
 10
218904.4071811708
 20
135563.6046634018
 30
0.0
 11
218993.4104969348
 21
135563.6046634018
 31
0.0
  0
LINE
  5
D2
330
2
100
AcDbEntity
  8
0
370
     5
100
AcDbLine
 10
218993.4104969348
 20
135563.6046634018
 30
0.0
 11
218993.4104969348
 21
135524.6046634018
 31
0.0
  0
LINE
  5
D3
330
2
100
AcDbEntity
  8
0
370
     5
100
AcDbLine
 10
218993.4104969348
 20
135524.6046634018
 30
0.0
 11
218904.4071811708
 21
135524.6046634018
 31
0.0
  0
LINE
  5
D4
330
2
100
AcDbEntity
  8
0
370
     5
100
AcDbLine
 10
218904.4071811708
 20
135524.6046634018
 30
0.0
 11
218904.4071811708
 21
135563.6046634018
 31
0.0
  0
LINE
  5
D5
102
{ACAD_REACTORS
330
EE
102
}
330
2
100
AcDbEntity
  8
0
370
     5
390
8A
100
AcDbLine
 10
218201.4091412627
 20
135563.6046634018
 30
0.0
 11
218241.4091412628
 21
135563.6046634018
 31
0.0
  0
LINE
  5
D6
102
{ACAD_REACTORS
330
EF
102
}
330
2
100
AcDbEntity
  8
0
370
     5
390
8A
100
AcDbLine
 10
218281.4091412627
 20
135563.6046634018
 30
0.0
 11
218321.4091412628
 21
135563.6046634018
 31
0.0
  0
LINE
  5
D7
102
{ACAD_REACTORS
330
EF
102
}
330
2
100
AcDbEntity
  8
0
370
     5
390
8A
100
AcDbLine
 10
218281.4091412627
 20
135524.6046634018
 30
0.0
 11
218321.4091412628
 21
135524.6046634018
 31
0.0
  0
LINE
  5
D8
102
{ACAD_REACTORS
330
EE
102
}
330
2
100
AcDbEntity
  8
0
370
     5
390
8A
100
AcDbLine
 10
218201.4091412627
 20
135524.6046634018
 30
0.0
 11
218241.4091412628
 21
135524.6046634018
 31
0.0
  0
LINE
  5
D9
330
2
100
AcDbEntity
  8
0
370
     5
100
AcDbLine
 10
217811.4093876373
 20
135938.6046666649
 30
0.0
 11
217811.4093876373
 21
135563.6046634018
 31
0.0
  0
LINE
  5
DA
330
2
100
AcDbEntity
  8
0
370
     5
100
AcDbLine
 10
217772.4093876373
 20
135524.6046634018
 30
0.0
 11
217772.4093876373
 21
135899.6046667491
 31
0.0
  0
LINE
  5
DB
330
2
100
AcDbEntity
  8
0
370
     5
100
AcDbLine
 10
218055.8591412628
 20
136571.6046619721
 30
0.0
 11
218055.8591412628
 21
136566.6046619721
 31
0.0
  0
LINE
  5
DC
330
2
100
AcDbEntity
  8
0
370
     5
100
AcDbLine
 10
219411.4087190763
 20
136566.6046619721
 30
0.0
 11
219411.4087190763
 21
136571.6046619721
 31
0.0
  0
HATCH
  5
DD
330
2
100
AcDbEntity
  8
0
370
     5
100
AcDbHatch
 10
0.0
 20
0.0
 30
0.0
210
0.0
220
0.0
230
1.0
  2
SOLID
 70
     1
 71
     0
 91
        1
 92
        7
 72
     0
 73
     1
 93
        4
 10
217346.2704831841
 20
135913.6046692005
 10
217267.089075728
 20
135913.6046692005
 10
217279.8020096081
 20
135938.6081491366
 10
217366.5328418531
 20
135938.6046619722
 97
        0
 75
     0
 76
     1
 47
0.6475516232355029
 98
        1
 10
217325.7595546079
 20
135923.0651743268
1001
ACAD
1010
0.0
1020
0.0
1030
0.0
  0
LINE
  5
DE
330
2
100
AcDbEntity
  8
0
370
     5
100
AcDbLine
 10
218176.4091412627
 20
136585.6046619721
 30
0.0
 11
217342.3537177743
 21
136585.6046619721
 31
0.0
  0
LINE
  5
DF
330
2
100
AcDbEntity
  8
0
370
     5
100
AcDbLine
 10
218201.4091412627
 20
136546.6046619721
 30
0.0
 11
217381.3591412634
 21
136546.6046619721
 31
0.0
  0
LINE
  5
E0
330
2
100
AcDbEntity
  8
0
370
     5
100
AcDbLine
 10
217342.3537177743
 20
136585.6046619721
 30
0.0
 11
217342.48367386
 21
135938.6046682736
 31
0.0
  0
LINE
  5
E1
330
2
100
AcDbEntity
  8
0
370
     5
100
AcDbLine
 10
217381.3615520809
 20
136546.6046619721
 30
0.0
 11
217381.4836746468
 21
135938.6046681354
 31
0.0
  0
HATCH
  5
E2
330
2
100
AcDbEntity
  8
0
370
     5
100
AcDbHatch
 10
0.0
 20
0.0
 30
0.0
210
0.0
220
0.0
230
1.0
  2
SOLID
 70
     1
 71
     0
 91
        1
 92
        7
 72
     0
 73
     1
 93
       15
 10
217381.4836746468
 20
135938.6046681353
 10
217356.3591412627
 20
135938.6046682244
 10
217356.3591412627
 20
135938.6058655383
 10
217356.3591401404
 20
135938.6095848482
 10
217356.3579311998
 20
135938.6095848256
 10
217356.3579310385
 20
135938.6181867549
 10
217342.4836716784
 20
135938.6155294785
 10
217342.3537177742
 20
136585.6046619721
 10
218162.4091412627
 20
136585.6046619721
 10
218162.4091412627
 20
136562.1046619721
 10
218176.4091412627
 20
136562.1046619721
 10
218176.4091412627
 20
136546.6046619721
 10
217381.3591412635
 20
136546.6046619721
 10
217381.3591412634
 20
136521.604661881
 10
217381.3665735678
 20
136521.6046633738
 97
        0
 75
     0
 76
     1
 47
1.961059875014088
 98
        1
 10
217376.0833939472
 20
136215.5810293744
1001
ACAD
1010
0.0
1020
0.0
1030
0.0
  0
HATCH
  5
E3
330
2
100
AcDbEntity
  8
0
370
     5
100
AcDbHatch
 10
0.0
 20
0.0
 30
0.0
210
0.0
220
0.0
230
1.0
  2
SOLID
 70
     1
 71
     0
 91
        1
 92
        7
 72
     0
 73
     1
 93
       20
 10
218201.4091412628
 20
136546.6046619721
 10
218176.4091412627
 20
136546.6046619721
 10
218176.4091412627
 20
136562.1046619721
 10
218176.4091412627
 20
136710.6036925797
 10
218176.4091412627
 20
136724.6005729945
 10
218939.4088562782
 20
136724.6005729945
 10
218939.4088562782
 20
136724.6000350299
 10
218953.4088562782
 20
136724.6000350299
 10
218953.4088562782
 20
136571.6046619721
 10
218946.4087190764
 20
136571.6046619721
 10
218946.4087190764
 20
136566.6046619721
 10
218953.4088562782
 20
136566.6046619722
 10
218953.4088562782
 20
136562.1046619721
 10
218939.4088562782
 20
136562.1046619721
 10
218939.4088562782
 20
136567.6008227045
 10
218914.4088562782
 20
136567.6008227045
 10
218914.4088562782
 20
136685.6036925797
 10
218696.4088562782
 20
136685.6036925797
 10
218539.4062812443
 20
136685.6036925797
 10
218201.4091412627
 20
136685.6036925797
 97
        0
 75
     0
 76
     1
 47
0.4759754259060534
 98
        1
 10
218176.9404799073
 20
136578.1274436161
1001
ACAD
1010
0.0
1020
0.0
1030
0.0
  0
HATCH
  5
E4
330
2
100
AcDbEntity
  8
0
370
     5
100
AcDbHatch
 10
0.0
 20
0.0
 30
0.0
210
0.0
220
0.0
230
1.0
  2
SOLID
 70
     1
 71
     0
 91
        1
 92
        7
 72
     0
 73
     1
 93
        4
 10
218176.4091412627
 20
136562.1046619721
 10
218162.4091412627
 20
136562.1046619721
 10
218162.4091412627
 20
136585.6046619722
 10
218176.4091412627
 20
136585.6046619721
 97
        0
 75
     0
 76
     1
 47
0.4759754259060534
 98
        1
 10
218171.7007802517
 20
136580.0313382081
1001
ACAD
1010
0.0
1020
0.0
1030
0.0
  0
HATCH
  5
E5
330
2
100
AcDbEntity
  8
0
370
     5
100
AcDbHatch
 10
0.0
 20
0.0
 30
0.0
210
0.0
220
0.0
230
1.0
  2
SOLID
 70
     1
 71
     0
 91
        1
 92
        7
 72
     0
 73
     1
 93
        4
 10
218176.4091412184
 20
136585.6046619721
 10
218162.4091412627
 20
136585.6046619721
 10
218162.4091412627
 20
136724.6007073143
 10
218176.4091407782
 20
136724.6007004168
 97
        0
 75
     0
 76
     1
 47
0.4759754259060534
 98
        1
 10
218172.6534862508
 20
136619.0613242367
1001
ACAD
1010
0.0
1020
0.0
1030
0.0
  0
LINE
  5
E6
330
2
100
AcDbEntity
  8
0
370
     5
100
AcDbLine
 10
218914.4088562782
 20
136585.6046619721
 30
0.0
 11
219450.4088563721
 21
136585.6046619721
 31
0.0
  0
LINE
  5
E7
330
2
100
AcDbEntity
  8
0
370
     5
100
AcDbLine
 10
218914.4088562782
 20
136546.6046619721
 30
0.0
 11
219450.4088563721
 21
136546.6046619721
 31
0.0
  0
HATCH
  5
E8
330
2
100
AcDbEntity
  8
0
370
     5
100
AcDbHatch
 10
0.0
 20
0.0
 30
0.0
210
0.0
220
0.0
230
1.0
  2
SOLID
 70
     1
 71
     0
 91
        1
 92
        7
 72
     0
 73
     1
 93
       14
 10
219411.4088563722
 20
136549.6046619721
 10
219411.4088563722
 20
136546.6046619721
 10
218914.4088562782
 20
136546.6046619721
 10
218914.4088562782
 20
136567.6008227045
 10
218939.4088562782
 20
136567.6008227045
 10
218939.4088562782
 20
136549.6046619721
 10
218946.4087190764
 20
136549.6046619721
 10
218946.4087190764
 20
136562.1046619721
 10
218939.4088562782
 20
136562.1046619721
 10
218939.4088562782
 20
136567.6008227045
 10
218914.4088562782
 20
136567.6008227045
 10
218914.4088562782
 20
136585.6046619721
 10
219411.4087190764
 20
136585.6046619721
 10
219411.4087190763
 20
136549.6046619721
 97
        0
 75
     0
 76
     1
 47
1.243573604604036
 98
        1
 10
219127.594322006
 20
136570.4324778217
1001
ACAD
1010
0.0
1020
0.0
1030
0.0
  0
LINE
  5
E9
330
2
100
AcDbEntity
  8
0
370
     5
100
AcDbLine
 10
218524.4062815474
 20
135938.6046640825
 30
0.0
 11
218821.4062813683
 21
135938.6046630295
 31
0.0
  0
LINE
  5
EA
330
2
100
AcDbEntity
  8
0
370
     5
100
AcDbLine
 10
218721.4062812301
 20
135899.6038910245
 30
0.0
 11
218821.4062812301
 21
135899.6038627194
 31
0.0
  0
HATCH
  5
EB
330
2
100
AcDbEntity
  8
0
370
     5
100
AcDbHatch
 10
0.0
 20
0.0
 30
0.0
210
0.0
220
0.0
230
1.0
  2
SOLID
 70
     1
 71
     0
 91
        1
 92
        7
 72
     0
 73
     1
 93
        5
 10
218721.4062812797
 20
135913.604663384
 10
218608.9538191807
 20
135913.6046637828
 10
218608.9538191807
 20
135938.6046637828
 10
218672.4062812443
 20
135938.6046635578
 10
218721.4062813684
 20
135938.604663384
 97
        0
 75
     0
 76
     1
 47
0.5275439388332217
 98
        1
 10
218660.164095047
 20
135920.8796908199
1001
ACAD
1010
0.0
1020
0.0
1030
0.0
  0
HATCH
  5
EC
330
2
100
AcDbEntity
  8
0
370
     5
100
AcDbHatch
 10
0.0
 20
0.0
 30
0.0
210
0.0
220
0.0
230
1.0
  2
SOLID
 70
     1
 71
     0
 91
        1
 92
        7
 72
     0
 73
     1
 93
        4
 10
219062.5479184017
 20
135899.6046621744
 10
218976.4088562782
 20
135899.6046624798
 10
218976.4088564165
 20
135938.6046624799
 10
219062.5479184017
 20
135938.6046621744
 97
        0
 75
     0
 76
     1
 47
0.5275439388332491
 98
        1
 10
219008.1700472602
 20
135912.4211433317
1001
ACAD
1010
0.0
1020
0.0
1030
0.0
  0
HATCH
  5
ED
330
2
100
AcDbEntity
  8
0
370
     5
100
AcDbHatch
 10
0.0
 20
0.0
 30
0.0
210
0.0
220
0.0
230
1.0
  2
SOLID
 70
     1
 71
     0
 91
        1
 92
        7
 72
     0
 73
     1
 93
        8
 10
219450.4088563721
 20
135899.6046607991
 10
219241.1782765026
 20
135899.604661541
 10
219241.1782765026
 20
135938.604661541
 10
219266.4088564165
 20
135938.6046614515
 10
219411.4088563722
 20
135938.6046609374
 10
219411.4088563722
 20
136153.0859872585
 10
219411.4088563722
 20
136245.9311493492
 10
219450.4088563721
 20
136245.9311493492
 97
        0
 75
     0
 76
     1
 47
1.505079987526015
 98
        1
 10
219350.216728479
 20
135908.8045759997
1001
ACAD
1010
0.0
1020
0.0
1030
0.0
  0
HATCH
  5
EE
330
2
100
AcDbEntity
  8
0
370
     5
100
AcDbHatch
 10
0.0
 20
0.0
 30
0.0
210
0.0
220
0.0
230
1.0
  2
SOLID
 70
     1
 71
     1
 91
        1
 92
        7
 72
     0
 73
     1
 93
        4
 10
218241.4091412628
 20
135563.6046634018
 10
218201.4091412628
 20
135563.6046634018
 10
218201.4091412627
 20
135524.6046634018
 10
218241.4091412628
 20
135524.6046634018
 97
        4
330
D8
330
C6
330
D5
330
CB
 75
     0
 76
     1
 47
1.049285223462359
 98
        1
 10
218237.1022026953
 20
135554.5159556802
1001
ACAD
1010
0.0
1020
0.0
1030
0.0
  0
HATCH
  5
EF
330
2
100
AcDbEntity
  8
0
370
     5
100
AcDbHatch
 10
0.0
 20
0.0
 30
0.0
210
0.0
220
0.0
230
1.0
  2
SOLID
 70
     1
 71
     1
 91
        1
 92
        7
 72
     0
 73
     1
 93
        4
 10
218281.4091412628
 20
135563.6046634018
 10
218281.4091412627
 20
135524.6046634018
 10
218321.4091412628
 20
135524.6046634018
 10
218321.4091412628
 20
135563.6046634018
 97
        4
330
D7
330
C9
330
D6
330
D0
 75
     0
 76
     1
 47
1.049285223462359
 98
        1
 10
218294.8562362633
 20
135551.3681071215
1001
ACAD
1010
0.0
1020
0.0
1030
0.0
  0
HATCH
  5
F0
330
2
100
AcDbEntity
  8
0
370
     5
100
AcDbHatch
 10
0.0
 20
0.0
 30
0.0
210
0.0
220
0.0
230
1.0
  2
SOLID
 70
     1
 71
     0
 91
        1
 92
        7
 72
     0
 73
     1
 93
        6
 10
218721.4062813684
 20
135938.6046633841
 10
218721.4062812797
 20
135913.6046633841
 10
218549.4062815474
 20
135913.604663994
 10
218549.4062815475
 20
135873.6046634018
 10
218524.4062815474
 20
135873.6046634018
 10
218524.4062815474
 20
135938.6046640825
 97
        0
 75
     0
 76
     1
 47
0.987275855411063
 98
        1
 10
218540.1238302743
 20
135924.4863347236
1001
ACAD
1010
0.0
1020
0.0
1030
0.0
  0
HATCH
  5
F1
330
2
100
AcDbEntity
  8
0
370
     5
100
AcDbHatch
 10
0.0
 20
0.0
 30
0.0
210
0.0
220
0.0
230
1.0
  2
SOLID
 70
     1
 71
     0
 91
        1
 92
        7
 72
     0
 73
     1
 93
        6
 10
217811.4093876373
 20
135913.6046667006
 10
217786.4093876373
 20
135913.6046667855
 10
217786.4093876373
 20
135913.6046692005
 10
217567.0319321667
 20
135913.6046692006
 10
217567.0319321667
 20
135938.6046675097
 10
217811.4093876373
 20
135938.6046666649
 97
        0
 75
     0
 76
     1
 47
1.236015347798434
 98
        1
 10
217693.2001714787
 20
135925.1728792767
1001
ACAD
1010
0.0
1020
0.0
1030
0.0
  0
DIMENSION
  5
F2
330
2
100
AcDbEntity
  8
0
370
     5
100
AcDbDimension
  2
*D3
 10
217772.4093876373
 20
135132.6124251055
 30
0.0
 11
217487.8844473127
 21
135212.6124251055
 31
0.0
 71
     5
 42
569.0498806493123
  3
500
100
AcDbAlignedDimension
 13
217203.359506988
 23
135604.9940308093
 33
0.0
 14
217772.4093876373
 24
135604.9970155199
 34
0.0
100
AcDbRotatedDimension
  0
DIMENSION
  5
108
330
2
100
AcDbEntity
  8
0
370
     5
100
AcDbDimension
  2
*D4
 10
218563.4104969348
 20
135132.6124251055
 30
0.0
 11
218167.909942286
 21
135212.6124251055
 31
0.0
 71
     5
 42
791.0011092975037
  3
500
100
AcDbAlignedDimension
 13
217772.4093876373
 23
135604.9970155199
 33
0.0
 14
218563.4104969348
 24
135229.9923476189
 34
0.0
100
AcDbRotatedDimension
  0
DIMENSION
  5
113
330
2
100
AcDbEntity
  8
0
370
     5
100
AcDbDimension
  2
*D5
 10
219450.4088563721
 20
135132.6124251055
 30
0.0
 11
219006.9096766535
 21
135212.6124251055
 31
0.0
 71
     5
 42
886.9983594373625
  3
500
100
AcDbAlignedDimension
 13
218563.4104969348
 23
135229.9923476189
 33
0.0
 14
219450.4088563721
 24
135604.9969429634
 34
0.0
100
AcDbRotatedDimension
  0
DIMENSION
  5
11E
330
2
100
AcDbEntity
  8
0
370
     5
100
AcDbDimension
  2
*D6
 10
219450.4088563721
 20
134977.3103151121
 30
0.0
 11
218326.8839987953
 21
135057.3103151121
 31
0.0
 71
     5
 42
2247.049715153727
  3
500
100
AcDbAlignedDimension
 13
217203.3591412184
 23
135618.9969505767
 33
0.0
 14
219450.4088563721
 24
135745.6325677976
 34
0.0
100
AcDbRotatedDimension
  0
DIMENSION
  5
129
330
2
100
AcDbEntity
  8
0
370
     5
100
AcDbDimension
  2
*D7
 10
217044.7982661412
 20
135899.6047337102
 30
0.0
 11
216964.7982661411
 21
135712.1046985561
 31
0.0
 71
     5
 42
375.0000703083642
  3
500
100
AcDbAlignedDimension
 13
217772.4093876373
 23
135524.6046634018
 33
0.0
 14
217772.4093876373
 24
135899.6047337102
 34
0.0
 50
270.0
100
AcDbRotatedDimension
  0
DIMENSION
  5
134
330
2
100
AcDbEntity
  8
0
370
     5
100
AcDbDimension
  2
*D8
 10
217044.7982661412
 20
136585.6046619721
 30
0.0
 11
216964.7982661411
 21
136242.6046978412
 31
0.0
  1
677
 71
     5
 42
685.9999282619683
  3
500
100
AcDbAlignedDimension
 13
217772.4093876373
 23
135899.6047337102
 33
0.0
 14
217342.3537177743
 24
136585.6046619721
 34
0.0
 50
270.0
100
AcDbRotatedDimension
  0
DIMENSION
  5
13F
330
2
100
AcDbEntity
  8
0
370
     5
100
AcDbDimension
  2
*D9
 10
217044.7982661412
 20
136724.6007073143
 30
0.0
 11
216964.7982661411
 21
136655.1026846433
 31
0.0
  1
148
 71
     5
 42
138.99604534221
  3
500
100
AcDbAlignedDimension
 13
217342.3537177743
 23
136585.6046619721
 33
0.0
 14
218162.4091412627
 24
136724.6007073143
 34
0.0
 50
270.0
100
AcDbRotatedDimension
  0
DIMENSION
  5
14C
330
2
100
AcDbEntity
  8
0
370
     5
100
AcDbDimension
  2
*D10
 10
216875.6424595646
 20
136724.6005729945
 30
0.0
 11
216795.6424595646
 21
136082.604290704
 31
0.0
 71
     5
 42
1283.992564581247
  3
500
100
AcDbAlignedDimension
 13
218162.4063386194
 23
135440.6080084133
 33
0.0
 14
218333.5741482264
 24
136724.6005729945
 34
0.0
 50
270.0
100
AcDbRotatedDimension
  0
DIMENSION
  5
157
330
2
100
AcDbEntity
  8
0
370
     5
100
AcDbDimension
  2
*D11
 10
217342.4836684878
 20
137183.4141019435
 30
0.0
 11
217272.9229484165
 21
137263.4141019435
 31
0.0
  1
148
 71
     5
 42
139.1214401425968
  3
500
100
AcDbAlignedDimension
 13
217203.3622283452
 23
135938.6034706832
 33
0.0
 14
217342.4836684878
 24
135938.6314145441
 34
0.0
100
AcDbRotatedDimension
  0
DIMENSION
  5
164
330
2
100
AcDbEntity
  8
0
370
     5
100
AcDbDimension
  2
*D12
 10
218162.4091412627
 20
137183.4141019435
 30
0.0
 11
217752.4464048753
 21
137263.4141019435
 31
0.0
  1
807
 71
     5
 42
819.9254727749503
  3
500
100
AcDbAlignedDimension
 13
217342.4836684878
 23
135938.6314145441
 33
0.0
 14
218162.4091412627
 24
136588.6046619721
 34
0.0
100
AcDbRotatedDimension
  0
DIMENSION
  5
16F
330
2
100
AcDbEntity
  8
0
370
     5
100
AcDbDimension
  2
*D13
 10
218953.4088562782
 20
137183.4141019435
 30
0.0
 11
218557.9089987705
 21
137263.4141019435
 31
0.0
  1
799
 71
     5
 42
790.9997150154376
  3
500
100
AcDbAlignedDimension
 13
218162.4091412627
 23
136588.6046619721
 33
0.0
 14
218953.4088562782
 24
136724.6036925797
 34
0.0
100
AcDbRotatedDimension
  0
DIMENSION
  5
17A
330
2
100
AcDbEntity
  8
0
370
     5
100
AcDbDimension
  2
*D14
 10
219450.4088563721
 20
137183.4141019435
 30
0.0
 11
219201.9088563252
 21
137263.4141019435
 31
0.0
  1
493
 71
     5
 42
497.0000000939762
  3
500
100
AcDbAlignedDimension
 13
218953.4088562782
 23
136724.6036925797
 33
0.0
 14
219450.4088563721
 24
136724.6000350299
 34
0.0
100
AcDbRotatedDimension
  0
LWPOLYLINE
  5
185
102
{ACAD_REACTORS
330
189
102
}
330
2
100
AcDbEntity
  8
0Wymiary-PL
100
AcDbPolyline
 90
        4
 70
     1
 43
0.0
 10
218904.4071811708
 20
143862.9619557244
 10
218993.4104969348
 20
143862.9619557244
 10
218993.4104969348
 20
143851.9679304344
 10
218904.4071811708
 20
143851.9679304344
  0
HATCH
  5
189
330
2
100
AcDbEntity
  8
0Hatch
100
AcDbHatch
 10
0.0
 20
0.0
 30
0.0
210
0.0
220
0.0
230
1.0
  2
SOLID
 70
     1
 71
     1
 91
        1
 92
        7
 72
     0
 73
     1
 93
        4
 10
218993.4104969348
 20
143862.9619557244
 10
218904.4071811708
 20
143862.9619557244
 10
218904.4071811708
 20
143851.9679304344
 10
218993.4104969347
 20
143851.9679304344
 97
        1
330
185
 75
     0
 76
     1
 47
0.442807655847316
 98
        1
 10
218935.1840311583
 20
143855.7509666689
1001
ACAD
1010
0.0
1020
0.0
1030
0.0
  0
HATCH
  5
18B
330
2
100
AcDbEntity
  8
0
370
     5
100
AcDbHatch
 10
0.0
 20
0.0
 30
0.0
210
0.0
220
0.0
230
1.0
  2
SOLID
 70
     1
 71
     0
 91
        1
 92
        7
 72
     0
 73
     1
 93
        4
 10
218993.4104969348
 20
135563.6046634018
 10
218904.4071811708
 20
135563.6046634018
 10
218904.4071811708
 20
135574.5986886918
 10
218993.4104969347
 20
135574.5986886918
 97
        0
 75
     0
 76
     1
 47
0.442807655847316
 98
        1
 10
218935.1840311583
 20
135570.8156524573
1001
ACAD
1010
0.0
1020
0.0
1030
0.0
  0
LINE
  5
18C
330
2
100
AcDbEntity
  8
0
370
     5
100
AcDbLine
 10
218993.4105493384
 20
135574.5982910471
 30
0.0
 11
218993.4105504909
 21
135899.6046624196
 31
0.0
  0
LINE
  5
18D
330
2
100
AcDbEntity
  8
0
370
     5
100
AcDbLine
 10
219430.4090928857
 20
135574.5995704788
 30
0.0
 11
218993.4105499146
 21
135737.1014767333
 31
0.0
  0
LINE
  5
18E
330
2
100
AcDbEntity
  8
0
370
     5
100
AcDbLine
 10
218993.4105499146
 20
135737.1014767333
 30
0.0
 11
219430.4086198565
 21
135899.6041090531
 31
0.0
  0
LINE
  5
18F
330
2
100
AcDbEntity
  8
0
370
     5
390
80
100
AcDbLine
 10
218953.4029674111
 20
135913.6041533101
 30
0.0
 11
218953.4029657338
 21
135440.6080084133
 31
0.0
  0
LINE
  5
190
330
2
100
AcDbEntity
  8
0
370
     5
390
80
100
AcDbLine
 10
218953.4029657338
 20
135440.6080084133
 30
0.0
 11
218162.4063386194
 21
135440.6080084133
 31
0.0
  0
LINE
  5
191
330
2
100
AcDbEntity
  8
0
370
     5
390
80
100
AcDbLine
 10
218162.4063386194
 20
135440.6080084133
 30
0.0
 11
218162.4063386194
 21
135538.6022823532
 31
0.0
  0
DIMENSION
  5
192
330
2
100
AcDbEntity
  8
0
370
     5
100
AcDbDimension
  2
*D15
 10
217044.7982661412
 20
135524.6000658092
 30
0.0
 11
216964.7982661411
 21
135482.6040371113
 31
0.0
 71
     5
 42
83.99205739592435
  3
500
100
AcDbAlignedDimension
 13
218162.4063386194
 23
135440.6080084133
 33
0.0
 14
218162.4063386194
 24
135524.6000658092
 34
0.0
 50
270.0
100
AcDbRotatedDimension
  0
HATCH
  5
19F
330
2
100
AcDbEntity
  8
0
370
     5
100
AcDbHatch
 10
0.0
 20
0.0
 30
0.0
210
0.0
220
0.0
230
1.0
  2
SOLID
 70
     1
 71
     0
 91
        1
 92
        7
 72
     0
 73
     1
 93
        8
 10
223210.5340796186
 20
135913.6046674557
 10
223453.508007306
 20
135913.6046682814
 10
223433.2456478919
 20
135938.6046619722
 10
223390.8693484823
 20
135938.6046619722
 10
223390.8693484823
 20
135938.6046680382
 10
223383.4193484823
 20
135938.6046680118
 10
223383.4193484823
 20
135938.6046619722
 10
223197.7544002613
 20
135938.6052678117
 97
        0
 75
     0
 76
     1
 47
0.7364256644526343
 98
        1
 10
223376.5252676715
 20
135921.6370050855
1001
ACAD
1010
0.0
1020
0.0
1030
0.0
  0
LINE
  5
1A0
330
2
100
AcDbEntity
  8
0
370
     5
100
AcDbLine
 10
223390.8693484823
 20
135938.6046619722
 30
0.0
 11
223459.2935428477
 21
135938.6046619722
 31
0.0
  0
LINE
  5
1A1
330
2
100
AcDbEntity
  8
0
370
     5
100
AcDbLine
 10
222103.3696334668
 20
136685.6036925798
 30
0.0
 11
222023.3696334668
 21
136685.6036925798
 31
0.0
  0
LINE
  5
1A2
330
2
100
AcDbEntity
  8
0
370
     5
100
AcDbLine
 10
221680.3744664393
 20
135938.6046627336
 30
0.0
 11
221620.3744664394
 21
135938.6046627336
 31
0.0
  0
LINE
  5
1A3
330
2
100
AcDbEntity
  8
0
370
     5
100
AcDbLine
 10
221388.3696333729
 20
136549.6046619722
 30
0.0
 11
221388.3696333729
 21
136400.6046628563
 31
0.0
  0
LINE
  5
1A4
330
2
100
AcDbEntity
  8
0
370
     5
100
AcDbLine
 10
221388.3696333729
 20
136240.6046628563
 30
0.0
 11
221388.3696333729
 21
136150.6046637404
 31
0.0
  0
LINE
  5
1A5
330
2
100
AcDbEntity
  8
0
370
     5
100
AcDbLine
 10
221448.3696333729
 20
135938.6046619995
 30
0.0
 11
221388.3696333729
 21
135938.6046612813
 31
0.0
  0
LINE
  5
1A6
330
2
100
AcDbEntity
  8
0
370
     5
100
AcDbLine
 10
221388.3696333729
 20
135938.6046612813
 30
0.0
 11
221388.3696333729
 21
136153.0859872585
 31
0.0
  0
HATCH
  5
1A7
330
2
100
AcDbEntity
  8
0
370
     5
100
AcDbHatch
 10
0.0
 20
0.0
 30
0.0
210
0.0
220
0.0
230
1.0
  2
SOLID
 70
     1
 71
     0
 91
        1
 92
        7
 72
     0
 73
     1
 93
        7
 10
221533.3696334172
 20
135913.6046614516
 10
221753.3696334172
 20
135913.6046622316
 10
221753.3696333924
 20
135920.6046622317
 10
221753.3696333286
 20
135938.6046622316
 10
221620.3744660221
 20
135938.6046617601
 10
221537.6896333729
 20
135938.6046614669
 10
221533.3696333285
 20
135938.6046614516
 97
        0
 75
     0
 76
     1
 47
0.7515315768655191
 98
        1
 10
221689.4941504567
 20
135931.5160064644
1001
ACAD
1010
0.0
1020
0.0
1030
0.0
  0
LINE
  5
1A8
330
2
100
AcDbEntity
  8
0
370
     5
100
AcDbLine
 10
221687.4644660221
 20
135938.6046627966
 30
0.0
 11
221537.6896333729
 21
135938.6046614669
 31
0.0
  0
LINE
  5
1A9
330
2
100
AcDbEntity
  8
0
370
     5
100
AcDbLine
 10
223596.4193484823
 20
135938.6046685624
 30
0.0
 11
223596.4193484823
 21
135948.6037750876
 31
0.0
  0
LINE
  5
1AA
330
2
100
AcDbEntity
  8
0
370
     5
100
AcDbLine
 10
222272.3722085008
 20
136685.6036925798
 30
0.0
 11
222598.3693484823
 21
136685.6036925798
 31
0.0
  0
LINE
  5
1AB
330
2
100
AcDbEntity
  8
0
370
     5
100
AcDbLine
 10
222103.3696334668
 20
136685.6036925798
 30
0.0
 11
222260.3722085008
 21
136685.6036925798
 31
0.0
  0
LINE
  5
1AC
330
2
100
AcDbEntity
  8
0
370
     5
100
AcDbLine
 10
221548.3792986713
 20
135938.6046619995
 30
0.0
 11
221608.3792986713
 21
135938.6046612813
 31
0.0
  0
HATCH
  5
1AD
330
2
100
AcDbEntity
  8
0
370
     5
100
AcDbHatch
 10
0.0
 20
0.0
 30
0.0
210
0.0
220
0.0
230
1.0
  2
SOLID
 70
     1
 71
     0
 91
        1
 92
        7
 72
     0
 73
     1
 93
       20
 10
222598.3693484822
 20
136546.6046619722
 10
222623.3693484823
 20
136546.6046619722
 10
222623.3693484823
 20
136562.1046619722
 10
222623.3693484823
 20
136710.6036925797
 10
222623.3693484823
 20
136724.6005729946
 10
221860.3696334668
 20
136724.6005729946
 10
221860.3696334668
 20
136724.6000350299
 10
221846.3696334668
 20
136724.6000350299
 10
221846.3696334668
 20
136571.6046619722
 10
221853.3697706687
 20
136571.6046619722
 10
221853.3697706687
 20
136566.6046619722
 10
221846.3696334668
 20
136566.6046619722
 10
221846.3696334668
 20
136562.1046619722
 10
221860.3696334668
 20
136562.1046619722
 10
221860.3696334668
 20
136567.6008227045
 10
221885.3696334668
 20
136567.6008227045
 10
221885.3696334668
 20
136685.6036925797
 10
222103.3696334668
 20
136685.6036925798
 10
222260.3722085008
 20
136685.6036925798
 10
222598.3693484823
 20
136685.6036925798
 97
        0
 75
     0
 76
     1
 47
0.4759754259060534
 98
        1
 10
222622.8380098377
 20
136578.1274436162
1001
ACAD
1010
0.0
1020
0.0
1030
0.0
  0
HATCH
  5
1AE
330
2
100
AcDbEntity
  8
0
370
     5
100
AcDbHatch
 10
0.0
 20
0.0
 30
0.0
210
0.0
220
0.0
230
1.0
  2
SOLID
 70
     1
 71
     0
 91
        1
 92
        7
 72
     0
 73
     1
 93
       14
 10
221388.3696333729
 20
136549.6046619722
 10
221388.3696333728
 20
136546.6046619722
 10
221885.3696334668
 20
136546.6046619722
 10
221885.3696334668
 20
136567.6008227045
 10
221860.3696334668
 20
136567.6008227045
 10
221860.3696334668
 20
136549.6046619722
 10
221853.3697706687
 20
136549.6046619722
 10
221853.3697706687
 20
136562.1046619722
 10
221860.3696334668
 20
136562.1046619721
 10
221860.3696334668
 20
136567.6008227045
 10
221885.3696334668
 20
136567.6008227045
 10
221885.3696334668
 20
136585.6046619722
 10
221388.3697706686
 20
136585.6046619721
 10
221388.3697706687
 20
136549.6046619722
 97
        0
 75
     0
 76
     1
 47
1.243573604604036
 98
        1
 10
221672.184167739
 20
136570.4324778217
1001
ACAD
1010
0.0
1020
0.0
1030
0.0
  0
LINE
  5
1AF
330
2
100
AcDbEntity
  8
0
370
     5
100
AcDbLine
 10
221860.3696334668
 20
136549.6046619646
 30
0.0
 11
221860.3696334668
 21
136571.6046619722
 31
0.0
  0
LINE
  5
1B0
330
2
100
AcDbEntity
  8
0
370
     5
100
AcDbLine
 10
221846.3696334668
 20
136571.6046619722
 30
0.0
 11
221846.3696334668
 21
136588.6046619722
 31
0.0
  0
LINE
  5
1B1
330
2
100
AcDbEntity
  8
0
370
     5
100
AcDbLine
 10
223546.4184094282
 20
136853.6003587082
 30
0.0
 11
223546.4184094282
 21
135938.6044751747
 31
0.0
  0
LINE
  5
1B2
330
2
100
AcDbEntity
  8
0
370
     5
100
AcDbLine
 10
223546.4184094282
 20
135938.6044751747
 30
0.0
 11
223596.4162614022
 21
135938.6044755129
 31
0.0
  0
LINE
  5
1B3
330
2
100
AcDbEntity
  8
0
370
     5
100
AcDbLine
 10
223596.4162614022
 20
135938.6044755129
 30
0.0
 11
223596.4184094282
 21
136853.6003587082
 31
0.0
  0
LINE
  5
1B4
330
2
100
AcDbEntity
  8
0
370
     5
100
AcDbLine
 10
223596.4184094282
 20
136853.6003587082
 30
0.0
 11
223546.4184094282
 21
136853.6003587082
 31
0.0
  0
LINE
  5
1B5
330
2
100
AcDbEntity
  8
0
370
     5
100
AcDbLine
 10
223546.4184084126
 20
136783.5997439347
 30
0.0
 11
223546.4184084126
 21
136853.6003590363
 31
0.0
  0
LINE
  5
1B6
330
2
100
AcDbEntity
  8
0
370
     5
100
AcDbLine
 10
223546.4184084126
 20
136853.6003590363
 30
0.0
 11
222938.6862614465
 21
136853.6003590363
 31
0.0
  0
LINE
  5
1B7
330
2
100
AcDbEntity
  8
0
370
     5
100
AcDbLine
 10
223546.4184084126
 20
136818.6003590363
 30
0.0
 11
222938.6862614465
 21
136818.6003590363
 31
0.0
  0
LINE
  5
1B8
330
2
100
AcDbEntity
  8
0
370
     5
100
AcDbLine
 10
222938.6862614465
 20
137044.6003590363
 30
0.0
 11
222938.6862614465
 21
136743.600359031
 31
0.0
  0
LINE
  5
1B9
330
2
100
AcDbEntity
  8
0
370
     5
100
AcDbLine
 10
222938.6862614465
 20
137044.6003590363
 30
0.0
 11
222678.6862614465
 21
137044.6003590363
 31
0.0
  0
LINE
  5
1BA
330
2
100
AcDbEntity
  8
0
370
     5
100
AcDbLine
 10
222898.6862614465
 20
137009.6003590363
 30
0.0
 11
222713.6862614465
 21
137009.6003590363
 31
0.0
  0
LINE
  5
1BB
330
2
100
AcDbEntity
  8
0
370
     5
100
AcDbLine
 10
222713.6862614465
 20
137009.6003590363
 30
0.0
 11
222713.6862614465
 21
136724.601021436
 31
0.0
  0
LINE
  5
1BC
330
2
100
AcDbEntity
  8
0
370
     5
100
AcDbLine
 10
222713.6862614465
 20
136724.601021436
 30
0.0
 11
222748.6862614465
 21
136724.601021436
 31
0.0
  0
LINE
  5
1BD
330
2
100
AcDbEntity
  8
0
370
     5
100
AcDbLine
 10
222748.6862614465
 20
136974.6003590363
 30
0.0
 11
222748.6862614465
 21
136724.599942009
 31
0.0
  0
LINE
  5
1BE
330
2
100
AcDbEntity
  8
0
370
     5
100
AcDbLine
 10
222678.6862614465
 20
137044.6003590363
 30
0.0
 11
222678.6862614465
 21
136724.599942009
 31
0.0
  0
LINE
  5
1BF
330
2
100
AcDbEntity
  8
0
370
     5
100
AcDbLine
 10
222678.6862614465
 20
136724.599942009
 30
0.0
 11
222748.6862614465
 21
136724.599942009
 31
0.0
  0
LINE
  5
1C0
330
2
100
AcDbEntity
  8
0
370
     5
100
AcDbLine
 10
222898.6862614465
 20
137044.6003590363
 30
0.0
 11
222898.6862614465
 21
136743.6003590363
 31
0.0
  0
HATCH
  5
1C1
330
2
100
AcDbEntity
  8
0
370
     5
100
AcDbHatch
 10
0.0
 20
0.0
 30
0.0
210
0.0
220
0.0
230
1.0
  2
SOLID
 70
     1
 71
     0
 91
        1
 92
        7
 72
     0
 73
     1
 93
        6
 10
223013.3691021078
 20
135581.943668611
 10
223027.3691021078
 20
135569.925209595
 10
223027.3691021078
 20
135899.6046667492
 10
223596.4189828118
 20
135899.604668767
 10
223596.4192453603
 20
135913.6046687671
 10
223013.3691021077
 20
135913.6046667856
 97
        0
 75
     0
 76
     1
 47
0.7669476626705299
 98
        1
 10
223165.8561643794
 20
135909.0885035637
1001
ACAD
1010
0.0
1020
0.0
1030
0.0
  0
HATCH
  5
1C2
330
2
100
AcDbEntity
  8
0
370
     5
100
AcDbHatch
 10
0.0
 20
0.0
 30
0.0
210
0.0
220
0.0
230
1.0
  2
SOLID
 70
     1
 71
     0
 91
        1
 92
        7
 72
     0
 73
     1
 93
        6
 10
223532.6894143476
 20
135913.6046685505
 10
223596.4192453603
 20
135913.6046687671
 10
223596.4197141746
 20
135938.6034706292
 10
223546.4184094283
 20
135938.6042532978
 10
223546.4184094282
 20
135938.5984600253
 10
223519.9788318317
 20
135938.6035238824
 97
        0
 75
     0
 76
     1
 47
0.4075911598035821
 98
        1
 10
223561.6682890745
 20
135923.3391341829
1001
ACAD
1010
0.0
1020
0.0
1030
0.0
  0
LINE
  5
1C3
330
2
100
AcDbEntity
  8
0
370
     5
100
AcDbLine
 10
223596.4189827571
 20
135899.6017489997
 30
0.0
 11
223596.4197142354
 21
135938.6067155611
 31
0.0
  0
HATCH
  5
1C4
330
2
100
AcDbEntity
  8
0
370
     5
100
AcDbHatch
 10
0.0
 20
0.0
 30
0.0
210
0.0
220
0.0
230
1.0
  2
SOLID
 70
     1
 71
     0
 91
        1
 92
        7
 72
     0
 73
     1
 93
       15
 10
223418.2948150983
 20
135938.6046681354
 10
223443.4193484823
 20
135938.6046682245
 10
223443.4193484823
 20
135938.6058655384
 10
223443.4193496046
 20
135938.6095848483
 10
223443.4205585452
 20
135938.6095848257
 10
223443.4205587065
 20
135938.618186755
 10
223457.2948180666
 20
135938.6155294786
 10
223457.4247719708
 20
136585.6046619722
 10
222637.3693484823
 20
136585.6046619722
 10
222637.3693484823
 20
136562.1046619722
 10
222623.3693484823
 20
136562.1046619722
 10
222623.3693484823
 20
136546.6046619722
 10
223418.4193484816
 20
136546.6046619722
 10
223418.4193484816
 20
136521.6046618811
 10
223418.4119161772
 20
136521.6046633739
 97
        0
 75
     0
 76
     1
 47
1.961059875014088
 98
        1
 10
223423.6950957978
 20
136215.5810293745
1001
ACAD
1010
0.0
1020
0.0
1030
0.0
  0
LINE
  5
1C5
330
2
100
AcDbEntity
  8
0
370
     5
100
AcDbLine
 10
223596.4197142354
 20
135938.6067155611
 30
0.0
 11
223443.4193496046
 21
135938.6095848483
 31
0.0
  0
LINE
  5
1C6
330
2
100
AcDbEntity
  8
0
370
     5
100
AcDbLine
 10
222623.3693484823
 20
136724.6005729946
 30
0.0
 11
222623.3693484823
 21
136571.6044682844
 31
0.0
  0
LINE
  5
1C7
330
2
100
AcDbEntity
  8
0
370
     5
100
AcDbLine
 10
222623.3693484823
 20
136724.6005729946
 30
0.0
 11
221860.3696334668
 21
136724.6005729946
 31
0.0
  0
LINE
  5
1C8
330
2
100
AcDbEntity
  8
0
370
     5
100
AcDbLine
 10
221860.3696334668
 20
136724.6005729946
 30
0.0
 11
221860.3696334668
 21
136724.6000350299
 31
0.0
  0
HATCH
  5
1C9
330
2
100
AcDbEntity
  8
0
370
     5
100
AcDbHatch
 10
0.0
 20
0.0
 30
0.0
210
0.0
220
0.0
230
1.0
  2
SOLID
 70
     1
 71
     0
 91
        1
 92
        7
 72
     0
 73
     1
 93
        6
 10
221349.3696333729
 20
136199.1259682109
 10
221363.3696333729
 20
136198.8471087708
 10
221363.3696333729
 20
136710.6036925797
 10
221463.3696333729
 20
136710.6036925797
 10
221463.3696333729
 20
136724.6000350299
 10
221349.3696333729
 20
136724.6000350299
 97
        0
 75
     0
 76
     1
 47
1.220094644956875
 98
        1
 10
221357.6139444864
 20
136718.0437023777
1001
ACAD
1010
0.0
1020
0.0
1030
0.0
  0
LINE
  5
1CA
330
2
100
AcDbEntity
  8
0
370
     5
100
AcDbLine
 10
221860.3696334668
 20
136724.6000350299
 30
0.0
 11
221349.3696333729
 21
136724.6000350299
 31
0.0
  0
LINE
  5
1CB
330
2
100
AcDbEntity
  8
0
370
     5
100
AcDbLine
 10
221349.3696333729
 20
136724.6000350299
 30
0.0
 11
221349.3696333729
 21
135899.6046611537
 31
0.0
  0
LINE
  5
1CC
330
2
100
AcDbEntity
  8
0
370
     5
100
AcDbLine
 10
222938.686261931
 20
136783.5997439347
 30
0.0
 11
222938.686261931
 21
136743.600359031
 31
0.0
  0
LINE
  5
1CD
330
2
100
AcDbEntity
  8
0
370
     5
100
AcDbLine
 10
222938.686261931
 20
136743.600359031
 30
0.0
 11
222898.6862614465
 21
136743.6003590363
 31
0.0
  0
LINE
  5
1CE
330
2
100
AcDbEntity
  8
0
370
     5
100
AcDbLine
 10
222898.6862619311
 20
136743.6003590363
 30
0.0
 11
222898.6862619311
 21
136974.6003590363
 31
0.0
  0
LINE
  5
1CF
330
2
100
AcDbEntity
  8
0
370
     5
100
AcDbLine
 10
222898.6862619311
 20
136974.6003590363
 30
0.0
 11
222748.6862614465
 21
136974.6003590363
 31
0.0
  0
LINE
  5
1D0
330
2
100
AcDbEntity
  8
0
370
     5
100
AcDbLine
 10
222748.686261931
 20
136974.6003590363
 30
0.0
 11
222748.686261931
 21
136724.6007621578
 31
0.0
  0
HATCH
  5
1D1
330
2
100
AcDbEntity
  8
0
370
     5
100
AcDbHatch
 10
0.0
 20
0.0
 30
0.0
210
0.0
220
0.0
230
1.0
  2
SOLID
 70
     1
 71
     0
 91
        1
 92
        7
 72
     0
 73
     1
 93
        4
 10
222623.3693485266
 20
136585.6046619722
 10
222637.3693484823
 20
136585.6046619722
 10
222637.3693484823
 20
136724.6007073144
 10
222623.3693489668
 20
136724.6007004169
 97
        0
 75
     0
 76
     1
 47
0.4759754259060534
 98
        1
 10
222627.1250034942
 20
136619.0613242367
1001
ACAD
1010
0.0
1020
0.0
1030
0.0
  0
LINE
  5
1D2
330
2
100
AcDbEntity
  8
0
370
     5
100
AcDbLine
 10
222748.686261931
 20
136724.6007621578
 30
0.0
 11
222623.3693489668
 21
136724.6007004169
 31
0.0
  0
LINE
  5
1D3
330
2
100
AcDbEntity
  8
0
370
     5
100
AcDbLine
 10
222623.3693489668
 20
136724.6007004169
 30
0.0
 11
222623.3693489668
 21
136571.6044682844
 31
0.0
  0
LINE
  5
1D4
330
2
100
AcDbEntity
  8
0
370
     5
100
AcDbLine
 10
223546.4184099128
 20
135938.5984600252
 30
0.0
 11
223443.4205587065
 21
135938.618186755
 31
0.0
  0
LINE
  5
1D5
330
2
100
AcDbEntity
  8
0
370
     5
100
AcDbLine
 10
223546.4184089436
 20
136783.5997439347
 30
0.0
 11
223546.4184099128
 21
135938.5984600252
 31
0.0
  0
LINE
  5
1D6
330
2
100
AcDbEntity
  8
0
370
     5
100
AcDbLine
 10
223546.4184096767
 20
136783.5997439347
 30
0.0
 11
222938.6862614465
 21
136783.5997439347
 31
0.0
  0
LINE
  5
1D7
330
2
100
AcDbEntity
  8
0
370
     5
100
AcDbLine
 10
223546.4184096767
 20
136783.5997439347
 30
0.0
 11
223546.4184094282
 21
135938.5984600252
 31
0.0
  0
3DFACE
  5
1D8
330
2
100
AcDbEntity
  8
0
370
     5
100
AcDbFace
 10
221369.3698698885
 20
135899.6041090532
 30
0.0
 11
221369.3693968576
 21
135574.5982910471
 31
0.0
 12
221369.3698698885
 22
135899.6041090532
 32
0.0
 13
221369.3698698885
 23
135899.6041090532
 33
0.0
  0
3DFACE
  5
1D9
330
2
100
AcDbEntity
  8
0
370
     5
100
AcDbFace
 10
221846.3680939443
 20
135574.5982910471
 30
0.0
 11
221846.3680939443
 21
135574.5982910471
 31
0.0
 12
221369.3693968576
 22
135574.5982910471
 32
0.0
 13
221369.3693968576
 23
135574.5982910471
 33
0.0
  0
LINE
  5
1DA
330
2
100
AcDbEntity
  8
0
370
     5
100
AcDbLine
 10
222236.3679929895
 20
135524.6000658093
 30
0.0
 11
222236.3679926513
 21
135574.5975351303
 31
0.0
  0
LINE
  5
1DB
330
2
100
AcDbEntity
  8
0
370
     5
100
AcDbLine
 10
222236.3679926513
 20
135574.5975351303
 30
0.0
 11
221349.3696333729
 21
135574.5996174299
 31
0.0
  0
LINE
  5
1DC
330
2
100
AcDbEntity
  8
0
370
     5
100
AcDbLine
 10
221349.3696333729
 20
135574.5996174299
 30
0.0
 11
221349.3696333729
 21
135524.6000658092
 31
0.0
  0
LINE
  5
1DD
330
2
100
AcDbEntity
  8
0
370
     5
100
AcDbLine
 10
221846.3680936778
 20
135574.5982080456
 30
0.0
 11
222236.3679928102
 21
135574.5982106833
 31
0.0
  0
LINE
  5
1DE
330
2
100
AcDbEntity
  8
0
370
     5
100
AcDbLine
 10
222236.3679928102
 20
135574.5982106833
 30
0.0
 11
222236.3679928102
 21
135524.6000658093
 31
0.0
  0
LINE
  5
1DF
330
2
100
AcDbEntity
  8
0
370
     5
100
AcDbLine
 10
223027.3691021078
 20
135524.6000658093
 30
0.0
 11
221349.3696333729
 21
135524.6000658092
 31
0.0
  0
LINE
  5
1E0
330
2
100
AcDbEntity
  8
0
370
     5
100
AcDbLine
 10
223027.3691021078
 20
135524.6000658093
 30
0.0
 11
223027.3691021078
 21
135899.6047337102
 31
0.0
  0
LINE
  5
1E1
330
2
100
AcDbEntity
  8
0
370
     5
100
AcDbLine
 10
222988.3691021077
 20
135938.6046666649
 30
0.0
 11
222988.3691021077
 21
135563.6046634019
 31
0.0
  0
LINE
  5
1E2
330
2
100
AcDbEntity
  8
0
370
     5
100
AcDbLine
 10
222988.3691021077
 20
135563.6046634019
 30
0.0
 11
222928.3691021077
 21
135563.6046634019
 31
0.0
  0
LINE
  5
1E3
330
2
100
AcDbEntity
  8
0
370
     5
100
AcDbLine
 10
221895.3713085742
 20
135563.6046634018
 30
0.0
 11
221895.3713030652
 21
135574.5983356472
 31
0.0
  0
LINE
  5
1E4
330
2
100
AcDbEntity
  8
0
370
     5
100
AcDbLine
 10
221895.3713030652
 20
135574.5983356472
 30
0.0
 11
221806.3679928103
 21
135574.5983356472
 31
0.0
  0
LINE
  5
1E5
330
2
100
AcDbEntity
  8
0
370
     5
100
AcDbLine
 10
221806.3679928103
 20
135574.5983356472
 30
0.0
 11
221806.3679928103
 21
135563.6046634018
 31
0.0
  0
HATCH
  5
1E6
330
2
100
AcDbEntity
  8
0
370
     5
100
AcDbHatch
 10
0.0
 20
0.0
 30
0.0
210
0.0
220
0.0
230
1.0
  2
SOLID
 70
     1
 71
     0
 91
        1
 92
        7
 72
     0
 73
     1
 93
        4
 10
221806.3679928103
 20
135563.6046634018
 10
221806.3679928103
 20
135538.6046634018
 10
221895.3713085743
 20
135538.6046634018
 10
221895.3713085742
 20
135563.6046634018
 97
        0
 75
     0
 76
     1
 47
0.466679632707678
 98
        1
 10
221846.9535493273
 20
135558.0627652283
1001
ACAD
1010
0.0
1020
0.0
1030
0.0
  0
LINE
  5
1E7
330
2
100
AcDbEntity
  8
0
370
     5
100
AcDbLine
 10
221895.3713085742
 20
135524.6046634018
 30
0.0
 11
221806.3679928103
 21
135524.6046634018
 31
0.0
  0
LINE
  5
1E8
330
2
100
AcDbEntity
  8
0
370
     5
100
AcDbLine
 10
221806.3679928103
 20
135524.6046634018
 30
0.0
 11
221806.3679928103
 21
135574.5983356472
 31
0.0
  0
LINE
  5
1E9
330
2
100
AcDbEntity
  8
0
370
     5
100
AcDbLine
 10
221806.3679928103
 20
135574.5983356472
 30
0.0
 11
221895.3713085742
 21
135574.5983356472
 31
0.0
  0
LINE
  5
1EA
330
2
100
AcDbEntity
  8
0
370
     5
100
AcDbLine
 10
221895.3713085742
 20
135574.5983356472
 30
0.0
 11
221895.3713085742
 21
135524.6046634018
 31
0.0
  0
LINE
  5
1EB
330
2
100
AcDbEntity
  8
0
370
     5
100
AcDbLine
 10
223596.4191477235
 20
135938.6046687659
 30
0.0
 11
223596.4195492411
 21
135948.6037750876
 31
0.0
  0
LINE
  5
1EC
330
2
100
AcDbEntity
  8
0
370
     5
100
AcDbLine
 10
223443.4183906835
 20
135938.6037713972
 30
0.0
 11
223596.4191477235
 21
135938.6046687659
 31
0.0
  0
LINE
  5
1ED
330
2
100
AcDbEntity
  8
0
370
     5
100
AcDbLine
 10
223596.4180406332
 20
135938.6034706554
 30
0.0
 11
223596.420656327
 21
136724.6065415843
 31
0.0
  0
LINE
  5
1EE
330
2
100
AcDbEntity
  8
0
370
     5
100
AcDbLine
 10
222748.6862614465
 20
136724.6057646658
 30
0.0
 11
221463.3696333729
 21
136724.6045867188
 31
0.0
  0
LINE
  5
1EF
330
2
100
AcDbEntity
  8
0
370
     5
100
AcDbLine
 10
221463.3696333729
 20
136724.6045867188
 30
0.0
 11
221463.3696333729
 21
136685.6036925797
 31
0.0
  0
LINE
  5
1F0
330
2
100
AcDbEntity
  8
0
370
     5
100
AcDbLine
 10
221463.3696333729
 20
136685.6036925797
 30
0.0
 11
221388.3696333729
 21
136685.6036925797
 31
0.0
  0
LINE
  5
1F1
330
2
100
AcDbEntity
  8
0
370
     5
100
AcDbLine
 10
221388.3696333729
 20
136685.6036925797
 30
0.0
 11
221388.3697706687
 21
136571.6046619722
 31
0.0
  0
LINE
  5
1F2
330
2
100
AcDbEntity
  8
0
370
     5
100
AcDbLine
 10
223443.4193484823
 20
135938.6058655384
 30
0.0
 11
223596.4180406332
 21
135938.6034706554
 31
0.0
  0
LINE
  5
1F3
330
2
100
AcDbEntity
  8
0
370
     5
100
AcDbLine
 10
222637.3679357383
 20
135524.602789603
 30
0.0
 11
222236.3722081976
 21
135524.6041547369
 31
0.0
  0
HATCH
  5
1F4
330
2
100
AcDbEntity
  8
0
370
     5
100
AcDbHatch
 10
0.0
 20
0.0
 30
0.0
210
0.0
220
0.0
230
1.0
  2
SOLID
 70
     1
 71
     0
 91
        1
 92
        7
 72
     0
 73
     1
 93
        4
 10
222236.3722081976
 20
135524.6046634019
 10
222478.3693484823
 20
135524.6046634019
 10
222478.3693484822
 20
135538.6046634019
 10
222236.3722081976
 20
135538.6046634019
 97
        0
 75
     0
 76
     1
 47
0.4242041208907327
 98
        1
 10
222434.0019510139
 20
135531.6398420058
1001
ACAD
1010
0.0
1020
0.0
1030
0.0
  0
HATCH
  5
1F5
330
2
100
AcDbEntity
  8
0
370
     5
100
AcDbHatch
 10
0.0
 20
0.0
 30
0.0
210
0.0
220
0.0
230
1.0
  2
SOLID
 70
     1
 71
     0
 91
        1
 92
        7
 72
     0
 73
     1
 93
        8
 10
222236.3722081976
 20
135538.6046634019
 10
222478.3693484823
 20
135538.6046634019
 10
222478.3693484823
 20
135563.6046634019
 10
222275.3722081976
 20
135563.6046634019
 10
222275.3722081976
 20
135583.6046634019
 10
222250.3722081976
 20
135583.6046634019
 10
222250.3722081976
 20
135563.6046634019
 10
222236.3722081976
 20
135563.6046634019
 97
        0
 75
     0
 76
     1
 47
0.4242041208907327
 98
        1
 10
222434.0019510139
 20
135550.3048313642
1001
ACAD
1010
0.0
1020
0.0
1030
0.0
  0
LINE
  5
1F6
330
2
100
AcDbEntity
  8
0
370
     5
100
AcDbLine
 10
222236.3722081976
 20
135899.6039357467
 30
0.0
 11
221846.3679928103
 21
135899.6038253554
 31
0.0
  0
LINE
  5
1F7
330
2
100
AcDbEntity
  8
0
370
     5
100
AcDbLine
 10
221895.3713085742
 20
135563.6046634018
 30
0.0
 11
221895.3713343827
 21
135574.5983356472
 31
0.0
  0
LINE
  5
1F8
330
2
100
AcDbEntity
  8
0
370
     5
100
AcDbLine
 10
221895.3713343827
 20
135574.5983356472
 30
0.0
 11
221806.3679928103
 21
135574.5982910471
 31
0.0
  0
LINE
  5
1F9
330
2
100
AcDbEntity
  8
0
370
     5
100
AcDbLine
 10
221806.3679928103
 20
135574.5982910471
 30
0.0
 11
221806.3679928103
 21
135563.6046634018
 31
0.0
  0
LINE
  5
1FA
330
2
100
AcDbEntity
  8
0
370
     5
100
AcDbLine
 10
221806.3679928103
 20
135563.6046634018
 30
0.0
 11
221895.3713085742
 21
135563.6046634018
 31
0.0
  0
LINE
  5
1FB
330
2
100
AcDbEntity
  8
0
370
     5
390
80
100
AcDbLine
 10
222637.3679357383
 20
135538.6027910182
 30
0.0
 11
223013.3691021078
 21
135538.6027910182
 31
0.0
  0
HATCH
  5
1FC
330
2
100
AcDbEntity
  8
0
370
     5
100
AcDbHatch
 10
0.0
 20
0.0
 30
0.0
210
0.0
220
0.0
230
1.0
  2
SOLID
 70
     1
 71
     0
 91
        1
 92
        7
 72
     0
 73
     1
 93
        6
 10
222988.3691021077
 20
135913.6046667007
 10
223013.3691021078
 20
135913.6046667856
 10
223013.3691021078
 20
135913.6046692006
 10
223232.7465575783
 20
135913.6046692007
 10
223232.7465575783
 20
135938.6046675098
 10
222988.3691021077
 20
135938.604666665
 97
        0
 75
     0
 76
     1
 47
1.236015347798434
 98
        1
 10
223106.5783182663
 20
135925.1728792768
1001
ACAD
1010
0.0
1020
0.0
1030
0.0
  0
LINE
  5
1FD
330
2
100
AcDbEntity
  8
0
370
     5
390
80
100
AcDbLine
 10
223013.3691021078
 20
135538.6027910182
 30
0.0
 11
223013.3691021078
 21
135913.6046692006
 31
0.0
  0
HATCH
  5
1FE
330
2
100
AcDbEntity
  8
0
370
     5
100
AcDbHatch
 10
0.0
 20
0.0
 30
0.0
210
0.0
220
0.0
230
1.0
  2
SOLID
 70
     1
 71
     0
 91
        1
 92
        7
 72
     0
 73
     1
 93
       11
 10
221363.3696333729
 20
136198.8471087708
 10
221388.3696333729
 20
136198.349145485
 10
221388.3696333729
 20
136549.6046619722
 10
221388.3697706687
 20
136549.6046619722
 10
221388.3697706686
 20
136574.6046619722
 10
221388.3696333729
 20
136574.6046619722
 10
221388.3696333729
 20
136588.6046619722
 10
221388.3696333728
 20
136685.6036925797
 10
221463.3696333729
 20
136685.6036925797
 10
221463.3696333729
 20
136710.6036925797
 10
221363.3696333729
 20
136710.6036925797
 97
        0
 75
     0
 76
     1
 47
1.73828156867186
 98
        1
 10
221377.7838693936
 20
136677.5026458895
1001
ACAD
1010
0.0
1020
0.0
1030
0.0
  0
LINE
  5
1FF
330
2
100
AcDbEntity
  8
0
370
     5
100
AcDbLine
 10
221388.3696333729
 20
136574.6046619722
 30
0.0
 11
221388.3697706687
 21
136574.6046619722
 31
0.0
  0
LINE
  5
200
330
2
100
AcDbEntity
  8
0
370
     5
100
AcDbLine
 10
221388.3697706687
 20
136549.6046619722
 30
0.0
 11
221388.3697706687
 21
136588.6046619722
 31
0.0
  0
LINE
  5
201
330
2
100
AcDbEntity
  8
0
370
     5
100
AcDbLine
 10
221388.3697706687
 20
136588.6046619722
 30
0.0
 11
221388.3696333729
 21
136588.6046619722
 31
0.0
  0
HATCH
  5
202
330
2
100
AcDbEntity
  8
0
370
     5
100
AcDbHatch
 10
0.0
 20
0.0
 30
0.0
210
0.0
220
0.0
230
1.0
  2
SOLID
 70
     1
 71
     0
 91
        1
 92
        7
 72
     0
 73
     1
 93
        4
 10
221853.3697706686
 20
136549.6046619722
 10
221860.3696334668
 20
136549.6046619722
 10
221860.3696334669
 20
136562.1046619722
 10
221853.3697706687
 20
136562.1046619722
 97
        0
 75
     0
 76
     1
 47
0.0956359271760192
 98
        1
 10
221855.5974257032
 20
136554.6320949582
1001
ACAD
1010
0.0
1020
0.0
1030
0.0
  0
LINE
  5
203
330
2
100
AcDbEntity
  8
0
370
     5
100
AcDbLine
 10
221853.3697706687
 20
136549.6046619722
 30
0.0
 11
221860.3696334819
 21
136549.6046619722
 31
0.0
  0
LINE
  5
204
330
2
100
AcDbEntity
  8
0
370
     5
100
AcDbLine
 10
221853.3697706687
 20
136562.1046619722
 30
0.0
 11
221853.3697706687
 21
136549.6046619722
 31
0.0
  0
LINE
  5
205
330
2
100
AcDbEntity
  8
0
370
     5
390
8A
100
AcDbLine
 10
222637.3693484823
 20
136562.1046619722
 30
0.0
 11
222623.3693484823
 21
136562.1046619722
 31
0.0
  0
LINE
  5
206
330
2
100
AcDbEntity
  8
0
370
     5
390
8A
100
AcDbLine
 10
222637.3693484823
 20
136588.6046619722
 30
0.0
 11
222637.3693484823
 21
136562.1046619722
 31
0.0
  0
LINE
  5
207
330
2
100
AcDbEntity
  8
0
370
     5
390
8A
100
AcDbLine
 10
223460.4193484823
 20
135938.6046682848
 30
0.0
 11
223421.4193484823
 21
135938.6046681465
 31
0.0
  0
HATCH
  5
208
330
2
100
AcDbEntity
  8
0
370
     5
100
AcDbHatch
 10
0.0
 20
0.0
 30
0.0
210
0.0
220
0.0
230
1.0
  2
SOLID
 70
     1
 71
     0
 91
        1
 92
        7
 72
     0
 73
     1
 93
        6
 10
221349.3696333729
 20
135899.6046607991
 10
221463.3696334669
 20
135899.6046612033
 10
221463.3696334172
 20
135913.6046612033
 10
221363.3696333729
 20
135913.6046608487
 10
221363.3696333729
 20
136198.8471087708
 10
221349.3696333729
 20
136199.1259682109
 97
        0
 75
     0
 76
     1
 47
0.6130100040153476
 98
        1
 10
221376.0748507958
 20
135906.9028358363
1001
ACAD
1010
0.0
1020
0.0
1030
0.0
  0
LINE
  5
209
330
2
100
AcDbEntity
  8
0
370
     5
100
AcDbLine
 10
221388.3696333729
 20
136574.6046619722
 30
0.0
 11
221388.3696333729
 21
136588.6046619722
 31
0.0
  0
LINE
  5
20A
330
2
100
AcDbEntity
  8
0
370
     5
100
AcDbLine
 10
221388.3696333729
 20
136588.6046619722
 30
0.0
 11
221388.3696333729
 21
136685.6036925797
 31
0.0
  0
HATCH
  5
20B
330
2
100
AcDbEntity
  8
0
370
     5
100
AcDbHatch
 10
0.0
 20
0.0
 30
0.0
210
0.0
220
0.0
230
1.0
  2
SOLID
 70
     1
 71
     0
 91
        1
 92
        7
 72
     0
 73
     1
 93
        8
 10
221349.3696333729
 20
135899.6046607991
 10
221558.6002132425
 20
135899.604661541
 10
221558.6002132425
 20
135938.604661541
 10
221533.3696333285
 20
135938.6046614516
 10
221388.3696333729
 20
135938.6046609374
 10
221388.3696333729
 20
136153.0859872585
 10
221388.3696333729
 20
136245.9311493492
 10
221349.3696333729
 20
136245.9311493492
 97
        0
 75
     0
 76
     1
 47
1.505079987526015
 98
        1
 10
221449.561761266
 20
135908.8045759997
1001
ACAD
1010
0.0
1020
0.0
1030
0.0
  0
LINE
  5
20C
330
2
100
AcDbEntity
  8
0
370
     5
100
AcDbLine
 10
221349.3696333729
 20
136724.6036925797
 30
0.0
 11
221349.3696333729
 21
135899.6046607991
 31
0.0
  0
LINE
  5
20D
330
2
100
AcDbEntity
  8
0
370
     5
100
AcDbLine
 10
221388.3696333729
 20
135938.6046609374
 30
0.0
 11
221388.3696333729
 21
136153.0859872585
 31
0.0
  0
LINE
  5
20E
330
2
100
AcDbEntity
  8
0
370
     5
100
AcDbLine
 10
221388.3696333729
 20
136150.6046637404
 30
0.0
 11
221388.3696333729
 21
136549.6046619722
 31
0.0
  0
LINE
  5
20F
330
2
100
AcDbEntity
  8
0
370
     5
390
8A
100
AcDbLine
 10
221885.3696334669
 20
135938.604662789
 30
0.0
 11
221860.3696334669
 21
135938.6046626111
 31
0.0
  0
LINE
  5
210
330
2
100
AcDbEntity
  8
0
370
     5
100
AcDbLine
 10
222103.3696334668
 20
136685.6036925798
 30
0.0
 11
222260.3722085008
 21
136685.6036925798
 31
0.0
  0
LINE
  5
211
330
2
100
AcDbEntity
  8
0
370
     5
100
AcDbLine
 10
222260.3722085008
 20
136685.6036925798
 30
0.0
 11
222598.3693484823
 21
136685.6036925798
 31
0.0
  0
LINE
  5
212
330
2
100
AcDbEntity
  8
0
370
     5
100
AcDbLine
 10
222637.3693484823
 20
136724.6036925797
 30
0.0
 11
221846.3696334668
 21
136724.6036925797
 31
0.0
  0
LINE
  5
213
330
2
100
AcDbEntity
  8
0
370
     5
100
AcDbLine
 10
221885.3696334668
 20
136685.6036925797
 30
0.0
 11
222103.3696334668
 21
136685.6036925798
 31
0.0
  0
LINE
  5
214
330
2
100
AcDbEntity
  8
0
370
     5
100
AcDbLine
 10
221388.3696333729
 20
136685.6036925797
 30
0.0
 11
221463.3696333729
 21
136685.6036925797
 31
0.0
  0
LINE
  5
215
330
2
100
AcDbEntity
  8
0
370
     5
100
AcDbLine
 10
221463.3696333729
 20
136685.6036925797
 30
0.0
 11
221463.3696333729
 21
136724.6036925797
 31
0.0
  0
LINE
  5
216
330
2
100
AcDbEntity
  8
0
370
     5
100
AcDbLine
 10
221463.3696333729
 20
136724.6036925797
 30
0.0
 11
221349.3696333729
 21
136724.6036925797
 31
0.0
  0
HATCH
  5
217
330
2
100
AcDbEntity
  8
0
370
     5
100
AcDbHatch
 10
0.0
 20
0.0
 30
0.0
210
0.0
220
0.0
230
1.0
  2
SOLID
 70
     1
 71
     0
 91
        1
 92
        7
 72
     0
 73
     1
 93
        4
 10
222988.3691021077
 20
135603.4052025683
 10
223013.3691021077
 20
135581.943668611
 10
223013.3691021078
 20
135913.6046667856
 10
222988.3691021077
 20
135913.6046667006
 97
        0
 75
     0
 76
     1
 47
1.1779256844559
 98
        1
 10
223000.8277726544
 20
135825.6275424365
1001
ACAD
1010
0.0
1020
0.0
1030
0.0
  0
HATCH
  5
218
330
2
100
AcDbEntity
  8
0
370
     5
100
AcDbHatch
 10
0.0
 20
0.0
 30
0.0
210
0.0
220
0.0
230
1.0
  2
SOLID
 70
     1
 71
     0
 91
        1
 92
        7
 72
     0
 73
     1
 93
        3
 10
223482.2314687138
 20
135913.604668379
 10
223493.3143001019
 20
135913.6046684167
 10
223488.649340593
 20
135921.183734925
 97
        0
 75
     0
 76
     1
 47
0.2008036567263383
 98
        1
 10
223487.7104065855
 20
135915.431010537
1001
ACAD
1010
0.0
1020
0.0
1030
0.0
  0
LINE
  5
219
330
2
100
AcDbEntity
  8
0
370
     5
100
AcDbLine
 10
223596.419348438
 20
135938.6046687671
 30
0.0
 11
222988.3691021077
 21
135938.604666665
 31
0.0
  0
LINE
  5
21A
330
2
100
AcDbEntity
  8
0
370
     5
100
AcDbLine
 10
223027.3691021078
 20
135899.6046667492
 30
0.0
 11
223596.4193485763
 21
135899.6046687671
 31
0.0
  0
LINE
  5
21B
330
2
100
AcDbEntity
  8
0
370
     5
100
AcDbLine
 10
223596.4193485763
 20
135899.6046687671
 30
0.0
 11
223596.419348438
 21
135938.6046687671
 31
0.0
  0
HATCH
  5
21C
330
2
100
AcDbEntity
  8
0
370
     5
100
AcDbHatch
 10
0.0
 20
0.0
 30
0.0
210
0.0
220
0.0
230
1.0
  2
SOLID
 70
     1
 71
     0
 91
        1
 92
        7
 72
     0
 73
     1
 93
        4
 10
221533.3696334668
 20
135899.6046614515
 10
221753.3696334669
 20
135899.6046622316
 10
221753.3696334172
 20
135913.6046622317
 10
221533.3696334172
 20
135913.6046614516
 97
        0
 75
     0
 76
     1
 47
0.7515315768655191
 98
        1
 10
221712.0570240785
 20
135908.2185388011
1001
ACAD
1010
0.0
1020
0.0
1030
0.0
  0
HATCH
  5
21D
330
2
100
AcDbEntity
  8
0
370
     5
100
AcDbHatch
 10
0.0
 20
0.0
 30
0.0
210
0.0
220
0.0
230
1.0
  2
SOLID
 70
     1
 71
     0
 91
        1
 92
        7
 72
     0
 73
     1
 93
        4
 10
221823.3696334669
 20
135899.6046624799
 10
221978.372208515
 20
135899.6046630295
 10
221978.3722084654
 20
135913.6046630295
 10
221823.3696334172
 20
135913.6046624799
 97
        0
 75
     0
 76
     1
 47
0.7515315768655191
 98
        1
 10
221894.0643513001
 20
135910.473115598
1001
ACAD
1010
0.0
1020
0.0
1030
0.0
  0
HATCH
  5
21E
330
2
100
AcDbEntity
  8
0
370
     5
100
AcDbHatch
 10
0.0
 20
0.0
 30
0.0
210
0.0
220
0.0
230
1.0
  2
SOLID
 70
     1
 71
     0
 91
        1
 92
        7
 72
     0
 73
     1
 93
        4
 10
221823.3696333286
 20
135938.6046624799
 10
221823.3696334172
 20
135913.6046624799
 10
221978.3722084653
 20
135913.6046630295
 10
221978.3722083767
 20
135938.6046630295
 97
        0
 75
     0
 76
     1
 47
0.7515315768655191
 98
        1
 10
221899.3289851439
 20
135926.2552837478
1001
ACAD
1010
0.0
1020
0.0
1030
0.0
  0
HATCH
  5
21F
330
2
100
AcDbEntity
  8
0
370
     5
100
AcDbHatch
 10
0.0
 20
0.0
 30
0.0
210
0.0
220
0.0
230
1.0
  2
SOLID
 70
     1
 71
     0
 91
        1
 92
        7
 72
     0
 73
     1
 93
        6
 10
222250.3722081976
 20
135913.604663994
 10
222078.3722084653
 20
135913.6046633842
 10
222078.3722085149
 20
135899.6046633841
 10
222236.3722081976
 20
135899.6046639444
 10
222236.3722081976
 20
135873.6046634019
 10
222250.3722081976
 20
135873.6046634019
 97
        0
 75
     0
 76
     1
 47
0.531080233538673
 98
        1
 10
222243.5190531871
 20
135903.5432004261
1001
ACAD
1010
0.0
1020
0.0
1030
0.0
  0
HATCH
  5
220
330
2
100
AcDbEntity
  8
0
370
     5
100
AcDbHatch
 10
0.0
 20
0.0
 30
0.0
210
0.0
220
0.0
230
1.0
  2
SOLID
 70
     1
 71
     0
 91
        1
 92
        7
 72
     0
 73
     1
 93
        4
 10
222158.8809231112
 20
135913.6046636696
 10
222229.4387231522
 20
135913.6046639198
 10
222234.72904413
 20
135938.6046639386
 10
222185.6000105039
 20
135938.6046637644
 97
        0
 75
     0
 76
     1
 47
0.3704935916859522
 98
        1
 10
222197.9642912336
 20
135926.5812553105
1001
ACAD
1010
0.0
1020
0.0
1030
0.0
  0
HATCH
  5
221
330
2
100
AcDbEntity
  8
0
370
     5
100
AcDbHatch
 10
0.0
 20
0.0
 30
0.0
210
0.0
220
0.0
230
1.0
  2
SOLID
 70
     1
 71
     0
 91
        1
 92
        7
 72
     0
 73
     1
 93
        5
 10
222078.3722084653
 20
135913.6046633841
 10
222190.8246705644
 20
135913.6046637829
 10
222190.8246705644
 20
135938.6046637829
 10
222127.3722085008
 20
135938.6046635579
 10
222078.3722083767
 20
135938.6046633841
 97
        0
 75
     0
 76
     1
 47
0.5275439388332217
 98
        1
 10
222139.6143946981
 20
135920.87969082
1001
ACAD
1010
0.0
1020
0.0
1030
0.0
  0
HATCH
  5
222
330
2
100
AcDbEntity
  8
0
370
     5
100
AcDbHatch
 10
0.0
 20
0.0
 30
0.0
210
0.0
220
0.0
230
1.0
  2
SOLID
 70
     1
 71
     0
 91
        1
 92
        7
 72
     0
 73
     1
 93
        6
 10
222078.3722083767
 20
135938.6046633841
 10
222078.3722084654
 20
135913.6046633841
 10
222250.3722081976
 20
135913.604663994
 10
222250.3722081976
 20
135873.6046634019
 10
222275.3722081976
 20
135873.6046634019
 10
222275.3722081976
 20
135938.6046640826
 97
        0
 75
     0
 76
     1
 47
0.987275855411063
 98
        1
 10
222259.6546594707
 20
135924.4863347236
1001
ACAD
1010
0.0
1020
0.0
1030
0.0
  0
LINE
  5
223
330
2
100
AcDbEntity
  8
0
370
     5
100
AcDbLine
 10
222127.3722085008
 20
135938.6046635579
 30
0.0
 11
222078.3722083767
 21
135938.6046633841
 31
0.0
  0
LINE
  5
224
330
2
100
AcDbEntity
  8
0
370
     5
100
AcDbLine
 10
222078.3722083767
 20
135938.6046633841
 30
0.0
 11
222078.3722085149
 21
135899.6046633841
 31
0.0
  0
LINE
  5
225
330
2
100
AcDbEntity
  8
0
370
     5
100
AcDbLine
 10
222078.3722085149
 20
135899.6046633841
 30
0.0
 11
222236.3722081976
 21
135899.6046639444
 31
0.0
  0
LINE
  5
226
330
2
100
AcDbEntity
  8
0
370
     5
100
AcDbLine
 10
221978.3722083767
 20
135938.6046630295
 30
0.0
 11
221823.3696333285
 21
135938.6046624799
 31
0.0
  0
HATCH
  5
227
330
2
100
AcDbEntity
  8
0
370
     5
100
AcDbHatch
 10
0.0
 20
0.0
 30
0.0
210
0.0
220
0.0
230
1.0
  2
SOLID
 70
     1
 71
     0
 91
        1
 92
        7
 72
     0
 73
     1
 93
        4
 10
221737.2305713433
 20
135899.6046621744
 10
221823.3696334668
 20
135899.6046624799
 10
221823.3696333285
 20
135938.6046624799
 10
221737.2305713433
 20
135938.6046621744
 97
        0
 75
     0
 76
     1
 47
0.5275439388332491
 98
        1
 10
221791.6084424849
 20
135912.4211433317
1001
ACAD
1010
0.0
1020
0.0
1030
0.0
  0
LINE
  5
228
330
2
100
AcDbEntity
  8
0
370
     5
100
AcDbLine
 10
221823.3696333285
 20
135938.6046624799
 30
0.0
 11
221823.3696334669
 21
135899.6046624799
 31
0.0
  0
LINE
  5
229
330
2
100
AcDbEntity
  8
0
370
     5
100
AcDbLine
 10
221823.3696334669
 20
135899.6046624799
 30
0.0
 11
221978.372208515
 21
135899.6046630295
 31
0.0
  0
LINE
  5
22A
330
2
100
AcDbEntity
  8
0
370
     5
100
AcDbLine
 10
221978.372208515
 20
135899.6046630295
 30
0.0
 11
221978.3722083767
 21
135938.6046630295
 31
0.0
  0
LINE
  5
22B
330
2
100
AcDbEntity
  8
0
370
     5
100
AcDbLine
 10
221823.3696333285
 20
135938.6046624799
 30
0.0
 11
221620.3744660221
 21
135938.6046617601
 31
0.0
  0
LINE
  5
22C
330
2
100
AcDbEntity
  8
0
370
     5
100
AcDbLine
 10
221608.3744660221
 20
135938.6046617175
 30
0.0
 11
221533.3696333285
 21
135938.6046614516
 31
0.0
  0
LINE
  5
22D
330
2
100
AcDbEntity
  8
0
370
     5
100
AcDbLine
 10
221533.3696334669
 20
135899.6046614516
 30
0.0
 11
221753.3696334669
 21
135899.6046622316
 31
0.0
  0
LINE
  5
22E
330
2
100
AcDbEntity
  8
0
370
     5
100
AcDbLine
 10
221533.3696333285
 20
135938.6046614516
 30
0.0
 11
221388.3696333729
 21
135938.6046609374
 31
0.0
  0
LINE
  5
22F
330
2
100
AcDbEntity
  8
0
370
     5
100
AcDbLine
 10
221349.3696333729
 20
135899.6046607991
 30
0.0
 11
221823.3696334669
 21
135899.6046624799
 31
0.0
  0
HATCH
  5
230
330
2
100
AcDbEntity
  8
0
370
     5
100
AcDbHatch
 10
0.0
 20
0.0
 30
0.0
210
0.0
220
0.0
230
1.0
  2
SOLID
 70
     1
 71
     0
 91
        1
 92
        7
 72
     0
 73
     1
 93
        4
 10
222623.3693484823
 20
136562.1046619722
 10
222637.3693484823
 20
136562.1046619722
 10
222637.3693484823
 20
136585.6046619722
 10
222623.3693484823
 20
136585.6046619722
 97
        0
 75
     0
 76
     1
 47
0.4759754259060534
 98
        1
 10
222628.0777094933
 20
136580.0313382081
1001
ACAD
1010
0.0
1020
0.0
1030
0.0
  0
LINE
  5
231
330
2
100
AcDbEntity
  8
0
370
     5
100
AcDbLine
 10
222637.3693484823
 20
136562.1046619722
 30
0.0
 11
222637.3693484823
 21
136724.6036925797
 31
0.0
  0
LINE
  5
232
330
2
100
AcDbEntity
  8
0
370
     5
100
AcDbLine
 10
221885.3696334668
 20
136685.6036925797
 30
0.0
 11
221885.3696334668
 21
136546.6046619722
 31
0.0
  0
HATCH
  5
233
330
2
100
AcDbEntity
  8
0
370
     5
100
AcDbHatch
 10
0.0
 20
0.0
 30
0.0
210
0.0
220
0.0
230
1.0
  2
SOLID
 70
     1
 71
     0
 91
        1
 92
        7
 72
     0
 73
     1
 93
        4
 10
222250.3722081976
 20
135873.6046634019
 10
222275.3722081976
 20
135873.6046634019
 10
222275.3722081976
 20
135895.660754972
 10
222250.3722081976
 20
135894.9387606073
 97
        0
 75
     0
 76
     1
 47
0.3704935916859522
 98
        1
 10
222260.6247130288
 20
135889.5318745861
1001
ACAD
1010
0.0
1020
0.0
1030
0.0
  0
HATCH
  5
234
330
2
100
AcDbEntity
  8
0
370
     5
100
AcDbHatch
 10
0.0
 20
0.0
 30
0.0
210
0.0
220
0.0
230
1.0
  2
SOLID
 70
     1
 71
     1
 91
        1
 92
        7
 72
     0
 73
     1
 93
        4
 10
222236.3722081976
 20
135563.6046634019
 10
222250.3722081976
 20
135563.6046634019
 10
222250.3722081976
 20
135583.6046634019
 10
222236.3722081976
 20
135583.6046634019
 97
        4
330
23E
330
235
330
237
330
238
 75
     0
 76
     1
 47
0.2977476392511335
 98
        1
 10
222238.3839304506
 20
135574.3235429368
1001
ACAD
1010
0.0
1020
0.0
1030
0.0
  0
LINE
  5
235
102
{ACAD_REACTORS
330
234
102
}
330
2
100
AcDbEntity
  8
0
370
     5
100
AcDbLine
 10
222250.3722081976
 20
135563.6046634019
 30
0.0
 11
222250.3722081976
 21
135583.6046634019
 31
0.0
  0
LINE
  5
236
330
2
100
AcDbEntity
  8
0
370
     5
100
AcDbLine
 10
222275.3722081976
 20
135563.6046634019
 30
0.0
 11
222275.3722081976
 21
135583.6046634019
 31
0.0
  0
LINE
  5
237
102
{ACAD_REACTORS
330
234
102
}
330
2
100
AcDbEntity
  8
0
370
     5
100
AcDbLine
 10
222275.3722081976
 20
135583.6046634019
 30
0.0
 11
222236.3722081976
 21
135583.6046634019
 31
0.0
  0
LINE
  5
238
102
{ACAD_REACTORS
330
234
102
}
330
2
100
AcDbEntity
  8
0
370
     5
100
AcDbLine
 10
222236.3722081976
 20
135583.6046634019
 30
0.0
 11
222236.3722081976
 21
135563.6046634019
 31
0.0
  0
LINE
  5
239
330
2
100
AcDbEntity
  8
0
370
     5
100
AcDbLine
 10
222275.3722081976
 20
135873.6046634019
 30
0.0
 11
222275.3722081976
 21
135938.6046640826
 31
0.0
  0
LINE
  5
23A
330
2
100
AcDbEntity
  8
0
370
     5
100
AcDbLine
 10
222236.3722081976
 20
135899.6046639444
 30
0.0
 11
222236.3722081976
 21
135873.6046634019
 31
0.0
  0
LINE
  5
23B
330
2
100
AcDbEntity
  8
0
370
     5
100
AcDbLine
 10
222236.3722081976
 20
135873.6046634019
 30
0.0
 11
222275.3722081976
 21
135873.6046634019
 31
0.0
  0
LINE
  5
23C
330
2
100
AcDbEntity
  8
0
370
     5
390
8A
100
AcDbLine
 10
222275.3722081976
 20
135583.6046634019
 30
0.0
 11
222275.3722081976
 21
135873.6046634019
 31
0.0
  0
LINE
  5
23D
330
2
100
AcDbEntity
  8
0
370
     5
390
8A
100
AcDbLine
 10
222236.3722081976
 20
135873.6046634019
 30
0.0
 11
222236.3722081976
 21
135583.6046634019
 31
0.0
  0
LINE
  5
23E
102
{ACAD_REACTORS
330
234
102
}
330
2
100
AcDbEntity
  8
0
370
     5
100
AcDbLine
 10
222250.3722081976
 20
135563.6046634019
 30
0.0
 11
222236.3722081976
 21
135563.6046634019
 31
0.0
  0
HATCH
  5
23F
330
2
100
AcDbEntity
  8
0
370
     5
100
AcDbHatch
 10
0.0
 20
0.0
 30
0.0
210
0.0
220
0.0
230
1.0
  2
SOLID
 70
     1
 71
     0
 91
        1
 92
        7
 72
     0
 73
     1
 93
        4
 10
221806.3679928103
 20
135524.6046634018
 10
221895.3713085742
 20
135524.6046634018
 10
221895.3713085742
 20
135538.6046634018
 10
221806.3679928103
 20
135538.6046634018
 97
        0
 75
     0
 76
     1
 47
0.466679632707678
 98
        1
 10
221845.0853919398
 20
135536.1288223144
1001
ACAD
1010
0.0
1020
0.0
1030
0.0
  0
LINE
  5
240
330
2
100
AcDbEntity
  8
0
370
     5
100
AcDbLine
 10
221895.3713085742
 20
135538.6046634018
 30
0.0
 11
221806.3679928103
 21
135538.6046634018
 31
0.0
  0
HATCH
  5
241
330
2
100
AcDbEntity
  8
0
370
     5
100
AcDbHatch
 10
0.0
 20
0.0
 30
0.0
210
0.0
220
0.0
230
1.0
  2
SOLID
 70
     1
 71
     0
 91
        1
 92
        7
 72
     0
 73
     1
 93
        4
 10
222518.3693484823
 20
135524.6046634019
 10
222558.3693484823
 20
135524.6046634019
 10
222558.3693484823
 20
135538.6046634019
 10
222518.3693484823
 20
135538.6046634019
 97
        0
 75
     0
 76
     1
 47
0.4242041208907327
 98
        1
 10
222549.1487657634
 20
135534.6236602118
1001
ACAD
1010
0.0
1020
0.0
1030
0.0
  0
HATCH
  5
242
330
2
100
AcDbEntity
  8
0
370
     5
100
AcDbHatch
 10
0.0
 20
0.0
 30
0.0
210
0.0
220
0.0
230
1.0
  2
SOLID
 70
     1
 71
     0
 91
        1
 92
        7
 72
     0
 73
     1
 93
        4
 10
222518.3693484823
 20
135563.6046634019
 10
222518.3693484823
 20
135538.6046634019
 10
222558.3693484823
 20
135538.6046634019
 10
222558.3693484823
 20
135563.6046634019
 97
        0
 75
     0
 76
     1
 47
0.4242041208907327
 98
        1
 10
222543.629949871
 20
135553.2886495703
1001
ACAD
1010
0.0
1020
0.0
1030
0.0
  0
HATCH
  5
243
330
2
100
AcDbEntity
  8
0
370
     5
100
AcDbHatch
 10
0.0
 20
0.0
 30
0.0
210
0.0
220
0.0
230
1.0
  2
SOLID
 70
     1
 71
     0
 91
        1
 92
        7
 72
     0
 73
     1
 93
        6
 10
222598.3693484823
 20
135524.6046634019
 10
223027.3691021078
 20
135524.6046634019
 10
223027.3691021078
 20
135569.9252095949
 10
223013.3691021078
 20
135581.943668611
 10
223013.3691021078
 20
135538.6046634019
 10
222598.3693484823
 20
135538.6046634019
 97
        0
 75
     0
 76
     1
 47
0.8610494639451177
 98
        1
 10
223006.2590255445
 20
135532.5563228385
1001
ACAD
1010
0.0
1020
0.0
1030
0.0
  0
HATCH
  5
244
330
2
100
AcDbEntity
  8
0
370
     5
100
AcDbHatch
 10
0.0
 20
0.0
 30
0.0
210
0.0
220
0.0
230
1.0
  2
SOLID
 70
     1
 71
     0
 91
        1
 92
        7
 72
     0
 73
     1
 93
        6
 10
222598.3693484824
 20
135538.6046634019
 10
223013.3691021078
 20
135538.6046634019
 10
223013.3691021078
 20
135581.943668611
 10
222988.3691021078
 20
135603.4052025683
 10
222988.3691021078
 20
135563.6046634019
 10
222598.3693484823
 20
135563.6046634019
 97
        0
 75
     0
 76
     1
 47
0.8610494639451177
 98
        1
 10
222900.2703914716
 20
135554.0825564776
1001
ACAD
1010
0.0
1020
0.0
1030
0.0
  0
LINE
  5
245
330
2
100
AcDbEntity
  8
0
370
     5
100
AcDbLine
 10
222988.3691021077
 20
135563.6046634019
 30
0.0
 11
222598.3693484823
 21
135563.6046634019
 31
0.0
  0
HATCH
  5
246
330
2
100
AcDbEntity
  8
0
370
     5
100
AcDbHatch
 10
0.0
 20
0.0
 30
0.0
210
0.0
220
0.0
230
1.0
  2
SOLID
 70
     1
 71
     1
 91
        1
 92
        7
 72
     0
 73
     1
 93
        4
 10
222558.3693484823
 20
135524.6046634019
 10
222598.3693484823
 20
135524.6046634019
 10
222598.3693484823
 20
135563.6046634019
 10
222558.3693484823
 20
135563.6046634019
 97
        4
330
25A
330
247
330
257
330
24D
 75
     0
 76
     1
 47
1.049285223462359
 98
        1
 10
222562.6762870497
 20
135554.5159556803
1001
ACAD
1010
0.0
1020
0.0
1030
0.0
  0
LINE
  5
247
102
{ACAD_REACTORS
330
246
102
}
330
2
100
AcDbEntity
  8
0
370
     5
100
AcDbLine
 10
222598.3693484823
 20
135563.6046634019
 30
0.0
 11
222598.3693484823
 21
135524.6046634019
 31
0.0
  0
LINE
  5
248
330
2
100
AcDbEntity
  8
0
370
     5
100
AcDbLine
 10
222598.3693484823
 20
135524.6046634019
 30
0.0
 11
223027.3691021078
 21
135524.6046634019
 31
0.0
  0
LINE
  5
249
330
2
100
AcDbEntity
  8
0
370
     5
100
AcDbLine
 10
222558.3693484823
 20
135563.6046634019
 30
0.0
 11
222518.3693484823
 21
135563.6046634019
 31
0.0
  0
HATCH
  5
24A
330
2
100
AcDbEntity
  8
0
370
     5
100
AcDbHatch
 10
0.0
 20
0.0
 30
0.0
210
0.0
220
0.0
230
1.0
  2
SOLID
 70
     1
 71
     1
 91
        1
 92
        7
 72
     0
 73
     1
 93
        4
 10
222478.3693484823
 20
135563.6046634019
 10
222478.3693484823
 20
135524.6046634019
 10
222518.3693484823
 20
135524.6046634019
 10
222518.3693484823
 20
135563.6046634019
 97
        4
330
259
330
24B
330
258
330
252
 75
     0
 76
     1
 47
1.049285223462359
 98
        1
 10
222504.9222534817
 20
135551.3681071215
1001
ACAD
1010
0.0
1020
0.0
1030
0.0
  0
LINE
  5
24B
102
{ACAD_REACTORS
330
24A
102
}
330
2
100
AcDbEntity
  8
0
370
     5
100
AcDbLine
 10
222518.3693484823
 20
135563.6046634019
 30
0.0
 11
222518.3693484823
 21
135524.6046634019
 31
0.0
  0
LINE
  5
24C
330
2
100
AcDbEntity
  8
0
370
     5
100
AcDbLine
 10
222518.3693484823
 20
135524.6046634019
 30
0.0
 11
222558.3693484823
 21
135524.6046634019
 31
0.0
  0
LINE
  5
24D
102
{ACAD_REACTORS
330
246
102
}
330
2
100
AcDbEntity
  8
0
370
     5
100
AcDbLine
 10
222558.3693484823
 20
135524.6046634019
 30
0.0
 11
222558.3693484823
 21
135563.6046634019
 31
0.0
  0
LINE
  5
24E
330
2
100
AcDbEntity
  8
0
370
     5
100
AcDbLine
 10
222478.3693484823
 20
135563.6046634019
 30
0.0
 11
222275.3722081976
 21
135563.6046634019
 31
0.0
  0
LINE
  5
24F
330
2
100
AcDbEntity
  8
0
370
     5
100
AcDbLine
 10
222236.3722081976
 20
135563.6046634019
 30
0.0
 11
222236.3679928102
 21
135563.6046634019
 31
0.0
  0
LINE
  5
250
330
2
100
AcDbEntity
  8
0
370
     5
100
AcDbLine
 10
222236.3679928102
 20
135563.6046634019
 30
0.0
 11
222236.3679928102
 21
135524.6046634019
 31
0.0
  0
LINE
  5
251
330
2
100
AcDbEntity
  8
0
370
     5
100
AcDbLine
 10
222236.3679928102
 20
135524.6046634019
 30
0.0
 11
222478.3693484823
 21
135524.6046634019
 31
0.0
  0
LINE
  5
252
102
{ACAD_REACTORS
330
24A
102
}
330
2
100
AcDbEntity
  8
0
370
     5
100
AcDbLine
 10
222478.3693484823
 20
135524.6046634019
 30
0.0
 11
222478.3693484823
 21
135563.6046634019
 31
0.0
  0
LINE
  5
253
330
2
100
AcDbEntity
  8
0
370
     5
100
AcDbLine
 10
221895.3713085742
 20
135563.6046634018
 30
0.0
 11
221806.3679928103
 21
135563.6046634018
 31
0.0
  0
LINE
  5
254
330
2
100
AcDbEntity
  8
0
370
     5
100
AcDbLine
 10
221806.3679928103
 20
135563.6046634018
 30
0.0
 11
221806.3679928103
 21
135524.6046634018
 31
0.0
  0
LINE
  5
255
330
2
100
AcDbEntity
  8
0
370
     5
100
AcDbLine
 10
221806.3679928103
 20
135524.6046634018
 30
0.0
 11
221895.3713085742
 21
135524.6046634018
 31
0.0
  0
LINE
  5
256
330
2
100
AcDbEntity
  8
0
370
     5
100
AcDbLine
 10
221895.3713085742
 20
135524.6046634018
 30
0.0
 11
221895.3713085742
 21
135563.6046634018
 31
0.0
  0
LINE
  5
257
102
{ACAD_REACTORS
330
246
102
}
330
2
100
AcDbEntity
  8
0
370
     5
390
8A
100
AcDbLine
 10
222598.3693484823
 20
135563.6046634019
 30
0.0
 11
222558.3693484823
 21
135563.6046634019
 31
0.0
  0
LINE
  5
258
102
{ACAD_REACTORS
330
24A
102
}
330
2
100
AcDbEntity
  8
0
370
     5
390
8A
100
AcDbLine
 10
222518.3693484823
 20
135563.6046634019
 30
0.0
 11
222478.3693484823
 21
135563.6046634019
 31
0.0
  0
LINE
  5
259
102
{ACAD_REACTORS
330
24A
102
}
330
2
100
AcDbEntity
  8
0
370
     5
390
8A
100
AcDbLine
 10
222518.3693484823
 20
135524.6046634019
 30
0.0
 11
222478.3693484823
 21
135524.6046634019
 31
0.0
  0
LINE
  5
25A
102
{ACAD_REACTORS
330
246
102
}
330
2
100
AcDbEntity
  8
0
370
     5
390
8A
100
AcDbLine
 10
222598.3693484823
 20
135524.6046634019
 30
0.0
 11
222558.3693484823
 21
135524.6046634019
 31
0.0
  0
LINE
  5
25B
330
2
100
AcDbEntity
  8
0
370
     5
100
AcDbLine
 10
222988.3691021077
 20
135938.604666665
 30
0.0
 11
222988.3691021077
 21
135563.6046634019
 31
0.0
  0
LINE
  5
25C
330
2
100
AcDbEntity
  8
0
370
     5
100
AcDbLine
 10
223027.3691021078
 20
135524.6046634019
 30
0.0
 11
223027.3691021078
 21
135899.6046667492
 31
0.0
  0
LINE
  5
25D
330
2
100
AcDbEntity
  8
0
370
     5
100
AcDbLine
 10
222743.9193484823
 20
136571.6046619722
 30
0.0
 11
222743.9193484823
 21
136566.6046619722
 31
0.0
  0
LINE
  5
25E
330
2
100
AcDbEntity
  8
0
370
     5
100
AcDbLine
 10
221388.3697706687
 20
136566.6046619722
 30
0.0
 11
221388.3697706687
 21
136571.6046619722
 31
0.0
  0
HATCH
  5
25F
330
2
100
AcDbEntity
  8
0
370
     5
100
AcDbHatch
 10
0.0
 20
0.0
 30
0.0
210
0.0
220
0.0
230
1.0
  2
SOLID
 70
     1
 71
     0
 91
        1
 92
        7
 72
     0
 73
     1
 93
        4
 10
223453.508006561
 20
135913.6046692006
 10
223532.689414017
 20
135913.6046692006
 10
223519.976480137
 20
135938.6081491367
 10
223433.245647892
 20
135938.6046619722
 97
        0
 75
     0
 76
     1
 47
0.6475516232355029
 98
        1
 10
223474.0189351371
 20
135923.0651743269
1001
ACAD
1010
0.0
1020
0.0
1030
0.0
  0
LINE
  5
260
330
2
100
AcDbEntity
  8
0
370
     5
100
AcDbLine
 10
222623.3693484823
 20
136585.6046619722
 30
0.0
 11
223457.4247719708
 21
136585.6046619722
 31
0.0
  0
LINE
  5
261
330
2
100
AcDbEntity
  8
0
370
     5
100
AcDbLine
 10
222598.3693484823
 20
136546.6046619722
 30
0.0
 11
223418.4193484816
 21
136546.6046619722
 31
0.0
  0
LINE
  5
262
330
2
100
AcDbEntity
  8
0
370
     5
100
AcDbLine
 10
223457.4247719708
 20
136585.6046619722
 30
0.0
 11
223457.294815885
 21
135938.6046682737
 31
0.0
  0
LINE
  5
263
330
2
100
AcDbEntity
  8
0
370
     5
100
AcDbLine
 10
223418.4169376641
 20
136546.6046619722
 30
0.0
 11
223418.2948150983
 21
135938.6046681354
 31
0.0
  0
LINE
  5
264
330
2
100
AcDbEntity
  8
0
370
     5
100
AcDbLine
 10
221885.3696334668
 20
136585.6046619722
 30
0.0
 11
221349.3696333729
 21
136585.6046619722
 31
0.0
  0
LINE
  5
265
330
2
100
AcDbEntity
  8
0
370
     5
100
AcDbLine
 10
221885.3696334668
 20
136546.6046619722
 30
0.0
 11
221349.3696333729
 21
136546.6046619722
 31
0.0
  0
LINE
  5
266
330
2
100
AcDbEntity
  8
0
370
     5
100
AcDbLine
 10
222275.3722081976
 20
135938.6046640826
 30
0.0
 11
221978.3722083767
 21
135938.6046630296
 31
0.0
  0
LINE
  5
267
330
2
100
AcDbEntity
  8
0
370
     5
100
AcDbLine
 10
222078.3722085149
 20
135899.6038910246
 30
0.0
 11
221978.372208515
 21
135899.6038627194
 31
0.0
  0
DIMENSION
  5
268
330
2
100
AcDbEntity
  8
0
370
     5
100
AcDbDimension
  2
*D16
 10
223027.3691021078
 20
135132.6124251056
 30
0.0
 11
223311.8940424324
 21
135212.6124251056
 31
0.0
 71
     5
 42
569.0498806493123
  3
500
100
AcDbAlignedDimension
 13
223596.4189827571
 23
135604.9940308094
 33
0.0
 14
223027.3691021078
 24
135604.99701552
 34
0.0
 50
180.000000000002
100
AcDbRotatedDimension
  0
DIMENSION
  5
273
330
2
100
AcDbEntity
  8
0
370
     5
100
AcDbDimension
  2
*D17
 10
222236.3679928103
 20
135132.6124251056
 30
0.0
 11
222631.868547459
 21
135212.6124251056
 31
0.0
 71
     5
 42
791.0011092974746
  3
500
100
AcDbAlignedDimension
 13
223027.3691021078
 23
135604.99701552
 33
0.0
 14
222236.3679928103
 24
135229.992347619
 34
0.0
 50
180.000000000002
100
AcDbRotatedDimension
  0
DIMENSION
  5
27E
330
2
100
AcDbEntity
  8
0
370
     5
100
AcDbDimension
  2
*D18
 10
221349.3696333729
 20
135132.6124251055
 30
0.0
 11
221792.8688130916
 21
135212.6124251056
 31
0.0
 71
     5
 42
886.9983594373916
  3
500
100
AcDbAlignedDimension
 13
222236.3679928103
 23
135229.992347619
 33
0.0
 14
221349.3696333729
 24
135604.9969429634
 34
0.0
 50
180.000000000002
100
AcDbRotatedDimension
  0
DIMENSION
  5
289
330
2
100
AcDbEntity
  8
0
370
     5
100
AcDbDimension
  2
*D19
 10
221349.3696333729
 20
134977.3103151122
 30
0.0
 11
222472.8944909498
 21
135057.3103151122
 31
0.0
 71
     5
 42
2247.049715153699
  3
500
100
AcDbAlignedDimension
 13
223596.4193485266
 23
135618.9969505768
 33
0.0
 14
221349.3696333729
 24
135745.6325677977
 34
0.0
 50
180.000000000002
100
AcDbRotatedDimension
  0
DIMENSION
  5
294
330
2
100
AcDbEntity
  8
0
370
     5
100
AcDbDimension
  2
*D20
 10
223754.9802236039
 20
135899.6047337102
 30
0.0
 11
223674.9802236039
 21
135712.1046985561
 31
0.0
 71
     5
 42
375.0000703083642
  3
500
100
AcDbAlignedDimension
 13
223027.3691021078
 23
135524.6046634019
 33
0.0
 14
223027.3691021078
 24
135899.6047337102
 34
0.0
 50
270.0
100
AcDbRotatedDimension
  0
DIMENSION
  5
29F
330
2
100
AcDbEntity
  8
0
370
     5
100
AcDbDimension
  2
*D21
 10
223754.9802236038
 20
136585.6046619722
 30
0.0
 11
223674.9802236039
 21
136242.6046978413
 31
0.0
  1
677
 71
     5
 42
685.9999282619683
  3
500
100
AcDbAlignedDimension
 13
223027.3691021078
 23
135899.6047337102
 33
0.0
 14
223457.4247719708
 24
136585.6046619722
 34
0.0
 50
270.0
100
AcDbRotatedDimension
  0
DIMENSION
  5
2AA
330
2
100
AcDbEntity
  8
0
370
     5
100
AcDbDimension
  2
*D22
 10
223754.9802236038
 20
136724.6007073144
 30
0.0
 11
223674.9802236039
 21
136655.1026846434
 31
0.0
  1
148
 71
     5
 42
138.9960453421809
  3
500
100
AcDbAlignedDimension
 13
223457.4247719708
 23
136585.6046619722
 33
0.0
 14
222637.3693484823
 24
136724.6007073144
 34
0.0
 50
270.0
100
AcDbRotatedDimension
  0
DIMENSION
  5
2B7
330
2
100
AcDbEntity
  8
0
370
     5
100
AcDbDimension
  2
*D23
 10
223924.1360301804
 20
136724.6005729946
 30
0.0
 11
223844.1360301804
 21
136082.604290704
 31
0.0
 71
     5
 42
1283.992564581247
  3
500
100
AcDbAlignedDimension
 13
222637.3721511256
 23
135440.6080084133
 33
0.0
 14
222466.2043415186
 24
136724.6005729946
 34
0.0
 50
270.0
100
AcDbRotatedDimension
  0
DIMENSION
  5
2C2
330
2
100
AcDbEntity
  8
0
370
     5
100
AcDbDimension
  2
*D24
 10
223457.2948212572
 20
137183.4141019436
 30
0.0
 11
223526.8555413286
 21
137263.4141019436
 31
0.0
  1
148
 71
     5
 42
139.1214401425968
  3
500
100
AcDbAlignedDimension
 13
223596.4162613999
 23
135938.6034706833
 33
0.0
 14
223457.2948212573
 24
135938.6314145442
 34
0.0
 50
180.000000000002
100
AcDbRotatedDimension
  0
DIMENSION
  5
2CF
330
2
100
AcDbEntity
  8
0
370
     5
100
AcDbDimension
  2
*D25
 10
222637.3693484823
 20
137183.4141019435
 30
0.0
 11
223047.3320848698
 21
137263.4141019435
 31
0.0
  1
807
 71
     5
 42
819.9254727749503
  3
500
100
AcDbAlignedDimension
 13
223457.2948212573
 23
135938.6314145442
 33
0.0
 14
222637.3693484823
 24
136588.6046619722
 34
0.0
 50
180.000000000002
100
AcDbRotatedDimension
  0
DIMENSION
  5
2DA
330
2
100
AcDbEntity
  8
0
370
     5
100
AcDbDimension
  2
*D26
 10
221846.3696334668
 20
137183.4141019435
 30
0.0
 11
222241.8694909746
 21
137263.4141019435
 31
0.0
  1
799
 71
     5
 42
790.9997150154376
  3
500
100
AcDbAlignedDimension
 13
222637.3693484823
 23
136588.6046619722
 33
0.0
 14
221846.3696334668
 24
136724.6036925797
 34
0.0
 50
180.000000000002
100
AcDbRotatedDimension
  0
DIMENSION
  5
2E5
330
2
100
AcDbEntity
  8
0
370
     5
100
AcDbDimension
  2
*D27
 10
221349.3696333729
 20
137183.4141019435
 30
0.0
 11
221597.8696334198
 21
137263.4141019435
 31
0.0
  1
493
 71
     5
 42
497.0000000939762
  3
500
100
AcDbAlignedDimension
 13
221846.3696334668
 23
136724.6036925797
 33
0.0
 14
221349.3696333729
 24
136724.6000350299
 34
0.0
 50
180.000000000002
100
AcDbRotatedDimension
  0
HATCH
  5
2F0
330
2
100
AcDbEntity
  8
0
370
     5
100
AcDbHatch
 10
0.0
 20
0.0
 30
0.0
210
0.0
220
0.0
230
1.0
  2
SOLID
 70
     1
 71
     0
 91
        1
 92
        7
 72
     0
 73
     1
 93
        4
 10
221806.3679928103
 20
135563.6046634018
 10
221895.3713085742
 20
135563.6046634018
 10
221895.3713085742
 20
135574.5986886918
 10
221806.3679928103
 20
135574.5986886918
 97
        0
 75
     0
 76
     1
 47
0.442807655847316
 98
        1
 10
221864.5944585868
 20
135570.8156524573
1001
ACAD
1010
0.0
1020
0.0
1030
0.0
  0
LINE
  5
2F1
330
2
100
AcDbEntity
  8
0
370
     5
100
AcDbLine
 10
221806.3679404066
 20
135574.5982910471
 30
0.0
 11
221806.3679392542
 21
135899.6046624196
 31
0.0
  0
LINE
  5
2F2
330
2
100
AcDbEntity
  8
0
370
     5
100
AcDbLine
 10
221369.3693968594
 20
135574.5995704788
 30
0.0
 11
221806.3679398304
 21
135737.1014767333
 31
0.0
  0
LINE
  5
2F3
330
2
100
AcDbEntity
  8
0
370
     5
100
AcDbLine
 10
221806.3679398304
 20
135737.1014767333
 30
0.0
 11
221369.3698698885
 21
135899.6041090532
 31
0.0
  0
LINE
  5
2F4
330
2
100
AcDbEntity
  8
0
370
     5
390
80
100
AcDbLine
 10
221846.375522334
 20
135913.6041533102
 30
0.0
 11
221846.3755240112
 21
135440.6080084133
 31
0.0
  0
LINE
  5
2F5
330
2
100
AcDbEntity
  8
0
370
     5
390
80
100
AcDbLine
 10
221846.3755240112
 20
135440.6080084133
 30
0.0
 11
222637.3721511256
 21
135440.6080084133
 31
0.0
  0
LINE
  5
2F6
330
2
100
AcDbEntity
  8
0
370
     5
390
80
100
AcDbLine
 10
222637.3721511256
 20
135440.6080084133
 30
0.0
 11
222637.3721511256
 21
135538.6022823532
 31
0.0
  0
DIMENSION
  5
2F7
330
2
100
AcDbEntity
  8
0
370
     5
100
AcDbDimension
  2
*D28
 10
223754.9802236039
 20
135524.6000658093
 30
0.0
 11
223674.9802236039
 21
135482.6040371113
 31
0.0
 71
     5
 42
83.99205739592435
  3
500
100
AcDbAlignedDimension
 13
222637.3721511256
 23
135440.6080084133
 33
0.0
 14
222637.3721511256
 24
135524.6000658093
 34
0.0
 50
270.0
100
AcDbRotatedDimension
  0
VIEWPORT
  5
30D
102
{ACAD_XDICTIONARY
360
3A4
102
}
330
30B
100
AcDbEntity
 67
     1
  8
0
100
AcDbViewport
 10
5.249999639556165
 20
3.999999883606678
 30
0.0
 40
14.53241403783632
 41
8.992999745766949
 68
     1
 69
     1
 12
5.249999639556165
 22
3.999999883606678
 13
0.0
 23
0.0
 14
10.0
 24
10.0
 15
10.0
 25
10.0
 16
0.0
 26
0.0
 36
1.0
 17
0.0
 27
0.0
 37
0.0
 42
50.0
 43
0.0
 44
0.0
 45
8.992999745766949
 50
0.0
 51
0.0
 72
  1000
 90
   819232
  1

281
     0
 71
     1
 74
     0
110
0.0
120
0.0
130
0.0
111
1.0
121
0.0
131
0.0
112
0.0
122
1.0
132
0.0
 79
     0
146
0.0
  0
VIEWPORT
  5
310
102
{ACAD_XDICTIONARY
360
3A6
102
}
330
30B
100
AcDbEntity
 67
     1
  8
0
100
AcDbViewport
 10
5.249999761581421
 20
3.999999761581421
 30
0.0
 40
8.399999618530275
 41
6.399999618530274
 68
     2
 69
     2
 12
220287.2000545948
 22
134667.5157057546
 13
0.0
 23
0.0
 14
10.0
 24
10.0
 15
10.0
 25
10.0
 16
0.0
 26
0.0
 36
1.0
 17
0.0
 27
0.0
 37
0.0
 42
50.0
 43
0.0
 44
0.0
 45
14170.21428571428
 50
0.0
 51
0.0
 72
  1000
 90
   819232
  1

281
     0
 71
     1
 74
     0
110
0.0
120
0.0
130
0.0
111
1.0
121
0.0
131
0.0
112
0.0
122
1.0
132
0.0
 79
     0
146
0.0
  0
ENDSEC
  0
SECTION
  2
OBJECTS
  0
DICTIONARY
  5
B
330
0
100
AcDbDictionary
281
     1
  3
ACAD_COLOR
350
338
  3
ACAD_GROUP
350
333
  3
ACAD_LAYOUT
350
306
  3
ACAD_MATERIAL
350
D
  3
ACAD_MLINESTYLE
350
334
  3
ACAD_PLOTSETTINGS
350
335
  3
ACAD_PLOTSTYLENAME
350
A
  3
ACAD_SCALELIST
350
339
  3
ACAD_TABLESTYLE
350
33A
  3
ACAD_VISUALSTYLE
350
309
  3
ACDB_RECOMPOSE_DATA
350
39A
  3
AcDbVariableDictionary
350
38E
  3
CONLABELDictionary
350
369
  3
CONLDEFDictionary
350
358
  3
DWGPROPS
350
39B
  0
DICTIONARY
  5
316
330
315
100
AcDbDictionary
280
     1
281
     1
  3
ACAD_LAYERFILTERS
360
317
  3
ACAD_LAYERSTATES
360
318
  3
ACLYDICTIONARY
360
319
  0
DICTIONARY
  5
7
330
6
100
AcDbDictionary
280
     1
281
     1
  3
ADSK_XREC_LAYER_RECONCILED
360
8
  0
DICTIONARY
  5
1D
330
1C
100
AcDbDictionary
280
     1
281
     1
  3
ADSK_XREC_LAYER_RECONCILED
360
1E
  0
DICTIONARY
  5
187
330
186
100
AcDbDictionary
280
     1
281
     1
  3
ADSK_XREC_LAYER_RECONCILED
360
188
  0
DICTIONARY
  5
17
330
16
100
AcDbDictionary
280
     1
281
     1
  3
ADSK_XREC_LAYER_RECONCILED
360
18
  0
DICTIONARY
  5
12
330
11
100
AcDbDictionary
280
     1
281
     1
  3
ADSK_XREC_LAYER_RECONCILED
360
13
  0
DICTIONARY
  5
3
330
2
100
AcDbDictionary
280
     1
281
     1
  3
ACAD_SORTENTS
360
357
  0
DICTIONARY
  5
F8
330
F7
100
AcDbDictionary
280
     1
281
     1
  3
ACAD_SORTENTS
360
356
  0
DICTIONARY
  5
39E
330
1F
100
AcDbDictionary
280
     1
281
     1
  3
ACAD_MTEXT_RT
360
39F
  0
DICTIONARY
  5
3A0
330
23
100
AcDbDictionary
280
     1
281
     1
  3
ACAD_MTEXT_RT
360
3A1
  0
DICTIONARY
  5
3A4
330
30D
100
AcDbDictionary
280
     1
281
     1
  3
ACAD_XREC_ROUNDTRIP
360
3A5
  0
DICTIONARY
  5
3A6
330
310
100
AcDbDictionary
280
     1
281
     1
  3
ACAD_XREC_ROUNDTRIP
360
3A7
  0
DICTIONARY
  5
338
102
{ACAD_REACTORS
330
B
102
}
330
B
100
AcDbDictionary
281
     1
  0
DICTIONARY
  5
333
102
{ACAD_REACTORS
330
B
102
}
330
B
100
AcDbDictionary
281
     1
  0
DICTIONARY
  5
306
102
{ACAD_REACTORS
330
B
102
}
330
B
100
AcDbDictionary
281
     1
  3
Layout1
350
312
  3
Model
350
305
  0
DICTIONARY
  5
D
102
{ACAD_REACTORS
330
B
102
}
330
B
100
AcDbDictionary
281
     1
  3
ByBlock
350
337
  3
ByLayer
350
336
  3
Global
350
C
  0
DICTIONARY
  5
334
102
{ACAD_REACTORS
330
B
102
}
330
B
100
AcDbDictionary
281
     1
  3
Standard
350
33B
  0
DICTIONARY
  5
335
102
{ACAD_REACTORS
330
B
102
}
330
B
100
AcDbDictionary
281
     1
  0
ACDBDICTIONARYWDFLT
  5
A
102
{ACAD_REACTORS
330
B
102
}
330
B
100
AcDbDictionary
281
     1
  3
Medium
350
8A
  3
Normal
350
9
  3
Standard
350
80
100
AcDbDictionaryWithDefault
340
9
  0
DICTIONARY
  5
339
102
{ACAD_REACTORS
330
B
102
}
330
B
100
AcDbDictionary
281
     1
  3
A0
350
340
  3
A1
350
341
  3
A2
350
342
  3
A3
350
343
  3
A4
350
344
  3
A5
350
345
  3
A6
350
346
  3
A7
350
347
  3
A8
350
348
  3
A9
350
349
  3
B0
350
34A
  3
B1
350
34B
  3
B2
350
34C
  3
B3
350
34D
  3
B4
350
34E
  3
B5
350
34F
  3
B6
350
350
  3
B7
350
351
  3
B8
350
352
  3
B9
350
353
  3
C0
350
354
  0
DICTIONARY
  5
33A
102
{ACAD_REACTORS
330
B
102
}
330
B
100
AcDbDictionary
281
     1
  3
Standard
350
33C
  0
DICTIONARY
  5
309
102
{ACAD_REACTORS
330
B
102
}
330
B
100
AcDbDictionary
281
     1
  3
2dWireframe
350
308
  3
3dWireframe
350
33F
  3
Realistic
350
33E
  0
XRECORD
  5
39A
102
{ACAD_REACTORS
330
B
102
}
330
B
100
AcDbXrecord
280
     1
 90
        1
330
33C
  0
DICTIONARY
  5
38E
102
{ACAD_REACTORS
330
B
102
}
330
B
100
AcDbDictionary
281
     1
  3
CANNOSCALE
350
392
  3
CMLEADERSTYLE
350
390
  3
CTABLESTYLE
350
38F
  3
DIMASSOC
350
396
  3
HIDETEXT
350
395
  3
INDEXCTL
350
394
  3
MSLTSCALE
350
391
  3
SORTENTS
350
393
  0
DICTIONARY
  5
369
102
{ACAD_REACTORS
330
B
102
}
330
B
100
AcDbDictionary
281
     1
  3
_el_wzb_Left_nazw_romans16
350
38D
  3
_elementy_wiezby_SKROT_Romans16
350
38C
  3
_materialy_przegrod_pl_Label1
350
38B
  3
_nazwy_przegrod_romans18
350
38A
  3
_nazwy_rysunkow_Arial37
350
389
  3
_nazwy_rysunkow_Romans18
350
388
  3
_opisy_rozne_II_Label1
350
387
  3
_opisy_rozne_II_Link1Label1
350
386
  3
_posadzki_do_zestawienia_pomieszczen_Romans17
350
385
  3
_rozne_opisy_rys_R16_right
350
384
  3
_rozne_opisy_rys_Romans12
350
383
  3
_rozne_opisy_rys_Romans16
350
382
  3
_tabelka_-_inform_i_etykiety_Romans13
350
381
  3
_tabelka_Arial15-center
350
380
  3
_tabelka_Arial151
350
37F
  3
_tabelka_Romans 10
350
37E
  3
_tabelka_Romans13
350
37D
  3
_tabelka_Romans19
350
37C
  3
ALFABET-Arial20
350
37B
  3
ALFABET-Arial26
350
37A
  3
ALFABET-Arial37
350
379
  3
Arial_27
350
378
  3
jednostki-Arial18
350
377
  3
jednostki-Arial30
350
376
  3
jednostki-Romans16
350
375
  3
miesiace-Romans17
350
374
  3
pomieszczenia-Arial 15
350
373
  3
pomieszczenia-Romans17
350
372
  3
romans16
350
371
  3
Romans_17
350
370
  3
stolarka-Arial14
350
36F
  3
stolarka-Romans1607
350
36E
  3
stolarka-Romans1608
350
36D
  3
stolarkaLabel1
350
36C
  3
tbl_PRZEGRODY
350
36B
  3
uwag_og_na_ark_Arial18
350
36A
  0
DICTIONARY
  5
358
102
{ACAD_REACTORS
330
B
102
}
330
B
100
AcDbDictionary
281
     1
  3
_elementy_wiezby_Link1
350
368
  3
_materialy_przegrod_pl_Link1
350
367
  3
_nazwy_przegrod_pl_Link1
350
366
  3
_nazwy_rysunkow_Arial37
350
365
  3
_opisy_rozne_II_Link1
350
364
  3
_opisy_rozne_II_Link2
350
363
  3
_posadzki_do_zestawienia_pomieszczen_Link1
350
362
  3
_rozne_opisy_rys_Link1
350
361
  3
_tabelka_-_inform_i_etykiety_Link1
350
360
  3
_uwagi_ogolne_na_arkuszu_Link1
350
35F
  3
ALFABETLink1
350
35E
  3
jednostkiLink1
350
35D
  3
miesiaceLink1
350
35C
  3
pomieszczeniaLink1
350
35B
  3
stolarkaLink1
350
35A
  3
tbl_PRZEGRODYLink1
350
359
  0
XRECORD
  5
39B
102
{ACAD_REACTORS
330
B
102
}
330
B
100
AcDbXrecord
280
     1
  1
DWGPROPS COOKIE
  2

  3

  4

  6

  7

  8
wojciech.ochonski
  9

300
=
301
=
302
=
303
=
304
=
305
=
306
=
307
=
308
=
309
=
 40
9.070320787037037
 41
2452027.670547454
 42
2455077.381006574
  1

 90
        0
  0
DICTIONARY
  5
317
102
{ACAD_REACTORS
330
316
102
}
330
316
100
AcDbDictionary
281
     1
  0
DICTIONARY
  5
318
102
{ACAD_REACTORS
330
316
102
}
330
316
100
AcDbDictionary
281
     1
  0
DICTIONARY
  5
319
102
{ACAD_REACTORS
330
316
102
}
330
316
100
AcDbDictionary
281
     1
1001
ACAD
1000
<All
  0
XRECORD
  5
8
102
{ACAD_REACTORS
330
7
102
}
330
7
100
AcDbXrecord
280
     1
290
     1
  0
XRECORD
  5
1E
102
{ACAD_REACTORS
330
1D
102
}
330
1D
100
AcDbXrecord
280
     1
290
     1
  0
XRECORD
  5
188
102
{ACAD_REACTORS
330
187
102
}
330
187
100
AcDbXrecord
280
     1
290
     1
  0
XRECORD
  5
18
102
{ACAD_REACTORS
330
17
102
}
330
17
100
AcDbXrecord
280
     1
290
     1
  0
XRECORD
  5
13
102
{ACAD_REACTORS
330
12
102
}
330
12
100
AcDbXrecord
280
     1
290
     1
  0
SORTENTSTABLE
  5
357
102
{ACAD_REACTORS
330
3
102
}
330
3
100
AcDbSortentsTable
330
2
331
79
  5
7D
331
B8
  5
C2
331
42
  5
44
331
81
  5
86
331
C0
  5
CA
331
4A
  5
4D
331
52
  5
55
331
89
  5
8F
331
C8
  5
D3
331
D0
  5
DC
331
5A
  5
5E
331
91
  5
97
331
185
  5
189
331
99
  5
9F
331
D8
  5
E4
331
62
  5
66
331
A1
  5
A7
331
E0
  5
EC
331
6A
  5
6E
331
72
  5
76
331
A9
  5
B2
331
E8
  5
36
331
3B
  5
3D
331
B1
  5
BB
331
F0
  5
AC
331
43
  5
45
331
7A
  5
7E
331
B9
  5
C3
331
C1
  5
CB
331
4B
  5
4E
331
82
  5
87
331
C9
  5
D5
331
53
  5
56
331
92
  5
98
331
D1
  5
DD
331
5B
  5
5F
331
63
  5
67
331
9A
  5
A0
331
D9
  5
E5
331
E1
  5
ED
331
6B
  5
6F
331
A2
  5
A8
331
AA
  5
B3
331
E9
  5
F0
331
73
  5
77
331
B2
  5
BC
331
3C
  5
3E
331
7B
  5
7F
331
BA
  5
C4
331
44
  5
46
331
F1
  5
85
331
4C
  5
4F
331
83
  5
88
331
C2
  5
CC
331
54
  5
57
331
8B
  5
90
331
CA
  5
D6
331
D2
  5
DE
331
5C
  5
60
331
93
  5
99
331
9B
  5
A1
331
DA
  5
E6
331
64
  5
68
331
A3
  5
A9
331
E2
  5
4C
331
6C
  5
70
331
74
  5
78
331
AB
  5
B4
331
35
  5
37
331
EA
  5
F1
331
3D
  5
3F
331
B3
  5
BD
331
BB
  5
C5
331
45
  5
47
331
7C
  5
81
331
C3
  5
CD
331
4D
  5
50
331
84
  5
89
331
8C
  5
91
331
CB
  5
D7
331
55
  5
58
331
5D
  5
61
331
94
  5
9A
331
D3
  5
DF
331
65
  5
69
331
9C
  5
A2
331
DB
  5
E7
331
E3
  5
35
331
6D
  5
71
331
A4
  5
AA
331
AC
  5
B5
331
EB
  5
AB
331
36
  5
38
331
75
  5
79
331
B4
  5
BE
331
3E
  5
40
331
7D
  5
82
331
BC
  5
C6
331
46
  5
48
331
4E
  5
51
331
85
  5
8B
331
C4
  5
CE
331
CC
  5
D8
331
56
  5
5A
331
8D
  5
92
331
D4
  5
E0
331
5E
  5
62
331
95
  5
9B
331
9D
  5
A3
331
DC
  5
E8
331
189
  5
185
331
66
  5
6A
331
6E
  5
72
331
A5
  5
AD
331
E4
  5
BA
331
76
  5
7A
331
AD
  5
B6
331
37
  5
39
331
EC
  5
B1
331
3F
  5
41
331
B5
  5
BF
331
BD
  5
C7
331
47
  5
49
331
7E
  5
83
331
C5
  5
CF
331
4F
  5
52
331
86
  5
8C
331
8E
  5
93
331
CD
  5
D9
331
57
  5
5B
331
5F
  5
63
331
96
  5
9C
331
D5
  5
E1
331
DD
  5
E9
331
67
  5
6B
331
9E
  5
A4
331
E5
  5
59
331
6F
  5
73
331
A6
  5
AE
331
AE
  5
B7
331
ED
  5
95
331
38
  5
3A
331
77
  5
7B
331
B6
  5
C0
331
40
  5
42
331
7F
  5
84
331
BE
  5
C8
331
48
  5
4A
331
50
  5
53
331
87
  5
8D
331
C6
  5
D1
331
CE
  5
DA
331
58
  5
5C
331
8F
  5
94
331
D6
  5
E2
331
97
  5
9D
331
60
  5
64
331
9F
  5
A5
331
DE
  5
EA
331
68
  5
6C
331
70
  5
74
331
A7
  5
AF
331
E6
  5
EE
331
EE
  5
D0
331
AF
  5
B8
331
39
  5
3B
331
B7
  5
C1
331
41
  5
43
331
78
  5
7C
331
BF
  5
C9
331
49
  5
4B
331
88
  5
8E
331
C7
  5
D2
331
51
  5
54
331
90
  5
96
331
CF
  5
DB
331
59
  5
5D
331
D7
  5
E3
331
61
  5
65
331
98
  5
9E
331
DF
  5
EB
331
69
  5
6D
331
A0
  5
A6
331
E7
  5
EF
331
71
  5
75
331
A8
  5
B0
331
B0
  5
B9
331
3A
  5
3C
331
EF
  5
D4
  0
SORTENTSTABLE
  5
356
102
{ACAD_REACTORS
330
F8
102
}
330
F8
100
AcDbSortentsTable
330
F7
  0
XRECORD
  5
39F
102
{ACAD_REACTORS
330
39E
102
}
330
39E
100
AcDbXrecord
280
     1
 40
264312.0
  1
{\fArial|b0|i0|c238|p34;MOŻNA WKLEIĆ DO PROJEKTU ZAGOSPODAROWANIA TERENU}
  0
XRECORD
  5
3A1
102
{ACAD_REACTORS
330
3A0
102
}
330
3A0
100
AcDbXrecord
280
     1
 40
106589.0
  1
{\fArial|b0|i0|c238|p34;OŚ ODBICIA LUSTRZANEGO}
  0
XRECORD
  5
3A5
102
{ACAD_REACTORS
330
3A4
102
}
330
3A4
100
AcDbXrecord
280
     1
102
SHADEPLOT
 70
     0
  0
XRECORD
  5
3A7
102
{ACAD_REACTORS
330
3A6
102
}
330
3A6
100
AcDbXrecord
280
     1
102
SHADEPLOT
 70
     0
  0
LAYOUT
  5
312
102
{ACAD_XDICTIONARY
360
313
102
}
102
{ACAD_REACTORS
330
306
102
}
330
306
100
AcDbPlotSettings
  1

  2
none_device
  4
Letter_(8.50_x_11.00_Inches)
  6

 40
6.349999904632568
 41
6.349999904632568
 42
6.350006103515625
 43
6.350006103515625
 44
215.8999938964844
 45
279.3999938964844
 46
0.0
 47
0.0
 48
0.0
 49
0.0
140
0.0
141
0.0
142
1.0
143
1.0
 70
   688
 72
     0
 73
     1
 74
     5
  7
monochrome_140.ctb
 75
    16
147
1.0
148
0.0
149
0.0
100
AcDbLayout
  1
Layout1
 70
     1
 71
     1
 10
-0.2500002402958907
 20
-0.2499999962453767
 11
10.74999951940822
 21
8.249999763458733
 12
0.0
 22
0.0
 32
0.0
 14
1.049999952316284
 24
0.7999999523162842
 34
0.0
 15
9.449999570846559
 25
7.199999570846558
 35
0.0
146
0.0
 13
0.0
 23
0.0
 33
0.0
 16
1.0
 26
0.0
 36
0.0
 17
0.0
 27
1.0
 37
0.0
 76
     0
330
30B
331
30D
1001
ACAD_PSEXT
1000
None
1000
None
1000
Not applicable
1000
The layout will not be plotted unless a new plotter configuration name is selected.
1070
     0
  0
LAYOUT
  5
305
102
{ACAD_XDICTIONARY
360
3A2
102
}
102
{ACAD_REACTORS
330
306
102
}
330
306
100
AcDbPlotSettings
  1

  2
CutePDF Writer
  4
A4
  6
RODODENDRON 5
 40
3.174999952316284
 41
3.174999952316284
 42
3.175003051757812
 43
3.17498779296875
 44
209.8886566162109
 45
297.0530090332031
 46
-0.230673193931878
 47
5.151510643959028
 48
215187.2000545948
 49
127657.5157057546
140
225387.2000545948
141
141677.5157057546
142
1.0
143
50.0
 70
 11956
 72
     1
 73
     0
 74
     4
  7
monochrome_140.ctb
 75
    25
147
0.02
148
-215187.2000545948
149
-127657.5157057546
100
AcDbLayout
  1
Model
 70
     1
 71
     0
 10
0.0
 20
0.0
 11
12.0
 21
9.0
 12
0.0
 22
0.0
 32
0.0
 14
0.0
 24
0.0
 34
0.0
 15
0.0
 25
0.0
 35
0.0
146
0.0
 13
0.0
 23
0.0
 33
0.0
 16
1.0
 26
0.0
 36
0.0
 17
0.0
 27
1.0
 37
0.0
 76
     0
330
2
331
323
1001
ACAD_PSEXT
1000
CutePDF Writer
1000
CutePDF Writer
1000
CPW2:
1000

1070
     0
  0
MATERIAL
  5
337
102
{ACAD_XDICTIONARY
360
3AB
102
}
102
{ACAD_REACTORS
330
D
102
}
330
D
100
AcDbMaterial
  1
ByBlock
 73
     1
 78
     1
172
     1
176
     1
270
     1
274
     1
  0
MATERIAL
  5
336
102
{ACAD_XDICTIONARY
360
3A9
102
}
102
{ACAD_REACTORS
330
D
102
}
330
D
100
AcDbMaterial
  1
ByLayer
 73
     1
 78
     1
172
     1
176
     1
270
     1
274
     1
  0
MATERIAL
  5
C
102
{ACAD_XDICTIONARY
360
39C
102
}
102
{ACAD_REACTORS
330
D
102
}
330
D
100
AcDbMaterial
  1
Global
 73
     1
 78
     1
172
     1
176
     1
270
     1
274
     1
  0
MLINESTYLE
  5
33B
102
{ACAD_REACTORS
330
334
102
}
330
334
100
AcDbMlineStyle
  2
STANDARD
 70
     0
  3

 62
   256
 51
90.0
 52
90.0
 71
     2
 49
0.5
 62
   256
  6
BYLAYER
 49
-0.5
 62
   256
  6
BYLAYER
  0
ACDBPLACEHOLDER
  5
8A
102
{ACAD_REACTORS
330
A
102
}
330
A
  0
ACDBPLACEHOLDER
  5
9
102
{ACAD_REACTORS
330
A
102
}
330
A
  0
ACDBPLACEHOLDER
  5
80
102
{ACAD_REACTORS
330
A
102
}
330
A
  0
SCALE
  5
340
102
{ACAD_REACTORS
330
339
102
}
330
339
100
AcDbScale
 70
     0
300
1:1
140
1.0
141
0.1
290
     0
  0
SCALE
  5
341
102
{ACAD_REACTORS
330
339
102
}
330
339
100
AcDbScale
 70
     0
300
1:2
140
1.0
141
0.2
290
     0
  0
SCALE
  5
342
102
{ACAD_REACTORS
330
339
102
}
330
339
100
AcDbScale
 70
     0
300
1:2.5
140
1.0
141
0.25
290
     0
  0
SCALE
  5
343
102
{ACAD_REACTORS
330
339
102
}
330
339
100
AcDbScale
 70
     0
300
1:5
140
1.0
141
0.5
290
     0
  0
SCALE
  5
344
102
{ACAD_REACTORS
330
339
102
}
330
339
100
AcDbScale
 70
     0
300
1:7.5
140
1.0
141
0.75
290
     0
  0
SCALE
  5
345
102
{ACAD_REACTORS
330
339
102
}
330
339
100
AcDbScale
 70
     0
300
1:10
140
1.0
141
1.0
290
     1
  0
SCALE
  5
346
102
{ACAD_REACTORS
330
339
102
}
330
339
100
AcDbScale
 70
     0
300
1:20
140
1.0
141
2.0
290
     0
  0
SCALE
  5
347
102
{ACAD_REACTORS
330
339
102
}
330
339
100
AcDbScale
 70
     0
300
1:25
140
1.0
141
2.5
290
     0
  0
SCALE
  5
348
102
{ACAD_REACTORS
330
339
102
}
330
339
100
AcDbScale
 70
     0
300
1:50
140
1.0
141
5.0
290
     0
  0
SCALE
  5
349
102
{ACAD_REACTORS
330
339
102
}
330
339
100
AcDbScale
 70
     0
300
1:75
140
1.0
141
7.5
290
     0
  0
SCALE
  5
34A
102
{ACAD_REACTORS
330
339
102
}
330
339
100
AcDbScale
 70
     0
300
1:100
140
1.0
141
10.0
290
     0
  0
SCALE
  5
34B
102
{ACAD_REACTORS
330
339
102
}
330
339
100
AcDbScale
 70
     0
300
1:150
140
1.0
141
15.0
290
     0
  0
SCALE
  5
34C
102
{ACAD_REACTORS
330
339
102
}
330
339
100
AcDbScale
 70
     0
300
1:200
140
1.0
141
20.0
290
     0
  0
SCALE
  5
34D
102
{ACAD_REACTORS
330
339
102
}
330
339
100
AcDbScale
 70
     0
300
1:250
140
1.0
141
25.0
290
     0
  0
SCALE
  5
34E
102
{ACAD_REACTORS
330
339
102
}
330
339
100
AcDbScale
 70
     0
300
1:500
140
1.0
141
50.0
290
     0
  0
SCALE
  5
34F
102
{ACAD_REACTORS
330
339
102
}
330
339
100
AcDbScale
 70
     0
300
1:750
140
1.0
141
75.0
290
     0
  0
SCALE
  5
350
102
{ACAD_REACTORS
330
339
102
}
330
339
100
AcDbScale
 70
     0
300
1:1000
140
1.0
141
100.0
290
     0
  0
SCALE
  5
351
102
{ACAD_REACTORS
330
339
102
}
330
339
100
AcDbScale
 70
     0
300
1:1250
140
1.0
141
125.0
290
     0
  0
SCALE
  5
352
102
{ACAD_REACTORS
330
339
102
}
330
339
100
AcDbScale
 70
     0
300
1:2000
140
1.0
141
200.0
290
     0
  0
SCALE
  5
353
102
{ACAD_REACTORS
330
339
102
}
330
339
100
AcDbScale
 70
     0
300
1:2500
140
1.0
141
250.0
290
     0
  0
SCALE
  5
354
102
{ACAD_REACTORS
330
339
102
}
330
339
100
AcDbScale
 70
     0
300
1:5000
140
1.0
141
500.0
290
     0
  0
TABLESTYLE
  5
33C
102
{ACAD_XDICTIONARY
360
33D
102
}
102
{ACAD_REACTORS
330
33A
102
}
330
33A
100
AcDbTableStyle
  3
Standard
 70
     0
 71
     0
 40
0.06
 41
0.06
280
     0
281
     0
  7
Standard
140
0.18
170
     2
 62
     0
 63
     7
283
     0
274
    -2
284
     1
 64
     0
275
    -2
285
     1
 65
     0
276
    -2
286
     1
 66
     0
277
    -2
287
     1
 67
     0
278
    -2
288
     1
 68
     0
279
    -2
289
     1
 69
     0
  7
Standard
140
0.25
170
     5
 62
     0
 63
     7
283
     0
274
    -2
284
     1
 64
     0
275
    -2
285
     1
 65
     0
276
    -2
286
     1
 66
     0
277
    -2
287
     1
 67
     0
278
    -2
288
     1
 68
     0
279
    -2
289
     1
 69
     0
  7
Standard
140
0.18
170
     5
 62
     0
 63
     7
283
     0
274
    -2
284
     1
 64
     0
275
    -2
285
     1
 65
     0
276
    -2
286
     1
 66
     0
277
    -2
287
     1
 67
     0
278
    -2
288
     1
 68
     0
279
    -2
289
     1
 69
     0
  0
VISUALSTYLE
  5
308
102
{ACAD_REACTORS
330
309
102
}
330
309
100
AcDbVisualStyle
  2
2dWireframe
 70
     4
 71
     0
 72
     2
 73
     0
 90
        0
 40
-0.6
 41
-30.0
 62
     5
 63
     7
 74
     1
 91
        4
 64
     7
 65
   257
 75
     1
175
     1
 42
1.0
 92
        0
 66
   257
 43
1.0
 76
     1
 77
     6
 78
     2
 67
     7
 79
     5
170
     0
171
     0
290
     0
174
     0
 93
        1
 44
0.0
173
     0
291
     0
 45
0.0
1001
ACAD
1000
AcDbSavedByObjectVersion
1070
     0
  0
VISUALSTYLE
  5
33F
102
{ACAD_REACTORS
330
309
102
}
330
309
100
AcDbVisualStyle
  2
3dWireframe
 70
     5
 71
     0
 72
     2
 73
     0
 90
        0
 40
-0.6
 41
-30.0
 62
     5
 63
     7
 74
     1
 91
        4
 64
     7
 65
   257
 75
     1
175
     1
 42
1.0
 92
        0
 66
   257
 43
1.0
 76
     1
 77
     6
 78
     2
 67
     7
 79
     5
170
     0
171
     0
290
     0
174
     0
 93
        1
 44
0.0
173
     0
291
     0
 45
0.0
1001
ACAD
1000
AcDbSavedByObjectVersion
1070
     0
  0
VISUALSTYLE
  5
33E
102
{ACAD_REACTORS
330
309
102
}
330
309
100
AcDbVisualStyle
  2
Realistic
 70
     8
 71
     2
 72
     2
 73
     0
 90
        0
 40
-0.6
 41
-30.0
 62
     5
 63
     7
 74
     1
 91
        0
 64
     7
 65
   257
 75
     1
175
     1
 42
1.0
 92
        8
 66
     8
 43
1.0
 76
     1
 77
     6
 78
     2
 67
     7
 79
     5
170
     0
171
     0
290
     0
174
     0
 93
       13
 44
0.0
173
     0
291
     0
 45
0.0
1001
ACAD
1000
AcDbSavedByObjectVersion
1070
     0
  0
DICTIONARYVAR
  5
392
102
{ACAD_REACTORS
330
38E
102
}
330
38E
100
DictionaryVariables
280
     0
  1
1:100
  0
DICTIONARYVAR
  5
390
102
{ACAD_REACTORS
330
38E
102
}
330
38E
100
DictionaryVariables
280
     0
  1
STANDARD
  0
DICTIONARYVAR
  5
38F
102
{ACAD_REACTORS
330
38E
102
}
330
38E
100
DictionaryVariables
280
     0
  1
STANDARD
  0
DICTIONARYVAR
  5
396
102
{ACAD_REACTORS
330
38E
102
}
330
38E
100
DictionaryVariables
280
     0
  1
1
  0
DICTIONARYVAR
  5
395
102
{ACAD_REACTORS
330
38E
102
}
330
38E
100
DictionaryVariables
280
     0
  1
1
  0
DICTIONARYVAR
  5
394
102
{ACAD_REACTORS
330
38E
102
}
330
38E
100
DictionaryVariables
280
     0
  1
0
  0
DICTIONARYVAR
  5
391
102
{ACAD_REACTORS
330
38E
102
}
330
38E
100
DictionaryVariables
280
     0
  1
1
  0
DICTIONARYVAR
  5
393
102
{ACAD_REACTORS
330
38E
102
}
330
38E
100
DictionaryVariables
280
     0
  1
127
  0
OBJECT_PTR
  5
38D
102
{ACAD_REACTORS
330
369
102
}
330
369
1001
DCO15
1000
jet_dbsamples..."elementy wiezby"(_el_wzb_Left_nazw_romans16)
1000
nazw_el_wiezb
1040
1.0
1040
1.0
1040
0.0
1040
0.0
1040
0.0
1040
0.0
1040
0.0
1040
15.0
1071
        0
1071
      256
1071
        7
1071
        5
1071
        1
1000
ROMANS
1000
ByLayer
1000
#(nazw_el_wiezb)
  0
OBJECT_PTR
  5
38C
102
{ACAD_REACTORS
330
369
102
}
330
369
1001
DCO15
1000
jet_dbsamples..."elementy wiezby"(_elementy_wiezby_SKROT_Romans16)
1000
skrot_el_wiezb
1040
1.0
1040
1.0
1040
0.0
1040
0.0
1040
0.0
1040
0.0
1040
0.0
1040
16.0
1071
        0
1071
      256
1071
        9
1071
        5
1071
        1
1000
ROMANS
1000
ByLayer
1000
#(skrot_el_wiezb)
  0
OBJECT_PTR
  5
38B
102
{ACAD_REACTORS
330
369
102
}
330
369
1001
DCO15
1000
jet_dbsamples..."materialy przegrod pl"(_materialy_przegrod_pl_Label1)
1000
nazw_mat
1040
1.0
1040
1.0
1040
0.0
1040
0.0
1040
0.0
1040
0.0
1040
0.0
1040
17.0
1071
        0
1071
      256
1071
        7
1071
        5
1071
        1
1000
ROMANS
1000
ByLayer
1000
#(nazw_mat)
  0
OBJECT_PTR
  5
38A
102
{ACAD_REACTORS
330
369
102
}
330
369
1001
DCO15
1000
jet_dbsamples..."nazwy przegrod pl"(_nazwy_przegrod_romans18)
1000
nzw_przegrody
1040
1.0
1040
1.0
1040
0.0
1040
0.0
1040
0.0
1040
0.0
1040
0.0
1040
17.0
1071
        0
1071
      256
1071
        7
1071
        5
1071
        1
1000
ROMANS
1000
ByLayer
1000
{\L\C2;#(nzw_przegrody)}
  0
OBJECT_PTR
  5
389
102
{ACAD_REACTORS
330
369
102
}
330
369
1001
DCO15
1000
jet_dbsamples..."nazwy rysunkow"(_nazwy_rysunkow_Arial37)
1000
1linia
1000
2linia
1000
3linia
1040
1.0
1040
1.0
1040
0.0
1040
0.0
1040
0.0
1040
0.0
1040
0.0
1040
37.0
1071
        0
1071
      256
1071
        1
1071
        5
1071
        1
1000
ROMANS
1000
ByLayer
1000
{\fArial|b0|i0|c238|p34;#(1linia)\P#(2linia)\P#(3linia)}
  0
OBJECT_PTR
  5
388
102
{ACAD_REACTORS
330
369
102
}
330
369
1001
DCO15
1000
jet_dbsamples..."nazwy rysunkow"(_nazwy_rysunkow_Romans18)
1000
1linia
1000
2linia
1000
3linia
1040
1.0
1040
1.0
1040
0.0
1040
0.0
1040
0.0
1040
0.0
1040
0.0
1040
18.0
1071
        0
1071
      256
1071
        2
1071
        5
1071
        1
1000
ROMANS
1000
ByLayer
1000
{\Fromans.shx|c238;#(1linia)\P#(2linia)\P#(3linia)}
  0
OBJECT_PTR
  5
387
102
{ACAD_REACTORS
330
369
102
}
330
369
1001
DCO15
1000
jet_dbsamples..."opisy rozne II"(_opisy_rozne_II_Label1)
1000
opis różny
1040
1.0
1040
1.0
1040
0.0
1040
0.0
1040
0.0
1040
0.0
1040
0.0
1040
10.0
1071
        0
1071
      256
1071
        1
1071
        5
1071
        1
1000
ROMANS
1000
ByLayer
1000
#(opis różny)
  0
OBJECT_PTR
  5
386
102
{ACAD_REACTORS
330
369
102
}
330
369
1001
DCO15
1000
jet_dbsamples..."opisy rozne II"(_opisy_rozne_II_Link1Label1)
1000
opis różny
1040
1.0
1040
1.0
1040
0.0
1040
0.0
1040
0.0
1040
0.0
1040
0.0
1040
10.0
1071
        0
1071
      256
1071
        1
1071
        5
1071
        1
1000
ROMANS
1000
ByLayer
1000
#(opis różny)
  0
OBJECT_PTR
  5
385
102
{ACAD_REACTORS
330
369
102
}
330
369
1001
DCO15
1000
jet_dbsamples..."posadzki do zestawienia pomieszczen"(_posadzki_do_zestawienia_pomieszczen_Romans17)
1000
nazwa_pos
1040
1.0
1040
1.0
1040
0.0
1040
0.0
1040
0.0
1040
0.0
1040
0.0
1040
17.0
1071
        0
1071
      256
1071
        7
1071
        5
1071
        1
1000
ROMANS
1000
ByLayer
1000
#(nazwa_pos)
  0
OBJECT_PTR
  5
384
102
{ACAD_REACTORS
330
369
102
}
330
369
1001
DCO15
1000
jet_dbsamples..."rozne opisy rys"(_rozne_opisy_rys_R16_right)
1000
1L
1000
2L
1000
3L
1000
4L
1000
5L
1040
1.0
1040
1.0
1040
0.0
1040
0.0
1040
0.0
1040
0.0
1040
0.0
1040
16.0
1071
        0
1071
      256
1071
        3
1071
        5
1071
        1
1000
ROMANS
1000
ByLayer
1000
#(1L)\P#(2L)\P#(3L)\P#(4L)\P#(5L)
  0
OBJECT_PTR
  5
383
102
{ACAD_REACTORS
330
369
102
}
330
369
1001
DCO15
1000
jet_dbsamples..."rozne opisy rys"(_rozne_opisy_rys_Romans12)
1000
1L
1000
2L
1000
3L
1000
4L
1000
5L
1040
1.0
1040
1.0
1040
0.0
1040
0.0
1040
0.0
1040
0.0
1040
0.0
1040
13.0
1071
        0
1071
      256
1071
        1
1071
        5
1071
        1
1000
ROMANS
1000
ByLayer
1000
#(1L)\P#(2L)\P#(3L)\P#(4L)\P#(5L)
  0
OBJECT_PTR
  5
382
102
{ACAD_REACTORS
330
369
102
}
330
369
1001
DCO15
1000
jet_dbsamples..."rozne opisy rys"(_rozne_opisy_rys_Romans16)
1000
1L
1000
2L
1000
3L
1000
4L
1000
5L
1040
1.0
1040
1.0
1040
0.0
1040
0.0
1040
0.0
1040
0.0
1040
0.0
1040
16.0
1071
        0
1071
      256
1071
        1
1071
        5
1071
        1
1000
ROMANS
1000
ByLayer
1000
#(1L)\P#(2L)\P#(3L)\P#(4L)\P#(5L)
  0
OBJECT_PTR
  5
381
102
{ACAD_REACTORS
330
369
102
}
330
369
1001
DCO15
1000
jet_dbsamples..."tabelka - inform i etykiety"(_tabelka_-_inform_i_etykiety_Romans13)
1000
1linia
1000
2linia_ewentualna
1000
3linia_ewentualna
1040
1.0
1040
1.0
1040
0.0
1040
0.0
1040
0.0
1040
0.0
1040
0.0
1040
13.0
1071
        0
1071
      256
1071
        1
1071
        5
1071
        1
1000
ROMANS
1000
ByLayer
1000
#(1linia)\P#(2linia_ewentualna)\P#(3linia_ewentualna)
  0
OBJECT_PTR
  5
380
102
{ACAD_REACTORS
330
369
102
}
330
369
1001
DCO15
1000
jet_dbsamples..."tabelka - inform i etykiety"(_tabelka_Arial15-center)
1000
1linia
1000
2linia_ewentualna
1000
3linia_ewentualna
1040
1.0
1040
1.0
1040
0.0
1040
0.0
1040
0.0
1040
0.0
1040
0.0
1040
15.0
1071
        0
1071
      256
1071
        2
1071
        5
1071
        1
1000
ROMANS
1000
ByLayer
1000
{\fArial|b0|i0|c238|p34;#(1linia)\P#(2linia_ewentualna)\P#(3linia_ewentualna)}
  0
OBJECT_PTR
  5
37F
102
{ACAD_REACTORS
330
369
102
}
330
369
1001
DCO15
1000
jet_dbsamples..."tabelka - inform i etykiety"(_tabelka_Arial151)
1000
1linia
1040
1.0
1040
1.0
1040
0.0
1040
0.0
1040
0.0
1040
0.0
1040
0.0
1040
15.0
1071
        0
1071
      256
1071
        1
1071
        5
1071
        1
1000
ARIAL
1000
ByLayer
1000
{\fArial|b0|i0|c238|p34;#(1linia)}
  0
OBJECT_PTR
  5
37E
102
{ACAD_REACTORS
330
369
102
}
330
369
1001
DCO15
1000
jet_dbsamples..."tabelka - inform i etykiety"(_tabelka_Romans 10)
1000
1linia
1000
2linia_ewentualna
1000
3linia_ewentualna
1040
1.0
1040
1.0
1040
0.0
1040
0.0
1040
0.0
1040
0.0
1040
0.0
1040
10.0
1071
        0
1071
      256
1071
        1
1071
        5
1071
        1
1000
ARIAL
1000
ByLayer
1000
#(1linia)\P#(2linia_ewentualna)\P#(3linia_ewentualna)
  0
OBJECT_PTR
  5
37D
102
{ACAD_REACTORS
330
369
102
}
330
369
1001
DCO15
1000
jet_dbsamples..."tabelka - inform i etykiety"(_tabelka_Romans13)
1000
1linia
1000
2linia_ewentualna
1000
3linia_ewentualna
1040
1.0
1040
1.0
1040
0.0
1040
0.0
1040
0.0
1040
0.0
1040
0.0
1040
13.0
1071
        0
1071
      256
1071
        1
1071
        5
1071
        1
1000
ARIAL
1000
ByLayer
1000
#(1linia)\P#(2linia_ewentualna)\P#(3linia_ewentualna)
  0
OBJECT_PTR
  5
37C
102
{ACAD_REACTORS
330
369
102
}
330
369
1001
DCO15
1000
jet_dbsamples..."tabelka - inform i etykiety"(_tabelka_Romans19)
1000
1linia
1000
2linia_ewentualna
1000
3linia_ewentualna
1040
1.0
1040
1.0
1040
0.0
1040
0.0
1040
0.0
1040
0.0
1040
0.0
1040
19.0
1071
        0
1071
      256
1071
        2
1071
        5
1071
        1
1000
ARIAL
1000
ByLayer
1000
#(1linia)\P#(2linia_ewentualna)\P#(3linia_ewentualna)
  0
OBJECT_PTR
  5
37B
102
{ACAD_REACTORS
330
369
102
}
330
369
1001
DCO15
1000
jet_dbsamples...ALFABET(ALFABET-Arial20)
1000
liter_alf
1040
1.0
1040
1.0
1040
0.0
1040
0.0
1040
0.0
1040
0.0
1040
0.0
1040
20.0
1071
        0
1071
      256
1071
        7
1071
        5
1071
        1
1000
ARIAL
1000
ByLayer
1000
{\fArial|b0|i0|c238|p34;#(liter_alf)}
  0
OBJECT_PTR
  5
37A
102
{ACAD_REACTORS
330
369
102
}
330
369
1001
DCO15
1000
jet_dbsamples...ALFABET(ALFABET-Arial26)
1000
liter_alf
1040
1.0
1040
1.0
1040
0.0
1040
0.0
1040
0.0
1040
0.0
1040
0.0
1040
26.0
1071
        0
1071
      256
1071
        7
1071
        5
1071
        1
1000
ARIAL
1000
ByLayer
1000
{\fArial|b0|i0|c238|p34;\C140;#(liter_alf)}
  0
OBJECT_PTR
  5
379
102
{ACAD_REACTORS
330
369
102
}
330
369
1001
DCO15
1000
jet_dbsamples...ALFABET(ALFABET-Arial37)
1000
liter_alf
1040
1.0
1040
1.0
1040
0.0
1040
0.0
1040
0.0
1040
0.0
1040
0.0
1040
37.0
1071
        0
1071
      256
1071
        7
1071
        5
1071
        1
1000
ARIAL
1000
ByLayer
1000
{\fArial|b0|i0|c238|p34;#(liter_alf)}
  0
OBJECT_PTR
  5
378
102
{ACAD_REACTORS
330
369
102
}
330
369
1001
DCO15
1000
jet_dbsamples..."uwagi ogolne na arkuszu"(Arial_27)
1000
1naglowek
1000
1linia
1000
2linia
1000
3linia
1000
4linia
1000
5linia
1000
6linia
1000
7linia
1000
8linia
1000
9linia
1000
10linia
1000
11linia
1000
12linia
1040
1.0
1040
1.0
1040
0.0
1040
0.0
1040
0.0
1040
0.0
1040
0.0
1040
26.0
1071
        0
1071
      256
1071
        1
1071
        5
1071
        1
1000
ARIAL
1000
ByLayer
1000
{\fArial|b0|i0|c238|p34;#(1naglowek)\P#(1linia)\P#(2linia)\P#(3linia)\P#(4linia)\P#(5linia)\P#(6linia)\P#(7linia)\P#(8linia)\P#(9linia)\P#(10linia)\P#(11linia)\P#(12linia)}
  0
OBJECT_PTR
  5
377
102
{ACAD_REACTORS
330
369
102
}
330
369
1001
DCO15
1000
jet_dbsamples...jednostki(jednostki-Arial18)
1000
jedn
1040
1.0
1040
1.0
1040
0.0
1040
0.0
1040
0.0
1040
0.0
1040
0.0
1040
18.0
1071
        0
1071
      256
1071
        7
1071
        5
1071
        1
1000
ARIAL
1000
ByLayer
1000
{\fArial|b0|i0|c238|p34;#(jedn)}
  0
OBJECT_PTR
  5
376
102
{ACAD_REACTORS
330
369
102
}
330
369
1001
DCO15
1000
jet_dbsamples...jednostki(jednostki-Arial30)
1000
jedn
1040
1.0
1040
1.0
1040
0.0
1040
0.0
1040
0.0
1040
0.0
1040
0.0
1040
30.0
1071
        0
1071
      256
1071
        7
1071
        5
1071
        1
1000
ARIAL
1000
ByLayer
1000
{\fArial|b0|i0|c238|p34;#(jedn)}
  0
OBJECT_PTR
  5
375
102
{ACAD_REACTORS
330
369
102
}
330
369
1001
DCO15
1000
jet_dbsamples...jednostki(jednostki-Romans16)
1000
jedn
1040
1.0
1040
1.0
1040
0.0
1040
0.0
1040
0.0
1040
0.0
1040
0.0
1040
16.0
1071
        0
1071
      256
1071
        7
1071
        5
1071
        1
1000
ARIAL
1000
ByLayer
1000
#(jedn)
  0
OBJECT_PTR
  5
374
102
{ACAD_REACTORS
330
369
102
}
330
369
1001
DCO15
1000
jet_dbsamples...miesiace(miesiace-Romans17)
1000
nzw_mies
1040
1.0
1040
1.0
1040
0.0
1040
0.0
1040
0.0
1040
0.0
1040
0.0
1040
17.0
1071
        0
1071
      256
1071
        1
1071
        5
1071
        1
1000
ARIAL
1000
ByLayer
1000
#(nzw_mies)
  0
OBJECT_PTR
  5
373
102
{ACAD_REACTORS
330
369
102
}
330
369
1001
DCO15
1000
jet_dbsamples...pomieszczenia(pomieszczenia-Arial 15)
1000
nazwa
1040
1.0
1040
1.0
1040
0.0
1040
0.0
1040
0.0
1040
0.0
1040
0.0
1040
15.0
1071
        0
1071
      256
1071
        8
1071
        5
1071
        1
1000
ARIAL
1000
ByLayer
1000
{\fArial|b0|i0|c238|p34;#(nazwa)}
  0
OBJECT_PTR
  5
372
102
{ACAD_REACTORS
330
369
102
}
330
369
1001
DCO15
1000
jet_dbsamples...pomieszczenia(pomieszczenia-Romans17)
1000
nazwa
1040
1.0
1040
1.0
1040
0.0
1040
0.0
1040
0.0
1040
0.0
1040
0.0
1040
17.0
1071
        0
1071
      256
1071
        7
1071
        5
1071
        1
1000
ARIAL
1000
ByLayer
1000
#(nazwa)
  0
OBJECT_PTR
  5
371
102
{ACAD_REACTORS
330
369
102
}
330
369
1001
DCO15
1000
jet_dbsamples..."elementy wiezby"(romans16)
1000
nazw_el_wiezb
1040
1.0
1040
1.0
1040
0.0
1040
0.0
1040
0.0
1040
0.0
1040
0.0
1040
16.0
1071
        0
1071
      256
1071
        1
1071
        5
1071
        1
1000
ARIAL
1000
ByLayer
1000
#(nazw_el_wiezb)
  0
OBJECT_PTR
  5
370
102
{ACAD_REACTORS
330
369
102
}
330
369
1001
DCO15
1000
jet_dbsamples..."uwagi ogolne na arkuszu"(Romans_17)
1000
1naglowek
1000
1linia
1000
2linia
1000
3linia
1000
4linia
1000
5linia
1000
6linia
1000
7linia
1000
8linia
1000
9linia
1000
10linia
1000
11linia
1000
12linia
1040
1.0
1040
1.0
1040
0.0
1040
0.0
1040
0.0
1040
0.0
1040
0.0
1040
17.0
1071
        0
1071
      256
1071
        1
1071
        5
1071
        1
1000
ARIAL
1000
ByLayer
1000
#(1naglowek)\P#(1linia)\P#(2linia)\P#(3linia)\P#(4linia)\P#(5linia)\P#(6linia)\P#(7linia)\P#(8linia)\P#(9linia)\P#(10linia)\P#(11linia)\P#(12linia)
  0
OBJECT_PTR
  5
36F
102
{ACAD_REACTORS
330
369
102
}
330
369
1001
DCO15
1000
jet_dbsamples...stolarka(stolarka-Arial14)
1000
STOL_TKST
1000
STOL_TKST_2linia
1040
1.0
1040
1.0
1040
0.0
1040
0.0
1040
0.0
1040
0.0
1040
0.0
1040
14.0
1071
        0
1071
      256
1071
        1
1071
        5
1071
        1
1000
ARIAL
1000
ByLayer
1000
{\fArial|b0|i0|c238|p34;#(STOL_TKST)\P#(STOL_TKST_2linia)}
  0
OBJECT_PTR
  5
36E
102
{ACAD_REACTORS
330
369
102
}
330
369
1001
DCO15
1000
jet_dbsamples...stolarka(stolarka-Romans1607)
1000
STOL_TKST
1000
STOL_TKST_2linia
1040
1.0
1040
1.0
1040
0.0
1040
0.0
1040
0.0
1040
0.0
1040
0.0
1040
16.0
1071
        0
1071
      256
1071
        5
1071
        5
1071
        1
1000
ARIAL
1000
ByLayer
1000
#(STOL_TKST)\P#(STOL_TKST_2linia)
  0
OBJECT_PTR
  5
36D
102
{ACAD_REACTORS
330
369
102
}
330
369
1001
DCO15
1000
jet_dbsamples...stolarka(stolarka-Romans1608)
1000
STOL_TKST
1000
STOL_TKST_2linia
1040
1.0
1040
1.0
1040
0.0
1040
0.0
1040
0.0
1040
0.0
1040
0.0
1040
16.0
1071
        0
1071
      256
1071
        5
1071
        5
1071
        1
1000
ROMANS
1000
ByLayer
1000
#(STOL_TKST)\P#(STOL_TKST_2linia)
  0
OBJECT_PTR
  5
36C
102
{ACAD_REACTORS
330
369
102
}
330
369
1001
DCO15
1000
jet_dbsamples...stolarka(stolarkaLabel1)
1000
STOL_TKST
1000
STOL_TKST_2linia
1040
1.0
1040
1.0
1040
0.0
1040
0.0
1040
0.0
1040
0.0
1040
0.0
1040
25.0
1071
        0
1071
      256
1071
        1
1071
        5
1071
        1
1000
ROMANS
1000
ByLayer
1000
{\fArial|b0|i0|c238|p34;#(STOL_TKST)\P#(STOL_TKST_2linia)}
  0
OBJECT_PTR
  5
36B
102
{ACAD_REACTORS
330
369
102
}
330
369
1001
DCO15
1000
jet_dbsamples...tbl_PRZEGRODY(tbl_PRZEGRODY)
1000
nazwa przegrody
1000
1w
1000
2w
1000
3w
1000
4w
1000
5w
1000
6w
1000
7w
1000
8w
1000
9w
1000
10w
1000
11w
1000
12w
1000
13w
1000
14w
1000
15w
1000
16w
1040
1.0
1040
1.0
1040
0.0
1040
0.0
1040
0.0
1040
0.0
1040
0.0
1040
17.0
1071
        0
1071
      256
1071
        1
1071
        5
1071
        1
1000
ROMANS
1000
ByLayer
1000
{\Fromans.shx|c238;\L\C2;#(nazwa przegrody)\C4;\P}#(1w)\P#(2w)\P#(3w)\P#(4w)\P#(5w)\P#(6w)\P#(7w)\P#(8w)\P#(9w)\P#(10w)\P#(11w)\P#(12w)\P#(13w)\P#(14w)\P#(15w)\P#(16w)
  0
OBJECT_PTR
  5
36A
102
{ACAD_REACTORS
330
369
102
}
330
369
1001
DCO15
1000
jet_dbsamples..."uwagi ogolne na arkuszu"(uwag_og_na_ark_Arial18)
1000
1naglowek
1000
1linia
1000
2linia
1000
3linia
1000
4linia
1000
5linia
1000
6linia
1000
7linia
1000
8linia
1000
9linia
1000
10linia
1000
11linia
1000
12linia
1040
1.0
1040
1.0
1040
0.0
1040
0.0
1040
0.0
1040
0.0
1040
0.0
1040
18.0
1071
        0
1071
      256
1071
        1
1071
        5
1071
        1
1000
ROMANS
1000
ByLayer
1000
{\fArial|b0|i0|c238|p34;#(1naglowek)\P#(1linia)\P#(2linia)\P#(3linia)\P#(4linia)\P#(5linia)\P#(6linia)\P#(7linia)\P#(8linia)\P#(9linia)\P#(10linia)\P#(11linia)\P#(12linia)}
  0
OBJECT_PTR
  5
368
102
{ACAD_REACTORS
330
358
102
}
330
358
1001
DCO15
1000
jet_dbsamples..."elementy wiezby"(_elementy_wiezby_Link1)
1000
IDENTYFIKATOR
1000

1000

1070
     4
1070
     0
1070
     0
1070
     0
1070
  1024
  0
OBJECT_PTR
  5
367
102
{ACAD_REACTORS
330
358
102
}
330
358
1001
DCO15
1000
jet_dbsamples..."materialy przegrod pl"(_materialy_przegrod_pl_Link1)
1000
IDENTYFIKATOR
1000

1000

1070
     4
1070
     0
1070
     0
1070
     0
1070
  1024
  0
OBJECT_PTR
  5
366
102
{ACAD_REACTORS
330
358
102
}
330
358
1001
DCO15
1000
jet_dbsamples..."nazwy przegrod pl"(_nazwy_przegrod_pl_Link1)
1000
IDENTYFIKATOR
1000

1000

1070
     4
1070
     0
1070
     0
1070
     0
1070
  1024
  0
OBJECT_PTR
  5
365
102
{ACAD_REACTORS
330
358
102
}
330
358
1001
DCO15
1000
jet_dbsamples..."nazwy rysunkow"(_nazwy_rysunkow_Arial37)
1000
IDENTYFIKATOR
1000

1000

1070
     4
1070
     0
1070
     0
1070
     0
1070
  1024
  0
OBJECT_PTR
  5
364
102
{ACAD_REACTORS
330
358
102
}
330
358
1001
DCO15
1000
jet_dbsamples..."opisy rozne II"(_opisy_rozne_II_Link1)
1000
"opis różny"
1000
1250
1000
ASCII
1070
    12
1070
   200
1070
     0
1070
     0
1070
  1024
  0
OBJECT_PTR
  5
363
102
{ACAD_REACTORS
330
358
102
}
330
358
1001
DCO15
1000
jet_dbsamples..."opisy rozne II"(_opisy_rozne_II_Link2)
1000
IDENTYFIKATOR
1000

1000

1070
     4
1070
     0
1070
     0
1070
     0
1070
  1024
  0
OBJECT_PTR
  5
362
102
{ACAD_REACTORS
330
358
102
}
330
358
1001
DCO15
1000
jet_dbsamples..."posadzki do zestawienia pomieszczen"(_posadzki_do_zestawienia_pomieszczen_Link1)
1000
IDENTYFIKATOR
1000

1000

1070
     4
1070
     0
1070
     0
1070
     0
1070
  1024
  0
OBJECT_PTR
  5
361
102
{ACAD_REACTORS
330
358
102
}
330
358
1001
DCO15
1000
jet_dbsamples..."rozne opisy rys"(_rozne_opisy_rys_Link1)
1000
IDENTYFIKATOR
1000

1000

1070
     4
1070
     0
1070
     0
1070
     0
1070
  1024
  0
OBJECT_PTR
  5
360
102
{ACAD_REACTORS
330
358
102
}
330
358
1001
DCO15
1000
jet_dbsamples..."tabelka - inform i etykiety"(_tabelka_-_inform_i_etykiety_Link1)
1000
IDENTYFIKATOR
1000

1000

1070
     4
1070
     0
1070
     0
1070
     0
1070
  1024
  0
OBJECT_PTR
  5
35F
102
{ACAD_REACTORS
330
358
102
}
330
358
1001
DCO15
1000
jet_dbsamples..."uwagi ogolne na arkuszu"(_uwagi_ogolne_na_arkuszu_Link1)
1000
IDENTYFIKATOR
1000

1000

1070
     4
1070
     0
1070
     0
1070
     0
1070
  1024
  0
OBJECT_PTR
  5
35E
102
{ACAD_REACTORS
330
358
102
}
330
358
1001
DCO15
1000
jet_dbsamples...ALFABET(ALFABETLink1)
1000
IDENTYFIKATOR
1000

1000

1070
     4
1070
     0
1070
     0
1070
     0
1070
  1024
  0
OBJECT_PTR
  5
35D
102
{ACAD_REACTORS
330
358
102
}
330
358
1001
DCO15
1000
jet_dbsamples...jednostki(jednostkiLink1)
1000
IDENTYFIKATOR
1000

1000

1070
     4
1070
     0
1070
     0
1070
     0
1070
  1024
  0
OBJECT_PTR
  5
35C
102
{ACAD_REACTORS
330
358
102
}
330
358
1001
DCO15
1000
jet_dbsamples...miesiace(miesiaceLink1)
1000
IDENTYFIKATOR
1000

1000

1070
     4
1070
     0
1070
     0
1070
     0
1070
  1024
  0
OBJECT_PTR
  5
35B
102
{ACAD_REACTORS
330
358
102
}
330
358
1001
DCO15
1000
jet_dbsamples...pomieszczenia(pomieszczeniaLink1)
1000
IDENTYFIKATOR
1000

1000

1070
     4
1070
     0
1070
     0
1070
     0
1070
  1024
  0
OBJECT_PTR
  5
35A
102
{ACAD_REACTORS
330
358
102
}
330
358
1001
DCO15
1000
jet_dbsamples...stolarka(stolarkaLink1)
1000
IDENTYFIKATOR
1000

1000

1070
     4
1070
     0
1070
     0
1070
     0
1070
  1024
  0
OBJECT_PTR
  5
359
102
{ACAD_REACTORS
330
358
102
}
330
358
1001
DCO15
1000
jet_dbsamples...tbl_PRZEGRODY(tbl_PRZEGRODYLink1)
1000
IDENTYFIKATOR
1000

1000

1070
     4
1070
     0
1070
     0
1070
     0
1070
  1024
  0
DICTIONARY
  5
313
330
312
100
AcDbDictionary
280
     1
281
     1
  3
ACAD_XREC_ROUNDTRIP
360
3A8
  3
ADSK_XREC_LAYOUTTHUMBNAIL
360
314
  0
DICTIONARY
  5
3A2
330
305
100
AcDbDictionary
280
     1
281
     1
  3
ACAD_XREC_ROUNDTRIP
360
3A3
  0
DICTIONARY
  5
3AB
330
337
100
AcDbDictionary
280
     1
281
     1
  3
ACAD_XREC_ROUNDTRIP
360
3AC
  0
DICTIONARY
  5
3A9
330
336
100
AcDbDictionary
280
     1
281
     1
  3
ACAD_XREC_ROUNDTRIP
360
3AA
  0
DICTIONARY
  5
39C
330
C
100
AcDbDictionary
280
     1
281
     1
  3
ACAD_XREC_ROUNDTRIP
360
39D
  0
DICTIONARY
  5
33D
330
33C
100
AcDbDictionary
280
     1
281
     1
  3
ACAD_ROUNDTRIP_2008_TABLESTYLE_CELLSTYLEMAP
360
399
  3
ACAD_XREC_ROUNDTRIP
360
3AD
  0
XRECORD
  5
3A8
102
{ACAD_REACTORS
330
313
102
}
330
313
100
AcDbXrecord
280
     1
102
SHADEPLOT
 70
     0
102
SHADEPLOTRESLEVEL
 70
     2
102
SHADEPLOTCUSTOMDPI
 70
   300
  0
XRECORD
  5
314
102
{ACAD_REACTORS
330
313
102
}
330
313
100
AcDbXrecord
280
     1
310
28000000B40000008A000000010008000000000008610000000000000000000000010000000000000000000000000000FFFFFF000000000000000000000000000000000000000000000000000000000000000000330000006600000099000000CC000000FF00000000330000333300006633000099330000CC330000FF3300
310
0000660000336600006666000099660000CC660000FF66000000990000339900006699000099990000CC990000FF99000000CC000033CC000066CC000099CC0000CCCC0000FFCC000000FF000033FF000066FF000099FF0000CCFF0000FFFF000000003300330033006600330099003300CC003300FF003300003333003333
310
33006633330099333300CC333300FF33330000663300336633006666330099663300CC663300FF66330000993300339933006699330099993300CC993300FF99330000CC330033CC330066CC330099CC3300CCCC3300FFCC330000FF330033FF330066FF330099FF3300CCFF3300FFFF330000006600330066006600660099
310
006600CC006600FF00660000336600333366006633660099336600CC336600FF33660000666600336666006666660099666600CC666600FF66660000996600339966006699660099996600CC996600FF99660000CC660033CC660066CC660099CC6600CCCC6600FFCC660000FF660033FF660066FF660099FF6600CCFF6600
310
FFFF660000009900330099006600990099009900CC009900FF00990000339900333399006633990099339900CC339900FF33990000669900336699006666990099669900CC669900FF66990000999900339999006699990099999900CC999900FF99990000CC990033CC990066CC990099CC9900CCCC9900FFCC990000FF99
310
0033FF990066FF990099FF9900CCFF9900FFFF99000000CC003300CC006600CC009900CC00CC00CC00FF00CC000033CC003333CC006633CC009933CC00CC33CC00FF33CC000066CC003366CC006666CC009966CC00CC66CC00FF66CC000099CC003399CC006699CC009999CC00CC99CC00FF99CC0000CCCC0033CCCC0066CC
310
CC0099CCCC00CCCCCC00FFCCCC0000FFCC0033FFCC0066FFCC0099FFCC00CCFFCC00FFFFCC000000FF003300FF006600FF009900FF00CC00FF00FF00FF000033FF003333FF006633FF009933FF00CC33FF00FF33FF000066FF003366FF006666FF009966FF00CC66FF00FF66FF000099FF003399FF006699FF009999FF00CC
310
99FF00FF99FF0000CCFF0033CCFF0066CCFF0099CCFF00CCCCFF00FFCCFF0000FFFF0033FFFF0066FFFF0099FFFF00CCFFFF00FFFFFF00000000000D0D0D001A1A1A00282828003535350043434300505050005D5D5D006B6B6B00787878008686860093939300A1A1A100AEAEAE00BBBBBB00C9C9C900D6D6D600E4E4E400
310
F1F1F100FFFFFF0000000000000000000000000000000000000000000000000000000000000000000000000000000000F5F5F5F5F5F5F5F5F5F5F5F5F5F5F5F5F5F5F5F5F5F5F5F5F5F5F5F5F5F5F5F5F5F5F5F5F5F5F5F5F5F5F5F5F5F5F5F5F5F5F5F5F5F5F5F5F5F5F5F5F5F5F5F5F5F5F5F5F5F5F5F5F5F5F5F5F5F5F5
310
F5F5F5F5F5F5F5F5F5F5F5F5F5F5F5F5F5F5F5F5F5F5F5F5F5F5F5F5F5F5F5F5F5F5F5F5F5F5F5F5F5F5F5F5F5F5F5F5F5F5F5F5F5F5F5F5F5F5F5F5F5F5F5F5F5F5F5F5F5F5F5F5F5F5F5F5F5F5F5F5F5F5F5F5F5F5F5F5F5F5F5F5F5F5F5F5F5F5F5F5EFF5E2E2E2E2E2E2E2E2E2E2E2E2E2E2E2E2E2E2E2E2E2E2E2E2E2
310
E2E2E2E2E2E2E2E2E2E2E2E2E2E2E2E2E2E2E2E2E2E2E2E2E2E2E2E2E2E2E2E2E2E2E2E2E2E2E2E2E2E2E2E2E2E2E2E2E2E2E2E2E2E2E2E2E2E2E2E2E2E2E2E2E2E2E2E2E2E2E2E2E2E2E2E2E2E2E2E2E2E2E2E2E2E2E2E2E2E2E2E2E2E2E2E2E2E2E2E2E2E2E2E2E2E2E2E2E2E2E2E2E2E2E2E2E2E2E2E2E2E2E2E2E2E2E2
310
E2E2E2E2E2E2E2E2E2E2E2E2E2E2E2E2E2E2E2E2E2E2E2E2F5F5EFF5E2E2E2E2E2E2E2E2E2E2E2E2E2E2E2E2E2E2E2E2E2E2E2E2E2E2E2E2E2E2E2E2E2E2E2E2E2E2E2E2E2E2E2E2E2E2E2E2E2E2E2E2E2E2E2E2E2E2E2E2E2E2E2E2E2E2E2E2E2E2E2E2E2E2E2E2E2E2E2E2E2E2E2E2E2E2E2E2E2E2E2E2E2E2E2E2E2E2E2
310
E2E2E2E2E2E2E2E2E2E2E2E2E2E2E2E2E2E2E2E2E2E2E2E2E2E2E2E2E2E2E2E2E2E2E2E2E2E2E2E2E2E2E2E2E2E2E2E2E2E2E2E2E2E2E2E2E2E2E2E2E2E2E2E2E2E2E2E2E2E2E2E2E2E2E2E2E2F5F5EFF5E2E2E2E2E2E2E2E2E2E2E2E2E2E2E2E2E2E2E2E2E2E2E2E2E2E2E2E2E2E2E2E2E2E2E2E2E2E2E2E2E2E2E2E2E2E2
310
E2E2E2E2E2E2E2E2E2E2E2E2E2E2E2E2E2E2E2E2E2E2E2E2E2E2E2E2E2E2E2E2E2E2E2E2E2E2E2E2E2E2E2E2E2E2E2E2E2E2E2E2E2E2E2E2E2E2E2E2E2E2E2E2E2E2E2E2E2E2E2E2E2E2E2E2E2E2E2E2E2E2E2E2E2E2E2E2E2E2E2E2E2E2E2E2E2E2E2E2E2E2E2E2E2E2E2E2E2E2E2E2E2E2E2E2E2E2E2E2E2E2E2E2E2E2E2
310
E2E2E2F5F5EFF5E2E2E2F5F5F5F5F5F5F5F5E2E2E2E2E2E2E2E2E2F5F5F5F5F5F5F5F5F5F5F5F5F5F5F5E2E2E2E2E2E2E2E2E2F5F5F5F5F5F5F5F5F5F5F5F5F5F5F5F5E2E2E2E2E2E2E2E2F5F5F5F5F5F5F5F5F5F5F5F5F5F5F5F5E2E2E2E2E2E2E2E2F5F5F5F5F5F5F5F5F5F5F5F5F5F5F5F5E2E2E2E2E2E2E2E2F5F5F5F5
310
F5F5F5F5F5F5F5F5F5F5F5F5E2E2E2E2E2E2E2E2E2F5F5F5F5F5F5F5F5F5F5F5F5F5F5F5E2E2E2E2E2E2E2E2E2F5F5F5F5F5F5F5F5E2E2E2F5F5EFF5E2E2E2F5E2E2E2E2E2E2E2E2E2E2E2E2E2E2E2E2E2E2E2E2E2E2E2E2E2E2E2E2E2E2E2E2E2E2E2E2E2E2E2E2E2E2E2E2E2E2E2E2E2E2E2E2E2E2E2E2E2E2E2E2E2E2E2
310
E2E2E2E2E2E2E2E2E2E2E2E2E2E2E2E2E2E2E2E2E2E2E2E2E2E2E2E2E2E2E2E2E2E2E2E2E2E2E2E2E2E2E2E2E2E2E2E2E2E2E2E2E2E2E2E2E2E2E2E2E2E2E2E2E2E2E2E2E2E2E2E2E2E2E2E2E2E2E2E2E2E2E2E2E2E2E2E2E2E2E2E2E2E2E2E2E2E2E2E2E2E2E2E2E2F5E2E2E2F5F5EFF5E2E2E2F5E2E2E2E2E2E2E2E2E2E2
310
E2E2E2E2E2E2E2E2E2E2E2E2E2E2E2E2E2E2E2E2E2E2E2E2E2E2E2E2E2E2E2E2E2E2E2E2E2E2E2E2E2E2E2E2E2E2E2E2E2E2E2E2E2E2E2E2E2E2E2E2E2E2E2E2E2E2E2E2E2E2E2E2E2E2E2E2E2E2E2E2E2E2E2E2E2E2E2E2E2E2E2E2E2E2E2E2E2E2E2E2E2E2E2E2E2E2E2E2E2E2E2E2E2E2E2E2E2E2E2E2E2E2E2E2E2E2E2
310
E2E2E2E2E2E2E2E2E2E2E2E2E2E2E2E2E2E2E2E2E2E2E2E2E2E2E2E2E2E2E2F5E2E2E2F5F5EFF5E2E2E2F5E2E2E2E2E2E2E2E2E2E2E2E2E2E2E2E2E2E2E2E2E2E2E2E2E2E2E2E2E2E2E2E2E2E2E2E2E2E2E2E2E2E2E2E2E2E2E2E2E2E2E2E2E2E2E2E2E2E2E2E2E2E2E2E2E2E2E2E2E2E2E2E2E2E2E2E2E2E2E2E2E2E2E2E2
310
E2E2E2E2E2E2E2E2E2E2E2E2E2E2E2E2E2E2E2E2E2E2E2E2E2E2E2E2E2E2E2E2E2E2E2E2E2E2E2E2E2E2E2E2E2E2E2E2E2E2E2E2E2E2E2E2E2E2E2E2E2E2E2E2E2E2E2E2E2E2E2E2E2E2E2E2E2E2E2E2E2E2E2E2F5E2E2E2F5F5EFF5E2E2E2F5E2E2E2E2E2E2E2E2E2E2E2E2E2E2E2E2E2E2E2E2E2E2E2E2E2E2E2E2E2E2E2
310
E2E2E2E2E2E2E2E2E2E2E2E2E2E2E2E2E2E2E2E2E2E2E2E2E2E2E2E2E2E2E2E2E2E2E2E2E2E2E2E2E2E2E2E2E2E2E2E2E2E2E2E2E2E2E2E2E2E2E2E2E2E2E2E2E2E2E2E2E2E2E2E2E2E2E2E2E2E2E2E2E2E2E2E2E2E2E2E2E2E2E2E2E2E2E2E2E2E2E2E2E2E2E2E2E2E2E2E2E2E2E2E2E2E2E2E2E2E2E2E2E2E2E2E2E2E2E2
310
E2E2E2E2E2E2E2E2E2E2F5E2E2E2F5F5EFF5E2E2E2F5E2E2E2E2E2E2E2E2E2E2E2E2E2E2E2E2E2E2E2E2E2E2E2E2E2E2E2E2E2E2E2E2E2E2E2E2E2E2E2E2E2E2E2E2E2E2E2E2E2E2E2E2E2E2E2E2E2E2E2E2E2E2E2E2E2E2E2E2E2E2E2E2E2E2E2E2E2E2E2E2E2E2E2E2E2E2E2E2E2E2E2E2E2E2E2E2E2E2E2E2E2E2E2E2E2
310
E2E2E2E2E2E2E2E2E2E2E2E2E2E2E2E2E2E2E2E2E2E2E2E2E2E2E2E2E2E2E2E2E2E2E2E2E2E2E2E2E2E2E2E2E2E2E2E2E2E2E2E2E2E2E2E2E2E2E2E2E2E2E2F5E2E2E2F5F5EFF5E2E2E2F5E2E2E2E2E2E2E2E2E2E2E2E2E2E2E2E2E2E2E2E2E2E2E2E2E2E2E2E2E2E2E2E2E2E2E2E2E2E2E2E2E2E2E2E2E2E2E2E2E2E2E2E2
310
E2E2E2E2E2E2E2E2E2E2E2E2E2E2E2E2E2E2E2E2E2E2E2E2E2E2E2E2E2E2E2E2E2E2E2E2E2E2E2E2E2E2E2E2E2E2E2E2E2E2E2E2E2E2E2E2E2E2E2E2E2E2E2E2E2E2E2E2E2E2E2E2E2E2E2E2E2E2E2E2E2E2E2E2E2E2E2E2E2E2E2E2E2E2E2E2E2E2E2E2E2E2E2E2E2E2E2E2E2E2E2E2E2E2E2E2F5E2E2E2F5F5EFF5E2E2E2
310
F5E2E2E2E2E2E2E2E2E2E2E2E2E2E2E2E2E2E2E2E2E2E2E2E2E2E2E2E2E2E2E2E2E2E2E2E2E2E2E2E2E2E2E2E2E2E2E2E2E2E2E2E2E2E2E2E2E2E2E2E2E2E2E2E2E2E2E2E2E2E2E2E2E2E2E2E2E2E2E2E2E2E2E2E2E2E2E2E2E2E2E2E2E2E2E2E2E2E2E2E2E2E2E2E2E2E2E2E2E2E2E2E2E2E2E2E2E2E2E2E2E2E2E2E2E2E2
310
E2E2E2E2E2E2E2E2E2E2E2E2E2E2E2E2E2E2E2E2E2E2E2E2E2E2E2E2E2E2E2E2E2E2E2E2E2E2E2E2E2E2F5E2E2E2F5F5EFF5E2E2E2F5E2E2E2E2E2E2E2E2E2E2E2E2E2E2E2E2E2E2E2E2E2E2E2E2E2E2E2E2E2E2E2E2E2E2E2E2E2E2E2E2E2E2E2E2E2E2E2E2E2E2E2E2E2E2E2E2E2E2E2E2E2E2E2E2E2E2E2E2E2E2E2E2E2
310
E2E2E2E2E2E2E2E2E2E2E2E2E2E2E2E2E2E2E2E2E2E2E2E2E2E2E2E2E2E2E2E2E2E2E2E2E2E2E2E2E2E2E2E2E2E2E2E2E2E2E2E2E2E2E2E2E2E2E2E2E2E2E2E2E2E2E2E2E2E2E2E2E2E2E2E2E2E2E2E2E2E2E2E2E2E2E2E2E2E2E2E2E2E2E2F5E2E2E2F5F5EFF5E2E2E2E2E2E2E2E2E2E2E2E2E2E2E2E2E2E2E2E2E2E2E2E2
310
E2E2E2E2E2E2E2E2E2E2E2E2E2E2E2E2E2E2E2E2E2E2E2E2E2E2E2E2E2E2E2E2E2E2E2E2E2E2E2E2E2E2E2E2E2E2E2E2E2E2E2E2E2E2E2E2E2E2E2E2E2E2E2E2E2E2E2E2E2E2E2E2E2E2E2E2E2E2E2E2E2E2E2E2E2E2E2E2E2E2E2E2E2E2E2E2E2E2E2E2E2E2E2E2E2E2E2E2E2E2E2E2E2E2E2E2E2E2E2E2E2E2E2E2E2E2E2
310
E2E2E2E2E2E2E2E2E2E2E2E2E2E2E2E2E2E2E2E2E2E2E2E2E2F5F5EFF5E2E2E2E2E2E2E2E2E2E2E2E2E2E2E2E2E2E2E2E2E2E2E2E2E2E2E2E2E2E2E2E2E2E2E2E2E2E2E2E2E2E2E2E2E2E2E2E2E2E2E2E2E2E2E2E2E2E2E2E2E2E2E2E2E2E2E2E2E2E2E2E2E2E2E2E2E2E2E2E2E2E2E2E2E2E2E2E2E2E2E2E2E2E2E2E2E2E2
310
E2E2E2E2E2E2E2E2E2E2E2E2E2E2E2E2E2E2E2E2E2E2E2E2E2E2E2E2E2E2E2E2E2E2E2E2E2E2E2E2E2E2E2E2E2E2E2E2E2E2E2E2E2E2E2E2E2E2E2E2E2E2E2E2E2E2E2E2E2E2E2E2E2E2E2E2E2E2F5F5EFF5E2E2E2E2E2E2E2E2E2E2E2E2E2E2E2E2E2E2E2E2E2E2E2E2E2E2E2E2E2E2E2E2E2E2E2E2E2E2E2E2E2E2E2E2E2
310
E2E2E2E2E2E2E2E2E2E2E2E2E2E2E2E2E2E2E2E2E2E2E2E2E2E2E2E2E2E2E2E2E2E2E2E2E2E2E2E2E2E2E2E2E2E2E2E2E2E2E2E2E2E2E2E2E2E2E2E2E2E2E2E2E2E2E2E2E2E2E2E2E2E2E2E2E2E2E2E2E2E2E2E2E2E2E2E2E2E2E2E2E2E2E2E2E2E2E2E2E2E2E2E2E2E2E2E2E2E2E2E2E2E2E2E2E2E2E2E2E2E2E2E2E2E2E2
310
E2E2E2E2F5F5EFF5E2E2E2E2E2E2E2E2E2E2E2E2E2E2E2E2E2E2E2E2E2E2E2E2E2E2E2E2E2E2E2E2E2E2E2E2E2E2E2E2E2E2E2E2E2E2E2E2E2E2E2E2E2E2E2E2E2E2E2E2E2E2E2E2E2E2E2E2E2E2E2E2E2E2E2E2E2E2E2E2E2E2E2E2E2E2E2E2E2E2E2E2E2E2E2E2E2E2E2E2E2E2E2E2E2E2E2E2E2E2E2E2E2E2E2E2E2E2E2
310
E2E2E2E2E2E2E2E2E2E2E2E2E2E2E2E2E2E2E2E2E2E2E2E2E2E2E2E2E2E2E2E2E2E2E2E2E2E2E2E2E2E2E2E2E2E2E2E2E2E2E2E2E2E2E2E2E2F5F5EFF5E2E2E2E2E2E2E2E2E2E2E2E2E2E2E2E2E2E2E2E2F5F5F5F5F5F5F5F5F5F5F5F5F5F5F5F5F5F5F5F5F5F5F5F5F5F5F5F5F5F5F5F5F5F5F5F5F5F5F5F5F5F5F5F5F5F5
310
F5F5F5F5F5F5F5F5F5F5F5F5F5F5F5F5F5F5F5F5F5F5F5F5F5F5F5F5F5F5F5F5F5F5F5F5F5F5F5F5F5F5F5F5F5F5F5F5F5F5F5F5F5F5F5F5F5F5F5F5F5F5F5F5F5F5F5F5F5F5F5F5F5F5F5F5F5F5F5F5F5F5F5F5F5F5F5F5F5F5E2E2E2E2E2E2E2E2E2E2E2E2E2E2E2E2E2E2E2E2F5F5EFF5E2E2E2E2E2E2E2E2E2E2E2E2E2
310
E2E2E2E2E2E2E2F5E2E2E2E2E2E2E2E2E2E2E2E2E2E2E2E2E2E2E2E2E2E2E2E2E2E2E2E2E2DCE2E2E2E2E2E2E2E2E2E2E2E2E2E2E2E2E2E2E2E2E2E2E2E2E2E2E2E2E2E2E2E2E2E2E2E2E2E2E2E2E2E2E2E2E2E2E2E2E2E2E2E2E2E2E2E2E2E2E2E2E2E2E2E2E2E2E2E2E2E2E2E2E2E2DCE2E2E2E2E2E2E2E2E2E2E2E2E2E2
310
E2E2E2E2E2E2E2E2E2E2E2E2E2E2E2F5E2E2E2E2E2E2E2E2E2E2E2E2E2E2E2E2E2E2E2E2F5F5EFF5E2E2E2E2E2E2E2E2E2E2E2E2E2E2E2E2E2E2E2E2F5E2E2E2E2E2E2E2E2E2E2E2E2E2E2E2E2E2E2E2E2E2E2E2E2E2E2E2E2E2DCE2E2E2E2E2E2E2E2E2E2E2E2E2E2E2E2E2E2E2E2E2E2E2E2E2E2E2E2E2E2E2E2E2E2E2E2
310
E2E2E2E2E2E2E2E2E2E2E2E2E2E2E2E2E2E2E2E2E2E2E2E2E2E2E2E2E2E2E2E2E2E2E2E2E2E2DCE2E2E2E2E2E2E2E2E2E2E2E2E2E2E2E2E2E2E2E2E2E2E2E2E2E2E2E2E2F5E2E2E2E2E2E2E2E2E2E2E2E2E2E2E2E2E2E2E2E2F5F5EFF5E2E2E2E2E2E2E2E2E2E2E2E2E2E2E2E2E2E2E2E2F5E2E2E2E2E2E2E2E2E2E2E2E2E2
310
E2E2E2E2E2E2E2E2E2E2E2E2E2E2E2E2DCE2E2E2E2E2E2E2E2E2E2E2E2E2E2E2E2E2E2E2E2E2E2E2E2E2E2E2E2E2E2E2E2E2E2E2E2E2E2E2E2E2E2E2E2E2E2E2E2E2E2E2E2E2E2E2E2E2E2E2E2E2E2E2E2E2E2E2E2E2E2E2E2E2E2DCE2E2E2E2E2E2E2E2E2E2E2E2E2E2E2E2E2E2E2E2E2E2E2E2E2E2E2E2E2F5E2E2E2E2E2
310
E2E2E2E2E2E2E2E2E2E2E2E2E2E2E2F5F5EFF5E2E2E2E2E2E2E2E2E2E2E2E2E2E2E2E2E2E2E2E2F5E2E2E2E2E2E2E2E2E2E2E2E2E2E2E2E2E2E2E2E2E2E2E2E2E2E2E2E2E2DCE2E2E2E2E2E2E2E2E2E2E2E2E2E2E2E2E2E2E2E2E2E2E2E2E2E2E2E2E2E2E2E2E2E2E2E2E2E2E2E2E2E2E2E2E2E2E2E2E2E2E2E2E2E2E2E2E2
310
E2E2E2E2E2E2E2E2E2E2E2E2E2E2E2E2E2DCE2E2E2E2E2E2E2E2E2E2E2E2E2E2E2E2E2E2E2E2E2E2E2E2E2E2E2E2E2F5E2E2E2E2E2E2E2E2E2E2E2E2E2E2E2E2E2E2E2E2F5F5EFF5E2E2E2F5E2E2E2E2E2E2E2E2E2E2E2E2E2E2E2E2F5E2E2E2E2E2E2E2E2E2E2E2E2E2E2E2E2E2E2E2E2E2E2E2E2E2E2E2E2E2DCE2E2E2E2
310
E2E2E2E2E2E2E2272727E2E22727E2E2E2E2E2E2E2E2E2E2E2E2E2E2E2E2E2E2E2E2E2E2E2E2E2E2E2E2E2E2E2E2E2E2E2E2E2E2E2E2E2E2E2E2E2E2E2E2E2E2E2E2E2E2E2E2DCE2E2E2E2E2E2E2E2E2E2E2E2E2E2E2E2E2E2E2E2E2E2E2E2E2E2E2E2E2F5E2E2E2E2E2E2E2E2E2E2E2E2E2E2E2E2F5E2E2E2F5F5EFF5E2E2
310
E2F5E2E2E2E2E2E2E2E2E2E2E2E2E2E2E2E2F5E2E2E2E2E2E2E2E2E2E2E2E2E2E2E2E2E2E2E2E2E2E2E2E2E2E2E2E2E2DCE2E2E2E2E2E2E2E2E2E2E2272727272727272727E2E2E2E2E2E2E2E2E2E2E2E2E2E2E2E2E2E2E2E2E2E2E2E2E2E2E2E2E2E2E2E2E2E2E2E2E2E2E2E2E2E2E2E2E2E2E2E2E2E2E2E2E2E2DCE2E2E2
310
E2E2E2E2E2E2E2E2E2E2E2E2E2E2E2E2E2E2E2E2E2E2E2E2E2E2F5E2E2E2E2E2E2E2E2E2E2E2E2E2E2E2E2F5E2E2E2F5F5EFF5E2E2E2F5E2E2E2E2E2E2E2E2E2E2E2E2E2E2E2E2F5E2E2E2E2E2E2E2E2E2E2E2E2E2E2E2E2E2E2E2E2E2E2E2E2E2E2E2E2E2DCE2E2E2E2E2E2E2E2E2E2E2272727272727272727E2E2E2E2E2
310
E2E2E2E2E2E2E2E2E2E2E2E2E2E2E2E2E2E2E2E2E2E2E2E2E2E2E2E2E2E2E2E2E2E2E2E2E2E2E2E2E2E2E2E2E2E2E2E2E2DCE2E2E2E2E2E2E2E2E2E2E2E2E2E2E2E2E2E2E2E2E2E2E2E2E2E2E2E2E2F5E2E2E2E2E2E2E2E2E2E2E2E2E2E2E2E2F5E2E2E2F5F5EFF5E2E2E2F5E2E2E2E2E2E2E2E2E2E2E2E2E2E2E2E2F5E2E2
310
E2E2E2E2E2E2E2E2E2E2E2E2E2E2E2E2E2E2E2E2E2E2E2E2E2E2E2DCE2E2E2E2E2E2E2E2E2E2E2E2E2E2E2E2E2E2E2E2E2E2E2E2E2E2E2E2E2E2E2E2E2E2E2E2E2E2E2E2E2E2E2E2E2E2E2E2E2E2E2E2E2E2E2E2E2E2E2E2E2E2E2E2E2E2E2E2E2E2E2E2E2E2DCE2E2E2E2E2E2E2E2E2E2E2E2E2E2E2E2E2E2E2E2E2E2E2E2
310
E2E2E2E2E2F5E2E2E2E2E2E2E2E2E2E2E2E2E2E2E2E2F5E2E2E2F5F5EFF5E2E2E2F5E2E2E2E2E2E2E2E2E2E2E2E2E2E2E2E2F5E2E2E2E2E2E2E2E2E2E2E2E2E2E2E2E2E2E2E2E2E2E2E2E2E2E2E2E2E2DCE2E2E2E2E2E2E2E2E2E2E2E2E2E2E2E2E2E2E2E2E2E2E2E2E2E2E2E2E2E2E2E2E2E2E2E2E2E2E2E2E2E2E2E2E2E2
310
E2E2E2E2E2E2E2E2E2E2E2E2E2E2E2E2E2E2E2E2E2E2E2E2E2E2E2E2DCE2E2E2E2E2E2E2E2E2E2E2E2E2E2E2E2E2E2E2E2E2E2E2E2E2E2E2E2E2F5E2E2E2E2E2E2E2E2E2E2E2E2E2E2E2E2F5E2E2E2F5F5EFF5E2E2E2F5E2E2E2E2E2E2E2E2E2E2E2E2E2E2E2E2F5E2E2E2E2E2E2E2E2E2E2E2E2E2E2E2E2E2E2E2E2E2E2E2
310
E2E2E2E2E2E2DCE2E2E2E2E2E2E2E2E2E2E2E2E2E2E2E2E2E2E2E2E2E2E2E2E2E2E2E2E2E2E2E2E2E2E2E2E2E2E2E2E2E2E2E2E2E2E2E2E2E2E2E2E2E2E2E2E2E2E2E2E2E2E2E2E2E2E2E2E2E2E2E2E2E2DCE2E2E2E2E2E2E2E2E2E2E2E2E2E2E2E2E2E2E2E2E2E2E2E2E2E2E2E2E2F5E2E2E2E2E2E2E2E2E2E2E2E2E2E2E2
310
E2F5E2E2E2F5F5EFF5E2E2E2F5E2E2E2E2E2E2E2E2E2E2E2E2E2E2E2E2F5E2E2E2E2E2E2E2E2E2E2E2E2E2E2E2E2E2E2E2E2E2E2E2E2E2E2E2E2E2DCE2E2E2E2E2E2E2E2E2E2E2E2E2E2E2E2E2E2E2E2E2E2E2E2E2E2E2E2E2E2E2E2E2E2E2E2E2E2E2E2E2E2E2E2E2E2E2E2E2E2E2E2E2E2E2E2E2E2E2E2E2E2E2E2E2E2E2
310
E2E2E2E2E2E2E2DCE2E2E2E2E2E2E2E2E2E2E2E2E2E2E2E2E2E2E2E2E2E2E2E2E2E2E2E2E2F5E2E2E2E2E2E2E2E2E2E2E2E2E2E2E2E2F5E2E2E2F5F5EFF5E2E2E2F5E2E2E2E2E2E2E2E2E2E2E2E2E2E2E2E2F5E2E2E2E2E2E2E2E2E2E2E2E2E2E2E2E2E2E2E2E2E2E2E2E2E2E2E2E2E2DCE2E2E2E2E2E2E2E2E2E2E2E2E2E2
310
E2E2E2E2E2E2E2E2E2E2E2E2E2E2E2E2E2E2E2E2E2E2E2E2E2E2E2E2E2E2E2E2E2E2E2E2E2E2E2E2E2E2E2E2E2E2E2E2E2E2E2E2E2E2E2E2E2E2E2E2DCE2E2E2E2E2E2E2E2E2E2E2E2E2E2E2E2E2E2E2E2E2E2E2E2E2E2E2E2E2F5E2E2E2E2E2E2E2E2E2E2E2E2E2E2E2E2F5E2E2E2F5F5EFF5E2E2E2F5E2E2E2E2E2E2E2E2
310
E2E2E2E2E2E2E2E2F5E2E2E2E2E2E2E2E2E2E2E2E2E2E2E2E2E2E2E2E2E2E2E2E2E2E2E2E2E2DCE2E2E2E2E2E2E2E2E2E2E2E2E2E2E2E2E2E2E2E2E2E2E2E2E2E2E2E2E2E2E2E2E2E2E2E2E2E2E2E2E2E2E2E2E2E2E2E2E2E2E2E2E2E2E2E2E2E2E2E2E2E2E2E2E2E2E2E2E2E2E2E2E2E2DCE2E2E2E2E2E2E2E2E2E2E2E2E2
310
E2E2E2E2E2E2E2E2E2E2E2E2E2E2E2E2F5E2E2E2E2E2E2E2E2E2E2E2E2E2E2E2E2F5E2E2E2F5F5EFF5E2E2E2F5E2E2E2E2E2E2E2E2E2E2E2E2E2E2E2E2F5E2E2E2E2E2E2E2E2E2E2E2E2E2E2E2E2E2E2E2E2E2E2E2E2E2E2E2E2E2DCE2E2E2E2E2E2E2E2E2E2E2E2E2E2E2E2E2E2E2E2E2E2E2E2E2E2E2E2E2E2E2E2E2E2E2
310
E2E2E2E2E2E2E2E2E2E2E2E2E2E2E2E2E2E2E2E2E2E2E2E2E2E2E2E2E2E2E2E2E2E2E2E2E2E2E2DCE2E2E2E2E2E2E2E2E2E2E2E2E2E2E2E2E2E2E2E2E2E2E2E2E2E2E2E2E2F5E2E2E2E2E2E2E2E2E2E2E2E2E2E2E2E2F5E2E2E2F5F5EFF5E2E2E2F5E2E2E2E2E2E2E2E2E2E2E2E2E2E2E2E2F5E2E2E2E2E2E2E2E2E2E2E2E2
310
E2E2E2E2E2E2E2E2E2E2E2E2E2E2E2E2E2DCE2E2E2E2E2E2E2E2E2E2E2E2E2E2E2E2E2E2E2E2E2E2E2E2E2E2E2E2E2E2E2E2E2E2E2E2E2E2E2E2E2E2E2E2E2E2E2E2E2E2E2E2E2E2E2E2E2E2E2E2E2E2E2E2E2E2E2E2E2E2E2E2E2E2DCE2E2E2E2E2E2E2E2E2E2E2E2E2E2E2E2E2E2E2E2E2E2E2E2E2E2E2E2E2F5E2E2E2E2
310
E2E2E2E2E2E2E2E2E2E2E2E2F5E2E2E2F5F5EFF5E2E2E2F5E2E2E2E2E2E2E2E2E2E2E2E2E2E2E2E2F5E2E2E2E2E2E2E2E2E2E2E2E2E2E2E2E2E2E2E2E2E2E2E2E2E2E2E2E2E2DCE2E2E2E2E2E2E2E2E2E2E2E2E2E2E2E2E2E2E2E2E2E2E2E2E2E2E2E2E2E2E2E2E2E2E2E2E2E2E2E2E2E2E2E2E2E2E2E2E2E2E2E2E2E2E2E2
310
E2E2E2E2E2E2E2E2E2E2E2E2E2E2E2E2E2E2DCE2E2E2E2E2E2E2E2E2E2E2E2E2E2E2E2E2E2E2E2E2E2E2E2E2E2E2E2E2F5E2E2E2E2E2E2E2E2E2E2E2E2E2E2E2E2F5E2E2E2F5F5EFF5E2E2E2F5E2E2E2E2E2E2E2E2E2E2E2E2E2E2E2E2F5E2E2E2E2E2E2E2E2E2E2E2E2E2E2E2E2E2E2E2E2E2E2E2E2E2E2E2E2E2DCE2E2E2
310
E2E2E2E2E2E2E2E2E2E2E2E2E2E2E2E2E2E2E2E2E2E2E2E2E2E2E2E2E2E2E2E2E2E2E2E2E2E2E2E2E2E2E2E2E2E2E2E2E2E2E2E2E2E2E2E2E2E2E2E2E2E2E2E2E2E2E2E2E2E2E2DCE2E2E2E2E2E2E2E2E2E2E2E2E2E2E2E2E2E2E2E2E2E2E2E2E2E2E2E2E2F5E2E2E2E2E2E2E2E2E2E2E2E2E2E2E2E2F5E2E2E2F5F5EFF5E2
310
E2E2F5E2E2E2E2E2E2E2E2E2E2E2E2E2E2E2E2F5E2E2E2E2E2E2E2E2E2E2E2E2E2E2E2E2E2E2E2E2E2E2E2E2E2E2E2E2E2DCE2E2E2E2E2E2E2E2E2E2E2E2E2E2E2E2E2E2E2E2E2E2E2E2E2E2E2E2E2E2E2E2E2E2E2E2E2E2E2E2E2E2E2E2E2E2E2E2E2E2E2E2E2E2E2E2E2E2E2E2E2E2E2E2E2E2E2E2E2E2E2E2E2E2DCE2E2
310
E2E2E2E2E2E2E2E2E2E2E2E2E2E2E2E2E2E2E2E2E2E2E2E2E2E2E2F5E2E2E2E2E2E2E2E2E2E2E2E2E2E2E2E2F5E2E2E2F5F5EFF5E2E2E2F5E2E2E2E2E2E2E2E2E2E2E2E2E2E2E2E2F5E2E2E2E2E2E2E2E2E2E2E2E2E2E2E2E2E2E2E2E2E2E2E2E2E2E2E2E2E2DCE2E2E2E2E2E2E2E2E2E2E2E2E2E2E2E2E2E2E2E2E2E2E2E2
310
E2E2E2E2E2E2E2E2E2E2E2E2E2E2E2E2E2E2E2E2E2E2E2E2E2E2E2E2E2E2E2E2E2E2E2E2E2E2E2E2E2E2E2E2E2E2E2E2E2E2DCE2E2E2E2E2E2E2E2E2E2E2E2E2E2E2E2E2E2E2E2E2E2E2E2E2E2E2E2E2F5E2E2E2E2E2E2E2E2E2E2E2E2E2E2E2E2F5E2E2E2F5F5EFF5E2E2E2F5E2E2E2E2E2E2E2E2E2E2E2E2E2E2E2E2F5E2
310
E2E2E2E2E2E2E2E2E2E2E2E2E2E2E2E2E2E2E2E2E2E2E2E2E2E2E2E2DCE2E2E2E2E2E2E2E2E2E2E2E2E2E2E2E2E2E2E2E2E2E2E2E2E2E2E2E2E2E2E2E2E2E2E2E2E2E2E2E2E2E2E2E2E2E2E2E2E2E2E2E2E2E2E2E2E2E2E2E2E2E2E2E2E2E2E2E2E2E2E2E2E2E2DCE2E2E2E2E2E2E2E2E2E2E2E2E2E2E2E2E2E2E2E2E2E2E2
310
E2E2E2E2E2E2F5E2E2E2E2E2E2E2E2E2E2E2E2E2E2E2E2F5E2E2E2F5F5EFF5E2E2E2F5E2E2E2E2E2E2E2E2E2E2E2E2E2E2E2E2F5E2E2E2E2E2E2E2E2E2E2E2E2E2E2E2E2E2E2E2E2E2E2E2E2E2E2E2E2E2DCE2E2E2E2E2E2E2E2E2E2E2E2E2E2E2E2E2E2E2E2E2E2E2E2E2E2E2E2E2E2E2E2E2E2E2E2E2E2E2E2E2E2E2E2E2
310
E2E2E2E2E2E2E2E2E2E2E2E2E2E2E2E2E2E2E2E2E2E2E2E2E2E2E2E2E2DCE2E2E2E2E2E2E2E2E2E2E2E2E2E2E2E2E2E2E2E2E2E2E2E2E2E2E2E2E2F5E2E2E2E2E2E2E2E2E2E2E2E2E2E2E2E2F5E2E2E2F5F5EFF5E2E2E2E2E2E2E2E2E2E2E2E2E2E2E2E2E2E2E2E2F5E2E2E2E2E2E2E2E2E2E2E2E2E2E2E2E2E2E2E2E2E2E2
310
E2E2E2E2E2E2E2DCE2E2E2E2E2E2E2E2E2E2E2E2E2E2E2E2E2E2E2E2E2E2E2E2E2E2E2E2E2E2E2E2E2E2E2E2E2E2E2E2E2E2E2E2E2E2E2E2E2E2E2E2E2E2E2E2E2E2E2E2E2E2E2E2E2E2E2E2E2E2E2E2E2E2DCE2E2E2E2E2E2E2E2E2E2E2E2E2E2E2E2E2E2E2E2E2E2E2E2E2E2E2E2E2F5E2E2E2E2E2E2E2E2E2E2E2E2E2E2
310
E2E2E2E2E2E2F5F5EFF5E2E2E2E2E2E2E2E2E2E2E2E2E2E2E2E2E2E2E2E2F5E2E2E2E2E2E2E2E2E2E2E2E2E2E2E2E2E2E2E2E2E2E2E2E2E2E2E2E2E2DCE2E2E2E2E2E2E2E2E2E2E2E2E2E2E2E2E2E2E2E2E2E2E2E2E2E2E2E2E2E2E2E2E2E2E2E2E2E2E2E2E2E2E2E2E2E2E2E2E2E2E2E2E2E2E2E2E2E2E2E2E2E2E2E2E2E2
310
E2E2E2E2E2E2E2E2DCE2E2E2E2E2E2E2E2E2E2E2E2E2E2E2E2E2E2E2E2E2E2E2E2E2E2E2E2E2F5E2E2E2E2E2E2E2E2E2E2E2E2E2E2E2E2E2E2E2E2F5F5EFF5E2E2E2E2E2E2E2E2E2E2E2E2E2E2E2E2E2E2E2E2F5E2E2E2E2E2E2E2E2E2E2E2E2E2E2E2E2E2E2E2E2E2E2E2E2E2E2E2E2E2DCE2E2E2E2E2E2E2E2E2E2E2E2E2
310
E2E2E2E2E2E2E2E2E2E2E2E2E2E2E2E2E2E2E2E2E2E2E2E2E2E2E2E2E2E2E2E2E2E2E2E2E2E2E2E2E2E2E2E2E2E2E2E2E2E2E2E2E2E2E2E2E2E2E2E2E2DCE2E2E2E2E2E2E2E2E2E2E2E2E2E2E2E2E2E2E2E2E2E2E2E2E2E2E2E2E2F5E2E2E2E2E2E2E2E2E2E2E2E2E2E2E2E2E2E2E2E2F5F5EFF5E2E2E2E2E2E2E2E2E2E2E2
310
E2E2E2E2E2E2E2E2E2F5E2E2E2E2E2E2E2E2E2E2E2E2E2E2E2E2E2E2E2E2E2E2E2E2E2E2E2E2E2DCE2E2E2E2E2E2E2E2E2E2E2E2E2E2E2E2E2E2E2E2E2E2E2E2E2E2E2E2E2E2E2E2E2E2E2E2E2E2E2E2E2E2E2E2E2E2E2E2E2E2E2E2E2E2E2E2E2E2E2E2E2E2E2E2E2E2E2E2E2E2E2E2E2E2DCE2E2E2E2E2E2E2E2E2E2E2E2
310
E2E2E2E2E2E2E2E2E2E2E2E2E2E2E2E2E2F5E2E2E2E2E2E2E2E2E2E2E2E2E2E2E2E2E2E2E2E2F5F5EFF5E2E2E2E2E2E2E2E2E2E2E2E2E2E2E2E2E2E2E2E2F5E2E2E2E2E2E2E2E2E2E2E2E2E2E2E2E2E2E2E2E2E2E2E2E2E2E2E2E2E2DCE2E2E2E2E2E2E2E2E2E2E2E2E2E2E2E2E2E2E2E2E2E2E2E2E2E2E2E2E2E2E2E2E2E2
310
E2E2E2E2E2E2E2E2E2E2E2E2E2E2E2E2E2E2E2E2E2E2E2E2E2E2E2E2E2E2E2E2E2E2E2E2E2E2E2E2DCE2E2E2E2E2E2E2E2E2E2E2E2E2E2E2E2E2E2E2E2E2E2E2E2E2E2E2E2E2F5E2E2E2E2E2E2E2E2E2E2E2E2E2E2E2E2E2E2E2E2F5F5EFF5E2E2E2E2E2E2E2E2E2E2E2E2E2E2E2E2E2E2E2E2F5E2E2E2E2E2E2E2E2E2E2E2
310
E2E2E2E2E2E2E2E2E2E2E2E2E2E2E2E2E2E2DCE2E2E2E2E2E2E2E2E2E2E2E2E2E2E2E2E2E2E2E2E2E2E2E2E2E2E2E2E2E2E2E2E2E2E2E2E2E2E2E2E2E2E2E2E2E2E2E2E2E2E2E2E2E2E2E2E2E2E2E2E2E2E2E2E2E2E2E2E2E2E2E2E2E2DCE2E2E2E2E2E2E2E2E2E2E2E2E2E2E2E2E2E2E2E2E2E2E2E2E2E2E2E2E2F5E2E2E2
310
E2E2E2E2E2E2E2E2E2E2E2E2E2E2E2E2E2F5F5EFF5E2E2E2E2E2E2E2E2E2E2E2E2E2E2E2E2E2E2E2E2F5E2E2E2E2E2E2E2E2E2E2E2E2E2E2E2E2E2E2E2E2E2E2E2E2E2E2E2E2E2DCE2E2E2E2E2E2E2E2E2E2E2E2E2E2E2E2E2E2E2E2E2E2E2E2E2E2E2E2E2E2E2E2E2E2E2E2E2E2E2E2E2E2E2E2E2E2E2E2E2E2E2E2E2E2E2
310
E2E2E2E2E2E2E2E2E2E2E2E2E2E2E2E2E2E2E2DCE2E2E2E2E2E2E2E2E2E2E2E2E2E2E2E2E2E2E2E2E2E2E2E2E2E2E2E2E2F5E2E2E2E2E2E2E2E2E2E2E2E2E2E2E2E2E2E2E2E2F5F5EFF5E2E2E2E2E2E2E2E2E2E2E2E2E2E2E2E2E2E2E2E2F5E2E2E2E2E2E2E2E2E2E2E2E2E2E2E2E2E2E2E2E2E2E2E2E2E2E2E2E2E2DCE2E2
310
E2E2E2E2E2E2E2E2E2E2E2E2E2E2E2E2E2E2E2E2E2E2E2E2E2E2E2E2E2E2E2E2E2E2E2E2E2E2E2E2E2E2E2E2E2E2E2E2E2E2E2E2E2E2E2E2E2E2E2E2E2E2E2E2E2E2E2E2E2E2E2E2DCE2E2E2E2E2E2E2E2E2E2E2E2E2E2E2E2E2E2E2E2E2E2E2E2E2E2E2E2E2F5E2E2E2E2E2E2E2E2E2E2E2E2E2E2E2E2E2E2E2E2F5F5EFF5
310
E2E2E2E2E2E2E2E2E2E2E2E2E2E2E2E2E2E2E2E2F5E2E2E2E2E2E2E2E2E2E2E2E2E2E2E2E2E2E2E2E2E2E2E2E2E2E2E2E2E2DCE2E2E2E2E2E2E2E2E2E2E2E2E2E2E2E2E2E2E2E2E2E2E2E2E2E2E2E2E2E2E2E2E2E2E2E2E2E2E2E2E2E2E2E2E2E2E2E2E2E2E2E2E2E2E2E2E2E2E2E2E2E2E2E2E2E2E2E2E2E2E2E2E2E2DCE2
310
E2E2E2E2E2E2E2E2E2E2E2E2E2E2E2E2E2E2E2E2E2E2E2E2E2E2E2E2F5E2E2E2E2E2E2E2E2E2E2E2E2E2E2E2E2E2E2E2E2F5F5EFF5E2E2E2F5E2E2E2E2E2E2E2E2E2E2E2E2E2E2E2E2F5E2E2E2E2E2E2E2E2E2E2E2E2E2E2E2E2E2E2E2E2E2E2E2E2E2E2E2E2E2DCE2E2E2E2E2E2E2E2E2E2E2E2E2E2E2E2E2E2E2E2E2E2E2
310
E2E2E2E2E2E2E2E2E2E2E2E2E2E2E2E2E2E2E2E2E2E2E2E2E2E2E2E2E2E2E2E2E2E2E2E2E2E2E2E2E2E2E2E2E2E2E2E2E2E2E2DCE2E2E2E2E2E2E2E2E2E2E2E2E2E2E2E2E2E2E2E2E2E2E2E2E2E2E2E2E2F5E2E2E2E2E2E2E2E2E2E2E2E2E2E2E2E2F5E2E2E2F5F5EFF5E2E2E2F5E2E2E2E2E2E2E2E2E2E2E2E2E2E2E2E2F5
310
E2E2E2E2E2E2E2E2E2E2E2E2E2E2E2E2E2E2E2E2E2E2E2E2E2E2E2E2E2DCE2E2E2E2E2E2E2E2E2E2E2E2E2E2E2E2E2E2E2E2E2E2E2E2E2E2E2E2E2E2E2E2E2E2E2E2E2E2E2E2E2E2E2E2E2E2E2E2E2E2E2E2E2E2E2E2E2E2E2E2E2E2E2E2E2E2E2E2E2E2E2E2E2E2DCE2E2E2E2E2E2E2E2E2E2E2E2E2E2E2E2E2E2E2E2E2E2
310
E2E2E2E2E2E2E2F5E2E2E2E2E2E2E2E2E2E2E2E2E2E2E2E2F5E2E2E2F5F5EFF5E2E2E2F5E2E2E2E2E2E2E2E2E2E2E2E2E2E2E2E2F5E2E2E2E2E2E2E2E2E2E2E2E2E2E2E2E2E2E2E2E2E2E2E2E2E2E2E2E2E2DCE2E2E2E2E2E2E2E2E2E2E2E2E2E2E2E2E2E2E2E2E2E2E2E2E2E2E2E2E2E2E2E2E2E2E2E2E2E2E2E2E2E2E2E2
310
E2E2E2E2E2E2E2E2E2E2E2E2E2E2E2E2E2E2E2E2E2E2E2E2E2E2E2E2E2E2DCE2E2E2E2E2E2E2E2E2E2E2E2E2E2E2E2E2E2E2E2E2E2E2E2E2E2E2E2E2F5E2E2E2E2E2E2E2E2E2E2E2E2E2E2E2E2F5E2E2E2F5F5EFF5E2E2E2F5E2E2E2E2E2E2E2E2E2E2E2E2E2E2E2E2F5E2E2E2E2E2E2E2E2E2E2E2E2E2E2E2E2E2E2E2E2E2
310
E2E2E2E2E2E2E2E2DCE2E2E2E2E2E2E2E2E2E2E2E2E2E2E2E2E2E2E2E2E2E2E2E2E2E2E2E2E2E2E2E2E2E2E2E2E2BEE2E2E2E2E2E2E2E2E2E2E2E2E2E2E2E2E2E2E2E2E2E2E2E2E2E2E2E2E2E2E2E2E2E2E2E2DCE2E2E2E2E2E2E2E2E2E2E2E2E2E2E2E2E2E2E2E2E2E2E2E2E2E2E2E2E2F5E2E2E2E2E2E2E2E2E2E2E2E2E2
310
E2E2E2F5E2E2E2F5F5EFF5E2E2E2F5E2E2E2E2E2E2E2E2E2E2E2E2E2E2E2E2F5E2E2E2E2E2E2E2E2E2E2E2E2E2E2E2E2E2E2E2E2E2E2E2E2E2E2E2E2E2DCE2E2E2E2E2E2E2E2E2E2E2E2E2E2E2E2E2E2E2E2E2E2E2E2E2E2E2E2E2E2E2E2E2E2E2E227BEE2E2E2E2E2E2E2E2E2E2E2E2E2E2E2E2E2E2E2E2E2E2E2E2E2E2E2
310
E2E2E2E2E2E2E2E2E2DCE2E2E2E2E2E2E2E2E2E2E2E2E2E2E2E2E2E2E2E2E2E2E2E2E2E2E2E2E2F5E2E2E2E2E2E2E2E2E2E2E2E2E2E2E2E2F5E2E2E2F5F5EFF5E2E2E2F5E2E2E2E2E2E2E2E2E2E2E2E2E2E2E2E2F5E2E2E2E2E2E2E2E2E2E2E2E2E2E2E2E2E2E2E2E2E2E2E2E2E2E2E2E2E2DCE2E2E2E2E2E2E2E2E2E2E2E2
310
E2E2E2E2E2E2E2E2E2E2E2E2E2E2E2E2E2E2E2E2E2E2E2E227BEE2E2E2E2E2E2E2E2E2E2E2E2E2E2E2E2E2E2E2E2E2E2E2E2E2E2E2E2E2E2E2E2E2E2E2E2DCE2E2E2E2E2E2E2E2E2E2E2E2E2E2E2E2E2E2E2E2E2E2E2E2E2E2E2E2E2F5E2E2E2E2E2E2E2E2E2E2E2E2E2E2E2E2F5E2E2E2F5F5EFF5E2E2E2F5E2E2E2E2E2E2
310
E2E2E2E2E2E2E2E2E2E2F5E2E2E2E2E2E2E2E2E2E2E2E2E2E2E2E2E2E2E2E2E2E2E2E2E2E2E2E2E2DCE2E2E2E2E2E2E2E2E2E2E2E2E2E2E2E2E2E2E2E2E2E2E2E2E2E2E2E2E2E2E2E2E2E2E2E227BEE2E2E2E2E2E2E2E2E2E2E2E2E2E2E2E2E2E2E2E2E2E2E2E2E2E2E2E2E2E2E2E2E2E2E2E2DCE2E2E2E2E2E2E2E2E2E2E2
310
E2E2E2E2E2E2E2E2E2E2E2E2E2E2E2E2E2E2F5E2E2E2E2E2E2E2E2E2E2E2E2E2E2E2E2F5E2E2E2F5F5EFF5E2E2E2F5E2E2E2E2E2E2E2E2E2E2E2E2E2E2E2E2F5E2E2E2E2E2E2E2E2E2E2E2E2E2E2E2E2E2E2E2E2E2E2E2E2E2E2E2E2E2DCE2E2E2E2E2E2E2E2E2E2E2E2E2E2E2E2E2E2E2E2E2E2E2E2E2E2E2E2E2E2E2E2E2
310
E2E2E227BEE2E2E2E2E2E2E2E2E2E2E2E2E2E2E2E2E2E2E2E2E2E2E2E2E2E2E2E2E2E2E2E2E2E2E2E2DCE2E2E2E2E2E2E2E2E2E2E2E2E2E2E2E2E2E2E2E2E2E2E2E2E2E2E2E2E2F5E2E2E2E2E2E2E2E2E2E2E2E2E2E2E2E2F5E2E2E2F5F5EFF5E2E2E2F5E2E2E2E2E2E2E2E2E2E2E2E2E2E2E2E2F5E2E2E2E2E2E2E2E2E2E2
310
E2E2E2E2E2E2E2E2E2E2E2E2E2E2E2E2E2E2E2DCE2E2E2E2E2E2E2E2E2E2E2E2E2E2E2E2E2E2E2E2E2E2E2E2E2E2E2E2E2E2E2E2E2E2E2E227BEE2E2E2E2E2E2E2E2E2E2E2E2E2E2E2E2E2E2E2E2E2E2E2E2E2E2E2E2E2E2E2E2E2E2E2E2DCE2E2E2E2E2E2E2E2E2E2E2E2E2E2E2E2E2E2E2E2E2E2E2E2E2E2E2E2E2F5E2E2
310
E2E2E2E2E2E2E2E2E2E2E2E2E2E2F5E2E2E2F5F5EFF5E2E2E2F5E2E2E2E2E2E2E2E2E2E2E2E2E2E2E2E2F5E2E2E2E2E2E2E2E2E2E2E2E2E2E2E2E2E2E2E2E2E2E2E2E2E2E2E2E2E2DCE2E2E2E2E2E2E2E2E2E2E2E2E2E2E2E2E2E2E2E2E2E2E2E2E2E2E2E2E2E2E2E2E2E2E2E227BEE2E2E2E2E2E2E2E2E2E2E2E2E2E2E2E2
310
E2E2E2E2E2E2E2E2E2E2E2E2E2E2E2E2E2E2E2E2DCE2E2E2E2E2E2E2E2E2E2E2E2E2E2E2E2E2E2E2E2E2E2E2E2E2E2E2E2E2F5E2E2E2E2E2E2E2E2E2E2E2E2E2E2E2E2F5E2E2E2F5F5EFF5E2E2E2F5E2E2E2E2E2E2E2E2E2E2E2E2E2E2E2E2F5E2E2E2E2E2E2E2E2E2E2E2E2E2E2E2E2E2E2E2E2E2E2E2E2E2E2E2E2E2DCE2
310
E2E2E2E2E2E2E2E2E2E2E2E2E2E2E2E2E2E2E2E2E2E2E2E2E2E2E2E2E2E2E2E2E2E2E227BEE2E2E2E2E2E2E2E2E2E2E2E2E2E2E2E2E2E2E2E2E2E2E2E2E2E2E2E2E2E2E2E2E2E2E2E2DCE2E2E2E2E2E2E2E2E2E2E2E2E2E2E2E2E2E2E2E2E2E2E2E2E2E2E2E2E2F5E2E2E2E2E2E2E2E2E2E2E2E2E2E2E2E2F5E2E2E2F5F5EF
310
F5E2E2E2F5E2E2E2E2E2E2E2E2E2E2E2E2E2E2E2E2F5E2E2E2E2E2E2E2E2E2E2E2E2E2E2E2E2E2E2E2E2E2E2E2E2E2E2E2E2E2DCE2E2E2E2E2E2E2E2E2E2E2E2E2E2E2E2E2E2E2E2E2E2E2E2E2E2E2E2E2E2E2E2E2E2E2E227BEE2E2E2E2E2E2E2E2E2E2E2E2E2E2E2E2E2E2E2E2E2E2E2E2E2E2E2E2E2E2E2E2E2E2E2E2DC
310
E2E2E2E2E2E2E2E2E2E2E2E2E2E2E2E2E2E2E2E2E2E2E2E2E2E2E2E2E2F5E2E2E2E2E2E2E2E2E2E2E2E2E2E2E2E2F5E2E2E2F5F5EFF5E2E2E2F5E2E2E2E2E2E2E2E2E2E2E2E2E2E2E2E2F5E2E2E2E2E2E2E2E2E2E2E2E2E2E2E2E2E2E2E2E2E2E2E2E2E2E2E2E2E2DCE2E2E2E2E2E2E2E2E2E2E2E2E2E2E2E2E2E2E2E2E2E2
310
E2E2E2E2E2E2E2E2E2E2E2E2E2E227BEE2E2E2E2E2E2E2E2E2E2E2E2E2E2E2E2E2E2E2E2E2E2E2E2E2E2E2E2E2E2E2E2E2E2E2E2DCE2E2E2E2E2E2E2E2E2E2E2E2E2E2E2E2E2E2E2E2E2E2E2E2E2E2E2E2E2F5E2E2E2E2E2E2E2E2E2E2E2E2E2E2E2E2F5E2E2E2F5F5EFF5E2E2E2F5E2E2E2E2E2E2E2E2E2E2E2E2E2E2E2E2
310
F5E2E2E2E2E2E2E2E2E2E2E2E2E2E2E2E2E2E2E2E2E2E2E2E2E2E2E2E2E2DCE2E2E2E2E2E2E2E2E2E2E2E2E2E2E2E2E2E2E2E2E2E2E2E2E2E2E2E2E2E2E2E2E2E2E2E227BEE2E2E2E2E2E2E2E2E2E2E2E2E2E2E2E2E2E2E2E2E2E2E2E2E2E2E2E2E2E2E2E2E2E2E2E2DCE2E2E2E2E2E2E2E2E2E2E2E2E2E2E2E2E2E2E2E2E2
310
E2E2E2E2E2E2E2E2F5E2E2E2E2E2E2E2E2E2E2E2E2E2E2E2E2F5E2E2E2F5F5EFF5E2E2E2F5E2E2E2E2E2E2E2E2E2E2E2E2E2E2E2E2F5E2E2E2E2E2E2E2E2E2E2E2E2E2E2E2E2E2E2E2E2E2E2E2E2E2E2E2E2E2DCE2E2E2E2E2E2E2E2E2E2E2E2E2E2E2E2E2E2E2E2E2E2E2E2E2E2E2E2E2E2E2E2E2E2E2E227BEE2E2E2E2E2
310
E2E2E2E2E2E2E2E2E2E2E2E2E2E2E2E2E2E2E2E2E2E2E2E2E2E2E2E2E2E2E2DCE2E2E2E2E2E2E2E2E2E2E2E2E2E2E2E2E2E2E2E2E2E2E2E2E2E2E2E2E2F5E2E2E2E2E2E2E2E2E2E2E2E2E2E2E2E2F5E2E2E2F5F5EFF5E2E2E2F5E2E2E2E2E2E2E2E2E2E2E2E2E2E2E2E2F5E2E2E2E2E2E2E2E2E2E2E2E2E2E2E2E2E2E2E2E2
310
E2E2E2E2E2E2E2E2E2DCE2E2E2E2E2E2E2E2E2E2E2E2E2E2E2E2E2E2E2E2E2E2E2E2E2E2E2E2E2E2E2E2E2E2E2E227BEE2E2E2E2E2E2E2E2E2E2E2E2E2E2E2E2E2E2E2E2E2E2E2E2E2E2E2E2E2E2E2E2E2E2E2E2DCE2E2E2E2E2E2E2E2E2E2E2E2E2E2E2E2E2E2E2E2E2E2E2E2E2E2E2E2E2F5E2E2E2E2E2E2E2E2E2E2E2E2
310
E2E2E2E2F5E2E2E2F5F5EFF5E2E2E2E2E2E2E2E2E2E2E2E2E2E2E2E2E2E2E2E2F5E2E2E2E2E2E2E2E2E2E2E2E2E2E2E2E2E2E2E2E2E2E2E2E2E2E2E2E2E2DCE2E2E2E2E2E2E2E2E2E2E2E2E2E2E2E2E2E2E2E2E2E2E2E2E2E2E2E2E2E2E2E2E2E2E2E227BEE2E2E2E2E2E2E2E2E2E2E2E2E2E2E2E2E2E2E2E2E2E2E2E2E2E2
310
E2E2E2E2E2E2E2E2E2E2DCE2E2E2E2E2E2E2E2E2E2E2E2E2E2E2E2E2E2E2E2E2E2E2E2E2E2E2E2E2F5E2E2E2E2E2E2E2E2E2E2E2E2E2E2E2E2E2E2E2E2F5F5EFF5E2E2E2E2E2E2E2E2E2E2E2E2E2E2E2E2E2E2E2E2F5E2E2E2E2E2E2E2E2E2E2E2E2E2E2E2E2E2E2E2E2E2E2E2E2E2E2E2E2E2DCE2E2E2E2E2E2E2E2E2E2E2
310
E2E2E2E2E2E2E2E2E2E2E2E2E2E2E2E2E2E2E2E2E2E2E2E2E227BEE2E2E2E2E2E2E2E2E2E2E2E2E2E2E2E2E2E2E2E2E2E2E2E2E2E2E2E2E2E2E2E2E2E2E2E2DCE2E2E2E2E2E2E2E2E2E2E2E2E2E2E2E2E2E2E2E2E2E2E2E2E2E2E2E2E2F5E2E2E2E2E2E2E2E2E2E2E2E2E2E2E2E2E2E2E2E2F5F5EFF5E2E2E2E2E2E2E2E2E2
310
E2E2E2E2E2E2E2E2E2E2E2F5E2E2E2E2E2E2E2E2E2E2E2E2E2E2E2E2E2E2E2E2E2E2E2E2E2E2E2E2E2DCE2E2E2E2E2E2E2E2E2E2E2E2E2E2E2E2E2E2E2E2E2E2E2E2E2E2E2E2E2E2E2E2E2E2E2E2E2BEE2E2E2E2E2E2E2E2E2E2E2E2E2E2E2E2E2E2E2E2E2E2E2E2E2E2E2E2E2E2E2E2E2E2E2E2DCE2E2E2E2E2E2E2E2E2E2
310
E2E2E2E2E2E2E2E2E2E2E2E2E2E2E2E2E2E2E2F5E2E2E2E2E2E2E2E2E2E2E2E2E2E2E2E2E2E2E2E2F5F5EFF5E2E2E2E2E2E2E2E2E2E2E2E2E2E2E2E2E2E2E2E2F5E2E2E2E2E2E2E2E2E2E2E2E2E2E2E2E2E2E2E2E2E2E2E2E2E2E2E2E2E2DCE2E2E2E2E2E2E2E2E2E2E2E2E2E2E2E2E2E2E2E2E2E2E2E2E2E2E2E2E2E2E2E2
310
E2E2E2E2E2BEE2E2E2E2E2E2E2E2E2E2E2E2E2E2E2E2E2E2E2E2E2E2E2E2E2E2E2E2E2E2E2E2E2E2E2E2DCE2E2E2E2E2E2E2E2E2E2E2E2E2E2E2E2E2E2E2E2E2E2E2E2E2E2E2E2E2F5E2E2E2E2E2E2E2E2E2E2E2E2E2E2E2E2E2E2E2E2F5F5EFF5E2E2E2E2E2E2E2E2E2E2E2E2E2E2E2E2E2E2E2E2F5E2E2E2E2E2E2E2E2E2
310
E2E2E2E2E2E2E2E2E2E2E2E2E2E2E2E2E2E2E2E2DCE2E2E2E2E2E2E2E2E2E2E2E2E2E2E2E2E2E2E2E2E2E2E2E2E2E2E2E2E2E2E2E2E2E2E2E2E2BEE2E2E2E2E2E2E2E2E2E2E2E2E2E2E2E2E2E2E2E2E2E2E2E2E2E2E2E2E2E2E2E2E2E2E2E2DCE2E2E2E2E2E2E2E2E2E2E2E2E2E2E2E2E2E2E2E2E2E2E2E2E2E2E2E2E2F5E2
310
E2E2E2E2E2E2E2E2E2E2E2E2E2E2E2E2E2E2E2F5F5EFF5E2E2E2E2E2E2E2E2E2E2E2E2E2E2E2E2E2E2E2E2F5E2E2E2E2E2E2E2E2E2E2E2E2E2E2E2E2E2E2E2E2E2E2E2E2E2E2E2E2E2DCE2E2E2E2E2E2E2E2E2E2E2E2E2E2E2E2E2E2E2E2E2E2E2E2E2E2E2E2E2E2E2E2E2E2E2E2E2BEE2E2E2E2E2E2E2E2E2E2E2E2E2E2E2
310
E2E2E2E2E2E2E2E2E2E2E2E2E2E2E2E2E2E2E2E2E2DCE2E2E2E2E2E2E2E2E2E2E2E2E2E2E2E2E2E2E2E2E2E2E2E2E2E2E2E2E2F5E2E2E2E2E2E2E2E2E2E2E2E2E2E2E2E2E2E2E2E2F5F5EFF5E2E2E2E2E2E2E2E2E2E2E2E2E2E2E2E2E2E2E2E2F5E2E2E2E2E2E2E2E2E2E2E2E2E2E2E2E2E2E2E2E2E2E2E2E2E2E2E2E2E2DC
310
E2E2E2E2E2E2E2E2E2E2E2E2E2E2E2E2E2E2E2E2E2E2E2E2E2E2E2E2E2E2E2E2E2E2E2E2E2BEE2E2E2E2E2E2E2E2E2E2E2E2E2E2E2E2E2E2E2E2E2E2E2E2E2E2E2E2E2E2E2E2E2E2E2E2DCE2E2E2E2E2E2E2E2E2E2E2E2E2E2E2E2E2E2E2E2E2E2E2E2E2E2E2E2E2F5E2E2E2E2E2E2E2E2E2E2E2E2E2E2E2E2E2E2E2E2F5F5
310
EFF5E2E2E2E2E2E2E2E2E2E2E2E2E2E2E2E2E2E2E2E2F5E2E2E2E2E2E2E2E2E2E2E2E2E2E2E2E2E2E2E2E2E2E2E2E2E2E2E2E2E2DCE2E2E2E2E2E2E2E2E2E2E2E2E2E2E2E2E2E2E2E2E2E2E2E2E2E2E2E2E2E2E2E2E2E2E2E2E2BEE2E2E2E2E2E2E2E2E2E2E2E2E2E2E2E2E2E2E2E2E2E2E2E2E2E2E2E2E2E2E2E2E2E2E2E2
310
DCE2E2E2E2E2E2E2E2E2E2E2E2E2E2E2E2E2E2E2E2E2E2E2E2E2E2E2E2E2F5E2E2E2E2E2E2E2E2E2E2E2E2E2E2E2E2E2E2E2E2F5F5EFF5E2E2E2E2E2E2E2E2E2E2E2E2E2E2E2E2E2E2E2E2F5E2E2E2E2E2E2E2E2E2E2E2E2E2E2E2E2E2E2E2E2E2E2E2E2E2E2E2E2E2DCE2E2E2E2E2E2E2E2E2E2E2E2E2E2E2E2E2E2E2E2E2
310
E2E2E2E2E2E2E2E2E2E2E2E2E2E2E2E2BEE2E2E2E2E2E2E2E2E2E2E2E2E2E2E2E2E2E2E2E2E2E2E2E2E2E2E2E2E2E2E2E2E2E2E2E2DCE2E2E2E2E2E2E2E2E2E2E2E2E2E2E2E2E2E2E2E2E2E2E2E2E2E2E2E2E2F5E2E2E2E2E2E2E2E2E2E2E2E2E2E2E2E2E2E2E2E2F5F5EFF5E2E2E2E2E2E2E2E2E2E2E2E2E2E2E2E2E2E2E2
310
E2F5E2E2E2E2E2E2E2E2E2E2E2E2E2E2E2E2E2E2E2E2E2E2E2E2E2E2E2E2E2DCE2E2E2E2E2E2E2E2E2E2E2E2E2E2E2E2E2E2E2E2E2C3C3C3C3C3C3E2E2E2E2E2E2E2E2E2E2BEE2E2E2E2E2E2E2E2E2E2E2C3C3C3C3C3C3E2E2E2E2E2E2E2E2E2E2E2E2E2E2E2E2E2E2E2DCE2E2E2E2E2E2E2E2E2E2E2E2E2E2E2E2E2E2E2E2
310
E2E2E2E2E2E2E2E2E2F5E2E2E2E2E2E2E2E2E2E2E2E2E2E2E2E2E2E2E2E2F5F5EFF5E2E2E2F5E2E2E2E2E2E2E2E2E2E2E2E2E2E2E2E2F5E2E2E2E2E2E2E2E2E2E2E2E2E2E2E2E2E2E2E2E2E2E2E2E2E2E2E2E2E2DCE2E2E2E2E2E2E2E2E2E2E2BEE2BEE2E2E2E2E2E2E2C3C3C3C3C3C3E2E2E2E2E2E2E2E2E2E2BEE2E2E2E2
310
E2E2E2E2E2E2E2C3C3C3C3C3C3E2E2E2E2E2E2E2E2BEE2BEE2E2E2E2E2E2E2E2DCE2E2E2E2E2E2E2E2E2E2E2E2E2E2E2E2E2E2E2E2E2E2E2E2E2E2E2E2E2F5E2E2E2E2E2E2E2E2E2E2E2E2E2E2E2E2F5E2E2E2F5F5EFF5E2E2E2F5E2E2E2E2E2E2E2E2E2E2E2E2E2E2E2E2F5E2E2E2E2E2E2E2E2E2E2E2E2E2E2E2E2E2E2E2
310
E2E2E2E2E2E2E2E2E2E2DCE2E2E2E2E2E2E2E2E2E2E2BEBEBEE2E2E2E2E2E2E2F5BEF5F5F5BEE2E2E2E2E2E2E2E2E2E2BEE2E2E2E2E2E2E2E2E2E2E2F5F5F5F5F5F5E2E2E2E2E2E2E227BEBEBEE2E2E2E2E2E2E2E2DCE2E2E2E2E2E2E2E2E2E2E2E2E2E2E2E2E2E2E2E2E2E2E2E2E2E2E2E2E2F5E2E2E2E2E2E2E2E2E2E2E2
310
E2E2E2E2E2F5E2E2E2F5F5EFF5E2E2E2F5E2E2E2E2E2E2E2E2E2E2E2E2E2E2E2E2F5E2E2E2E2E2E2E2E2E2E2E2E2E2E2E2E2E2E2E2E2E2E2E2E2E2E2E2E2E2DCE2E2E2E2E2E2E2E2E2E2E2BE2727E2E2E2E2E2E2E2F5E2E2E2F5F5E2E2E2E2E2E2E2E2E2E2BEE2E2E2E2E2E2E2E2E2E2E2F5E2E2E2F5F5E2E2E2E2E2E2E227
310
27E2BEE2E2E2E2E2E2E2E2DCE2E2E2E2E2E2E2E2E2E2E2E2E2E2E2E2E2E2E2E2E2E2E2E2E2E2E2E2E2F5E2E2E2E2E2E2E2E2E2E2E2E2E2E2E2E2F5E2E2E2F5F5EFF5E2E2E2F5E2E2E2E2E2E2E2E2E2E2E2E2E2E2E2E2F5E2E2E2E2E2E2E2E2E2E2E2E2E2E2E2E2E2E2E2E2E2E2E2E2E2E2E2E2E2DCE2E2E2E2E2E2E2E2E2E2
310
E2BE2727E2E2E2E2E2C3C3F5E2E2E2F5F5E2E2E2E2E2E2E2E2E2E2BEE2E2E2E2E2E2E2E2E2E2E2F5E2E2E2F5F5C3E2E2E2E2E2E22727E2BEE2E2E2E2E2E2E2E2DCE2E2E2E2E2E2E2E2E2E2E2E2E2E2E2E2E2E2E2E2E2E2E2E2E2E2E2E2E2F5E2E2E2E2E2E2E2E2E2E2E2E2E2E2E2E2F5E2E2E2F5F5EFF5E2E2E2F5E2E2E2E2
310
E2E2E2E2E2E2E2E2E2E2E2E2F5E2E2E2E2E2E2E2E2E2E2E2E2E2E2E2E2E2E2E2E2E2E2E2E2E2E2E2E2E2DCE2E2E2E2E2E2E2E2E2E2E2BE27BEC3C3C3F5BEF5F5F5E2E2E2F5F5E2E2E2E2E2E2E2E2E2E2BEE2E2E2E2E2E2E2E2E2E2E2F5E2E2E2F5F5F5F5F5F5C3C3E227BEE2BEE2E2E2E2E2E2E2E2DCE2E2E2E2E2E2E2E2E2
310
E2E2E2E2E2E2E2E2E2E2E2E2E2E2E2E2E2E2E2E2F5E2E2E2E2E2E2E2E2E2E2E2E2E2E2E2E2F5E2E2E2F5F5EFF5E2E2E2F5E2E2E2E2E2E2E2E2E2E2E2E2E2E2E2E2F5E2E2E2E2E2E2E2E2E2E2E2E2E2E2E2E2E2E2E2E2E2E2E2E2E2E2E2E2E2DCE2E2E2E2E2E2E2E2E2E227272727C3E2E2F5E2E2E2E2E2E2F5F5BEE2E2E2E2
310
E2E2E2E2E2E2BEE2E2E2E2E2E2E2E2E2E2E2F5F5F5E2E2E2E2E2E2F5E2C3E2272727BEE2E2E2E2E2E2E2E2DCE2E2E2E2E2E2E2E2E2E2E2E2E2E2E2E2E2E2E2E2E2E2E2E2E2E2E2E2E2F5E2E2E2E2E2E2E2E2E2E2E2E2E2E2E2E2F5E2E2E2F5F5EFF5E2E2E2F5E2E2E2E2E2E2E2E2E2E2E2E2E2E2E2E2F5E2E2E2E2E2E2E2E2
310
E2E2E2E2E2E2E2E2E2E2E2E2E2E2E2E2E2E2E2E2E2DCE2E2E2E2E2E2E2E2E2E227272727C3F5F5BEE2E2E2E2E2E2F5E2E2E2E2E2E2E2E2E2E2E2E2BEE2E2E2E2E2E2E2E2E2E2E2E2E2F5E2E2E2E2E2E2F5F5C3E2272727BEE2E2E2E2E2E2E2E2DCE2E2E2E2E2E2E2E2E2E2E2E2E2E2E2E2E2E2E2E2E2E2E2E2E2E2E2E2E2F5
310
E2E2E2E2E2E2E2E2E2E2E2E2E2E2E2E2F5E2E2E2F5F5EFF5E2E2E2F5E2E2E2E2E2E2E2E2E2E2E2E2E2E2E2E2F5E2E2E2E2E2E2E2E2E2E2E2E2E2E2E2E2E2E2E2E2E2E2E2E2E2E2E2E2E2DCE2E2E2E2E2E2E2E2E2E22727E2BEE2C3F5E2E2E2E2E2E2E2F5E2E2E2E2E2E2E2E2E2E2E2E2BEE2E2E2E2E2E2E2E2E2E2E2E2E2F5
310
E2E2E2E2E2E2E2C3C3E2E2BE27BEE2E2E2E2E2E2E2E2DCE2E2E2E2E2E2E2E2E2E2E2E2E2E2E2E2E2E2E2E2E2E2E2E2E2E2E2E2E2F5E2E2E2E2E2E2E2E2E2E2E2E2E2E2E2E2F5E2E2E2F5F5EFF5E2E2E2F5E2E2E2E2E2E2E2E2E2E2E2E2E2E2E2E2F5E2E2E2E2E2E2E2E2E2E2E2E2E2E2E2E2E2E2E2E2E2E2E2E2E2E2E2E2E2
310
DCE2E2E2E2E2E2E2E2E2E2E2272727E2F5F5E2E2E2E2E2E2E2F5E2E2E2E2E2E2E2E2E2E2E2E2BEE2E2E2E2E2E2E2E2E2E2E2E2E2F5E2E2E2E2E2E2E2F5E2E2272727BEE2E2E2E2E2E2E2E2DCE2E2E2E2E2E2E2E2E2E2E2E2E2E2E2E2E2E2E2E2E2E2E2E2E2E2E2E2E2F5E2E2E2E2E2E2E2E2E2E2E2E2E2E2E2E2F5E2E2E2F5
310
F5EFF5E2E2E2F5E2E2E2E2E2E2E2E2E2E2E2E2E2E2E2E2F5E2E2E2E2E2E2E2E2E2E2E2E2E2E2E2E2E2E2E2E2E2E2E2E2E2E2E2E2E2DCE2E2E2E2E2E2E2E2E2E2E2BE2727E2F5F5E2E2E2E2E2E2E2F5E2E2E2E2E2E2E2E2E2E2E2E2BEE2E2E2E2E2E2E2E2E2E2E2E2E2F5E2E2E2E2E2E2E2F5E2E22727E2BEE2E2E2E2E2E2E2
310
E2DCE2E2E2E2E2E2E2E2E2E2E2E2E2E2E2E2E2E2E2E2E2E2E2E2E2E2E2E2E2F5E2E2E2E2E2E2E2E2E2E2E2E2E2E2E2E2F5E2E2E2F5F5EFF5E2E2E2F5E2E2E2E2E2E2E2E2E2E2E2E2E2E2E2E2F5E2E2E2E2E2E2E2E2E2E2E2E2E2E2E2E2E2E2E2E2E2E2E2E2E2E2E2E2E2DCE2E2E2E2E2E2E2E2E2E2E2BE2727E2F5F5E2E2E2
310
E2E2E2E2F5E2E2E2E2E2E2E2E2E2E2E2E2BEE2E2E2E2E2E2E2E2E2E2E2E2E2F5E2E2E2E2E2E2E2F5E2E22727E2BEE2E2E2E2E2E2E2E2DCE2E2E2E2E2E2E2E2E2E2E2E2E2E2E2E2E2E2E2E2E2E2E2E2E2E2E2E2E2F5E2E2E2E2E2E2E2E2E2E2E2E2E2E2E2E2F5E2E2E2F5F5EFF5E2E2E2F5E2E2E2E2E2E2E2E2E2E2E2E2E2E2
310
E2E2F5E2E2E2E2E2E2E2E2E2E2E2E2E2E2E2E2E2E2E2E2E2E2E2E2E2E2E2E2E2DCE2E2E2E2E2E2E2E2E2E2E2BEE2BEE2F5F5E2E2F5F5F5F5F5BEE2E2E2E2E2E2E2E2E2E2E2E2BEE2E2E2E2E2E2E2E2E2E2E2E2E2F5F5F5F5F5F5E2E2F5E2E2E2BEE2BEE2E2E2E2E2E2E2E2DCE2E2E2E2E2E2E2E2E2E2E2E2E2E2E2E2E2E2E2
310
E2E2E2E2E2E2E2E2E2E2F5E2E2E2E2E2E2E2E2E2E2E2E2E2E2E2E2F5E2E2E2F5F5EFF5E2E2E2F5E2E2E2E2E2E2E2E2E2E2E2E2E2E2E2E2F5E2E2E2E2E2E2E2E2E2E2E2E2E2E2E2E2E2E2E2E2E2E2E2E2E2E2E2E2E2DCE2E2E2E2E2E2E2E2E2E2E2BEBEBEE2BEF5BEF5BEE2E2E2E2C3E2E2E2E2E2E2E2E2E2E2E2E2BEE2E2E2
310
E2E2E2E2E2E2E2E2E2E2C3E2E2E2F5F5F5F5F5BEE2E2BEBEBEE2E2E2E2E2E2E2E2DCE2E2E2E2E2E2E2E2E2E2E2E2E2E2E2E2E2E2E2E2E2E2E2E2E2E2E2E2E2F5E2E2E2E2E2E2E2E2E2E2E2E2E2E2E2E2F5E2E2E2F5F5EFF5E2E2E2F5E2E2E2E2E2E2E2E2E2E2E2E2E2E2E2E2F5E2E2E2E2E2E2E2E2E2E2E2E2E2E2E2E2E2E2
310
E2E2E2E2E2E2E2E2E2E2E2DCE2E2E2E2E2E2E2E2E2E2E2E2E2E2E2E2C3C3E2E2E2E2E2E2C3E2E2E2E2E2E2E2E2E2E2E2E2BEE2E2E2E2E2E2E2E2E2E2E2E2E2C3E2E2E2E2E2E2C3C3E2E2E2E2E2E2E2E2E2E2E2E2E2E2DCE2E2E2E2E2E2E2E2E2E2E2E2E2E2E2E2E2E2E2E2E2E2E2E2E2E2E2E2E2F5E2E2E2E2E2E2E2E2E2E2
310
E2E2E2E2E2E2F5E2E2E2F5F5EFF5E2E2E2F5E2E2E2E2E2E2E2E2E2E2E2E2E2E2E2E2F5E2E2E2E2E2E2E2E2E2E2E2E2E2E2E2E2E2E2E2E2E2E2E2E2E2E2E2E2E2DCE2E2E2E2E2E2E2E2E2E2E2E2E2E2E2E2C3C3C3C3C3C3C3C3C3E2E2E2E2E2E2E2E2E2E2E2E2BEE2E2E2E2E2E2E2E2E2E2E2E2E2C3C3C3C3C3C3C3C3C3E2E2
310
E2E2E2E2E2E2E2E2E2E2E2E2DCE2E2E2E2E2E2E2E2E2E2E2E2E2E2E2E2E2E2E2E2E2E2E2E2E2E2E2E2E2F5E2E2E2E2E2E2E2E2E2E2E2E2E2E2E2E2F5E2E2E2F5F5EFF5E2E2E2F5E2E2E2E2E2E2E2E2E2E2E2E2E2E2E2E2F5E2E2E2E2E2E2E2E2E2E2E2E2E2E2E2E2E2E2E2E2E2E2E2E2E2E2E2E2E2DCE2E2E2E2E2E2E2E2E2
310
E2E2E2E2E2E2E2E2E2E2E2E2E2E2E2E2E2E2E2E2E2E2E2E2E2E2E2E2BEE2E2E2E2E2E2E2E2E2E2E2E2E2E2E2E2E2E2E2E2E2E2E2E2E2E2E2E2E2E2E2E2E2E2E2E2DCE2E2E2E2E2E2E2E2E2E2E2E2E2E2E2E2E2E2E2E2E2E2E2E2E2E2E2E2E2F5E2E2E2E2E2E2E2E2E2E2E2E2E2E2E2E2F5E2E2E2F5F5EFF5E2E2E2E2E2E2E2
310
E2E2E2E2E2E2E2E2E2E2E2E2E2F5E2E2E2E2E2E2E2E2E2E2E2E2E2E2E2E2E2E2E2E2E2E2E2E2E2E2E2E2E2DCE2E2E2E2E2E2E2E2E2E2E2E2E2E2E2BE272727BEBE2727272727BEE2E2E2E2E2E2E2E2E2E2BEE2E2E2E2E2E2E2E2E2E2BEBE2727272727BEBE2727BEE2E2E2E2E2E2E2E2E2E2E2E2E2E2DCE2E2E2E2E2E2E2E2
310
E2E2E2E2E2E2E2E2E2E2E2E2E2E2E2E2E2E2E2E2E2F5E2E2E2E2E2E2E2E2E2E2E2E2E2E2E2E2E2E2E2E2F5F5EFF5E2E2E2E2E2E2E2E2E2E2E2E2E2E2E2E2E2E2E2E2F5E2E2E2E2E2E2E2E2E2E2E2E2E2E2E2E2E2E2E2E2E2E2E2E2E2E2E2E2E2DCE2E2E2E2E2E2E2E2E2E2E2E2E2E2E2BEBEBEBEBEBEBEBEBEBEBEBEE2E2E2
310
E2E2E2E2E2E2E2BEE2E2E2E2E2E2E2E2E2E2E2BEBEBEBEBEBEBEBEBEBEBEE2E2E2E2E2E2E2E2E2E2E2E2E2E2DCE2E2E2E2E2E2E2E2E2E2E2E2E2E2E2E2E2E2E2E2E2E2E2E2E2E2E2E2E2F5E2E2E2E2E2E2E2E2E2E2E2E2E2E2E2E2E2E2E2E2F5F5EFF5E2E2E2E2E2E2E2E2E2E2E2E2E2E2E2E2E2E2E2E2F5E2E2E2E2E2E2E2
310
E2E2E2E2E2E2E2E2E2E2E2E2E2E2E2E2E2E2E2E2E2E2DCE2E2E2E2E2E2E2E2E2E2E2E2E2E2E2BEBEE2E227272727E2E2E2BEE2E2E2E2E2E2E2E2E2E2BEE2E2E2E2E2E2E2E2E2E2E2BEE2E2E2272727E2E2E2BEE2E2E2E2E2E2E2E2E2E2E2E2E2E2DCE2E2E2E2E2E2E2E2E2E2E2E2E2E2E2E2E2E2E2E2E2E2E2E2E2E2E2E2E2
310
F5E2E2E2E2E2E2E2E2E2E2E2E2E2E2E2E2E2E2E2E2F5F5EFF5E2E2E2E2E2E2E2E2E2E2E2E2E2E2E2E2E2E2E2E2F5E2E2E2E2E2E2E2E2E2E2E2E2E2E2E2E2E2E2E2E2E2E2E2E2E2E2E2E2E2DCE2E2E2E2E2E2E2E2E2E2E2E2E2E2E2E2E2E2E2E2E2E2E2E2E2E2E2E2E2E2E2E2E2E2E2E2E2BEE2E2E2E2E2E2E2E2E2E2E2E2E2
310
E2E2E2E2E2E2E2E2E2E2E2E2E2E2E2E2E2E2E2E2E2E2E2DCE2E2E2E2E2E2E2E2E2E2E2E2E2E2E2E2E2E2E2E2E2E2E2E2E2E2E2E2E2F5E2E2E2E2E2E2E2E2E2E2E2E2E2E2E2E2E2E2E2E2F5F5EFF5E2E2E2E2E2E2E2E2E2E2E2E2E2E2E2E2E2E2E2E2F5E2E2E2E2E2E2E2E2E2E2E2E2E2E2E2E2E2E2E2E2E2E2E2E2E2E2E2E2
310
E2DCE2E2E2E2E2E2E2E2E2E2E2E2E2E2E2E2E2E2E2E2E2E2E2E2E2E2E2E2E2E2E2E2E2E2E2E2E2BEE2E2E2E2E2E2E2E2E2E2E2E2E2E2E2E2E2E2E2E2E2E2E2E2E2E2E2E2E2E2E2E2E2E2E2E2DCE2E2E2E2E2E2E2E2E2E2E2E2E2E2E2E2E2E2E2E2E2E2E2E2E2E2E2E2E2F5E2E2E2E2E2E2E2E2E2E2E2E2E2E2E2E2E2E2E2E2
310
F5F5EFF5E2E2E2E2E2E2E2E2E2E2E2E2E2E2E2E2E2E2E2E2F5E2E2E2E2E2E2E2E2E2E2E2E2E2E2E2E2E2E2E2E2E2E2E2E2E2E2E2E2E2DCE2E2E2E2E2E2E2E2E2E2E2E2E2E2E2E2E2E2E2E2E2E2E2E2E2E2E2E2E2E2E2E2E2E2E2E2E2BEE2E2E2E2E2E2E2E2E2E2E2E2E2E2E2E2E2E2E2E2E2E2E2E2E2E2E2E2E2E2E2E2E2E2
310
E2E2DCE2E2E2E2E2E2E2E2E2E2E2E2E2E2E2E2E2E2E2E2E2E2E2E2E2E2E2E2E2F5E2E2E2E2E2E2E2E2E2E2E2E2E2E2E2E2E2E2E2E2F5F5EFF5E2E2E2E2E2E2E2E2E2E2E2E2E2E2E2E2E2E2E2E2F5E2E2E2E2E2E2E2E2E2E2E2E2E2E2E2E2E2E2E2E2E2E2E2E2E2E2E2E2E2DCE2E2E2E2E2E2E2E2E2E2E2E2E2E2E2E2E2E2E2
310
E2E2E2E2E2E2E2E2E2E2E2E2E2E2E2E2E2E2BEE2E2E2E2E2E2E2E2E2E2E2E2E2E2E2E2E2E2E2E2E2E2E2E2E2E2E2E2E2E2E2E2E2E2E2E2DCE2E2E2E2E2E2E2E2E2E2E2E2E2E2E2E2E2E2E2E2E2E2E2E2E2E2E2E2E2F5E2E2E2E2E2E2E2E2E2E2E2E2E2E2E2E2E2E2E2E2F5F5EFF5E2E2E2E2E2E2E2E2E2E2E2E2E2E2E2E2E2
310
E2E2E2F5E2E2E2E2E2E2E2E2E2E2E2E2E2E2E2E2E2E2E2E2E2E2E2E2E2E2E2E2E2DCE2E2E2E2E2E2E2E2E2E2E2E2E2E2E2E2E2E2E2E2E2E2E2E2E2E2E2E2E2E2E2E2E2E2E2E2E2E2E2E2E2E2E2E2E2E2E2E2E2E2E2E2E2E2E2E2E2E2E2E2E2E2E2E2E2E2E2E2E2E2E2E2E2E2DCE2E2E2E2E2E2E2E2E2E2E2E2E2E2E2E2E2E2
310
E2E2E2E2E2E2E2E2E2E2E2F5E2E2E2E2E2E2E2E2E2E2E2E2E2E2E2E2E2E2E2E2F5F5EFF5E2E2E2E2E2E2E2E2E2E2E2E2E2E2E2E2E2E2E2E2F5E2E2E2E2E2E2E2E2E2E2E2E2E2E2E2E2E2E2E2E2E2E2E2E2E2E2E2E2E2DCE2E2E2E2E2E2E2E2E2E2E2E2E2E2E2E2E2E2E2E2E2E2E2E2E2E2E2E2E2E2E2E2E2E2E2E2E2E2E2E2
310
E2E2E2E2E2E2E2E2E2E2E2E2E2E2E2E2E2E2E2E2E2E2E2E2E2E2E2E2E2E2E2E2E2E2DCE2E2E2E2E2E2E2E2E2E2E2E2E2E2E2E2E2E2E2E2E2E2E2E2E2E2E2E2E2F5E2E2E2E2E2E2E2E2E2E2E2E2E2E2E2E2E2E2E2E2F5F5EFF5E2E2E2F5E2E2E2E2E2E2E2E2E2E2E2E2E2E2E2E2F5E2E2E2E2E2E2E2E2E2E2E2E2E2E2E2E2E2
310
E2E2E2E2E2E2E2E2E2E2E2E2DCE2E2E2E2E2E2E2E2E2E2E2E2E2E2E2E2E2E2E2E2E2E2E2E2E2E2E2E2E2E2E2E2E2E2E2E2E2E2E2E2E2E2E2E2E2E2E2E2E2E2E2E2E2E2E2E2E2E2E2E2E2E2E2E2E2E2E2E2E2E2E2E2E2E2DCE2E2E2E2E2E2E2E2E2E2E2E2E2E2E2E2E2E2E2E2E2E2E2E2E2E2E2E2E2F5E2E2E2E2E2E2E2E2E2
310
E2E2E2E2E2E2E2F5E2E2E2F5F5EFF5E2E2E2F5E2E2E2E2E2E2E2E2E2E2E2E2E2E2E2E2F5E2E2E2E2E2E2E2E2E2E2E2E2E2E2E2E2E2E2E2E2E2E2E2E2E2E2E2E2E2DCE2E2E2E2E2E2E2E2E2E2E2E2E2E2E2E2E2E2E2E2E2E2E2E2E2E2E2E2E2E2E2E2E2E2E2E2E2E2E2E2E2E2E2E2E2E2E2E2E2E2E2E2E2E2E2E2E2E2E2E2E2
310
E2E2E2E2E2E2E2E2E2E2E2E2E2DCE2E2E2E2E2E2E2E2E2E2E2E2E2E2E2E2E2E2E2E2E2E2E2E2E2E2E2E2E2F5E2E2E2E2E2E2E2E2E2E2E2E2E2E2E2E2F5E2E2E2F5F5EFF5E2E2E2F5E2E2E2E2E2E2E2E2E2E2E2E2E2E2E2E2F5E2E2E2E2E2E2E2E2E2E2E2E2E2E2E2E2E2E2E2E2E2E2E2E2E2E2E2E2E2DCE2E2E2E2E2E2E2E2
310
E2E2E2E2E2E2E2E2E2E2E2E2E2E2E2E2E2E2E2E2E2E2E2E2E2E2E2E2E2E2E2E2E2E2E2E2E2E2E2E2E2E2E2E2E2E2E2E2E2E2E2E2E2E2E2E2E2E2E2E2E2E2E2E2E2E2DCE2E2E2E2E2E2E2E2E2E2E2E2E2E2E2E2E2E2E2E2E2E2E2E2E2E2E2E2E2F5E2E2E2E2E2E2E2E2E2E2E2E2E2E2E2E2F5E2E2E2F5F5EFF5E2E2E2F5E2E2
310
E2E2E2E2E2E2E2E2E2E2E2E2E2E2F5E2E2E2E2E2E2E2E2E2E2E2E2E2E2E2E2E2E2E2E2E2E2E2E2E2E2E2E2E2DCE2E2E2E2E2E2E2E2E2E2E2E2E2E2E2E2E2E2E2E2E2E2E2E2E2E2E2E2E2E2E2E2E2E2E2E2E2E2E2E2E2E2E2E2E2E2E2E2E2E2E2E2E2E2E2E2E2E2E2E2E2E2E2E2E2E2E2E2E2E2E2E2E2E2DCE2E2E2E2E2E2E2
310
E2E2E2E2E2E2E2E2E2E2E2E2E2E2E2E2E2E2E2E2E2E2F5E2E2E2E2E2E2E2E2E2E2E2E2E2E2E2E2F5E2E2E2F5F5EFF5E2E2E2F5E2E2E2E2E2E2E2E2E2E2E2E2E2E2E2E2F5E2E2E2E2E2E2E2E2E2E2E2E2E2E2E2E2E2E2E2E2E2E2E2E2E2E2E2E2E2DCE2E2E2E2E2E2E2E2E2E2E2E2E2E2E2E2E2E2E2E2E2E2E2E2E2E2E2E2E2
310
E2E2E2E2E2E2E2E2E2E2E2E2E2E2E2E2E2E2E2E2E2E2E2E2E2E2E2E2E2E2E2E2E2E2E2E2E2E2E2E2E2E2E2E2E2DCE2E2E2E2E2E2E2E2E2E2E2E2E2E2E2E2E2E2E2E2E2E2E2E2E2E2E2E2E2F5E2E2E2E2E2E2E2E2E2E2E2E2E2E2E2E2F5E2E2E2F5F5EFF5E2E2E2F5E2E2E2E2E2E2E2E2E2E2E2E2E2E2E2E2F5E2E2E2E2E2E2
310
E2E2E2E2E2E2E2E2E2E2E2E2E2E2E2E2E2E2E2E2E2E2E2DCE2E2E2E2E2E2E2E2E2E2E2E2E2E2E2E2E2E2E2E2E2E2E2E2E2E2E2E2E2E2E2E2E2E2E2E2E2E2E2E2E2E2E2E2E2E2E2E2E2E2E2E2E2E2E2E2E2E2E2E2E2E2E2E2E2E2E2E2E2E2E2E2E2E2DCE2E2E2E2E2E2E2E2E2E2E2E2E2E2E2E2E2E2E2E2E2E2E2E2E2E2E2E2
310
E2F5E2E2E2E2E2E2E2E2E2E2E2E2E2E2E2E2F5E2E2E2F5F5EFF5E2E2E2F5E2E2E2E2E2E2E2E2E2E2E2E2E2E2E2E2F5E2E2E2E2E2E2E2E2E2E2E2E2E2E2E2E2E2E2E2E2E2E2E2E2E2E2E2E2E2DCE2E2E2E2E2E2E2E2E2E2E2E2E2E2E2E2E2E2E2E2E2E2E2E2E2E2E2E2E2E2E2E2E2E2E2E2E2E2E2E2E2E2E2E2E2E2E2E2E2E2
310
E2E2E2E2E2E2E2E2E2E2E2E2E2E2E2E2E2E2E2E2E2E2E2E2DCE2E2E2E2E2E2E2E2E2E2E2E2E2E2E2E2E2E2E2E2E2E2E2E2E2E2E2E2E2F5E2E2E2E2E2E2E2E2E2E2E2E2E2E2E2E2F5E2E2E2F5F5EFF5E2E2E2F5E2E2E2E2E2E2E2E2E2E2E2E2E2E2E2E2F5E2E2E2E2E2E2E2E2E2E2E2E2E2E2E2E2E2E2E2E2E2E2E2E2E2E2E2
310
E2E2DCE2E2E2E2E2E2E2E2E2E2E2E2E2E2E2E2E2E2E2E2E2E2E2E2E2E2E2E2E2E2E2E2E2E2E2E2E2E2E2E2E2E2E2E2E2E2E2E2E2E2E2E2E2E2E2E2E2E2E2E2E2E2E2E2E2E2E2E2E2E2E2E2E2E2DCE2E2E2E2E2E2E2E2E2E2E2E2E2E2E2E2E2E2E2E2E2E2E2E2E2E2E2E2E2F5E2E2E2E2E2E2E2E2E2E2E2E2E2E2E2E2F5E2E2
310
E2F5F5EFF5E2E2E2F5E2E2E2E2E2E2E2E2E2E2E2E2E2E2E2E2F5E2E2E2E2E2E2E2E2E2E2E2E2E2E2E2E2E2E2E2E2E2E2E2E2E2E2E2E2E2DCE2E2E2E2E2E2E2E2E2E2E2E2E2E2E2E2E2E2E2E2E2E2E2E2E2E2E2E2E2E2E2E2E2E2E2E2E2E2E2E2E2E2E2E2E2E2E2E2E2E2E2E2E2E2E2E2E2E2E2E2E2E2E2E2E2E2E2E2E2E2E2
310
E2E2E2DCE2E2E2E2E2E2E2E2E2E2E2E2E2E2E2E2E2E2E2E2E2E2E2E2E2E2E2E2E2F5E2E2E2E2E2E2E2E2E2E2E2E2E2E2E2E2F5E2E2E2F5F5EFF5E2E2E2F5E2E2E2E2E2E2E2E2E2E2E2E2E2E2E2E2F5E2E2E2E2E2E2E2E2E2E2E2E2E2E2E2E2E2E2E2E2E2E2E2E2E2E2E2E2E2DCE2E2E2E2E2E2E2E2E2E2E2E2E2E2E2E2E2E2
310
E2E2E2E2E2E2E2E2E2E2E2E2E2E2E2E2E2E2E2E2E2E2E2E2E2E2E2E2E2E2E2E2E2E2E2E2E2E2E2E2E2E2E2E2E2E2E2E2E2E2E2E2E2E2E2E2DCE2E2E2E2E2E2E2E2E2E2E2E2E2E2E2E2E2E2E2E2E2E2E2E2E2E2E2E2E2F5E2E2E2E2E2E2E2E2E2E2E2E2E2E2E2E2F5E2E2E2F5F5EFF5E2E2E2F5E2E2E2E2E2E2E2E2E2E2E2E2
310
E2E2E2E2F5E2E2E2E2E2E2E2E2E2E2E2E2E2E2E2E2E2E2E2E2E2E2E2E2E2E2E2E2E2DCE2E2E2E2E2E2E2E2E2E2E2E2E2E2E2E2E2E2E2E2E2E2E2E2E2E2E2E2E2E2E2E2E2E2E2E2E2E2E2E2E2E2E2E2E2E2E2E2E2E2E2E2E2E2E2E2E2E2E2E2E2E2E2E2E2E2E2E2E2E2E2E2E2E2DCE2E2E2E2E2E2E2E2E2E2E2E2E2E2E2E2E2
310
E2E2E2E2E2E2E2E2E2E2E2E2F5E2E2E2E2E2E2E2E2E2E2E2E2E2E2E2E2F5E2E2E2F5F5EFF5E2E2E2F5E2E2E2E2E2E2E2E2E2E2E2E2E2E2E2E2F5E2E2E2E2E2E2E2E2E2E2E2E2E2E2E2E2E2E2E2E2E2E2E2E2E2E2E2E2E2DCE2E2E2E2E2E2E2E2E2E2E2E2E2E2E2E2E2E2E2E2E2E2E2E2E2E2E2E2E2E2E2E2E2E2E2E2E2E2E2
310
E2E2E2E2E2E2E2E2E2E2E2E2E2E2E2E2E2E2E2E2E2E2E2E2E2E2E2E2E2E2E2E2E2E2E2DCE2E2E2E2E2E2E2E2E2E2E2E2E2E2E2E2E2E2E2E2E2E2E2E2E2E2E2E2E2F5E2E2E2E2E2E2E2E2E2E2E2E2E2E2E2E2F5E2E2E2F5F5EFF5E2E2E2F5E2E2E2E2E2E2E2E2E2E2E2E2E2E2E2E2F5E2E2E2E2E2E2E2E2E2E2E2E2E2E2E2E2
310
E2E2E2E2E2E2E2E2E2E2E2E2E2DCE2E2E2E2E2E2E2E2E2E2E2E2E2E2E2E2E2E2E2E2E2E2E2E2E2E2E2E2E2E2E2E2E2E2E2E2E2E2E2E2E2E2E2E2E2E2E2E2E2E2E2E2E2E2E2E2E2E2E2E2E2E2E2E2E2E2E2E2E2E2E2E2E2E2DCE2E2E2E2E2E2E2E2E2E2E2E2E2E2E2E2E2E2E2E2E2E2E2E2E2E2E2E2E2F5E2E2E2E2E2E2E2E2
310
E2E2E2E2E2E2E2E2F5E2E2E2F5F5EFF5E2E2E2F5E2E2E2E2E2E2E2E2E2E2E2E2E2E2E2E2F5E2E2E2E2E2E2E2E2E2E2E2E2E2E2E2E2E2E2E2E2E2E2E2E2E2E2E2E2E2DCE2E2E2E2E2E2E2E2E2E2E2E2E2E2E2E2E2E2E2E2E2E2E2E2E2E2E2E2E2E2E2E2E2E2E2E2E2E2E2E2E2E2E2E2E2E2E2E2E2E2E2E2E2E2E2E2E2E2E2E2
310
E2E2E2E2E2E2E2E2E2E2E2E2E2E2DCE2E2E2E2E2E2E2E2E2E2E2E2E2E2E2E2E2E2E2E2E2E2E2E2E2E2E2E2E2F5E2E2E2E2E2E2E2E2E2E2E2E2E2E2E2E2F5E2E2E2F5F5EFF5E2E2E2F5E2E2E2E2E2E2E2E2E2E2E2E2E2E2E2E2F5E2E2E2E2E2E2E2E2E2E2E2E2E2E2E2E2E2E2E2E2E2E2E2E2E2E2E2E2E2DCE2E2E2E2E2E2E2
310
E2E2E2E22727272727272727272727272727272727272727272727272727272727272727272727272727272727272727272727E2E2E2E2E2E2E2E2E2E2E2E2E2E2E2E2DCE2E2E2E2E2E2E2E2E2E2E2E2E2E2E2E2E2E2E2E2E2E2E2E2E2E2E2E2E2F5E2E2E2E2E2E2E2E2E2E2E2E2E2E2E2E2F5E2E2E2F5F5EFF5E2E2E2F5E2
310
E2E2E2E2E2E2E2E2E2E2E2E2E2E2E2F5E2E2E2E2E2E2E2E2E2E2E2E2E2E2E2E2E2E2E2E2E2E2E2E2E2E2E2E2E2DCE2E2E2E2E2E2E2E2E2E2E2E2E2E2E2E2E2E2E2E2E2E2E2E2E2E2E2E2E2E2E2E2E2E2E2E2E2E2E2E2E2E2E2E2E2E2E2E2E2E2E2E2E2E2E2E2E2E2E2E2E2E2E2E2E2E2E2E2E2E2E2E2E2E2DCE2E2E2E2E2E2
310
E2E2E2E2E2E2E2E2E2E2E2E2E2E2E2E2E2E2E2E2E2E2E2F5E2E2E2E2E2E2E2E2E2E2E2E2E2E2E2E2F5E2E2E2F5F5EFF5E2E2E2F5E2E2E2E2E2E2E2E2E2E2E2E2E2E2E2E2F5E2E2E2E2E2E2E2E2E2E2E2E2E2E2E2E2E2E2E2E2E2E2E2E2E2E2E2E2E2DCE2E2E2E2E2E2E2E2E2E2272727272727272727272727272727E2E2E2
310
E2E2E2E2E2E2E2E2E2E2E2E2E2E2E2E2E2E2E2E2E2E2E2E2E2E2E2E2E2E2E2E2E2E2E2E2E2E2E2E2E2E2E2E2E2E2DCE2E2E2E2E2E2E2E2E2E2E2E2E2E2E2E2E2E2E2E2E2E2E2E2E2E2E2E2E2F5E2E2E2E2E2E2E2E2E2E2E2E2E2E2E2E2F5E2E2E2F5F5EFF5E2E2E2E2E2E2E2E2E2E2E2E2E2E2E2E2E2E2E2E2F5E2E2E2E2E2
310
E2E2E2E2E2E2E2E2E2E2E2E2E2E2E2E2E2E2E2E2E2E2E2E2DCE2E2E2E2E2E2E2E2E2E2272727272727272727272727272727E2E2E2E2E2E2E2E2E2E2E2E2E2E2E2E2E2E2E2E2E2E2E2E2E2E2E2E2E2E2E2E2E2E2E2E2E2E2E2E2E2E2E2E2E2E2E2E2E2DCE2E2E2E2E2E2E2E2E2E2E2E2E2E2E2E2E2E2E2E2E2E2E2E2E2E2E2
310
E2E2F5E2E2E2E2E2E2E2E2E2E2E2E2E2E2E2E2E2E2E2E2F5F5EFF5E2E2E2E2E2E2E2E2E2E2E2E2E2E2E2E2E2E2E2E2F5E2E2E2E2E2E2E2E2E2E2E2E2E2E2E2E2E2E2E2E2E2E2E2E2E2E2E2E2E2DCE2E2E2E2E2E2E2E2E2E2E2E2E2E2E2E2E2E2E2E2E2E2E2E2E2E2E2E2E2E2E2E2E2E2E2E2E2E2E2E2E2E2E2E2E2E2E2E2E2
310
E2E2E2E2E2E2E2E2E2E2E2E2E2E2E2E2E2E2E2E2E2E2E2E2E2DCE2E2E2E2E2E2E2E2E2E2E2E2E2E2E2E2E2E2E2E2E2E2E2E2E2E2E2E2E2F5E2E2E2E2E2E2E2E2E2E2E2E2E2E2E2E2E2E2E2E2F5F5EFF5E2E2E2E2E2E2E2E2E2E2E2E2E2E2E2E2E2E2E2E2F5E2E2E2E2E2E2E2E2E2E2E2E2E2E2E2E2E2E2E2E2E2E2E2E2E2E2
310
E2E2E2DCE2E2E2E2E2E2E2E2E2E2E2E2E2E2E2E2E2E2E2E2E2E2E2E2E2E2E2E2E2E2E2E2E2E2E2E2E2E2E2E2E2E2E2E2E2E2E2E2E2E2E2E2E2E2E2E2E2E2E2E2E2E2E2E2E2E2E2E2E2E2E2E2E2E2DCE2E2E2E2E2E2E2E2E2E2E2E2E2E2E2E2E2E2E2E2E2E2E2E2E2E2E2E2E2F5E2E2E2E2E2E2E2E2E2E2E2E2E2E2E2E2E2E2
310
E2E2F5F5EFF5E2E2E2E2E2E2E2E2E2E2E2E2E2E2E2E2E2E2E2E2F5E2E2E2E2E2E2E2E2E2E2E2E2E2E2E2E2E2E2E2E2E2E2E2E2E2E2E2E2E2DCE2E2E2E2E2E2E2E2E2E2E2E2E2E2E2E2E2E2E2E2E2E2E2E2E2E2E2E2E2E2E2E2E2E2E2E2E2E2E2E2E2E2E2E2E2E2E2E2E2E2E2E2E2E2E2E2E2E2E2E2E2E2E2E2E2E2E2E2E2E2
310
E2E2E2E2DCE2E2E2E2E2E2E2E2E2E2E2E2E2E2E2E2E2E2E2E2E2E2E2E2E2E2E2E2E2F5E2E2E2E2E2E2E2E2E2E2E2E2E2E2E2E2E2E2E2E2F5F5EFF5E2E2E2E2E2E2E2E2E2E2E2E2E2E2E2E2E2E2E2E2F5F5F5F5F5F5F5F5F5F5F5F5F5F5F5F5F5F5F5F5F5F5F5F5F5F5F5F5F5F5F5F5F5F5F5F5F5F5F5F5F5F5F5F5F5F5F5F5
310
F5F5F5F5F5F5F5F5F5F5F5F5F5F5F5F5F5F5F5F5F5F5F5F5F5F5F5F5F5F5F5F5F5F5F5F5F5F5F5F5F5F5F5F5F5F5F5F5F5F5F5F5F5F5F5F5F5F5F5F5F5F5F5F5F5F5F5F5F5F5F5F5F5F5F5F5F5F5F5F5F5F5F5F5F5F5F5F5E2E2E2E2E2E2E2E2E2E2E2E2E2E2E2E2E2E2E2E2F5F5EFF5E2E2E2E2E2E2E2E2E2E2E2E2E2E2E2
310
E2E2E2E2E2E2E2E2E2E2E2E2E2E2E2E2E2E2E2E2E2E2E2E2E2E2E2E2E2E2E2E2E2E2E2E2E2E2E2E2E2E2E2E2E2E2E2E2E2E2E2E2E2E2E2E2E2E2E2E2E2E2E2E2E2E2E2E2E2E2E2E2E2E2E2E2E2E2E2E2E2E2E2E2E2E2E2E2E2E2E2E2E2E2E2E2E2E2E2E2E2E2E2E2E2E2E2E2E2E2E2E2E2E2E2E2E2E2E2E2E2E2E2E2E2E2E2
310
E2E2E2E2E2E2E2E2E2E2E2E2E2E2E2E2E2E2E2E2E2E2E2E2E2E2E2E2E2E2E2E2E2E2F5F5EFF5E2E2E2E2E2E2E2E2E2E2E2E2E2E2E2E2E2E2E2E2E2E2E2E2E2E2E2E2E2E2E2E2E2E2E2E2E2E2E2E2E2E2E2E2E2E2E2E2E2E2E2E2E2E2E2E2E2E2E2E2E2E2E2E2E2E2E2E2E2E2E2E2E2E2E2E2E2E2E2E2E2E2E2E2E2E2E2E2E2
310
E2E2E2E2E2E2E2E2E2E2E2E2E2E2E2E2E2E2E2E2E2E2E2E2E2E2E2E2E2E2E2E2E2E2E2E2E2E2E2E2E2E2E2E2E2E2E2E2E2E2E2E2E2E2E2E2E2E2E2E2E2E2E2E2E2E2E2E2E2E2E2E2E2E2E2E2E2E2E2E2E2E2E2E2E2E2E2F5F5EFF5E2E2E2E2E2E2E2E2E2E2E2E2E2E2E2E2E2E2E2E2E2E2E2E2E2E2E2E2E2E2E2E2E2E2E2E2
310
E2E2E2E2E2E2E2E2E2E2E2E2E2E2E2E2E2E2E2E2E2E2E2E2E2E2E2E2E2E2E2E2E2E2E2E2E2E2E2E2E2E2E2E2E2E2E2E2E2E2E2E2E2E2E2E2E2E2E2E2E2E2E2E2E2E2E2E2E2E2E2E2E2E2E2E2E2E2E2E2E2E2E2E2E2E2E2E2E2E2E2E2E2E2E2E2E2E2E2E2E2E2E2E2E2E2E2E2E2E2E2E2E2E2E2E2E2E2E2E2E2E2E2E2E2E2E2
310
E2E2E2E2E2E2E2E2E2E2E2E2E2F5F5EFF5E2E2E2E2E2E2E2E2E2E2E2E2E2E2E2E2E2E2E2E2E2E2E2E2E2E2E2E2E2E2E2E2E2E2E2E2E2E2E2E2E2E2E2E2E2E2E2E2E2E2E2E2E2E2E2E2E2E2E2E2E2E2E2E2E2E2E2E2E2E2E2E2E2E2E2E2E2E2E2E2E2E2E2E2E2E2E2E2E2E2E2E2E2E2E2E2E2E2E2E2E2E2E2E2E2E2E2E2E2E2
310
E2E2E2E2E2E2E2E2E2E2E2E2E2E2E2E2E2E2E2E2E2E2E2E2E2E2E2E2E2E2E2E2E2E2E2E2E2E2E2E2E2E2E2E2E2E2E2E2E2E2E2E2E2E2E2E2E2E2E2E2E2E2E2E2E2E2F5F5EFF5E2E2E2F5E2E2E2E2E2E2E2E2E2E2E2E2E2E2E2E2E2E2E2E2E2E2E2E2E2E2E2E2E2E2E2E2E2E2E2E2E2E2E2E2E2E2E2E2E2E2E2E2E2E2E2E2E2
310
E2E2E2E2E2E2E2E2E2E2E2E2E2E2E2E2E2E2E2E2E2E2E2E2E2E2E2E2E2E2E2E2E2E2E2E2E2E2E2E2E2E2E2E2E2E2E2E2E2E2E2E2E2E2E2E2E2E2E2E2E2E2E2E2E2E2E2E2E2E2E2E2E2E2E2E2E2E2E2E2E2E2E2E2E2E2E2E2E2E2E2E2E2E2E2E2E2E2E2E2E2E2E2E2E2E2E2E2E2E2E2E2E2E2E2F5E2E2E2F5F5EFF5E2E2E2F5
310
E2E2E2E2E2E2E2E2E2E2E2E2E2E2E2E2E2E2E2E2E2E2E2E2E2E2E2E2E2E2E2E2E2E2E2E2E2E2E2E2E2E2E2E2E2E2E2E2E2E2E2E2E2E2E2E2E2E2E2E2E2E2E2E2E2E2E2E2E2E2E2E2E2E2E2E2E2E2E2E2E2E2E2E2E2E2E2E2E2E2E2E2E2E2E2E2E2E2E2E2E2E2E2E2E2E2E2E2E2E2E2E2E2E2E2E2E2E2E2E2E2E2E2E2E2E2E2
310
E2E2E2E2E2E2E2E2E2E2E2E2E2E2E2E2E2E2E2E2E2E2E2E2E2E2E2E2E2E2E2E2E2E2E2E2E2E2E2E2E2F5E2E2E2F5F5EFF5E2E2E2F5E2E2E2E2E2E2E2E2E2E2E2E2E2E2E2E2E2E2E2E2E2E2E2E2E2E2E2E2E2E2E2E2E2E2E2E2E2E2E2E2E2E2E2E2E2E2E2E2E2E2E2E2E2E2E2E2E2E2E2E2E2E2E2E2E2E2E2E2E2E2E2E2E2E2
310
E2E2E2E2E2E2E2E2E2E2E2E2E2E2E2E2E2E2E2E2E2E2E2E2E2E2E2E2E2E2E2E2E2E2E2E2E2E2E2E2E2E2E2E2E2E2E2E2E2E2E2E2E2E2E2E2E2E2E2E2E2E2E2E2E2E2E2E2E2E2E2E2E2E2E2E2E2E2E2E2E2E2E2E2E2E2E2E2E2E2E2E2E2E2F5E2E2E2F5F5EFF5E2E2E2F5E2E2E2E2E2E2E2E2E2E2E2E2E2E2E2E2E2E2E2E2E2
310
E2E2E2E2E2E2E2E2E2E2E2E2E2E2E2E2E2E2E2E2E2E2E2E2E2E2E2E2E2E2E2E2E2E2E2E2E2E2E2E2E2E2E2E2E2E2E2E2E2E2E2E2E2E2E2E2E2E2E2E2E2E2E2E2E2E2E2E2E2E2E2E2E2E2E2E2E2E2E2E2E2E2E2E2E2E2E2E2E2E2E2E2E2E2E2E2E2E2E2E2E2E2E2E2E2E2E2E2E2E2E2E2E2E2E2E2E2E2E2E2E2E2E2E2E2E2E2
310
E2E2E2E2E2E2E2E2E2E2E2E2E2E2E2E2E2E2E2E2F5E2E2E2F5F5EFF5E2E2E2F5E2E2E2E2E2E2E2E2E2E2E2E2E2E2E2E2E2E2E2E2E2E2E2E2E2E2E2E2E2E2E2E2E2E2E2E2E2E2E2E2E2E2E2E2E2E2E2E2E2E2E2E2E2E2E2E2E2E2E2E2E2E2E2E2E2E2E2E2E2E2E2E2E2E2E2E2E2E2E2E2E2E2E2E2E2E2E2E2E2E2E2E2E2E2E2
310
E2E2E2E2E2E2E2E2E2E2E2E2E2E2E2E2E2E2E2E2E2E2E2E2E2E2E2E2E2E2E2E2E2E2E2E2E2E2E2E2E2E2E2E2E2E2E2E2E2E2E2E2E2E2E2E2E2E2E2E2E2E2E2E2E2E2E2E2E2E2E2E2E2F5E2E2E2F5F5EFF5E2E2E2F5E2E2E2E2E2E2E2E2E2E2E2E2E2E2E2E2E2E2E2E2E2E2E2E2E2E2E2E2E2E2E2E2E2E2E2E2E2E2E2E2E2E2
310
E2E2E2E2E2E2E2E2E2E2E2E2E2E2E2E2E2E2E2E2E2E2E2E2E2E2E2E2E2E2E2E2E2E2E2E2E2E2E2E2E2E2E2E2E2E2E2E2E2E2E2E2E2E2E2E2E2E2E2E2E2E2E2E2E2E2E2E2E2E2E2E2E2E2E2E2E2E2E2E2E2E2E2E2E2E2E2E2E2E2E2E2E2E2E2E2E2E2E2E2E2E2E2E2E2E2E2E2E2E2E2E2E2E2E2E2E2E2E2E2E2E2E2E2E2E2F5
310
E2E2E2F5F5EFF5E2E2E2F5E2E2E2E2E2E2E2E2E2E2E2E2E2E2E2E2E2E2E2E2E2E2E2E2E2E2E2E2E2E2E2E2E2E2E2E2E2E2E2E2E2E2E2E2E2E2E2E2E2E2E2E2E2E2E2E2E2E2E2E2E2E2E2E2E2E2E2E2E2E2E2E2E2E2E2E2E2E2E2E2E2E2E2E2E2E2E2E2E2E2E2E2E2E2E2E2E2E2E2E2E2E2E2E2E2E2E2E2E2E2E2E2E2E2E2E2
310
E2E2E2E2E2E2E2E2E2E2E2E2E2E2E2E2E2E2E2E2E2E2E2E2E2E2E2E2E2E2E2E2E2E2E2E2E2E2E2E2E2E2E2E2E2E2E2E2E2E2E2E2F5E2E2E2F5F5EFF5E2E2E2F5E2E2E2E2E2E2E2E2E2E2E2E2E2E2E2E2E2E2E2E2E2E2E2E2E2E2E2E2E2E2E2E2E2E2E2E2E2E2E2E2E2E2E2E2E2E2E2E2E2E2E2E2E2E2E2E2E2E2E2E2E2E2E2
310
E2E2E2E2E2E2E2E2E2E2E2E2E2E2E2E2E2E2E2E2E2E2E2E2E2E2E2E2E2E2E2E2E2E2E2E2E2E2E2E2E2E2E2E2E2E2E2E2E2E2E2E2E2E2E2E2E2E2E2E2E2E2E2E2E2E2E2E2E2E2E2E2E2E2E2E2E2E2E2E2E2E2E2E2E2E2E2E2E2E2E2E2E2E2E2E2E2E2E2E2E2E2E2E2E2F5E2E2E2F5F5EFF5E2E2E2F5F5F5F5F5F5F5F5E2E2E2
310
E2E2E2E2E2E2F5F5F5F5F5F5F5F5F5F5F5F5F5F5F5E2E2E2E2E2E2E2E2E2F5F5F5F5F5F5F5F5F5F5F5F5F5F5F5F5E2E2E2E2E2E2E2E2F5F5F5F5F5F5F5F5F5F5F5F5F5F5F5F5E2E2E2E2E2E2E2E2F5F5F5F5F5F5F5F5F5F5F5F5F5F5F5F5E2E2E2E2E2E2E2E2F5F5F5F5F5F5F5F5F5F5F5F5F5F5F5F5E2E2E2E2E2E2E2E2E2
310
F5F5F5F5F5F5F5F5F5F5F5F5F5F5F5E2E2E2E2E2E2E2E2E2F5F5F5F5F5F5F5F5E2E2E2F5F5EFF5E2E2E2E2E2E2E2E2E2E2E2E2E2E2E2E2E2E2E2E2E2E2E2E2E2E2E2E2E2E2E2E2E2E2E2E2E2E2E2E2E2E2E2E2E2E2E2E2E2E2E2E2E2E2E2E2E2E2E2E2E2E2E2E2E2E2E2E2E2E2E2E2E2E2E2E2E2E2E2E2E2E2E2E2E2E2E2E2
310
E2E2E2E2E2E2E2E2E2E2E2E2E2E2E2E2E2E2E2E2E2E2E2E2E2E2E2E2E2E2E2E2E2E2E2E2E2E2E2E2E2E2E2E2E2E2E2E2E2E2E2E2E2E2E2E2E2E2E2E2E2E2E2E2E2E2E2E2E2E2E2E2E2E2E2E2E2E2E2E2E2E2E2E2E2E2E2E2F5F5EFF5E2E2E2E2E2E2E2E2E2E2E2E2E2E2E2E2E2E2E2E2E2E2E2E2E2E2E2E2E2E2E2E2E2E2E2
310
E2E2E2E2E2E2E2E2E2E2E2E2E2E2E2E2E2E2E2E2E2E2E2E2E2E2E2E2E2E2E2E2E2E2E2E2E2E2E2E2E2E2E2E2E2E2E2E2E2E2E2E2E2E2E2E2E2E2E2E2E2E2E2E2E2E2E2E2E2E2E2E2E2E2E2E2E2E2E2E2E2E2E2E2E2E2E2E2E2E2E2E2E2E2E2E2E2E2E2E2E2E2E2E2E2E2E2E2E2E2E2E2E2E2E2E2E2E2E2E2E2E2E2E2E2E2E2
310
E2E2E2E2E2E2E2E2E2E2E2E2E2E2F5EFEFF5E2E2E2E2E2E2E2E2E2E2E2E2E2E2E2E2E2E2E2E2E2E2E2E2E2E2E2E2E2E2E2E2E2E2E2E2E2E2E2E2E2E2E2E2E2E2E2E2E2E2E2E2E2E2E2E2E2E2E2E2E2E2E2E2E2E2E2E2E2E2E2E2E2E2E2E2E2E2E2E2E2E2E2E2E2E2E2E2E2E2E2E2E2E2E2E2E2E2E2E2E2E2E2E2E2E2E2E2E2
310
E2E2E2E2E2E2E2E2E2E2E2E2E2E2E2E2E2E2E2E2E2E2E2E2E2E2E2E2E2E2E2E2E2E2E2E2E2E2E2E2E2E2E2E2E2E2E2E2E2E2E2E2E2E2E2E2E2E2E2E2E2E2E2E2E2E2E2F5EFEFF5F5F5F5F5F5F5F5F5F5F5F5F5F5F5F5F5F5F5F5F5F5F5F5F5F5F5F5F5F5F5F5F5F5F5F5F5F5F5F5F5F5F5F5F5F5F5F5F5F5F5F5F5F5F5F5F5
310
F5F5F5F5F5F5F5F5F5F5F5F5F5F5F5F5F5F5F5F5F5F5F5F5F5F5F5F5F5F5F5F5F5F5F5F5F5F5F5F5F5F5F5F5F5F5F5F5F5F5F5F5F5F5F5F5F5F5F5F5F5F5F5F5F5F5F5F5F5F5F5F5F5F5F5F5F5F5F5F5F5F5F5F5F5F5F5F5F5F5F5F5F5F5F5F5F5F5F5F5F5F5F5F5F5F5F5F5F5F5F5F5F5F5F5F5F5F5F5F5F5EFEF
  0
XRECORD
  5
3A3
102
{ACAD_REACTORS
330
3A2
102
}
330
3A2
100
AcDbXrecord
280
     1
102
SHADEPLOT
 70
     1
102
SHADEPLOTRESLEVEL
 70
     2
102
SHADEPLOTCUSTOMDPI
 70
   300
  0
XRECORD
  5
3AC
102
{ACAD_REACTORS
330
3AB
102
}
330
3AB
100
AcDbXrecord
280
     1
102
MATERIAL
148
0.0
149
0.0
149
0.0
 93
        0
 94
       63
282
     0
 72
     1
 77
     1
171
     1
175
     1
179
     1
273
     0
  0
XRECORD
  5
3AA
102
{ACAD_REACTORS
330
3A9
102
}
330
3A9
100
AcDbXrecord
280
     1
102
MATERIAL
148
0.0
149
0.0
149
0.0
 93
        0
 94
       63
282
     0
 72
     1
 77
     1
171
     1
175
     1
179
     1
273
     0
  0
XRECORD
  5
39D
102
{ACAD_REACTORS
330
39C
102
}
330
39C
100
AcDbXrecord
280
     1
102
MATERIAL
148
0.0
149
0.0
149
0.0
 93
        0
 94
       63
282
     0
 72
     1
 77
     1
171
     1
175
     1
179
     1
273
     0
  0
CELLSTYLEMAP
  5
399
102
{ACAD_REACTORS
330
33D
102
}
330
33D
100
AcDbCellStyleMap
 90
        3
300
CELLSTYLE
  1
TABLEFORMAT_BEGIN
 90
        5
170
     1
 91
        0
 92
    32768
 62
   257
 93
        1
300
CONTENTFORMAT
  1
CONTENTFORMAT_BEGIN
 90
        0
 91
        0
 92
        4
 93
        0
300

 40
0.0
140
1.0
 94
        5
 62
     0
340
31B
144
0.25
309
CONTENTFORMAT_END
171
     0
 94
        6
 95
        1
302
GRIDFORMAT
  1
GRIDFORMAT_BEGIN
 90
        0
 91
        1
 62
     0
 92
       -2
340
0
 93
        0
 40
0.045
309
GRIDFORMAT_END
 95
        2
302
GRIDFORMAT
  1
GRIDFORMAT_BEGIN
 90
        0
 91
        1
 62
     0
 92
       -2
340
0
 93
        0
 40
0.045
309
GRIDFORMAT_END
 95
        4
302
GRIDFORMAT
  1
GRIDFORMAT_BEGIN
 90
        0
 91
        1
 62
     0
 92
       -2
340
0
 93
        0
 40
0.045
309
GRIDFORMAT_END
 95
        8
302
GRIDFORMAT
  1
GRIDFORMAT_BEGIN
 90
        0
 91
        1
 62
     0
 92
       -2
340
0
 93
        0
 40
0.045
309
GRIDFORMAT_END
 95
       16
302
GRIDFORMAT
  1
GRIDFORMAT_BEGIN
 90
        0
 91
        1
 62
     0
 92
       -2
340
0
 93
        0
 40
0.045
309
GRIDFORMAT_END
 95
       32
302
GRIDFORMAT
  1
GRIDFORMAT_BEGIN
 90
        0
 91
        1
 62
     0
 92
       -2
340
0
 93
        0
 40
0.045
309
GRIDFORMAT_END
309
TABLEFORMAT_END
  1
CELLSTYLE_BEGIN
 90
        1
 91
        1
300
_TITLE
309
CELLSTYLE_END
300
CELLSTYLE
  1
TABLEFORMAT_BEGIN
 90
        5
170
     1
 91
        0
 92
        0
 62
   257
 93
        1
300
CONTENTFORMAT
  1
CONTENTFORMAT_BEGIN
 90
        0
 91
        0
 92
        4
 93
        0
300

 40
0.0
140
1.0
 94
        5
 62
     0
340
31B
144
0.18
309
CONTENTFORMAT_END
171
     0
 94
        6
 95
        1
302
GRIDFORMAT
  1
GRIDFORMAT_BEGIN
 90
        0
 91
        1
 62
     0
 92
       -2
340
0
 93
        0
 40
0.045
309
GRIDFORMAT_END
 95
        2
302
GRIDFORMAT
  1
GRIDFORMAT_BEGIN
 90
        0
 91
        1
 62
     0
 92
       -2
340
0
 93
        0
 40
0.045
309
GRIDFORMAT_END
 95
        4
302
GRIDFORMAT
  1
GRIDFORMAT_BEGIN
 90
        0
 91
        1
 62
     0
 92
       -2
340
0
 93
        0
 40
0.045
309
GRIDFORMAT_END
 95
        8
302
GRIDFORMAT
  1
GRIDFORMAT_BEGIN
 90
        0
 91
        1
 62
     0
 92
       -2
340
0
 93
        0
 40
0.045
309
GRIDFORMAT_END
 95
       16
302
GRIDFORMAT
  1
GRIDFORMAT_BEGIN
 90
        0
 91
        1
 62
     0
 92
       -2
340
0
 93
        0
 40
0.045
309
GRIDFORMAT_END
 95
       32
302
GRIDFORMAT
  1
GRIDFORMAT_BEGIN
 90
        0
 91
        1
 62
     0
 92
       -2
340
0
 93
        0
 40
0.045
309
GRIDFORMAT_END
309
TABLEFORMAT_END
  1
CELLSTYLE_BEGIN
 90
        2
 91
        1
300
_HEADER
309
CELLSTYLE_END
300
CELLSTYLE
  1
TABLEFORMAT_BEGIN
 90
        5
170
     1
 91
        0
 92
        0
 62
   257
 93
        1
300
CONTENTFORMAT
  1
CONTENTFORMAT_BEGIN
 90
        0
 91
        0
 92
        4
 93
        0
300

 40
0.0
140
1.0
 94
        2
 62
     0
340
31B
144
0.18
309
CONTENTFORMAT_END
171
     0
 94
        6
 95
        1
302
GRIDFORMAT
  1
GRIDFORMAT_BEGIN
 90
        0
 91
        1
 62
     0
 92
       -2
340
0
 93
        0
 40
0.045
309
GRIDFORMAT_END
 95
        2
302
GRIDFORMAT
  1
GRIDFORMAT_BEGIN
 90
        0
 91
        1
 62
     0
 92
       -2
340
0
 93
        0
 40
0.045
309
GRIDFORMAT_END
 95
        4
302
GRIDFORMAT
  1
GRIDFORMAT_BEGIN
 90
        0
 91
        1
 62
     0
 92
       -2
340
0
 93
        0
 40
0.045
309
GRIDFORMAT_END
 95
        8
302
GRIDFORMAT
  1
GRIDFORMAT_BEGIN
 90
        0
 91
        1
 62
     0
 92
       -2
340
0
 93
        0
 40
0.045
309
GRIDFORMAT_END
 95
       16
302
GRIDFORMAT
  1
GRIDFORMAT_BEGIN
 90
        0
 91
        1
 62
     0
 92
       -2
340
0
 93
        0
 40
0.045
309
GRIDFORMAT_END
 95
       32
302
GRIDFORMAT
  1
GRIDFORMAT_BEGIN
 90
        0
 91
        1
 62
     0
 92
       -2
340
0
 93
        0
 40
0.045
309
GRIDFORMAT_END
309
TABLEFORMAT_END
  1
CELLSTYLE_BEGIN
 90
        3
 91
        2
300
_DATA
309
CELLSTYLE_END
  0
XRECORD
  5
3AD
102
{ACAD_REACTORS
330
33D
102
}
330
33D
100
AcDbXrecord
280
     1
102
ACAD_ROUNDTRIP_PRE2007_TABLESTYLE
 90
        4
 91
        0
  1

 92
        4
 93
        0
  2

 94
        4
 95
        0
  3

  0
ENDSEC
  0
EOF
