  0
SECTION
  2
HEADER
  9
$ACADVER
  1
AC1015
  9
$ACADMAINTVER
 70
    20
  9
$DWGCODEPAGE
  3
ANSI_1250
  9
$INSBASE
 10
9677.351579171606
 20
1189.596440029025
 30
0.0000000000031697
  9
$EXTMIN
 10
9677.351579171606
 20
-12830.40355997097
 30
-0.0000000000324137
  9
$EXTMAX
 10
19877.35157917163
 20
1189.596440029025
 30
46.99999999999917
  9
$LIMMIN
 10
0.0
 20
0.0
  9
$LIMMAX
 10
12.0
 20
9.0
  9
$ORTHOMODE
 70
     1
  9
$REGENMODE
 70
     1
  9
$FILLMODE
 70
     1
  9
$QTEXTMODE
 70
     0
  9
$MIRRTEXT
 70
     0
  9
$LTSCALE
 40
75.0
  9
$ATTMODE
 70
     1
  9
$TEXTSIZE
 40
0.2
  9
$TRACEWID
 40
40.0
  9
$TEXTSTYLE
  7
STANDARD
  9
$CLAYER
  8
0Wymiary-PL
  9
$CELTYPE
  6
BYLAYER
  9
$CECOLOR
 62
   256
  9
$CELTSCALE
 40
4.0
  9
$DISPSILH
 70
     0
  9
$DIMSCALE
 40
1.0
  9
$DIMASZ
 40
30.0
  9
$DIMEXO
 40
43.0
  9
$DIMDLI
 40
0.0
  9
$DIMRND
 40
0.5
  9
$DIMDLE
 40
12.0
  9
$DIMEXE
 40
13.0
  9
$DIMTP
 40
0.0
  9
$DIMTM
 40
0.0
  9
$DIMTXT
 40
80.0
  9
$DIMCEN
 40
0.0
  9
$DIMTSZ
 40
0.0
  9
$DIMTOL
 70
     0
  9
$DIMLIM
 70
     0
  9
$DIMTIH
 70
     0
  9
$DIMTOH
 70
     0
  9
$DIMSE1
 70
     1
  9
$DIMSE2
 70
     1
  9
$DIMTAD
 70
     0
  9
$DIMZIN
 70
    12
  9
$DIMBLK
  1
B-DIM
  9
$DIMASO
 70
     1
  9
$DIMSHO
 70
     1
  9
$DIMPOST
  1

  9
$DIMAPOST
  1

  9
$DIMALT
 70
     0
  9
$DIMALTD
 70
     2
  9
$DIMALTF
 40
25.4
  9
$DIMLFAC
 40
1.0
  9
$DIMTOFL
 70
     1
  9
$DIMTVP
 40
1.0
  9
$DIMTIX
 70
     1
  9
$DIMSOXD
 70
     0
  9
$DIMSAH
 70
     0
  9
$DIMBLK1
  1

  9
$DIMBLK2
  1

  9
$DIMSTYLE
  2
500
  9
$DIMCLRD
 70
     1
  9
$DIMCLRE
 70
     1
  9
$DIMCLRT
 70
   140
  9
$DIMTFAC
 40
1.0
  9
$DIMGAP
 40
0.0
  9
$DIMJUST
 70
     0
  9
$DIMSD1
 70
     0
  9
$DIMSD2
 70
     0
  9
$DIMTOLJ
 70
     1
  9
$DIMTZIN
 70
     0
  9
$DIMALTZ
 70
     0
  9
$DIMALTTZ
 70
     0
  9
$DIMUPT
 70
     0
  9
$DIMDEC
 70
     1
  9
$DIMTDEC
 70
     1
  9
$DIMALTU
 70
     2
  9
$DIMALTTD
 70
     2
  9
$DIMTXSTY
  7
ROMANS
  9
$DIMAUNIT
 70
     0
  9
$DIMADEC
 70
     0
  9
$DIMALTRND
 40
0.0
  9
$DIMAZIN
 70
     0
  9
$DIMDSEP
 70
    46
  9
$DIMATFIT
 70
     3
  9
$DIMFRAC
 70
     0
  9
$DIMLDRBLK
  1
B-DIM
  9
$DIMLUNIT
 70
     2
  9
$DIMLWD
 70
    -2
  9
$DIMLWE
 70
    -2
  9
$DIMTMOVE
 70
     2
  9
$LUNITS
 70
     2
  9
$LUPREC
 70
     2
  9
$SKETCHINC
 40
0.1
  9
$FILLETRAD
 40
0.0
  9
$AUNITS
 70
     0
  9
$AUPREC
 70
     1
  9
$MENU
  1
acad
  9
$ELEVATION
 40
0.0
  9
$PELEVATION
 40
0.0
  9
$THICKNESS
 40
0.0
  9
$LIMCHECK
 70
     0
  9
$CHAMFERA
 40
30.0
  9
$CHAMFERB
 40
30.0
  9
$CHAMFERC
 40
0.0
  9
$CHAMFERD
 40
0.0
  9
$SKPOLY
 70
     0
  9
$TDCREATE
 40
2450817.525937848
  9
$TDUCREATE
 40
2450817.442604514
  9
$TDUPDATE
 40
2454959.607901829
  9
$TDUUPDATE
 40
2454959.524568495
  9
$TDINDWG
 40
21.7186891204
  9
$TDUSRTIMER
 40
21.7186891204
  9
$USRTIMER
 70
     1
  9
$ANGBASE
 50
0.0
  9
$ANGDIR
 70
     0
  9
$PDMODE
 70
     3
  9
$PDSIZE
 40
10.0
  9
$PLINEWID
 40
0.0
  9
$SPLFRAME
 70
     0
  9
$SPLINETYPE
 70
     6
  9
$SPLINESEGS
 70
     8
  9
$HANDSEED
  5
C57
  9
$SURFTAB1
 70
     6
  9
$SURFTAB2
 70
     6
  9
$SURFTYPE
 70
     6
  9
$SURFU
 70
     6
  9
$SURFV
 70
     6
  9
$UCSBASE
  2

  9
$UCSNAME
  2

  9
$UCSORG
 10
0.0
 20
0.0
 30
0.0
  9
$UCSXDIR
 10
1.0
 20
0.0
 30
0.0
  9
$UCSYDIR
 10
0.0
 20
1.0
 30
0.0
  9
$UCSORTHOREF
  2

  9
$UCSORTHOVIEW
 70
     0
  9
$UCSORGTOP
 10
0.0
 20
0.0
 30
0.0
  9
$UCSORGBOTTOM
 10
0.0
 20
0.0
 30
0.0
  9
$UCSORGLEFT
 10
0.0
 20
0.0
 30
0.0
  9
$UCSORGRIGHT
 10
0.0
 20
0.0
 30
0.0
  9
$UCSORGFRONT
 10
0.0
 20
0.0
 30
0.0
  9
$UCSORGBACK
 10
0.0
 20
0.0
 30
0.0
  9
$PUCSBASE
  2

  9
$PUCSNAME
  2

  9
$PUCSORG
 10
0.0
 20
0.0
 30
0.0
  9
$PUCSXDIR
 10
1.0
 20
0.0
 30
0.0
  9
$PUCSYDIR
 10
0.0
 20
1.0
 30
0.0
  9
$PUCSORTHOREF
  2

  9
$PUCSORTHOVIEW
 70
     0
  9
$PUCSORGTOP
 10
0.0
 20
0.0
 30
0.0
  9
$PUCSORGBOTTOM
 10
0.0
 20
0.0
 30
0.0
  9
$PUCSORGLEFT
 10
0.0
 20
0.0
 30
0.0
  9
$PUCSORGRIGHT
 10
0.0
 20
0.0
 30
0.0
  9
$PUCSORGFRONT
 10
0.0
 20
0.0
 30
0.0
  9
$PUCSORGBACK
 10
0.0
 20
0.0
 30
0.0
  9
$USERI1
 70
     0
  9
$USERI2
 70
     0
  9
$USERI3
 70
     0
  9
$USERI4
 70
     0
  9
$USERI5
 70
     0
  9
$USERR1
 40
0.0
  9
$USERR2
 40
0.0
  9
$USERR3
 40
0.0
  9
$USERR4
 40
0.0
  9
$USERR5
 40
0.0
  9
$WORLDVIEW
 70
     1
  9
$SHADEDGE
 70
     3
  9
$SHADEDIF
 70
    70
  9
$TILEMODE
 70
     1
  9
$MAXACTVP
 70
    16
  9
$PINSBASE
 10
0.0
 20
0.0
 30
0.0
  9
$PLIMCHECK
 70
     0
  9
$PEXTMIN
 10
0.0
 20
0.0
 30
0.0
  9
$PEXTMAX
 10
0.0
 20
0.0
 30
0.0
  9
$PLIMMIN
 10
0.0
 20
0.0
  9
$PLIMMAX
 10
12.0
 20
9.0
  9
$UNITMODE
 70
     0
  9
$VISRETAIN
 70
     0
  9
$PLINEGEN
 70
     0
  9
$PSLTSCALE
 70
     1
  9
$TREEDEPTH
 70
  3020
  9
$CMLSTYLE
  2
STANDARD
  9
$CMLJUST
 70
     0
  9
$CMLSCALE
 40
1.0
  9
$PROXYGRAPHICS
 70
     1
  9
$MEASUREMENT
 70
     0
  9
$CELWEIGHT
370
    -1
  9
$ENDCAPS
280
     0
  9
$JOINSTYLE
280
     0
  9
$LWDISPLAY
290
     0
  9
$INSUNITS
 70
     0
  9
$HYPERLINKBASE
  1

  9
$STYLESHEET
  1
monochrome_140.ctb
  9
$XEDIT
290
     1
  9
$CEPSNTYPE
380
     0
  9
$PSTYLEMODE
290
     1
  9
$FINGERPRINTGUID
  2
{2D5E65A9-1F91-4A53-BA94-481E1C74241D}
  9
$VERSIONGUID
  2
{7BFFD661-F74A-4AC3-B062-7821E862E881}
  9
$EXTNAMES
290
     1
  9
$PSVPSCALE
 40
0.0
  9
$OLESTARTUP
290
     0
  0
ENDSEC
  0
SECTION
  2
CLASSES
  0
CLASS
  1
DICTIONARYVAR
  2
AcDbDictionaryVar
  3
ObjectDBX Classes
 90
        0
280
     0
281
     0
  0
CLASS
  1
ACDBDICTIONARYWDFLT
  2
AcDbDictionaryWithDefault
  3
ObjectDBX Classes
 90
        0
280
     0
281
     0
  0
CLASS
  1
ACDBPLACEHOLDER
  2
AcDbPlaceHolder
  3
ObjectDBX Classes
 90
        0
280
     0
281
     0
  0
CLASS
  1
LAYOUT
  2
AcDbLayout
  3
ObjectDBX Classes
 90
        0
280
     0
281
     0
  0
CLASS
  1
AEC_VARS_DWG_SETUP
  2
AecDbVarsDwgSetup
  3
AecBase50|Product Desc: Autodesk Architectural Desktop 2007 |Company: Autodesk,Inc. |WEB Address: www.autodesk.com
 90
    32897
280
     0
281
     0
  0
CLASS
  1
AEC_DISP_REP_CONFIG
  2
AecDbDispRepConfig
  3
AecBase50|Product Desc: Autodesk Architectural Desktop 2007 |Company: Autodesk,Inc. |WEB Address: www.autodesk.com
 90
    32897
280
     0
281
     0
  0
CLASS
  1
AEC_DISP_REP_SET
  2
AecDbDispRepSet
  3
AecBase50|Product Desc: Autodesk Architectural Desktop 2007 |Company: Autodesk,Inc. |WEB Address: www.autodesk.com
 90
    32897
280
     0
281
     0
  0
CLASS
  1
AEC_DISP_REP_2D_SECTION
  2
AecDbDispRep2dSection
  3
AecBase50|Product Desc: Autodesk Architectural Desktop 2007 |Company: Autodesk,Inc. |WEB Address: www.autodesk.com
 90
    32897
280
     0
281
     0
  0
CLASS
  1
AEC_DISP_REP_ANCHOR_BUB_TO_GRID
  2
AecDbDispRepAnchorBubToGrid
  3
AecStructureBase50|Product Desc: Autodesk Architectural Desktop 2007 |Company: Autodesk,Inc. |WEB Address: www.autodesk.com
 90
    32897
280
     0
281
     0
  0
CLASS
  1
AEC_DISP_REP_ANCHOR_BUB_TO_GRID_MODEL
  2
AecDbDispRepAnchorBubToGridMdl
  3
AecStructureBase50|Product Desc: Autodesk Architectural Desktop 2007 |Company: Autodesk,Inc. |WEB Address: www.autodesk.com
 90
    32897
280
     0
281
     0
  0
CLASS
  1
AEC_DISP_REP_ANCHOR_ENT_TO_NODE
  2
AecDbDispRepAnchorEntToNode
  3
AecBase50|Product Desc: Autodesk Architectural Desktop 2007 |Company: Autodesk,Inc. |WEB Address: www.autodesk.com
 90
    32897
280
     0
281
     0
  0
CLASS
  1
AEC_DISP_REP_ANCHOR_TAG_TO_ENT
  2
AecDbDispRepAnchorTagToEnt
  3
AecScheduleData50|Product Desc: Autodesk Architectural Desktop 2007 |Company: Autodesk,Inc. |WEB Address: www.autodesk.com
 90
    32897
280
     0
281
     0
  0
CLASS
  1
AEC_DISP_REP_AREA
  2
AecDbDispRepArea
  3
AecAreaCalculationBase50|Product Desc: Autodesk Architectural Desktop 2007 |Company: Autodesk,Inc. |WEB Address: www.autodesk.com
 90
    32897
280
     0
281
     0
  0
CLASS
  1
AEC_DISP_REP_AREA_DECOMPOSED
  2
AecDbDispRepAreaDecomposed
  3
AecAreaCalculationBase50|Product Desc: Autodesk Architectural Desktop 2007 |Company: Autodesk,Inc. |WEB Address: www.autodesk.com
 90
    32897
280
     0
281
     0
  0
CLASS
  1
AEC_DISP_REP_AREAGROUP
  2
AecDbDispRepAreaGroup
  3
AecAreaCalculationBase50|Product Desc: Autodesk Architectural Desktop 2007 |Company: Autodesk,Inc. |WEB Address: www.autodesk.com
 90
    32897
280
     0
281
     0
  0
CLASS
  1
AEC_DISP_REP_BDG_ELEVLINE_MODEL
  2
AecDbDispRepBdgElevLineModel
  3
AecArchBase50|Product Desc: Autodesk Architectural Desktop 2007 |Company: Autodesk,Inc. |WEB Address: www.autodesk.com
 90
    32897
280
     0
281
     0
  0
CLASS
  1
AEC_DISP_REP_BDG_SECTIONLINE_PLAN
  2
AecDbDispRepBdgElevLinePlan
  3
AecArchBase50|Product Desc: Autodesk Architectural Desktop 2007 |Company: Autodesk,Inc. |WEB Address: www.autodesk.com
 90
    32897
280
     0
281
     0
  0
CLASS
  1
AEC_DISP_REP_BDG_SECTIONLINE_MODEL
  2
AecDbDispRepBdgSectionLineModel
  3
AecArchBase50|Product Desc: Autodesk Architectural Desktop 2007 |Company: Autodesk,Inc. |WEB Address: www.autodesk.com
 90
    32897
280
     0
281
     0
  0
CLASS
  1
AEC_DISP_REP_BDG_SECTIONLINE_PLAN
  2
AecDbDispRepBdgSectionLinePlan
  3
AecArchBase50|Product Desc: Autodesk Architectural Desktop 2007 |Company: Autodesk,Inc. |WEB Address: www.autodesk.com
 90
    32897
280
     0
281
     0
  0
CLASS
  1
AEC_DISP_REP_BDG_SECTION_SUBDIV
  2
AecDbDispRepBdgSectionSubDiv
  3
AecArchBase50|Product Desc: Autodesk Architectural Desktop 2007 |Company: Autodesk,Inc. |WEB Address: www.autodesk.com
 90
    32897
280
     0
281
     0
  0
CLASS
  1
AEC_DISP_REP_CAMERA
  2
AecDbDispRepCamera
  3
AecBase50|Product Desc: Autodesk Architectural Desktop 2007 |Company: Autodesk,Inc. |WEB Address: www.autodesk.com
 90
    32897
280
     0
281
     0
  0
CLASS
  1
AEC_DISP_REP_CEILING_GRID
  2
AecDbDispRepCeilingGrid
  3
AecArchBase50|Product Desc: Autodesk Architectural Desktop 2007 |Company: Autodesk,Inc. |WEB Address: www.autodesk.com
 90
    33661
280
     0
281
     0
  0
CLASS
  1
AEC_DISP_REP_CEILING_GRID_MODEL
  2
AecDbDispRepCeilingGridModel
  3
AecArchBase50|Product Desc: Autodesk Architectural Desktop 2007 |Company: Autodesk,Inc. |WEB Address: www.autodesk.com
 90
    32897
280
     0
281
     0
  0
CLASS
  1
AEC_DISP_REP_CEILING_GRID_RCP
  2
AecDbDispRepCeilingGridRcp
  3
AecArchBase50|Product Desc: Autodesk Architectural Desktop 2007 |Company: Autodesk,Inc. |WEB Address: www.autodesk.com
 90
    32897
280
     0
281
     0
  0
CLASS
  1
AEC_DISP_REP_CLIP_VOLUME_MODEL
  2
AecDbDispRepClipVolModel
  3
AecBase50|Product Desc: Autodesk Architectural Desktop 2007 |Company: Autodesk,Inc. |WEB Address: www.autodesk.com
 90
    32897
280
     0
281
     0
  0
CLASS
  1
AEC_DISP_REP_CLIP_VOLUME_PLAN
  2
AecDbDispRepClipVolPlan
  3
AecBase50|Product Desc: Autodesk Architectural Desktop 2007 |Company: Autodesk,Inc. |WEB Address: www.autodesk.com
 90
    32897
280
     0
281
     0
  0
CLASS
  1
AEC_DISP_REP_CLIP_VOLUME_RESULT_SUBDIV
  2
AecDbDispRepClipVolResSubDiv
  3
AecBase50|Product Desc: Autodesk Architectural Desktop 2007 |Company: Autodesk,Inc. |WEB Address: www.autodesk.com
 90
    32897
280
     0
281
     0
  0
CLASS
  1
AEC_DISP_REP_CLIP_VOLUME_RESULT
  2
AecDbDispRepClipVolResult
  3
AecBase50|Product Desc: Autodesk Architectural Desktop 2007 |Company: Autodesk,Inc. |WEB Address: www.autodesk.com
 90
    32897
280
     0
281
     0
  0
CLASS
  1
AEC_DISP_REP_COLUMN_GRID
  2
AecDbDispRepColumnGrid
  3
AecStructureBase50|Product Desc: Autodesk Architectural Desktop 2007 |Company: Autodesk,Inc. |WEB Address: www.autodesk.com
 90
    32897
280
     0
281
     0
  0
CLASS
  1
AEC_DISP_REP_COLUMN_GRID_MODEL
  2
AecDbDispRepColumnGridModel
  3
AecStructureBase50|Product Desc: Autodesk Architectural Desktop 2007 |Company: Autodesk,Inc. |WEB Address: www.autodesk.com
 90
    32897
280
     0
281
     0
  0
CLASS
  1
AEC_DISP_REP_CURTAIN_WALL_LAYOUT_MODEL
  2
AecDbDispRepCurtainWallLayoutModel
  3
AecArchBase50|Product Desc: Autodesk Architectural Desktop 2007 |Company: Autodesk,Inc. |WEB Address: www.autodesk.com
 90
    32897
280
     0
281
     0
  0
CLASS
  1
AEC_DISP_REP_CURTAIN_WALL_LAYOUT_PLAN
  2
AecDbDispRepCurtainWallLayoutPlan
  3
AecArchBase50|Product Desc: Autodesk Architectural Desktop 2007 |Company: Autodesk,Inc. |WEB Address: www.autodesk.com
 90
    32897
280
     0
281
     0
  0
CLASS
  1
AEC_DISP_REP_CURTAIN_WALL_UNIT_MODEL
  2
AecDbDispRepCurtainWallUnitModel
  3
AecArchBase50|Product Desc: Autodesk Architectural Desktop 2007 |Company: Autodesk,Inc. |WEB Address: www.autodesk.com
 90
    32897
280
     0
281
     0
  0
CLASS
  1
AEC_DISP_REP_CURTAIN_WALL_UNIT_PLAN
  2
AecDbDispRepCurtainWallUnitPlan
  3
AecArchBase50|Product Desc: Autodesk Architectural Desktop 2007 |Company: Autodesk,Inc. |WEB Address: www.autodesk.com
 90
    32897
280
     0
281
     0
  0
CLASS
  1
AEC_DB_DISP_REP_DIM_GROUP_PLAN
  2
AecDbDispRepDimGroupPlan
  3
AecArchDACHBase50|Product Desc: Autodesk Architectural Desktop 2007 |Company: Autodesk,Inc. |WEB Address: www.autodesk.com
 90
    32897
280
     0
281
     0
  0
CLASS
  1
AEC_DISP_REP_DOOR_MODEL
  2
AecDbDispRepDoorModel
  3
AecArchBase50|Product Desc: Autodesk Architectural Desktop 2007 |Company: Autodesk,Inc. |WEB Address: www.autodesk.com
 90
    32897
280
     0
281
     0
  0
CLASS
  1
AEC_DISP_REP_DOOR_NOMINAL
  2
AecDbDispRepDoorNominal
  3
AecArchBase50|Product Desc: Autodesk Architectural Desktop 2007 |Company: Autodesk,Inc. |WEB Address: www.autodesk.com
 90
    32897
280
     0
281
     0
  0
CLASS
  1
AEC_DISP_REP_DOOR_PLAN
  2
AecDbDispRepDoorPlan
  3
AecArchBase50|Product Desc: Autodesk Architectural Desktop 2007 |Company: Autodesk,Inc. |WEB Address: www.autodesk.com
 90
    32897
280
     0
281
     0
  0
CLASS
  1
AEC_DISP_REP_EDITINPLACEPROFILE
  2
AecDbDispRepEditInPlaceProfile
  3
AecBase50|Product Desc: Autodesk Architectural Desktop 2007 |Company: Autodesk,Inc. |WEB Address: www.autodesk.com
 90
    32897
280
     0
281
     0
  0
CLASS
  1
AEC_DISP_REP_ENT_REF
  2
AecDbDispRepEntRef
  3
AecBase50|Product Desc: Autodesk Architectural Desktop 2007 |Company: Autodesk,Inc. |WEB Address: www.autodesk.com
 90
    32897
280
     0
281
     0
  0
CLASS
  1
AEC_DISP_REP_LAYOUT_CURVE
  2
AecDbDispRepLayoutCurve
  3
AecBase50|Product Desc: Autodesk Architectural Desktop 2007 |Company: Autodesk,Inc. |WEB Address: www.autodesk.com
 90
    32897
280
     0
281
     0
  0
CLASS
  1
AEC_DISP_REP_LAYOUT_GRID2D
  2
AecDbDispRepLayoutGrid2d
  3
AecBase50|Product Desc: Autodesk Architectural Desktop 2007 |Company: Autodesk,Inc. |WEB Address: www.autodesk.com
 90
    32897
280
     0
281
     0
  0
CLASS
  1
AEC_DISP_REP_LAYOUT_GRID3D
  2
AecDbDispRepLayoutGrid3d
  3
AecBase50|Product Desc: Autodesk Architectural Desktop 2007 |Company: Autodesk,Inc. |WEB Address: www.autodesk.com
 90
    32897
280
     0
281
     0
  0
CLASS
  1
AEC_DISP_REP_MASKBLOCK_REF
  2
AecDbDispRepMaskBlockRef
  3
AecBase50|Product Desc: Autodesk Architectural Desktop 2007 |Company: Autodesk,Inc. |WEB Address: www.autodesk.com
 90
    32897
280
     0
281
     0
  0
CLASS
  1
AEC_DISP_REP_MASKBLOCK_REF_RCP
  2
AecDbDispRepMaskBlockRefRcp
  3
AecArchBase50|Product Desc: Autodesk Architectural Desktop 2007 |Company: Autodesk,Inc. |WEB Address: www.autodesk.com
 90
    32897
280
     0
281
     0
  0
CLASS
  1
AEC_DISP_REP_MASS_ELEM_MODEL
  2
AecDbDispRepMassElemModel
  3
AecBaseEx50|Product Desc: Autodesk Architectural Desktop 2007 |Company: Autodesk,Inc. |WEB Address: www.autodesk.com
 90
    32897
280
     0
281
     0
  0
CLASS
  1
AEC_DISP_REP_MASS_ELEM_SCHEM
  2
AecDbDispRepMassElemSchem
  3
AecBaseEx50|Product Desc: Autodesk Architectural Desktop 2007 |Company: Autodesk,Inc. |WEB Address: www.autodesk.com
 90
    32897
280
     0
281
     0
  0
CLASS
  1
AEC_DISP_REP_MASS_GROUP_MODEL
  2
AecDbDispRepMassGroupModel
  3
AecBaseEx50|Product Desc: Autodesk Architectural Desktop 2007 |Company: Autodesk,Inc. |WEB Address: www.autodesk.com
 90
    32897
280
     0
281
     0
  0
CLASS
  1
AEC_DISP_REP_MASS_GROUP_PLAN
  2
AecDbDispRepMassGroupPlan
  3
AecBaseEx50|Product Desc: Autodesk Architectural Desktop 2007 |Company: Autodesk,Inc. |WEB Address: www.autodesk.com
 90
    32897
280
     0
281
     0
  0
CLASS
  1
AEC_DISP_REP_MATERIAL
  2
AecDbDispRepMaterial
  3
AecBase50|Product Desc: Autodesk Architectural Desktop 2007 |Company: Autodesk,Inc. |WEB Address: www.autodesk.com
 90
    32897
280
     0
281
     0
  0
CLASS
  1
AEC_DISP_REP_MVBLOCK_REF
  2
AecDbDispRepMvBlockRef
  3
AecBase50|Product Desc: Autodesk Architectural Desktop 2007 |Company: Autodesk,Inc. |WEB Address: www.autodesk.com
 90
    32897
280
     0
281
     0
  0
CLASS
  1
AEC_DISP_REP_MVBLOCK_REF_MODEL
  2
AecDbDispRepMvBlockRefModel
  3
AecBase50|Product Desc: Autodesk Architectural Desktop 2007 |Company: Autodesk,Inc. |WEB Address: www.autodesk.com
 90
    32897
280
     0
281
     0
  0
CLASS
  1
AEC_DISP_REP_OPENING
  2
AecDbDispRepOpening
  3
AecArchBase50|Product Desc: Autodesk Architectural Desktop 2007 |Company: Autodesk,Inc. |WEB Address: www.autodesk.com
 90
    32897
280
     0
281
     0
  0
CLASS
  1
AEC_DISP_REP_OPENING_MODEL
  2
AecDbDispRepOpeningModel
  3
AecArchBase50|Product Desc: Autodesk Architectural Desktop 2007 |Company: Autodesk,Inc. |WEB Address: www.autodesk.com
 90
    32897
280
     0
281
     0
  0
CLASS
  1
AEC_DISP_REP_POLYGON_MODEL
  2
AecDbDispRepPolygonModel
  3
AecBase50|Product Desc: Autodesk Architectural Desktop 2007 |Company: Autodesk,Inc. |WEB Address: www.autodesk.com
 90
    32897
280
     0
281
     0
  0
CLASS
  1
AEC_DISP_REP_RAILING_MODEL
  2
AecDbDispRepRailingModel
  3
AecArchBase50|Product Desc: Autodesk Architectural Desktop 2007 |Company: Autodesk,Inc. |WEB Address: www.autodesk.com
 90
    32897
280
     0
281
     0
  0
CLASS
  1
AEC_DISP_REP_RAILING_PLAN
  2
AecDbDispRepRailingPlan
  3
AecArchBase50|Product Desc: Autodesk Architectural Desktop 2007 |Company: Autodesk,Inc. |WEB Address: www.autodesk.com
 90
    32897
280
     0
281
     0
  0
CLASS
  1
AEC_DISP_REP_ROOF_MODEL
  2
AecDbDispRepRoofModel
  3
AecArchBase50|Product Desc: Autodesk Architectural Desktop 2007 |Company: Autodesk,Inc. |WEB Address: www.autodesk.com
 90
    32897
280
     0
281
     0
  0
CLASS
  1
AEC_DISP_REP_ROOF_PLAN
  2
AecDbDispRepRoofPlan
  3
AecArchBase50|Product Desc: Autodesk Architectural Desktop 2007 |Company: Autodesk,Inc. |WEB Address: www.autodesk.com
 90
    32897
280
     0
281
     0
  0
CLASS
  1
AEC_DISP_REP_ROOFSLAB_MODEL
  2
AecDbDispRepRoofSlabModel
  3
AecArchBase50|Product Desc: Autodesk Architectural Desktop 2007 |Company: Autodesk,Inc. |WEB Address: www.autodesk.com
 90
    32897
280
     0
281
     0
  0
CLASS
  1
AEC_DISP_REP_ROOFSLAB_PLAN
  2
AecDbDispRepRoofSlabPlan
  3
AecArchBase50|Product Desc: Autodesk Architectural Desktop 2007 |Company: Autodesk,Inc. |WEB Address: www.autodesk.com
 90
    32897
280
     0
281
     0
  0
CLASS
  1
AEC_DISP_REP_SCHEDULE_TABLE
  2
AecDbDispRepScheduleTable
  3
AecSchedule50|Product Desc: Autodesk Architectural Desktop 2007 |Company: Autodesk,Inc. |WEB Address: www.autodesk.com
 90
    32897
280
     0
281
     0
  0
CLASS
  1
AEC_DISP_REP_SLAB_MODEL
  2
AecDbDispRepSlabModel
  3
AecArchBase50|Product Desc: Autodesk Architectural Desktop 2007 |Company: Autodesk,Inc. |WEB Address: www.autodesk.com
 90
    32897
280
     0
281
     0
  0
CLASS
  1
AEC_DISP_REP_SLAB_PLAN
  2
AecDbDispRepSlabPlan
  3
AecArchBase50|Product Desc: Autodesk Architectural Desktop 2007 |Company: Autodesk,Inc. |WEB Address: www.autodesk.com
 90
    32897
280
     0
281
     0
  0
CLASS
  1
AEC_DISP_REP_SLICE
  2
AecDbDispRepSlice
  3
AecBase50|Product Desc: Autodesk Architectural Desktop 2007 |Company: Autodesk,Inc. |WEB Address: www.autodesk.com
 90
    32897
280
     0
281
     0
  0
CLASS
  1
AEC_DISP_REP_SPACE_BOUNDARY_MODEL
  2
AecDbDispRepSpaceBoundaryModel
  3
AecArchBase50|Product Desc: Autodesk Architectural Desktop 2007 |Company: Autodesk,Inc. |WEB Address: www.autodesk.com
 90
    32897
280
     0
281
     0
  0
CLASS
  1
AEC_DISP_REP_SPACE_BOUNDARY_PLAN
  2
AecDbDispRepSpaceBoundaryPlan
  3
AecArchBase50|Product Desc: Autodesk Architectural Desktop 2007 |Company: Autodesk,Inc. |WEB Address: www.autodesk.com
 90
    32897
280
     0
281
     0
  0
CLASS
  1
AEC_DISP_REP_SPACE_BOUNDARY_SCHEM
  2
AecDbDispRepSpaceBoundarySketch
  3
AecArchBase50|Product Desc: Autodesk Architectural Desktop 2007 |Company: Autodesk,Inc. |WEB Address: www.autodesk.com
 90
    32897
280
     0
281
     0
  0
CLASS
  1
AEC_DISP_REP_SPACE_MODEL
  2
AecDbDispRepSpaceModel
  3
AecArchBase50|Product Desc: Autodesk Architectural Desktop 2007 |Company: Autodesk,Inc. |WEB Address: www.autodesk.com
 90
    32897
280
     0
281
     0
  0
CLASS
  1
AEC_DISP_REP_SPACE_PLAN
  2
AecDbDispRepSpacePlan
  3
AecArchBase50|Product Desc: Autodesk Architectural Desktop 2007 |Company: Autodesk,Inc. |WEB Address: www.autodesk.com
 90
    32897
280
     0
281
     0
  0
CLASS
  1
AEC_DISP_REP_STAIR_MODEL
  2
AecDbDispRepStairModel
  3
AecArchBase50|Product Desc: Autodesk Architectural Desktop 2007 |Company: Autodesk,Inc. |WEB Address: www.autodesk.com
 90
    32897
280
     0
281
     0
  0
CLASS
  1
AEC_DISP_REP_STAIR_PLAN
  2
AecDbDispRepStairPlan
  3
AecArchBase50|Product Desc: Autodesk Architectural Desktop 2007 |Company: Autodesk,Inc. |WEB Address: www.autodesk.com
 90
    32897
280
     0
281
     0
  0
CLASS
  1
AEC_DISP_REP_WALL_GRAPH
  2
AecDbDispRepWallGraph
  3
AecArchBase50|Product Desc: Autodesk Architectural Desktop 2007 |Company: Autodesk,Inc. |WEB Address: www.autodesk.com
 90
    32897
280
     0
281
     0
  0
CLASS
  1
AEC_DISP_REP_WALL_MODEL
  2
AecDbDispRepWallModel
  3
AecArchBase50|Product Desc: Autodesk Architectural Desktop 2007 |Company: Autodesk,Inc. |WEB Address: www.autodesk.com
 90
    32897
280
     0
281
     0
  0
CLASS
  1
AEC_DISP_REP_WALL_PLAN
  2
AecDbDispRepWallPlan
  3
AecArchBase50|Product Desc: Autodesk Architectural Desktop 2007 |Company: Autodesk,Inc. |WEB Address: www.autodesk.com
 90
    32897
280
     0
281
     0
  0
CLASS
  1
AEC_DISP_REP_WALL_SCHEM
  2
AecDbDispRepWallSchem
  3
AecArchBase50|Product Desc: Autodesk Architectural Desktop 2007 |Company: Autodesk,Inc. |WEB Address: www.autodesk.com
 90
    32897
280
     0
281
     0
  0
CLASS
  1
AEC_DISP_REP_WINDOW_ASSEMBLY_MODEL
  2
AecDbDispRepWindowAssemblyModel
  3
AecArchBase50|Product Desc: Autodesk Architectural Desktop 2007 |Company: Autodesk,Inc. |WEB Address: www.autodesk.com
 90
    32897
280
     0
281
     0
  0
CLASS
  1
AEC_DISP_REP_WINDOW_ASSEMBLY_PLAN
  2
AecDbDispRepWindowAssemblyPlan
  3
AecArchBase50|Product Desc: Autodesk Architectural Desktop 2007 |Company: Autodesk,Inc. |WEB Address: www.autodesk.com
 90
    32897
280
     0
281
     0
  0
CLASS
  1
AEC_AECDBDISPREPWINDOWASSEMBLYPLAN100
  2
AecDbDispRepWindowAssemblyPlan100
  3
AecArchDACHBase50|Product Desc: Autodesk Architectural Desktop 2007 |Company: Autodesk,Inc. |WEB Address: www.autodesk.com
 90
    32897
280
     0
281
     0
  0
CLASS
  1
AEC_DISP_REP_WINDOW_MODEL
  2
AecDbDispRepWindowModel
  3
AecArchBase50|Product Desc: Autodesk Architectural Desktop 2007 |Company: Autodesk,Inc. |WEB Address: www.autodesk.com
 90
    32897
280
     0
281
     0
  0
CLASS
  1
AEC_DISP_REP_WINDOW_NOMINAL
  2
AecDbDispRepWindowNominal
  3
AecArchBase50|Product Desc: Autodesk Architectural Desktop 2007 |Company: Autodesk,Inc. |WEB Address: www.autodesk.com
 90
    32897
280
     0
281
     0
  0
CLASS
  1
AEC_DISP_REP_WINDOW_PLAN
  2
AecDbDispRepWindowPlan
  3
AecArchBase50|Product Desc: Autodesk Architectural Desktop 2007 |Company: Autodesk,Inc. |WEB Address: www.autodesk.com
 90
    32897
280
     0
281
     0
  0
CLASS
  1
AECS_DISP_REP_MEMBER_LOGICAL
  2
AecsDbDispRepMemberLogical
  3
AecStructureBase50|Product Desc: Autodesk Architectural Desktop 2007 |Company: Autodesk,Inc. |WEB Address: www.autodesk.com
 90
    32897
280
     0
281
     0
  0
CLASS
  1
AECS_DISP_REP_MEMBER_MODEL_DESIGN
  2
AecsDbDispRepMemberModelDesign
  3
AecStructureBase50|Product Desc: Autodesk Architectural Desktop 2007 |Company: Autodesk,Inc. |WEB Address: www.autodesk.com
 90
    32897
280
     0
281
     0
  0
CLASS
  1
AECS_DISP_REP_MEMBER_PLAN_DESIGN
  2
AecsDbDispRepMemberPlanDesign
  3
AecStructureBase50|Product Desc: Autodesk Architectural Desktop 2007 |Company: Autodesk,Inc. |WEB Address: www.autodesk.com
 90
    32897
280
     0
281
     0
  0
CLASS
  1
AEC_DISP_PROPS_ENT
  2
AecDbDispPropsEnt
  3
AecBase50|Product Desc: Autodesk Architectural Desktop 2007 |Company: Autodesk,Inc. |WEB Address: www.autodesk.com
 90
    32897
280
     0
281
     0
  0
CLASS
  1
AEC_DISP_PROPS_CLIP_VOLUME
  2
AecDbDispPropsClipVol
  3
AecBase50|Product Desc: Autodesk Architectural Desktop 2007 |Company: Autodesk,Inc. |WEB Address: www.autodesk.com
 90
    32897
280
     0
281
     0
  0
CLASS
  1
AEC_DISP_PROPS_SLICE
  2
AecDbDispPropsSlice
  3
AecBase50|Product Desc: Autodesk Architectural Desktop 2007 |Company: Autodesk,Inc. |WEB Address: www.autodesk.com
 90
    32897
280
     0
281
     0
  0
CLASS
  1
AEC_DISP_PROPS_ROOFSLAB_PLAN
  2
AecDbDispPropsRoofSlabPlan
  3
AecArchBase50|Product Desc: Autodesk Architectural Desktop 2007 |Company: Autodesk,Inc. |WEB Address: www.autodesk.com
 90
    32897
280
     0
281
     0
  0
CLASS
  1
AEC_DISP_PROPS_GRID_ASSEMBLY_MODEL
  2
AecDbDispPropsGridAssemblyModel
  3
AecArchBase50|Product Desc: Autodesk Architectural Desktop 2007 |Company: Autodesk,Inc. |WEB Address: www.autodesk.com
 90
    32897
280
     0
281
     0
  0
CLASS
  1
AEC_DISP_PROPS_ROOF
  2
AecDbDispPropsRoof
  3
AecArchBase50|Product Desc: Autodesk Architectural Desktop 2007 |Company: Autodesk,Inc. |WEB Address: www.autodesk.com
 90
    32897
280
     0
281
     0
  0
CLASS
  1
AEC_DISP_PROPS_SPACE_MODEL
  2
AecDbDispPropsSpaceModel
  3
AecArchBase50|Product Desc: Autodesk Architectural Desktop 2007 |Company: Autodesk,Inc. |WEB Address: www.autodesk.com
 90
    32897
280
     0
281
     0
  0
CLASS
  1
AEC_DISP_PROPS_EDITINPLACEPROFILE_MODEL
  2
AecDbDispPropsEditInPlaceProfile
  3
AecBase50|Product Desc: Autodesk Architectural Desktop 2007 |Company: Autodesk,Inc. |WEB Address: www.autodesk.com
 90
    32897
280
     0
281
     0
  0
CLASS
  1
AEC_DISP_PROPS_DOOR
  2
AecDbDispPropsDoor
  3
AecArchBase50|Product Desc: Autodesk Architectural Desktop 2007 |Company: Autodesk,Inc. |WEB Address: www.autodesk.com
 90
    32897
280
     0
281
     0
  0
CLASS
  1
AEC_DISP_PROPS_MASKBLOCK
  2
AecDbDispPropsMaskBlock
  3
AecBase50|Product Desc: Autodesk Architectural Desktop 2007 |Company: Autodesk,Inc. |WEB Address: www.autodesk.com
 90
    32897
280
     0
281
     0
  0
CLASS
  1
AEC_DISP_PROPS_SPACE_PLAN
  2
AecDbDispPropsSpacePlan
  3
AecArchBase50|Product Desc: Autodesk Architectural Desktop 2007 |Company: Autodesk,Inc. |WEB Address: www.autodesk.com
 90
    32897
280
     0
281
     0
  0
CLASS
  1
AEC_DISP_PROPS_RAILING_PLAN
  2
AecDbDispPropsRailingPlan
  3
AecArchBase50|Product Desc: Autodesk Architectural Desktop 2007 |Company: Autodesk,Inc. |WEB Address: www.autodesk.com
 90
    32897
280
     0
281
     0
  0
CLASS
  1
AEC_DISP_PROPS_LAYOUT_GRID2D
  2
AecDbDispPropsLayoutGrid2d
  3
AecBase50|Product Desc: Autodesk Architectural Desktop 2007 |Company: Autodesk,Inc. |WEB Address: www.autodesk.com
 90
    32897
280
     0
281
     0
  0
CLASS
  1
AEC_DISP_PROPS_CLIP_VOLUME_RESULT
  2
AecDbDispPropsClipVolResSubDiv
  3
AecBase50|Product Desc: Autodesk Architectural Desktop 2007 |Company: Autodesk,Inc. |WEB Address: www.autodesk.com
 90
    32897
280
     0
281
     0
  0
CLASS
  1
AEC_DISP_PROPS_STAIR_MODEL
  2
AecDbDispPropsStairModel
  3
AecArchBase50|Product Desc: Autodesk Architectural Desktop 2007 |Company: Autodesk,Inc. |WEB Address: www.autodesk.com
 90
    32897
280
     0
281
     0
  0
CLASS
  1
AEC_DISP_PROPS_LAYOUT_CURVE
  2
AecDbDispPropsLayoutCurve
  3
AecBase50|Product Desc: Autodesk Architectural Desktop 2007 |Company: Autodesk,Inc. |WEB Address: www.autodesk.com
 90
    32897
280
     0
281
     0
  0
CLASS
  1
AEC_DISP_PROPS_POLYGON_MODEL
  2
AecDbDispPropsPolygonModel
  3
AecBase50|Product Desc: Autodesk Architectural Desktop 2007 |Company: Autodesk,Inc. |WEB Address: www.autodesk.com
 90
    32897
280
     0
281
     0
  0
CLASS
  1
AEC_DISP_PROPS_MASS_GROUP
  2
AecDbDispPropsMassGroup
  3
AecBaseEx50|Product Desc: Autodesk Architectural Desktop 2007 |Company: Autodesk,Inc. |WEB Address: www.autodesk.com
 90
    32897
280
     0
281
     0
  0
CLASS
  1
AEC_DISP_PROPS_STAIR_PLAN
  2
AecDbDispPropsStairPlan
  3
AecArchBase50|Product Desc: Autodesk Architectural Desktop 2007 |Company: Autodesk,Inc. |WEB Address: www.autodesk.com
 90
    32897
280
     0
281
     0
  0
CLASS
  1
AEC_DISP_PROPS_OPENING
  2
AecDbDispPropsOpening
  3
AecArchBase50|Product Desc: Autodesk Architectural Desktop 2007 |Company: Autodesk,Inc. |WEB Address: www.autodesk.com
 90
    32897
280
     0
281
     0
  0
CLASS
  1
AEC_DISP_PROPS_WALL_GRAPH
  2
AecDbDispPropsWallGraph
  3
AecArchBase50|Product Desc: Autodesk Architectural Desktop 2007 |Company: Autodesk,Inc. |WEB Address: www.autodesk.com
 90
    32897
280
     0
281
     0
  0
CLASS
  1
AEC_DISP_PROPS_DOOR_NOMINAL
  2
AecDbDispPropsDoorNominal
  3
AecArchBase50|Product Desc: Autodesk Architectural Desktop 2007 |Company: Autodesk,Inc. |WEB Address: www.autodesk.com
 90
    32897
280
     0
281
     0
  0
CLASS
  1
AEC_DISP_PROPS_SLAB
  2
AecDbDispPropsSlab
  3
AecArchBase50|Product Desc: Autodesk Architectural Desktop 2007 |Company: Autodesk,Inc. |WEB Address: www.autodesk.com
 90
    32897
280
     0
281
     0
  0
CLASS
  1
AEC_DISP_PROPS_WALL_MODEL
  2
AecDbDispPropsWallModel
  3
AecArchBase50|Product Desc: Autodesk Architectural Desktop 2007 |Company: Autodesk,Inc. |WEB Address: www.autodesk.com
 90
    32897
280
     0
281
     0
  0
CLASS
  1
AEC_DISP_PROPS_MATERIAL
  2
AecDbDispPropsMaterial
  3
AecBase50|Product Desc: Autodesk Architectural Desktop 2007 |Company: Autodesk,Inc. |WEB Address: www.autodesk.com
 90
    32897
280
     0
281
     0
  0
CLASS
  1
AEC_DISP_PROPS_WINDOW
  2
AecDbDispPropsWindow
  3
AecArchBase50|Product Desc: Autodesk Architectural Desktop 2007 |Company: Autodesk,Inc. |WEB Address: www.autodesk.com
 90
    32897
280
     0
281
     0
  0
CLASS
  1
AEC_DISP_PROPS_LAYOUT_GRID3D
  2
AecDbDispPropsLayoutGrid3d
  3
AecBase50|Product Desc: Autodesk Architectural Desktop 2007 |Company: Autodesk,Inc. |WEB Address: www.autodesk.com
 90
    32897
280
     0
281
     0
  0
CLASS
  1
AEC_DISP_PROPS_GRID_ASSEMBLY_PLAN
  2
AecDbDispPropsGridAssemblyPlan
  3
AecArchBase50|Product Desc: Autodesk Architectural Desktop 2007 |Company: Autodesk,Inc. |WEB Address: www.autodesk.com
 90
    32897
280
     0
281
     0
  0
CLASS
  1
AEC_DISP_PROPS_WALL_SCHEM
  2
AecDbDispPropsWallSchem
  3
AecArchBase50|Product Desc: Autodesk Architectural Desktop 2007 |Company: Autodesk,Inc. |WEB Address: www.autodesk.com
 90
    32897
280
     0
281
     0
  0
CLASS
  1
AEC_DISP_PROPS_WALL_PLAN
  2
AecDbDispPropsWallPlan
  3
AecArchBase50|Product Desc: Autodesk Architectural Desktop 2007 |Company: Autodesk,Inc. |WEB Address: www.autodesk.com
 90
    32897
280
     0
281
     0
  0
CLASS
  1
AEC_DISP_PROPS_SPACE_BOUNDARY
  2
AecDbDispPropsSpaceBoundary
  3
AecArchBase50|Product Desc: Autodesk Architectural Desktop 2007 |Company: Autodesk,Inc. |WEB Address: www.autodesk.com
 90
    32897
280
     0
281
     0
  0
CLASS
  1
AEC_DISP_PROPS_SLAB_PLAN
  2
AecDbDispPropsSlabPlan
  3
AecArchBase50|Product Desc: Autodesk Architectural Desktop 2007 |Company: Autodesk,Inc. |WEB Address: www.autodesk.com
 90
    32897
280
     0
281
     0
  0
CLASS
  1
AEC_DISP_PROPS_RAILING_MODEL
  2
AecDbDispPropsRailingModel
  3
AecArchBase50|Product Desc: Autodesk Architectural Desktop 2007 |Company: Autodesk,Inc. |WEB Address: www.autodesk.com
 90
    32897
280
     0
281
     0
  0
CLASS
  1
AEC_DISP_PROPS_MASS_ELEM_MODEL
  2
AecDbDispPropsMassElem
  3
AecBaseEx50|Product Desc: Autodesk Architectural Desktop 2007 |Company: Autodesk,Inc. |WEB Address: www.autodesk.com
 90
    32897
280
     0
281
     0
  0
CLASS
  1
AEC_DISP_PROPS_DIM
  2
AecDbDispPropsDimGroup
  3
AecArchDACHBase50|Product Desc: Autodesk Architectural Desktop 2007 |Company: Autodesk,Inc. |WEB Address: www.autodesk.com
 90
    32897
280
     0
281
     0
  0
CLASS
  1
AEC_DISP_PROPS_ROOFSLAB
  2
AecDbDispPropsRoofSlab
  3
AecArchBase50|Product Desc: Autodesk Architectural Desktop 2007 |Company: Autodesk,Inc. |WEB Address: www.autodesk.com
 90
    32897
280
     0
281
     0
  0
CLASS
  1
AEC_DISP_PROPS_ENT_REF
  2
AecDbDispPropsEntRef
  3
AecBase50|Product Desc: Autodesk Architectural Desktop 2007 |Company: Autodesk,Inc. |WEB Address: www.autodesk.com
 90
    32897
280
     0
281
     0
  0
CLASS
  1
AEC_DISP_PROPS_2D_SECTION
  2
AecDbDispProps2dSection
  3
AecBase50|Product Desc: Autodesk Architectural Desktop 2007 |Company: Autodesk,Inc. |WEB Address: www.autodesk.com
 90
    32897
280
     0
281
     0
  0
CLASS
  1
AECS_DISP_PROPS_MEMBER_LOGICAL
  2
AecsDbDispPropsMemberLogical
  3
AecStructureBase50|Product Desc: Autodesk Architectural Desktop 2007 |Company: Autodesk,Inc. |WEB Address: www.autodesk.com
 90
    32897
280
     0
281
     0
  0
CLASS
  1
AEC_DISP_PROPS_AREA_DECOMPOSED
  2
AecDbDispPropsAreaDecomposed
  3
AecAreaCalculationBase50|Product Desc: Autodesk Architectural Desktop 2007 |Company: Autodesk,Inc. |WEB Address: www.autodesk.com
 90
    32897
280
     0
281
     0
  0
CLASS
  1
AEC_DISP_PROPS_CAMERA
  2
AecDbDispPropsCamera
  3
AecBase50|Product Desc: Autodesk Architectural Desktop 2007 |Company: Autodesk,Inc. |WEB Address: www.autodesk.com
 90
    32897
280
     0
281
     0
  0
CLASS
  1
AECS_DISP_PROPS_MEMBER
  2
AecsDbDispPropsMember
  3
AecStructureBase50|Product Desc: Autodesk Architectural Desktop 2007 |Company: Autodesk,Inc. |WEB Address: www.autodesk.com
 90
    32897
280
     0
281
     0
  0
CLASS
  1
AECS_DISP_PROPS_MEMBER_PLAN
  2
AecsDbDispPropsMemberPlan
  3
AecStructureBase50|Product Desc: Autodesk Architectural Desktop 2007 |Company: Autodesk,Inc. |WEB Address: www.autodesk.com
 90
    32897
280
     0
281
     0
  0
CLASS
  1
AEC_DISP_PROPS_AREAGROUP
  2
AecDbDispPropsAreaGroup
  3
AecAreaCalculationBase50|Product Desc: Autodesk Architectural Desktop 2007 |Company: Autodesk,Inc. |WEB Address: www.autodesk.com
 90
    32897
280
     0
281
     0
  0
CLASS
  1
AEC_DISP_PROPS_WINDOW_NOMINAL
  2
AecDbDispPropsWindowNominal
  3
AecArchBase50|Product Desc: Autodesk Architectural Desktop 2007 |Company: Autodesk,Inc. |WEB Address: www.autodesk.com
 90
    32897
280
     0
281
     0
  0
CLASS
  1
AEC_DISP_PROPS_AREA
  2
AecDbDispPropsArea
  3
AecAreaCalculationBase50|Product Desc: Autodesk Architectural Desktop 2007 |Company: Autodesk,Inc. |WEB Address: www.autodesk.com
 90
    32897
280
     0
281
     0
  0
CLASS
  1
AEC_DISP_PROPS_SCHEDULE_TABLE
  2
AecDbDispPropsScheduleTable
  3
AecSchedule50|Product Desc: Autodesk Architectural Desktop 2007 |Company: Autodesk,Inc. |WEB Address: www.autodesk.com
 90
    32897
280
     0
281
     0
  0
CLASS
  1
AEC_LAYERKEY_STYLE
  2
AecDbLayerKeyStyle
  3
AecBase50|Product Desc: Autodesk Architectural Desktop 2007 |Company: Autodesk,Inc. |WEB Address: www.autodesk.com
 90
    32897
280
     0
281
     0
  0
CLASS
  1
AEC_VARS_ARCHBASE
  2
AecDbVarsArchBase
  3
AecArchBase50|Product Desc: Autodesk Architectural Desktop 2007 |Company: Autodesk,Inc. |WEB Address: www.autodesk.com
 90
    32897
280
     0
281
     0
  0
CLASS
  1
AEC_VARS_MUNICH
  2
AecDbVarsMunich
  3
AecArchDACHBase50|Product Desc: Autodesk Architectural Desktop 2007 |Company: Autodesk,Inc. |WEB Address: www.autodesk.com
 90
    32897
280
     0
281
     0
  0
CLASS
  1
AEC_NOTIFICATION_TRACKER
  2
AecDbNotificationTracker
  3
AecBase50|Product Desc: Autodesk Architectural Desktop 2007 |Company: Autodesk,Inc. |WEB Address: www.autodesk.com
 90
    32897
280
     0
281
     0
  0
CLASS
  1
AEC_DISP_REP_ANCHOR
  2
AecDbDispRepAnchor
  3
AecBase50|Product Desc: Autodesk Architectural Desktop 2007 |Company: Autodesk,Inc. |WEB Address: www.autodesk.com
 90
    32897
280
     0
281
     0
  0
CLASS
  1
AEC_DISP_REP_POLYGON_TRUECOLOUR
  2
AecDbDispRepPolygonTrueColour
  3
AecBase50|Product Desc: Autodesk Architectural Desktop 2007 |Company: Autodesk,Inc. |WEB Address: www.autodesk.com
 90
    32897
280
     0
281
     0
  0
CLASS
  1
AEC_DISP_PROPS_POLYGON_TRUECOLOUR
  2
AecDbDispPropsPolygonTrueColour
  3
AecBase50|Product Desc: Autodesk Architectural Desktop 2007 |Company: Autodesk,Inc. |WEB Address: www.autodesk.com
 90
    32897
280
     0
281
     0
  0
CLASS
  1
AEC_DISP_REP_BDG_ELEVLINE_RCP
  2
AecDbDispRepBdgElevLineRcp
  3
AecArchBase50|Product Desc: Autodesk Architectural Desktop 2007 |Company: Autodesk,Inc. |WEB Address: www.autodesk.com
 90
    32897
280
     0
281
     0
  0
CLASS
  1
AEC_DISP_REP_BDG_SECTIONLINE_RCP
  2
AecDbDispRepBdgSectionLineRcp
  3
AecArchBase50|Product Desc: Autodesk Architectural Desktop 2007 |Company: Autodesk,Inc. |WEB Address: www.autodesk.com
 90
    32897
280
     0
281
     0
  0
CLASS
  1
AEC_DISP_REP_BDG_SECTION_MODEL
  2
AecDbDispRepBdgSectionModel
  3
AecArchBase50|Product Desc: Autodesk Architectural Desktop 2007 |Company: Autodesk,Inc. |WEB Address: www.autodesk.com
 90
    32897
280
     0
281
     0
  0
CLASS
  1
AEC_DISP_REP_DOOR_ELEV
  2
AecDbDispRepDoorElev
  3
AecArchBase50|Product Desc: Autodesk Architectural Desktop 2007 |Company: Autodesk,Inc. |WEB Address: www.autodesk.com
 90
    32897
280
     0
281
     0
  0
CLASS
  1
AEC_DISP_REP_DOOR_RCP
  2
AecDbDispRepDoorRcp
  3
AecArchBase50|Product Desc: Autodesk Architectural Desktop 2007 |Company: Autodesk,Inc. |WEB Address: www.autodesk.com
 90
    32897
280
     0
281
     0
  0
CLASS
  1
AEC_DISP_REP_DOOR_THRESHOLD_PLAN
  2
AecDbDispRepDoorThresholdPlan
  3
AecArchBase50|Product Desc: Autodesk Architectural Desktop 2007 |Company: Autodesk,Inc. |WEB Address: www.autodesk.com
 90
    32897
280
     0
281
     0
  0
CLASS
  1
AEC_DISP_PROPS_DOOR_THRESHOLD_PLAN
  2
AecDbDispPropsDoorThresholdPlan
  3
AecArchBase50|Product Desc: Autodesk Architectural Desktop 2007 |Company: Autodesk,Inc. |WEB Address: www.autodesk.com
 90
    32897
280
     0
281
     0
  0
CLASS
  1
AEC_DISP_REP_MASS_ELEM_RCP
  2
AecDbDispRepMassElemRcp
  3
AecArchBase50|Product Desc: Autodesk Architectural Desktop 2007 |Company: Autodesk,Inc. |WEB Address: www.autodesk.com
 90
    32897
280
     0
281
     0
  0
CLASS
  1
AEC_DISP_REP_MASS_GROUP_RCP
  2
AecDbDispRepMassGroupRcp
  3
AecArchBase50|Product Desc: Autodesk Architectural Desktop 2007 |Company: Autodesk,Inc. |WEB Address: www.autodesk.com
 90
    32897
280
     0
281
     0
  0
CLASS
  1
AEC_DISP_REP_MVBLOCK_REF_RCP
  2
AecDbDispRepMvBlockRefRcp
  3
AecArchBase50|Product Desc: Autodesk Architectural Desktop 2007 |Company: Autodesk,Inc. |WEB Address: www.autodesk.com
 90
    32897
280
     0
281
     0
  0
CLASS
  1
AEC_DISP_REP_ROOF_RCP
  2
AecDbDispRepRoofRcp
  3
AecArchBase50|Product Desc: Autodesk Architectural Desktop 2007 |Company: Autodesk,Inc. |WEB Address: www.autodesk.com
 90
    32897
280
     0
281
     0
  0
CLASS
  1
AEC_DISP_REP_SPACE_BOUNDARY_DIAGRAM
  2
AecDbDispRepSpaceBoundaryDgrm
  3
AecArchBase50|Product Desc: Autodesk Architectural Desktop 2007 |Company: Autodesk,Inc. |WEB Address: www.autodesk.com
 90
    32897
280
     0
281
     0
  0
CLASS
  1
AEC_DISP_REP_SPACE_RCP
  2
AecDbDispRepSpaceRcp
  3
AecArchBase50|Product Desc: Autodesk Architectural Desktop 2007 |Company: Autodesk,Inc. |WEB Address: www.autodesk.com
 90
    32897
280
     0
281
     0
  0
CLASS
  1
AEC_DISP_REP_SPACE_VOLUME
  2
AecDbDispRepSpaceVolume
  3
AecArchBase50|Product Desc: Autodesk Architectural Desktop 2007 |Company: Autodesk,Inc. |WEB Address: www.autodesk.com
 90
    32897
280
     0
281
     0
  0
CLASS
  1
AEC_DISP_REP_STAIR_PLAN_OVERLAPPING
  2
AecDbDispRepStairPlanOverlapping
  3
AecArchBase50|Product Desc: Autodesk Architectural Desktop 2007 |Company: Autodesk,Inc. |WEB Address: www.autodesk.com
 90
    32897
280
     0
281
     0
  0
CLASS
  1
AEC_DISP_PROPS_STAIR_PLAN_OVERLAPPING
  2
AecDbDispPropsStairPlanOverlapping
  3
AecArchBase50|Product Desc: Autodesk Architectural Desktop 2007 |Company: Autodesk,Inc. |WEB Address: www.autodesk.com
 90
    32897
280
     0
281
     0
  0
CLASS
  1
AEC_DISP_REP_STAIR_RCP
  2
AecDbDispRepStairRcp
  3
AecArchBase50|Product Desc: Autodesk Architectural Desktop 2007 |Company: Autodesk,Inc. |WEB Address: www.autodesk.com
 90
    32897
280
     0
281
     0
  0
CLASS
  1
AEC_DISP_REP_WALL_RCP
  2
AecDbDispRepWallRcp
  3
AecArchBase50|Product Desc: Autodesk Architectural Desktop 2007 |Company: Autodesk,Inc. |WEB Address: www.autodesk.com
 90
    32897
280
     0
281
     0
  0
CLASS
  1
AEC_DISP_REP_WINDOWASSEMBLY_SILL_PLAN
  2
AecDbDispRepWindowAssemblySillPlan
  3
AecArchBase50|Product Desc: Autodesk Architectural Desktop 2007 |Company: Autodesk,Inc. |WEB Address: www.autodesk.com
 90
    32897
280
     0
281
     0
  0
CLASS
  1
AEC_DISP_PROPS_WINDOW_ASSEMBLY_SILL_PLAN
  2
AecDbDispPropsWindowAssemblySillPlan
  3
AecArchBase50|Product Desc: Autodesk Architectural Desktop 2007 |Company: Autodesk,Inc. |WEB Address: www.autodesk.com
 90
    32897
280
     0
281
     0
  0
CLASS
  1
AEC_DISP_REP_WINDOW_ELEV
  2
AecDbDispRepWindowElev
  3
AecArchBase50|Product Desc: Autodesk Architectural Desktop 2007 |Company: Autodesk,Inc. |WEB Address: www.autodesk.com
 90
    32897
280
     0
281
     0
  0
CLASS
  1
AEC_DISP_REP_WINDOW_RCP
  2
AecDbDispRepWindowRcp
  3
AecArchBase50|Product Desc: Autodesk Architectural Desktop 2007 |Company: Autodesk,Inc. |WEB Address: www.autodesk.com
 90
    32897
280
     0
281
     0
  0
CLASS
  1
AEC_DISP_REP_WINDOW_SILL_PLAN
  2
AecDbDispRepWindowSillPlan
  3
AecArchBase50|Product Desc: Autodesk Architectural Desktop 2007 |Company: Autodesk,Inc. |WEB Address: www.autodesk.com
 90
    32897
280
     0
281
     0
  0
CLASS
  1
AEC_DISP_PROPS_WINDOW_SILL_PLAN
  2
AecDbDispPropsWindowSillPlan
  3
AecArchBase50|Product Desc: Autodesk Architectural Desktop 2007 |Company: Autodesk,Inc. |WEB Address: www.autodesk.com
 90
    32897
280
     0
281
     0
  0
CLASS
  1
AEC_DISP_REP_ANCHOR_BUB_TO_GRID_RCP
  2
AecDbDispRepAnchorBubToGridRcp
  3
AecStructureBase50|Product Desc: Autodesk Architectural Desktop 2007 |Company: Autodesk,Inc. |WEB Address: www.autodesk.com
 90
    32897
280
     0
281
     0
  0
CLASS
  1
AEC_DISP_REP_COLUMN_GRID_RCP
  2
AecDbDispRepColumnGridRcp
  3
AecStructureBase50|Product Desc: Autodesk Architectural Desktop 2007 |Company: Autodesk,Inc. |WEB Address: www.autodesk.com
 90
    32897
280
     0
281
     0
  0
CLASS
  1
AECS_DISP_REP_MEMBER_ELEVATION_DESIGN
  2
AecsDbDispRepMemberElevationDesign
  3
AecStructureBase50|Product Desc: Autodesk Architectural Desktop 2007 |Company: Autodesk,Inc. |WEB Address: www.autodesk.com
 90
    32897
280
     0
281
     0
  0
CLASS
  1
AECS_DISP_PROPS_MEMBER_PROJECTED
  2
AecsDbDispPropsMemberProjected
  3
AecStructureBase50|Product Desc: Autodesk Architectural Desktop 2007 |Company: Autodesk,Inc. |WEB Address: www.autodesk.com
 90
    32897
280
     0
281
     0
  0
CLASS
  1
AECS_DISP_REP_MEMBER_ELEVATION_DETAIL
  2
AecsDbDispRepMemberElevationDetail
  3
AecStructureBase50|Product Desc: Autodesk Architectural Desktop 2007 |Company: Autodesk,Inc. |WEB Address: www.autodesk.com
 90
    32897
280
     0
281
     0
  0
CLASS
  1
AECS_DISP_REP_MEMBER_MODEL_DETAIL
  2
AecsDbDispRepMemberModelDetail
  3
AecStructureBase50|Product Desc: Autodesk Architectural Desktop 2007 |Company: Autodesk,Inc. |WEB Address: www.autodesk.com
 90
    32897
280
     0
281
     0
  0
CLASS
  1
AECS_DISP_REP_MEMBER_PLAN_DETAIL
  2
AecsDbDispRepMemberPlanDetail
  3
AecStructureBase50|Product Desc: Autodesk Architectural Desktop 2007 |Company: Autodesk,Inc. |WEB Address: www.autodesk.com
 90
    32897
280
     0
281
     0
  0
CLASS
  1
AECS_DISP_REP_MEMBER_PLAN_SKETCH
  2
AecsDbDispRepMemberPlanSketch
  3
AecStructureBase50|Product Desc: Autodesk Architectural Desktop 2007 |Company: Autodesk,Inc. |WEB Address: www.autodesk.com
 90
    32897
280
     0
281
     0
  0
CLASS
  1
AECS_DISP_PROPS_MEMBER_PLAN_SKETCH
  2
AecsDbDispPropsMemberPlanSketch
  3
AecStructureBase50|Product Desc: Autodesk Architectural Desktop 2007 |Company: Autodesk,Inc. |WEB Address: www.autodesk.com
 90
    32897
280
     0
281
     0
  0
CLASS
  1
AEC_AECDBDISPREPAREA100
  2
AecDbDispRepArea100
  3
AecArchDACHBase50|Product Desc: Autodesk Architectural Desktop 2007 |Company: Autodesk,Inc. |WEB Address: www.autodesk.com
 90
    32897
280
     0
281
     0
  0
CLASS
  1
AEC_AECDBDISPREPAREAGROUP100
  2
AecDbDispRepAreaGroup100
  3
AecArchDACHBase50|Product Desc: Autodesk Architectural Desktop 2007 |Company: Autodesk,Inc. |WEB Address: www.autodesk.com
 90
    32897
280
     0
281
     0
  0
CLASS
  1
AEC_AECDBDISPREPBDGELEVLINEPLAN100
  2
AecDbDispRepBdgElevLinePlan100
  3
AecArchDACHBase50|Product Desc: Autodesk Architectural Desktop 2007 |Company: Autodesk,Inc. |WEB Address: www.autodesk.com
 90
    32897
280
     0
281
     0
  0
CLASS
  1
AEC_AECDBDISPREPBDGSECTIONLINEPLAN100
  2
AecDbDispRepBdgSectionLinePlan100
  3
AecArchDACHBase50|Product Desc: Autodesk Architectural Desktop 2007 |Company: Autodesk,Inc. |WEB Address: www.autodesk.com
 90
    32897
280
     0
281
     0
  0
CLASS
  1
AEC_AECDBDISPREPCEILINGGRIDPLAN100
  2
AecDbDispRepCeilingGridPlan100
  3
AecArchDACHBase50|Product Desc: Autodesk Architectural Desktop 2007 |Company: Autodesk,Inc. |WEB Address: www.autodesk.com
 90
    32897
280
     0
281
     0
  0
CLASS
  1
AEC_AECDBDISPREPCOLUMNGRIDPLAN100
  2
AecDbDispRepColumnGridPlan100
  3
AecArchDACHBase50|Product Desc: Autodesk Architectural Desktop 2007 |Company: Autodesk,Inc. |WEB Address: www.autodesk.com
 90
    32897
280
     0
281
     0
  0
CLASS
  1
AEC_AECDBDISPREPCURTAINWALLLAYOUTPLAN100
  2
AecDbDispRepCurtainWallLayoutPlan100
  3
AecArchDACHBase50|Product Desc: Autodesk Architectural Desktop 2007 |Company: Autodesk,Inc. |WEB Address: www.autodesk.com
 90
    32897
280
     0
281
     0
  0
CLASS
  1
AEC_AECDBDISPREPCURTAINWALLUNITPLAN100
  2
AecDbDispRepCurtainWallUnitPlan100
  3
AecArchDACHBase50|Product Desc: Autodesk Architectural Desktop 2007 |Company: Autodesk,Inc. |WEB Address: www.autodesk.com
 90
    32897
280
     0
281
     0
  0
CLASS
  1
AEC_AECDBDISPREPMVBLOCKREFPLAN100
  2
AecDbDispRepMvBlockRefPlan100
  3
AecArchDACHBase50|Product Desc: Autodesk Architectural Desktop 2007 |Company: Autodesk,Inc. |WEB Address: www.autodesk.com
 90
    32897
280
     0
281
     0
  0
CLASS
  1
AEC_AECDBDISPREPROOFPLAN100
  2
AecDbDispRepRoofPlan100
  3
AecArchDACHBase50|Product Desc: Autodesk Architectural Desktop 2007 |Company: Autodesk,Inc. |WEB Address: www.autodesk.com
 90
    32897
280
     0
281
     0
  0
CLASS
  1
AEC_AECDBDISPREPROOFSLABPLAN100
  2
AecDbDispRepRoofSlabPlan100
  3
AecArchDACHBase50|Product Desc: Autodesk Architectural Desktop 2007 |Company: Autodesk,Inc. |WEB Address: www.autodesk.com
 90
    32897
280
     0
281
     0
  0
CLASS
  1
AEC_AECDBDISPREPSLABPLAN100
  2
AecDbDispRepSlabPlan100
  3
AecArchDACHBase50|Product Desc: Autodesk Architectural Desktop 2007 |Company: Autodesk,Inc. |WEB Address: www.autodesk.com
 90
    32897
280
     0
281
     0
  0
CLASS
  1
AEC_AECDBDISPREPSPACEBOUNDARYPLAN100
  2
AecDbDispRepSpaceBoundaryPlan100
  3
AecArchDACHBase50|Product Desc: Autodesk Architectural Desktop 2007 |Company: Autodesk,Inc. |WEB Address: www.autodesk.com
 90
    32897
280
     0
281
     0
  0
CLASS
  1
AEC_AECDBDISPREPSPACEPLAN100
  2
AecDbDispRepSpacePlan100
  3
AecArchDACHBase50|Product Desc: Autodesk Architectural Desktop 2007 |Company: Autodesk,Inc. |WEB Address: www.autodesk.com
 90
    32897
280
     0
281
     0
  0
CLASS
  1
AEC_AECDBDISPREPWALLPLAN100
  2
AecDbDispRepWallPlan100
  3
AecArchDACHBase50|Product Desc: Autodesk Architectural Desktop 2007 |Company: Autodesk,Inc. |WEB Address: www.autodesk.com
 90
    32897
280
     0
281
     0
  0
CLASS
  1
AEC_AECDBDISPREPAREA50
  2
AecDbDispRepArea50
  3
AecArchDACHBase50|Product Desc: Autodesk Architectural Desktop 2007 |Company: Autodesk,Inc. |WEB Address: www.autodesk.com
 90
    32897
280
     0
281
     0
  0
CLASS
  1
AEC_AECDBDISPREPAREAGROUP50
  2
AecDbDispRepAreaGroup50
  3
AecArchDACHBase50|Product Desc: Autodesk Architectural Desktop 2007 |Company: Autodesk,Inc. |WEB Address: www.autodesk.com
 90
    32897
280
     0
281
     0
  0
CLASS
  1
AEC_AECDBDISPREPBDGELEVLINEPLAN50
  2
AecDbDispRepBdgElevLinePlan50
  3
AecArchDACHBase50|Product Desc: Autodesk Architectural Desktop 2007 |Company: Autodesk,Inc. |WEB Address: www.autodesk.com
 90
    32897
280
     0
281
     0
  0
CLASS
  1
AEC_AECDBDISPREPBDGSECTIONLINEPLAN50
  2
AecDbDispRepBdgSectionLinePlan50
  3
AecArchDACHBase50|Product Desc: Autodesk Architectural Desktop 2007 |Company: Autodesk,Inc. |WEB Address: www.autodesk.com
 90
    32897
280
     0
281
     0
  0
CLASS
  1
AEC_AECDBDISPREPCEILINGGRIDPLAN50
  2
AecDbDispRepCeilingGridPlan50
  3
AecArchDACHBase50|Product Desc: Autodesk Architectural Desktop 2007 |Company: Autodesk,Inc. |WEB Address: www.autodesk.com
 90
    32897
280
     0
281
     0
  0
CLASS
  1
AEC_AECDBDISPREPCOLUMNGRIDPLAN50
  2
AecDbDispRepColumnGridPlan50
  3
AecArchDACHBase50|Product Desc: Autodesk Architectural Desktop 2007 |Company: Autodesk,Inc. |WEB Address: www.autodesk.com
 90
    32897
280
     0
281
     0
  0
CLASS
  1
AEC_AECDBDISPREPCURTAINWALLLAYOUTPLAN50
  2
AecDbDispRepCurtainWallLayoutPlan50
  3
AecArchDACHBase50|Product Desc: Autodesk Architectural Desktop 2007 |Company: Autodesk,Inc. |WEB Address: www.autodesk.com
 90
    32897
280
     0
281
     0
  0
CLASS
  1
AEC_AECDBDISPREPCURTAINWALLUNITPLAN50
  2
AecDbDispRepCurtainWallUnitPlan50
  3
AecArchDACHBase50|Product Desc: Autodesk Architectural Desktop 2007 |Company: Autodesk,Inc. |WEB Address: www.autodesk.com
 90
    32897
280
     0
281
     0
  0
CLASS
  1
AEC_AECDBDISPREPMVBLOCKREFPLAN50
  2
AecDbDispRepMvBlockRefPlan50
  3
AecArchDACHBase50|Product Desc: Autodesk Architectural Desktop 2007 |Company: Autodesk,Inc. |WEB Address: www.autodesk.com
 90
    32897
280
     0
281
     0
  0
CLASS
  1
AEC_AECDBDISPREPROOFPLAN50
  2
AecDbDispRepRoofPlan50
  3
AecArchDACHBase50|Product Desc: Autodesk Architectural Desktop 2007 |Company: Autodesk,Inc. |WEB Address: www.autodesk.com
 90
    32897
280
     0
281
     0
  0
CLASS
  1
AEC_AECDBDISPREPROOFSLABPLAN50
  2
AecDbDispRepRoofSlabPlan50
  3
AecArchDACHBase50|Product Desc: Autodesk Architectural Desktop 2007 |Company: Autodesk,Inc. |WEB Address: www.autodesk.com
 90
    32897
280
     0
281
     0
  0
CLASS
  1
AEC_AECDBDISPREPSLABPLAN50
  2
AecDbDispRepSlabPlan50
  3
AecArchDACHBase50|Product Desc: Autodesk Architectural Desktop 2007 |Company: Autodesk,Inc. |WEB Address: www.autodesk.com
 90
    32897
280
     0
281
     0
  0
CLASS
  1
AEC_AECDBDISPREPSPACEBOUNDARYPLAN50
  2
AecDbDispRepSpaceBoundaryPlan50
  3
AecArchDACHBase50|Product Desc: Autodesk Architectural Desktop 2007 |Company: Autodesk,Inc. |WEB Address: www.autodesk.com
 90
    32897
280
     0
281
     0
  0
CLASS
  1
AEC_AECDBDISPREPSPACEPLAN50
  2
AecDbDispRepSpacePlan50
  3
AecArchDACHBase50|Product Desc: Autodesk Architectural Desktop 2007 |Company: Autodesk,Inc. |WEB Address: www.autodesk.com
 90
    32897
280
     0
281
     0
  0
CLASS
  1
AEC_AECDBDISPREPWALLPLAN50
  2
AecDbDispRepWallPlan50
  3
AecArchDACHBase50|Product Desc: Autodesk Architectural Desktop 2007 |Company: Autodesk,Inc. |WEB Address: www.autodesk.com
 90
    32897
280
     0
281
     0
  0
CLASS
  1
AEC_AECDBDISPREPWINDOWASSEMBLYPLAN50
  2
AecDbDispRepWindowAssemblyPlan50
  3
AecArchDACHBase50|Product Desc: Autodesk Architectural Desktop 2007 |Company: Autodesk,Inc. |WEB Address: www.autodesk.com
 90
    32897
280
     0
281
     0
  0
CLASS
  1
AEC_DB_DISP_REP_DIM_GROUP_PLAN100
  2
AecDbDispRepDimGroupPlan100
  3
AecArchDACHBase50|Product Desc: Autodesk Architectural Desktop 2007 |Company: Autodesk,Inc. |WEB Address: www.autodesk.com
 90
    32897
280
     0
281
     0
  0
CLASS
  1
AEC_DB_DISP_REP_DIM_GROUP_PLAN50
  2
AecDbDispRepDimGroupPlan50
  3
AecArchDACHBase50|Product Desc: Autodesk Architectural Desktop 2007 |Company: Autodesk,Inc. |WEB Address: www.autodesk.com
 90
    32897
280
     0
281
     0
  0
CLASS
  1
AEC_DISP_REP_DOOR_PLAN_50
  2
AecDbDispRepDoorPlan50
  3
AecArchDACHBase50|Product Desc: Autodesk Architectural Desktop 2007 |Company: Autodesk,Inc. |WEB Address: www.autodesk.com
 90
    32897
280
     0
281
     0
  0
CLASS
  1
AEC_DISP_PROPS_DOOR_PLAN_50
  2
AecDbDispPropsDoorPlan50
  3
AecArchDACHBase50|Product Desc: Autodesk Architectural Desktop 2007 |Company: Autodesk,Inc. |WEB Address: www.autodesk.com
 90
    32897
280
     0
281
     0
  0
CLASS
  1
AEC_DISP_REP_DOOR_PLAN_HEKTO
  2
AecDbDispRepDoorPlanHekto
  3
AecArchDACHBase50|Product Desc: Autodesk Architectural Desktop 2007 |Company: Autodesk,Inc. |WEB Address: www.autodesk.com
 90
    32897
280
     0
281
     0
  0
CLASS
  1
AEC_DISP_PROPS_DOOR_PLAN_100
  2
AecDbDispPropsDoorPlan100
  3
AecArchDACHBase50|Product Desc: Autodesk Architectural Desktop 2007 |Company: Autodesk,Inc. |WEB Address: www.autodesk.com
 90
    32897
280
     0
281
     0
  0
CLASS
  1
AEC_DISP_REP_DOOR_THRESHOLD_SYMBOL_PLAN
  2
AecDbDispRepDoorThresholdSymbolPlan
  3
AecArchDACHBase50|Product Desc: Autodesk Architectural Desktop 2007 |Company: Autodesk,Inc. |WEB Address: www.autodesk.com
 90
    32897
280
     0
281
     0
  0
CLASS
  1
AEC_DISP_PROPS_DOOR_THRESHOLD_SYMBOL_PLAN
  2
AecDbDispPropsDoorThresholdSymbolPlan
  3
AecArchDACHBase50|Product Desc: Autodesk Architectural Desktop 2007 |Company: Autodesk,Inc. |WEB Address: www.autodesk.com
 90
    32897
280
     0
281
     0
  0
CLASS
  1
AEC_DISPREPAECDBDISPREPMASSELEMPLAN100
  2
AecDbDispRepMassElemPlan100
  3
AecArchDACHBase50|Product Desc: Autodesk Architectural Desktop 2007 |Company: Autodesk,Inc. |WEB Address: www.autodesk.com
 90
    32897
280
     0
281
     0
  0
CLASS
  1
AEC_DISPROPSMASSELEMPLANCOMMON
  2
AecDbDispPropsMassElemPlanCommon
  3
AecArchDACHBase50|Product Desc: Autodesk Architectural Desktop 2007 |Company: Autodesk,Inc. |WEB Address: www.autodesk.com
 90
    32897
280
     0
281
     0
  0
CLASS
  1
AEC_DISPREPAECDBDISPREPMASSELEMPLAN50
  2
AecDbDispRepMassElemPlan50
  3
AecArchDACHBase50|Product Desc: Autodesk Architectural Desktop 2007 |Company: Autodesk,Inc. |WEB Address: www.autodesk.com
 90
    32897
280
     0
281
     0
  0
CLASS
  1
AEC_DISPREPAECDBDISPREPMASSGROUPPLAN100
  2
AecDbDispRepMassGroupPlan100
  3
AecArchDACHBase50|Product Desc: Autodesk Architectural Desktop 2007 |Company: Autodesk,Inc. |WEB Address: www.autodesk.com
 90
    32897
280
     0
281
     0
  0
CLASS
  1
AEC_DISPROPSMASSGROUPPLANCOMMON
  2
AecDbDispPropsMassGroupPlanCommon
  3
AecArchDACHBase50|Product Desc: Autodesk Architectural Desktop 2007 |Company: Autodesk,Inc. |WEB Address: www.autodesk.com
 90
    32897
280
     0
281
     0
  0
CLASS
  1
AEC_DISPREPAECDBDISPREPMASSGROUPPLAN50
  2
AecDbDispRepMassGroupPlan50
  3
AecArchDACHBase50|Product Desc: Autodesk Architectural Desktop 2007 |Company: Autodesk,Inc. |WEB Address: www.autodesk.com
 90
    32897
280
     0
281
     0
  0
CLASS
  1
AEC_DISPREPAECDBDISPREPOPENINGPLAN100
  2
AecDbDispRepOpeningPlan100
  3
AecArchDACHBase50|Product Desc: Autodesk Architectural Desktop 2007 |Company: Autodesk,Inc. |WEB Address: www.autodesk.com
 90
    32897
280
     0
281
     0
  0
CLASS
  1
AEC_DISPROPSOPENINGPLANCOMMONHATCHED
  2
AecDbDispPropsOpeningPlanCommonHatched
  3
AecArchDACHBase50|Product Desc: Autodesk Architectural Desktop 2007 |Company: Autodesk,Inc. |WEB Address: www.autodesk.com
 90
    32897
280
     0
281
     0
  0
CLASS
  1
AEC_DISPREPAECDBDISPREPOPENINGPLAN50
  2
AecDbDispRepOpeningPlan50
  3
AecArchDACHBase50|Product Desc: Autodesk Architectural Desktop 2007 |Company: Autodesk,Inc. |WEB Address: www.autodesk.com
 90
    32897
280
     0
281
     0
  0
CLASS
  1
AEC_DISPREPAECDBDISPREPOPENINGPLANREFLECTED
  2
AecDbDispRepOpeningPlanReflected
  3
AecArchDACHBase50|Product Desc: Autodesk Architectural Desktop 2007 |Company: Autodesk,Inc. |WEB Address: www.autodesk.com
 90
    32897
280
     0
281
     0
  0
CLASS
  1
AEC_DISPROPSOPENINGPLANCOMMON
  2
AecDbDispPropsOpeningPlanCommon
  3
AecArchDACHBase50|Product Desc: Autodesk Architectural Desktop 2007 |Company: Autodesk,Inc. |WEB Address: www.autodesk.com
 90
    32897
280
     0
281
     0
  0
CLASS
  1
AEC_DISPREPAECDBDISPREPOPENINGSILLPLAN
  2
AecDbDispRepOpeningSillPlan
  3
AecArchDACHBase50|Product Desc: Autodesk Architectural Desktop 2007 |Company: Autodesk,Inc. |WEB Address: www.autodesk.com
 90
    32897
280
     0
281
     0
  0
CLASS
  1
AEC_DISPROPSOPENINGSILLPLAN
  2
AecDbDispPropsOpeningSillPlan
  3
AecArchDACHBase50|Product Desc: Autodesk Architectural Desktop 2007 |Company: Autodesk,Inc. |WEB Address: www.autodesk.com
 90
    32897
280
     0
281
     0
  0
CLASS
  1
AEC_DISP_REP_RAILING_PLAN_100
  2
AecDbDispRepRailingPlan100
  3
AecArchDACHBase50|Product Desc: Autodesk Architectural Desktop 2007 |Company: Autodesk,Inc. |WEB Address: www.autodesk.com
 90
    32897
280
     0
281
     0
  0
CLASS
  1
AEC_DISP_ROPS_RAILING_PLAN_100
  2
AecDbDispPropsRailingPlan100
  3
AecArchDACHBase50|Product Desc: Autodesk Architectural Desktop 2007 |Company: Autodesk,Inc. |WEB Address: www.autodesk.com
 90
    32897
280
     0
281
     0
  0
CLASS
  1
AEC_DISP_REP_RAILING_PLAN_50
  2
AecDbDispRepRailingPlan50
  3
AecArchDACHBase50|Product Desc: Autodesk Architectural Desktop 2007 |Company: Autodesk,Inc. |WEB Address: www.autodesk.com
 90
    32897
280
     0
281
     0
  0
CLASS
  1
AEC_DISP_ROPS_RAILING_PLAN_50
  2
AecDbDispPropsRailingPlan50
  3
AecArchDACHBase50|Product Desc: Autodesk Architectural Desktop 2007 |Company: Autodesk,Inc. |WEB Address: www.autodesk.com
 90
    32897
280
     0
281
     0
  0
CLASS
  1
AEC_DISP_REP_STAIR_PLAN_100
  2
AecDbDispRepStairPlan100
  3
AecArchDACHBase50|Product Desc: Autodesk Architectural Desktop 2007 |Company: Autodesk,Inc. |WEB Address: www.autodesk.com
 90
    32897
280
     0
281
     0
  0
CLASS
  1
AEC_DISP_ROPS_STAIR_PLAN_100
  2
AecDbDispPropsStairPlan100
  3
AecArchDACHBase50|Product Desc: Autodesk Architectural Desktop 2007 |Company: Autodesk,Inc. |WEB Address: www.autodesk.com
 90
    32897
280
     0
281
     0
  0
CLASS
  1
AEC_DISP_REP_STAIR_PLAN_50
  2
AecDbDispRepStairPlan50
  3
AecArchDACHBase50|Product Desc: Autodesk Architectural Desktop 2007 |Company: Autodesk,Inc. |WEB Address: www.autodesk.com
 90
    32897
280
     0
281
     0
  0
CLASS
  1
AEC_DISP_ROPS_STAIR_PLAN_50
  2
AecDbDispPropsStairPlan50
  3
AecArchDACHBase50|Product Desc: Autodesk Architectural Desktop 2007 |Company: Autodesk,Inc. |WEB Address: www.autodesk.com
 90
    32897
280
     0
281
     0
  0
CLASS
  1
AEC_DISP_REP_WINDOW_PLAN_100
  2
AecDbDispRepWindowPlan100
  3
AecArchDACHBase50|Product Desc: Autodesk Architectural Desktop 2007 |Company: Autodesk,Inc. |WEB Address: www.autodesk.com
 90
    32897
280
     0
281
     0
  0
CLASS
  1
AEC_DISP_PROPS_WINDOW_PLAN_100
  2
AecDbDispPropsWindowPlan100
  3
AecArchDACHBase50|Product Desc: Autodesk Architectural Desktop 2007 |Company: Autodesk,Inc. |WEB Address: www.autodesk.com
 90
    32897
280
     0
281
     0
  0
CLASS
  1
AEC_DISP_REP_WINDOW_PLAN_50
  2
AecDbDispRepWindowPlan50
  3
AecArchDACHBase50|Product Desc: Autodesk Architectural Desktop 2007 |Company: Autodesk,Inc. |WEB Address: www.autodesk.com
 90
    32897
280
     0
281
     0
  0
CLASS
  1
AEC_DISP_PROPS_WINDOW_PLAN_50
  2
AecDbDispPropsWindowPlan50
  3
AecArchDACHBase50|Product Desc: Autodesk Architectural Desktop 2007 |Company: Autodesk,Inc. |WEB Address: www.autodesk.com
 90
    32897
280
     0
281
     0
  0
CLASS
  1
BINRECORD
  2
AcAecBinRecord
  3
AecBase50|Product Desc: Autodesk Architectural Desktop 2007 |Company: Autodesk,Inc. |WEB Address: www.autodesk.com
 90
    32897
280
     0
281
     0
  0
CLASS
  1
SORTENTSTABLE
  2
AcDbSortentsTable
  3
ObjectDBX Classes
 90
        0
280
     0
281
     0
  0
CLASS
  1
AEC_MASS_ELEM
  2
AecDbMassElem
  3
AecBaseEx50|Product Desc: Autodesk Architectural Desktop 2007 |Company: Autodesk,Inc. |WEB Address: www.autodesk.com
 90
    33661
280
     0
281
     1
  0
CLASS
  1
MATERIAL
  2
AcDbMaterial
  3
ObjectDBX Classes
 90
     1153
280
     0
281
     0
  0
CLASS
  1
AECS_MEMBER
  2
AecsDbMember
  3
AecStructureBase50|Product Desc: Autodesk Architectural Desktop 2007 |Company: Autodesk,Inc. |WEB Address: www.autodesk.com
 90
    33661
280
     0
281
     1
  0
CLASS
  1
AEC_WALL
  2
AecDbWall
  3
AecArchBase50|Product Desc: Autodesk Architectural Desktop 2007 |Company: Autodesk,Inc. |WEB Address: www.autodesk.com
 90
    33661
280
     0
281
     1
  0
CLASS
  1
AEC_DOOR
  2
AecDbDoor
  3
AecArchBase50|Product Desc: Autodesk Architectural Desktop 2007 |Company: Autodesk,Inc. |WEB Address: www.autodesk.com
 90
    33661
280
     0
281
     1
  0
CLASS
  1
AEC_ANCHOR_OPENINGBASE_TO_WALL
  2
AecDbAnchorOpeningBaseToWall
  3
AecArchBase50|Product Desc: Autodesk Architectural Desktop 2007 |Company: Autodesk,Inc. |WEB Address: www.autodesk.com
 90
    32897
280
     0
281
     0
  0
CLASS
  1
AEC_SPACE_BOUNDARY
  2
AecDbSpaceBoundary
  3
AecArchBase50|Product Desc: Autodesk Architectural Desktop 2007 |Company: Autodesk,Inc. |WEB Address: www.autodesk.com
 90
    33661
280
     0
281
     1
  0
CLASS
  1
AEC_SPACE
  2
AecDbSpace
  3
AecArchBase50|Product Desc: Autodesk Architectural Desktop 2007 |Company: Autodesk,Inc. |WEB Address: www.autodesk.com
 90
    33661
280
     0
281
     1
  0
CLASS
  1
AecDbPropertySet
  2
AecDbPropertySet
  3
AecScheduleData50|Product Desc: Autodesk Architectural Desktop 2007 |Company: Autodesk,Inc. |WEB Address: www.autodesk.com
 90
    32897
280
     0
281
     0
  0
CLASS
  1
AEC_MVBLOCK_REF
  2
AecDbMvBlockRef
  3
AecBase50|Product Desc: Autodesk Architectural Desktop 2007 |Company: Autodesk,Inc. |WEB Address: www.autodesk.com
 90
    33661
280
     0
281
     1
  0
CLASS
  1
AEC_ANCHOR_TAG_TO_ENT
  2
AecDbAnchorTagToEnt
  3
AecScheduleData50|Product Desc: Autodesk Architectural Desktop 2007 |Company: Autodesk,Inc. |WEB Address: www.autodesk.com
 90
    32897
280
     0
281
     0
  0
CLASS
  1
AEC_WINDOW
  2
AecDbWindow
  3
AecArchBase50|Product Desc: Autodesk Architectural Desktop 2007 |Company: Autodesk,Inc. |WEB Address: www.autodesk.com
 90
    33661
280
     0
281
     1
  0
CLASS
  1
AEC_OPENING
  2
AecDbOpening
  3
AecArchBase50|Product Desc: Autodesk Architectural Desktop 2007 |Company: Autodesk,Inc. |WEB Address: www.autodesk.com
 90
    33661
280
     0
281
     1
  0
CLASS
  1
AEC_CLASSIFICATION_SYSTEM_DEF
  2
AecDbClassificationSystemDef
  3
AecBase50|Product Desc: Autodesk Architectural Desktop 2007 |Company: Autodesk,Inc. |WEB Address: www.autodesk.com
 90
    32897
280
     0
281
     0
  0
CLASS
  1
AEC_CLASSIFICATION_DEF
  2
AecDbClassificationDef
  3
AecBase50|Product Desc: Autodesk Architectural Desktop 2007 |Company: Autodesk,Inc. |WEB Address: www.autodesk.com
 90
    32897
280
     0
281
     0
  0
CLASS
  1
AEC_CLEANUP_GROUP_DEF
  2
AecDbCleanupGroupDef
  3
AecArchBase50|Product Desc: Autodesk Architectural Desktop 2007 |Company: Autodesk,Inc. |WEB Address: www.autodesk.com
 90
    32897
280
     0
281
     0
  0
CLASS
  1
AEC_DOOR_STYLE
  2
AecDbDoorStyle
  3
AecArchBase50|Product Desc: Autodesk Architectural Desktop 2007 |Company: Autodesk,Inc. |WEB Address: www.autodesk.com
 90
    32897
280
     0
281
     0
  0
CLASS
  1
AEC_STDSIZE_OPENINGS
  2
AecDbStdSizeOpeningList
  3
AecArchBase50|Product Desc: Autodesk Architectural Desktop 2007 |Company: Autodesk,Inc. |WEB Address: www.autodesk.com
 90
    32897
280
     0
281
     0
  0
CLASS
  1
AEC_ENDCAP_STYLE
  2
AecDbEndcapStyle
  3
AecArchBase50|Product Desc: Autodesk Architectural Desktop 2007 |Company: Autodesk,Inc. |WEB Address: www.autodesk.com
 90
    32897
280
     0
281
     0
  0
CLASS
  1
AEC_MASS_ELEM_STYLE
  2
AecDbMassElemStyle
  3
AecBaseEx50|Product Desc: Autodesk Architectural Desktop 2007 |Company: Autodesk,Inc. |WEB Address: www.autodesk.com
 90
    32897
280
     0
281
     0
  0
CLASS
  1
AEC_MATERIAL_DEF
  2
AecDbMaterialDef
  3
AecBase50|Product Desc: Autodesk Architectural Desktop 2007 |Company: Autodesk,Inc. |WEB Address: www.autodesk.com
 90
    32897
280
     0
281
     0
  0
CLASS
  1
AEC_MVBLOCK_DEF
  2
AecDbMvBlockDef
  3
AecBase50|Product Desc: Autodesk Architectural Desktop 2007 |Company: Autodesk,Inc. |WEB Address: www.autodesk.com
 90
    32897
280
     0
281
     0
  0
CLASS
  1
AEC_FRAME_DEF
  2
AecDbOpeningEndcapStyle
  3
AecArchBase50|Product Desc: Autodesk Architectural Desktop 2007 |Company: Autodesk,Inc. |WEB Address: www.autodesk.com
 90
    32897
280
     0
281
     0
  0
CLASS
  1
AEC_PROFILE_DEF
  2
AecDbProfileDef
  3
AecBase50|Product Desc: Autodesk Architectural Desktop 2007 |Company: Autodesk,Inc. |WEB Address: www.autodesk.com
 90
    32897
280
     0
281
     0
  0
CLASS
  1
AEC_SCHEDULE_DATA_FORMAT
  2
AecDbScheduleDataFormat
  3
AecScheduleData50|Product Desc: Autodesk Architectural Desktop 2007 |Company: Autodesk,Inc. |WEB Address: www.autodesk.com
 90
    32897
280
     0
281
     0
  0
CLASS
  1
AEC_PROPERTY_SET_DEF
  2
AecDbPropertySetDef
  3
AecScheduleData50|Product Desc: Autodesk Architectural Desktop 2007 |Company: Autodesk,Inc. |WEB Address: www.autodesk.com
 90
    32897
280
     0
281
     0
  0
CLASS
  1
AEC_SPACE_STYLES
  2
AecDbSpaceStyle
  3
AecArchBase50|Product Desc: Autodesk Architectural Desktop 2007 |Company: Autodesk,Inc. |WEB Address: www.autodesk.com
 90
    32897
280
     0
281
     0
  0
CLASS
  1
AEC_TEXT_NOTE
  2
AecDbTextNote
  3
AecBase50|Product Desc: Autodesk Architectural Desktop 2007 |Company: Autodesk,Inc. |WEB Address: www.autodesk.com
 90
    32897
280
     0
281
     0
  0
CLASS
  1
AECS_MEMBER_STYLE
  2
AecsDbMemberStyle
  3
AecStructureBase50|Product Desc: Autodesk Architectural Desktop 2007 |Company: Autodesk,Inc. |WEB Address: www.autodesk.com
 90
    32897
280
     0
281
     0
  0
CLASS
  1
AEC_VARS_STRUCTUREBASE
  2
AecsDbVarsStructureBase
  3
AecStructureBase50|Product Desc: Autodesk Architectural Desktop 2007 |Company: Autodesk,Inc. |WEB Address: www.autodesk.com
 90
    32897
280
     0
281
     0
  0
CLASS
  1
AEC_WALL_STYLE
  2
AecDbWallStyle
  3
AecArchBase50|Product Desc: Autodesk Architectural Desktop 2007 |Company: Autodesk,Inc. |WEB Address: www.autodesk.com
 90
    32897
280
     0
281
     0
  0
CLASS
  1
AEC_WINDOW_STYLE
  2
AecDbWindowStyle
  3
AecArchBase50|Product Desc: Autodesk Architectural Desktop 2007 |Company: Autodesk,Inc. |WEB Address: www.autodesk.com
 90
    32897
280
     0
281
     0
  0
CLASS
  1
AECS_MEMBER_NODE_SHAPE
  2
AecsDbMemberNodeShape
  3
AecStructureBase50|Product Desc: Autodesk Architectural Desktop 2007 |Company: Autodesk,Inc. |WEB Address: www.autodesk.com
 90
    32897
280
     0
281
     0
  0
CLASS
  1
AEC_SCHEDULE_TABLE
  2
AecDbScheduleTable
  3
AecSchedule50|Product Desc: Autodesk Architectural Desktop 2007 |Company: Autodesk,Inc. |WEB Address: www.autodesk.com
 90
    33661
280
     0
281
     1
  0
CLASS
  1
AEC_SCHEDULE_TABLE_STYLE
  2
AecDbScheduleTableStyle
  3
AecSchedule50|Product Desc: Autodesk Architectural Desktop 2007 |Company: Autodesk,Inc. |WEB Address: www.autodesk.com
 90
    32897
280
     0
281
     0
  0
CLASS
  1
AEC_ANCHOR_MVB_TO_UCS
  2
AecDbAnchorMVBToUCS
  3
AecBase50|Product Desc: Autodesk Architectural Desktop 2007 |Company: Autodesk,Inc. |WEB Address: www.autodesk.com
 90
    32897
280
     0
281
     0
  0
CLASS
  1
IMAGEDEF
  2
AcDbRasterImageDef
  3
ISM
 90
    32768
280
     0
281
     0
  0
CLASS
  1
AEC_ANCHOR_ENT_TO_GRID_ASSEMBLY
  2
AecDbAnchorEntToGridAssembly
  3
AecBase50|Product Desc: Autodesk Architectural Desktop 2007 |Company: Autodesk,Inc. |WEB Address: www.autodesk.com
 90
    32897
280
     0
281
     0
  0
CLASS
  1
AEC_WINDOW_ASSEMBLY
  2
AecDbWindowAssembly
  3
AecArchBase50|Product Desc: Autodesk Architectural Desktop 2007 |Company: Autodesk,Inc. |WEB Address: www.autodesk.com
 90
    33661
280
     0
281
     1
  0
CLASS
  1
AEC_ANCHOR_WINASSEMBLY_TO_WALL
  2
AecDbAnchorWinAssemblyToWall
  3
AecArchBase50|Product Desc: Autodesk Architectural Desktop 2007 |Company: Autodesk,Inc. |WEB Address: www.autodesk.com
 90
    32897
280
     0
281
     0
  0
CLASS
  1
AEC_STAIR
  2
AecDbStair
  3
AecArchBase50|Product Desc: Autodesk Architectural Desktop 2007 |Company: Autodesk,Inc. |WEB Address: www.autodesk.com
 90
    33661
280
     0
281
     1
  0
CLASS
  1
AEC_RAILING
  2
AecDbRailing
  3
AecArchBase50|Product Desc: Autodesk Architectural Desktop 2007 |Company: Autodesk,Inc. |WEB Address: www.autodesk.com
 90
    33661
280
     0
281
     1
  0
CLASS
  1
AEC_ANCHOR_RAILING_TO_STAIR
  2
AecDbAnchorRailingToStair
  3
AecArchBase50|Product Desc: Autodesk Architectural Desktop 2007 |Company: Autodesk,Inc. |WEB Address: www.autodesk.com
 90
    32897
280
     0
281
     0
  0
CLASS
  1
AEC_RAILING_STYLE
  2
AecDbRailingStyle
  3
AecArchBase50|Product Desc: Autodesk Architectural Desktop 2007 |Company: Autodesk,Inc. |WEB Address: www.autodesk.com
 90
    32897
280
     0
281
     0
  0
CLASS
  1
AEC_STAIR_STYLE
  2
AecDbStairStyle
  3
AecArchBase50|Product Desc: Autodesk Architectural Desktop 2007 |Company: Autodesk,Inc. |WEB Address: www.autodesk.com
 90
    32897
280
     0
281
     0
  0
CLASS
  1
AEC_STAIR_WINDER_STYLE
  2
AecDbStairWinderStyle
  3
AecArchBase50|Product Desc: Autodesk Architectural Desktop 2007 |Company: Autodesk,Inc. |WEB Address: www.autodesk.com
 90
    32897
280
     0
281
     0
  0
CLASS
  1
AEC_STAIR_WINDER_TYPE_SINGLE_POINT
  2
AecDbStairWinderTypeSinglePoint
  3
AecArchBase50|Product Desc: Autodesk Architectural Desktop 2007 |Company: Autodesk,Inc. |WEB Address: www.autodesk.com
 90
    32897
280
     0
281
     0
  0
CLASS
  1
AEC_WINDOW_ASSEMBLY_STYLE
  2
AecDbWindowAssemblyStyle
  3
AecArchBase50|Product Desc: Autodesk Architectural Desktop 2007 |Company: Autodesk,Inc. |WEB Address: www.autodesk.com
 90
    32897
280
     0
281
     0
  0
CLASS
  1
AEC_AECDBAREASTYLE
  2
AecDbAreaStyle
  3
AecAreaCalculationBase50|Product Desc: Autodesk Architectural Desktop 2007 |Company: Autodesk,Inc. |WEB Address: www.autodesk.com
 90
    32897
280
     0
281
     0
  0
CLASS
  1
AEC_AECDBAREAPROPOSALNAMES
  2
AecDbAreaProposalNames
  3
AecAreaCalculationBase50|Product Desc: Autodesk Architectural Desktop 2007 |Company: Autodesk,Inc. |WEB Address: www.autodesk.com
 90
    32897
280
     0
281
     0
  0
CLASS
  1
AEC_AREA
  2
AecDbArea
  3
AecAreaCalculationBase50|Product Desc: Autodesk Architectural Desktop 2007 |Company: Autodesk,Inc. |WEB Address: www.autodesk.com
 90
    33661
280
     0
281
     1
  0
CLASS
  1
OBJECT_PTR
  2
CAseDLPNTableRecord
  3
ASE-LPNTableRecord
 90
    32769
280
     1
281
     0
  0
CLASS
  1
TABLESTYLE
  2
AcDbTableStyle
  3
ObjectDBX Classes
 90
     4095
280
     0
281
     0
  0
CLASS
  1
AEC_DISP_REP_DISPLAYTHEME
  2
AecDbDispRepDisplayTheme
  3
AecBase50|Product Desc: Autodesk Architectural Desktop 2007 |Company: Autodesk,Inc. |WEB Address: www.autodesk.com
 90
    32897
280
     0
281
     0
  0
CLASS
  1
AEC_DISP_PROPS_DISPLAYTHEME
  2
AecDbDispPropsDisplayTheme
  3
AecBase50|Product Desc: Autodesk Architectural Desktop 2007 |Company: Autodesk,Inc. |WEB Address: www.autodesk.com
 90
    32897
280
     0
281
     0
  0
CLASS
  1
AEC_DISP_REP_ANCHOR_EXT_TAG_TO_ENT
  2
AecDbDispRepAnchorExtendedTagToEnt
  3
AecScheduleData50|Product Desc: Autodesk Architectural Desktop 2007 |Company: Autodesk,Inc. |WEB Address: www.autodesk.com
 90
    32897
280
     0
281
     0
  0
CLASS
  1
VISUALSTYLE
  2
AcDbVisualStyle
  3
ObjectDBX Classes
 90
     4095
280
     0
281
     0
  0
CLASS
  1
AEC_AECDBDISPREPZONE100
  2
AecDbDispRepZonePlan100
  3
AecArchDACHBase50|Product Desc: Autodesk Architectural Desktop 2007 |Company: Autodesk,Inc. |WEB Address: www.autodesk.com
 90
    32897
280
     0
281
     0
  0
CLASS
  1
AEC_DISP_PROPS_ZONE
  2
AecDbDispPropsZone
  3
AecArchBase50|Product Desc: Autodesk Architectural Desktop 2007 |Company: Autodesk,Inc. |WEB Address: www.autodesk.com
 90
    32897
280
     0
281
     0
  0
CLASS
  1
AEC_AECDBDISPREPZONE50
  2
AecDbDispRepZonePlan50
  3
AecArchDACHBase50|Product Desc: Autodesk Architectural Desktop 2007 |Company: Autodesk,Inc. |WEB Address: www.autodesk.com
 90
    32897
280
     0
281
     0
  0
CLASS
  1
AEC_DISP_REP_SPACE_DECOMPOSED
  2
AecDbDispRepSpaceDecomposed
  3
AecArchBase50|Product Desc: Autodesk Architectural Desktop 2007 |Company: Autodesk,Inc. |WEB Address: www.autodesk.com
 90
    32897
280
     0
281
     0
  0
CLASS
  1
AEC_DISP_PROPS_SPACE_DECOMPOSED
  2
AecDbDispPropsSpaceDecomposed
  3
AecArchBase50|Product Desc: Autodesk Architectural Desktop 2007 |Company: Autodesk,Inc. |WEB Address: www.autodesk.com
 90
    32897
280
     0
281
     0
  0
CLASS
  1
AEC_DISP_REP_ZONE
  2
AecDbDispRepZone
  3
AecArchBase50|Product Desc: Autodesk Architectural Desktop 2007 |Company: Autodesk,Inc. |WEB Address: www.autodesk.com
 90
    32897
280
     0
281
     0
  0
CLASS
  1
AEC_LIST_DEF
  2
AecDbListDefinition
  3
AecBase50|Product Desc: Autodesk Architectural Desktop 2007 |Company: Autodesk,Inc. |WEB Address: www.autodesk.com
 90
    32897
280
     0
281
     0
  0
CLASS
  1
EXACXREFPANELOBJECT
  2
ExAcXREFPanelObject
  3
EXAC_ESW
 90
    33793
280
     1
281
     0
  0
CLASS
  1
NPOCOLLECTION
  2
AcDbImpNonPersistentObjectsCollection
  3
ObjectDBX Classes
 90
    33921
280
     0
281
     0
  0
CLASS
  1
ACAD_EVALUATION_GRAPH
  2
AcDbEvalGraph
  3
ObjectDBX Classes
 90
    33921
280
     0
281
     0
  0
CLASS
  1
BLOCKLINEARPARAMETER
  2
AcDbBlockLinearParameter
  3
ObjectDBX Classes
 90
    33921
280
     0
281
     0
  0
CLASS
  1
BLOCKLINEARGRIP
  2
AcDbBlockLinearGrip
  3
ObjectDBX Classes
 90
    33921
280
     0
281
     0
  0
CLASS
  1
BLOCKGRIPLOCATIONCOMPONENT
  2
AcDbBlockGripExpr
  3
ObjectDBX Classes
 90
    33921
280
     0
281
     0
  0
CLASS
  1
BLOCKSTRETCHACTION
  2
AcDbBlockStretchAction
  3
ObjectDBX Classes
 90
    33921
280
     0
281
     0
  0
CLASS
  1
BLOCKFLIPPARAMETER
  2
AcDbBlockFlipParameter
  3
ObjectDBX Classes
 90
    33921
280
     0
281
     0
  0
CLASS
  1
BLOCKFLIPGRIP
  2
AcDbBlockFlipGrip
  3
ObjectDBX Classes
 90
    33921
280
     0
281
     0
  0
CLASS
  1
BLOCKFLIPACTION
  2
AcDbBlockFlipAction
  3
ObjectDBX Classes
 90
    33921
280
     0
281
     0
  0
CLASS
  1
ACDB_DYNAMICBLOCKPURGEPREVENTER_VERSION
  2
AcDbDynamicBlockPurgePreventer
  3
ObjectDBX Classes
 90
    33921
280
     0
281
     0
  0
CLASS
  1
ACDB_BLOCKREPRESENTATION_DATA
  2
AcDbBlockRepresentationData
  3
ObjectDBX Classes
 90
    33921
280
     0
281
     0
  0
CLASS
  1
AEC_SLAB
  2
AecDbSlab
  3
AecArchBase50|Product Desc: Autodesk Architectural Desktop 2007 |Company: Autodesk,Inc. |WEB Address: www.autodesk.com
 90
    33661
280
     0
281
     1
  0
CLASS
  1
AEC_LIST_DEF
  2
AecDbListItem
  3
AecBase50|Product Desc: Autodesk Architectural Desktop 2007 |Company: Autodesk,Inc. |WEB Address: www.autodesk.com
 90
    32897
280
     0
281
     0
  0
CLASS
  1
AEC_ROOFSLAB_STYLE
  2
AecDbRoofSlabStyle
  3
AecArchBase50|Product Desc: Autodesk Architectural Desktop 2007 |Company: Autodesk,Inc. |WEB Address: www.autodesk.com
 90
    32897
280
     0
281
     0
  0
CLASS
  1
AEC_ROOFSLABEDGE_STYLE
  2
AecDbRoofSlabEdgeStyle
  3
AecArchBase50|Product Desc: Autodesk Architectural Desktop 2007 |Company: Autodesk,Inc. |WEB Address: www.autodesk.com
 90
    32897
280
     0
281
     0
  0
CLASS
  1
AEC_SLAB_STYLE
  2
AecDbSlabStyle
  3
AecArchBase50|Product Desc: Autodesk Architectural Desktop 2007 |Company: Autodesk,Inc. |WEB Address: www.autodesk.com
 90
    32897
280
     0
281
     0
  0
CLASS
  1
AEC_SLABEDGE_STYLE
  2
AecDbSlabEdgeStyle
  3
AecArchBase50|Product Desc: Autodesk Architectural Desktop 2007 |Company: Autodesk,Inc. |WEB Address: www.autodesk.com
 90
    32897
280
     0
281
     0
  0
CLASS
  1
EXACTERMXREFMAP
  2
ExAcTermXrefMap
  3
EXAC_SERVICE
 90
    33793
280
     1
281
     0
  0
CLASS
  1
AEC_AECDBZONESTYLE
  2
AecDbZoneStyle
  3
AecArchBase50|Product Desc: Autodesk Architectural Desktop 2007 |Company: Autodesk,Inc. |WEB Address: www.autodesk.com
 90
    32897
280
     0
281
     0
  0
CLASS
  1
AEC_ZONE
  2
AecDbZone
  3
AecArchBase50|Product Desc: Autodesk Architectural Desktop 2007 |Company: Autodesk,Inc. |WEB Address: www.autodesk.com
 90
    33661
280
     0
281
     1
  0
CLASS
  1
ACAD_TABLE
  2
AcDbTable
  3
ObjectDBX Classes
 90
    33793
280
     0
281
     1
  0
CLASS
  1
AEC_DISPLAYTHEME_STYLE
  2
AecDbDisplayThemeStyle
  3
AecBase50|Product Desc: Autodesk Architectural Desktop 2007 |Company: Autodesk,Inc. |WEB Address: www.autodesk.com
 90
    32897
280
     0
281
     0
  0
CLASS
  1
DIMASSOC
  2
AcDbDimAssoc
  3
"AcDbDimAssoc|Product Desc:     AcDim ARX App For Dimension|Company:          Autodesk, Inc.|WEB Address:      www.autodesk.com"
 90
    32768
280
     0
281
     0
  0
CLASS
  1
AEC_MASS_GROUP
  2
AecDbMassGroup
  3
AecBaseEx50|Product Desc: Autodesk Architectural Desktop 2007 |Company: Autodesk,Inc. |WEB Address: www.autodesk.com
 90
    33661
280
     0
281
     1
  0
CLASS
  1
AEC_ANCHOR_ENT_TO_ENT
  2
AecDbAnchorEntToEnt
  3
AecBase50|Product Desc: Autodesk Architectural Desktop 2007 |Company: Autodesk,Inc. |WEB Address: www.autodesk.com
 90
    32897
280
     0
281
     0
  0
CLASS
  1
AEC_2D_SECTION
  2
AecDb2dSection
  3
AecBase50|Product Desc: Autodesk Architectural Desktop 2007 |Company: Autodesk,Inc. |WEB Address: www.autodesk.com
 90
    33661
280
     0
281
     1
  0
CLASS
  1
AEC_2DSECTION_STYLE
  2
AecDb2dSectionStyle
  3
AecBase50|Product Desc: Autodesk Architectural Desktop 2007 |Company: Autodesk,Inc. |WEB Address: www.autodesk.com
 90
    32897
280
     0
281
     0
  0
CLASS
  1
SCALE
  2
AcDbScale
  3
ObjectDBX Classes
 90
     1153
280
     0
281
     0
  0
CLASS
  1
MLEADERSTYLE
  2
AcDbMLeaderStyle
  3
ACDB_MLEADERSTYLE_CLASS
 90
     4095
280
     0
281
     0
  0
CLASS
  1
AEC_REFEDIT_STATUS_TRACKER
  2
AecDbRefEditStatusTracker
  3
AecArchBase50|Product Desc: Autodesk Architectural Desktop 2007 |Company: Autodesk,Inc. |WEB Address: www.autodesk.com
 90
    32897
280
     0
281
     0
  0
CLASS
  1
CELLSTYLEMAP
  2
AcDbCellStyleMap
  3
ObjectDBX Classes
 90
     1152
280
     0
281
     0
  0
CLASS
  1
BLOCKARRAYACTION
  2
AcDbBlockArrayAction
  3
ObjectDBX Classes
 90
    33921
280
     0
281
     0
  0
CLASS
  1
BLOCKBASEPOINTPARAMETER
  2
AcDbBlockBasepointParameter
  3
ObjectDBX Classes
 90
    33921
280
     0
281
     0
  0
CLASS
  1
SOLID_BACKGROUND
  2
AcDbSolidBackground
  3
SCENEOE
 90
    36863
280
     0
281
     0
  0
ENDSEC
  0
SECTION
  2
TABLES
  0
TABLE
  2
VPORT
  5
28
330
0
100
AcDbSymbolTable
 70
     1
  0
VPORT
  5
29
330
28
100
AcDbSymbolTableRecord
100
AcDbViewportTableRecord
  2
*Active
 70
     0
 10
0.0
 20
0.0
 11
1.0
 21
1.0
 12
18316.6476369517
 22
-5668.282511230871
 13
-3534.953416816247
 23
4038.000000000049
 14
1.0
 24
1.0
 15
1.0
 25
1.0
 16
0.0
 26
0.0
 36
1.0
 17
0.0
 27
0.0
 37
0.0
 40
31476.09725700597
 41
1.561333333333333
 42
50.0
 43
0.0
 44
0.0
 50
0.0
 51
0.0
 71
     0
 72
  2000
 73
     1
 74
     1
 75
     0
 76
     0
 77
     0
 78
     0
281
     0
 65
     1
110
0.0
120
0.0
130
0.0
111
1.0
121
0.0
131
0.0
112
0.0
122
1.0
132
0.0
 79
     0
146
0.0
  0
ENDTAB
  0
TABLE
  2
LTYPE
  5
23
330
0
100
AcDbSymbolTable
 70
     2
  0
LTYPE
  5
24
330
23
100
AcDbSymbolTableRecord
100
AcDbLinetypeTableRecord
  2
BYBLOCK
 70
     0
  3

 72
    65
 73
     0
 40
0.0
  0
LTYPE
  5
25
330
23
100
AcDbSymbolTableRecord
100
AcDbLinetypeTableRecord
  2
BYLAYER
 70
     0
  3

 72
    65
 73
     0
 40
0.0
  0
LTYPE
  5
E
330
23
100
AcDbSymbolTableRecord
100
AcDbLinetypeTableRecord
  2
CONTINUOUS
 70
     0
  3
Solid line
 72
    65
 73
     0
 40
0.0
  0
LTYPE
  5
77
330
23
100
AcDbSymbolTableRecord
100
AcDbLinetypeTableRecord
  2
DASHED
 70
     0
  3
Dashed __ __ __ __ __ __ __ __ __ __ __ __ __ _
 72
    65
 73
     2
 40
0.75
 49
0.5
 74
     0
 49
-0.25
 74
     0
  0
ENDTAB
  0
TABLE
  2
LAYER
  5
1D
102
{ACAD_XDICTIONARY
360
1E
102
}
330
0
100
AcDbSymbolTable
 70
     6
  0
LAYER
  5
6
102
{ACAD_XDICTIONARY
360
7
102
}
330
1D
100
AcDbSymbolTableRecord
100
AcDbLayerTableRecord
  2
0
 70
     0
 62
     7
  6
CONTINUOUS
370
    -3
390
9
1001
RAK
1000
{ACET-LAYISO
1070
     0
1070
     7
1000
CONTINUOUS
1070
     1
1071
       -3
1071
        1
1005
9
1000
ACET-LAYISO}
  0
LAYER
  5
74
102
{ACAD_XDICTIONARY
360
75
102
}
330
1D
100
AcDbSymbolTableRecord
100
AcDbLayerTableRecord
  2
NAPISY
 70
     0
 62
   140
  6
CONTINUOUS
370
    -3
390
9
1001
RAK
1000
{ACET-LAYISO
1070
     0
1070
   140
1000
CONTINUOUS
1071
       -3
1071
        1
1005
9
1000
ACET-LAYISO}
  0
LAYER
  5
3B5
330
1D
100
AcDbSymbolTableRecord
100
AcDbLayerTableRecord
  2
Defpoints
 70
     0
 62
     7
  6
CONTINUOUS
290
     0
370
    -3
390
9
1001
RAK
1000
{ACET-LAYISO
1070
     0
1070
     7
1000
CONTINUOUS
1071
       -3
1071
        0
1005
9
1000
ACET-LAYISO}
  0
LAYER
  5
56
102
{ACAD_XDICTIONARY
360
57
102
}
330
1D
100
AcDbSymbolTableRecord
100
AcDbLayerTableRecord
  2
0Wymiary-PL
 70
     0
 62
     1
  6
CONTINUOUS
370
     5
390
9
  0
LAYER
  5
3A3
102
{ACAD_XDICTIONARY
360
3A4
102
}
330
1D
100
AcDbSymbolTableRecord
100
AcDbLayerTableRecord
  2
0Hatch
 70
     0
 62
   122
  6
CONTINUOUS
370
     5
390
9
  0
LAYER
  5
7E
102
{ACAD_XDICTIONARY
360
7F
102
}
330
1D
100
AcDbSymbolTableRecord
100
AcDbLayerTableRecord
  2
RAMKI-A4
 70
     0
 62
     2
  6
CONTINUOUS
290
     0
370
    -3
390
9
1001
RAK
1000
{ACET-LAYISO
1070
     0
1070
     2
1000
Continuous
1071
       -3
1071
        0
1005
9
1000
ACET-LAYISO}
  0
ENDTAB
  0
TABLE
  2
STYLE
  5
20
330
0
100
AcDbSymbolTable
 70
     3
  0
STYLE
  5
21
330
20
100
AcDbSymbolTableRecord
100
AcDbTextStyleTableRecord
  2
STANDARD
 70
     0
 40
0.0
 41
1.0
 50
0.0
 71
     0
 42
0.2
  3
txt
  4

  0
STYLE
  5
2E
330
20
100
AcDbSymbolTableRecord
100
AcDbTextStyleTableRecord
  2
ROMANS
 70
     0
 40
0.0
 41
0.9
 50
0.0
 71
     0
 42
5.0
  3
romans.shx
  4

  0
STYLE
  5
79
330
20
100
AcDbSymbolTableRecord
100
AcDbTextStyleTableRecord
  2
AVA
 70
     0
 40
0.0
 41
1.0
 50
0.0
 71
     0
 42
20.0
  3
ARIAL.TTF
  4

1001
ACAD
1000
Arial CE
1071
    60962
  0
ENDTAB
  0
TABLE
  2
VIEW
  5
26
330
0
100
AcDbSymbolTable
 70
     1
  0
VIEW
  5
13
330
26
100
AcDbSymbolTableRecord
100
AcDbViewTableRecord
  2
10-ele
 70
     0
 40
2040.000000000001
 10
597.6361962217097
 20
4133.999999999996
 41
2803.999999999998
 11
0.0
 21
0.0
 31
1.0
 12
0.0
 22
0.0
 32
0.0
 42
50.0
 43
0.0
 44
0.0
 50
0.0
 71
     0
281
     0
 72
     1
110
0.0
120
0.0
130
0.0
111
1.0
121
0.0
131
0.0
112
0.0
122
1.0
132
0.0
 79
     0
146
0.0
  0
ENDTAB
  0
TABLE
  2
UCS
  5
27
330
0
100
AcDbSymbolTable
 70
     0
  0
ENDTAB
  0
TABLE
  2
APPID
  5
2A
330
0
100
AcDbSymbolTable
 70
     5
  0
APPID
  5
2B
330
2A
100
AcDbSymbolTableRecord
100
AcDbRegAppTableRecord
  2
ACAD
 70
     0
  0
APPID
  5
F
330
2A
100
AcDbSymbolTableRecord
100
AcDbRegAppTableRecord
  2
RAK
 70
     0
  0
APPID
  5
16
330
2A
100
AcDbSymbolTableRecord
100
AcDbRegAppTableRecord
  2
ACAD_PSEXT
 70
     0
  0
APPID
  5
7AA
330
2A
100
AcDbSymbolTableRecord
100
AcDbRegAppTableRecord
  2
ACAD_MLEADERVER
 70
     0
  0
APPID
  5
B8E
330
2A
100
AcDbSymbolTableRecord
100
AcDbRegAppTableRecord
  2
ACAD_EXEMPT_FROM_CAD_STANDARDS
 70
     0
  0
ENDTAB
  0
TABLE
  2
DIMSTYLE
  5
2C
330
0
100
AcDbSymbolTable
 70
     2
100
AcDbDimStyleTable
 71
     2
340
2D
340
4C
  0
DIMSTYLE
105
4C
330
2C
100
AcDbSymbolTableRecord
100
AcDbDimStyleTableRecord
  2
Standard
 70
     0
340
21
  0
DIMSTYLE
105
2D
102
{ACAD_REACTORS
330
3AD
330
3B9
330
3C4
330
3CF
330
3DA
330
3E7
330
3F2
330
3FF
330
733
330
73E
330
749
330
754
330
75F
330
76C
330
777
330
784
102
}
330
2C
100
AcDbSymbolTableRecord
100
AcDbDimStyleTableRecord
  2
500
 70
     0
 41
30.0
 42
43.0
 43
0.0
 44
13.0
 45
0.5
 46
12.0
 73
     0
 74
     0
 75
     1
 76
     1
 78
    12
140
80.0
141
0.0
145
1.0
147
0.0
172
     1
174
     1
176
     1
177
     1
178
   140
271
     1
272
     1
279
     2
340
2E
341
2F
342
2F
  0
ENDTAB
  0
TABLE
  2
BLOCK_RECORD
  5
1
330
0
100
AcDbSymbolTable
 70
    22
  0
BLOCK_RECORD
  5
2
102
{ACAD_XDICTIONARY
360
3
102
}
330
1
100
AcDbSymbolTableRecord
100
AcDbBlockTableRecord
  2
*MODEL_SPACE
340
11
  0
BLOCK_RECORD
  5
C3F
330
1
100
AcDbSymbolTableRecord
100
AcDbBlockTableRecord
  2
*Paper_Space
340
C40
  0
BLOCK_RECORD
  5
2F
102
{ACAD_XDICTIONARY
360
30
102
}
330
1
100
AcDbSymbolTableRecord
100
AcDbBlockTableRecord
  2
B-DIM
340
0
102
{BLKREFS
331
737
331
738
331
758
331
759
331
765
331
766
331
770
331
771
331
BB9
331
BBA
331
BC3
331
BC4
331
BCC
331
BCD
331
BD3
331
BD4
331
BDD
331
BDE
331
BE4
331
BE5
331
BEB
331
BEC
331
BF5
331
BF6
331
BFC
331
BFD
331
C03
331
C04
331
C0A
331
C0B
331
C11
331
C12
331
C1A
331
C1B
331
C21
331
C22
331
C2A
331
C2B
331
C31
331
C32
102
}
  0
BLOCK_RECORD
  5
ACB
330
1
100
AcDbSymbolTableRecord
100
AcDbBlockTableRecord
  2
*D5
340
0
  0
BLOCK_RECORD
  5
AD5
330
1
100
AcDbSymbolTableRecord
100
AcDbBlockTableRecord
  2
*D6
340
0
  0
BLOCK_RECORD
  5
ADF
330
1
100
AcDbSymbolTableRecord
100
AcDbBlockTableRecord
  2
*D7
340
0
  0
BLOCK_RECORD
  5
AE9
330
1
100
AcDbSymbolTableRecord
100
AcDbBlockTableRecord
  2
*D8
340
0
  0
BLOCK_RECORD
  5
AF5
330
1
100
AcDbSymbolTableRecord
100
AcDbBlockTableRecord
  2
*D9
340
0
  0
BLOCK_RECORD
  5
AFF
330
1
100
AcDbSymbolTableRecord
100
AcDbBlockTableRecord
  2
*D10
340
0
  0
BLOCK_RECORD
  5
B0B
330
1
100
AcDbSymbolTableRecord
100
AcDbBlockTableRecord
  2
*D11
340
0
  0
BLOCK_RECORD
  5
B15
330
1
100
AcDbSymbolTableRecord
100
AcDbBlockTableRecord
  2
*D12
340
0
  0
BLOCK_RECORD
  5
B21
330
1
100
AcDbSymbolTableRecord
100
AcDbBlockTableRecord
  2
*D13
340
0
  0
BLOCK_RECORD
  5
B2B
330
1
100
AcDbSymbolTableRecord
100
AcDbBlockTableRecord
  2
*D14
340
0
  0
BLOCK_RECORD
  5
B35
330
1
100
AcDbSymbolTableRecord
100
AcDbBlockTableRecord
  2
*D15
340
0
  0
BLOCK_RECORD
  5
B3F
330
1
100
AcDbSymbolTableRecord
100
AcDbBlockTableRecord
  2
*D16
340
0
  0
BLOCK_RECORD
  5
BB3
330
1
100
AcDbSymbolTableRecord
100
AcDbBlockTableRecord
  2
*D17
340
0
  0
BLOCK_RECORD
  5
BBF
330
1
100
AcDbSymbolTableRecord
100
AcDbBlockTableRecord
  2
*D18
340
0
  0
BLOCK_RECORD
  5
BD9
330
1
100
AcDbSymbolTableRecord
100
AcDbBlockTableRecord
  2
*D19
340
0
  0
BLOCK_RECORD
  5
BF1
330
1
100
AcDbSymbolTableRecord
100
AcDbBlockTableRecord
  2
*D20
340
0
  0
ENDTAB
  0
ENDSEC
  0
SECTION
  2
BLOCKS
  0
BLOCK
  5
5
330
2
100
AcDbEntity
  8
0
100
AcDbBlockBegin
  2
*MODEL_SPACE
 70
     0
 10
0.0
 20
0.0
 30
0.0
  3
*MODEL_SPACE
  1

  0
ENDBLK
  5
10
330
2
100
AcDbEntity
  8
0
100
AcDbBlockEnd
  0
BLOCK
  5
C41
330
C3F
100
AcDbEntity
 67
     1
  8
0
 48
4.0
100
AcDbBlockBegin
  2
*Paper_Space
 70
     0
 10
0.0
 20
0.0
 30
0.0
  3
*Paper_Space
  1

  0
ENDBLK
  5
C42
330
C3F
100
AcDbEntity
 67
     1
  8
0
 48
4.0
100
AcDbBlockEnd
  0
BLOCK
  5
32
330
2F
100
AcDbEntity
  8
0
100
AcDbBlockBegin
  2
B-DIM
 70
     0
 10
0.0
 20
0.0
 30
0.0
  3
B-DIM
  1

  0
LINE
  5
33
330
2F
100
AcDbEntity
  8
0
 62
     1
100
AcDbLine
 10
0.000000000000091
 20
-1.1
 30
0.0
 11
0.000000000000091
 21
1.1
 31
0.0
  0
LWPOLYLINE
  5
34
330
2F
100
AcDbEntity
  8
0
 62
     1
100
AcDbPolyline
 90
        2
 70
     0
 43
0.3
 10
-0.7071067811864851
 20
-0.7071067811864851
 10
0.707106781186576
 20
0.707106781186576
  0
LINE
  5
35
330
2F
100
AcDbEntity
  8
0
 62
     1
100
AcDbLine
 10
1.20000000000009
 20
0.0
 30
0.0
 11
-1.199999999999909
 21
0.0
 31
0.0
  0
ENDBLK
  5
36
330
2F
100
AcDbEntity
  8
0
100
AcDbBlockEnd
  0
BLOCK
  5
ACC
330
ACB
100
AcDbEntity
  8
0
 48
4.0
100
AcDbBlockBegin
  2
*D5
 70
     1
 10
0.0
 20
0.0
 30
0.0
  3
*D5
  1

  0
LINE
  5
BEA
330
ACB
100
AcDbEntity
  8
0Hatch
 62
     1
370
    -2
100
AcDbLine
 10
16730.96943648672
 20
-3540.546899565175
 30
0.0
 11
16440.96943648672
 21
-3540.546899565175
 31
0.0
  0
INSERT
  5
BEB
330
ACB
100
AcDbEntity
  8
0Hatch
 62
     1
370
    -2
100
AcDbBlockReference
  2
B-DIM
 10
16760.96943648672
 20
-3540.546899565175
 30
0.0
 41
30.0
 42
30.0
 43
30.0
  0
INSERT
  5
BEC
330
ACB
100
AcDbEntity
  8
0Hatch
 62
     1
370
    -2
100
AcDbBlockReference
  2
B-DIM
 10
16410.96943648672
 20
-3540.546899565175
 30
0.0
 41
30.0
 42
30.0
 43
30.0
 50
180.0
  0
MTEXT
  5
BED
330
ACB
100
AcDbEntity
  8
0Hatch
 62
   140
100
AcDbMText
 10
16585.96943648672
 20
-3460.546899565176
 30
0.0
 40
80.0
 41
0.0
 71
     5
 72
     1
  1
\A1;350
  7
ROMANS
 73
     1
 44
1.0
1001
ACAD
1000
MTEXTBEGIN
1070
    73
1070
     1
1070
    44
1040
1.0
1070
    74
1070
     0
1000
MTEXTEND
  0
POINT
  5
BEE
330
ACB
100
AcDbEntity
  8
Defpoints
 62
     0
100
AcDbPoint
 10
16760.96943648672
 20
-3702.804513021766
 30
-0.0000000000001759
  0
POINT
  5
BEF
330
ACB
100
AcDbEntity
  8
Defpoints
 62
     0
100
AcDbPoint
 10
16410.96943648672
 20
-3727.724960963271
 30
0.0
  0
POINT
  5
BF0
330
ACB
100
AcDbEntity
  8
Defpoints
 62
     0
100
AcDbPoint
 10
16410.96943648672
 20
-3540.546899565175
 30
0.0
  0
ENDBLK
  5
ACD
330
ACB
100
AcDbEntity
  8
0
 48
4.0
100
AcDbBlockEnd
  0
BLOCK
  5
AD6
330
AD5
100
AcDbEntity
  8
0
 48
4.0
100
AcDbBlockBegin
  2
*D6
 70
     1
 10
0.0
 20
0.0
 30
0.0
  3
*D6
  1

  0
LINE
  5
BE3
330
AD5
100
AcDbEntity
  8
0Hatch
 62
     1
370
    -2
100
AcDbLine
 10
17150.96943648672
 20
-3540.546899565175
 30
0.0
 11
16790.96943648672
 21
-3540.546899565175
 31
0.0
  0
INSERT
  5
BE4
330
AD5
100
AcDbEntity
  8
0Hatch
 62
     1
370
    -2
100
AcDbBlockReference
  2
B-DIM
 10
17180.96943648671
 20
-3540.546899565175
 30
0.0
 41
30.0
 42
30.0
 43
30.0
  0
INSERT
  5
BE5
330
AD5
100
AcDbEntity
  8
0Hatch
 62
     1
370
    -2
100
AcDbBlockReference
  2
B-DIM
 10
16760.96943648672
 20
-3540.546899565175
 30
0.0
 41
30.0
 42
30.0
 43
30.0
 50
180.0
  0
MTEXT
  5
BE6
330
AD5
100
AcDbEntity
  8
0Hatch
 62
   140
100
AcDbMText
 10
16970.96943648672
 20
-3460.546899565176
 30
0.0
 40
80.0
 41
0.0
 71
     5
 72
     1
  1
\A1;420
  7
ROMANS
 73
     1
 44
1.0
1001
ACAD
1000
MTEXTBEGIN
1070
    73
1070
     1
1070
    44
1040
1.0
1070
    74
1070
     0
1000
MTEXTEND
  0
POINT
  5
BE7
330
AD5
100
AcDbEntity
  8
Defpoints
 62
     0
100
AcDbPoint
 10
17180.96943648671
 20
-3772.804513021765
 30
0.0000000000008268
  0
POINT
  5
BE8
330
AD5
100
AcDbEntity
  8
Defpoints
 62
     0
100
AcDbPoint
 10
16760.96943648672
 20
-3702.804513021766
 30
-0.0000000000001759
  0
POINT
  5
BE9
330
AD5
100
AcDbEntity
  8
Defpoints
 62
     0
100
AcDbPoint
 10
16760.96943648672
 20
-3540.546899565175
 30
0.0
  0
ENDBLK
  5
AD7
330
AD5
100
AcDbEntity
  8
0
 48
4.0
100
AcDbBlockEnd
  0
BLOCK
  5
AE0
330
ADF
100
AcDbEntity
  8
0
 48
4.0
100
AcDbBlockBegin
  2
*D7
 70
     1
 10
0.0
 20
0.0
 30
0.0
  3
*D7
  1

  0
LINE
  5
BD2
330
ADF
100
AcDbEntity
  8
0Hatch
 62
     1
370
    -2
100
AcDbLine
 10
17891.08403897169
 20
-3716.804513021766
 30
0.0
 11
17891.08403897169
 21
-4726.804513021765
 31
0.0
  0
INSERT
  5
BD3
330
ADF
100
AcDbEntity
  8
0Hatch
 62
     1
370
    -2
100
AcDbBlockReference
  2
B-DIM
 10
17891.08403897169
 20
-3686.804513021766
 30
0.0
 41
30.0
 42
30.0
 43
30.0
 50
90.0
  0
INSERT
  5
BD4
330
ADF
100
AcDbEntity
  8
0Hatch
 62
     1
370
    -2
100
AcDbBlockReference
  2
B-DIM
 10
17891.08403897169
 20
-4756.804513021765
 30
0.0
 41
30.0
 42
30.0
 43
30.0
 50
270.0
  0
MTEXT
  5
BD5
330
ADF
100
AcDbEntity
  8
0Hatch
 62
   140
100
AcDbMText
 10
17811.08403897169
 20
-4221.804513021762
 30
0.0
 40
80.0
 41
0.0
 71
     5
 72
     1
  1
\A1;1070
  7
ROMANS
 11
0.0000000000000001
 21
1.0
 31
0.0
 73
     1
 44
1.0
1001
ACAD
1000
MTEXTBEGIN
1070
    73
1070
     1
1070
    44
1040
1.0
1070
    74
1070
     0
1000
MTEXTEND
  0
POINT
  5
BD6
330
ADF
100
AcDbEntity
  8
Defpoints
 62
     0
100
AcDbPoint
 10
17296.96943648671
 20
-3686.804513021765
 30
0.0000000000011892
  0
POINT
  5
BD7
330
ADF
100
AcDbEntity
  8
Defpoints
 62
     0
100
AcDbPoint
 10
17271.96943648672
 20
-4756.804513021765
 30
0.0
  0
POINT
  5
BD8
330
ADF
100
AcDbEntity
  8
Defpoints
 62
     0
100
AcDbPoint
 10
17891.08403897169
 20
-4756.804513021765
 30
0.0
  0
ENDBLK
  5
AE1
330
ADF
100
AcDbEntity
  8
0
 48
4.0
100
AcDbBlockEnd
  0
BLOCK
  5
AEA
330
AE9
100
AcDbEntity
  8
0
 48
4.0
100
AcDbBlockBegin
  2
*D8
 70
     1
 10
0.0
 20
0.0
 30
0.0
  3
*D8
  1

  0
LINE
  5
BC9
330
AE9
100
AcDbEntity
  8
0Hatch
 62
     1
370
    -2
100
AcDbLine
 10
17727.56868460833
 20
-4626.804513021765
 30
0.0
 11
17727.56868460833
 21
-4596.804513021765
 31
0.0
  0
LINE
  5
BCA
330
AE9
100
AcDbEntity
  8
0Hatch
 62
     1
370
    -2
100
AcDbLine
 10
17727.56868460833
 20
-4786.804513021765
 30
0.0
 11
17727.56868460833
 21
-4816.804513021764
 31
0.0
  0
LINE
  5
BCB
330
AE9
100
AcDbEntity
  8
0Hatch
 62
     1
370
    -2
100
AcDbLine
 10
17727.56868460833
 20
-4656.804513021765
 30
0.0
 11
17727.56868460833
 21
-4756.804513021765
 31
0.0
  0
INSERT
  5
BCC
330
AE9
100
AcDbEntity
  8
0Hatch
 62
     1
370
    -2
100
AcDbBlockReference
  2
B-DIM
 10
17727.56868460833
 20
-4656.804513021765
 30
0.0
 41
30.0
 42
30.0
 43
30.0
 50
270.0
  0
INSERT
  5
BCD
330
AE9
100
AcDbEntity
  8
0Hatch
 62
     1
370
    -2
100
AcDbBlockReference
  2
B-DIM
 10
17727.56868460833
 20
-4756.804513021765
 30
0.0
 41
30.0
 42
30.0
 43
30.0
 50
90.0
  0
MTEXT
  5
BCE
330
AE9
100
AcDbEntity
  8
0Hatch
 62
   140
100
AcDbMText
 10
17647.56868460833
 20
-4706.804513021762
 30
0.0
 40
80.0
 41
0.0
 71
     5
 72
     1
  1
\A1;100
  7
ROMANS
 11
0.0000000000000001
 21
1.0
 31
0.0
 73
     1
 44
1.0
1001
ACAD
1000
MTEXTBEGIN
1070
    73
1070
     1
1070
    44
1040
1.0
1070
    74
1070
     0
1000
MTEXTEND
  0
POINT
  5
BCF
330
AE9
100
AcDbEntity
  8
Defpoints
 62
     0
100
AcDbPoint
 10
17646.96943648672
 20
-4656.804513021765
 30
0.0
  0
POINT
  5
BD0
330
AE9
100
AcDbEntity
  8
Defpoints
 62
     0
100
AcDbPoint
 10
17271.96943648672
 20
-4756.804513021765
 30
0.0
  0
POINT
  5
BD1
330
AE9
100
AcDbEntity
  8
Defpoints
 62
     0
100
AcDbPoint
 10
17727.56868460833
 20
-4756.804513021765
 30
0.0
  0
ENDBLK
  5
AEB
330
AE9
100
AcDbEntity
  8
0
 48
4.0
100
AcDbBlockEnd
  0
BLOCK
  5
AF6
330
AF5
100
AcDbEntity
  8
0
 48
4.0
100
AcDbBlockBegin
  2
*D9
 70
     1
 10
0.0
 20
0.0
 30
0.0
  3
*D9
  1

  0
LINE
  5
C30
330
AF5
100
AcDbEntity
  8
0Hatch
 62
     1
370
    -2
100
AcDbLine
 10
11729.61911937152
 20
-3716.804513021765
 30
0.0
 11
11729.61911937152
 21
-4726.804513021765
 31
0.0
  0
INSERT
  5
C31
330
AF5
100
AcDbEntity
  8
0Hatch
 62
     1
370
    -2
100
AcDbBlockReference
  2
B-DIM
 10
11729.61911937152
 20
-3686.804513021765
 30
0.0
 41
30.0
 42
30.0
 43
30.0
 50
90.0
  0
INSERT
  5
C32
330
AF5
100
AcDbEntity
  8
0Hatch
 62
     1
370
    -2
100
AcDbBlockReference
  2
B-DIM
 10
11729.61911937152
 20
-4756.804513021765
 30
0.0
 41
30.0
 42
30.0
 43
30.0
 50
270.0
  0
MTEXT
  5
C33
330
AF5
100
AcDbEntity
  8
0Hatch
 62
   140
100
AcDbMText
 10
11649.61911937152
 20
-4221.804513021763
 30
0.0
 40
80.0
 41
0.0
 71
     5
 72
     1
  1
\A1;1070
  7
ROMANS
 11
0.0000000000000001
 21
1.0
 31
0.0
 73
     1
 44
1.0
1001
ACAD
1000
MTEXTBEGIN
1070
    73
1070
     1
1070
    44
1040
1.0
1070
    74
1070
     0
1000
MTEXTEND
  0
POINT
  5
C34
330
AF5
100
AcDbEntity
  8
Defpoints
 62
     0
100
AcDbPoint
 10
12323.73372185649
 20
-3686.804513021765
 30
0.0000000000011892
  0
POINT
  5
C35
330
AF5
100
AcDbEntity
  8
Defpoints
 62
     0
100
AcDbPoint
 10
12348.73372185649
 20
-4756.804513021765
 30
0.0
  0
POINT
  5
C36
330
AF5
100
AcDbEntity
  8
Defpoints
 62
     0
100
AcDbPoint
 10
11729.61911937152
 20
-4756.804513021765
 30
0.0
  0
ENDBLK
  5
AF7
330
AF5
100
AcDbEntity
  8
0
 48
4.0
100
AcDbBlockEnd
  0
BLOCK
  5
B00
330
AFF
100
AcDbEntity
  8
0
 48
4.0
100
AcDbBlockBegin
  2
*D10
 70
     1
 10
0.0
 20
0.0
 30
0.0
  3
*D10
  1

  0
LINE
  5
C27
330
AFF
100
AcDbEntity
  8
0Hatch
 62
     1
370
    -2
100
AcDbLine
 10
11893.13447373488
 20
-4626.804513021765
 30
0.0
 11
11893.13447373488
 21
-4596.804513021765
 31
0.0
  0
LINE
  5
C28
330
AFF
100
AcDbEntity
  8
0Hatch
 62
     1
370
    -2
100
AcDbLine
 10
11893.13447373488
 20
-4786.804513021765
 30
0.0
 11
11893.13447373488
 21
-4816.804513021764
 31
0.0
  0
LINE
  5
C29
330
AFF
100
AcDbEntity
  8
0Hatch
 62
     1
370
    -2
100
AcDbLine
 10
11893.13447373488
 20
-4656.804513021765
 30
0.0
 11
11893.13447373488
 21
-4756.804513021765
 31
0.0
  0
INSERT
  5
C2A
330
AFF
100
AcDbEntity
  8
0Hatch
 62
     1
370
    -2
100
AcDbBlockReference
  2
B-DIM
 10
11893.13447373488
 20
-4656.804513021765
 30
0.0
 41
30.0
 42
30.0
 43
30.0
 50
270.0
  0
INSERT
  5
C2B
330
AFF
100
AcDbEntity
  8
0Hatch
 62
     1
370
    -2
100
AcDbBlockReference
  2
B-DIM
 10
11893.13447373488
 20
-4756.804513021765
 30
0.0
 41
30.0
 42
30.0
 43
30.0
 50
90.0
  0
MTEXT
  5
C2C
330
AFF
100
AcDbEntity
  8
0Hatch
 62
   140
100
AcDbMText
 10
11813.13447373488
 20
-4706.804513021763
 30
0.0
 40
80.0
 41
0.0
 71
     5
 72
     1
  1
\A1;100
  7
ROMANS
 11
0.0000000000000001
 21
1.0
 31
0.0
 73
     1
 44
1.0
1001
ACAD
1000
MTEXTBEGIN
1070
    73
1070
     1
1070
    44
1040
1.0
1070
    74
1070
     0
1000
MTEXTEND
  0
POINT
  5
C2D
330
AFF
100
AcDbEntity
  8
Defpoints
 62
     0
100
AcDbPoint
 10
11973.73372185649
 20
-4656.804513021765
 30
0.0
  0
POINT
  5
C2E
330
AFF
100
AcDbEntity
  8
Defpoints
 62
     0
100
AcDbPoint
 10
12348.73372185649
 20
-4756.804513021765
 30
0.0
  0
POINT
  5
C2F
330
AFF
100
AcDbEntity
  8
Defpoints
 62
     0
100
AcDbPoint
 10
11893.13447373488
 20
-4756.804513021765
 30
0.0
  0
ENDBLK
  5
B01
330
AFF
100
AcDbEntity
  8
0
 48
4.0
100
AcDbBlockEnd
  0
BLOCK
  5
B0C
330
B0B
100
AcDbEntity
  8
0
 48
4.0
100
AcDbBlockBegin
  2
*D11
 70
     1
 10
0.0
 20
0.0
 30
0.0
  3
*D11
  1

  0
LINE
  5
C20
330
B0B
100
AcDbEntity
  8
0Hatch
 62
     1
370
    -2
100
AcDbLine
 10
11893.13447373488
 20
-3786.804513021766
 30
0.0
 11
11893.13447373488
 21
-4626.804513021765
 31
0.0
  0
INSERT
  5
C21
330
B0B
100
AcDbEntity
  8
0Hatch
 62
     1
370
    -2
100
AcDbBlockReference
  2
B-DIM
 10
11893.13447373488
 20
-3756.804513021766
 30
0.0
 41
30.0
 42
30.0
 43
30.0
 50
90.0
  0
INSERT
  5
C22
330
B0B
100
AcDbEntity
  8
0Hatch
 62
     1
370
    -2
100
AcDbBlockReference
  2
B-DIM
 10
11893.13447373488
 20
-4656.804513021765
 30
0.0
 41
30.0
 42
30.0
 43
30.0
 50
270.0
  0
MTEXT
  5
C23
330
B0B
100
AcDbEntity
  8
0Hatch
 62
   140
100
AcDbMText
 10
11813.13447373488
 20
-4206.804513021763
 30
0.0
 40
80.0
 41
0.0
 71
     5
 72
     1
  1
\A1;900
  7
ROMANS
 11
0.0000000000000001
 21
1.0
 31
0.0
 73
     1
 44
1.0
1001
ACAD
1000
MTEXTBEGIN
1070
    73
1070
     1
1070
    44
1040
1.0
1070
    74
1070
     0
1000
MTEXTEND
  0
POINT
  5
C24
330
B0B
100
AcDbEntity
  8
Defpoints
 62
     0
100
AcDbPoint
 10
12323.73372185649
 20
-3756.804513021766
 30
0.0000000000010026
  0
POINT
  5
C25
330
B0B
100
AcDbEntity
  8
Defpoints
 62
     0
100
AcDbPoint
 10
11973.73372185649
 20
-4656.804513021765
 30
0.0
  0
POINT
  5
C26
330
B0B
100
AcDbEntity
  8
Defpoints
 62
     0
100
AcDbPoint
 10
11893.13447373488
 20
-4656.804513021765
 30
0.0
  0
ENDBLK
  5
B0D
330
B0B
100
AcDbEntity
  8
0
 48
4.0
100
AcDbBlockEnd
  0
BLOCK
  5
B16
330
B15
100
AcDbEntity
  8
0
 48
4.0
100
AcDbBlockBegin
  2
*D12
 70
     1
 10
0.0
 20
0.0
 30
0.0
  3
*D12
  1

  0
LINE
  5
C17
330
B15
100
AcDbEntity
  8
0Hatch
 62
     1
370
    -2
100
AcDbLine
 10
11893.13447373488
 20
-3656.804513021766
 30
0.0
 11
11893.13447373488
 21
-3626.804513021765
 31
0.0
  0
LINE
  5
C18
330
B15
100
AcDbEntity
  8
0Hatch
 62
     1
370
    -2
100
AcDbLine
 10
11893.13447373488
 20
-3786.804513021766
 30
0.0
 11
11893.13447373488
 21
-3816.804513021765
 31
0.0
  0
LINE
  5
C19
330
B15
100
AcDbEntity
  8
0Hatch
 62
     1
370
    -2
100
AcDbLine
 10
11893.13447373488
 20
-3686.804513021765
 30
0.0
 11
11893.13447373488
 21
-3756.804513021766
 31
0.0
  0
INSERT
  5
C1A
330
B15
100
AcDbEntity
  8
0Hatch
 62
     1
370
    -2
100
AcDbBlockReference
  2
B-DIM
 10
11893.13447373488
 20
-3686.804513021765
 30
0.0
 41
30.0
 42
30.0
 43
30.0
 50
270.0
  0
INSERT
  5
C1B
330
B15
100
AcDbEntity
  8
0Hatch
 62
     1
370
    -2
100
AcDbBlockReference
  2
B-DIM
 10
11893.13447373488
 20
-3756.804513021766
 30
0.0
 41
30.0
 42
30.0
 43
30.0
 50
90.0
  0
MTEXT
  5
C1C
330
B15
100
AcDbEntity
  8
0Hatch
 62
   140
100
AcDbMText
 10
11813.13447373488
 20
-3721.804513021763
 30
0.0
 40
80.0
 41
0.0
 71
     5
 72
     1
  1
\A1;70
  7
ROMANS
 11
0.0000000000000001
 21
1.0
 31
0.0
 73
     1
 44
1.0
1001
ACAD
1000
MTEXTBEGIN
1070
    73
1070
     1
1070
    44
1040
1.0
1070
    74
1070
     0
1000
MTEXTEND
  0
POINT
  5
C1D
330
B15
100
AcDbEntity
  8
Defpoints
 62
     0
100
AcDbPoint
 10
12323.73372185649
 20
-3686.804513021765
 30
0.0000000000011892
  0
POINT
  5
C1E
330
B15
100
AcDbEntity
  8
Defpoints
 62
     0
100
AcDbPoint
 10
12323.73372185649
 20
-3756.804513021766
 30
0.0000000000010026
  0
POINT
  5
C1F
330
B15
100
AcDbEntity
  8
Defpoints
 62
     0
100
AcDbPoint
 10
11893.13447373488
 20
-3756.804513021766
 30
0.0
  0
ENDBLK
  5
B17
330
B15
100
AcDbEntity
  8
0
 48
4.0
100
AcDbBlockEnd
  0
BLOCK
  5
B22
330
B21
100
AcDbEntity
  8
0
 48
4.0
100
AcDbBlockBegin
  2
*D13
 70
     1
 10
0.0
 20
0.0
 30
0.0
  3
*D13
  1

  0
LINE
  5
C10
330
B21
100
AcDbEntity
  8
0Hatch
 62
     1
370
    -2
100
AcDbLine
 10
12053.73372185649
 20
-3389.768212088646
 30
0.0
 11
13113.73372185649
 21
-3389.768212088646
 31
0.0
  0
INSERT
  5
C11
330
B21
100
AcDbEntity
  8
0Hatch
 62
     1
370
    -2
100
AcDbBlockReference
  2
B-DIM
 10
12023.73372185649
 20
-3389.768212088646
 30
0.0
 41
30.0
 42
30.0
 43
30.0
 50
180.0
  0
INSERT
  5
C12
330
B21
100
AcDbEntity
  8
0Hatch
 62
     1
370
    -2
100
AcDbBlockReference
  2
B-DIM
 10
13143.73372185649
 20
-3389.768212088646
 30
0.0
 41
30.0
 42
30.0
 43
30.0
  0
MTEXT
  5
C13
330
B21
100
AcDbEntity
  8
0Hatch
 62
   140
100
AcDbMText
 10
12583.73372185649
 20
-3309.768212088646
 30
0.0
 40
80.0
 41
0.0
 71
     5
 72
     1
  1
\A1;1120
  7
ROMANS
 73
     1
 44
1.0
1001
ACAD
1000
MTEXTBEGIN
1070
    73
1070
     1
1070
    44
1040
1.0
1070
    74
1070
     0
1000
MTEXTEND
  0
POINT
  5
C14
330
B21
100
AcDbEntity
  8
Defpoints
 62
     0
100
AcDbPoint
 10
12023.73372185649
 20
-3706.804513021765
 30
0.0000000000010026
  0
POINT
  5
C15
330
B21
100
AcDbEntity
  8
Defpoints
 62
     0
100
AcDbPoint
 10
13143.73372185649
 20
-3706.804513021765
 30
0.0000000000010026
  0
POINT
  5
C16
330
B21
100
AcDbEntity
  8
Defpoints
 62
     0
100
AcDbPoint
 10
13143.73372185649
 20
-3389.768212088646
 30
0.0
  0
ENDBLK
  5
B23
330
B21
100
AcDbEntity
  8
0
 48
4.0
100
AcDbBlockEnd
  0
BLOCK
  5
B2C
330
B2B
100
AcDbEntity
  8
0
 48
4.0
100
AcDbBlockBegin
  2
*D14
 70
     1
 10
0.0
 20
0.0
 30
0.0
  3
*D14
  1

  0
LINE
  5
C09
330
B2B
100
AcDbEntity
  8
0Hatch
 62
     1
370
    -2
100
AcDbLine
 10
12823.73372185649
 20
-3540.546899565175
 30
0.0
 11
13113.73372185649
 21
-3540.546899565175
 31
0.0
  0
INSERT
  5
C0A
330
B2B
100
AcDbEntity
  8
0Hatch
 62
     1
370
    -2
100
AcDbBlockReference
  2
B-DIM
 10
12793.73372185649
 20
-3540.546899565175
 30
0.0
 41
30.0
 42
30.0
 43
30.0
 50
180.0
  0
INSERT
  5
C0B
330
B2B
100
AcDbEntity
  8
0Hatch
 62
     1
370
    -2
100
AcDbBlockReference
  2
B-DIM
 10
13143.73372185649
 20
-3540.546899565175
 30
0.0
 41
30.0
 42
30.0
 43
30.0
  0
MTEXT
  5
C0C
330
B2B
100
AcDbEntity
  8
0Hatch
 62
   140
100
AcDbMText
 10
12968.73372185649
 20
-3460.546899565176
 30
0.0
 40
80.0
 41
0.0
 71
     5
 72
     1
  1
\A1;350
  7
ROMANS
 73
     1
 44
1.0
1001
ACAD
1000
MTEXTBEGIN
1070
    73
1070
     1
1070
    44
1040
1.0
1070
    74
1070
     0
1000
MTEXTEND
  0
POINT
  5
C0D
330
B2B
100
AcDbEntity
  8
Defpoints
 62
     0
100
AcDbPoint
 10
12793.73372185649
 20
-3702.804513021766
 30
-0.0000000000001759
  0
POINT
  5
C0E
330
B2B
100
AcDbEntity
  8
Defpoints
 62
     0
100
AcDbPoint
 10
13143.73372185649
 20
-3772.804513021765
 30
-0.0000000000001759
  0
POINT
  5
C0F
330
B2B
100
AcDbEntity
  8
Defpoints
 62
     0
100
AcDbPoint
 10
13143.73372185649
 20
-3540.546899565175
 30
0.0
  0
ENDBLK
  5
B2D
330
B2B
100
AcDbEntity
  8
0
 48
4.0
100
AcDbBlockEnd
  0
BLOCK
  5
B36
330
B35
100
AcDbEntity
  8
0
 48
4.0
100
AcDbBlockBegin
  2
*D15
 70
     1
 10
0.0
 20
0.0
 30
0.0
  3
*D15
  1

  0
LINE
  5
C02
330
B35
100
AcDbEntity
  8
0Hatch
 62
     1
370
    -2
100
AcDbLine
 10
12403.73372185649
 20
-3540.546899565175
 30
0.0
 11
12763.73372185649
 21
-3540.546899565175
 31
0.0
  0
INSERT
  5
C03
330
B35
100
AcDbEntity
  8
0Hatch
 62
     1
370
    -2
100
AcDbBlockReference
  2
B-DIM
 10
12373.73372185649
 20
-3540.546899565175
 30
0.0
 41
30.0
 42
30.0
 43
30.0
 50
180.0
  0
INSERT
  5
C04
330
B35
100
AcDbEntity
  8
0Hatch
 62
     1
370
    -2
100
AcDbBlockReference
  2
B-DIM
 10
12793.73372185649
 20
-3540.546899565175
 30
0.0
 41
30.0
 42
30.0
 43
30.0
  0
MTEXT
  5
C05
330
B35
100
AcDbEntity
  8
0Hatch
 62
   140
100
AcDbMText
 10
12583.73372185649
 20
-3460.546899565176
 30
0.0
 40
80.0
 41
0.0
 71
     5
 72
     1
  1
\A1;420
  7
ROMANS
 73
     1
 44
1.0
1001
ACAD
1000
MTEXTBEGIN
1070
    73
1070
     1
1070
    44
1040
1.0
1070
    74
1070
     0
1000
MTEXTEND
  0
POINT
  5
C06
330
B35
100
AcDbEntity
  8
Defpoints
 62
     0
100
AcDbPoint
 10
12373.73372185649
 20
-3838.1966229846
 30
0.0000000000098377
  0
POINT
  5
C07
330
B35
100
AcDbEntity
  8
Defpoints
 62
     0
100
AcDbPoint
 10
12793.73372185649
 20
-3702.804513021766
 30
-0.0000000000001759
  0
POINT
  5
C08
330
B35
100
AcDbEntity
  8
Defpoints
 62
     0
100
AcDbPoint
 10
12793.73372185649
 20
-3540.546899565175
 30
0.0
  0
ENDBLK
  5
B37
330
B35
100
AcDbEntity
  8
0
 48
4.0
100
AcDbBlockEnd
  0
BLOCK
  5
B40
330
B3F
100
AcDbEntity
  8
0
 48
4.0
100
AcDbBlockBegin
  2
*D16
 70
     1
 10
0.0
 20
0.0
 30
0.0
  3
*D16
  1

  0
LINE
  5
BFB
330
B3F
100
AcDbEntity
  8
0Hatch
 62
     1
370
    -2
100
AcDbLine
 10
12053.73372185649
 20
-3540.546899565175
 30
0.0
 11
12343.73372185649
 21
-3540.546899565175
 31
0.0
  0
INSERT
  5
BFC
330
B3F
100
AcDbEntity
  8
0Hatch
 62
     1
370
    -2
100
AcDbBlockReference
  2
B-DIM
 10
12023.73372185649
 20
-3540.546899565175
 30
0.0
 41
30.0
 42
30.0
 43
30.0
 50
180.0
  0
INSERT
  5
BFD
330
B3F
100
AcDbEntity
  8
0Hatch
 62
     1
370
    -2
100
AcDbBlockReference
  2
B-DIM
 10
12373.73372185649
 20
-3540.546899565175
 30
0.0
 41
30.0
 42
30.0
 43
30.0
  0
MTEXT
  5
BFE
330
B3F
100
AcDbEntity
  8
0Hatch
 62
   140
100
AcDbMText
 10
12198.73372185649
 20
-3460.546899565176
 30
0.0
 40
80.0
 41
0.0
 71
     5
 72
     1
  1
\A1;350
  7
ROMANS
 73
     1
 44
1.0
1001
ACAD
1000
MTEXTBEGIN
1070
    73
1070
     1
1070
    44
1040
1.0
1070
    74
1070
     0
1000
MTEXTEND
  0
POINT
  5
BFF
330
B3F
100
AcDbEntity
  8
Defpoints
 62
     0
100
AcDbPoint
 10
12023.73372185649
 20
-3772.804513021765
 30
0.0000000000008268
  0
POINT
  5
C00
330
B3F
100
AcDbEntity
  8
Defpoints
 62
     0
100
AcDbPoint
 10
12373.73372185649
 20
-3838.1966229846
 30
0.0000000000098377
  0
POINT
  5
C01
330
B3F
100
AcDbEntity
  8
Defpoints
 62
     0
100
AcDbPoint
 10
12373.73372185649
 20
-3540.546899565175
 30
0.0
  0
ENDBLK
  5
B41
330
B3F
100
AcDbEntity
  8
0
 48
4.0
100
AcDbBlockEnd
  0
BLOCK
  5
BB4
330
BB3
100
AcDbEntity
  8
0
 48
4.0
100
AcDbBlockBegin
  2
*D17
 70
     1
 10
0.0
 20
0.0
 30
0.0
  3
*D17
  1

  0
LINE
  5
BB6
330
BB3
100
AcDbEntity
  8
0Wymiary-PL
 62
     1
 48
4.0
370
    -2
100
AcDbLine
 10
17727.56868460833
 20
-3656.804513021766
 30
0.0
 11
17727.56868460833
 21
-3626.804513021766
 31
0.0
  0
LINE
  5
BB7
330
BB3
100
AcDbEntity
  8
0Wymiary-PL
 62
     1
 48
4.0
370
    -2
100
AcDbLine
 10
17727.56868460833
 20
-3786.804513021766
 30
0.0
 11
17727.56868460833
 21
-3816.804513021766
 31
0.0
  0
LINE
  5
BB8
330
BB3
100
AcDbEntity
  8
0Wymiary-PL
 62
     1
 48
4.0
370
    -2
100
AcDbLine
 10
17727.56868460833
 20
-3686.804513021766
 30
0.0
 11
17727.56868460833
 21
-3756.804513021766
 31
0.0
  0
INSERT
  5
BB9
330
BB3
100
AcDbEntity
  8
0Wymiary-PL
 62
     1
 48
4.0
370
    -2
100
AcDbBlockReference
  2
B-DIM
 10
17727.56868460833
 20
-3686.804513021766
 30
0.0
 41
30.0
 42
30.0
 43
30.0
 50
270.0
  0
INSERT
  5
BBA
330
BB3
100
AcDbEntity
  8
0Wymiary-PL
 62
     1
 48
4.0
370
    -2
100
AcDbBlockReference
  2
B-DIM
 10
17727.56868460833
 20
-3756.804513021766
 30
0.0
 41
30.0
 42
30.0
 43
30.0
 50
90.0
  0
MTEXT
  5
BBB
330
BB3
100
AcDbEntity
  8
0Wymiary-PL
 62
   140
 48
4.0
100
AcDbMText
 10
17647.56868460833
 20
-3721.804513021762
 30
0.0
 40
80.0
 41
0.0
 71
     5
 72
     1
  1
\A1;70
  7
ROMANS
 11
0.0000000000000001
 21
1.0
 31
0.0
 73
     1
 44
1.0
1001
ACAD
1000
MTEXTBEGIN
1070
    73
1070
     1
1070
    44
1040
1.0
1070
    74
1070
     0
1000
MTEXTEND
  0
POINT
  5
BBC
330
BB3
100
AcDbEntity
  8
Defpoints
 62
     0
 48
4.0
100
AcDbPoint
 10
17296.96943648671
 20
-3686.804513021765
 30
0.0000000000011892
  0
POINT
  5
BBD
330
BB3
100
AcDbEntity
  8
Defpoints
 62
     0
 48
4.0
100
AcDbPoint
 10
17296.96943648671
 20
-3756.804513021766
 30
0.0000000000010026
  0
POINT
  5
BBE
330
BB3
100
AcDbEntity
  8
Defpoints
 62
     0
 48
4.0
100
AcDbPoint
 10
17727.56868460833
 20
-3756.804513021766
 30
0.0
  0
ENDBLK
  5
BB5
330
BB3
100
AcDbEntity
  8
0
 48
4.0
100
AcDbBlockEnd
  0
BLOCK
  5
BC0
330
BBF
100
AcDbEntity
  8
0
 48
4.0
100
AcDbBlockBegin
  2
*D18
 70
     1
 10
0.0
 20
0.0
 30
0.0
  3
*D18
  1

  0
LINE
  5
BC2
330
BBF
100
AcDbEntity
  8
0Wymiary-PL
 62
     1
 48
4.0
370
    -2
100
AcDbLine
 10
17727.56868460833
 20
-3786.804513021766
 30
0.0
 11
17727.56868460833
 21
-4626.804513021765
 31
0.0
  0
INSERT
  5
BC3
330
BBF
100
AcDbEntity
  8
0Wymiary-PL
 62
     1
 48
4.0
370
    -2
100
AcDbBlockReference
  2
B-DIM
 10
17727.56868460833
 20
-3756.804513021766
 30
0.0
 41
30.0
 42
30.0
 43
30.0
 50
90.0
  0
INSERT
  5
BC4
330
BBF
100
AcDbEntity
  8
0Wymiary-PL
 62
     1
 48
4.0
370
    -2
100
AcDbBlockReference
  2
B-DIM
 10
17727.56868460833
 20
-4656.804513021765
 30
0.0
 41
30.0
 42
30.0
 43
30.0
 50
270.0
  0
MTEXT
  5
BC5
330
BBF
100
AcDbEntity
  8
0Wymiary-PL
 62
   140
 48
4.0
100
AcDbMText
 10
17647.56868460833
 20
-4206.804513021762
 30
0.0
 40
80.0
 41
0.0
 71
     5
 72
     1
  1
\A1;900
  7
ROMANS
 11
0.0000000000000001
 21
1.0
 31
0.0
 73
     1
 44
1.0
1001
ACAD
1000
MTEXTBEGIN
1070
    73
1070
     1
1070
    44
1040
1.0
1070
    74
1070
     0
1000
MTEXTEND
  0
POINT
  5
BC6
330
BBF
100
AcDbEntity
  8
Defpoints
 62
     0
 48
4.0
100
AcDbPoint
 10
17296.96943648671
 20
-3756.804513021766
 30
0.0000000000010026
  0
POINT
  5
BC7
330
BBF
100
AcDbEntity
  8
Defpoints
 62
     0
 48
4.0
100
AcDbPoint
 10
17646.96943648672
 20
-4656.804513021765
 30
0.0
  0
POINT
  5
BC8
330
BBF
100
AcDbEntity
  8
Defpoints
 62
     0
 48
4.0
100
AcDbPoint
 10
17727.56868460833
 20
-4656.804513021765
 30
0.0
  0
ENDBLK
  5
BC1
330
BBF
100
AcDbEntity
  8
0
 48
4.0
100
AcDbBlockEnd
  0
BLOCK
  5
BDA
330
BD9
100
AcDbEntity
  8
0
 48
4.0
100
AcDbBlockBegin
  2
*D19
 70
     1
 10
0.0
 20
0.0
 30
0.0
  3
*D19
  1

  0
LINE
  5
BDC
330
BD9
100
AcDbEntity
  8
0Wymiary-PL
 62
     1
 48
4.0
370
    -2
100
AcDbLine
 10
17500.96943648672
 20
-3540.546899565175
 30
0.0
 11
17210.96943648672
 21
-3540.546899565175
 31
0.0
  0
INSERT
  5
BDD
330
BD9
100
AcDbEntity
  8
0Wymiary-PL
 62
     1
 48
4.0
370
    -2
100
AcDbBlockReference
  2
B-DIM
 10
17530.96943648672
 20
-3540.546899565175
 30
0.0
 41
30.0
 42
30.0
 43
30.0
  0
INSERT
  5
BDE
330
BD9
100
AcDbEntity
  8
0Wymiary-PL
 62
     1
 48
4.0
370
    -2
100
AcDbBlockReference
  2
B-DIM
 10
17180.96943648671
 20
-3540.546899565175
 30
0.0
 41
30.0
 42
30.0
 43
30.0
 50
180.0
  0
MTEXT
  5
BDF
330
BD9
100
AcDbEntity
  8
0Wymiary-PL
 62
   140
 48
4.0
100
AcDbMText
 10
17355.96943648672
 20
-3460.546899565176
 30
0.0
 40
80.0
 41
0.0
 71
     5
 72
     1
  1
\A1;350
  7
ROMANS
 73
     1
 44
1.0
1001
ACAD
1000
MTEXTBEGIN
1070
    73
1070
     1
1070
    44
1040
1.0
1070
    74
1070
     0
1000
MTEXTEND
  0
POINT
  5
BE0
330
BD9
100
AcDbEntity
  8
Defpoints
 62
     0
 48
4.0
100
AcDbPoint
 10
17530.96943648672
 20
-3772.804513021765
 30
0.0000000000008268
  0
POINT
  5
BE1
330
BD9
100
AcDbEntity
  8
Defpoints
 62
     0
 48
4.0
100
AcDbPoint
 10
17180.96943648671
 20
-3772.804513021765
 30
0.0000000000008268
  0
POINT
  5
BE2
330
BD9
100
AcDbEntity
  8
Defpoints
 62
     0
 48
4.0
100
AcDbPoint
 10
17180.96943648671
 20
-3540.546899565175
 30
0.0
  0
ENDBLK
  5
BDB
330
BD9
100
AcDbEntity
  8
0
 48
4.0
100
AcDbBlockEnd
  0
BLOCK
  5
BF2
330
BF1
100
AcDbEntity
  8
0
 48
4.0
100
AcDbBlockBegin
  2
*D20
 70
     1
 10
0.0
 20
0.0
 30
0.0
  3
*D20
  1

  0
LINE
  5
BF4
330
BF1
100
AcDbEntity
  8
0Wymiary-PL
 62
     1
 48
4.0
370
    -2
100
AcDbLine
 10
17500.96943648672
 20
-3389.768212088646
 30
0.0
 11
16440.96943648672
 21
-3389.768212088646
 31
0.0
  0
INSERT
  5
BF5
330
BF1
100
AcDbEntity
  8
0Wymiary-PL
 62
     1
 48
4.0
370
    -2
100
AcDbBlockReference
  2
B-DIM
 10
17530.96943648672
 20
-3389.768212088646
 30
0.0
 41
30.0
 42
30.0
 43
30.0
  0
INSERT
  5
BF6
330
BF1
100
AcDbEntity
  8
0Wymiary-PL
 62
     1
 48
4.0
370
    -2
100
AcDbBlockReference
  2
B-DIM
 10
16410.96943648672
 20
-3389.768212088646
 30
0.0
 41
30.0
 42
30.0
 43
30.0
 50
180.0
  0
MTEXT
  5
BF7
330
BF1
100
AcDbEntity
  8
0Wymiary-PL
 62
   140
 48
4.0
100
AcDbMText
 10
16970.96943648672
 20
-3309.768212088646
 30
0.0
 40
80.0
 41
0.0
 71
     5
 72
     1
  1
\A1;1120
  7
ROMANS
 73
     1
 44
1.0
1001
ACAD
1000
MTEXTBEGIN
1070
    73
1070
     1
1070
    44
1040
1.0
1070
    74
1070
     0
1000
MTEXTEND
  0
POINT
  5
BF8
330
BF1
100
AcDbEntity
  8
Defpoints
 62
     0
 48
4.0
100
AcDbPoint
 10
17530.96943648672
 20
-3706.804513021765
 30
0.0000000000010026
  0
POINT
  5
BF9
330
BF1
100
AcDbEntity
  8
Defpoints
 62
     0
 48
4.0
100
AcDbPoint
 10
16410.96943648672
 20
-3706.804513021765
 30
0.0000000000010026
  0
POINT
  5
BFA
330
BF1
100
AcDbEntity
  8
Defpoints
 62
     0
 48
4.0
100
AcDbPoint
 10
16410.96943648672
 20
-3389.768212088646
 30
0.0
  0
ENDBLK
  5
BF3
330
BF1
100
AcDbEntity
  8
0
 48
4.0
100
AcDbBlockEnd
  0
ENDSEC
  0
SECTION
  2
ENTITIES
  0
LINE
  5
73
330
2
100
AcDbEntity
  8
NAPISY
  6
DASHED
 62
     1
 48
25.0
370
     5
100
AcDbLine
 10
14777.3515791716
 20
-6721.425028609388
 30
-0.0000000000179095
 11
14777.3515791716
 21
-1918.967971132006
 31
-0.0000000000051132
  0
TEXT
  5
78
330
2
100
AcDbEntity
  8
NAPISY
100
AcDbText
 10
14717.83040217828
 20
-5639.777865788856
 30
-0.0000000000150274
 40
100.0
  1
OŚ ODBICIA LUSTRZANEGO
 50
90.0
  7
AVA
100
AcDbText
  0
TEXT
  5
7A
330
2
100
AcDbEntity
  8
NAPISY
100
AcDbText
 10
11136.70352584659
 20
-12164.84747706844
 30
-0.0000000000324137
 40
100.0
  1
   O B R Y S   B U D Y N K U           S K A L A   1 : 5 0 0 
  7
AVA
100
AcDbText
  0
TEXT
  5
7B
330
2
100
AcDbEntity
  8
NAPISY
100
AcDbText
 10
11232.91657696449
 20
298.5177838134259
 30
0.0000000000007954
 40
150.0
  1
MOŻNA WKLEIĆ DO PROJEKTU ZAGOSPODAROWANIA TERENU
  7
AVA
100
AcDbText
  0
TEXT
  5
7C
330
2
100
AcDbEntity
  8
NAPISY
100
AcDbText
 10
11156.58130632934
 20
628.3862611761869
 30
0.0000000000016744
 40
150.0
  1
"DOM W ASPARAGUSACH"
  7
AVA
100
AcDbText
  0
LWPOLYLINE
  5
7D
330
2
100
AcDbEntity
  8
RAMKI-A4
100
AcDbPolyline
 90
        4
 70
     1
 43
0.0
 10
9677.351579171606
 20
-12830.40355997097
 10
9677.351579171606
 20
1189.596440029025
 10
19877.35157917163
 20
1189.596440029025
 10
19877.35157917163
 20
-12830.40355997097
  0
LINE
  5
81
330
2
100
AcDbEntity
  8
0Hatch
100
AcDbLine
 10
12719.73372185649
 20
-4717.804513021765
 30
-0.000000000001558
 11
12719.73372185649
 21
-4756.804513021765
 31
-0.0000000000016619
  0
LINE
  5
82
330
2
100
AcDbEntity
  8
0Hatch
100
AcDbLine
 10
12719.73372185649
 20
-4756.804513021765
 30
-0.0000000000016619
 11
12768.73372185649
 21
-4756.804513021765
 31
-0.0000000000016619
  0
LINE
  5
83
330
2
100
AcDbEntity
  8
0Hatch
100
AcDbLine
 10
12768.73372185649
 20
-4756.804513021765
 30
-0.0000000000016619
 11
12768.73372185649
 21
-4717.804513021765
 31
-0.000000000001558
  0
LINE
  5
84
330
2
100
AcDbEntity
  8
0Hatch
100
AcDbLine
 10
12447.73372185649
 20
-4717.804513021765
 30
-0.000000000001558
 11
12447.73372185649
 21
-4756.804513021765
 31
-0.0000000000016619
  0
LINE
  5
85
330
2
100
AcDbEntity
  8
0Hatch
100
AcDbLine
 10
12447.73372185649
 20
-4756.804513021765
 30
-0.0000000000016619
 11
12398.73372185649
 21
-4756.804513021765
 31
-0.0000000000016619
  0
LINE
  5
86
330
2
100
AcDbEntity
  8
0Hatch
100
AcDbLine
 10
12398.73372185649
 20
-4756.804513021765
 30
-0.0000000000016619
 11
12398.73372185649
 21
-4717.804513021765
 31
-0.000000000001558
  0
LINE
  5
87
330
2
100
AcDbEntity
  8
0Hatch
100
AcDbLine
 10
12719.73372185649
 20
-4717.804513021765
 30
-0.000000000001558
 11
12768.73372185649
 21
-4717.804513021765
 31
-0.000000000001558
  0
LINE
  5
88
330
2
100
AcDbEntity
  8
0Hatch
100
AcDbLine
 10
12768.73372185649
 20
-4717.804513021765
 30
-0.000000000001558
 11
12768.73372185649
 21
-4756.804513021765
 31
-0.0000000000016619
  0
LINE
  5
89
330
2
100
AcDbEntity
  8
0Hatch
100
AcDbLine
 10
12768.73372185649
 20
-4756.804513021765
 30
-0.0000000000016619
 11
12719.73372185649
 21
-4756.804513021765
 31
-0.0000000000016619
  0
LINE
  5
8A
330
2
100
AcDbEntity
  8
0Hatch
100
AcDbLine
 10
12719.73372185649
 20
-4756.804513021765
 30
-0.0000000000016619
 11
12719.73372185649
 21
-4717.804513021765
 31
-0.000000000001558
  0
LINE
  5
8B
330
2
100
AcDbEntity
  8
0Hatch
100
AcDbLine
 10
12719.73372185649
 20
-4717.804513021765
 30
-0.000000000001558
 11
12768.73372185649
 21
-4717.804513021765
 31
-0.000000000001558
  0
LINE
  5
8C
330
2
100
AcDbEntity
  8
0Hatch
100
AcDbLine
 10
12447.73372185649
 20
-4717.804513021765
 30
-0.000000000001558
 11
12398.73372185649
 21
-4717.804513021765
 31
-0.000000000001558
  0
LINE
  5
8D
330
2
100
AcDbEntity
  8
0Hatch
100
AcDbLine
 10
12528.73372185649
 20
-4640.804513021765
 30
-0.0000000000013528
 11
12528.73372185649
 21
-4596.804513021765
 31
-0.0000000000012356
  0
LINE
  5
8E
330
2
100
AcDbEntity
  8
0Hatch
100
AcDbLine
 10
12638.73372185649
 20
-4640.804513021765
 30
-0.0000000000013528
 11
12638.73372185649
 21
-4596.804513021765
 31
-0.0000000000012356
  0
HATCH
  5
8F
330
2
100
AcDbEntity
  8
0Hatch
100
AcDbHatch
 10
0.0
 20
0.0
 30
0.0000000000110128
210
0.0
220
-0.0000000000000027
230
1.0
  2
SOLID
 70
     1
 71
     1
 91
        1
 92
        7
 72
     0
 73
     1
 93
        4
 10
12719.73372185649
 20
-4717.804513021765
 10
12719.73372185649
 20
-4756.804513021765
 10
12768.73372185649
 20
-4756.804513021765
 10
12768.73372185649
 20
-4717.804513021765
 97
        4
330
90
330
91
330
92
330
93
 75
     0
 76
     1
 47
1.260411100038441
 98
        1
 10
12746.3509257703
 20
-4732.637224657912
1001
ACAD
1010
0.0
1020
0.0
1030
0.0
  0
LINE
  5
90
102
{ACAD_REACTORS
330
8F
102
}
330
2
100
AcDbEntity
  8
0Hatch
100
AcDbLine
 10
12768.73372185649
 20
-4717.804513021765
 30
-0.000000000001558
 11
12719.73372185649
 21
-4717.804513021765
 31
-0.000000000001558
  0
LINE
  5
91
102
{ACAD_REACTORS
330
8F
102
}
330
2
100
AcDbEntity
  8
0Hatch
100
AcDbLine
 10
12719.73372185649
 20
-4717.804513021765
 30
-0.000000000001558
 11
12719.73372185649
 21
-4756.804513021765
 31
-0.0000000000016619
  0
LINE
  5
92
102
{ACAD_REACTORS
330
8F
102
}
330
2
100
AcDbEntity
  8
0Hatch
100
AcDbLine
 10
12719.73372185649
 20
-4756.804513021765
 30
-0.0000000000016619
 11
12768.73372185649
 21
-4756.804513021765
 31
-0.0000000000016619
  0
LINE
  5
93
102
{ACAD_REACTORS
330
8F
102
}
330
2
100
AcDbEntity
  8
0Hatch
100
AcDbLine
 10
12768.73372185649
 20
-4756.804513021765
 30
-0.0000000000016619
 11
12768.73372185649
 21
-4717.804513021765
 31
-0.000000000001558
  0
HATCH
  5
94
330
2
100
AcDbEntity
  8
0Hatch
100
AcDbHatch
 10
0.0
 20
0.0
 30
0.0000000000110128
210
0.0
220
-0.0000000000000027
230
1.0
  2
SOLID
 70
     1
 71
     1
 91
        1
 92
        7
 72
     0
 73
     1
 93
        4
 10
12398.73372185649
 20
-4717.804513021765
 10
12398.73372185649
 20
-4756.804513021765
 10
12447.73372185649
 20
-4756.804513021765
 10
12447.73372185649
 20
-4717.804513021765
 97
        4
330
95
330
98
330
97
330
96
 75
     0
 76
     1
 47
1.260411100038441
 98
        1
 10
12425.96738061451
 20
-4726.335186615106
1001
ACAD
1010
0.0
1020
0.0
1030
0.0
  0
LINE
  5
95
102
{ACAD_REACTORS
330
94
102
}
330
2
100
AcDbEntity
  8
0Hatch
100
AcDbLine
 10
12398.73372185649
 20
-4717.804513021765
 30
-0.000000000001558
 11
12447.73372185649
 21
-4717.804513021765
 31
-0.000000000001558
  0
LINE
  5
96
102
{ACAD_REACTORS
330
94
102
}
330
2
100
AcDbEntity
  8
0Hatch
100
AcDbLine
 10
12447.73372185649
 20
-4717.804513021765
 30
-0.000000000001558
 11
12447.73372185649
 21
-4756.804513021765
 31
-0.0000000000016619
  0
LINE
  5
97
102
{ACAD_REACTORS
330
94
102
}
330
2
100
AcDbEntity
  8
0Hatch
100
AcDbLine
 10
12447.73372185649
 20
-4756.804513021765
 30
-0.0000000000016619
 11
12398.73372185649
 21
-4756.804513021765
 31
-0.0000000000016619
  0
LINE
  5
98
102
{ACAD_REACTORS
330
94
102
}
330
2
100
AcDbEntity
  8
0Hatch
100
AcDbLine
 10
12398.73372185649
 20
-4756.804513021765
 30
-0.0000000000016619
 11
12398.73372185649
 21
-4717.804513021765
 31
-0.000000000001558
  0
LINE
  5
99
330
2
100
AcDbEntity
  8
0Hatch
100
AcDbLine
 10
12714.73372185649
 20
-4712.804513021764
 30
-0.0000000000015446
 11
12714.73372185649
 21
-4761.804513021765
 31
-0.0000000000016752
  0
LINE
  5
9A
330
2
100
AcDbEntity
  8
0Hatch
100
AcDbLine
 10
12714.73372185649
 20
-4761.804513021765
 30
-0.0000000000016752
 11
12773.73372185649
 21
-4761.804513021765
 31
-0.0000000000016752
  0
LINE
  5
9B
330
2
100
AcDbEntity
  8
0Hatch
100
AcDbLine
 10
12773.73372185649
 20
-4761.804513021765
 30
-0.0000000000016752
 11
12773.73372185649
 21
-4712.804513021764
 31
-0.0000000000015446
  0
LINE
  5
9C
330
2
100
AcDbEntity
  8
0Hatch
100
AcDbLine
 10
12773.73372185649
 20
-4712.804513021764
 30
-0.0000000000015446
 11
12714.73372185649
 21
-4712.804513021764
 31
-0.0000000000015446
  0
LINE
  5
9D
330
2
100
AcDbEntity
  8
0Hatch
100
AcDbLine
 10
12452.73372185649
 20
-4712.804513021764
 30
-0.0000000000015446
 11
12452.73372185649
 21
-4761.804513021765
 31
-0.0000000000016752
  0
LINE
  5
9E
330
2
100
AcDbEntity
  8
0Hatch
100
AcDbLine
 10
12452.73372185649
 20
-4761.804513021765
 30
-0.0000000000016752
 11
12393.73372185649
 21
-4761.804513021765
 31
-0.0000000000016752
  0
LINE
  5
9F
330
2
100
AcDbEntity
  8
0Hatch
100
AcDbLine
 10
12393.73372185649
 20
-4761.804513021765
 30
-0.0000000000016752
 11
12393.73372185649
 21
-4712.804513021764
 31
-0.0000000000015446
  0
LINE
  5
A0
330
2
100
AcDbEntity
  8
0Hatch
100
AcDbLine
 10
12393.73372185649
 20
-4712.804513021764
 30
-0.0000000000015446
 11
12452.73372185649
 21
-4712.804513021764
 31
-0.0000000000015446
  0
LINE
  5
A3
330
2
100
AcDbEntity
  8
0Hatch
100
AcDbLine
 10
12153.73372185649
 20
-3756.804513021766
 30
0.0000000000010026
 11
12023.73372185649
 21
-3756.804513021766
 31
0.0000000000010026
  0
LINE
  5
A5
330
2
100
AcDbEntity
  8
0Hatch
100
AcDbLine
 10
13143.73372185649
 20
-4041.804513021765
 30
0.0000000000002433
 11
13143.73372185649
 21
-3756.804513021766
 31
0.0000000000010026
  0
LINE
  5
A6
330
2
100
AcDbEntity
  8
0Hatch
100
AcDbLine
 10
13143.73372185649
 20
-4656.804513021765
 30
-0.0000000000013954
 11
13143.73372185649
 21
-4371.804513021765
 31
-0.000000000000636
  0
LINE
  5
A8
330
2
100
AcDbEntity
  8
0Hatch
100
AcDbLine
 10
12638.73372185649
 20
-4596.804513021765
 30
-0.0000000000012356
 11
12638.73372185649
 21
-4656.804513021765
 31
-0.0000000000013954
  0
LINE
  5
A9
330
2
100
AcDbEntity
  8
0Hatch
100
AcDbLine
 10
12638.73372185649
 20
-4656.804513021765
 30
-0.0000000000013954
 11
12837.91812398709
 21
-4656.804513021765
 31
-0.0000000000013954
  0
LINE
  5
AA
330
2
100
AcDbEntity
  8
0Hatch
100
AcDbLine
 10
12328.73372185649
 20
-4656.804513021765
 30
-0.0000000000013954
 11
12528.73372185649
 21
-4656.804513021765
 31
-0.0000000000013954
  0
LINE
  5
AB
330
2
100
AcDbEntity
  8
0Hatch
100
AcDbLine
 10
12528.73372185649
 20
-4656.804513021765
 30
-0.0000000000013954
 11
12528.73372185649
 21
-4596.804513021765
 31
-0.0000000000012356
  0
LINE
  5
AC
330
2
100
AcDbEntity
  8
0Hatch
100
AcDbLine
 10
12023.73372185649
 20
-4656.804513021765
 30
-0.0000000000013954
 11
12088.73372185649
 21
-4656.804513021765
 31
-0.0000000000013954
  0
LINE
  5
AE
330
2
100
AcDbEntity
  8
0Hatch
100
AcDbLine
 10
12373.73372185649
 20
-3686.804513021765
 30
0.0000000000011892
 11
12373.73372185649
 21
-3756.804513021766
 31
0.0000000000010026
  0
LINE
  5
AF
330
2
100
AcDbEntity
  8
0Hatch
100
AcDbLine
 10
12387.73372185649
 20
-4656.804513021765
 30
-0.0000000000013954
 11
12387.73372185649
 21
-4776.804513021764
 31
-0.0000000000017152
  0
LINE
  5
B0
330
2
100
AcDbEntity
  8
0Hatch
100
AcDbLine
 10
12387.73372185649
 20
-4776.804513021764
 30
-0.0000000000017152
 11
12023.73372185649
 21
-4776.804513021764
 31
-0.0000000000017152
  0
LINE
  5
B1
330
2
100
AcDbEntity
  8
0Hatch
100
AcDbLine
 10
12023.73372185649
 20
-4776.804513021764
 30
-0.0000000000017152
 11
12023.73372185649
 21
-4656.804513021765
 31
-0.0000000000013954
  0
LINE
  5
B2
330
2
100
AcDbEntity
  8
0Hatch
100
AcDbLine
 10
12023.73372185649
 20
-4656.804513021765
 30
-0.0000000000013954
 11
12387.73372185649
 21
-4656.804513021765
 31
-0.0000000000013954
  0
ARC
  5
B3
330
2
100
AcDbEntity
  8
0Hatch
100
AcDbCircle
 10
12583.73372185649
 20
-4441.752592229204
 30
46.99999999999917
 40
384.8810019556843
100
AcDbArc
 50
249.3072807881183
 51
290.6927192118818
  0
LINE
  5
B4
330
2
100
AcDbEntity
  8
0Hatch
100
AcDbLine
 10
12773.73372185649
 20
-4761.804513021765
 30
-0.0000000000016752
 11
12719.73372185649
 21
-4761.804513021765
 31
-0.0000000000016752
  0
LINE
  5
B5
330
2
100
AcDbEntity
  8
0Hatch
100
AcDbLine
 10
12719.73372185649
 20
-4761.804513021765
 30
-0.0000000000016752
 11
12719.73372185649
 21
-4656.804513021765
 31
-0.0000000000013954
  0
LINE
  5
B6
330
2
100
AcDbEntity
  8
0Hatch
100
AcDbLine
 10
12719.73372185649
 20
-4656.804513021765
 30
-0.0000000000013954
 11
12447.73372185649
 21
-4656.804513021765
 31
-0.0000000000013954
  0
LINE
  5
B7
330
2
100
AcDbEntity
  8
0Hatch
100
AcDbLine
 10
12447.73372185649
 20
-4656.804513021765
 30
-0.0000000000013954
 11
12447.73372185649
 21
-4761.804513021765
 31
-0.0000000000016752
  0
LINE
  5
B8
330
2
100
AcDbEntity
  8
0Hatch
100
AcDbLine
 10
12447.73372185649
 20
-4761.804513021765
 30
-0.0000000000016752
 11
12393.73372185649
 21
-4761.804513021765
 31
-0.0000000000016752
  0
LINE
  5
B9
330
2
100
AcDbEntity
  8
0Hatch
100
AcDbLine
 10
12393.73372185649
 20
-4761.804513021765
 30
-0.0000000000016752
 11
12393.73372185649
 21
-4756.804513021765
 31
-0.0000000000016619
  0
LINE
  5
BA
330
2
100
AcDbEntity
  8
0Hatch
100
AcDbLine
 10
12393.73372185649
 20
-4756.804513021765
 30
-0.0000000000016619
 11
12387.73372185649
 21
-4756.804513021765
 31
-0.0000000000016619
  0
LINE
  5
BB
330
2
100
AcDbEntity
  8
0Hatch
100
AcDbLine
 10
12387.73372185649
 20
-4756.804513021765
 30
-0.0000000000016619
 11
12387.73372185649
 21
-4841.13099162143
 31
-0.0000000000018866
  0
ARC
  5
BC
330
2
100
AcDbEntity
  8
0Hatch
100
AcDbCircle
 10
12583.73372185649
 20
-4441.752592229211
 30
-0.0000000000008224
 40
444.8810019556829
100
AcDbArc
 50
243.859920426754
 51
296.140079573246
  0
LINE
  5
BD
330
2
100
AcDbEntity
  8
0Hatch
100
AcDbLine
 10
12779.73372185649
 20
-4841.13099162143
 30
-0.0000000000018866
 11
12779.73372185649
 21
-4756.804513021765
 31
-0.0000000000016619
  0
LINE
  5
BE
330
2
100
AcDbEntity
  8
0Hatch
100
AcDbLine
 10
12779.73372185649
 20
-4756.804513021765
 30
-0.0000000000016619
 11
12773.73372185649
 21
-4756.804513021765
 31
-0.0000000000016619
  0
LINE
  5
BF
330
2
100
AcDbEntity
  8
0Hatch
100
AcDbLine
 10
12773.73372185649
 20
-4756.804513021765
 30
-0.0000000000016619
 11
12773.73372185649
 21
-4761.804513021765
 31
-0.0000000000016752
  0
LINE
  5
C0
330
2
100
AcDbEntity
  8
0Hatch
100
AcDbLine
 10
12749.73372185649
 20
-4761.804513021765
 30
14.99999999999832
 11
12719.73372185649
 21
-4761.804513021765
 31
14.99999999999832
  0
LINE
  5
C1
330
2
100
AcDbEntity
  8
0Hatch
100
AcDbLine
 10
12719.73372185649
 20
-4761.804513021765
 30
14.99999999999832
 11
12719.73372185649
 21
-4656.804513021765
 31
14.9999999999986
  0
LINE
  5
C2
330
2
100
AcDbEntity
  8
0Hatch
100
AcDbLine
 10
12719.73372185649
 20
-4656.804513021765
 30
14.9999999999986
 11
12447.73372185649
 21
-4656.804513021765
 31
14.9999999999986
  0
LINE
  5
C3
330
2
100
AcDbEntity
  8
0Hatch
100
AcDbLine
 10
12447.73372185649
 20
-4656.804513021765
 30
14.9999999999986
 11
12447.73372185649
 21
-4761.804513021765
 31
14.99999999999832
  0
LINE
  5
C4
330
2
100
AcDbEntity
  8
0Hatch
100
AcDbLine
 10
12447.73372185649
 20
-4761.804513021765
 30
14.99999999999832
 11
12417.73372185649
 21
-4761.804513021765
 31
14.99999999999832
  0
LINE
  5
C5
330
2
100
AcDbEntity
  8
0Hatch
100
AcDbLine
 10
12417.73372185649
 20
-4761.804513021765
 30
14.99999999999832
 11
12417.73372185649
 21
-4821.976533852765
 31
14.99999999999816
  0
ARC
  5
C6
330
2
100
AcDbEntity
  8
0Hatch
100
AcDbCircle
 10
12583.73372185649
 20
-4441.752592229211
 30
14.99999999999918
 40
414.8810019556827
100
AcDbArc
 50
246.4146490122457
 51
293.5853509877544
  0
LINE
  5
C7
330
2
100
AcDbEntity
  8
0Hatch
100
AcDbLine
 10
12749.73372185649
 20
-4821.976533852765
 30
14.99999999999816
 11
12749.73372185649
 21
-4761.804513021765
 31
14.99999999999832
  0
LINE
  5
C8
330
2
100
AcDbEntity
  8
0Hatch
100
AcDbLine
 10
12719.73372185649
 20
-4656.804513021765
 30
29.99999999999861
 11
12447.73372185649
 21
-4656.804513021765
 31
29.99999999999861
  0
LINE
  5
C9
330
2
100
AcDbEntity
  8
0Hatch
100
AcDbLine
 10
12447.73372185649
 20
-4656.804513021765
 30
29.99999999999861
 11
12447.73372185649
 21
-4801.804513021765
 31
29.99999999999822
  0
ARC
  5
CA
330
2
100
AcDbEntity
  8
0Hatch
100
AcDbCircle
 10
12583.73372185649
 20
-4441.752592229204
 30
29.99999999999918
 40
384.8810019556872
100
AcDbArc
 50
249.3072807881183
 51
290.6927192118818
  0
LINE
  5
CB
330
2
100
AcDbEntity
  8
0Hatch
100
AcDbLine
 10
12719.73372185649
 20
-4801.804513021765
 30
29.99999999999822
 11
12719.73372185649
 21
-4656.804513021765
 31
29.99999999999861
  0
LINE
  5
CC
330
2
100
AcDbEntity
  8
0Hatch
100
AcDbLine
 10
12719.73372185649
 20
-4656.804513021765
 30
-0.0000000000013954
 11
12719.73372185649
 21
-4761.804513021765
 31
-0.0000000000016752
  0
LINE
  5
CD
330
2
100
AcDbEntity
  8
0Hatch
100
AcDbLine
 10
12719.73372185649
 20
-4761.804513021765
 30
-0.0000000000016752
 11
12773.73372185649
 21
-4761.804513021765
 31
-0.0000000000016752
  0
LINE
  5
CE
330
2
100
AcDbEntity
  8
0Hatch
100
AcDbLine
 10
12773.73372185649
 20
-4761.804513021765
 30
-0.0000000000016752
 11
12773.73372185649
 21
-4656.804513021765
 31
-0.0000000000013954
  0
LINE
  5
CF
330
2
100
AcDbEntity
  8
0Hatch
100
AcDbLine
 10
12773.73372185649
 20
-4656.804513021765
 30
-0.0000000000013954
 11
12719.73372185649
 21
-4656.804513021765
 31
-0.0000000000013954
  0
LINE
  5
D0
330
2
100
AcDbEntity
  8
0Hatch
100
AcDbLine
 10
12447.73372185649
 20
-4656.804513021765
 30
-0.0000000000013954
 11
12447.73372185649
 21
-4761.804513021765
 31
-0.0000000000016752
  0
LINE
  5
D1
330
2
100
AcDbEntity
  8
0Hatch
100
AcDbLine
 10
12447.73372185649
 20
-4761.804513021765
 30
-0.0000000000016752
 11
12393.73372185649
 21
-4761.804513021765
 31
-0.0000000000016752
  0
LINE
  5
D2
330
2
100
AcDbEntity
  8
0Hatch
100
AcDbLine
 10
12393.73372185649
 20
-4761.804513021765
 30
-0.0000000000016752
 11
12393.73372185649
 21
-4656.804513021765
 31
-0.0000000000013954
  0
LINE
  5
D3
330
2
100
AcDbEntity
  8
0Hatch
100
AcDbLine
 10
12393.73372185649
 20
-4656.804513021765
 30
-0.0000000000013954
 11
12447.73372185649
 21
-4656.804513021765
 31
-0.0000000000013954
  0
LINE
  5
37A
330
2
100
AcDbEntity
  8
0Hatch
100
AcDbLine
 10
13143.73372185649
 20
-3846.804513021758
 30
0.0000000000007628
 11
13143.73372185649
 21
-3906.804513021758
 31
0.000000000000603
  0
LINE
  5
37B
330
2
100
AcDbEntity
  8
0Hatch
100
AcDbLine
 10
13143.73372185649
 20
-3906.804513021758
 30
0.000000000000603
 11
13315.50500679339
 21
-3906.804513021758
 31
0.000000000000603
  0
ARC
  5
37C
330
2
100
AcDbEntity
  8
0Hatch
100
AcDbCircle
 10
-12741.54325943341
 20
-4223.845033295074
 30
-0.0000000000110128
 40
655.7032704872567
210
0.0
220
0.0000000000000027
230
-1.0
100
AcDbArc
 50
151.0849593463273
 51
162.9393860780555
  0
LINE
  5
37D
330
2
100
AcDbEntity
  8
0Hatch
100
AcDbLine
 10
13368.39225321011
 20
-4031.472691393159
 30
0.0000000000002708
 11
13426.78421014241
 21
-4018.070760328213
 31
0.0000000000003065
  0
ARC
  5
37E
330
2
100
AcDbEntity
  8
0Hatch
100
AcDbCircle
 10
12770.0812644977
 20
-4210.996042118196
 30
-0.0000000000002076
 40
684.4552017277679
100
AcDbArc
 50
16.37166016855125
 51
32.14675312094528
  0
LINE
  5
37F
330
2
100
AcDbEntity
  8
0Hatch
100
AcDbLine
 10
13349.60128426112
 20
-3846.804513021758
 30
0.0000000000007628
 11
13143.73372185649
 21
-3846.804513021758
 31
0.0000000000007628
  0
LINE
  5
380
330
2
100
AcDbEntity
  8
0Hatch
100
AcDbLine
 10
13143.73372185649
 20
-3876.804513021758
 30
15.00000000000068
 11
13143.73372185649
 21
-3906.804513021766
 31
15.0000000000006
  0
LINE
  5
381
330
2
100
AcDbEntity
  8
0Hatch
100
AcDbLine
 10
13143.73372185649
 20
-3906.804513021766
 30
15.0000000000006
 11
13315.50500679339
 21
-3906.804513021766
 31
15.0000000000006
  0
ARC
  5
382
330
2
100
AcDbEntity
  8
0Hatch
100
AcDbCircle
 10
-12756.10651595892
 20
-4217.666948826721
 30
-15.00000000001101
 40
639.9704098960123
210
0.0
220
0.0000000000000027
230
-1.0
100
AcDbArc
 50
150.938704756332
 51
163.0856406684414
  0
LINE
  5
383
330
2
100
AcDbEntity
  8
0Hatch
100
AcDbLine
 10
13368.39225321011
 20
-4031.472691393159
 30
15.00000000000027
 11
13397.4818939199
 21
-4024.756143097351
 31
15.00000000000029
  0
ARC
  5
384
330
2
100
AcDbEntity
  8
0Hatch
100
AcDbCircle
 10
12779.40711747334
 20
-4206.793981008581
 30
14.9999999999998
 40
644.3246105115601
100
AcDbArc
 50
16.41096510109795
 51
30.80700356432796
  0
LINE
  5
385
330
2
100
AcDbEntity
  8
0Hatch
100
AcDbLine
 10
13332.81578629653
 20
-3876.804513021758
 30
15.00000000000068
 11
13143.73372185649
 21
-3876.804513021758
 31
15.00000000000068
  0
LINE
  5
386
330
2
100
AcDbEntity
  8
0Hatch
100
AcDbLine
 10
13143.73372185649
 20
-4506.804513021765
 30
29.999999999999
 11
13315.50500679339
 21
-4506.804513021765
 31
29.999999999999
  0
ARC
  5
387
330
2
100
AcDbEntity
  8
0Hatch
100
AcDbCircle
 10
12757.41358685035
 20
-4196.496568196155
 30
29.99999999999984
 40
638.5585749451065
100
AcDbArc
 50
330.925225799519
 51
344.8894672872369
  0
LINE
  5
388
330
2
100
AcDbEntity
  8
0Hatch
100
AcDbLine
 10
13373.8938240301
 20
-4362.957286693702
 30
29.99999999999939
 11
13393.24373962544
 21
-4367.372009110972
 31
29.99999999999938
  0
LINE
  5
389
330
2
100
AcDbEntity
  8
0Hatch
100
AcDbLine
 10
13393.24373962544
 20
-4367.372009110972
 30
29.99999999999938
 11
13412.59365522077
 21
-4371.786731528241
 31
29.99999999999936
  0
ARC
  5
38A
330
2
100
AcDbEntity
  8
0Hatch
100
AcDbCircle
 10
12779.38302094773
 20
-4206.804513021765
 30
29.9999999999998
 40
654.3507009087605
100
AcDbArc
 50
345.396339273277
 51
14.60366072672304
  0
LINE
  5
38B
330
2
100
AcDbEntity
  8
0Hatch
100
AcDbLine
 10
13412.59365522077
 20
-4041.822294515295
 30
30.00000000000025
 11
13373.8938240301
 21
-4050.651739349829
 31
30.00000000000022
  0
ARC
  5
38C
330
2
100
AcDbEntity
  8
0Hatch
100
AcDbCircle
 10
12757.41358685033
 20
-4217.112457847383
 30
29.99999999999978
 40
638.5585749451291
100
AcDbArc
 50
15.11053271276313
 51
29.07477420048098
  0
LINE
  5
38D
330
2
100
AcDbEntity
  8
0Hatch
100
AcDbLine
 10
13315.50500679332
 20
-3906.804513021649
 30
30.0000000000006
 11
13143.73372185649
 21
-3906.804513021773
 31
30.0000000000006
  0
LINE
  5
38E
330
2
100
AcDbEntity
  8
0Hatch
100
AcDbLine
 10
13368.39225321039
 20
-4031.472691394098
 30
0.0000000000002708
 11
13373.8938240301
 21
-4050.651739349829
 31
0.0000000000002197
  0
LINE
  5
38F
330
2
100
AcDbEntity
  8
0Hatch
100
AcDbLine
 10
13373.8938240301
 20
-4050.651739349829
 30
0.0000000000002197
 11
13412.59365522077
 21
-4041.822294515295
 31
0.0000000000002432
  0
ARC
  5
390
330
2
100
AcDbEntity
  8
0Hatch
100
AcDbCircle
 10
-12779.38302094773
 20
-4206.804513021765
 30
-0.0000000000110128
 40
654.3507009087658
210
0.0
220
0.0000000000000027
230
-1.0
100
AcDbArc
 50
165.3963392732769
 51
194.603660726723
  0
LINE
  5
391
330
2
100
AcDbEntity
  8
0Hatch
100
AcDbLine
 10
13412.59365522077
 20
-4371.786731528241
 30
-0.000000000000636
 11
13373.8938240301
 21
-4362.957286693709
 31
-0.0000000000006125
  0
LINE
  5
392
330
2
100
AcDbEntity
  8
0Hatch
100
AcDbLine
 10
13373.8938240301
 20
-4362.957286693709
 30
-0.0000000000006125
 11
13369.44510024891
 21
-4382.456231709235
 31
-0.0000000000006644
  0
LINE
  5
393
330
2
100
AcDbEntity
  8
0Hatch
100
AcDbLine
 10
13369.44510024891
 20
-4382.456231709235
 30
-0.0000000000006644
 11
13426.78431053881
 21
-4395.538288620962
 31
-0.0000000000006993
  0
ARC
  5
394
330
2
100
AcDbEntity
  8
0Hatch
100
AcDbCircle
 10
12779.38430705565
 20
-4206.804696665909
 30
-0.0000000000001964
 40
674.3494148008785
100
AcDbArc
 50
343.747251158257
 51
16.2527793202952
  0
ARC
  5
395
330
2
100
AcDbEntity
  8
0Hatch
100
AcDbCircle
 10
15972.59975009605
 20
-15244.04758572062
 30
-0.0000000000296055
 40
11511.02655924817
100
AcDbArc
 50
102.7773628678434
 51
103.0755643898716
  0
LINE
  5
396
330
2
100
AcDbEntity
  8
0Hatch
100
AcDbLine
 10
13143.73372185649
 20
-4566.804513021764
 30
-0.0000000000011556
 11
13143.73372185649
 21
-4506.804513021765
 31
-0.0000000000009958
  0
LINE
  5
397
330
2
100
AcDbEntity
  8
0Hatch
100
AcDbLine
 10
13143.73372185649
 20
-4506.804513021765
 30
-0.0000000000009958
 11
13315.50500679339
 21
-4506.804513021765
 31
-0.0000000000009958
  0
ARC
  5
398
330
2
100
AcDbEntity
  8
0Hatch
100
AcDbCircle
 10
12741.54325943341
 20
-4189.763992748448
 30
-0.000000000000151
 40
655.7032704872567
100
AcDbArc
 50
331.0849593463272
 51
342.9393860780556
  0
LINE
  5
399
330
2
100
AcDbEntity
  8
0Hatch
100
AcDbLine
 10
13368.39225321011
 20
-4382.136334650364
 30
-0.0000000000006636
 11
13426.78421014241
 21
-4395.538265715309
 31
-0.0000000000006993
  0
ARC
  5
39A
330
2
100
AcDbEntity
  8
0Hatch
100
AcDbCircle
 10
-12770.0812644977
 20
-4202.612983925326
 30
-0.0000000000110128
 40
684.4552017277679
210
0.0
220
0.0000000000000027
230
-1.0
100
AcDbArc
 50
196.3716601685512
 51
212.1467531209453
  0
LINE
  5
39B
330
2
100
AcDbEntity
  8
0Hatch
100
AcDbLine
 10
13349.60128426112
 20
-4566.804513021764
 30
-0.0000000000011556
 11
13143.73372185649
 21
-4566.804513021764
 31
-0.0000000000011556
  0
LINE
  5
39C
330
2
100
AcDbEntity
  8
0Hatch
100
AcDbLine
 10
13143.73372185649
 20
-4536.804513021765
 30
14.99999999999892
 11
13143.73372185649
 21
-4506.804513021758
 31
14.999999999999
  0
LINE
  5
39D
330
2
100
AcDbEntity
  8
0Hatch
100
AcDbLine
 10
13143.73372185649
 20
-4506.804513021758
 30
14.999999999999
 11
13315.50500679339
 21
-4506.804513021758
 31
14.999999999999
  0
ARC
  5
39E
330
2
100
AcDbEntity
  8
0Hatch
100
AcDbCircle
 10
12756.10651595892
 20
-4195.942077216801
 30
14.99999999999983
 40
639.9704098960123
100
AcDbArc
 50
330.938704756332
 51
343.0856406684414
  0
LINE
  5
39F
330
2
100
AcDbEntity
  8
0Hatch
100
AcDbLine
 10
13368.39225321011
 20
-4382.136334650364
 30
14.99999999999934
 11
13397.4818939199
 21
-4388.852882946172
 31
14.99999999999932
  0
ARC
  5
3A0
330
2
100
AcDbEntity
  8
0Hatch
100
AcDbCircle
 10
-12779.40711747334
 20
-4206.815045034942
 30
-15.00000000001101
 40
644.3246105115598
210
0.0
220
0.0000000000000027
230
-1.0
100
AcDbArc
 50
196.4109651010979
 51
210.8070035643279
  0
LINE
  5
3A1
330
2
100
AcDbEntity
  8
0Hatch
100
AcDbLine
 10
13332.81578629653
 20
-4536.804513021765
 30
14.99999999999892
 11
13143.73372185649
 21
-4536.804513021765
 31
14.99999999999892
  0
HATCH
  5
3A2
330
2
100
AcDbEntity
  8
0Hatch
100
AcDbHatch
 10
0.0
 20
0.0
 30
0.0
210
0.0
220
0.0
230
1.0
  2
SOLID
 70
     1
 71
     1
 91
        1
 92
        7
 72
     0
 73
     1
 93
       20
 10
12023.73372185649
 20
-4656.804513021765
 10
12088.73372185649
 20
-4656.804513021763
 10
12088.73372185649
 20
-4596.804513021765
 10
12083.73372185649
 20
-4596.804513021765
 10
12083.73372185649
 20
-3816.804513021766
 10
12433.73372185649
 20
-3816.804513021765
 10
12433.73372185649
 20
-3746.804513021765
 10
12733.73372185649
 20
-3746.804513021765
 10
12733.73372185649
 20
-3816.804513021765
 10
13083.73372185649
 20
-3816.804513021766
 10
13083.73372185649
 20
-4596.804513021765
 10
12638.73372185649
 20
-4596.804513021765
 10
12638.73372185649
 20
-4656.804513021763
 10
13143.73372185649
 20
-4656.804513021763
 10
13143.73372185649
 20
-3756.804513021765
 10
12793.73372185649
 20
-3756.804513021766
 10
12793.73372185649
 20
-3686.804513021765
 10
12373.73372185649
 20
-3686.804513021765
 10
12373.73372185649
 20
-3756.804513021766
 10
12023.73372185649
 20
-3756.804513021766
 97
        4
330
3A8
330
3A9
330
3A7
330
3AC
 75
     0
 76
     1
 47
0.6360207716588051
 98
        1
 10
12051.61581289238
 20
-4605.903292737377
1001
ACAD
1010
0.0
1020
0.0
1030
0.0
  0
HATCH
  5
3A6
330
2
100
AcDbEntity
  8
0Hatch
100
AcDbHatch
 10
0.0
 20
0.0
 30
0.0
210
0.0
220
0.0
230
1.0
  2
SOLID
 70
     1
 71
     1
 91
        1
 92
        7
 72
     0
 73
     1
 93
        4
 10
12528.73372185649
 20
-4656.804513021763
 10
12528.73372185649
 20
-4596.804513021765
 10
12328.73372185649
 20
-4596.804513021765
 10
12328.73372185649
 20
-4656.804513021763
 97
        4
330
3A8
330
3AB
330
3A7
330
3AA
 75
     0
 76
     1
 47
0.6360207716588051
 98
        1
 10
12453.85281522863
 20
-4633.252080173319
1001
ACAD
1010
0.0
1020
0.0
1030
0.0
  0
LWPOLYLINE
  5
3A7
102
{ACAD_REACTORS
330
3A2
330
3A6
102
}
330
2
100
AcDbEntity
  8
0Hatch
100
AcDbPolyline
 90
        9
 70
     0
 43
0.0
 10
12023.73372185649
 20
-3756.804513021766
 10
12373.73372185649
 20
-3756.804513021766
 10
12373.73372185649
 20
-3686.804513021765
 10
12793.73372185649
 20
-3686.804513021765
 10
12793.73372185649
 20
-3756.804513021766
 10
13143.73372185649
 20
-3756.804513021766
 10
13143.73372185649
 20
-4656.804513021765
 10
12023.73372185649
 20
-4656.804513021765
 10
12023.73372185649
 20
-3756.804513021766
  0
LWPOLYLINE
  5
3A8
102
{ACAD_REACTORS
330
3A2
330
3A6
102
}
330
2
100
AcDbEntity
  8
0Hatch
100
AcDbPolyline
 90
        8
 70
     1
 43
0.0
 10
12083.73372185649
 20
-3816.804513021765
 10
12433.73372185649
 20
-3816.804513021765
 10
12433.73372185649
 20
-3746.804513021765
 10
12733.73372185649
 20
-3746.804513021765
 10
12733.73372185649
 20
-3816.804513021765
 10
13083.73372185649
 20
-3816.804513021765
 10
13083.73372185649
 20
-4596.804513021765
 10
12083.73372185649
 20
-4596.804513021765
  0
LINE
  5
3A9
102
{ACAD_REACTORS
330
3A2
102
}
330
2
100
AcDbEntity
  8
0Hatch
100
AcDbLine
 10
12638.73372185649
 20
-4656.804513021765
 30
-0.0000000000013954
 11
12638.73372185649
 21
-4596.804513021765
 31
-0.0000000000122483
  0
LINE
  5
3AA
102
{ACAD_REACTORS
330
3A6
102
}
330
2
100
AcDbEntity
  8
0Hatch
100
AcDbLine
 10
12528.73372185649
 20
-4656.804513021765
 30
-0.0000000000013954
 11
12528.73372185649
 21
-4596.804513021765
 31
-0.0000000000122483
  0
LINE
  5
3AB
102
{ACAD_REACTORS
330
3A6
102
}
330
2
100
AcDbEntity
  8
0Hatch
100
AcDbLine
 10
12328.73372185649
 20
-4656.804513021765
 30
-0.0000000000013954
 11
12328.73372185649
 21
-4596.804513021765
 31
-0.0000000000122483
  0
LINE
  5
3AC
102
{ACAD_REACTORS
330
3A2
102
}
330
2
100
AcDbEntity
  8
0Hatch
100
AcDbLine
 10
12088.73372185649
 20
-4656.804513021765
 30
-0.0000000000013954
 11
12088.73372185649
 21
-4596.804513021765
 31
-0.0000000000122483
  0
DIMENSION
  5
3AD
330
2
100
AcDbEntity
  8
0Hatch
100
AcDbDimension
  2
*D16
 10
12373.73372185649
 20
-3540.546899565175
 30
0.0
 11
12198.73372185649
 21
-3460.546899565176
 31
0.0
 70
    32
 71
     5
 42
350.0
  3
500
100
AcDbAlignedDimension
 13
12023.73372185649
 23
-3772.804513021765
 33
0.0000000000008268
 14
12373.73372185649
 24
-3838.1966229846
 34
0.0000000000098377
100
AcDbRotatedDimension
  0
DIMENSION
  5
3B9
330
2
100
AcDbEntity
  8
0Hatch
100
AcDbDimension
  2
*D15
 10
12793.73372185649
 20
-3540.546899565175
 30
0.0
 11
12583.73372185649
 21
-3460.546899565176
 31
0.0
 70
    32
 71
     5
 42
420.0
  3
500
100
AcDbAlignedDimension
 13
12373.73372185649
 23
-3838.1966229846
 33
0.0000000000098377
 14
12793.73372185649
 24
-3702.804513021766
 34
-0.0000000000001759
100
AcDbRotatedDimension
  0
DIMENSION
  5
3C4
330
2
100
AcDbEntity
  8
0Hatch
100
AcDbDimension
  2
*D14
 10
13143.73372185649
 20
-3540.546899565175
 30
0.0
 11
12968.73372185649
 21
-3460.546899565176
 31
0.0
 70
    32
 71
     5
 42
350.0
  3
500
100
AcDbAlignedDimension
 13
12793.73372185649
 23
-3702.804513021766
 33
-0.0000000000001759
 14
13143.73372185649
 24
-3772.804513021765
 34
-0.0000000000001759
100
AcDbRotatedDimension
  0
DIMENSION
  5
3CF
330
2
100
AcDbEntity
  8
0Hatch
100
AcDbDimension
  2
*D13
 10
13143.73372185649
 20
-3389.768212088646
 30
0.0
 11
12583.73372185649
 21
-3309.768212088646
 31
0.0
 70
    32
 71
     5
 42
1120.0
  3
500
100
AcDbAlignedDimension
 13
12023.73372185649
 23
-3706.804513021765
 33
0.0000000000010026
 14
13143.73372185649
 24
-3706.804513021765
 34
0.0000000000010026
100
AcDbRotatedDimension
  0
DIMENSION
  5
3DA
330
2
100
AcDbEntity
  8
0Hatch
100
AcDbDimension
  2
*D12
 10
11893.13447373488
 20
-3756.804513021766
 30
0.0
 11
11813.13447373488
 21
-3721.804513021763
 31
0.0
 70
    32
 71
     5
 42
70.0
  3
500
100
AcDbAlignedDimension
 13
12323.73372185649
 23
-3686.804513021765
 33
0.0000000000011892
 14
12323.73372185649
 24
-3756.804513021766
 34
0.0000000000010026
 50
90.0
100
AcDbRotatedDimension
  0
DIMENSION
  5
3E7
330
2
100
AcDbEntity
  8
0Hatch
100
AcDbDimension
  2
*D11
 10
11893.13447373488
 20
-4656.804513021765
 30
0.0
 11
11813.13447373488
 21
-4206.804513021763
 31
0.0
 70
    32
 71
     5
 42
900.0
  3
500
100
AcDbAlignedDimension
 13
12323.73372185649
 23
-3756.804513021766
 33
0.0000000000010026
 14
11973.73372185649
 24
-4656.804513021765
 34
0.0
 50
90.0
100
AcDbRotatedDimension
  0
DIMENSION
  5
3F2
330
2
100
AcDbEntity
  8
0Hatch
100
AcDbDimension
  2
*D10
 10
11893.13447373488
 20
-4756.804513021765
 30
0.0
 11
11813.13447373488
 21
-4706.804513021763
 31
0.0
 70
    32
 71
     5
 42
100.0
  3
500
100
AcDbAlignedDimension
 13
11973.73372185649
 23
-4656.804513021765
 33
0.0
 14
12348.73372185649
 24
-4756.804513021765
 34
0.0
 50
90.0
100
AcDbRotatedDimension
  0
DIMENSION
  5
3FF
330
2
100
AcDbEntity
  8
0Hatch
100
AcDbDimension
  2
*D9
 10
11729.61911937152
 20
-4756.804513021765
 30
0.0
 11
11649.61911937152
 21
-4221.804513021763
 31
0.0
 70
    32
 71
     5
 42
1070.0
  3
500
100
AcDbAlignedDimension
 13
12323.73372185649
 23
-3686.804513021765
 33
0.0000000000011892
 14
12348.73372185649
 24
-4756.804513021765
 34
0.0
 50
90.0
100
AcDbRotatedDimension
  0
LINE
  5
40A
330
2
100
AcDbEntity
  8
0Hatch
100
AcDbLine
 10
16834.96943648671
 20
-4717.804513021765
 30
-0.000000000001558
 11
16834.96943648671
 21
-4756.804513021765
 31
-0.0000000000016619
  0
LINE
  5
40B
330
2
100
AcDbEntity
  8
0Hatch
100
AcDbLine
 10
16834.96943648671
 20
-4756.804513021765
 30
-0.0000000000016619
 11
16785.96943648672
 21
-4756.804513021765
 31
-0.0000000000016619
  0
LINE
  5
40C
330
2
100
AcDbEntity
  8
0Hatch
100
AcDbLine
 10
16785.96943648672
 20
-4756.804513021765
 30
-0.0000000000016619
 11
16785.96943648672
 21
-4717.804513021765
 31
-0.000000000001558
  0
LINE
  5
40D
330
2
100
AcDbEntity
  8
0Hatch
100
AcDbLine
 10
17106.96943648672
 20
-4717.804513021765
 30
-0.000000000001558
 11
17106.96943648672
 21
-4756.804513021765
 31
-0.0000000000016619
  0
LINE
  5
40E
330
2
100
AcDbEntity
  8
0Hatch
100
AcDbLine
 10
17106.96943648672
 20
-4756.804513021765
 30
-0.0000000000016619
 11
17155.96943648671
 21
-4756.804513021765
 31
-0.0000000000016619
  0
LINE
  5
40F
330
2
100
AcDbEntity
  8
0Hatch
100
AcDbLine
 10
17155.96943648671
 20
-4756.804513021765
 30
-0.0000000000016619
 11
17155.96943648671
 21
-4717.804513021765
 31
-0.000000000001558
  0
LINE
  5
410
330
2
100
AcDbEntity
  8
0Hatch
100
AcDbLine
 10
16834.96943648671
 20
-4717.804513021765
 30
-0.000000000001558
 11
16785.96943648672
 21
-4717.804513021765
 31
-0.000000000001558
  0
LINE
  5
411
330
2
100
AcDbEntity
  8
0Hatch
100
AcDbLine
 10
16785.96943648672
 20
-4717.804513021765
 30
-0.000000000001558
 11
16785.96943648672
 21
-4756.804513021765
 31
-0.0000000000016619
  0
LINE
  5
412
330
2
100
AcDbEntity
  8
0Hatch
100
AcDbLine
 10
16785.96943648672
 20
-4756.804513021765
 30
-0.0000000000016619
 11
16834.96943648671
 21
-4756.804513021765
 31
-0.0000000000016619
  0
LINE
  5
413
330
2
100
AcDbEntity
  8
0Hatch
100
AcDbLine
 10
16834.96943648671
 20
-4756.804513021765
 30
-0.0000000000016619
 11
16834.96943648671
 21
-4717.804513021765
 31
-0.000000000001558
  0
LINE
  5
414
330
2
100
AcDbEntity
  8
0Hatch
100
AcDbLine
 10
16834.96943648671
 20
-4717.804513021765
 30
-0.000000000001558
 11
16785.96943648672
 21
-4717.804513021765
 31
-0.000000000001558
  0
LINE
  5
415
330
2
100
AcDbEntity
  8
0Hatch
100
AcDbLine
 10
17106.96943648672
 20
-4717.804513021765
 30
-0.000000000001558
 11
17155.96943648671
 21
-4717.804513021765
 31
-0.000000000001558
  0
LINE
  5
416
330
2
100
AcDbEntity
  8
0Hatch
100
AcDbLine
 10
17025.96943648672
 20
-4640.804513021765
 30
-0.0000000000013528
 11
17025.96943648672
 21
-4596.804513021765
 31
-0.0000000000012356
  0
LINE
  5
417
330
2
100
AcDbEntity
  8
0Hatch
100
AcDbLine
 10
16915.96943648671
 20
-4640.804513021765
 30
-0.0000000000013528
 11
16915.96943648671
 21
-4596.804513021765
 31
-0.0000000000012356
  0
HATCH
  5
418
330
2
100
AcDbEntity
  8
0Hatch
100
AcDbHatch
 10
0.0
 20
0.0
 30
0.0000000000110128
210
0.0
220
-0.0000000000000027
230
1.0
  2
SOLID
 70
     1
 71
     1
 91
        1
 92
        7
 72
     0
 73
     1
 93
        4
 10
16785.96943648672
 20
-4717.804513021765
 10
16785.96943648672
 20
-4756.804513021765
 10
16834.96943648671
 20
-4756.804513021765
 10
16834.96943648671
 20
-4717.804513021765
 97
        4
330
419
330
41A
330
41B
330
41C
 75
     0
 76
     1
 47
1.260411100038441
 98
        1
 10
16808.35223257291
 20
-4732.637224657912
1001
ACAD
1010
0.0
1020
0.0
1030
0.0
  0
LINE
  5
419
102
{ACAD_REACTORS
330
418
102
}
330
2
100
AcDbEntity
  8
0Hatch
100
AcDbLine
 10
16785.96943648672
 20
-4717.804513021765
 30
-0.000000000001558
 11
16834.96943648671
 21
-4717.804513021765
 31
-0.000000000001558
  0
LINE
  5
41A
102
{ACAD_REACTORS
330
418
102
}
330
2
100
AcDbEntity
  8
0Hatch
100
AcDbLine
 10
16834.96943648671
 20
-4717.804513021765
 30
-0.000000000001558
 11
16834.96943648671
 21
-4756.804513021765
 31
-0.0000000000016619
  0
LINE
  5
41B
102
{ACAD_REACTORS
330
418
102
}
330
2
100
AcDbEntity
  8
0Hatch
100
AcDbLine
 10
16834.96943648671
 20
-4756.804513021765
 30
-0.0000000000016619
 11
16785.96943648672
 21
-4756.804513021765
 31
-0.0000000000016619
  0
LINE
  5
41C
102
{ACAD_REACTORS
330
418
102
}
330
2
100
AcDbEntity
  8
0Hatch
100
AcDbLine
 10
16785.96943648672
 20
-4756.804513021765
 30
-0.0000000000016619
 11
16785.96943648672
 21
-4717.804513021765
 31
-0.000000000001558
  0
HATCH
  5
41D
330
2
100
AcDbEntity
  8
0Hatch
100
AcDbHatch
 10
0.0
 20
0.0
 30
0.0000000000110128
210
0.0
220
-0.0000000000000027
230
1.0
  2
SOLID
 70
     1
 71
     1
 91
        1
 92
        7
 72
     0
 73
     1
 93
        4
 10
17106.96943648672
 20
-4717.804513021765
 10
17106.96943648672
 20
-4756.804513021765
 10
17155.96943648671
 20
-4756.804513021765
 10
17155.96943648671
 20
-4717.804513021765
 97
        4
330
41E
330
421
330
420
330
41F
 75
     0
 76
     1
 47
1.260411100038441
 98
        1
 10
17128.73577772869
 20
-4726.335186615106
1001
ACAD
1010
0.0
1020
0.0
1030
0.0
  0
LINE
  5
41E
102
{ACAD_REACTORS
330
41D
102
}
330
2
100
AcDbEntity
  8
0Hatch
100
AcDbLine
 10
17155.96943648671
 20
-4717.804513021765
 30
-0.000000000001558
 11
17106.96943648672
 21
-4717.804513021765
 31
-0.000000000001558
  0
LINE
  5
41F
102
{ACAD_REACTORS
330
41D
102
}
330
2
100
AcDbEntity
  8
0Hatch
100
AcDbLine
 10
17106.96943648672
 20
-4717.804513021765
 30
-0.000000000001558
 11
17106.96943648672
 21
-4756.804513021765
 31
-0.0000000000016619
  0
LINE
  5
420
102
{ACAD_REACTORS
330
41D
102
}
330
2
100
AcDbEntity
  8
0Hatch
100
AcDbLine
 10
17106.96943648672
 20
-4756.804513021765
 30
-0.0000000000016619
 11
17155.96943648671
 21
-4756.804513021765
 31
-0.0000000000016619
  0
LINE
  5
421
102
{ACAD_REACTORS
330
41D
102
}
330
2
100
AcDbEntity
  8
0Hatch
100
AcDbLine
 10
17155.96943648671
 20
-4756.804513021765
 30
-0.0000000000016619
 11
17155.96943648671
 21
-4717.804513021765
 31
-0.000000000001558
  0
LINE
  5
422
330
2
100
AcDbEntity
  8
0Hatch
100
AcDbLine
 10
16839.96943648672
 20
-4712.804513021764
 30
-0.0000000000015446
 11
16839.96943648672
 21
-4761.804513021765
 31
-0.0000000000016752
  0
LINE
  5
423
330
2
100
AcDbEntity
  8
0Hatch
100
AcDbLine
 10
16839.96943648672
 20
-4761.804513021765
 30
-0.0000000000016752
 11
16780.96943648672
 21
-4761.804513021765
 31
-0.0000000000016752
  0
LINE
  5
424
330
2
100
AcDbEntity
  8
0Hatch
100
AcDbLine
 10
16780.96943648672
 20
-4761.804513021765
 30
-0.0000000000016752
 11
16780.96943648672
 21
-4712.804513021764
 31
-0.0000000000015446
  0
LINE
  5
425
330
2
100
AcDbEntity
  8
0Hatch
100
AcDbLine
 10
16780.96943648672
 20
-4712.804513021764
 30
-0.0000000000015446
 11
16839.96943648672
 21
-4712.804513021764
 31
-0.0000000000015446
  0
LINE
  5
426
330
2
100
AcDbEntity
  8
0Hatch
100
AcDbLine
 10
17101.96943648672
 20
-4712.804513021764
 30
-0.0000000000015446
 11
17101.96943648672
 21
-4761.804513021765
 31
-0.0000000000016752
  0
LINE
  5
427
330
2
100
AcDbEntity
  8
0Hatch
100
AcDbLine
 10
17101.96943648672
 20
-4761.804513021765
 30
-0.0000000000016752
 11
17160.96943648671
 21
-4761.804513021765
 31
-0.0000000000016752
  0
LINE
  5
428
330
2
100
AcDbEntity
  8
0Hatch
100
AcDbLine
 10
17160.96943648671
 20
-4761.804513021765
 30
-0.0000000000016752
 11
17160.96943648671
 21
-4712.804513021764
 31
-0.0000000000015446
  0
LINE
  5
429
330
2
100
AcDbEntity
  8
0Hatch
100
AcDbLine
 10
17160.96943648671
 20
-4712.804513021764
 30
-0.0000000000015446
 11
17101.96943648672
 21
-4712.804513021764
 31
-0.0000000000015446
  0
LINE
  5
42A
330
2
100
AcDbEntity
  8
0
  6
Continuous
 62
     7
370
     5
100
AcDbLine
 10
17530.96943648672
 20
-4393.804513021765
 30
-0.0000000000006947
 11
17530.96943648672
 21
-4656.804513021765
 31
-0.0000000000013954
  0
LINE
  5
42C
330
2
100
AcDbEntity
  8
0
  6
Continuous
 62
     7
370
     5
100
AcDbLine
 10
17400.96943648671
 20
-3756.804513021766
 30
0.0000000000010026
 11
17530.96943648672
 21
-3756.804513021766
 31
0.0000000000010026
  0
LINE
  5
431
330
2
100
AcDbEntity
  8
0Hatch
100
AcDbLine
 10
16915.96943648671
 20
-4596.804513021765
 30
-0.0000000000012356
 11
16915.96943648671
 21
-4656.804513021765
 31
-0.0000000000013954
  0
LINE
  5
432
330
2
100
AcDbEntity
  8
0Hatch
100
AcDbLine
 10
16915.96943648671
 20
-4656.804513021765
 30
-0.0000000000013954
 11
16716.78503435611
 21
-4656.804513021765
 31
-0.0000000000013954
  0
LINE
  5
433
330
2
100
AcDbEntity
  8
0Hatch
100
AcDbLine
 10
17225.96943648672
 20
-4656.804513021765
 30
-0.0000000000013954
 11
17025.96943648672
 21
-4656.804513021765
 31
-0.0000000000013954
  0
LINE
  5
434
330
2
100
AcDbEntity
  8
0Hatch
100
AcDbLine
 10
17025.96943648672
 20
-4656.804513021765
 30
-0.0000000000013954
 11
17025.96943648672
 21
-4596.804513021765
 31
-0.0000000000012356
  0
LINE
  5
435
330
2
100
AcDbEntity
  8
0Hatch
100
AcDbLine
 10
17530.96943648672
 20
-4656.804513021765
 30
-0.0000000000013954
 11
17465.96943648672
 21
-4656.804513021765
 31
-0.0000000000013954
  0
LINE
  5
436
330
2
100
AcDbEntity
  8
0
  6
Continuous
 62
     7
370
     5
100
AcDbLine
 10
17060.96943648671
 20
-3686.804513021765
 30
0.0000000000011892
 11
17180.96943648671
 21
-3686.804513021765
 31
0.0000000000011892
  0
LINE
  5
438
330
2
100
AcDbEntity
  8
0Hatch
100
AcDbLine
 10
17166.96943648672
 20
-4656.804513021765
 30
-0.0000000000013954
 11
17166.96943648672
 21
-4776.804513021764
 31
-0.0000000000017152
  0
LINE
  5
439
330
2
100
AcDbEntity
  8
0Hatch
100
AcDbLine
 10
17166.96943648672
 20
-4776.804513021764
 30
-0.0000000000017152
 11
17530.96943648672
 21
-4776.804513021764
 31
-0.0000000000017152
  0
LINE
  5
43A
330
2
100
AcDbEntity
  8
0Hatch
100
AcDbLine
 10
17530.96943648672
 20
-4776.804513021764
 30
-0.0000000000017152
 11
17530.96943648672
 21
-4656.804513021765
 31
-0.0000000000013954
  0
LINE
  5
43B
330
2
100
AcDbEntity
  8
0Hatch
100
AcDbLine
 10
17530.96943648672
 20
-4656.804513021765
 30
-0.0000000000013954
 11
17166.96943648672
 21
-4656.804513021765
 31
-0.0000000000013954
  0
ARC
  5
43C
330
2
100
AcDbEntity
  8
0Hatch
100
AcDbCircle
 10
16970.96943648672
 20
-4441.752592229204
 30
46.99999999999917
 40
384.8810019556843
100
AcDbArc
 50
249.3072807889719
 51
290.6927192110281
  0
LINE
  5
43D
330
2
100
AcDbEntity
  8
0Hatch
100
AcDbLine
 10
16780.96943648672
 20
-4761.804513021765
 30
-0.0000000000016752
 11
16834.96943648671
 21
-4761.804513021765
 31
-0.0000000000016752
  0
LINE
  5
43E
330
2
100
AcDbEntity
  8
0Hatch
100
AcDbLine
 10
16834.96943648671
 20
-4761.804513021765
 30
-0.0000000000016752
 11
16834.96943648671
 21
-4656.804513021765
 31
-0.0000000000013954
  0
LINE
  5
43F
330
2
100
AcDbEntity
  8
0Hatch
100
AcDbLine
 10
16834.96943648671
 20
-4656.804513021765
 30
-0.0000000000013954
 11
17106.96943648672
 21
-4656.804513021765
 31
-0.0000000000013954
  0
LINE
  5
440
330
2
100
AcDbEntity
  8
0Hatch
100
AcDbLine
 10
17106.96943648672
 20
-4656.804513021765
 30
-0.0000000000013954
 11
17106.96943648672
 21
-4761.804513021765
 31
-0.0000000000016752
  0
LINE
  5
441
330
2
100
AcDbEntity
  8
0Hatch
100
AcDbLine
 10
17106.96943648672
 20
-4761.804513021765
 30
-0.0000000000016752
 11
17160.96943648671
 21
-4761.804513021765
 31
-0.0000000000016752
  0
LINE
  5
442
330
2
100
AcDbEntity
  8
0Hatch
100
AcDbLine
 10
17160.96943648671
 20
-4761.804513021765
 30
-0.0000000000016752
 11
17160.96943648671
 21
-4756.804513021765
 31
-0.0000000000016619
  0
LINE
  5
443
330
2
100
AcDbEntity
  8
0Hatch
100
AcDbLine
 10
17160.96943648671
 20
-4756.804513021765
 30
-0.0000000000016619
 11
17166.96943648672
 21
-4756.804513021765
 31
-0.0000000000016619
  0
LINE
  5
444
330
2
100
AcDbEntity
  8
0Hatch
100
AcDbLine
 10
17166.96943648672
 20
-4756.804513021765
 30
-0.0000000000016619
 11
17166.96943648672
 21
-4841.13099162143
 31
-0.0000000000018866
  0
ARC
  5
445
330
2
100
AcDbEntity
  8
0Hatch
100
AcDbCircle
 10
16970.96943648672
 20
-4441.752592229211
 30
-0.0000000000008224
 40
444.8810019556829
100
AcDbArc
 50
243.8599204262879
 51
296.1400795737121
  0
LINE
  5
446
330
2
100
AcDbEntity
  8
0Hatch
100
AcDbLine
 10
16774.96943648671
 20
-4841.13099162143
 30
-0.0000000000018866
 11
16774.96943648671
 21
-4756.804513021765
 31
-0.0000000000016619
  0
LINE
  5
447
330
2
100
AcDbEntity
  8
0Hatch
100
AcDbLine
 10
16774.96943648671
 20
-4756.804513021765
 30
-0.0000000000016619
 11
16780.96943648672
 21
-4756.804513021765
 31
-0.0000000000016619
  0
LINE
  5
448
330
2
100
AcDbEntity
  8
0Hatch
100
AcDbLine
 10
16780.96943648672
 20
-4756.804513021765
 30
-0.0000000000016619
 11
16780.96943648672
 21
-4761.804513021765
 31
-0.0000000000016752
  0
LINE
  5
449
330
2
100
AcDbEntity
  8
0Hatch
100
AcDbLine
 10
16804.96943648672
 20
-4761.804513021765
 30
14.99999999999832
 11
16834.96943648671
 21
-4761.804513021765
 31
14.99999999999832
  0
LINE
  5
44A
330
2
100
AcDbEntity
  8
0Hatch
100
AcDbLine
 10
16834.96943648671
 20
-4761.804513021765
 30
14.99999999999832
 11
16834.96943648671
 21
-4656.804513021765
 31
14.9999999999986
  0
LINE
  5
44B
330
2
100
AcDbEntity
  8
0Hatch
100
AcDbLine
 10
16834.96943648671
 20
-4656.804513021765
 30
14.9999999999986
 11
17106.96943648672
 21
-4656.804513021765
 31
14.9999999999986
  0
LINE
  5
44C
330
2
100
AcDbEntity
  8
0Hatch
100
AcDbLine
 10
17106.96943648672
 20
-4656.804513021765
 30
14.9999999999986
 11
17106.96943648672
 21
-4761.804513021765
 31
14.99999999999832
  0
LINE
  5
44D
330
2
100
AcDbEntity
  8
0Hatch
100
AcDbLine
 10
17106.96943648672
 20
-4761.804513021765
 30
14.99999999999832
 11
17136.96943648671
 21
-4761.804513021765
 31
14.99999999999832
  0
LINE
  5
44E
330
2
100
AcDbEntity
  8
0Hatch
100
AcDbLine
 10
17136.96943648671
 20
-4761.804513021765
 30
14.99999999999832
 11
17136.96943648671
 21
-4821.976533852765
 31
14.99999999999816
  0
ARC
  5
44F
330
2
100
AcDbEntity
  8
0Hatch
100
AcDbCircle
 10
16970.96943648672
 20
-4441.752592229211
 30
14.99999999999918
 40
414.8810019556827
100
AcDbArc
 50
246.4146490113981
 51
293.5853509886019
  0
LINE
  5
450
330
2
100
AcDbEntity
  8
0Hatch
100
AcDbLine
 10
16804.96943648672
 20
-4821.976533852765
 30
14.99999999999816
 11
16804.96943648672
 21
-4761.804513021765
 31
14.99999999999832
  0
LINE
  5
451
330
2
100
AcDbEntity
  8
0Hatch
100
AcDbLine
 10
16834.96943648671
 20
-4656.804513021765
 30
29.99999999999861
 11
17106.96943648672
 21
-4656.804513021765
 31
29.99999999999861
  0
LINE
  5
452
330
2
100
AcDbEntity
  8
0Hatch
100
AcDbLine
 10
17106.96943648672
 20
-4656.804513021765
 30
29.99999999999861
 11
17106.96943648672
 21
-4801.804513021765
 31
29.99999999999822
  0
ARC
  5
453
330
2
100
AcDbEntity
  8
0Hatch
100
AcDbCircle
 10
16970.96943648672
 20
-4441.752592229204
 30
29.99999999999918
 40
384.8810019556872
100
AcDbArc
 50
249.3072807889719
 51
290.6927192110281
  0
LINE
  5
454
330
2
100
AcDbEntity
  8
0Hatch
100
AcDbLine
 10
16834.96943648671
 20
-4801.804513021765
 30
29.99999999999822
 11
16834.96943648671
 21
-4656.804513021765
 31
29.99999999999861
  0
LINE
  5
455
330
2
100
AcDbEntity
  8
0Hatch
100
AcDbLine
 10
16834.96943648671
 20
-4656.804513021765
 30
-0.0000000000013954
 11
16834.96943648671
 21
-4761.804513021765
 31
-0.0000000000016752
  0
LINE
  5
456
330
2
100
AcDbEntity
  8
0Hatch
100
AcDbLine
 10
16834.96943648671
 20
-4761.804513021765
 30
-0.0000000000016752
 11
16780.96943648672
 21
-4761.804513021765
 31
-0.0000000000016752
  0
LINE
  5
457
330
2
100
AcDbEntity
  8
0Hatch
100
AcDbLine
 10
16780.96943648672
 20
-4761.804513021765
 30
-0.0000000000016752
 11
16780.96943648672
 21
-4656.804513021765
 31
-0.0000000000013954
  0
LINE
  5
458
330
2
100
AcDbEntity
  8
0
  6
Continuous
 62
     7
370
     5
100
AcDbLine
 10
16780.96943648672
 20
-4656.804513021765
 30
-0.0000000000013954
 11
16834.96943648671
 21
-4656.804513021765
 31
-0.0000000000013954
  0
LINE
  5
459
330
2
100
AcDbEntity
  8
0Hatch
100
AcDbLine
 10
17106.96943648672
 20
-4656.804513021765
 30
-0.0000000000013954
 11
17106.96943648672
 21
-4761.804513021765
 31
-0.0000000000016752
  0
LINE
  5
45A
330
2
100
AcDbEntity
  8
0Hatch
100
AcDbLine
 10
17106.96943648672
 20
-4761.804513021765
 30
-0.0000000000016752
 11
17160.96943648671
 21
-4761.804513021765
 31
-0.0000000000016752
  0
LINE
  5
45B
330
2
100
AcDbEntity
  8
0Hatch
100
AcDbLine
 10
17160.96943648671
 20
-4761.804513021765
 30
-0.0000000000016752
 11
17160.96943648671
 21
-4656.804513021765
 31
-0.0000000000013954
  0
LINE
  5
45C
330
2
100
AcDbEntity
  8
0
  6
Continuous
 62
     7
370
     5
100
AcDbLine
 10
17160.96943648671
 20
-4656.804513021765
 30
-0.0000000000013954
 11
17106.96943648672
 21
-4656.804513021765
 31
-0.0000000000013954
  0
LINE
  5
703
330
2
100
AcDbEntity
  8
0
  6
Continuous
 62
     7
370
     5
100
AcDbLine
 10
16410.96943648672
 20
-3846.804513021758
 30
0.0000000000007628
 11
16410.96943648672
 21
-3906.804513021758
 31
0.000000000000603
  0
LINE
  5
704
330
2
100
AcDbEntity
  8
0Hatch
100
AcDbLine
 10
16410.96943648672
 20
-3906.804513021758
 30
0.000000000000603
 11
16239.19815154982
 21
-3906.804513021758
 31
0.000000000000603
  0
ARC
  5
705
330
2
100
AcDbEntity
  8
0Hatch
100
AcDbCircle
 10
-16813.1598989098
 20
-4223.845033295074
 30
-0.0000000000110128
 40
655.7032704872567
210
0.0
220
0.0000000000000027
230
-1.0
100
AcDbArc
 50
17.06061392194444
 51
28.91504065385518
  0
LINE
  5
706
330
2
100
AcDbEntity
  8
0Hatch
100
AcDbLine
 10
16186.3109051331
 20
-4031.472691393159
 30
0.0000000000002708
 11
16127.91894820079
 21
-4018.070760328213
 31
0.0000000000003065
  0
ARC
  5
707
330
2
100
AcDbEntity
  8
0Hatch
100
AcDbCircle
 10
16784.62189384551
 20
-4210.996042118196
 30
-0.0000000000002076
 40
684.4552017277679
100
AcDbArc
 50
147.8532468788782
 51
163.6283398312487
  0
LINE
  5
708
330
2
100
AcDbEntity
  8
0Hatch
100
AcDbLine
 10
16205.10187408209
 20
-3846.804513021758
 30
0.0000000000007628
 11
16410.96943648672
 21
-3846.804513021758
 31
0.0000000000007628
  0
LINE
  5
709
330
2
100
AcDbEntity
  8
0
  6
Continuous
 62
     7
370
     5
100
AcDbLine
 10
16410.96943648672
 20
-3876.804513021758
 30
15.00000000000068
 11
16410.96943648672
 21
-3906.804513021766
 31
15.0000000000006
  0
LINE
  5
70A
330
2
100
AcDbEntity
  8
0Hatch
100
AcDbLine
 10
16410.96943648672
 20
-3906.804513021766
 30
15.0000000000006
 11
16239.19815154982
 21
-3906.804513021766
 31
15.0000000000006
  0
ARC
  5
70B
330
2
100
AcDbEntity
  8
0Hatch
100
AcDbCircle
 10
-16798.59664238429
 20
-4217.666948826721
 30
-15.00000000001101
 40
639.9704098960123
210
0.0
220
0.0000000000000027
230
-1.0
100
AcDbArc
 50
16.91435933155856
 51
29.06129524423486
  0
LINE
  5
70C
330
2
100
AcDbEntity
  8
0Hatch
100
AcDbLine
 10
16186.3109051331
 20
-4031.472691393159
 30
15.00000000000027
 11
16157.22126442331
 21
-4024.756143097351
 31
15.00000000000029
  0
ARC
  5
70D
330
2
100
AcDbEntity
  8
0Hatch
100
AcDbCircle
 10
16775.29604086987
 20
-4206.793981008581
 30
14.9999999999998
 40
644.3246105115601
100
AcDbArc
 50
149.192996435493
 51
163.589034899102
  0
LINE
  5
70E
330
2
100
AcDbEntity
  8
0Hatch
100
AcDbLine
 10
16221.88737204668
 20
-3876.804513021758
 30
15.00000000000068
 11
16410.96943648672
 21
-3876.804513021758
 31
15.00000000000068
  0
LINE
  5
70F
330
2
100
AcDbEntity
  8
0Hatch
100
AcDbLine
 10
16410.96943648672
 20
-4506.804513021765
 30
29.999999999999
 11
16239.19815154982
 21
-4506.804513021765
 31
29.999999999999
  0
ARC
  5
710
330
2
100
AcDbEntity
  8
0Hatch
100
AcDbCircle
 10
16797.28957149286
 20
-4196.496568196155
 30
29.99999999999984
 40
638.5585749451065
100
AcDbArc
 50
195.1105327129644
 51
209.0747742002988
  0
LINE
  5
711
330
2
100
AcDbEntity
  8
0Hatch
100
AcDbLine
 10
16180.8093343131
 20
-4362.957286693702
 30
29.99999999999939
 11
16161.45941871777
 21
-4367.372009110972
 31
29.99999999999938
  0
LINE
  5
712
330
2
100
AcDbEntity
  8
0Hatch
100
AcDbLine
 10
16161.45941871777
 20
-4367.372009110972
 30
29.99999999999938
 11
16142.10950312244
 21
-4371.786731528241
 31
29.99999999999936
  0
ARC
  5
713
330
2
100
AcDbEntity
  8
0Hatch
100
AcDbCircle
 10
16775.32013739548
 20
-4206.804513021765
 30
29.9999999999998
 40
654.3507009087605
100
AcDbArc
 50
165.3963392734786
 51
194.6036607265213
  0
LINE
  5
714
330
2
100
AcDbEntity
  8
0Hatch
100
AcDbLine
 10
16142.10950312244
 20
-4041.822294515295
 30
30.00000000000025
 11
16180.8093343131
 21
-4050.651739349829
 31
30.00000000000022
  0
ARC
  5
715
330
2
100
AcDbEntity
  8
0Hatch
100
AcDbCircle
 10
16797.28957149287
 20
-4217.112457847383
 30
29.99999999999978
 40
638.5585749451291
100
AcDbArc
 50
150.9252257997012
 51
164.8894672870356
  0
LINE
  5
716
330
2
100
AcDbEntity
  8
0Hatch
100
AcDbLine
 10
16239.19815154989
 20
-3906.804513021649
 30
30.0000000000006
 11
16410.96943648672
 21
-3906.804513021773
 31
30.0000000000006
  0
LINE
  5
717
330
2
100
AcDbEntity
  8
0Hatch
100
AcDbLine
 10
16186.31090513282
 20
-4031.472691394098
 30
0.0000000000002708
 11
16180.8093343131
 21
-4050.651739349829
 31
0.0000000000002197
  0
LINE
  5
718
330
2
100
AcDbEntity
  8
0Hatch
100
AcDbLine
 10
16180.8093343131
 20
-4050.651739349829
 30
0.0000000000002197
 11
16142.10950312244
 21
-4041.822294515295
 31
0.0000000000002432
  0
ARC
  5
719
330
2
100
AcDbEntity
  8
0Hatch
100
AcDbCircle
 10
-16775.32013739548
 20
-4206.804513021765
 30
-0.0000000000110128
 40
654.3507009087658
210
0.0
220
0.0000000000000027
230
-1.0
100
AcDbArc
 50
345.3963392734787
 51
14.60366072652133
  0
LINE
  5
71A
330
2
100
AcDbEntity
  8
0Hatch
100
AcDbLine
 10
16142.10950312244
 20
-4371.786731528241
 30
-0.000000000000636
 11
16180.8093343131
 21
-4362.957286693709
 31
-0.0000000000006125
  0
LINE
  5
71B
330
2
100
AcDbEntity
  8
0Hatch
100
AcDbLine
 10
16180.8093343131
 20
-4362.957286693709
 30
-0.0000000000006125
 11
16185.2580580943
 21
-4382.456231709235
 31
-0.0000000000006644
  0
LINE
  5
71C
330
2
100
AcDbEntity
  8
0Hatch
100
AcDbLine
 10
16185.2580580943
 20
-4382.456231709235
 30
-0.0000000000006644
 11
16127.91884780439
 21
-4395.538288620962
 31
-0.0000000000006993
  0
ARC
  5
71D
330
2
100
AcDbEntity
  8
0Hatch
100
AcDbCircle
 10
16775.31885128756
 20
-4206.804696665909
 30
-0.0000000000001964
 40
674.3494148008785
100
AcDbArc
 50
163.7472206797048
 51
196.2527488415429
  0
ARC
  5
71E
330
2
100
AcDbEntity
  8
0Hatch
100
AcDbCircle
 10
13582.10340824716
 20
-15244.04758572062
 30
-0.0000000000296055
 40
11511.02655924817
100
AcDbArc
 50
76.92443560972233
 51
77.22263713215655
  0
LINE
  5
71F
330
2
100
AcDbEntity
  8
0
  6
Continuous
 62
     7
370
     5
100
AcDbLine
 10
16410.96943648672
 20
-4566.804513021764
 30
-0.0000000000011556
 11
16410.96943648672
 21
-4506.804513021765
 31
-0.0000000000009958
  0
LINE
  5
720
330
2
100
AcDbEntity
  8
0Hatch
100
AcDbLine
 10
16410.96943648672
 20
-4506.804513021765
 30
-0.0000000000009958
 11
16239.19815154982
 21
-4506.804513021765
 31
-0.0000000000009958
  0
ARC
  5
721
330
2
100
AcDbEntity
  8
0Hatch
100
AcDbCircle
 10
16813.1598989098
 20
-4189.763992748448
 30
-0.000000000000151
 40
655.7032704872567
100
AcDbArc
 50
197.0606139219444
 51
208.9150406538552
  0
LINE
  5
722
330
2
100
AcDbEntity
  8
0Hatch
100
AcDbLine
 10
16186.3109051331
 20
-4382.136334650364
 30
-0.0000000000006636
 11
16127.91894820079
 21
-4395.538265715309
 31
-0.0000000000006993
  0
ARC
  5
723
330
2
100
AcDbEntity
  8
0Hatch
100
AcDbCircle
 10
-16784.62189384551
 20
-4202.612983925326
 30
-0.0000000000110128
 40
684.4552017277679
210
0.0
220
0.0000000000000027
230
-1.0
100
AcDbArc
 50
327.8532468788782
 51
343.6283398312487
  0
LINE
  5
724
330
2
100
AcDbEntity
  8
0Hatch
100
AcDbLine
 10
16205.10187408209
 20
-4566.804513021764
 30
-0.0000000000011556
 11
16410.96943648672
 21
-4566.804513021764
 31
-0.0000000000011556
  0
LINE
  5
725
330
2
100
AcDbEntity
  8
0
  6
Continuous
 62
     7
370
     5
100
AcDbLine
 10
16410.96943648672
 20
-4536.804513021765
 30
14.99999999999892
 11
16410.96943648672
 21
-4506.804513021758
 31
14.999999999999
  0
LINE
  5
726
330
2
100
AcDbEntity
  8
0Hatch
100
AcDbLine
 10
16410.96943648672
 20
-4506.804513021758
 30
14.999999999999
 11
16239.19815154982
 21
-4506.804513021758
 31
14.999999999999
  0
ARC
  5
727
330
2
100
AcDbEntity
  8
0Hatch
100
AcDbCircle
 10
16798.59664238429
 20
-4195.942077216801
 30
14.99999999999983
 40
639.9704098960123
100
AcDbArc
 50
196.9143593315585
 51
209.0612952442349
  0
LINE
  5
728
330
2
100
AcDbEntity
  8
0Hatch
100
AcDbLine
 10
16186.3109051331
 20
-4382.136334650364
 30
14.99999999999934
 11
16157.22126442331
 21
-4388.852882946172
 31
14.99999999999932
  0
ARC
  5
729
330
2
100
AcDbEntity
  8
0Hatch
100
AcDbCircle
 10
-16775.29604086987
 20
-4206.815045034942
 30
-15.00000000001101
 40
644.3246105115598
210
0.0
220
0.0000000000000027
230
-1.0
100
AcDbArc
 50
329.192996435493
 51
343.589034899102
  0
LINE
  5
72A
330
2
100
AcDbEntity
  8
0Hatch
100
AcDbLine
 10
16221.88737204668
 20
-4536.804513021765
 30
14.99999999999892
 11
16410.96943648672
 21
-4536.804513021765
 31
14.99999999999892
  0
HATCH
  5
72B
330
2
100
AcDbEntity
  8
0Hatch
100
AcDbHatch
 10
0.0
 20
0.0
 30
0.0
210
0.0
220
0.0
230
1.0
  2
SOLID
 70
     1
 71
     1
 91
        1
 92
        7
 72
     0
 73
     1
 93
       20
 10
16915.96943648671
 20
-4656.804513021765
 10
16915.96943648671
 20
-4596.804513021765
 10
16470.96943648671
 20
-4596.804513021765
 10
16470.96943648671
 20
-3816.804513021766
 10
16820.96943648672
 20
-3816.804513021765
 10
16820.96943648672
 20
-3746.804513021765
 10
17120.96943648671
 20
-3746.804513021765
 10
17120.96943648671
 20
-3816.804513021765
 10
17470.96943648672
 20
-3816.804513021766
 10
17470.96943648672
 20
-4596.804513021765
 10
17465.96943648672
 20
-4596.804513021765
 10
17465.96943648672
 20
-4656.804513021763
 10
17530.96943648672
 20
-4656.804513021765
 10
17530.96943648672
 20
-3756.804513021766
 10
17180.96943648671
 20
-3756.804513021766
 10
17180.96943648671
 20
-3686.804513021765
 10
16760.96943648672
 20
-3686.804513021765
 10
16760.96943648672
 20
-3756.804513021766
 10
16410.96943648672
 20
-3756.804513021766
 10
16410.96943648672
 20
-4656.804513021763
 97
        4
330
72E
330
732
330
72D
330
72F
 75
     0
 76
     1
 47
2.133473793076278
 98
        1
 10
16675.39481386897
 20
-4627.162935310276
1001
ACAD
1010
0.0
1020
0.0
1030
0.0
  0
HATCH
  5
72C
330
2
100
AcDbEntity
  8
0Hatch
100
AcDbHatch
 10
0.0
 20
0.0
 30
0.0
210
0.0
220
0.0
230
1.0
  2
SOLID
 70
     1
 71
     1
 91
        1
 92
        7
 72
     0
 73
     1
 93
        4
 10
17225.96943648672
 20
-4656.804513021763
 10
17225.96943648672
 20
-4596.804513021765
 10
17025.96943648672
 20
-4596.804513021765
 10
17025.96943648672
 20
-4656.804513021763
 97
        4
330
72E
330
730
330
72D
330
731
 75
     0
 76
     1
 47
2.133473793076278
 98
        1
 10
17110.91780209372
 20
-4629.296463321137
1001
ACAD
1010
0.0
1020
0.0
1030
0.0
  0
LWPOLYLINE
  5
72D
102
{ACAD_REACTORS
330
72B
330
72C
102
}
330
2
100
AcDbEntity
  8
0Hatch
100
AcDbPolyline
 90
        9
 70
     0
 43
0.0
 10
17530.96943648672
 20
-3756.804513021766
 10
17180.96943648671
 20
-3756.804513021766
 10
17180.96943648671
 20
-3686.804513021765
 10
16760.96943648672
 20
-3686.804513021765
 10
16760.96943648672
 20
-3756.804513021766
 10
16410.96943648672
 20
-3756.804513021766
 10
16410.96943648672
 20
-4656.804513021765
 10
17530.96943648672
 20
-4656.804513021765
 10
17530.96943648672
 20
-3756.804513021766
  0
LWPOLYLINE
  5
72E
102
{ACAD_REACTORS
330
72B
330
72C
102
}
330
2
100
AcDbEntity
  8
0Hatch
100
AcDbPolyline
 90
        8
 70
     1
 43
0.0
 10
17470.96943648672
 20
-3816.804513021765
 10
17120.96943648671
 20
-3816.804513021765
 10
17120.96943648671
 20
-3746.804513021765
 10
16820.96943648672
 20
-3746.804513021765
 10
16820.96943648672
 20
-3816.804513021765
 10
16470.96943648671
 20
-3816.804513021765
 10
16470.96943648671
 20
-4596.804513021765
 10
17470.96943648672
 20
-4596.804513021765
  0
LINE
  5
72F
102
{ACAD_REACTORS
330
72B
102
}
330
2
100
AcDbEntity
  8
0Hatch
100
AcDbLine
 10
16915.96943648671
 20
-4656.804513021765
 30
-0.0000000000013954
 11
16915.96943648671
 21
-4596.804513021765
 31
-0.0000000000122483
  0
LINE
  5
730
102
{ACAD_REACTORS
330
72C
102
}
330
2
100
AcDbEntity
  8
0Hatch
100
AcDbLine
 10
17025.96943648672
 20
-4656.804513021765
 30
-0.0000000000013954
 11
17025.96943648672
 21
-4596.804513021765
 31
-0.0000000000122483
  0
LINE
  5
731
102
{ACAD_REACTORS
330
72C
102
}
330
2
100
AcDbEntity
  8
0Hatch
100
AcDbLine
 10
17225.96943648672
 20
-4656.804513021765
 30
-0.0000000000013954
 11
17225.96943648672
 21
-4596.804513021765
 31
-0.0000000000122483
  0
LINE
  5
732
102
{ACAD_REACTORS
330
72B
102
}
330
2
100
AcDbEntity
  8
0Hatch
100
AcDbLine
 10
17465.96943648672
 20
-4656.804513021765
 30
-0.0000000000013954
 11
17465.96943648672
 21
-4596.804513021765
 31
-0.0000000000122483
  0
DIMENSION
  5
733
330
2
100
AcDbEntity
  8
0Wymiary-PL
 48
4.0
100
AcDbDimension
  2
*D19
 10
17180.96943648671
 20
-3540.546899565175
 30
0.0
 11
17355.96943648672
 21
-3460.546899565176
 31
0.0
 70
    32
 71
     5
 42
350.0
  3
500
100
AcDbAlignedDimension
 13
17530.96943648672
 23
-3772.804513021765
 33
0.0000000000008268
 14
17180.96943648671
 24
-3772.804513021765
 34
0.0000000000008268
 50
180.0
100
AcDbRotatedDimension
  0
DIMENSION
  5
73E
330
2
100
AcDbEntity
  8
0Hatch
100
AcDbDimension
  2
*D6
 10
16760.96943648672
 20
-3540.546899565175
 30
0.0
 11
16970.96943648672
 21
-3460.546899565176
 31
0.0
 70
    32
 71
     5
 42
420.0
  3
500
100
AcDbAlignedDimension
 13
17180.96943648671
 23
-3772.804513021765
 33
0.0000000000008268
 14
16760.96943648672
 24
-3702.804513021766
 34
-0.0000000000001759
 50
180.0
100
AcDbRotatedDimension
  0
DIMENSION
  5
749
330
2
100
AcDbEntity
  8
0Hatch
100
AcDbDimension
  2
*D5
 10
16410.96943648672
 20
-3540.546899565175
 30
0.0
 11
16585.96943648672
 21
-3460.546899565176
 31
0.0
 70
    32
 71
     5
 42
350.0
  3
500
100
AcDbAlignedDimension
 13
16760.96943648672
 23
-3702.804513021766
 33
-0.0000000000001759
 14
16410.96943648672
 24
-3727.724960963271
 34
0.0
 50
180.0
100
AcDbRotatedDimension
  0
DIMENSION
  5
754
330
2
100
AcDbEntity
  8
0Wymiary-PL
 48
4.0
100
AcDbDimension
  2
*D20
 10
16410.96943648672
 20
-3389.768212088646
 30
0.0
 11
16970.96943648672
 21
-3309.768212088646
 31
0.0
 70
    32
 71
     5
 42
1120.0
  3
500
100
AcDbAlignedDimension
 13
17530.96943648672
 23
-3706.804513021765
 33
0.0000000000010026
 14
16410.96943648672
 24
-3706.804513021765
 34
0.0000000000010026
 50
180.0
100
AcDbRotatedDimension
  0
DIMENSION
  5
75F
330
2
100
AcDbEntity
  8
0Wymiary-PL
 48
4.0
100
AcDbDimension
  2
*D17
 10
17727.56868460833
 20
-3756.804513021766
 30
0.0
 11
17647.56868460833
 21
-3721.804513021762
 31
0.0
 70
    32
 71
     5
 42
70.0
  3
500
100
AcDbAlignedDimension
 13
17296.96943648671
 23
-3686.804513021765
 33
0.0000000000011892
 14
17296.96943648671
 24
-3756.804513021766
 34
0.0000000000010026
 50
90.0
100
AcDbRotatedDimension
  0
DIMENSION
  5
76C
330
2
100
AcDbEntity
  8
0Wymiary-PL
 48
4.0
100
AcDbDimension
  2
*D18
 10
17727.56868460833
 20
-4656.804513021765
 30
0.0
 11
17647.56868460833
 21
-4206.804513021762
 31
0.0
 70
    32
 71
     5
 42
900.0
  3
500
100
AcDbAlignedDimension
 13
17296.96943648671
 23
-3756.804513021766
 33
0.0000000000010026
 14
17646.96943648672
 24
-4656.804513021765
 34
0.0
 50
90.0
100
AcDbRotatedDimension
  0
DIMENSION
  5
777
330
2
100
AcDbEntity
  8
0Hatch
100
AcDbDimension
  2
*D8
 10
17727.56868460833
 20
-4756.804513021765
 30
0.0
 11
17647.56868460833
 21
-4706.804513021762
 31
0.0
 70
    32
 71
     5
 42
100.0
  3
500
100
AcDbAlignedDimension
 13
17646.96943648672
 23
-4656.804513021765
 33
0.0
 14
17271.96943648672
 24
-4756.804513021765
 34
0.0
 50
90.0
100
AcDbRotatedDimension
  0
DIMENSION
  5
784
330
2
100
AcDbEntity
  8
0Hatch
100
AcDbDimension
  2
*D7
 10
17891.08403897169
 20
-4756.804513021765
 30
0.0
 11
17811.08403897169
 21
-4221.804513021762
 31
0.0
 70
    32
 71
     5
 42
1070.0
  3
500
100
AcDbAlignedDimension
 13
17296.96943648671
 23
-3686.804513021765
 33
0.0000000000011892
 14
17271.96943648672
 24
-4756.804513021765
 34
0.0
 50
90.0
100
AcDbRotatedDimension
  0
ENDSEC
  0
SECTION
  2
OBJECTS
  0
DICTIONARY
  5
B
330
0
100
AcDbDictionary
281
     1
  3
ACAD_COLOR
350
53
  3
ACAD_GROUP
350
4E
  3
ACAD_LAYOUT
350
12
  3
ACAD_MATERIAL
350
D
  3
ACAD_MLEADERSTYLE
350
7A8
  3
ACAD_MLINESTYLE
350
4F
  3
ACAD_PLOTSETTINGS
350
50
  3
ACAD_PLOTSTYLENAME
350
A
  3
ACAD_SCALELIST
350
54
  3
ACAD_TABLESTYLE
350
55
  3
ACAD_VISUALSTYLE
350
15
  3
ACDB_RECOMPOSE_DATA
350
794
  3
AcDbVariableDictionary
350
795
  3
AEC_PROPERTY_SET_DEFS
350
952
  3
DWGPROPS
350
C4B
  0
DICTIONARY
  5
1E
330
1D
100
AcDbDictionary
280
     1
281
     1
  3
ACAD_LAYERSTATES
360
1F
  0
DICTIONARY
  5
7
330
6
100
AcDbDictionary
280
     1
281
     1
  3
ADSK_XREC_LAYER_RECONCILED
360
8
  0
DICTIONARY
  5
75
330
74
100
AcDbDictionary
280
     1
281
     1
  3
ADSK_XREC_LAYER_RECONCILED
360
76
  0
DICTIONARY
  5
57
330
56
100
AcDbDictionary
280
     1
281
     1
  3
ADSK_XREC_LAYER_RECONCILED
360
58
  0
DICTIONARY
  5
3A4
330
3A3
100
AcDbDictionary
280
     1
281
     1
  3
ADSK_XREC_LAYER_RECONCILED
360
3A5
  0
DICTIONARY
  5
7F
330
7E
100
AcDbDictionary
280
     1
281
     1
  3
ADSK_XREC_LAYER_RECONCILED
360
80
  0
DICTIONARY
  5
3
330
2
100
AcDbDictionary
280
     1
281
     1
  3
ACAD_SORTENTS
360
790
  0
DICTIONARY
  5
30
330
2F
100
AcDbDictionary
280
     1
281
     1
  3
ACAD_SORTENTS
360
78F
  0
DICTIONARY
  5
53
102
{ACAD_REACTORS
330
B
102
}
330
B
100
AcDbDictionary
281
     1
  0
DICTIONARY
  5
4E
102
{ACAD_REACTORS
330
B
102
}
330
B
100
AcDbDictionary
281
     1
  0
DICTIONARY
  5
12
102
{ACAD_REACTORS
330
B
102
}
330
B
100
AcDbDictionary
281
     1
  3
Layout1
350
C40
  3
Model
350
11
  0
DICTIONARY
  5
D
102
{ACAD_REACTORS
330
B
102
}
330
B
100
AcDbDictionary
281
     1
  3
ByBlock
350
52
  3
ByLayer
350
51
  3
Global
350
C
  0
DICTIONARY
  5
7A8
102
{ACAD_REACTORS
330
B
102
}
330
B
100
AcDbDictionary
281
     1
  3
Standard
350
7A9
  0
DICTIONARY
  5
4F
102
{ACAD_REACTORS
330
B
102
}
330
B
100
AcDbDictionary
281
     1
  3
STANDARD
350
59
  0
DICTIONARY
  5
50
102
{ACAD_REACTORS
330
B
102
}
330
B
100
AcDbDictionary
281
     1
  0
ACDBDICTIONARYWDFLT
  5
A
102
{ACAD_REACTORS
330
B
102
}
330
B
100
AcDbDictionary
281
     1
  3
Normal
350
9
100
AcDbDictionaryWithDefault
340
9
  0
DICTIONARY
  5
54
102
{ACAD_REACTORS
330
B
102
}
330
B
100
AcDbDictionary
281
     1
  3
*A1
350
85B
  3
*A10
350
86C
  3
*A11
350
86D
  3
*A12
350
85C
  3
*A13
350
86E
  3
*A14
350
86F
  3
*A15
350
870
  3
*A16
350
871
  3
*A17
350
872
  3
*A18
350
873
  3
*A19
350
874
  3
*A2
350
864
  3
*A20
350
875
  3
*A21
350
876
  3
*A22
350
877
  3
*A23
350
85D
  3
*A24
350
878
  3
*A25
350
879
  3
*A26
350
87A
  3
*A27
350
87B
  3
*A28
350
87C
  3
*A29
350
87D
  3
*A3
350
865
  3
*A30
350
87E
  3
*A31
350
87F
  3
*A32
350
880
  3
*A33
350
881
  3
*A34
350
85E
  3
*A35
350
882
  3
*A36
350
85F
  3
*A37
350
860
  3
*A38
350
861
  3
*A39
350
862
  3
*A4
350
866
  3
*A40
350
863
  3
*A5
350
867
  3
*A6
350
868
  3
*A7
350
869
  3
*A8
350
86A
  3
*A9
350
86B
  3
A0
350
5E
  3
A1
350
5F
  3
A2
350
60
  3
A3
350
61
  3
A4
350
62
  3
A5
350
63
  3
A6
350
64
  3
A7
350
65
  3
A8
350
66
  3
A9
350
67
  3
B0
350
68
  3
B1
350
69
  3
B2
350
6A
  3
B3
350
6B
  3
B4
350
6C
  3
B5
350
6D
  3
B6
350
6E
  3
B7
350
6F
  3
B8
350
70
  3
B9
350
71
  3
C0
350
72
  0
DICTIONARY
  5
55
102
{ACAD_REACTORS
330
B
102
}
330
B
100
AcDbDictionary
281
     1
  3
Standard
350
5A
  0
DICTIONARY
  5
15
102
{ACAD_REACTORS
330
B
102
}
330
B
100
AcDbDictionary
281
     1
  3
2dWireframe
350
14
  3
3D Hidden
350
7A0
  3
3dWireframe
350
5D
  3
Basic
350
79F
  3
Brighten
350
7A3
  3
ColorChange
350
7A7
  3
Conceptual
350
7A1
  3
Dim
350
7A2
  3
Facepattern
350
7A6
  3
Flat
350
79B
  3
FlatWithEdges
350
79C
  3
Gouraud
350
79D
  3
GouraudWithEdges
350
79E
  3
Linepattern
350
7A5
  3
Phong
350
7B1
  3
PhongWithEdges
350
7B2
  3
Realistic
350
5C
  3
Thicken
350
7A4
  0
XRECORD
  5
794
102
{ACAD_REACTORS
330
B
102
}
330
B
100
AcDbXrecord
280
     1
 90
        1
330
5A
  0
DICTIONARY
  5
795
102
{ACAD_REACTORS
330
B
102
}
330
B
100
AcDbDictionary
281
     1
  3
CANNOSCALE
350
798
  3
CMLEADERSTYLE
350
797
  3
CTABLESTYLE
350
796
  3
DIMASSOC
350
C49
  3
HIDETEXT
350
C48
  3
INDEXCTL
350
C47
  3
LIGHTINGUNITS
350
799
  3
MSLTSCALE
350
C45
  3
SORTENTS
350
C46
  0
DICTIONARY
  5
952
102
{ACAD_REACTORS
330
B
102
}
330
B
100
AcDbDictionary
281
     1
  0
XRECORD
  5
C4B
102
{ACAD_REACTORS
330
B
102
}
330
B
100
AcDbXrecord
280
     1
  1
DWGPROPS COOKIE
  2

  3

  4

  6

  7

  8
beata.rzonca
  9

300
=
301
=
302
=
303
=
304
=
305
=
306
=
307
=
308
=
309
=
 40
21.71868912037037
 41
2450817.525937848
 42
2454959.607901829
  1

 90
        0
  0
DICTIONARY
  5
1F
102
{ACAD_REACTORS
330
1E
102
}
330
1E
100
AcDbDictionary
281
     1
  0
XRECORD
  5
8
102
{ACAD_REACTORS
330
7
102
}
330
7
100
AcDbXrecord
280
     1
290
     1
  0
XRECORD
  5
76
102
{ACAD_REACTORS
330
75
102
}
330
75
100
AcDbXrecord
280
     1
290
     1
  0
XRECORD
  5
58
102
{ACAD_REACTORS
330
57
102
}
330
57
100
AcDbXrecord
280
     1
290
     1
  0
XRECORD
  5
3A5
102
{ACAD_REACTORS
330
3A4
102
}
330
3A4
100
AcDbXrecord
280
     1
290
     1
  0
XRECORD
  5
80
102
{ACAD_REACTORS
330
7F
102
}
330
7F
100
AcDbXrecord
280
     1
290
     1
  0
SORTENTSTABLE
  5
790
102
{ACAD_REACTORS
330
3
102
}
330
3
100
AcDbSortentsTable
330
2
  0
SORTENTSTABLE
  5
78F
102
{ACAD_REACTORS
330
30
102
}
330
30
100
AcDbSortentsTable
330
2F
  0
LAYOUT
  5
C40
102
{ACAD_XDICTIONARY
360
C55
102
}
102
{ACAD_REACTORS
330
12
102
}
330
12
100
AcDbPlotSettings
  1

  2
CutePDF Writer
  4

  6

 40
0.0
 41
0.0
 42
0.0
 43
0.0
 44
0.0
 45
0.0
 46
0.0
 47
0.0
 48
0.0
 49
0.0
140
0.0
141
0.0
142
1.0
143
1.0
 70
   688
 72
     0
 73
     0
 74
     5
  7

 75
    16
147
1.0
148
0.0
149
0.0
100
AcDbLayout
  1
Layout1
 70
     1
 71
     1
 10
0.0
 20
0.0
 11
12.0
 21
9.0
 12
0.0
 22
0.0
 32
0.0
 14
0.0
 24
0.0
 34
0.0
 15
0.0
 25
0.0
 35
0.0
146
0.0
 13
0.0
 23
0.0
 33
0.0
 16
1.0
 26
0.0
 36
0.0
 17
0.0
 27
1.0
 37
0.0
 76
     0
330
C3F
  0
LAYOUT
  5
11
102
{ACAD_XDICTIONARY
360
C4E
102
}
102
{ACAD_REACTORS
330
12
102
}
330
12
100
AcDbPlotSettings
  1

  2
RICOH Aficio AP610N PCL 5e
  4
A4
  6
10-ele
 40
6.805083274841308
 41
5.027085781097412
 42
6.974411010742187
 43
5.027069091796875
 44
209.9733276367187
 45
296.9259948730469
 46
-3.903083324432671
 47
3.235920000076276
 48
67057.75918130524
 49
-45526.33714755503
140
77257.75918130527
141
-31506.33714755504
142
1.0
143
50.0
 70
 11940
 72
     1
 73
     0
 74
     4
  7
monochrome_140.ctb
 75
     0
147
0.0192346895442289
148
-67057.75918130524
149
45526.33714755503
100
AcDbLayout
  1
Model
 70
     1
 71
     0
 10
0.0
 20
0.0
 11
12.0
 21
9.0
 12
0.0
 22
0.0
 32
0.0
 14
0.0
 24
0.0
 34
0.0
 15
0.0
 25
0.0
 35
0.0
146
0.0
 13
0.0
 23
0.0
 33
0.0
 16
1.0
 26
0.0
 36
0.0
 17
0.0
 27
1.0
 37
0.0
 76
     0
330
2
331
29
1001
ACAD_PSEXT
1000
RICOH Aficio AP610N PCL 5e
1000
RICOH Aficio AP610N PCL 5e
1000
IP_192.168.0.252_tech
1000

1070
     0
  0
MATERIAL
  5
52
102
{ACAD_XDICTIONARY
360
C52
102
}
102
{ACAD_REACTORS
330
D
102
}
330
D
100
AcDbMaterial
  1
ByBlock
 73
     1
 78
     1
172
     1
176
     1
270
     1
274
     1
  0
MATERIAL
  5
51
102
{ACAD_XDICTIONARY
360
C50
102
}
102
{ACAD_REACTORS
330
D
102
}
330
D
100
AcDbMaterial
  1
ByLayer
 73
     1
 78
     1
172
     1
176
     1
270
     1
274
     1
  0
MATERIAL
  5
C
102
{ACAD_XDICTIONARY
360
C4C
102
}
102
{ACAD_REACTORS
330
D
102
}
330
D
100
AcDbMaterial
  1
Global
 73
     1
 78
     1
172
     1
176
     1
270
     1
274
     1
  0
MLEADERSTYLE
  5
7A9
102
{ACAD_REACTORS
330
7A8
102
}
330
7A8
100
AcDbMLeaderStyle
170
     2
171
     1
172
     0
 90
        2
 40
0.0
 41
0.0
173
     1
 91
-1056964608
340
24
 92
       -2
290
     1
 42
0.09
291
     1
 43
0.36
  3
Standard
 44
0.18
300

342
21
174
     1
178
     6
175
     1
176
     0
 93
-1056964608
 45
0.18
292
     0
297
     0
 46
0.18
 94
-1056964608
 47
1.0
 49
1.0
140
1.0
293
     1
141
0.0
294
     1
177
     0
142
1.0
295
     0
296
     0
143
0.125
1001
ACAD_MLEADERVER
1070
     2
  0
MLINESTYLE
  5
59
102
{ACAD_REACTORS
330
4F
102
}
330
4F
100
AcDbMlineStyle
  2
STANDARD
 70
     0
  3

 62
     0
 51
90.0
 52
90.0
 71
     2
 49
0.5
 62
   256
  6
BYLAYER
 49
-0.5
 62
   256
  6
BYLAYER
  0
ACDBPLACEHOLDER
  5
9
102
{ACAD_REACTORS
330
A
102
}
330
A
  0
SCALE
  5
85B
102
{ACAD_REACTORS
330
54
102
}
330
54
100
AcDbScale
 70
     0
300
1:1_2
140
1.0
141
1.0
290
     0
  0
SCALE
  5
86C
102
{ACAD_REACTORS
330
54
102
}
330
54
100
AcDbScale
 70
     0
300
1:50_1
140
1.0
141
50.0
290
     0
  0
SCALE
  5
86D
102
{ACAD_REACTORS
330
54
102
}
330
54
100
AcDbScale
 70
     0
300
1:100_1
140
1.0
141
100.0
290
     0
  0
SCALE
  5
85C
102
{ACAD_REACTORS
330
54
102
}
330
54
100
AcDbScale
 70
     0
300
1:2_2
140
1.0
141
2.0
290
     0
  0
SCALE
  5
86E
102
{ACAD_REACTORS
330
54
102
}
330
54
100
AcDbScale
 70
     0
300
2:1
140
2.0
141
1.0
290
     0
  0
SCALE
  5
86F
102
{ACAD_REACTORS
330
54
102
}
330
54
100
AcDbScale
 70
     0
300
4:1
140
4.0
141
1.0
290
     0
  0
SCALE
  5
870
102
{ACAD_REACTORS
330
54
102
}
330
54
100
AcDbScale
 70
     0
300
8:1
140
8.0
141
1.0
290
     0
  0
SCALE
  5
871
102
{ACAD_REACTORS
330
54
102
}
330
54
100
AcDbScale
 70
     0
300
10:1
140
10.0
141
1.0
290
     0
  0
SCALE
  5
872
102
{ACAD_REACTORS
330
54
102
}
330
54
100
AcDbScale
 70
     0
300
100:1
140
100.0
141
1.0
290
     0
  0
SCALE
  5
873
102
{ACAD_REACTORS
330
54
102
}
330
54
100
AcDbScale
 70
     0
300
1/128" = 1'-0"
140
0.0078125
141
12.0
290
     0
  0
SCALE
  5
874
102
{ACAD_REACTORS
330
54
102
}
330
54
100
AcDbScale
 70
     0
300
1/64" = 1'-0"
140
0.015625
141
12.0
290
     0
  0
SCALE
  5
864
102
{ACAD_REACTORS
330
54
102
}
330
54
100
AcDbScale
 70
     0
300
1:4
140
1.0
141
4.0
290
     0
  0
SCALE
  5
875
102
{ACAD_REACTORS
330
54
102
}
330
54
100
AcDbScale
 70
     0
300
1/32" = 1'-0"
140
0.03125
141
12.0
290
     0
  0
SCALE
  5
876
102
{ACAD_REACTORS
330
54
102
}
330
54
100
AcDbScale
 70
     0
300
1/16" = 1'-0"
140
0.0625
141
12.0
290
     0
  0
SCALE
  5
877
102
{ACAD_REACTORS
330
54
102
}
330
54
100
AcDbScale
 70
     0
300
3/32" = 1'-0"
140
0.09375
141
12.0
290
     0
  0
SCALE
  5
85D
102
{ACAD_REACTORS
330
54
102
}
330
54
100
AcDbScale
 70
     0
300
1:5_2
140
1.0
141
5.0
290
     0
  0
SCALE
  5
878
102
{ACAD_REACTORS
330
54
102
}
330
54
100
AcDbScale
 70
     0
300
1/8" = 1'-0"
140
0.125
141
12.0
290
     0
  0
SCALE
  5
879
102
{ACAD_REACTORS
330
54
102
}
330
54
100
AcDbScale
 70
     0
300
3/16" = 1'-0"
140
0.1875
141
12.0
290
     0
  0
SCALE
  5
87A
102
{ACAD_REACTORS
330
54
102
}
330
54
100
AcDbScale
 70
     0
300
1/4" = 1'-0"
140
0.25
141
12.0
290
     0
  0
SCALE
  5
87B
102
{ACAD_REACTORS
330
54
102
}
330
54
100
AcDbScale
 70
     0
300
3/8" = 1'-0"
140
0.375
141
12.0
290
     0
  0
SCALE
  5
87C
102
{ACAD_REACTORS
330
54
102
}
330
54
100
AcDbScale
 70
     0
300
1/2" = 1'-0"
140
0.5
141
12.0
290
     0
  0
SCALE
  5
87D
102
{ACAD_REACTORS
330
54
102
}
330
54
100
AcDbScale
 70
     0
300
3/4" = 1'-0"
140
0.75
141
12.0
290
     0
  0
SCALE
  5
865
102
{ACAD_REACTORS
330
54
102
}
330
54
100
AcDbScale
 70
     0
300
1:5_1
140
1.0
141
5.0
290
     0
  0
SCALE
  5
87E
102
{ACAD_REACTORS
330
54
102
}
330
54
100
AcDbScale
 70
     0
300
1" = 1'-0"
140
1.0
141
12.0
290
     0
  0
SCALE
  5
87F
102
{ACAD_REACTORS
330
54
102
}
330
54
100
AcDbScale
 70
     0
300
1-1/2" = 1'-0"
140
1.5
141
12.0
290
     0
  0
SCALE
  5
880
102
{ACAD_REACTORS
330
54
102
}
330
54
100
AcDbScale
 70
     0
300
3" = 1'-0"
140
3.0
141
12.0
290
     0
  0
SCALE
  5
881
102
{ACAD_REACTORS
330
54
102
}
330
54
100
AcDbScale
 70
     0
300
6" = 1'-0"
140
6.0
141
12.0
290
     0
  0
SCALE
  5
85E
102
{ACAD_REACTORS
330
54
102
}
330
54
100
AcDbScale
 70
     0
300
1:10_2
140
1.0
141
10.0
290
     0
  0
SCALE
  5
882
102
{ACAD_REACTORS
330
54
102
}
330
54
100
AcDbScale
 70
     0
300
1'-0" = 1'-0"
140
12.0
141
12.0
290
     0
  0
SCALE
  5
85F
102
{ACAD_REACTORS
330
54
102
}
330
54
100
AcDbScale
 70
     0
300
1:20_2
140
1.0
141
20.0
290
     0
  0
SCALE
  5
860
102
{ACAD_REACTORS
330
54
102
}
330
54
100
AcDbScale
 70
     0
300
1:50_2
140
1.0
141
50.0
290
     0
  0
SCALE
  5
861
102
{ACAD_REACTORS
330
54
102
}
330
54
100
AcDbScale
 70
     0
300
1:100_2
140
1.0
141
100.0
290
     0
  0
SCALE
  5
862
102
{ACAD_REACTORS
330
54
102
}
330
54
100
AcDbScale
 70
     0
300
1:1_1
140
1.0
141
1.0
290
     0
  0
SCALE
  5
866
102
{ACAD_REACTORS
330
54
102
}
330
54
100
AcDbScale
 70
     0
300
1:8
140
1.0
141
8.0
290
     0
  0
SCALE
  5
863
102
{ACAD_REACTORS
330
54
102
}
330
54
100
AcDbScale
 70
     0
300
1:2_1
140
1.0
141
2.0
290
     0
  0
SCALE
  5
867
102
{ACAD_REACTORS
330
54
102
}
330
54
100
AcDbScale
 70
     0
300
1:10_1
140
1.0
141
10.0
290
     0
  0
SCALE
  5
868
102
{ACAD_REACTORS
330
54
102
}
330
54
100
AcDbScale
 70
     0
300
1:16
140
1.0
141
16.0
290
     0
  0
SCALE
  5
869
102
{ACAD_REACTORS
330
54
102
}
330
54
100
AcDbScale
 70
     0
300
1:20_1
140
1.0
141
20.0
290
     0
  0
SCALE
  5
86A
102
{ACAD_REACTORS
330
54
102
}
330
54
100
AcDbScale
 70
     0
300
1:30
140
1.0
141
30.0
290
     0
  0
SCALE
  5
86B
102
{ACAD_REACTORS
330
54
102
}
330
54
100
AcDbScale
 70
     0
300
1:40
140
1.0
141
40.0
290
     0
  0
SCALE
  5
5E
102
{ACAD_REACTORS
330
54
102
}
330
54
100
AcDbScale
 70
     0
300
1:1
140
1.0
141
0.1
290
     0
  0
SCALE
  5
5F
102
{ACAD_REACTORS
330
54
102
}
330
54
100
AcDbScale
 70
     0
300
1:2
140
1.0
141
0.2
290
     0
  0
SCALE
  5
60
102
{ACAD_REACTORS
330
54
102
}
330
54
100
AcDbScale
 70
     0
300
1:2.5
140
1.0
141
0.25
290
     0
  0
SCALE
  5
61
102
{ACAD_REACTORS
330
54
102
}
330
54
100
AcDbScale
 70
     0
300
1:5
140
1.0
141
0.5
290
     0
  0
SCALE
  5
62
102
{ACAD_REACTORS
330
54
102
}
330
54
100
AcDbScale
 70
     0
300
1:7.5
140
1.0
141
0.75
290
     0
  0
SCALE
  5
63
102
{ACAD_REACTORS
330
54
102
}
330
54
100
AcDbScale
 70
     0
300
1:10
140
1.0
141
1.0
290
     1
  0
SCALE
  5
64
102
{ACAD_REACTORS
330
54
102
}
330
54
100
AcDbScale
 70
     0
300
1:20
140
1.0
141
2.0
290
     0
  0
SCALE
  5
65
102
{ACAD_REACTORS
330
54
102
}
330
54
100
AcDbScale
 70
     0
300
1:25
140
1.0
141
2.5
290
     0
  0
SCALE
  5
66
102
{ACAD_REACTORS
330
54
102
}
330
54
100
AcDbScale
 70
     0
300
1:50
140
1.0
141
5.0
290
     0
  0
SCALE
  5
67
102
{ACAD_REACTORS
330
54
102
}
330
54
100
AcDbScale
 70
     0
300
1:75
140
1.0
141
7.5
290
     0
  0
SCALE
  5
68
102
{ACAD_REACTORS
330
54
102
}
330
54
100
AcDbScale
 70
     0
300
1:100
140
1.0
141
10.0
290
     0
  0
SCALE
  5
69
102
{ACAD_REACTORS
330
54
102
}
330
54
100
AcDbScale
 70
     0
300
1:150
140
1.0
141
15.0
290
     0
  0
SCALE
  5
6A
102
{ACAD_REACTORS
330
54
102
}
330
54
100
AcDbScale
 70
     0
300
1:200
140
1.0
141
20.0
290
     0
  0
SCALE
  5
6B
102
{ACAD_REACTORS
330
54
102
}
330
54
100
AcDbScale
 70
     0
300
1:250
140
1.0
141
25.0
290
     0
  0
SCALE
  5
6C
102
{ACAD_REACTORS
330
54
102
}
330
54
100
AcDbScale
 70
     0
300
1:500
140
1.0
141
50.0
290
     0
  0
SCALE
  5
6D
102
{ACAD_REACTORS
330
54
102
}
330
54
100
AcDbScale
 70
     0
300
1:750
140
1.0
141
75.0
290
     0
  0
SCALE
  5
6E
102
{ACAD_REACTORS
330
54
102
}
330
54
100
AcDbScale
 70
     0
300
1:1000
140
1.0
141
100.0
290
     0
  0
SCALE
  5
6F
102
{ACAD_REACTORS
330
54
102
}
330
54
100
AcDbScale
 70
     0
300
1:1250
140
1.0
141
125.0
290
     0
  0
SCALE
  5
70
102
{ACAD_REACTORS
330
54
102
}
330
54
100
AcDbScale
 70
     0
300
1:2000
140
1.0
141
200.0
290
     0
  0
SCALE
  5
71
102
{ACAD_REACTORS
330
54
102
}
330
54
100
AcDbScale
 70
     0
300
1:2500
140
1.0
141
250.0
290
     0
  0
SCALE
  5
72
102
{ACAD_REACTORS
330
54
102
}
330
54
100
AcDbScale
 70
     0
300
1:5000
140
1.0
141
500.0
290
     0
  0
TABLESTYLE
  5
5A
102
{ACAD_XDICTIONARY
360
5B
102
}
102
{ACAD_REACTORS
330
55
102
}
330
55
100
AcDbTableStyle
  3
Standard
 70
     0
 71
     0
 40
0.06
 41
0.06
280
     0
281
     0
  7
STANDARD
140
0.18
170
     2
 62
     0
 63
     7
283
     0
274
    -2
284
     1
 64
     0
275
    -2
285
     1
 65
     0
276
    -2
286
     1
 66
     0
277
    -2
287
     1
 67
     0
278
    -2
288
     1
 68
     0
279
    -2
289
     1
 69
     0
  7
STANDARD
140
0.25
170
     5
 62
     0
 63
     7
283
     0
274
    -2
284
     1
 64
     0
275
    -2
285
     1
 65
     0
276
    -2
286
     1
 66
     0
277
    -2
287
     1
 67
     0
278
    -2
288
     1
 68
     0
279
    -2
289
     1
 69
     0
  7
STANDARD
140
0.18
170
     5
 62
     0
 63
     7
283
     0
274
    -2
284
     1
 64
     0
275
    -2
285
     1
 65
     0
276
    -2
286
     1
 66
     0
277
    -2
287
     1
 67
     0
278
    -2
288
     1
 68
     0
279
    -2
289
     1
 69
     0
  0
VISUALSTYLE
  5
14
102
{ACAD_REACTORS
330
15
102
}
330
15
100
AcDbVisualStyle
  2
2dWireframe
 70
     4
 71
     0
 72
     2
 73
     0
 90
        0
 40
-0.6
 41
-30.0
 62
     5
 63
     7
 74
     1
 91
        4
 64
     7
 65
   257
 75
     1
175
     1
 42
1.0
 92
        0
 66
   257
 43
1.0
 76
     1
 77
     6
 78
     2
 67
     7
 79
     5
170
     0
171
     0
290
     0
174
     0
 93
        1
 44
0.0
173
     0
291
     0
 45
0.0
1001
ACAD
1000
AcDbSavedByObjectVersion
1070
     0
  0
VISUALSTYLE
  5
7A0
102
{ACAD_REACTORS
330
15
102
}
330
15
100
AcDbVisualStyle
  2
3D Hidden
 70
     6
 71
     1
 72
     2
 73
     2
 90
        0
 40
-0.6
 41
-30.0
 62
     5
 63
     7
 74
     2
 91
        2
 64
     7
 65
   257
 75
     2
175
     1
 42
40.0
 92
        0
 66
   257
 43
1.0
 76
     1
 77
     6
 78
     2
 67
     7
 79
     3
170
     0
171
     0
290
     0
174
     0
 93
        1
 44
0.0
173
     0
291
     0
 45
0.0
1001
ACAD
1000
AcDbSavedByObjectVersion
1070
     0
  0
VISUALSTYLE
  5
5D
102
{ACAD_REACTORS
330
15
102
}
330
15
100
AcDbVisualStyle
  2
3dWireframe
 70
     5
 71
     0
 72
     2
 73
     0
 90
        0
 40
-0.6
 41
-30.0
 62
     5
 63
     7
 74
     1
 91
        4
 64
     7
 65
   257
 75
     1
175
     1
 42
1.0
 92
        0
 66
   257
 43
1.0
 76
     1
 77
     6
 78
     2
 67
     7
 79
     5
170
     0
171
     0
290
     0
174
     0
 93
        1
 44
0.0
173
     0
291
     0
 45
0.0
1001
ACAD
1000
AcDbSavedByObjectVersion
1070
     0
  0
VISUALSTYLE
  5
79F
102
{ACAD_REACTORS
330
15
102
}
330
15
100
AcDbVisualStyle
  2
Basic
 70
     7
 71
     1
 72
     0
 73
     1
 90
        0
 40
-0.6
 41
-30.0
 62
     5
 63
     7
 74
     0
 91
        4
 64
     7
 65
   257
 75
     1
175
     1
 42
1.0
 92
        8
 66
     7
 43
1.0
 76
     1
 77
     6
 78
     2
 67
     7
 79
     5
170
     0
171
     0
290
     0
174
     0
 93
        1
 44
0.0
173
     0
291
     1
 45
0.0
1001
ACAD
1000
AcDbSavedByObjectVersion
1070
     0
  0
VISUALSTYLE
  5
7A3
102
{ACAD_REACTORS
330
15
102
}
330
15
100
AcDbVisualStyle
  2
Brighten
 70
    12
 71
     2
 72
     2
 73
     0
 90
        0
 40
-0.6
 41
-30.0
 62
     5
 63
     7
 74
     1
 91
        4
 64
     7
 65
   257
 75
     1
175
     1
 42
1.0
 92
        8
 66
     7
 43
1.0
 76
     1
 77
     6
 78
     2
 67
     7
 79
     5
170
     0
171
     0
290
     0
174
     0
 93
        1
 44
50.0
173
     0
291
     1
 45
0.0
1001
ACAD
1000
AcDbSavedByObjectVersion
1070
     0
  0
VISUALSTYLE
  5
7A7
102
{ACAD_REACTORS
330
15
102
}
330
15
100
AcDbVisualStyle
  2
ColorChange
 70
    16
 71
     2
 72
     2
 73
     3
 90
        0
 40
-0.6
 41
-30.0
 62
     5
 63
     8
 74
     1
 91
        4
 64
     7
 65
   257
 75
     1
175
     1
 42
1.0
 92
        8
 66
     8
 43
1.0
 76
     1
 77
     6
 78
     2
 67
     7
 79
     5
170
     0
171
     0
290
     0
174
     0
 93
        1
 44
0.0
173
     0
291
     1
 45
0.0
1001
ACAD
1000
AcDbSavedByObjectVersion
1070
     0
  0
VISUALSTYLE
  5
7A1
102
{ACAD_REACTORS
330
15
102
}
330
15
100
AcDbVisualStyle
  2
Conceptual
 70
     9
 71
     3
 72
     2
 73
     0
 90
        0
 40
-0.6
 41
-30.0
 62
     5
 63
     7
 74
     2
 91
        2
 64
     7
 65
   257
 75
     1
175
     1
 42
40.0
 92
        8
 66
     7
 43
1.0
 76
     1
 77
     6
 78
     2
 67
     7
 79
     3
170
     0
171
     0
290
     0
174
     0
 93
        1
 44
0.0
173
     0
291
     0
 45
0.0
1001
ACAD
1000
AcDbSavedByObjectVersion
1070
     0
  0
VISUALSTYLE
  5
7A2
102
{ACAD_REACTORS
330
15
102
}
330
15
100
AcDbVisualStyle
  2
Dim
 70
    11
 71
     2
 72
     2
 73
     0
 90
        0
 40
-0.6
 41
-30.0
 62
     5
 63
     7
 74
     1
 91
        4
 64
     7
 65
   257
 75
     1
175
     1
 42
1.0
 92
        8
 66
     7
 43
1.0
 76
     1
 77
     6
 78
     2
 67
     7
 79
     5
170
     0
171
     0
290
     0
174
     0
 93
        1
 44
-50.0
173
     0
291
     1
 45
0.0
1001
ACAD
1000
AcDbSavedByObjectVersion
1070
     0
  0
VISUALSTYLE
  5
7A6
102
{ACAD_REACTORS
330
15
102
}
330
15
100
AcDbVisualStyle
  2
Facepattern
 70
    15
 71
     2
 72
     2
 73
     0
 90
        0
 40
-0.6
 41
-30.0
 62
     5
 63
     7
 74
     1
 91
        4
 64
     7
 65
   257
 75
     1
175
     1
 42
1.0
 92
        8
 66
     7
 43
1.0
 76
     1
 77
     6
 78
     2
 67
     7
 79
     5
170
     0
171
     0
290
     0
174
     0
 93
        1
 44
0.0
173
     0
291
     1
 45
0.0
1001
ACAD
1000
AcDbSavedByObjectVersion
1070
     0
  0
VISUALSTYLE
  5
79B
102
{ACAD_REACTORS
330
15
102
}
330
15
100
AcDbVisualStyle
  2
Flat
 70
     0
 71
     2
 72
     1
 73
     1
 90
        2
 40
-0.6
 41
30.0
 62
     5
 63
     7
 74
     0
 91
        4
 64
     7
 65
   257
 75
     1
175
     1
 42
1.0
 92
        8
 66
     7
 43
1.0
 76
     1
 77
     6
 78
     2
 67
     7
 79
     5
170
     0
171
     0
290
     0
174
     0
 93
       13
 44
0.0
173
     0
291
     0
 45
0.0
1001
ACAD
1000
AcDbSavedByObjectVersion
1070
     0
  0
VISUALSTYLE
  5
79C
102
{ACAD_REACTORS
330
15
102
}
330
15
100
AcDbVisualStyle
  2
FlatWithEdges
 70
     1
 71
     2
 72
     1
 73
     1
 90
        2
 40
-0.6
 41
30.0
 62
     5
 63
     7
 74
     1
 91
        4
 64
     7
 65
   257
 75
     1
175
     1
 42
1.0
 92
        0
 66
   257
 43
1.0
 76
     1
 77
     6
 78
     2
 67
     7
 79
     5
170
     0
171
     0
290
     0
174
     0
 93
       13
 44
0.0
173
     0
291
     0
 45
0.0
1001
ACAD
1000
AcDbSavedByObjectVersion
1070
     0
  0
VISUALSTYLE
  5
79D
102
{ACAD_REACTORS
330
15
102
}
330
15
100
AcDbVisualStyle
  2
Gouraud
 70
     2
 71
     2
 72
     2
 73
     1
 90
        2
 40
-0.6
 41
30.0
 62
     5
 63
     7
 74
     0
 91
        4
 64
     7
 65
   257
 75
     1
175
     1
 42
1.0
 92
        0
 66
     7
 43
1.0
 76
     1
 77
     6
 78
     2
 67
     7
 79
     5
170
     0
171
     0
290
     0
174
     0
 93
       13
 44
0.0
173
     0
291
     0
 45
0.0
1001
ACAD
1000
AcDbSavedByObjectVersion
1070
     0
  0
VISUALSTYLE
  5
79E
102
{ACAD_REACTORS
330
15
102
}
330
15
100
AcDbVisualStyle
  2
GouraudWithEdges
 70
     3
 71
     2
 72
     2
 73
     1
 90
        2
 40
-0.6
 41
30.0
 62
     5
 63
     7
 74
     1
 91
        4
 64
     7
 65
   257
 75
     1
175
     1
 42
1.0
 92
        0
 66
   257
 43
1.0
 76
     1
 77
     6
 78
     2
 67
     7
 79
     5
170
     0
171
     0
290
     0
174
     0
 93
       13
 44
0.0
173
     0
291
     0
 45
0.0
1001
ACAD
1000
AcDbSavedByObjectVersion
1070
     0
  0
VISUALSTYLE
  5
7A5
102
{ACAD_REACTORS
330
15
102
}
330
15
100
AcDbVisualStyle
  2
Linepattern
 70
    14
 71
     2
 72
     2
 73
     0
 90
        0
 40
-0.6
 41
-30.0
 62
     5
 63
     7
 74
     1
 91
        4
 64
     7
 65
   257
 75
     7
175
     7
 42
1.0
 92
        8
 66
     7
 43
1.0
 76
     1
 77
     6
 78
     2
 67
     7
 79
     5
170
     0
171
     0
290
     0
174
     0
 93
        1
 44
0.0
173
     0
291
     1
 45
0.0
1001
ACAD
1000
AcDbSavedByObjectVersion
1070
     0
  0
VISUALSTYLE
  5
7B1
102
{ACAD_REACTORS
330
15
102
}
330
15
100
AcDbVisualStyle
  2

 70
     8
 71
     2
 72
     2
 73
     0
 90
        0
 40
-0.6
 41
-30.0
 62
     5
 63
     7
 74
     0
 91
        0
 64
     7
 65
   257
 75
     1
175
     1
 42
1.0
 92
        8
 66
     8
 43
1.0
 76
     1
 77
     6
 78
     2
 67
     7
 79
     5
170
     0
171
     0
290
     0
174
     0
 93
       13
 44
0.0
173
     0
291
     0
 45
0.0
1001
ACAD
1000
AcDbSavedByObjectVersion
1070
     0
  0
VISUALSTYLE
  5
7B2
102
{ACAD_REACTORS
330
15
102
}
330
15
100
AcDbVisualStyle
  2

 70
     8
 71
     2
 72
     2
 73
     0
 90
        0
 40
-0.6
 41
-30.0
 62
     5
 63
     7
 74
     1
 91
        0
 64
     7
 65
   257
 75
     1
175
     1
 42
1.0
 92
        8
 66
     8
 43
1.0
 76
     1
 77
     6
 78
     2
 67
     7
 79
     5
170
     0
171
     0
290
     0
174
     0
 93
       13
 44
0.0
173
     0
291
     0
 45
0.0
1001
ACAD
1000
AcDbSavedByObjectVersion
1070
     0
  0
VISUALSTYLE
  5
5C
102
{ACAD_REACTORS
330
15
102
}
330
15
100
AcDbVisualStyle
  2
Realistic
 70
     8
 71
     2
 72
     2
 73
     0
 90
        0
 40
-0.6
 41
-30.0
 62
     5
 63
     7
 74
     1
 91
        0
 64
     7
 65
   257
 75
     1
175
     1
 42
1.0
 92
        8
 66
     8
 43
1.0
 76
     1
 77
     6
 78
     2
 67
     7
 79
     5
170
     0
171
     0
290
     0
174
     0
 93
       13
 44
0.0
173
     0
291
     0
 45
0.0
1001
ACAD
1000
AcDbSavedByObjectVersion
1070
     0
  0
VISUALSTYLE
  5
7A4
102
{ACAD_REACTORS
330
15
102
}
330
15
100
AcDbVisualStyle
  2
Thicken
 70
    13
 71
     2
 72
     2
 73
     0
 90
        0
 40
-0.6
 41
-30.0
 62
     5
 63
     7
 74
     1
 91
        4
 64
     7
 65
   257
 75
     1
175
     1
 42
1.0
 92
       12
 66
     7
 43
1.0
 76
     1
 77
     6
 78
     2
 67
     7
 79
     5
170
     0
171
     0
290
     0
174
     0
 93
        1
 44
0.0
173
     0
291
     1
 45
0.0
1001
ACAD
1000
AcDbSavedByObjectVersion
1070
     0
  0
DICTIONARYVAR
  5
798
102
{ACAD_REACTORS
330
795
102
}
330
795
100
DictionaryVariables
280
     0
  1
1:1
  0
DICTIONARYVAR
  5
797
102
{ACAD_REACTORS
330
795
102
}
330
795
100
DictionaryVariables
280
     0
  1
STANDARD
  0
DICTIONARYVAR
  5
796
102
{ACAD_REACTORS
330
795
102
}
330
795
100
DictionaryVariables
280
     0
  1
STANDARD
  0
DICTIONARYVAR
  5
C49
102
{ACAD_REACTORS
330
795
102
}
330
795
100
DictionaryVariables
280
     0
  1
1
  0
DICTIONARYVAR
  5
C48
102
{ACAD_REACTORS
330
795
102
}
330
795
100
DictionaryVariables
280
     0
  1
1
  0
DICTIONARYVAR
  5
C47
102
{ACAD_REACTORS
330
795
102
}
330
795
100
DictionaryVariables
280
     0
  1
0
  0
DICTIONARYVAR
  5
799
102
{ACAD_REACTORS
330
795
102
}
330
795
100
DictionaryVariables
280
     0
  1
0
  0
DICTIONARYVAR
  5
C45
102
{ACAD_REACTORS
330
795
102
}
330
795
100
DictionaryVariables
280
     0
  1
1
  0
DICTIONARYVAR
  5
C46
102
{ACAD_REACTORS
330
795
102
}
330
795
100
DictionaryVariables
280
     0
  1
127
  0
DICTIONARY
  5
C55
330
C40
100
AcDbDictionary
280
     1
281
     1
  3
ACAD_XREC_ROUNDTRIP
360
C56
  0
DICTIONARY
  5
C4E
330
11
100
AcDbDictionary
280
     1
281
     1
  3
ACAD_XREC_ROUNDTRIP
360
C4F
  0
DICTIONARY
  5
C52
330
52
100
AcDbDictionary
280
     1
281
     1
  3
ACAD_XREC_ROUNDTRIP
360
C53
  0
DICTIONARY
  5
C50
330
51
100
AcDbDictionary
280
     1
281
     1
  3
ACAD_XREC_ROUNDTRIP
360
C51
  0
DICTIONARY
  5
C4C
330
C
100
AcDbDictionary
280
     1
281
     1
  3
ACAD_XREC_ROUNDTRIP
360
C4D
  0
DICTIONARY
  5
5B
330
5A
100
AcDbDictionary
280
     1
281
     1
  3
ACAD_ROUNDTRIP_2008_TABLESTYLE_CELLSTYLEMAP
360
C4A
  3
ACAD_XREC_ROUNDTRIP
360
C54
  0
XRECORD
  5
C56
102
{ACAD_REACTORS
330
C55
102
}
330
C55
100
AcDbXrecord
280
     1
102
SHADEPLOT
 70
     0
102
SHADEPLOTRESLEVEL
 70
     2
102
SHADEPLOTCUSTOMDPI
 70
   300
  0
XRECORD
  5
C4F
102
{ACAD_REACTORS
330
C4E
102
}
330
C4E
100
AcDbXrecord
280
     1
102
SHADEPLOT
 70
     1
102
SHADEPLOTRESLEVEL
 70
     2
102
SHADEPLOTCUSTOMDPI
 70
   300
  0
XRECORD
  5
C53
102
{ACAD_REACTORS
330
C52
102
}
330
C52
100
AcDbXrecord
280
     1
102
MATERIAL
148
0.0
149
0.0
149
0.0
 93
        0
 94
       63
282
     0
 72
     1
 77
     1
171
     1
175
     1
179
     1
273
     0
  0
XRECORD
  5
C51
102
{ACAD_REACTORS
330
C50
102
}
330
C50
100
AcDbXrecord
280
     1
102
MATERIAL
148
0.0
149
0.0
149
0.0
 93
        0
 94
       63
282
     0
 72
     1
 77
     1
171
     1
175
     1
179
     1
273
     0
  0
XRECORD
  5
C4D
102
{ACAD_REACTORS
330
C4C
102
}
330
C4C
100
AcDbXrecord
280
     1
102
MATERIAL
148
0.0
149
0.0
149
0.0
 93
        0
 94
       63
282
     0
 72
     1
 77
     1
171
     1
175
     1
179
     1
273
     0
  0
CELLSTYLEMAP
  5
C4A
102
{ACAD_REACTORS
330
5B
102
}
330
5B
100
AcDbCellStyleMap
 90
        3
300
CELLSTYLE
  1
TABLEFORMAT_BEGIN
 90
        5
170
     1
 91
        0
 92
    32768
 62
   257
 93
        1
300
CONTENTFORMAT
  1
CONTENTFORMAT_BEGIN
 90
        0
 91
        0
 92
        4
 93
        0
300

 40
0.0
140
1.0
 94
        5
 62
     0
340
21
144
0.25
309
CONTENTFORMAT_END
171
     0
 94
        6
 95
        1
302
GRIDFORMAT
  1
GRIDFORMAT_BEGIN
 90
        0
 91
        1
 62
     0
 92
       -2
340
0
 93
        0
 40
0.045
309
GRIDFORMAT_END
 95
        2
302
GRIDFORMAT
  1
GRIDFORMAT_BEGIN
 90
        0
 91
        1
 62
     0
 92
       -2
340
0
 93
        0
 40
0.045
309
GRIDFORMAT_END
 95
        4
302
GRIDFORMAT
  1
GRIDFORMAT_BEGIN
 90
        0
 91
        1
 62
     0
 92
       -2
340
0
 93
        0
 40
0.045
309
GRIDFORMAT_END
 95
        8
302
GRIDFORMAT
  1
GRIDFORMAT_BEGIN
 90
        0
 91
        1
 62
     0
 92
       -2
340
0
 93
        0
 40
0.045
309
GRIDFORMAT_END
 95
       16
302
GRIDFORMAT
  1
GRIDFORMAT_BEGIN
 90
        0
 91
        1
 62
     0
 92
       -2
340
0
 93
        0
 40
0.045
309
GRIDFORMAT_END
 95
       32
302
GRIDFORMAT
  1
GRIDFORMAT_BEGIN
 90
        0
 91
        1
 62
     0
 92
       -2
340
0
 93
        0
 40
0.045
309
GRIDFORMAT_END
309
TABLEFORMAT_END
  1
CELLSTYLE_BEGIN
 90
        1
 91
        1
300
_TITLE
309
CELLSTYLE_END
300
CELLSTYLE
  1
TABLEFORMAT_BEGIN
 90
        5
170
     1
 91
        0
 92
        0
 62
   257
 93
        1
300
CONTENTFORMAT
  1
CONTENTFORMAT_BEGIN
 90
        0
 91
        0
 92
        4
 93
        0
300

 40
0.0
140
1.0
 94
        5
 62
     0
340
21
144
0.18
309
CONTENTFORMAT_END
171
     0
 94
        6
 95
        1
302
GRIDFORMAT
  1
GRIDFORMAT_BEGIN
 90
        0
 91
        1
 62
     0
 92
       -2
340
0
 93
        0
 40
0.045
309
GRIDFORMAT_END
 95
        2
302
GRIDFORMAT
  1
GRIDFORMAT_BEGIN
 90
        0
 91
        1
 62
     0
 92
       -2
340
0
 93
        0
 40
0.045
309
GRIDFORMAT_END
 95
        4
302
GRIDFORMAT
  1
GRIDFORMAT_BEGIN
 90
        0
 91
        1
 62
     0
 92
       -2
340
0
 93
        0
 40
0.045
309
GRIDFORMAT_END
 95
        8
302
GRIDFORMAT
  1
GRIDFORMAT_BEGIN
 90
        0
 91
        1
 62
     0
 92
       -2
340
0
 93
        0
 40
0.045
309
GRIDFORMAT_END
 95
       16
302
GRIDFORMAT
  1
GRIDFORMAT_BEGIN
 90
        0
 91
        1
 62
     0
 92
       -2
340
0
 93
        0
 40
0.045
309
GRIDFORMAT_END
 95
       32
302
GRIDFORMAT
  1
GRIDFORMAT_BEGIN
 90
        0
 91
        1
 62
     0
 92
       -2
340
0
 93
        0
 40
0.045
309
GRIDFORMAT_END
309
TABLEFORMAT_END
  1
CELLSTYLE_BEGIN
 90
        2
 91
        1
300
_HEADER
309
CELLSTYLE_END
300
CELLSTYLE
  1
TABLEFORMAT_BEGIN
 90
        5
170
     1
 91
        0
 92
        0
 62
   257
 93
        1
300
CONTENTFORMAT
  1
CONTENTFORMAT_BEGIN
 90
        0
 91
        0
 92
        4
 93
        0
300

 40
0.0
140
1.0
 94
        2
 62
     0
340
21
144
0.18
309
CONTENTFORMAT_END
171
     0
 94
        6
 95
        1
302
GRIDFORMAT
  1
GRIDFORMAT_BEGIN
 90
        0
 91
        1
 62
     0
 92
       -2
340
0
 93
        0
 40
0.045
309
GRIDFORMAT_END
 95
        2
302
GRIDFORMAT
  1
GRIDFORMAT_BEGIN
 90
        0
 91
        1
 62
     0
 92
       -2
340
0
 93
        0
 40
0.045
309
GRIDFORMAT_END
 95
        4
302
GRIDFORMAT
  1
GRIDFORMAT_BEGIN
 90
        0
 91
        1
 62
     0
 92
       -2
340
0
 93
        0
 40
0.045
309
GRIDFORMAT_END
 95
        8
302
GRIDFORMAT
  1
GRIDFORMAT_BEGIN
 90
        0
 91
        1
 62
     0
 92
       -2
340
0
 93
        0
 40
0.045
309
GRIDFORMAT_END
 95
       16
302
GRIDFORMAT
  1
GRIDFORMAT_BEGIN
 90
        0
 91
        1
 62
     0
 92
       -2
340
0
 93
        0
 40
0.045
309
GRIDFORMAT_END
 95
       32
302
GRIDFORMAT
  1
GRIDFORMAT_BEGIN
 90
        0
 91
        1
 62
     0
 92
       -2
340
0
 93
        0
 40
0.045
309
GRIDFORMAT_END
309
TABLEFORMAT_END
  1
CELLSTYLE_BEGIN
 90
        3
 91
        2
300
_DATA
309
CELLSTYLE_END
  0
XRECORD
  5
C54
102
{ACAD_REACTORS
330
5B
102
}
330
5B
100
AcDbXrecord
280
     1
102
ACAD_ROUNDTRIP_PRE2007_TABLESTYLE
 90
        4
 91
        0
  1

 92
        4
 93
        0
  2

 94
        4
 95
        0
  3

  0
ENDSEC
  0
EOF
