  0
SECTION
  2
HEADER
  9
$ACADVER
  1
AC1015
  9
$ACADMAINTVER
 70
    20
  9
$DWGCODEPAGE
  3
ANSI_1250
  9
$INSBASE
 10
215187.233673673
 20
127657.5168525552
 30
0.0
  9
$EXTMIN
 10
215186.4132133543
 20
127655.4764006053
 30
-0.0006559444558363
  9
$EXTMAX
 10
225400.957857064
 20
141686.1638067778
 30
19.00082412991245
  9
$LIMMIN
 10
0.0
 20
0.0
  9
$LIMMAX
 10
420.0
 20
297.0
  9
$ORTHOMODE
 70
     1
  9
$REGENMODE
 70
     1
  9
$FILLMODE
 70
     1
  9
$QTEXTMODE
 70
     0
  9
$MIRRTEXT
 70
     0
  9
$LTSCALE
 40
75.0
  9
$ATTMODE
 70
     1
  9
$TEXTSIZE
 40
20.0
  9
$TRACEWID
 40
1.0
  9
$TEXTSTYLE
  7
ROMANS
  9
$CLAYER
  8
0Wymiary-PL
  9
$CELTYPE
  6
ByLayer
  9
$CECOLOR
 62
   256
  9
$CELTSCALE
 40
1.0
  9
$DISPSILH
 70
     0
  9
$DIMSCALE
 40
1.0
  9
$DIMASZ
 40
30.0
  9
$DIMEXO
 40
43.0
  9
$DIMDLI
 40
0.0
  9
$DIMRND
 40
0.5
  9
$DIMDLE
 40
12.0
  9
$DIMEXE
 40
13.0
  9
$DIMTP
 40
0.0
  9
$DIMTM
 40
0.0
  9
$DIMTXT
 40
80.0
  9
$DIMCEN
 40
0.0
  9
$DIMTSZ
 40
0.0
  9
$DIMTOL
 70
     0
  9
$DIMLIM
 70
     0
  9
$DIMTIH
 70
     0
  9
$DIMTOH
 70
     0
  9
$DIMSE1
 70
     1
  9
$DIMSE2
 70
     1
  9
$DIMTAD
 70
     0
  9
$DIMZIN
 70
    12
  9
$DIMBLK
  1
B-DIM
  9
$DIMASO
 70
     1
  9
$DIMSHO
 70
     1
  9
$DIMPOST
  1

  9
$DIMAPOST
  1

  9
$DIMALT
 70
     0
  9
$DIMALTD
 70
     2
  9
$DIMALTF
 40
25.4
  9
$DIMLFAC
 40
1.0
  9
$DIMTOFL
 70
     1
  9
$DIMTVP
 40
1.0
  9
$DIMTIX
 70
     1
  9
$DIMSOXD
 70
     0
  9
$DIMSAH
 70
     0
  9
$DIMBLK1
  1

  9
$DIMBLK2
  1

  9
$DIMSTYLE
  2
500
  9
$DIMCLRD
 70
     1
  9
$DIMCLRE
 70
     1
  9
$DIMCLRT
 70
   140
  9
$DIMTFAC
 40
1.0
  9
$DIMGAP
 40
0.0
  9
$DIMJUST
 70
     0
  9
$DIMSD1
 70
     0
  9
$DIMSD2
 70
     0
  9
$DIMTOLJ
 70
     1
  9
$DIMTZIN
 70
     0
  9
$DIMALTZ
 70
     0
  9
$DIMALTTZ
 70
     0
  9
$DIMUPT
 70
     0
  9
$DIMDEC
 70
     1
  9
$DIMTDEC
 70
     1
  9
$DIMALTU
 70
     2
  9
$DIMALTTD
 70
     2
  9
$DIMTXSTY
  7
ROMANS
  9
$DIMAUNIT
 70
     0
  9
$DIMADEC
 70
     0
  9
$DIMALTRND
 40
0.0
  9
$DIMAZIN
 70
     0
  9
$DIMDSEP
 70
    46
  9
$DIMATFIT
 70
     3
  9
$DIMFRAC
 70
     0
  9
$DIMLDRBLK
  1
B-DIM
  9
$DIMLUNIT
 70
     2
  9
$DIMLWD
 70
    -2
  9
$DIMLWE
 70
    -2
  9
$DIMTMOVE
 70
     2
  9
$LUNITS
 70
     2
  9
$LUPREC
 70
     1
  9
$SKETCHINC
 40
1.0
  9
$FILLETRAD
 40
0.0
  9
$AUNITS
 70
     0
  9
$AUPREC
 70
     0
  9
$MENU
  1
.
  9
$ELEVATION
 40
0.0
  9
$PELEVATION
 40
0.0
  9
$THICKNESS
 40
0.0
  9
$LIMCHECK
 70
     0
  9
$CHAMFERA
 40
0.0
  9
$CHAMFERB
 40
0.0
  9
$CHAMFERC
 40
20.0
  9
$CHAMFERD
 40
0.0
  9
$SKPOLY
 70
     0
  9
$TDCREATE
 40
2452027.670547454
  9
$TDUCREATE
 40
2452027.587214121
  9
$TDUPDATE
 40
2454957.550393333
  9
$TDUUPDATE
 40
2454957.467060000
  9
$TDINDWG
 40
7.6739156250
  9
$TDUSRTIMER
 40
7.6739156250
  9
$USRTIMER
 70
     1
  9
$ANGBASE
 50
0.0
  9
$ANGDIR
 70
     0
  9
$PDMODE
 70
     0
  9
$PDSIZE
 40
0.0
  9
$PLINEWID
 40
0.0
  9
$SPLFRAME
 70
     0
  9
$SPLINETYPE
 70
     6
  9
$SPLINESEGS
 70
     8
  9
$HANDSEED
  5
1514
  9
$SURFTAB1
 70
     6
  9
$SURFTAB2
 70
     6
  9
$SURFTYPE
 70
     6
  9
$SURFU
 70
     6
  9
$SURFV
 70
     6
  9
$UCSBASE
  2

  9
$UCSNAME
  2

  9
$UCSORG
 10
0.0
 20
0.0
 30
0.0
  9
$UCSXDIR
 10
1.0
 20
0.0
 30
0.0
  9
$UCSYDIR
 10
0.0
 20
1.0
 30
0.0
  9
$UCSORTHOREF
  2

  9
$UCSORTHOVIEW
 70
     0
  9
$UCSORGTOP
 10
0.0
 20
0.0
 30
0.0
  9
$UCSORGBOTTOM
 10
0.0
 20
0.0
 30
0.0
  9
$UCSORGLEFT
 10
0.0
 20
0.0
 30
0.0
  9
$UCSORGRIGHT
 10
0.0
 20
0.0
 30
0.0
  9
$UCSORGFRONT
 10
0.0
 20
0.0
 30
0.0
  9
$UCSORGBACK
 10
0.0
 20
0.0
 30
0.0
  9
$PUCSBASE
  2

  9
$PUCSNAME
  2

  9
$PUCSORG
 10
0.0
 20
0.0
 30
0.0
  9
$PUCSXDIR
 10
1.0
 20
0.0
 30
0.0
  9
$PUCSYDIR
 10
0.0
 20
1.0
 30
0.0
  9
$PUCSORTHOREF
  2

  9
$PUCSORTHOVIEW
 70
     0
  9
$PUCSORGTOP
 10
0.0
 20
0.0
 30
0.0
  9
$PUCSORGBOTTOM
 10
0.0
 20
0.0
 30
0.0
  9
$PUCSORGLEFT
 10
0.0
 20
0.0
 30
0.0
  9
$PUCSORGRIGHT
 10
0.0
 20
0.0
 30
0.0
  9
$PUCSORGFRONT
 10
0.0
 20
0.0
 30
0.0
  9
$PUCSORGBACK
 10
0.0
 20
0.0
 30
0.0
  9
$USERI1
 70
     0
  9
$USERI2
 70
     0
  9
$USERI3
 70
     0
  9
$USERI4
 70
     0
  9
$USERI5
 70
     0
  9
$USERR1
 40
0.0
  9
$USERR2
 40
0.0
  9
$USERR3
 40
0.0
  9
$USERR4
 40
0.0
  9
$USERR5
 40
0.0
  9
$WORLDVIEW
 70
     1
  9
$SHADEDGE
 70
     3
  9
$SHADEDIF
 70
    70
  9
$TILEMODE
 70
     1
  9
$MAXACTVP
 70
    64
  9
$PINSBASE
 10
0.0
 20
0.0
 30
0.0
  9
$PLIMCHECK
 70
     0
  9
$PEXTMIN
 10
1.000000000000000E+20
 20
1.000000000000000E+20
 30
1.000000000000000E+20
  9
$PEXTMAX
 10
-1.000000000000000E+20
 20
-1.000000000000000E+20
 30
-1.000000000000000E+20
  9
$PLIMMIN
 10
0.0
 20
0.0
  9
$PLIMMAX
 10
420.0
 20
297.0
  9
$UNITMODE
 70
     0
  9
$VISRETAIN
 70
     1
  9
$PLINEGEN
 70
     0
  9
$PSLTSCALE
 70
     1
  9
$TREEDEPTH
 70
  3020
  9
$CMLSTYLE
  2
Standard
  9
$CMLJUST
 70
     0
  9
$CMLSCALE
 40
20.0
  9
$PROXYGRAPHICS
 70
     1
  9
$MEASUREMENT
 70
     0
  9
$CELWEIGHT
370
    -1
  9
$ENDCAPS
280
     0
  9
$JOINSTYLE
280
     0
  9
$LWDISPLAY
290
     0
  9
$INSUNITS
 70
     5
  9
$HYPERLINKBASE
  1

  9
$STYLESHEET
  1
monochrome_140.ctb
  9
$XEDIT
290
     1
  9
$CEPSNTYPE
380
     0
  9
$PSTYLEMODE
290
     1
  9
$FINGERPRINTGUID
  2
{938A2469-3AF5-11D5-BC95-0050BABCE9EC}
  9
$VERSIONGUID
  2
{63051889-849D-4145-9840-D8721943156F}
  9
$EXTNAMES
290
     1
  9
$PSVPSCALE
 40
0.0
  9
$OLESTARTUP
290
     0
  0
ENDSEC
  0
SECTION
  2
CLASSES
  0
CLASS
  1
ACDBDICTIONARYWDFLT
  2
AcDbDictionaryWithDefault
  3
ObjectDBX Classes
 90
        0
280
     0
281
     0
  0
CLASS
  1
ACDBPLACEHOLDER
  2
AcDbPlaceHolder
  3
ObjectDBX Classes
 90
        0
280
     0
281
     0
  0
CLASS
  1
LAYOUT
  2
AcDbLayout
  3
ObjectDBX Classes
 90
        0
280
     0
281
     0
  0
CLASS
  1
DICTIONARYVAR
  2
AcDbDictionaryVar
  3
ObjectDBX Classes
 90
        0
280
     0
281
     0
  0
CLASS
  1
SORTENTSTABLE
  2
AcDbSortentsTable
  3
ObjectDBX Classes
 90
        0
280
     0
281
     0
  0
CLASS
  1
AEC_VARS_DWG_SETUP
  2
AecDbVarsDwgSetup
  3
AecBase50|Product Desc: Autodesk Architectural Desktop 2007 |Company: Autodesk,Inc. |WEB Address: www.autodesk.com
 90
    32897
280
     0
281
     0
  0
CLASS
  1
AEC_DISP_REP_CONFIG
  2
AecDbDispRepConfig
  3
AecBase50|Product Desc: Autodesk Architectural Desktop 2007 |Company: Autodesk,Inc. |WEB Address: www.autodesk.com
 90
    32897
280
     0
281
     0
  0
CLASS
  1
AEC_DISP_REP_SET
  2
AecDbDispRepSet
  3
AecBase50|Product Desc: Autodesk Architectural Desktop 2007 |Company: Autodesk,Inc. |WEB Address: www.autodesk.com
 90
    32897
280
     0
281
     0
  0
CLASS
  1
AEC_DISP_REP_2D_SECTION
  2
AecDbDispRep2dSection
  3
AecBase50|Product Desc: Autodesk Architectural Desktop 2007 |Company: Autodesk,Inc. |WEB Address: www.autodesk.com
 90
    32897
280
     0
281
     0
  0
CLASS
  1
AEC_DISP_REP_ANCHOR_BUB_TO_GRID
  2
AecDbDispRepAnchorBubToGrid
  3
AecStructureBase50|Product Desc: Autodesk Architectural Desktop 2007 |Company: Autodesk,Inc. |WEB Address: www.autodesk.com
 90
    32897
280
     0
281
     0
  0
CLASS
  1
AEC_DISP_REP_ANCHOR_BUB_TO_GRID_MODEL
  2
AecDbDispRepAnchorBubToGridMdl
  3
AecStructureBase50|Product Desc: Autodesk Architectural Desktop 2007 |Company: Autodesk,Inc. |WEB Address: www.autodesk.com
 90
    32897
280
     0
281
     0
  0
CLASS
  1
AEC_DISP_REP_ANCHOR_ENT_TO_NODE
  2
AecDbDispRepAnchorEntToNode
  3
AecBase50|Product Desc: Autodesk Architectural Desktop 2007 |Company: Autodesk,Inc. |WEB Address: www.autodesk.com
 90
    32897
280
     0
281
     0
  0
CLASS
  1
AEC_DISP_REP_ANCHOR_TAG_TO_ENT
  2
AecDbDispRepAnchorTagToEnt
  3
AecScheduleData50|Product Desc: Autodesk Architectural Desktop 2007 |Company: Autodesk,Inc. |WEB Address: www.autodesk.com
 90
    32897
280
     0
281
     0
  0
CLASS
  1
AEC_DISP_REP_AREA
  2
AecDbDispRepArea
  3
AecAreaCalculationBase50|Product Desc: Autodesk Architectural Desktop 2007 |Company: Autodesk,Inc. |WEB Address: www.autodesk.com
 90
    32897
280
     0
281
     0
  0
CLASS
  1
AEC_DISP_REP_AREA_DECOMPOSED
  2
AecDbDispRepAreaDecomposed
  3
AecAreaCalculationBase50|Product Desc: Autodesk Architectural Desktop 2007 |Company: Autodesk,Inc. |WEB Address: www.autodesk.com
 90
    32897
280
     0
281
     0
  0
CLASS
  1
AEC_DISP_REP_AREAGROUP
  2
AecDbDispRepAreaGroup
  3
AecAreaCalculationBase50|Product Desc: Autodesk Architectural Desktop 2007 |Company: Autodesk,Inc. |WEB Address: www.autodesk.com
 90
    32897
280
     0
281
     0
  0
CLASS
  1
AEC_DISP_REP_BDG_ELEVLINE_MODEL
  2
AecDbDispRepBdgElevLineModel
  3
AecArchBase50|Product Desc: Autodesk Architectural Desktop 2007 |Company: Autodesk,Inc. |WEB Address: www.autodesk.com
 90
    32897
280
     0
281
     0
  0
CLASS
  1
AEC_DISP_REP_BDG_SECTIONLINE_PLAN
  2
AecDbDispRepBdgElevLinePlan
  3
AecArchBase50|Product Desc: Autodesk Architectural Desktop 2007 |Company: Autodesk,Inc. |WEB Address: www.autodesk.com
 90
    32897
280
     0
281
     0
  0
CLASS
  1
AEC_DISP_REP_BDG_SECTIONLINE_MODEL
  2
AecDbDispRepBdgSectionLineModel
  3
AecArchBase50|Product Desc: Autodesk Architectural Desktop 2007 |Company: Autodesk,Inc. |WEB Address: www.autodesk.com
 90
    32897
280
     0
281
     0
  0
CLASS
  1
AEC_DISP_REP_BDG_SECTIONLINE_PLAN
  2
AecDbDispRepBdgSectionLinePlan
  3
AecArchBase50|Product Desc: Autodesk Architectural Desktop 2007 |Company: Autodesk,Inc. |WEB Address: www.autodesk.com
 90
    32897
280
     0
281
     0
  0
CLASS
  1
AEC_DISP_REP_BDG_SECTION_SUBDIV
  2
AecDbDispRepBdgSectionSubDiv
  3
AecArchBase50|Product Desc: Autodesk Architectural Desktop 2007 |Company: Autodesk,Inc. |WEB Address: www.autodesk.com
 90
    32897
280
     0
281
     0
  0
CLASS
  1
AEC_DISP_REP_CAMERA
  2
AecDbDispRepCamera
  3
AecBase50|Product Desc: Autodesk Architectural Desktop 2007 |Company: Autodesk,Inc. |WEB Address: www.autodesk.com
 90
    32897
280
     0
281
     0
  0
CLASS
  1
AEC_DISP_REP_CEILING_GRID
  2
AecDbDispRepCeilingGrid
  3
AecArchBase50|Product Desc: Autodesk Architectural Desktop 2007 |Company: Autodesk,Inc. |WEB Address: www.autodesk.com
 90
    33661
280
     0
281
     0
  0
CLASS
  1
AEC_DISP_REP_CEILING_GRID_MODEL
  2
AecDbDispRepCeilingGridModel
  3
AecArchBase50|Product Desc: Autodesk Architectural Desktop 2007 |Company: Autodesk,Inc. |WEB Address: www.autodesk.com
 90
    32897
280
     0
281
     0
  0
CLASS
  1
AEC_DISP_REP_CEILING_GRID_RCP
  2
AecDbDispRepCeilingGridRcp
  3
AecArchBase50|Product Desc: Autodesk Architectural Desktop 2007 |Company: Autodesk,Inc. |WEB Address: www.autodesk.com
 90
    32897
280
     0
281
     0
  0
CLASS
  1
AEC_DISP_REP_CLIP_VOLUME_MODEL
  2
AecDbDispRepClipVolModel
  3
AecBase50|Product Desc: Autodesk Architectural Desktop 2007 |Company: Autodesk,Inc. |WEB Address: www.autodesk.com
 90
    32897
280
     0
281
     0
  0
CLASS
  1
AEC_DISP_REP_CLIP_VOLUME_PLAN
  2
AecDbDispRepClipVolPlan
  3
AecBase50|Product Desc: Autodesk Architectural Desktop 2007 |Company: Autodesk,Inc. |WEB Address: www.autodesk.com
 90
    32897
280
     0
281
     0
  0
CLASS
  1
AEC_DISP_REP_CLIP_VOLUME_RESULT_SUBDIV
  2
AecDbDispRepClipVolResSubDiv
  3
AecBase50|Product Desc: Autodesk Architectural Desktop 2007 |Company: Autodesk,Inc. |WEB Address: www.autodesk.com
 90
    32897
280
     0
281
     0
  0
CLASS
  1
AEC_DISP_REP_CLIP_VOLUME_RESULT
  2
AecDbDispRepClipVolResult
  3
AecBase50|Product Desc: Autodesk Architectural Desktop 2007 |Company: Autodesk,Inc. |WEB Address: www.autodesk.com
 90
    32897
280
     0
281
     0
  0
CLASS
  1
AEC_DISP_REP_COLUMN_GRID
  2
AecDbDispRepColumnGrid
  3
AecStructureBase50|Product Desc: Autodesk Architectural Desktop 2007 |Company: Autodesk,Inc. |WEB Address: www.autodesk.com
 90
    32897
280
     0
281
     0
  0
CLASS
  1
AEC_DISP_REP_COLUMN_GRID_MODEL
  2
AecDbDispRepColumnGridModel
  3
AecStructureBase50|Product Desc: Autodesk Architectural Desktop 2007 |Company: Autodesk,Inc. |WEB Address: www.autodesk.com
 90
    32897
280
     0
281
     0
  0
CLASS
  1
AEC_DISP_REP_CURTAIN_WALL_LAYOUT_MODEL
  2
AecDbDispRepCurtainWallLayoutModel
  3
AecArchBase50|Product Desc: Autodesk Architectural Desktop 2007 |Company: Autodesk,Inc. |WEB Address: www.autodesk.com
 90
    32897
280
     0
281
     0
  0
CLASS
  1
AEC_DISP_REP_CURTAIN_WALL_LAYOUT_PLAN
  2
AecDbDispRepCurtainWallLayoutPlan
  3
AecArchBase50|Product Desc: Autodesk Architectural Desktop 2007 |Company: Autodesk,Inc. |WEB Address: www.autodesk.com
 90
    32897
280
     0
281
     0
  0
CLASS
  1
AEC_DISP_REP_CURTAIN_WALL_UNIT_MODEL
  2
AecDbDispRepCurtainWallUnitModel
  3
AecArchBase50|Product Desc: Autodesk Architectural Desktop 2007 |Company: Autodesk,Inc. |WEB Address: www.autodesk.com
 90
    32897
280
     0
281
     0
  0
CLASS
  1
AEC_DISP_REP_CURTAIN_WALL_UNIT_PLAN
  2
AecDbDispRepCurtainWallUnitPlan
  3
AecArchBase50|Product Desc: Autodesk Architectural Desktop 2007 |Company: Autodesk,Inc. |WEB Address: www.autodesk.com
 90
    32897
280
     0
281
     0
  0
CLASS
  1
AEC_DB_DISP_REP_DIM_GROUP_PLAN
  2
AecDbDispRepDimGroupPlan
  3
AecArchDACHBase50|Product Desc: Autodesk Architectural Desktop 2007 |Company: Autodesk,Inc. |WEB Address: www.autodesk.com
 90
    32897
280
     0
281
     0
  0
CLASS
  1
AEC_DISP_REP_DOOR_MODEL
  2
AecDbDispRepDoorModel
  3
AecArchBase50|Product Desc: Autodesk Architectural Desktop 2007 |Company: Autodesk,Inc. |WEB Address: www.autodesk.com
 90
    32897
280
     0
281
     0
  0
CLASS
  1
AEC_DISP_REP_DOOR_NOMINAL
  2
AecDbDispRepDoorNominal
  3
AecArchBase50|Product Desc: Autodesk Architectural Desktop 2007 |Company: Autodesk,Inc. |WEB Address: www.autodesk.com
 90
    32897
280
     0
281
     0
  0
CLASS
  1
AEC_DISP_REP_DOOR_PLAN
  2
AecDbDispRepDoorPlan
  3
AecArchBase50|Product Desc: Autodesk Architectural Desktop 2007 |Company: Autodesk,Inc. |WEB Address: www.autodesk.com
 90
    32897
280
     0
281
     0
  0
CLASS
  1
AEC_DISP_REP_EDITINPLACEPROFILE
  2
AecDbDispRepEditInPlaceProfile
  3
AecBase50|Product Desc: Autodesk Architectural Desktop 2007 |Company: Autodesk,Inc. |WEB Address: www.autodesk.com
 90
    32897
280
     0
281
     0
  0
CLASS
  1
AEC_DISP_REP_ENT_REF
  2
AecDbDispRepEntRef
  3
AecBase50|Product Desc: Autodesk Architectural Desktop 2007 |Company: Autodesk,Inc. |WEB Address: www.autodesk.com
 90
    32897
280
     0
281
     0
  0
CLASS
  1
AEC_DISP_REP_LAYOUT_CURVE
  2
AecDbDispRepLayoutCurve
  3
AecBase50|Product Desc: Autodesk Architectural Desktop 2007 |Company: Autodesk,Inc. |WEB Address: www.autodesk.com
 90
    32897
280
     0
281
     0
  0
CLASS
  1
AEC_DISP_REP_LAYOUT_GRID2D
  2
AecDbDispRepLayoutGrid2d
  3
AecBase50|Product Desc: Autodesk Architectural Desktop 2007 |Company: Autodesk,Inc. |WEB Address: www.autodesk.com
 90
    32897
280
     0
281
     0
  0
CLASS
  1
AEC_DISP_REP_LAYOUT_GRID3D
  2
AecDbDispRepLayoutGrid3d
  3
AecBase50|Product Desc: Autodesk Architectural Desktop 2007 |Company: Autodesk,Inc. |WEB Address: www.autodesk.com
 90
    32897
280
     0
281
     0
  0
CLASS
  1
AEC_DISP_REP_MASKBLOCK_REF
  2
AecDbDispRepMaskBlockRef
  3
AecBase50|Product Desc: Autodesk Architectural Desktop 2007 |Company: Autodesk,Inc. |WEB Address: www.autodesk.com
 90
    32897
280
     0
281
     0
  0
CLASS
  1
AEC_DISP_REP_MASKBLOCK_REF_RCP
  2
AecDbDispRepMaskBlockRefRcp
  3
AecArchBase50|Product Desc: Autodesk Architectural Desktop 2007 |Company: Autodesk,Inc. |WEB Address: www.autodesk.com
 90
    32897
280
     0
281
     0
  0
CLASS
  1
AEC_DISP_REP_MASS_ELEM_MODEL
  2
AecDbDispRepMassElemModel
  3
AecBaseEx50|Product Desc: Autodesk Architectural Desktop 2007 |Company: Autodesk,Inc. |WEB Address: www.autodesk.com
 90
    32897
280
     0
281
     0
  0
CLASS
  1
AEC_DISP_REP_MASS_ELEM_SCHEM
  2
AecDbDispRepMassElemSchem
  3
AecBaseEx50|Product Desc: Autodesk Architectural Desktop 2007 |Company: Autodesk,Inc. |WEB Address: www.autodesk.com
 90
    32897
280
     0
281
     0
  0
CLASS
  1
AEC_DISP_REP_MASS_GROUP_MODEL
  2
AecDbDispRepMassGroupModel
  3
AecBaseEx50|Product Desc: Autodesk Architectural Desktop 2007 |Company: Autodesk,Inc. |WEB Address: www.autodesk.com
 90
    32897
280
     0
281
     0
  0
CLASS
  1
AEC_DISP_REP_MASS_GROUP_PLAN
  2
AecDbDispRepMassGroupPlan
  3
AecBaseEx50|Product Desc: Autodesk Architectural Desktop 2007 |Company: Autodesk,Inc. |WEB Address: www.autodesk.com
 90
    32897
280
     0
281
     0
  0
CLASS
  1
AEC_DISP_REP_MATERIAL
  2
AecDbDispRepMaterial
  3
AecBase50|Product Desc: Autodesk Architectural Desktop 2007 |Company: Autodesk,Inc. |WEB Address: www.autodesk.com
 90
    32897
280
     0
281
     0
  0
CLASS
  1
AEC_DISP_REP_MVBLOCK_REF
  2
AecDbDispRepMvBlockRef
  3
AecBase50|Product Desc: Autodesk Architectural Desktop 2007 |Company: Autodesk,Inc. |WEB Address: www.autodesk.com
 90
    32897
280
     0
281
     0
  0
CLASS
  1
AEC_DISP_REP_MVBLOCK_REF_MODEL
  2
AecDbDispRepMvBlockRefModel
  3
AecBase50|Product Desc: Autodesk Architectural Desktop 2007 |Company: Autodesk,Inc. |WEB Address: www.autodesk.com
 90
    32897
280
     0
281
     0
  0
CLASS
  1
AEC_DISP_REP_OPENING
  2
AecDbDispRepOpening
  3
AecArchBase50|Product Desc: Autodesk Architectural Desktop 2007 |Company: Autodesk,Inc. |WEB Address: www.autodesk.com
 90
    32897
280
     0
281
     0
  0
CLASS
  1
AEC_DISP_REP_OPENING_MODEL
  2
AecDbDispRepOpeningModel
  3
AecArchBase50|Product Desc: Autodesk Architectural Desktop 2007 |Company: Autodesk,Inc. |WEB Address: www.autodesk.com
 90
    32897
280
     0
281
     0
  0
CLASS
  1
AEC_DISP_REP_POLYGON_MODEL
  2
AecDbDispRepPolygonModel
  3
AecBase50|Product Desc: Autodesk Architectural Desktop 2007 |Company: Autodesk,Inc. |WEB Address: www.autodesk.com
 90
    32897
280
     0
281
     0
  0
CLASS
  1
AEC_DISP_REP_RAILING_MODEL
  2
AecDbDispRepRailingModel
  3
AecArchBase50|Product Desc: Autodesk Architectural Desktop 2007 |Company: Autodesk,Inc. |WEB Address: www.autodesk.com
 90
    32897
280
     0
281
     0
  0
CLASS
  1
AEC_DISP_REP_RAILING_PLAN
  2
AecDbDispRepRailingPlan
  3
AecArchBase50|Product Desc: Autodesk Architectural Desktop 2007 |Company: Autodesk,Inc. |WEB Address: www.autodesk.com
 90
    32897
280
     0
281
     0
  0
CLASS
  1
AEC_DISP_REP_ROOF_MODEL
  2
AecDbDispRepRoofModel
  3
AecArchBase50|Product Desc: Autodesk Architectural Desktop 2007 |Company: Autodesk,Inc. |WEB Address: www.autodesk.com
 90
    32897
280
     0
281
     0
  0
CLASS
  1
AEC_DISP_REP_ROOF_PLAN
  2
AecDbDispRepRoofPlan
  3
AecArchBase50|Product Desc: Autodesk Architectural Desktop 2007 |Company: Autodesk,Inc. |WEB Address: www.autodesk.com
 90
    32897
280
     0
281
     0
  0
CLASS
  1
AEC_DISP_REP_ROOFSLAB_MODEL
  2
AecDbDispRepRoofSlabModel
  3
AecArchBase50|Product Desc: Autodesk Architectural Desktop 2007 |Company: Autodesk,Inc. |WEB Address: www.autodesk.com
 90
    32897
280
     0
281
     0
  0
CLASS
  1
AEC_DISP_REP_ROOFSLAB_PLAN
  2
AecDbDispRepRoofSlabPlan
  3
AecArchBase50|Product Desc: Autodesk Architectural Desktop 2007 |Company: Autodesk,Inc. |WEB Address: www.autodesk.com
 90
    32897
280
     0
281
     0
  0
CLASS
  1
AEC_DISP_REP_SCHEDULE_TABLE
  2
AecDbDispRepScheduleTable
  3
AecSchedule50|Product Desc: Autodesk Architectural Desktop 2007 |Company: Autodesk,Inc. |WEB Address: www.autodesk.com
 90
    32897
280
     0
281
     0
  0
CLASS
  1
AEC_DISP_REP_SLAB_MODEL
  2
AecDbDispRepSlabModel
  3
AecArchBase50|Product Desc: Autodesk Architectural Desktop 2007 |Company: Autodesk,Inc. |WEB Address: www.autodesk.com
 90
    32897
280
     0
281
     0
  0
CLASS
  1
AEC_DISP_REP_SLAB_PLAN
  2
AecDbDispRepSlabPlan
  3
AecArchBase50|Product Desc: Autodesk Architectural Desktop 2007 |Company: Autodesk,Inc. |WEB Address: www.autodesk.com
 90
    32897
280
     0
281
     0
  0
CLASS
  1
AEC_DISP_REP_SLICE
  2
AecDbDispRepSlice
  3
AecBase50|Product Desc: Autodesk Architectural Desktop 2007 |Company: Autodesk,Inc. |WEB Address: www.autodesk.com
 90
    32897
280
     0
281
     0
  0
CLASS
  1
AEC_DISP_REP_SPACE_BOUNDARY_MODEL
  2
AecDbDispRepSpaceBoundaryModel
  3
AecArchBase50|Product Desc: Autodesk Architectural Desktop 2007 |Company: Autodesk,Inc. |WEB Address: www.autodesk.com
 90
    32897
280
     0
281
     0
  0
CLASS
  1
AEC_DISP_REP_SPACE_BOUNDARY_PLAN
  2
AecDbDispRepSpaceBoundaryPlan
  3
AecArchBase50|Product Desc: Autodesk Architectural Desktop 2007 |Company: Autodesk,Inc. |WEB Address: www.autodesk.com
 90
    32897
280
     0
281
     0
  0
CLASS
  1
AEC_DISP_REP_SPACE_BOUNDARY_SCHEM
  2
AecDbDispRepSpaceBoundarySketch
  3
AecArchBase50|Product Desc: Autodesk Architectural Desktop 2007 |Company: Autodesk,Inc. |WEB Address: www.autodesk.com
 90
    32897
280
     0
281
     0
  0
CLASS
  1
AEC_DISP_REP_SPACE_MODEL
  2
AecDbDispRepSpaceModel
  3
AecArchBase50|Product Desc: Autodesk Architectural Desktop 2007 |Company: Autodesk,Inc. |WEB Address: www.autodesk.com
 90
    32897
280
     0
281
     0
  0
CLASS
  1
AEC_DISP_REP_SPACE_PLAN
  2
AecDbDispRepSpacePlan
  3
AecArchBase50|Product Desc: Autodesk Architectural Desktop 2007 |Company: Autodesk,Inc. |WEB Address: www.autodesk.com
 90
    32897
280
     0
281
     0
  0
CLASS
  1
AEC_DISP_REP_STAIR_MODEL
  2
AecDbDispRepStairModel
  3
AecArchBase50|Product Desc: Autodesk Architectural Desktop 2007 |Company: Autodesk,Inc. |WEB Address: www.autodesk.com
 90
    32897
280
     0
281
     0
  0
CLASS
  1
AEC_DISP_REP_STAIR_PLAN
  2
AecDbDispRepStairPlan
  3
AecArchBase50|Product Desc: Autodesk Architectural Desktop 2007 |Company: Autodesk,Inc. |WEB Address: www.autodesk.com
 90
    32897
280
     0
281
     0
  0
CLASS
  1
AEC_DISP_REP_WALL_GRAPH
  2
AecDbDispRepWallGraph
  3
AecArchBase50|Product Desc: Autodesk Architectural Desktop 2007 |Company: Autodesk,Inc. |WEB Address: www.autodesk.com
 90
    32897
280
     0
281
     0
  0
CLASS
  1
AEC_DISP_REP_WALL_MODEL
  2
AecDbDispRepWallModel
  3
AecArchBase50|Product Desc: Autodesk Architectural Desktop 2007 |Company: Autodesk,Inc. |WEB Address: www.autodesk.com
 90
    32897
280
     0
281
     0
  0
CLASS
  1
AEC_DISP_REP_WALL_PLAN
  2
AecDbDispRepWallPlan
  3
AecArchBase50|Product Desc: Autodesk Architectural Desktop 2007 |Company: Autodesk,Inc. |WEB Address: www.autodesk.com
 90
    32897
280
     0
281
     0
  0
CLASS
  1
AEC_DISP_REP_WALL_SCHEM
  2
AecDbDispRepWallSchem
  3
AecArchBase50|Product Desc: Autodesk Architectural Desktop 2007 |Company: Autodesk,Inc. |WEB Address: www.autodesk.com
 90
    32897
280
     0
281
     0
  0
CLASS
  1
AEC_DISP_REP_WINDOW_ASSEMBLY_MODEL
  2
AecDbDispRepWindowAssemblyModel
  3
AecArchBase50|Product Desc: Autodesk Architectural Desktop 2007 |Company: Autodesk,Inc. |WEB Address: www.autodesk.com
 90
    32897
280
     0
281
     0
  0
CLASS
  1
AEC_DISP_REP_WINDOW_ASSEMBLY_PLAN
  2
AecDbDispRepWindowAssemblyPlan
  3
AecArchBase50|Product Desc: Autodesk Architectural Desktop 2007 |Company: Autodesk,Inc. |WEB Address: www.autodesk.com
 90
    32897
280
     0
281
     0
  0
CLASS
  1
AEC_AECDBDISPREPWINDOWASSEMBLYPLAN100
  2
AecDbDispRepWindowAssemblyPlan100
  3
AecArchDACHBase50|Product Desc: Autodesk Architectural Desktop 2007 |Company: Autodesk,Inc. |WEB Address: www.autodesk.com
 90
    32897
280
     0
281
     0
  0
CLASS
  1
AEC_DISP_REP_WINDOW_MODEL
  2
AecDbDispRepWindowModel
  3
AecArchBase50|Product Desc: Autodesk Architectural Desktop 2007 |Company: Autodesk,Inc. |WEB Address: www.autodesk.com
 90
    32897
280
     0
281
     0
  0
CLASS
  1
AEC_DISP_REP_WINDOW_NOMINAL
  2
AecDbDispRepWindowNominal
  3
AecArchBase50|Product Desc: Autodesk Architectural Desktop 2007 |Company: Autodesk,Inc. |WEB Address: www.autodesk.com
 90
    32897
280
     0
281
     0
  0
CLASS
  1
AEC_DISP_REP_WINDOW_PLAN
  2
AecDbDispRepWindowPlan
  3
AecArchBase50|Product Desc: Autodesk Architectural Desktop 2007 |Company: Autodesk,Inc. |WEB Address: www.autodesk.com
 90
    32897
280
     0
281
     0
  0
CLASS
  1
AECS_DISP_REP_MEMBER_LOGICAL
  2
AecsDbDispRepMemberLogical
  3
AecStructureBase50|Product Desc: Autodesk Architectural Desktop 2007 |Company: Autodesk,Inc. |WEB Address: www.autodesk.com
 90
    32897
280
     0
281
     0
  0
CLASS
  1
AECS_DISP_REP_MEMBER_MODEL_DESIGN
  2
AecsDbDispRepMemberModelDesign
  3
AecStructureBase50|Product Desc: Autodesk Architectural Desktop 2007 |Company: Autodesk,Inc. |WEB Address: www.autodesk.com
 90
    32897
280
     0
281
     0
  0
CLASS
  1
AECS_DISP_REP_MEMBER_PLAN_DESIGN
  2
AecsDbDispRepMemberPlanDesign
  3
AecStructureBase50|Product Desc: Autodesk Architectural Desktop 2007 |Company: Autodesk,Inc. |WEB Address: www.autodesk.com
 90
    32897
280
     0
281
     0
  0
CLASS
  1
AEC_DISP_PROPS_ENT
  2
AecDbDispPropsEnt
  3
AecBase50|Product Desc: Autodesk Architectural Desktop 2007 |Company: Autodesk,Inc. |WEB Address: www.autodesk.com
 90
    32897
280
     0
281
     0
  0
CLASS
  1
AEC_DISP_PROPS_CLIP_VOLUME
  2
AecDbDispPropsClipVol
  3
AecBase50|Product Desc: Autodesk Architectural Desktop 2007 |Company: Autodesk,Inc. |WEB Address: www.autodesk.com
 90
    32897
280
     0
281
     0
  0
CLASS
  1
AEC_DISP_PROPS_SLICE
  2
AecDbDispPropsSlice
  3
AecBase50|Product Desc: Autodesk Architectural Desktop 2007 |Company: Autodesk,Inc. |WEB Address: www.autodesk.com
 90
    32897
280
     0
281
     0
  0
CLASS
  1
AEC_DISP_PROPS_ROOFSLAB_PLAN
  2
AecDbDispPropsRoofSlabPlan
  3
AecArchBase50|Product Desc: Autodesk Architectural Desktop 2007 |Company: Autodesk,Inc. |WEB Address: www.autodesk.com
 90
    32897
280
     0
281
     0
  0
CLASS
  1
AEC_DISP_PROPS_GRID_ASSEMBLY_MODEL
  2
AecDbDispPropsGridAssemblyModel
  3
AecArchBase50|Product Desc: Autodesk Architectural Desktop 2007 |Company: Autodesk,Inc. |WEB Address: www.autodesk.com
 90
    32897
280
     0
281
     0
  0
CLASS
  1
AEC_DISP_PROPS_ROOF
  2
AecDbDispPropsRoof
  3
AecArchBase50|Product Desc: Autodesk Architectural Desktop 2007 |Company: Autodesk,Inc. |WEB Address: www.autodesk.com
 90
    32897
280
     0
281
     0
  0
CLASS
  1
AEC_DISP_PROPS_SPACE_MODEL
  2
AecDbDispPropsSpaceModel
  3
AecArchBase50|Product Desc: Autodesk Architectural Desktop 2007 |Company: Autodesk,Inc. |WEB Address: www.autodesk.com
 90
    32897
280
     0
281
     0
  0
CLASS
  1
AEC_DISP_PROPS_EDITINPLACEPROFILE_MODEL
  2
AecDbDispPropsEditInPlaceProfile
  3
AecBase50|Product Desc: Autodesk Architectural Desktop 2007 |Company: Autodesk,Inc. |WEB Address: www.autodesk.com
 90
    32897
280
     0
281
     0
  0
CLASS
  1
AEC_DISP_PROPS_DOOR
  2
AecDbDispPropsDoor
  3
AecArchBase50|Product Desc: Autodesk Architectural Desktop 2007 |Company: Autodesk,Inc. |WEB Address: www.autodesk.com
 90
    32897
280
     0
281
     0
  0
CLASS
  1
AEC_DISP_PROPS_MASKBLOCK
  2
AecDbDispPropsMaskBlock
  3
AecBase50|Product Desc: Autodesk Architectural Desktop 2007 |Company: Autodesk,Inc. |WEB Address: www.autodesk.com
 90
    32897
280
     0
281
     0
  0
CLASS
  1
AEC_DISP_PROPS_SPACE_PLAN
  2
AecDbDispPropsSpacePlan
  3
AecArchBase50|Product Desc: Autodesk Architectural Desktop 2007 |Company: Autodesk,Inc. |WEB Address: www.autodesk.com
 90
    32897
280
     0
281
     0
  0
CLASS
  1
AEC_DISP_PROPS_RAILING_PLAN
  2
AecDbDispPropsRailingPlan
  3
AecArchBase50|Product Desc: Autodesk Architectural Desktop 2007 |Company: Autodesk,Inc. |WEB Address: www.autodesk.com
 90
    32897
280
     0
281
     0
  0
CLASS
  1
AEC_DISP_PROPS_LAYOUT_GRID2D
  2
AecDbDispPropsLayoutGrid2d
  3
AecBase50|Product Desc: Autodesk Architectural Desktop 2007 |Company: Autodesk,Inc. |WEB Address: www.autodesk.com
 90
    32897
280
     0
281
     0
  0
CLASS
  1
AEC_DISP_PROPS_CLIP_VOLUME_RESULT
  2
AecDbDispPropsClipVolResSubDiv
  3
AecBase50|Product Desc: Autodesk Architectural Desktop 2007 |Company: Autodesk,Inc. |WEB Address: www.autodesk.com
 90
    32897
280
     0
281
     0
  0
CLASS
  1
AEC_DISP_PROPS_STAIR_MODEL
  2
AecDbDispPropsStairModel
  3
AecArchBase50|Product Desc: Autodesk Architectural Desktop 2007 |Company: Autodesk,Inc. |WEB Address: www.autodesk.com
 90
    32897
280
     0
281
     0
  0
CLASS
  1
AEC_DISP_PROPS_LAYOUT_CURVE
  2
AecDbDispPropsLayoutCurve
  3
AecBase50|Product Desc: Autodesk Architectural Desktop 2007 |Company: Autodesk,Inc. |WEB Address: www.autodesk.com
 90
    32897
280
     0
281
     0
  0
CLASS
  1
AEC_DISP_PROPS_POLYGON_MODEL
  2
AecDbDispPropsPolygonModel
  3
AecBase50|Product Desc: Autodesk Architectural Desktop 2007 |Company: Autodesk,Inc. |WEB Address: www.autodesk.com
 90
    32897
280
     0
281
     0
  0
CLASS
  1
AEC_DISP_PROPS_MASS_GROUP
  2
AecDbDispPropsMassGroup
  3
AecBaseEx50|Product Desc: Autodesk Architectural Desktop 2007 |Company: Autodesk,Inc. |WEB Address: www.autodesk.com
 90
    32897
280
     0
281
     0
  0
CLASS
  1
AEC_DISP_PROPS_STAIR_PLAN
  2
AecDbDispPropsStairPlan
  3
AecArchBase50|Product Desc: Autodesk Architectural Desktop 2007 |Company: Autodesk,Inc. |WEB Address: www.autodesk.com
 90
    32897
280
     0
281
     0
  0
CLASS
  1
AEC_DISP_PROPS_OPENING
  2
AecDbDispPropsOpening
  3
AecArchBase50|Product Desc: Autodesk Architectural Desktop 2007 |Company: Autodesk,Inc. |WEB Address: www.autodesk.com
 90
    32897
280
     0
281
     0
  0
CLASS
  1
AEC_DISP_PROPS_WALL_GRAPH
  2
AecDbDispPropsWallGraph
  3
AecArchBase50|Product Desc: Autodesk Architectural Desktop 2007 |Company: Autodesk,Inc. |WEB Address: www.autodesk.com
 90
    32897
280
     0
281
     0
  0
CLASS
  1
AEC_DISP_PROPS_DOOR_NOMINAL
  2
AecDbDispPropsDoorNominal
  3
AecArchBase50|Product Desc: Autodesk Architectural Desktop 2007 |Company: Autodesk,Inc. |WEB Address: www.autodesk.com
 90
    32897
280
     0
281
     0
  0
CLASS
  1
AEC_DISP_PROPS_SLAB
  2
AecDbDispPropsSlab
  3
AecArchBase50|Product Desc: Autodesk Architectural Desktop 2007 |Company: Autodesk,Inc. |WEB Address: www.autodesk.com
 90
    32897
280
     0
281
     0
  0
CLASS
  1
AEC_DISP_PROPS_WALL_MODEL
  2
AecDbDispPropsWallModel
  3
AecArchBase50|Product Desc: Autodesk Architectural Desktop 2007 |Company: Autodesk,Inc. |WEB Address: www.autodesk.com
 90
    32897
280
     0
281
     0
  0
CLASS
  1
AEC_DISP_PROPS_MATERIAL
  2
AecDbDispPropsMaterial
  3
AecBase50|Product Desc: Autodesk Architectural Desktop 2007 |Company: Autodesk,Inc. |WEB Address: www.autodesk.com
 90
    32897
280
     0
281
     0
  0
CLASS
  1
AEC_DISP_PROPS_WINDOW
  2
AecDbDispPropsWindow
  3
AecArchBase50|Product Desc: Autodesk Architectural Desktop 2007 |Company: Autodesk,Inc. |WEB Address: www.autodesk.com
 90
    32897
280
     0
281
     0
  0
CLASS
  1
AEC_DISP_PROPS_LAYOUT_GRID3D
  2
AecDbDispPropsLayoutGrid3d
  3
AecBase50|Product Desc: Autodesk Architectural Desktop 2007 |Company: Autodesk,Inc. |WEB Address: www.autodesk.com
 90
    32897
280
     0
281
     0
  0
CLASS
  1
AEC_DISP_PROPS_GRID_ASSEMBLY_PLAN
  2
AecDbDispPropsGridAssemblyPlan
  3
AecArchBase50|Product Desc: Autodesk Architectural Desktop 2007 |Company: Autodesk,Inc. |WEB Address: www.autodesk.com
 90
    32897
280
     0
281
     0
  0
CLASS
  1
AEC_DISP_PROPS_WALL_SCHEM
  2
AecDbDispPropsWallSchem
  3
AecArchBase50|Product Desc: Autodesk Architectural Desktop 2007 |Company: Autodesk,Inc. |WEB Address: www.autodesk.com
 90
    32897
280
     0
281
     0
  0
CLASS
  1
AEC_DISP_PROPS_WALL_PLAN
  2
AecDbDispPropsWallPlan
  3
AecArchBase50|Product Desc: Autodesk Architectural Desktop 2007 |Company: Autodesk,Inc. |WEB Address: www.autodesk.com
 90
    32897
280
     0
281
     0
  0
CLASS
  1
AEC_DISP_PROPS_SPACE_BOUNDARY
  2
AecDbDispPropsSpaceBoundary
  3
AecArchBase50|Product Desc: Autodesk Architectural Desktop 2007 |Company: Autodesk,Inc. |WEB Address: www.autodesk.com
 90
    32897
280
     0
281
     0
  0
CLASS
  1
AEC_DISP_PROPS_SLAB_PLAN
  2
AecDbDispPropsSlabPlan
  3
AecArchBase50|Product Desc: Autodesk Architectural Desktop 2007 |Company: Autodesk,Inc. |WEB Address: www.autodesk.com
 90
    32897
280
     0
281
     0
  0
CLASS
  1
AEC_DISP_PROPS_RAILING_MODEL
  2
AecDbDispPropsRailingModel
  3
AecArchBase50|Product Desc: Autodesk Architectural Desktop 2007 |Company: Autodesk,Inc. |WEB Address: www.autodesk.com
 90
    32897
280
     0
281
     0
  0
CLASS
  1
AEC_DISP_PROPS_MASS_ELEM_MODEL
  2
AecDbDispPropsMassElem
  3
AecBaseEx50|Product Desc: Autodesk Architectural Desktop 2007 |Company: Autodesk,Inc. |WEB Address: www.autodesk.com
 90
    32897
280
     0
281
     0
  0
CLASS
  1
AEC_DISP_PROPS_DIM
  2
AecDbDispPropsDimGroup
  3
AecArchDACHBase50|Product Desc: Autodesk Architectural Desktop 2007 |Company: Autodesk,Inc. |WEB Address: www.autodesk.com
 90
    32897
280
     0
281
     0
  0
CLASS
  1
AEC_DISP_PROPS_ROOFSLAB
  2
AecDbDispPropsRoofSlab
  3
AecArchBase50|Product Desc: Autodesk Architectural Desktop 2007 |Company: Autodesk,Inc. |WEB Address: www.autodesk.com
 90
    32897
280
     0
281
     0
  0
CLASS
  1
AEC_DISP_PROPS_ENT_REF
  2
AecDbDispPropsEntRef
  3
AecBase50|Product Desc: Autodesk Architectural Desktop 2007 |Company: Autodesk,Inc. |WEB Address: www.autodesk.com
 90
    32897
280
     0
281
     0
  0
CLASS
  1
AEC_DISP_PROPS_2D_SECTION
  2
AecDbDispProps2dSection
  3
AecBase50|Product Desc: Autodesk Architectural Desktop 2007 |Company: Autodesk,Inc. |WEB Address: www.autodesk.com
 90
    32897
280
     0
281
     0
  0
CLASS
  1
AECS_DISP_PROPS_MEMBER_LOGICAL
  2
AecsDbDispPropsMemberLogical
  3
AecStructureBase50|Product Desc: Autodesk Architectural Desktop 2007 |Company: Autodesk,Inc. |WEB Address: www.autodesk.com
 90
    32897
280
     0
281
     0
  0
CLASS
  1
AEC_DISP_PROPS_AREA_DECOMPOSED
  2
AecDbDispPropsAreaDecomposed
  3
AecAreaCalculationBase50|Product Desc: Autodesk Architectural Desktop 2007 |Company: Autodesk,Inc. |WEB Address: www.autodesk.com
 90
    32897
280
     0
281
     0
  0
CLASS
  1
AEC_DISP_PROPS_CAMERA
  2
AecDbDispPropsCamera
  3
AecBase50|Product Desc: Autodesk Architectural Desktop 2007 |Company: Autodesk,Inc. |WEB Address: www.autodesk.com
 90
    32897
280
     0
281
     0
  0
CLASS
  1
AECS_DISP_PROPS_MEMBER
  2
AecsDbDispPropsMember
  3
AecStructureBase50|Product Desc: Autodesk Architectural Desktop 2007 |Company: Autodesk,Inc. |WEB Address: www.autodesk.com
 90
    32897
280
     0
281
     0
  0
CLASS
  1
AECS_DISP_PROPS_MEMBER_PLAN
  2
AecsDbDispPropsMemberPlan
  3
AecStructureBase50|Product Desc: Autodesk Architectural Desktop 2007 |Company: Autodesk,Inc. |WEB Address: www.autodesk.com
 90
    32897
280
     0
281
     0
  0
CLASS
  1
AEC_DISP_PROPS_AREAGROUP
  2
AecDbDispPropsAreaGroup
  3
AecAreaCalculationBase50|Product Desc: Autodesk Architectural Desktop 2007 |Company: Autodesk,Inc. |WEB Address: www.autodesk.com
 90
    32897
280
     0
281
     0
  0
CLASS
  1
AEC_DISP_PROPS_WINDOW_NOMINAL
  2
AecDbDispPropsWindowNominal
  3
AecArchBase50|Product Desc: Autodesk Architectural Desktop 2007 |Company: Autodesk,Inc. |WEB Address: www.autodesk.com
 90
    32897
280
     0
281
     0
  0
CLASS
  1
AEC_DISP_PROPS_AREA
  2
AecDbDispPropsArea
  3
AecAreaCalculationBase50|Product Desc: Autodesk Architectural Desktop 2007 |Company: Autodesk,Inc. |WEB Address: www.autodesk.com
 90
    32897
280
     0
281
     0
  0
CLASS
  1
AEC_DISP_PROPS_SCHEDULE_TABLE
  2
AecDbDispPropsScheduleTable
  3
AecSchedule50|Product Desc: Autodesk Architectural Desktop 2007 |Company: Autodesk,Inc. |WEB Address: www.autodesk.com
 90
    32897
280
     0
281
     0
  0
CLASS
  1
AEC_LAYERKEY_STYLE
  2
AecDbLayerKeyStyle
  3
AecBase50|Product Desc: Autodesk Architectural Desktop 2007 |Company: Autodesk,Inc. |WEB Address: www.autodesk.com
 90
    32897
280
     0
281
     0
  0
CLASS
  1
AEC_VARS_ARCHBASE
  2
AecDbVarsArchBase
  3
AecArchBase50|Product Desc: Autodesk Architectural Desktop 2007 |Company: Autodesk,Inc. |WEB Address: www.autodesk.com
 90
    32897
280
     0
281
     0
  0
CLASS
  1
AEC_VARS_MUNICH
  2
AecDbVarsMunich
  3
AecArchDACHBase50|Product Desc: Autodesk Architectural Desktop 2007 |Company: Autodesk,Inc. |WEB Address: www.autodesk.com
 90
    32897
280
     0
281
     0
  0
CLASS
  1
AEC_NOTIFICATION_TRACKER
  2
AecDbNotificationTracker
  3
AecBase50|Product Desc: Autodesk Architectural Desktop 2007 |Company: Autodesk,Inc. |WEB Address: www.autodesk.com
 90
    32897
280
     0
281
     0
  0
CLASS
  1
AEC_DISP_REP_ANCHOR
  2
AecDbDispRepAnchor
  3
AecBase50|Product Desc: Autodesk Architectural Desktop 2007 |Company: Autodesk,Inc. |WEB Address: www.autodesk.com
 90
    32897
280
     0
281
     0
  0
CLASS
  1
AEC_DISP_REP_POLYGON_TRUECOLOUR
  2
AecDbDispRepPolygonTrueColour
  3
AecBase50|Product Desc: Autodesk Architectural Desktop 2007 |Company: Autodesk,Inc. |WEB Address: www.autodesk.com
 90
    32897
280
     0
281
     0
  0
CLASS
  1
AEC_DISP_PROPS_POLYGON_TRUECOLOUR
  2
AecDbDispPropsPolygonTrueColour
  3
AecBase50|Product Desc: Autodesk Architectural Desktop 2007 |Company: Autodesk,Inc. |WEB Address: www.autodesk.com
 90
    32897
280
     0
281
     0
  0
CLASS
  1
AEC_DISP_REP_BDG_ELEVLINE_RCP
  2
AecDbDispRepBdgElevLineRcp
  3
AecArchBase50|Product Desc: Autodesk Architectural Desktop 2007 |Company: Autodesk,Inc. |WEB Address: www.autodesk.com
 90
    32897
280
     0
281
     0
  0
CLASS
  1
AEC_DISP_REP_BDG_SECTIONLINE_RCP
  2
AecDbDispRepBdgSectionLineRcp
  3
AecArchBase50|Product Desc: Autodesk Architectural Desktop 2007 |Company: Autodesk,Inc. |WEB Address: www.autodesk.com
 90
    32897
280
     0
281
     0
  0
CLASS
  1
AEC_DISP_REP_BDG_SECTION_MODEL
  2
AecDbDispRepBdgSectionModel
  3
AecArchBase50|Product Desc: Autodesk Architectural Desktop 2007 |Company: Autodesk,Inc. |WEB Address: www.autodesk.com
 90
    32897
280
     0
281
     0
  0
CLASS
  1
AEC_DISP_REP_DOOR_ELEV
  2
AecDbDispRepDoorElev
  3
AecArchBase50|Product Desc: Autodesk Architectural Desktop 2007 |Company: Autodesk,Inc. |WEB Address: www.autodesk.com
 90
    32897
280
     0
281
     0
  0
CLASS
  1
AEC_DISP_REP_DOOR_RCP
  2
AecDbDispRepDoorRcp
  3
AecArchBase50|Product Desc: Autodesk Architectural Desktop 2007 |Company: Autodesk,Inc. |WEB Address: www.autodesk.com
 90
    32897
280
     0
281
     0
  0
CLASS
  1
AEC_DISP_REP_DOOR_THRESHOLD_PLAN
  2
AecDbDispRepDoorThresholdPlan
  3
AecArchBase50|Product Desc: Autodesk Architectural Desktop 2007 |Company: Autodesk,Inc. |WEB Address: www.autodesk.com
 90
    32897
280
     0
281
     0
  0
CLASS
  1
AEC_DISP_PROPS_DOOR_THRESHOLD_PLAN
  2
AecDbDispPropsDoorThresholdPlan
  3
AecArchBase50|Product Desc: Autodesk Architectural Desktop 2007 |Company: Autodesk,Inc. |WEB Address: www.autodesk.com
 90
    32897
280
     0
281
     0
  0
CLASS
  1
AEC_DISP_REP_MASS_ELEM_RCP
  2
AecDbDispRepMassElemRcp
  3
AecArchBase50|Product Desc: Autodesk Architectural Desktop 2007 |Company: Autodesk,Inc. |WEB Address: www.autodesk.com
 90
    32897
280
     0
281
     0
  0
CLASS
  1
AEC_DISP_REP_MASS_GROUP_RCP
  2
AecDbDispRepMassGroupRcp
  3
AecArchBase50|Product Desc: Autodesk Architectural Desktop 2007 |Company: Autodesk,Inc. |WEB Address: www.autodesk.com
 90
    32897
280
     0
281
     0
  0
CLASS
  1
AEC_DISP_REP_MVBLOCK_REF_RCP
  2
AecDbDispRepMvBlockRefRcp
  3
AecArchBase50|Product Desc: Autodesk Architectural Desktop 2007 |Company: Autodesk,Inc. |WEB Address: www.autodesk.com
 90
    32897
280
     0
281
     0
  0
CLASS
  1
AEC_DISP_REP_ROOF_RCP
  2
AecDbDispRepRoofRcp
  3
AecArchBase50|Product Desc: Autodesk Architectural Desktop 2007 |Company: Autodesk,Inc. |WEB Address: www.autodesk.com
 90
    32897
280
     0
281
     0
  0
CLASS
  1
AEC_DISP_REP_SPACE_BOUNDARY_DIAGRAM
  2
AecDbDispRepSpaceBoundaryDgrm
  3
AecArchBase50|Product Desc: Autodesk Architectural Desktop 2007 |Company: Autodesk,Inc. |WEB Address: www.autodesk.com
 90
    32897
280
     0
281
     0
  0
CLASS
  1
AEC_DISP_REP_SPACE_RCP
  2
AecDbDispRepSpaceRcp
  3
AecArchBase50|Product Desc: Autodesk Architectural Desktop 2007 |Company: Autodesk,Inc. |WEB Address: www.autodesk.com
 90
    32897
280
     0
281
     0
  0
CLASS
  1
AEC_DISP_REP_SPACE_VOLUME
  2
AecDbDispRepSpaceVolume
  3
AecArchBase50|Product Desc: Autodesk Architectural Desktop 2007 |Company: Autodesk,Inc. |WEB Address: www.autodesk.com
 90
    32897
280
     0
281
     0
  0
CLASS
  1
AEC_DISP_REP_STAIR_PLAN_OVERLAPPING
  2
AecDbDispRepStairPlanOverlapping
  3
AecArchBase50|Product Desc: Autodesk Architectural Desktop 2007 |Company: Autodesk,Inc. |WEB Address: www.autodesk.com
 90
    32897
280
     0
281
     0
  0
CLASS
  1
AEC_DISP_PROPS_STAIR_PLAN_OVERLAPPING
  2
AecDbDispPropsStairPlanOverlapping
  3
AecArchBase50|Product Desc: Autodesk Architectural Desktop 2007 |Company: Autodesk,Inc. |WEB Address: www.autodesk.com
 90
    32897
280
     0
281
     0
  0
CLASS
  1
AEC_DISP_REP_STAIR_RCP
  2
AecDbDispRepStairRcp
  3
AecArchBase50|Product Desc: Autodesk Architectural Desktop 2007 |Company: Autodesk,Inc. |WEB Address: www.autodesk.com
 90
    32897
280
     0
281
     0
  0
CLASS
  1
AEC_DISP_REP_WALL_RCP
  2
AecDbDispRepWallRcp
  3
AecArchBase50|Product Desc: Autodesk Architectural Desktop 2007 |Company: Autodesk,Inc. |WEB Address: www.autodesk.com
 90
    32897
280
     0
281
     0
  0
CLASS
  1
AEC_DISP_REP_WINDOWASSEMBLY_SILL_PLAN
  2
AecDbDispRepWindowAssemblySillPlan
  3
AecArchBase50|Product Desc: Autodesk Architectural Desktop 2007 |Company: Autodesk,Inc. |WEB Address: www.autodesk.com
 90
    32897
280
     0
281
     0
  0
CLASS
  1
AEC_DISP_PROPS_WINDOW_ASSEMBLY_SILL_PLAN
  2
AecDbDispPropsWindowAssemblySillPlan
  3
AecArchBase50|Product Desc: Autodesk Architectural Desktop 2007 |Company: Autodesk,Inc. |WEB Address: www.autodesk.com
 90
    32897
280
     0
281
     0
  0
CLASS
  1
AEC_DISP_REP_WINDOW_ELEV
  2
AecDbDispRepWindowElev
  3
AecArchBase50|Product Desc: Autodesk Architectural Desktop 2007 |Company: Autodesk,Inc. |WEB Address: www.autodesk.com
 90
    32897
280
     0
281
     0
  0
CLASS
  1
AEC_DISP_REP_WINDOW_RCP
  2
AecDbDispRepWindowRcp
  3
AecArchBase50|Product Desc: Autodesk Architectural Desktop 2007 |Company: Autodesk,Inc. |WEB Address: www.autodesk.com
 90
    32897
280
     0
281
     0
  0
CLASS
  1
AEC_DISP_REP_WINDOW_SILL_PLAN
  2
AecDbDispRepWindowSillPlan
  3
AecArchBase50|Product Desc: Autodesk Architectural Desktop 2007 |Company: Autodesk,Inc. |WEB Address: www.autodesk.com
 90
    32897
280
     0
281
     0
  0
CLASS
  1
AEC_DISP_PROPS_WINDOW_SILL_PLAN
  2
AecDbDispPropsWindowSillPlan
  3
AecArchBase50|Product Desc: Autodesk Architectural Desktop 2007 |Company: Autodesk,Inc. |WEB Address: www.autodesk.com
 90
    32897
280
     0
281
     0
  0
CLASS
  1
AEC_DISP_REP_ANCHOR_BUB_TO_GRID_RCP
  2
AecDbDispRepAnchorBubToGridRcp
  3
AecStructureBase50|Product Desc: Autodesk Architectural Desktop 2007 |Company: Autodesk,Inc. |WEB Address: www.autodesk.com
 90
    32897
280
     0
281
     0
  0
CLASS
  1
AEC_DISP_REP_COLUMN_GRID_RCP
  2
AecDbDispRepColumnGridRcp
  3
AecStructureBase50|Product Desc: Autodesk Architectural Desktop 2007 |Company: Autodesk,Inc. |WEB Address: www.autodesk.com
 90
    32897
280
     0
281
     0
  0
CLASS
  1
AECS_DISP_REP_MEMBER_ELEVATION_DESIGN
  2
AecsDbDispRepMemberElevationDesign
  3
AecStructureBase50|Product Desc: Autodesk Architectural Desktop 2007 |Company: Autodesk,Inc. |WEB Address: www.autodesk.com
 90
    32897
280
     0
281
     0
  0
CLASS
  1
AECS_DISP_PROPS_MEMBER_PROJECTED
  2
AecsDbDispPropsMemberProjected
  3
AecStructureBase50|Product Desc: Autodesk Architectural Desktop 2007 |Company: Autodesk,Inc. |WEB Address: www.autodesk.com
 90
    32897
280
     0
281
     0
  0
CLASS
  1
AECS_DISP_REP_MEMBER_ELEVATION_DETAIL
  2
AecsDbDispRepMemberElevationDetail
  3
AecStructureBase50|Product Desc: Autodesk Architectural Desktop 2007 |Company: Autodesk,Inc. |WEB Address: www.autodesk.com
 90
    32897
280
     0
281
     0
  0
CLASS
  1
AECS_DISP_REP_MEMBER_MODEL_DETAIL
  2
AecsDbDispRepMemberModelDetail
  3
AecStructureBase50|Product Desc: Autodesk Architectural Desktop 2007 |Company: Autodesk,Inc. |WEB Address: www.autodesk.com
 90
    32897
280
     0
281
     0
  0
CLASS
  1
AECS_DISP_REP_MEMBER_PLAN_DETAIL
  2
AecsDbDispRepMemberPlanDetail
  3
AecStructureBase50|Product Desc: Autodesk Architectural Desktop 2007 |Company: Autodesk,Inc. |WEB Address: www.autodesk.com
 90
    32897
280
     0
281
     0
  0
CLASS
  1
AECS_DISP_REP_MEMBER_PLAN_SKETCH
  2
AecsDbDispRepMemberPlanSketch
  3
AecStructureBase50|Product Desc: Autodesk Architectural Desktop 2007 |Company: Autodesk,Inc. |WEB Address: www.autodesk.com
 90
    32897
280
     0
281
     0
  0
CLASS
  1
AECS_DISP_PROPS_MEMBER_PLAN_SKETCH
  2
AecsDbDispPropsMemberPlanSketch
  3
AecStructureBase50|Product Desc: Autodesk Architectural Desktop 2007 |Company: Autodesk,Inc. |WEB Address: www.autodesk.com
 90
    32897
280
     0
281
     0
  0
CLASS
  1
AEC_AECDBDISPREPAREA100
  2
AecDbDispRepArea100
  3
AecArchDACHBase50|Product Desc: Autodesk Architectural Desktop 2007 |Company: Autodesk,Inc. |WEB Address: www.autodesk.com
 90
    32897
280
     0
281
     0
  0
CLASS
  1
AEC_AECDBDISPREPAREAGROUP100
  2
AecDbDispRepAreaGroup100
  3
AecArchDACHBase50|Product Desc: Autodesk Architectural Desktop 2007 |Company: Autodesk,Inc. |WEB Address: www.autodesk.com
 90
    32897
280
     0
281
     0
  0
CLASS
  1
AEC_AECDBDISPREPBDGELEVLINEPLAN100
  2
AecDbDispRepBdgElevLinePlan100
  3
AecArchDACHBase50|Product Desc: Autodesk Architectural Desktop 2007 |Company: Autodesk,Inc. |WEB Address: www.autodesk.com
 90
    32897
280
     0
281
     0
  0
CLASS
  1
AEC_AECDBDISPREPBDGSECTIONLINEPLAN100
  2
AecDbDispRepBdgSectionLinePlan100
  3
AecArchDACHBase50|Product Desc: Autodesk Architectural Desktop 2007 |Company: Autodesk,Inc. |WEB Address: www.autodesk.com
 90
    32897
280
     0
281
     0
  0
CLASS
  1
AEC_AECDBDISPREPCEILINGGRIDPLAN100
  2
AecDbDispRepCeilingGridPlan100
  3
AecArchDACHBase50|Product Desc: Autodesk Architectural Desktop 2007 |Company: Autodesk,Inc. |WEB Address: www.autodesk.com
 90
    32897
280
     0
281
     0
  0
CLASS
  1
AEC_AECDBDISPREPCOLUMNGRIDPLAN100
  2
AecDbDispRepColumnGridPlan100
  3
AecArchDACHBase50|Product Desc: Autodesk Architectural Desktop 2007 |Company: Autodesk,Inc. |WEB Address: www.autodesk.com
 90
    32897
280
     0
281
     0
  0
CLASS
  1
AEC_AECDBDISPREPCURTAINWALLLAYOUTPLAN100
  2
AecDbDispRepCurtainWallLayoutPlan100
  3
AecArchDACHBase50|Product Desc: Autodesk Architectural Desktop 2007 |Company: Autodesk,Inc. |WEB Address: www.autodesk.com
 90
    32897
280
     0
281
     0
  0
CLASS
  1
AEC_AECDBDISPREPCURTAINWALLUNITPLAN100
  2
AecDbDispRepCurtainWallUnitPlan100
  3
AecArchDACHBase50|Product Desc: Autodesk Architectural Desktop 2007 |Company: Autodesk,Inc. |WEB Address: www.autodesk.com
 90
    32897
280
     0
281
     0
  0
CLASS
  1
AEC_AECDBDISPREPMVBLOCKREFPLAN100
  2
AecDbDispRepMvBlockRefPlan100
  3
AecArchDACHBase50|Product Desc: Autodesk Architectural Desktop 2007 |Company: Autodesk,Inc. |WEB Address: www.autodesk.com
 90
    32897
280
     0
281
     0
  0
CLASS
  1
AEC_AECDBDISPREPROOFPLAN100
  2
AecDbDispRepRoofPlan100
  3
AecArchDACHBase50|Product Desc: Autodesk Architectural Desktop 2007 |Company: Autodesk,Inc. |WEB Address: www.autodesk.com
 90
    32897
280
     0
281
     0
  0
CLASS
  1
AEC_AECDBDISPREPROOFSLABPLAN100
  2
AecDbDispRepRoofSlabPlan100
  3
AecArchDACHBase50|Product Desc: Autodesk Architectural Desktop 2007 |Company: Autodesk,Inc. |WEB Address: www.autodesk.com
 90
    32897
280
     0
281
     0
  0
CLASS
  1
AEC_AECDBDISPREPSLABPLAN100
  2
AecDbDispRepSlabPlan100
  3
AecArchDACHBase50|Product Desc: Autodesk Architectural Desktop 2007 |Company: Autodesk,Inc. |WEB Address: www.autodesk.com
 90
    32897
280
     0
281
     0
  0
CLASS
  1
AEC_AECDBDISPREPSPACEBOUNDARYPLAN100
  2
AecDbDispRepSpaceBoundaryPlan100
  3
AecArchDACHBase50|Product Desc: Autodesk Architectural Desktop 2007 |Company: Autodesk,Inc. |WEB Address: www.autodesk.com
 90
    32897
280
     0
281
     0
  0
CLASS
  1
AEC_AECDBDISPREPSPACEPLAN100
  2
AecDbDispRepSpacePlan100
  3
AecArchDACHBase50|Product Desc: Autodesk Architectural Desktop 2007 |Company: Autodesk,Inc. |WEB Address: www.autodesk.com
 90
    32897
280
     0
281
     0
  0
CLASS
  1
AEC_AECDBDISPREPWALLPLAN100
  2
AecDbDispRepWallPlan100
  3
AecArchDACHBase50|Product Desc: Autodesk Architectural Desktop 2007 |Company: Autodesk,Inc. |WEB Address: www.autodesk.com
 90
    32897
280
     0
281
     0
  0
CLASS
  1
AEC_AECDBDISPREPAREA50
  2
AecDbDispRepArea50
  3
AecArchDACHBase50|Product Desc: Autodesk Architectural Desktop 2007 |Company: Autodesk,Inc. |WEB Address: www.autodesk.com
 90
    32897
280
     0
281
     0
  0
CLASS
  1
AEC_AECDBDISPREPAREAGROUP50
  2
AecDbDispRepAreaGroup50
  3
AecArchDACHBase50|Product Desc: Autodesk Architectural Desktop 2007 |Company: Autodesk,Inc. |WEB Address: www.autodesk.com
 90
    32897
280
     0
281
     0
  0
CLASS
  1
AEC_AECDBDISPREPBDGELEVLINEPLAN50
  2
AecDbDispRepBdgElevLinePlan50
  3
AecArchDACHBase50|Product Desc: Autodesk Architectural Desktop 2007 |Company: Autodesk,Inc. |WEB Address: www.autodesk.com
 90
    32897
280
     0
281
     0
  0
CLASS
  1
AEC_AECDBDISPREPBDGSECTIONLINEPLAN50
  2
AecDbDispRepBdgSectionLinePlan50
  3
AecArchDACHBase50|Product Desc: Autodesk Architectural Desktop 2007 |Company: Autodesk,Inc. |WEB Address: www.autodesk.com
 90
    32897
280
     0
281
     0
  0
CLASS
  1
AEC_AECDBDISPREPCEILINGGRIDPLAN50
  2
AecDbDispRepCeilingGridPlan50
  3
AecArchDACHBase50|Product Desc: Autodesk Architectural Desktop 2007 |Company: Autodesk,Inc. |WEB Address: www.autodesk.com
 90
    32897
280
     0
281
     0
  0
CLASS
  1
AEC_AECDBDISPREPCOLUMNGRIDPLAN50
  2
AecDbDispRepColumnGridPlan50
  3
AecArchDACHBase50|Product Desc: Autodesk Architectural Desktop 2007 |Company: Autodesk,Inc. |WEB Address: www.autodesk.com
 90
    32897
280
     0
281
     0
  0
CLASS
  1
AEC_AECDBDISPREPCURTAINWALLLAYOUTPLAN50
  2
AecDbDispRepCurtainWallLayoutPlan50
  3
AecArchDACHBase50|Product Desc: Autodesk Architectural Desktop 2007 |Company: Autodesk,Inc. |WEB Address: www.autodesk.com
 90
    32897
280
     0
281
     0
  0
CLASS
  1
AEC_AECDBDISPREPCURTAINWALLUNITPLAN50
  2
AecDbDispRepCurtainWallUnitPlan50
  3
AecArchDACHBase50|Product Desc: Autodesk Architectural Desktop 2007 |Company: Autodesk,Inc. |WEB Address: www.autodesk.com
 90
    32897
280
     0
281
     0
  0
CLASS
  1
AEC_AECDBDISPREPMVBLOCKREFPLAN50
  2
AecDbDispRepMvBlockRefPlan50
  3
AecArchDACHBase50|Product Desc: Autodesk Architectural Desktop 2007 |Company: Autodesk,Inc. |WEB Address: www.autodesk.com
 90
    32897
280
     0
281
     0
  0
CLASS
  1
AEC_AECDBDISPREPROOFPLAN50
  2
AecDbDispRepRoofPlan50
  3
AecArchDACHBase50|Product Desc: Autodesk Architectural Desktop 2007 |Company: Autodesk,Inc. |WEB Address: www.autodesk.com
 90
    32897
280
     0
281
     0
  0
CLASS
  1
AEC_AECDBDISPREPROOFSLABPLAN50
  2
AecDbDispRepRoofSlabPlan50
  3
AecArchDACHBase50|Product Desc: Autodesk Architectural Desktop 2007 |Company: Autodesk,Inc. |WEB Address: www.autodesk.com
 90
    32897
280
     0
281
     0
  0
CLASS
  1
AEC_AECDBDISPREPSLABPLAN50
  2
AecDbDispRepSlabPlan50
  3
AecArchDACHBase50|Product Desc: Autodesk Architectural Desktop 2007 |Company: Autodesk,Inc. |WEB Address: www.autodesk.com
 90
    32897
280
     0
281
     0
  0
CLASS
  1
AEC_AECDBDISPREPSPACEBOUNDARYPLAN50
  2
AecDbDispRepSpaceBoundaryPlan50
  3
AecArchDACHBase50|Product Desc: Autodesk Architectural Desktop 2007 |Company: Autodesk,Inc. |WEB Address: www.autodesk.com
 90
    32897
280
     0
281
     0
  0
CLASS
  1
AEC_AECDBDISPREPSPACEPLAN50
  2
AecDbDispRepSpacePlan50
  3
AecArchDACHBase50|Product Desc: Autodesk Architectural Desktop 2007 |Company: Autodesk,Inc. |WEB Address: www.autodesk.com
 90
    32897
280
     0
281
     0
  0
CLASS
  1
AEC_AECDBDISPREPWALLPLAN50
  2
AecDbDispRepWallPlan50
  3
AecArchDACHBase50|Product Desc: Autodesk Architectural Desktop 2007 |Company: Autodesk,Inc. |WEB Address: www.autodesk.com
 90
    32897
280
     0
281
     0
  0
CLASS
  1
AEC_AECDBDISPREPWINDOWASSEMBLYPLAN50
  2
AecDbDispRepWindowAssemblyPlan50
  3
AecArchDACHBase50|Product Desc: Autodesk Architectural Desktop 2007 |Company: Autodesk,Inc. |WEB Address: www.autodesk.com
 90
    32897
280
     0
281
     0
  0
CLASS
  1
AEC_DB_DISP_REP_DIM_GROUP_PLAN100
  2
AecDbDispRepDimGroupPlan100
  3
AecArchDACHBase50|Product Desc: Autodesk Architectural Desktop 2007 |Company: Autodesk,Inc. |WEB Address: www.autodesk.com
 90
    32897
280
     0
281
     0
  0
CLASS
  1
AEC_DB_DISP_REP_DIM_GROUP_PLAN50
  2
AecDbDispRepDimGroupPlan50
  3
AecArchDACHBase50|Product Desc: Autodesk Architectural Desktop 2007 |Company: Autodesk,Inc. |WEB Address: www.autodesk.com
 90
    32897
280
     0
281
     0
  0
CLASS
  1
AEC_DISP_REP_DOOR_PLAN_50
  2
AecDbDispRepDoorPlan50
  3
AecArchDACHBase50|Product Desc: Autodesk Architectural Desktop 2007 |Company: Autodesk,Inc. |WEB Address: www.autodesk.com
 90
    32897
280
     0
281
     0
  0
CLASS
  1
AEC_DISP_PROPS_DOOR_PLAN_50
  2
AecDbDispPropsDoorPlan50
  3
AecArchDACHBase50|Product Desc: Autodesk Architectural Desktop 2007 |Company: Autodesk,Inc. |WEB Address: www.autodesk.com
 90
    32897
280
     0
281
     0
  0
CLASS
  1
AEC_DISP_REP_DOOR_PLAN_HEKTO
  2
AecDbDispRepDoorPlanHekto
  3
AecArchDACHBase50|Product Desc: Autodesk Architectural Desktop 2007 |Company: Autodesk,Inc. |WEB Address: www.autodesk.com
 90
    32897
280
     0
281
     0
  0
CLASS
  1
AEC_DISP_PROPS_DOOR_PLAN_100
  2
AecDbDispPropsDoorPlan100
  3
AecArchDACHBase50|Product Desc: Autodesk Architectural Desktop 2007 |Company: Autodesk,Inc. |WEB Address: www.autodesk.com
 90
    32897
280
     0
281
     0
  0
CLASS
  1
AEC_DISP_REP_DOOR_THRESHOLD_SYMBOL_PLAN
  2
AecDbDispRepDoorThresholdSymbolPlan
  3
AecArchDACHBase50|Product Desc: Autodesk Architectural Desktop 2007 |Company: Autodesk,Inc. |WEB Address: www.autodesk.com
 90
    32897
280
     0
281
     0
  0
CLASS
  1
AEC_DISP_PROPS_DOOR_THRESHOLD_SYMBOL_PLAN
  2
AecDbDispPropsDoorThresholdSymbolPlan
  3
AecArchDACHBase50|Product Desc: Autodesk Architectural Desktop 2007 |Company: Autodesk,Inc. |WEB Address: www.autodesk.com
 90
    32897
280
     0
281
     0
  0
CLASS
  1
AEC_DISPREPAECDBDISPREPMASSELEMPLAN100
  2
AecDbDispRepMassElemPlan100
  3
AecArchDACHBase50|Product Desc: Autodesk Architectural Desktop 2007 |Company: Autodesk,Inc. |WEB Address: www.autodesk.com
 90
    32897
280
     0
281
     0
  0
CLASS
  1
AEC_DISPROPSMASSELEMPLANCOMMON
  2
AecDbDispPropsMassElemPlanCommon
  3
AecArchDACHBase50|Product Desc: Autodesk Architectural Desktop 2007 |Company: Autodesk,Inc. |WEB Address: www.autodesk.com
 90
    32897
280
     0
281
     0
  0
CLASS
  1
AEC_DISPREPAECDBDISPREPMASSELEMPLAN50
  2
AecDbDispRepMassElemPlan50
  3
AecArchDACHBase50|Product Desc: Autodesk Architectural Desktop 2007 |Company: Autodesk,Inc. |WEB Address: www.autodesk.com
 90
    32897
280
     0
281
     0
  0
CLASS
  1
AEC_DISPREPAECDBDISPREPMASSGROUPPLAN100
  2
AecDbDispRepMassGroupPlan100
  3
AecArchDACHBase50|Product Desc: Autodesk Architectural Desktop 2007 |Company: Autodesk,Inc. |WEB Address: www.autodesk.com
 90
    32897
280
     0
281
     0
  0
CLASS
  1
AEC_DISPROPSMASSGROUPPLANCOMMON
  2
AecDbDispPropsMassGroupPlanCommon
  3
AecArchDACHBase50|Product Desc: Autodesk Architectural Desktop 2007 |Company: Autodesk,Inc. |WEB Address: www.autodesk.com
 90
    32897
280
     0
281
     0
  0
CLASS
  1
AEC_DISPREPAECDBDISPREPMASSGROUPPLAN50
  2
AecDbDispRepMassGroupPlan50
  3
AecArchDACHBase50|Product Desc: Autodesk Architectural Desktop 2007 |Company: Autodesk,Inc. |WEB Address: www.autodesk.com
 90
    32897
280
     0
281
     0
  0
CLASS
  1
AEC_DISPREPAECDBDISPREPOPENINGPLAN100
  2
AecDbDispRepOpeningPlan100
  3
AecArchDACHBase50|Product Desc: Autodesk Architectural Desktop 2007 |Company: Autodesk,Inc. |WEB Address: www.autodesk.com
 90
    32897
280
     0
281
     0
  0
CLASS
  1
AEC_DISPROPSOPENINGPLANCOMMONHATCHED
  2
AecDbDispPropsOpeningPlanCommonHatched
  3
AecArchDACHBase50|Product Desc: Autodesk Architectural Desktop 2007 |Company: Autodesk,Inc. |WEB Address: www.autodesk.com
 90
    32897
280
     0
281
     0
  0
CLASS
  1
AEC_DISPREPAECDBDISPREPOPENINGPLAN50
  2
AecDbDispRepOpeningPlan50
  3
AecArchDACHBase50|Product Desc: Autodesk Architectural Desktop 2007 |Company: Autodesk,Inc. |WEB Address: www.autodesk.com
 90
    32897
280
     0
281
     0
  0
CLASS
  1
AEC_DISPREPAECDBDISPREPOPENINGPLANREFLECTED
  2
AecDbDispRepOpeningPlanReflected
  3
AecArchDACHBase50|Product Desc: Autodesk Architectural Desktop 2007 |Company: Autodesk,Inc. |WEB Address: www.autodesk.com
 90
    32897
280
     0
281
     0
  0
CLASS
  1
AEC_DISPROPSOPENINGPLANCOMMON
  2
AecDbDispPropsOpeningPlanCommon
  3
AecArchDACHBase50|Product Desc: Autodesk Architectural Desktop 2007 |Company: Autodesk,Inc. |WEB Address: www.autodesk.com
 90
    32897
280
     0
281
     0
  0
CLASS
  1
AEC_DISPREPAECDBDISPREPOPENINGSILLPLAN
  2
AecDbDispRepOpeningSillPlan
  3
AecArchDACHBase50|Product Desc: Autodesk Architectural Desktop 2007 |Company: Autodesk,Inc. |WEB Address: www.autodesk.com
 90
    32897
280
     0
281
     0
  0
CLASS
  1
AEC_DISPROPSOPENINGSILLPLAN
  2
AecDbDispPropsOpeningSillPlan
  3
AecArchDACHBase50|Product Desc: Autodesk Architectural Desktop 2007 |Company: Autodesk,Inc. |WEB Address: www.autodesk.com
 90
    32897
280
     0
281
     0
  0
CLASS
  1
AEC_DISP_REP_RAILING_PLAN_100
  2
AecDbDispRepRailingPlan100
  3
AecArchDACHBase50|Product Desc: Autodesk Architectural Desktop 2007 |Company: Autodesk,Inc. |WEB Address: www.autodesk.com
 90
    32897
280
     0
281
     0
  0
CLASS
  1
AEC_DISP_ROPS_RAILING_PLAN_100
  2
AecDbDispPropsRailingPlan100
  3
AecArchDACHBase50|Product Desc: Autodesk Architectural Desktop 2007 |Company: Autodesk,Inc. |WEB Address: www.autodesk.com
 90
    32897
280
     0
281
     0
  0
CLASS
  1
AEC_DISP_REP_RAILING_PLAN_50
  2
AecDbDispRepRailingPlan50
  3
AecArchDACHBase50|Product Desc: Autodesk Architectural Desktop 2007 |Company: Autodesk,Inc. |WEB Address: www.autodesk.com
 90
    32897
280
     0
281
     0
  0
CLASS
  1
AEC_DISP_ROPS_RAILING_PLAN_50
  2
AecDbDispPropsRailingPlan50
  3
AecArchDACHBase50|Product Desc: Autodesk Architectural Desktop 2007 |Company: Autodesk,Inc. |WEB Address: www.autodesk.com
 90
    32897
280
     0
281
     0
  0
CLASS
  1
AEC_DISP_REP_STAIR_PLAN_100
  2
AecDbDispRepStairPlan100
  3
AecArchDACHBase50|Product Desc: Autodesk Architectural Desktop 2007 |Company: Autodesk,Inc. |WEB Address: www.autodesk.com
 90
    32897
280
     0
281
     0
  0
CLASS
  1
AEC_DISP_ROPS_STAIR_PLAN_100
  2
AecDbDispPropsStairPlan100
  3
AecArchDACHBase50|Product Desc: Autodesk Architectural Desktop 2007 |Company: Autodesk,Inc. |WEB Address: www.autodesk.com
 90
    32897
280
     0
281
     0
  0
CLASS
  1
AEC_DISP_REP_STAIR_PLAN_50
  2
AecDbDispRepStairPlan50
  3
AecArchDACHBase50|Product Desc: Autodesk Architectural Desktop 2007 |Company: Autodesk,Inc. |WEB Address: www.autodesk.com
 90
    32897
280
     0
281
     0
  0
CLASS
  1
AEC_DISP_ROPS_STAIR_PLAN_50
  2
AecDbDispPropsStairPlan50
  3
AecArchDACHBase50|Product Desc: Autodesk Architectural Desktop 2007 |Company: Autodesk,Inc. |WEB Address: www.autodesk.com
 90
    32897
280
     0
281
     0
  0
CLASS
  1
AEC_DISP_REP_WINDOW_PLAN_100
  2
AecDbDispRepWindowPlan100
  3
AecArchDACHBase50|Product Desc: Autodesk Architectural Desktop 2007 |Company: Autodesk,Inc. |WEB Address: www.autodesk.com
 90
    32897
280
     0
281
     0
  0
CLASS
  1
AEC_DISP_PROPS_WINDOW_PLAN_100
  2
AecDbDispPropsWindowPlan100
  3
AecArchDACHBase50|Product Desc: Autodesk Architectural Desktop 2007 |Company: Autodesk,Inc. |WEB Address: www.autodesk.com
 90
    32897
280
     0
281
     0
  0
CLASS
  1
AEC_DISP_REP_WINDOW_PLAN_50
  2
AecDbDispRepWindowPlan50
  3
AecArchDACHBase50|Product Desc: Autodesk Architectural Desktop 2007 |Company: Autodesk,Inc. |WEB Address: www.autodesk.com
 90
    32897
280
     0
281
     0
  0
CLASS
  1
AEC_DISP_PROPS_WINDOW_PLAN_50
  2
AecDbDispPropsWindowPlan50
  3
AecArchDACHBase50|Product Desc: Autodesk Architectural Desktop 2007 |Company: Autodesk,Inc. |WEB Address: www.autodesk.com
 90
    32897
280
     0
281
     0
  0
CLASS
  1
BINRECORD
  2
AcAecBinRecord
  3
AecBase50|Product Desc: Autodesk Architectural Desktop 2007 |Company: Autodesk,Inc. |WEB Address: www.autodesk.com
 90
    32897
280
     0
281
     0
  0
CLASS
  1
SPATIAL_FILTER
  2
AcDbSpatialFilter
  3
ObjectDBX Classes
 90
    32768
280
     0
281
     0
  0
CLASS
  1
AEC_VARS_STRUCTUREBASE
  2
AecsDbVarsStructureBase
  3
AecStructureBase50|Product Desc: Autodesk Architectural Desktop 2007 |Company: Autodesk,Inc. |WEB Address: www.autodesk.com
 90
    32897
280
     0
281
     0
  0
CLASS
  1
DIMASSOC
  2
AcDbDimAssoc
  3
"AcDbDimAssoc|Product Desc:     AcDim ARX App For Dimension|Company:          Autodesk, Inc.|WEB Address:      www.autodesk.com"
 90
        0
280
     0
281
     0
  0
CLASS
  1
MATERIAL
  2
AcDbMaterial
  3
ObjectDBX Classes
 90
     1153
280
     0
281
     0
  0
CLASS
  1
VISUALSTYLE
  2
AcDbVisualStyle
  3
ObjectDBX Classes
 90
     4095
280
     0
281
     0
  0
CLASS
  1
TABLESTYLE
  2
AcDbTableStyle
  3
ObjectDBX Classes
 90
     4095
280
     0
281
     0
  0
CLASS
  1
SCALE
  2
AcDbScale
  3
ObjectDBX Classes
 90
     1153
280
     0
281
     0
  0
CLASS
  1
MLEADERSTYLE
  2
AcDbMLeaderStyle
  3
ACDB_MLEADERSTYLE_CLASS
 90
     4095
280
     0
281
     0
  0
CLASS
  1
CELLSTYLEMAP
  2
AcDbCellStyleMap
  3
ObjectDBX Classes
 90
     1152
280
     0
281
     0
  0
ENDSEC
  0
SECTION
  2
TABLES
  0
TABLE
  2
VPORT
  5
1C
102
{ACAD_XDICTIONARY
360
109C
102
}
330
0
100
AcDbSymbolTable
 70
     1
  0
VPORT
  5
DF0
330
1C
100
AcDbSymbolTableRecord
100
AcDbViewportTableRecord
  2
*Active
 70
     0
 10
0.0
 20
0.0
 11
1.0
 21
1.0
 12
223972.6276372762
 22
132250.91040386
 13
0.0
 23
0.0
 14
10.0
 24
10.0
 15
10.0
 25
10.0
 16
0.0
 26
0.0
 36
1.0
 17
0.0
 27
0.0
 37
0.0
 40
25578.94075362868
 41
1.561333333333333
 42
50.0
 43
0.0
 44
0.0
 50
0.0
 51
0.0
 71
     0
 72
  1000
 73
     1
 74
     1
 75
     0
 76
     0
 77
     0
 78
     0
281
     0
 65
     1
110
0.0
120
0.0
130
0.0
111
1.0
121
0.0
131
0.0
112
0.0
122
1.0
132
0.0
 79
     0
146
0.0
  0
ENDTAB
  0
TABLE
  2
LTYPE
  5
17
330
0
100
AcDbSymbolTable
 70
     3
  0
LTYPE
  5
18
330
17
100
AcDbSymbolTableRecord
100
AcDbLinetypeTableRecord
  2
ByBlock
 70
     0
  3

 72
    65
 73
     0
 40
0.0
  0
LTYPE
  5
19
330
17
100
AcDbSymbolTableRecord
100
AcDbLinetypeTableRecord
  2
ByLayer
 70
     0
  3

 72
    65
 73
     0
 40
0.0
  0
LTYPE
  5
8
330
17
100
AcDbSymbolTableRecord
100
AcDbLinetypeTableRecord
  2
Continuous
 70
     0
  3
Solid line
 72
    65
 73
     0
 40
0.0
  0
LTYPE
  5
158
330
17
100
AcDbSymbolTableRecord
100
AcDbLinetypeTableRecord
  2
HIDDEN
 70
     0
  3
Hidden __ __ __ __ __ __ __ __ __ __ __ __ __ _
 72
    65
 73
     2
 40
0.375
 49
0.25
 74
     0
 49
-0.125
 74
     0
  0
ENDTAB
  0
TABLE
  2
LAYER
  5
11
102
{ACAD_XDICTIONARY
360
12
102
}
330
0
100
AcDbSymbolTable
 70
    12
  0
LAYER
  5
4
102
{ACAD_XDICTIONARY
360
10EA
102
}
330
11
100
AcDbSymbolTableRecord
100
AcDbLayerTableRecord
  2
0
 70
     0
 62
     7
  6
Continuous
370
    -3
390
5
1001
RAK
1000
{ACET-LAYISO
1070
     0
1070
     7
1000
Continuous
1071
       -3
1071
        1
1005
5
1000
ACET-LAYISO}
  0
LAYER
  5
65
330
11
100
AcDbSymbolTableRecord
100
AcDbLayerTableRecord
  2
DEFPOINTS
 70
     0
 62
     7
  6
Continuous
290
     0
370
    -3
390
5
1001
RAK
1000
{ACET-LAYISO
1070
     0
1070
     7
1000
Continuous
1071
       -3
1071
        0
1005
5
1000
ACET-LAYISO}
  0
LAYER
  5
15E
102
{ACAD_XDICTIONARY
360
10F2
102
}
330
11
100
AcDbSymbolTableRecord
100
AcDbLayerTableRecord
  2
RAMKI-A4
 70
     0
 62
     2
  6
Continuous
290
     0
370
    -3
390
5
1001
RAK
1000
{ACET-LAYISO
1070
     0
1070
     2
1000
Continuous
1071
       -3
1071
        0
1005
5
1000
ACET-LAYISO}
  0
LAYER
  5
143
102
{ACAD_XDICTIONARY
360
10F6
102
}
330
11
100
AcDbSymbolTableRecord
100
AcDbLayerTableRecord
  2
NAPISY
 70
     0
 62
   140
  6
Continuous
370
    -3
390
5
1001
RAK
1000
{ACET-LAYISO
1070
     0
1070
   140
1000
Continuous
1071
       -3
1071
        1
1005
5
1000
ACET-LAYISO}
  0
LAYER
  5
EBF
102
{ACAD_XDICTIONARY
360
10F8
102
}
330
11
100
AcDbSymbolTableRecord
100
AcDbLayerTableRecord
  2
0Wymiary-PL
 70
     0
 62
     1
  6
Continuous
370
    -3
390
5
1001
RAK
1000
{ACET-LAYISO
1070
     0
1070
     1
1000
Continuous
1071
       -3
1071
        1
1005
5
1000
ACET-LAYISO}
  0
LAYER
  5
F07
102
{ACAD_XDICTIONARY
360
10FE
102
}
330
11
100
AcDbSymbolTableRecord
100
AcDbLayerTableRecord
  2
0Hatch
 70
     0
 62
   122
  6
Continuous
370
     5
390
5
  0
ENDTAB
  0
TABLE
  2
STYLE
  5
14
330
0
100
AcDbSymbolTable
 70
     8
  0
STYLE
  5
15
330
14
100
AcDbSymbolTableRecord
100
AcDbTextStyleTableRecord
  2
Standard
 70
     0
 40
0.0
 41
1.0
 50
0.0
 71
     0
 42
2.5
  3
txt
  4

  0
STYLE
  5
22
330
14
100
AcDbSymbolTableRecord
100
AcDbTextStyleTableRecord
  2
ROMANS
 70
     0
 40
0.0
 41
0.9
 50
0.0
 71
     0
 42
20.0
  3
romans.shx
  4

  0
STYLE
  5
144
330
14
100
AcDbSymbolTableRecord
100
AcDbTextStyleTableRecord
  2
AVA
 70
     0
 40
0.0
 41
1.0
 50
0.0
 71
     0
 42
158.5644099714409
  3
ARIAL.TTF
  4

1001
ACAD
1000
Arial CE
1071
    60962
  0
ENDTAB
  0
TABLE
  2
VIEW
  5
1A
330
0
100
AcDbSymbolTable
 70
     1
  0
VIEW
  5
C
330
1A
100
AcDbSymbolTableRecord
100
AcDbViewTableRecord
  2
RODODENDRON 5
 70
     0
 40
14020.0
 10
220287.1664355166
 20
148687.514558954
 41
10200.00000000003
 11
0.0
 21
0.0
 31
1.0
 12
0.0
 22
0.0
 32
0.0
 42
50.0
 43
0.0
 44
0.0
 50
0.0
 71
     0
281
     0
 72
     1
110
0.0
120
0.0
130
0.0
111
1.0
121
0.0
131
0.0
112
0.0
122
1.0
132
0.0
 79
     0
146
0.0
  0
ENDTAB
  0
TABLE
  2
UCS
  5
1B
330
0
100
AcDbSymbolTable
 70
     0
  0
ENDTAB
  0
TABLE
  2
APPID
  5
1E
330
0
100
AcDbSymbolTable
 70
    10
  0
APPID
  5
1F
330
1E
100
AcDbSymbolTableRecord
100
AcDbRegAppTableRecord
  2
ACAD
 70
     0
  0
APPID
  5
1E1
330
1E
100
AcDbSymbolTableRecord
100
AcDbRegAppTableRecord
  2
RAK
 70
     0
  0
APPID
  5
1E2
330
1E
100
AcDbSymbolTableRecord
100
AcDbRegAppTableRecord
  2
AcAecLayerStandard
 70
     0
  0
APPID
  5
A87
330
1E
100
AcDbSymbolTableRecord
100
AcDbRegAppTableRecord
  2
ACAD_PSEXT
 70
     0
  0
APPID
  5
C44
330
1E
100
AcDbSymbolTableRecord
100
AcDbRegAppTableRecord
  2
DCO15
 70
     0
  0
APPID
  5
E0E
330
1E
100
AcDbSymbolTableRecord
100
AcDbRegAppTableRecord
  2
ACAD_EXEMPT_FROM_CAD_STANDARDS
 70
     0
  0
APPID
  5
E0F
330
1E
100
AcDbSymbolTableRecord
100
AcDbRegAppTableRecord
  2
ACAD_DSTYLE_DIM_LINETYPE
 70
     0
  0
APPID
  5
E10
330
1E
100
AcDbSymbolTableRecord
100
AcDbRegAppTableRecord
  2
ACAD_DSTYLE_DIM_EXT1_LINETYPE
 70
     0
  0
APPID
  5
E11
330
1E
100
AcDbSymbolTableRecord
100
AcDbRegAppTableRecord
  2
ACAD_DSTYLE_DIM_EXT2_LINETYPE
 70
     0
  0
APPID
  5
10E1
330
1E
100
AcDbSymbolTableRecord
100
AcDbRegAppTableRecord
  2
ACAD_MLEADERVER
 70
     0
  0
ENDTAB
  0
TABLE
  2
DIMSTYLE
  5
20
330
0
100
AcDbSymbolTable
 70
     9
100
AcDbDimStyleTable
 71
     1
340
21
  0
DIMSTYLE
105
21
102
{ACAD_REACTORS
330
F36
330
F41
330
F4C
330
F57
330
F62
330
F6D
330
F78
330
1008
330
1009
330
100A
330
100B
330
100C
330
100D
330
100E
102
}
330
20
100
AcDbSymbolTableRecord
100
AcDbDimStyleTableRecord
  2
500
 70
     0
 41
30.0
 42
43.0
 43
0.0
 44
13.0
 45
0.5
 46
12.0
 73
     0
 74
     0
 75
     1
 76
     1
 78
    12
140
80.0
141
0.0
145
1.0
147
0.0
172
     1
174
     1
176
     1
177
     1
178
   140
271
     1
272
     1
279
     2
340
22
341
23
342
23
  0
DIMSTYLE
105
EC3
330
20
100
AcDbSymbolTableRecord
100
AcDbDimStyleTableRecord
  2
Standard
 70
     0
340
15
  0
ENDTAB
  0
TABLE
  2
BLOCK_RECORD
  5
1
330
0
100
AcDbSymbolTable
 70
    74
  0
BLOCK_RECORD
  5
2
102
{ACAD_XDICTIONARY
360
F11
102
}
330
1
100
AcDbSymbolTableRecord
100
AcDbBlockTableRecord
  2
*Model_Space
340
A
  0
BLOCK_RECORD
  5
D
330
1
100
AcDbSymbolTableRecord
100
AcDbBlockTableRecord
  2
*Paper_Space
340
10
  0
BLOCK_RECORD
  5
23
102
{ACAD_XDICTIONARY
360
24
102
}
330
1
100
AcDbSymbolTableRecord
100
AcDbBlockTableRecord
  2
B-DIM
340
0
102
{BLKREFS
331
E13
331
E14
331
E1A
331
E1B
331
E23
331
E24
331
E2A
331
E2B
331
E34
331
E35
331
E3B
331
E3C
331
E41
331
E42
331
E4A
331
E4B
331
E51
331
E52
331
E58
331
E59
331
E5F
331
E60
331
E66
331
E67
331
E6F
331
E70
331
E76
331
E77
331
E80
331
E81
331
E87
331
E88
331
E8D
331
E8E
331
E96
331
E97
331
E9D
331
E9E
331
EA4
331
EA5
331
110E
331
110F
331
1118
331
1119
331
1122
331
1123
331
112C
331
112D
331
1138
331
1139
331
1142
331
1143
331
114C
331
114D
331
1156
331
1157
331
1160
331
1161
331
116A
331
116B
331
1174
331
1175
331
117E
331
117F
331
118A
331
118B
331
1194
331
1195
331
119E
331
119F
331
11A8
331
11A9
331
1368
331
1369
331
1372
331
1373
331
137E
331
137F
331
1388
331
1389
331
1394
331
1395
331
139E
331
139F
331
13A8
331
13A9
331
13B2
331
13B3
331
13BE
331
13BF
331
13C8
331
13C9
331
13D4
331
13D5
331
13DE
331
13DF
331
13EA
331
13EB
331
13F4
331
13F5
331
13FE
331
13FF
331
1408
331
1409
331
147F
331
1480
331
1486
331
1487
331
148D
331
148E
331
1494
331
1495
331
149B
331
149C
331
14A2
331
14A3
331
14A9
331
14AA
331
14B0
331
14B1
331
14B7
331
14B8
331
14BE
331
14BF
331
14C5
331
14C6
331
14CC
331
14CD
331
14D3
331
14D4
331
14DA
331
14DB
102
}
  0
BLOCK_RECORD
  5
F37
330
1
100
AcDbSymbolTableRecord
100
AcDbBlockTableRecord
  2
*D23
340
0
  0
BLOCK_RECORD
  5
F42
330
1
100
AcDbSymbolTableRecord
100
AcDbBlockTableRecord
  2
*D24
340
0
  0
BLOCK_RECORD
  5
F4D
330
1
100
AcDbSymbolTableRecord
100
AcDbBlockTableRecord
  2
*D25
340
0
  0
BLOCK_RECORD
  5
F58
330
1
100
AcDbSymbolTableRecord
100
AcDbBlockTableRecord
  2
*D26
340
0
  0
BLOCK_RECORD
  5
F63
330
1
100
AcDbSymbolTableRecord
100
AcDbBlockTableRecord
  2
*D27
340
0
  0
BLOCK_RECORD
  5
F6E
330
1
100
AcDbSymbolTableRecord
100
AcDbBlockTableRecord
  2
*D28
340
0
  0
BLOCK_RECORD
  5
F79
330
1
100
AcDbSymbolTableRecord
100
AcDbBlockTableRecord
  2
*D29
340
0
  0
BLOCK_RECORD
  5
100F
330
1
100
AcDbSymbolTableRecord
100
AcDbBlockTableRecord
  2
*D30
340
0
  0
BLOCK_RECORD
  5
1019
330
1
100
AcDbSymbolTableRecord
100
AcDbBlockTableRecord
  2
*D31
340
0
  0
BLOCK_RECORD
  5
1023
330
1
100
AcDbSymbolTableRecord
100
AcDbBlockTableRecord
  2
*D32
340
0
  0
BLOCK_RECORD
  5
102D
330
1
100
AcDbSymbolTableRecord
100
AcDbBlockTableRecord
  2
*D33
340
0
  0
BLOCK_RECORD
  5
1037
330
1
100
AcDbSymbolTableRecord
100
AcDbBlockTableRecord
  2
*D34
340
0
  0
BLOCK_RECORD
  5
1041
330
1
100
AcDbSymbolTableRecord
100
AcDbBlockTableRecord
  2
*D35
340
0
  0
BLOCK_RECORD
  5
104B
330
1
100
AcDbSymbolTableRecord
100
AcDbBlockTableRecord
  2
*D36
340
0
  0
ENDTAB
  0
ENDSEC
  0
SECTION
  2
BLOCKS
  0
BLOCK
  5
3
330
2
100
AcDbEntity
  8
0
100
AcDbBlockBegin
  2
*Model_Space
 70
     0
 10
0.0
 20
0.0
 30
0.0
  3
*Model_Space
  1

  0
ENDBLK
  5
9
330
2
100
AcDbEntity
  8
0
100
AcDbBlockEnd
  0
BLOCK
  5
E
330
D
100
AcDbEntity
 67
     1
  8
0
100
AcDbBlockBegin
  2
*Paper_Space
 70
     0
 10
0.0
 20
0.0
 30
0.0
  3
*Paper_Space
  1

  0
ENDBLK
  5
F
330
D
100
AcDbEntity
 67
     1
  8
0
100
AcDbBlockEnd
  0
BLOCK
  5
26
330
23
100
AcDbEntity
  8
0
100
AcDbBlockBegin
  2
B-DIM
 70
     0
 10
0.0
 20
0.0
 30
0.0
  3
B-DIM
  1

  0
LINE
  5
27
330
23
100
AcDbEntity
  8
0
 62
     1
100
AcDbLine
 10
0.000000000000091
 20
-1.1
 30
0.0
 11
0.000000000000091
 21
1.1
 31
0.0
  0
LWPOLYLINE
  5
28
330
23
100
AcDbEntity
  8
0
 62
     1
100
AcDbPolyline
 90
        2
 70
     0
 43
0.3
 10
-0.7071067811864851
 20
-0.7071067811864851
 10
0.707106781186576
 20
0.707106781186576
  0
LINE
  5
29
330
23
100
AcDbEntity
  8
0
 62
     1
100
AcDbLine
 10
1.20000000000009
 20
0.0
 30
0.0
 11
-1.199999999999909
 21
0.0
 31
0.0
  0
ENDBLK
  5
2A
330
23
100
AcDbEntity
  8
0
100
AcDbBlockEnd
  0
BLOCK
  5
F3F
330
F37
100
AcDbEntity
  8
0
100
AcDbBlockBegin
  2
*D23
 70
     1
 10
0.0
 20
0.0
 30
0.0
  3
*D23
  1

  0
LINE
  5
14AF
330
F37
100
AcDbEntity
  8
0Hatch
 62
     1
370
    -2
100
AcDbLine
 10
217823.0763225921
 20
135260.1604804518
 30
0.0
 11
218473.0763225921
 21
135260.1604804518
 31
0.0
  0
INSERT
  5
14B0
330
F37
100
AcDbEntity
  8
0Hatch
 62
     1
370
    -2
100
AcDbBlockReference
  2
B-DIM
 10
217793.0763225921
 20
135260.1604804518
 30
0.0
 41
30.0
 42
30.0
 43
30.0
 50
180.0
  0
INSERT
  5
14B1
330
F37
100
AcDbEntity
  8
0Hatch
 62
     1
370
    -2
100
AcDbBlockReference
  2
B-DIM
 10
218503.0763225921
 20
135260.1604804518
 30
0.0
 41
30.0
 42
30.0
 43
30.0
  0
MTEXT
  5
14B2
330
F37
100
AcDbEntity
  8
0Hatch
 62
   140
100
AcDbMText
 10
218148.0763225921
 20
135340.1604804518
 30
0.0
 40
80.0
 41
0.0
 71
     5
 72
     1
  1
\A1;710
  7
ROMANS
 73
     1
 44
1.0
1001
ACAD
1000
MTEXTBEGIN
1070
    73
1070
     1
1070
    44
1040
1.0
1070
    74
1070
     0
1000
MTEXTEND
  0
POINT
  5
14B3
330
F37
100
AcDbEntity
  8
DEFPOINTS
 62
     0
100
AcDbPoint
 10
217793.0763225921
 20
135670.0438345547
 30
-19.0
  0
POINT
  5
14B4
330
F37
100
AcDbEntity
  8
DEFPOINTS
 62
     0
100
AcDbPoint
 10
218503.0763225921
 20
135670.0438345547
 30
-19.0
  0
POINT
  5
14B5
330
F37
100
AcDbEntity
  8
DEFPOINTS
 62
     0
100
AcDbPoint
 10
218503.0763225921
 20
135260.1604804518
 30
0.0
  0
ENDBLK
  5
F40
330
F37
100
AcDbEntity
  8
0
100
AcDbBlockEnd
  0
BLOCK
  5
F4A
330
F42
100
AcDbEntity
  8
0
100
AcDbBlockBegin
  2
*D24
 70
     1
 10
0.0
 20
0.0
 30
0.0
  3
*D24
  1

  0
LINE
  5
14B6
330
F42
100
AcDbEntity
  8
0Hatch
 62
     1
370
    -2
100
AcDbLine
 10
218533.0763225921
 20
135260.1604804518
 30
0.0
 11
218833.0763225921
 21
135260.1604804518
 31
0.0
  0
INSERT
  5
14B7
330
F42
100
AcDbEntity
  8
0Hatch
 62
     1
370
    -2
100
AcDbBlockReference
  2
B-DIM
 10
218503.0763225921
 20
135260.1604804518
 30
0.0
 41
30.0
 42
30.0
 43
30.0
 50
180.0
  0
INSERT
  5
14B8
330
F42
100
AcDbEntity
  8
0Hatch
 62
     1
370
    -2
100
AcDbBlockReference
  2
B-DIM
 10
218863.0763225921
 20
135260.1604804518
 30
0.0
 41
30.0
 42
30.0
 43
30.0
  0
MTEXT
  5
14B9
330
F42
100
AcDbEntity
  8
0Hatch
 62
   140
100
AcDbMText
 10
218683.0763225921
 20
135340.1604804518
 30
0.0
 40
80.0
 41
0.0
 71
     5
 72
     1
  1
\A1;360
  7
ROMANS
 73
     1
 44
1.0
1001
ACAD
1000
MTEXTBEGIN
1070
    73
1070
     1
1070
    44
1040
1.0
1070
    74
1070
     0
1000
MTEXTEND
  0
POINT
  5
14BA
330
F42
100
AcDbEntity
  8
DEFPOINTS
 62
     0
100
AcDbPoint
 10
218503.0763225921
 20
135670.0438345547
 30
-19.0
  0
POINT
  5
14BB
330
F42
100
AcDbEntity
  8
DEFPOINTS
 62
     0
100
AcDbPoint
 10
218863.0763225921
 20
136025.0438345547
 30
-19.0
  0
POINT
  5
14BC
330
F42
100
AcDbEntity
  8
DEFPOINTS
 62
     0
100
AcDbPoint
 10
218863.0763225921
 20
135260.1604804518
 30
0.0
  0
ENDBLK
  5
F4B
330
F42
100
AcDbEntity
  8
0
100
AcDbBlockEnd
  0
BLOCK
  5
F55
330
F4D
100
AcDbEntity
  8
0
100
AcDbBlockBegin
  2
*D25
 70
     1
 10
0.0
 20
0.0
 30
0.0
  3
*D25
  1

  0
LINE
  5
14BD
330
F4D
100
AcDbEntity
  8
0Hatch
 62
     1
370
    -2
100
AcDbLine
 10
218893.0763225921
 20
135260.1604804518
 30
0.0
 11
219273.0763225921
 21
135260.1604804518
 31
0.0
  0
INSERT
  5
14BE
330
F4D
100
AcDbEntity
  8
0Hatch
 62
     1
370
    -2
100
AcDbBlockReference
  2
B-DIM
 10
218863.0763225921
 20
135260.1604804518
 30
0.0
 41
30.0
 42
30.0
 43
30.0
 50
180.0
  0
INSERT
  5
14BF
330
F4D
100
AcDbEntity
  8
0Hatch
 62
     1
370
    -2
100
AcDbBlockReference
  2
B-DIM
 10
219303.0763225921
 20
135260.1604804518
 30
0.0
 41
30.0
 42
30.0
 43
30.0
  0
MTEXT
  5
14C0
330
F4D
100
AcDbEntity
  8
0Hatch
 62
   140
100
AcDbMText
 10
219083.0763225921
 20
135340.1604804518
 30
0.0
 40
80.0
 41
0.0
 71
     5
 72
     1
  1
\A1;440
  7
ROMANS
 73
     1
 44
1.0
1001
ACAD
1000
MTEXTBEGIN
1070
    73
1070
     1
1070
    44
1040
1.0
1070
    74
1070
     0
1000
MTEXTEND
  0
POINT
  5
14C1
330
F4D
100
AcDbEntity
  8
DEFPOINTS
 62
     0
100
AcDbPoint
 10
218863.0763225921
 20
136025.0438345547
 30
-19.0
  0
POINT
  5
14C2
330
F4D
100
AcDbEntity
  8
DEFPOINTS
 62
     0
100
AcDbPoint
 10
219303.0763225921
 20
136025.0438345547
 30
-19.0
  0
POINT
  5
14C3
330
F4D
100
AcDbEntity
  8
DEFPOINTS
 62
     0
100
AcDbPoint
 10
219303.0763225921
 20
135260.1604804518
 30
0.0
  0
ENDBLK
  5
F56
330
F4D
100
AcDbEntity
  8
0
100
AcDbBlockEnd
  0
BLOCK
  5
F60
330
F58
100
AcDbEntity
  8
0
100
AcDbBlockBegin
  2
*D26
 70
     1
 10
0.0
 20
0.0
 30
0.0
  3
*D26
  1

  0
LINE
  5
14CB
330
F58
100
AcDbEntity
  8
0Wymiary-PL
 62
     1
370
    -2
100
AcDbLine
 10
217584.4881865603
 20
135750.0438345547
 30
0.0
 11
217584.4881865603
 21
136634.2873910845
 31
0.0
  0
INSERT
  5
14CC
330
F58
100
AcDbEntity
  8
0Wymiary-PL
 62
     1
370
    -2
100
AcDbBlockReference
  2
B-DIM
 10
217584.4881865603
 20
135720.0438345547
 30
0.0
 41
30.0
 42
30.0
 43
30.0
 50
270.0
  0
INSERT
  5
14CD
330
F58
100
AcDbEntity
  8
0Wymiary-PL
 62
     1
370
    -2
100
AcDbBlockReference
  2
B-DIM
 10
217584.4881865603
 20
136664.2873910845
 30
0.0
 41
30.0
 42
30.0
 43
30.0
 50
90.0
  0
MTEXT
  5
14CE
330
F58
100
AcDbEntity
  8
0Wymiary-PL
 62
   140
100
AcDbMText
 10
217504.4881865602
 20
136192.1656128197
 30
0.0
 40
80.0
 41
0.0
 71
     5
 72
     1
  1
\A1;944
  7
ROMANS
 11
0.0000000000000001
 21
1.0
 31
0.0
 73
     1
 44
1.0
1001
ACAD
1000
MTEXTBEGIN
1070
    73
1070
     1
1070
    44
1040
1.0
1070
    74
1070
     0
1000
MTEXTEND
  0
POINT
  5
14CF
330
F58
100
AcDbEntity
  8
DEFPOINTS
 62
     0
100
AcDbPoint
 10
217743.0763225921
 20
135720.0438345547
 30
-19.0
  0
POINT
  5
14D0
330
F58
100
AcDbEntity
  8
DEFPOINTS
 62
     0
100
AcDbPoint
 10
217743.0763225921
 20
136664.2873910845
 30
-19.0
  0
POINT
  5
14D1
330
F58
100
AcDbEntity
  8
DEFPOINTS
 62
     0
100
AcDbPoint
 10
217584.4881865603
 20
136664.2873910845
 30
0.0
  0
ENDBLK
  5
F61
330
F58
100
AcDbEntity
  8
0
100
AcDbBlockEnd
  0
BLOCK
  5
F6B
330
F63
100
AcDbEntity
  8
0
100
AcDbBlockBegin
  2
*D27
 70
     1
 10
0.0
 20
0.0
 30
0.0
  3
*D27
  1

  0
LINE
  5
14D2
330
F63
100
AcDbEntity
  8
0Hatch
 62
     1
370
    -2
100
AcDbLine
 10
217584.4881865603
 20
136694.2873910845
 30
0.0
 11
217584.4881865603
 21
136965.0438345547
 31
0.0
  0
INSERT
  5
14D3
330
F63
100
AcDbEntity
  8
0Hatch
 62
     1
370
    -2
100
AcDbBlockReference
  2
B-DIM
 10
217584.4881865603
 20
136664.2873910845
 30
0.0
 41
30.0
 42
30.0
 43
30.0
 50
270.0
  0
INSERT
  5
14D4
330
F63
100
AcDbEntity
  8
0Hatch
 62
     1
370
    -2
100
AcDbBlockReference
  2
B-DIM
 10
217584.4881865603
 20
136995.0438345547
 30
0.0
 41
30.0
 42
30.0
 43
30.0
 50
90.0
  0
MTEXT
  5
14D5
330
F63
100
AcDbEntity
  8
0Hatch
 62
   140
100
AcDbMText
 10
217504.4881865602
 20
136829.6656128197
 30
0.0
 40
80.0
 41
0.0
 71
     5
 72
     1
  1
\A1;331
  7
ROMANS
 11
0.0000000000000001
 21
1.0
 31
0.0
 73
     1
 44
1.0
1001
ACAD
1000
MTEXTBEGIN
1070
    73
1070
     1
1070
    44
1040
1.0
1070
    74
1070
     0
1000
MTEXTEND
  0
POINT
  5
14D6
330
F63
100
AcDbEntity
  8
DEFPOINTS
 62
     0
100
AcDbPoint
 10
218053.076322592
 20
136664.2873910845
 30
-19.0
  0
POINT
  5
14D7
330
F63
100
AcDbEntity
  8
DEFPOINTS
 62
     0
100
AcDbPoint
 10
218053.076322592
 20
136995.0438345547
 30
-19.0
  0
POINT
  5
14D8
330
F63
100
AcDbEntity
  8
DEFPOINTS
 62
     0
100
AcDbPoint
 10
217584.4881865603
 20
136995.0438345547
 30
0.0
  0
ENDBLK
  5
F6C
330
F63
100
AcDbEntity
  8
0
100
AcDbBlockEnd
  0
BLOCK
  5
F76
330
F6E
100
AcDbEntity
  8
0
100
AcDbBlockBegin
  2
*D28
 70
     1
 10
0.0
 20
0.0
 30
0.0
  3
*D28
  1

  0
LINE
  5
14D9
330
F6E
100
AcDbEntity
  8
0Hatch
 62
     1
370
    -2
100
AcDbLine
 10
217408.271524976
 20
136965.0438345547
 30
0.0
 11
217408.271524976
 21
135750.0438345547
 31
0.0
  0
INSERT
  5
14DA
330
F6E
100
AcDbEntity
  8
0Hatch
 62
     1
370
    -2
100
AcDbBlockReference
  2
B-DIM
 10
217408.271524976
 20
136995.0438345547
 30
0.0
 41
30.0
 42
30.0
 43
30.0
 50
90.0
  0
INSERT
  5
14DB
330
F6E
100
AcDbEntity
  8
0Hatch
 62
     1
370
    -2
100
AcDbBlockReference
  2
B-DIM
 10
217408.271524976
 20
135720.0438345547
 30
0.0
 41
30.0
 42
30.0
 43
30.0
 50
270.0
  0
MTEXT
  5
14DC
330
F6E
100
AcDbEntity
  8
0Hatch
 62
   140
100
AcDbMText
 10
217328.2715249759
 20
136357.5438345548
 30
0.0
 40
80.0
 41
0.0
 71
     5
 72
     1
  1
\A1;1275
  7
ROMANS
 11
0.0000000000000001
 21
1.0
 31
0.0
 73
     1
 44
1.0
1001
ACAD
1000
MTEXTBEGIN
1070
    73
1070
     1
1070
    44
1040
1.0
1070
    74
1070
     0
1000
MTEXTEND
  0
POINT
  5
14DD
330
F6E
100
AcDbEntity
  8
DEFPOINTS
 62
     0
100
AcDbPoint
 10
218053.076322592
 20
136995.0438345547
 30
-19.0
  0
POINT
  5
14DE
330
F6E
100
AcDbEntity
  8
DEFPOINTS
 62
     0
100
AcDbPoint
 10
218053.076322592
 20
135720.0438345547
 30
-19.0
  0
POINT
  5
14DF
330
F6E
100
AcDbEntity
  8
DEFPOINTS
 62
     0
100
AcDbPoint
 10
217408.271524976
 20
135720.0438345547
 30
0.0
  0
ENDBLK
  5
F77
330
F6E
100
AcDbEntity
  8
0
100
AcDbBlockEnd
  0
BLOCK
  5
F81
330
F79
100
AcDbEntity
  8
0
100
AcDbBlockBegin
  2
*D29
 70
     1
 10
0.0
 20
0.0
 30
0.0
  3
*D29
  1

  0
LINE
  5
14C4
330
F79
100
AcDbEntity
  8
0Hatch
 62
     1
370
    -2
100
AcDbLine
 10
217823.0763225921
 20
135048.9020368902
 30
0.0
 11
219273.0763225921
 21
135048.9020368902
 31
0.0
  0
INSERT
  5
14C5
330
F79
100
AcDbEntity
  8
0Hatch
 62
     1
370
    -2
100
AcDbBlockReference
  2
B-DIM
 10
217793.0763225921
 20
135048.9020368902
 30
0.0
 41
30.0
 42
30.0
 43
30.0
 50
180.0
  0
INSERT
  5
14C6
330
F79
100
AcDbEntity
  8
0Hatch
 62
     1
370
    -2
100
AcDbBlockReference
  2
B-DIM
 10
219303.0763225921
 20
135048.9020368902
 30
0.0
 41
30.0
 42
30.0
 43
30.0
  0
MTEXT
  5
14C7
330
F79
100
AcDbEntity
  8
0Hatch
 62
   140
100
AcDbMText
 10
218548.0763225921
 20
135128.9020368902
 30
0.0
 40
80.0
 41
0.0
 71
     5
 72
     1
  1
\A1;1510
  7
ROMANS
 73
     1
 44
1.0
1001
ACAD
1000
MTEXTBEGIN
1070
    73
1070
     1
1070
    44
1040
1.0
1070
    74
1070
     0
1000
MTEXTEND
  0
POINT
  5
14C8
330
F79
100
AcDbEntity
  8
DEFPOINTS
 62
     0
100
AcDbPoint
 10
217793.0763225921
 20
135670.0438345547
 30
-19.0
  0
POINT
  5
14C9
330
F79
100
AcDbEntity
  8
DEFPOINTS
 62
     0
100
AcDbPoint
 10
219303.0763225921
 20
136025.0438345547
 30
-19.0
  0
POINT
  5
14CA
330
F79
100
AcDbEntity
  8
DEFPOINTS
 62
     0
100
AcDbPoint
 10
219303.0763225921
 20
135048.9020368902
 30
0.0
  0
ENDBLK
  5
F82
330
F79
100
AcDbEntity
  8
0
100
AcDbBlockEnd
  0
BLOCK
  5
1017
330
100F
100
AcDbEntity
  8
0
100
AcDbBlockBegin
  2
*D30
 70
     1
 10
0.0
 20
0.0
 30
0.0
  3
*D30
  1

  0
LINE
  5
1493
330
100F
100
AcDbEntity
  8
0Hatch
 62
     1
370
    -2
100
AcDbLine
 10
222976.702167153
 20
135260.1604804518
 30
0.0
 11
222326.702167153
 21
135260.1604804518
 31
0.0
  0
INSERT
  5
1494
330
100F
100
AcDbEntity
  8
0Hatch
 62
     1
370
    -2
100
AcDbBlockReference
  2
B-DIM
 10
223006.702167153
 20
135260.1604804518
 30
0.0
 41
30.0
 42
30.0
 43
30.0
  0
INSERT
  5
1495
330
100F
100
AcDbEntity
  8
0Hatch
 62
     1
370
    -2
100
AcDbBlockReference
  2
B-DIM
 10
222296.702167153
 20
135260.1604804518
 30
0.0
 41
30.0
 42
30.0
 43
30.0
 50
180.0
  0
MTEXT
  5
1496
330
100F
100
AcDbEntity
  8
0Hatch
 62
   140
100
AcDbMText
 10
222651.702167153
 20
135340.1604804518
 30
0.0
 40
80.0
 41
0.0
 71
     5
 72
     1
  1
\A1;710
  7
ROMANS
 73
     1
 44
1.0
1001
ACAD
1000
MTEXTBEGIN
1070
    73
1070
     1
1070
    44
1040
1.0
1070
    74
1070
     0
1000
MTEXTEND
  0
POINT
  5
1497
330
100F
100
AcDbEntity
  8
DEFPOINTS
 62
     0
100
AcDbPoint
 10
223006.702167153
 20
135670.0438345547
 30
-19.0
  0
POINT
  5
1498
330
100F
100
AcDbEntity
  8
DEFPOINTS
 62
     0
100
AcDbPoint
 10
222296.702167153
 20
135670.0438345547
 30
-19.0
  0
POINT
  5
1499
330
100F
100
AcDbEntity
  8
DEFPOINTS
 62
     0
100
AcDbPoint
 10
222296.702167153
 20
135260.1604804518
 30
0.0
  0
ENDBLK
  5
1018
330
100F
100
AcDbEntity
  8
0
100
AcDbBlockEnd
  0
BLOCK
  5
1021
330
1019
100
AcDbEntity
  8
0
100
AcDbBlockBegin
  2
*D31
 70
     1
 10
0.0
 20
0.0
 30
0.0
  3
*D31
  1

  0
LINE
  5
149A
330
1019
100
AcDbEntity
  8
0Hatch
 62
     1
370
    -2
100
AcDbLine
 10
222266.702167153
 20
135260.1604804518
 30
0.0
 11
221966.702167153
 21
135260.1604804518
 31
0.0
  0
INSERT
  5
149B
330
1019
100
AcDbEntity
  8
0Hatch
 62
     1
370
    -2
100
AcDbBlockReference
  2
B-DIM
 10
222296.702167153
 20
135260.1604804518
 30
0.0
 41
30.0
 42
30.0
 43
30.0
  0
INSERT
  5
149C
330
1019
100
AcDbEntity
  8
0Hatch
 62
     1
370
    -2
100
AcDbBlockReference
  2
B-DIM
 10
221936.702167153
 20
135260.1604804518
 30
0.0
 41
30.0
 42
30.0
 43
30.0
 50
180.0
  0
MTEXT
  5
149D
330
1019
100
AcDbEntity
  8
0Hatch
 62
   140
100
AcDbMText
 10
222116.702167153
 20
135340.1604804518
 30
0.0
 40
80.0
 41
0.0
 71
     5
 72
     1
  1
\A1;360
  7
ROMANS
 73
     1
 44
1.0
1001
ACAD
1000
MTEXTBEGIN
1070
    73
1070
     1
1070
    44
1040
1.0
1070
    74
1070
     0
1000
MTEXTEND
  0
POINT
  5
149E
330
1019
100
AcDbEntity
  8
DEFPOINTS
 62
     0
100
AcDbPoint
 10
222296.702167153
 20
135670.0438345547
 30
-19.0
  0
POINT
  5
149F
330
1019
100
AcDbEntity
  8
DEFPOINTS
 62
     0
100
AcDbPoint
 10
221936.702167153
 20
136025.0438345547
 30
-19.0
  0
POINT
  5
14A0
330
1019
100
AcDbEntity
  8
DEFPOINTS
 62
     0
100
AcDbPoint
 10
221936.702167153
 20
135260.1604804518
 30
0.0
  0
ENDBLK
  5
1022
330
1019
100
AcDbEntity
  8
0
100
AcDbBlockEnd
  0
BLOCK
  5
102B
330
1023
100
AcDbEntity
  8
0
100
AcDbBlockBegin
  2
*D32
 70
     1
 10
0.0
 20
0.0
 30
0.0
  3
*D32
  1

  0
LINE
  5
14A1
330
1023
100
AcDbEntity
  8
0Hatch
 62
     1
370
    -2
100
AcDbLine
 10
221906.702167153
 20
135260.1604804518
 30
0.0
 11
221526.702167153
 21
135260.1604804518
 31
0.0
  0
INSERT
  5
14A2
330
1023
100
AcDbEntity
  8
0Hatch
 62
     1
370
    -2
100
AcDbBlockReference
  2
B-DIM
 10
221936.702167153
 20
135260.1604804518
 30
0.0
 41
30.0
 42
30.0
 43
30.0
  0
INSERT
  5
14A3
330
1023
100
AcDbEntity
  8
0Hatch
 62
     1
370
    -2
100
AcDbBlockReference
  2
B-DIM
 10
221496.702167153
 20
135260.1604804518
 30
0.0
 41
30.0
 42
30.0
 43
30.0
 50
180.0
  0
MTEXT
  5
14A4
330
1023
100
AcDbEntity
  8
0Hatch
 62
   140
100
AcDbMText
 10
221716.702167153
 20
135340.1604804518
 30
0.0
 40
80.0
 41
0.0
 71
     5
 72
     1
  1
\A1;440
  7
ROMANS
 73
     1
 44
1.0
1001
ACAD
1000
MTEXTBEGIN
1070
    73
1070
     1
1070
    44
1040
1.0
1070
    74
1070
     0
1000
MTEXTEND
  0
POINT
  5
14A5
330
1023
100
AcDbEntity
  8
DEFPOINTS
 62
     0
100
AcDbPoint
 10
221936.702167153
 20
136025.0438345547
 30
-19.0
  0
POINT
  5
14A6
330
1023
100
AcDbEntity
  8
DEFPOINTS
 62
     0
100
AcDbPoint
 10
221496.702167153
 20
136025.0438345547
 30
-19.0
  0
POINT
  5
14A7
330
1023
100
AcDbEntity
  8
DEFPOINTS
 62
     0
100
AcDbPoint
 10
221496.702167153
 20
135260.1604804518
 30
0.0
  0
ENDBLK
  5
102C
330
1023
100
AcDbEntity
  8
0
100
AcDbBlockEnd
  0
BLOCK
  5
1035
330
102D
100
AcDbEntity
  8
0
100
AcDbBlockBegin
  2
*D33
 70
     1
 10
0.0
 20
0.0
 30
0.0
  3
*D33
  1

  0
LINE
  5
147E
330
102D
100
AcDbEntity
  8
0Wymiary-PL
 62
     1
370
    -2
100
AcDbLine
 10
223215.2903031848
 20
135750.0438345547
 30
0.0
 11
223215.2903031848
 21
136634.2873910845
 31
0.0
  0
INSERT
  5
147F
330
102D
100
AcDbEntity
  8
0Wymiary-PL
 62
     1
370
    -2
100
AcDbBlockReference
  2
B-DIM
 10
223215.2903031848
 20
135720.0438345547
 30
0.0
 41
30.0
 42
30.0
 43
30.0
 50
270.0
  0
INSERT
  5
1480
330
102D
100
AcDbEntity
  8
0Wymiary-PL
 62
     1
370
    -2
100
AcDbBlockReference
  2
B-DIM
 10
223215.2903031848
 20
136664.2873910845
 30
0.0
 41
30.0
 42
30.0
 43
30.0
 50
90.0
  0
MTEXT
  5
1481
330
102D
100
AcDbEntity
  8
0Wymiary-PL
 62
   140
100
AcDbMText
 10
223135.2903031848
 20
136192.1656128197
 30
0.0
 40
80.0
 41
0.0
 71
     5
 72
     1
  1
\A1;944
  7
ROMANS
 11
0.0000000000000001
 21
1.0
 31
0.0
 73
     1
 44
1.0
1001
ACAD
1000
MTEXTBEGIN
1070
    73
1070
     1
1070
    44
1040
1.0
1070
    74
1070
     0
1000
MTEXTEND
  0
POINT
  5
1482
330
102D
100
AcDbEntity
  8
DEFPOINTS
 62
     0
100
AcDbPoint
 10
223056.702167153
 20
135720.0438345547
 30
-19.0
  0
POINT
  5
1483
330
102D
100
AcDbEntity
  8
DEFPOINTS
 62
     0
100
AcDbPoint
 10
223056.702167153
 20
136664.2873910845
 30
-19.0
  0
POINT
  5
1484
330
102D
100
AcDbEntity
  8
DEFPOINTS
 62
     0
100
AcDbPoint
 10
223215.2903031848
 20
136664.2873910845
 30
0.0
  0
ENDBLK
  5
1036
330
102D
100
AcDbEntity
  8
0
100
AcDbBlockEnd
  0
BLOCK
  5
103F
330
1037
100
AcDbEntity
  8
0
100
AcDbBlockBegin
  2
*D34
 70
     1
 10
0.0
 20
0.0
 30
0.0
  3
*D34
  1

  0
LINE
  5
1485
330
1037
100
AcDbEntity
  8
0Hatch
 62
     1
370
    -2
100
AcDbLine
 10
223215.2903031848
 20
136694.2873910845
 30
0.0
 11
223215.2903031848
 21
136965.0438345547
 31
0.0
  0
INSERT
  5
1486
330
1037
100
AcDbEntity
  8
0Hatch
 62
     1
370
    -2
100
AcDbBlockReference
  2
B-DIM
 10
223215.2903031848
 20
136664.2873910845
 30
0.0
 41
30.0
 42
30.0
 43
30.0
 50
270.0
  0
INSERT
  5
1487
330
1037
100
AcDbEntity
  8
0Hatch
 62
     1
370
    -2
100
AcDbBlockReference
  2
B-DIM
 10
223215.2903031848
 20
136995.0438345547
 30
0.0
 41
30.0
 42
30.0
 43
30.0
 50
90.0
  0
MTEXT
  5
1488
330
1037
100
AcDbEntity
  8
0Hatch
 62
   140
100
AcDbMText
 10
223135.2903031848
 20
136829.6656128197
 30
0.0
 40
80.0
 41
0.0
 71
     5
 72
     1
  1
\A1;331
  7
ROMANS
 11
0.0000000000000001
 21
1.0
 31
0.0
 73
     1
 44
1.0
1001
ACAD
1000
MTEXTBEGIN
1070
    73
1070
     1
1070
    44
1040
1.0
1070
    74
1070
     0
1000
MTEXTEND
  0
POINT
  5
1489
330
1037
100
AcDbEntity
  8
DEFPOINTS
 62
     0
100
AcDbPoint
 10
222746.7021671531
 20
136664.2873910845
 30
-19.0
  0
POINT
  5
148A
330
1037
100
AcDbEntity
  8
DEFPOINTS
 62
     0
100
AcDbPoint
 10
222746.7021671531
 20
136995.0438345547
 30
-19.0
  0
POINT
  5
148B
330
1037
100
AcDbEntity
  8
DEFPOINTS
 62
     0
100
AcDbPoint
 10
223215.2903031848
 20
136995.0438345547
 30
0.0
  0
ENDBLK
  5
1040
330
1037
100
AcDbEntity
  8
0
100
AcDbBlockEnd
  0
BLOCK
  5
1049
330
1041
100
AcDbEntity
  8
0
100
AcDbBlockBegin
  2
*D35
 70
     1
 10
0.0
 20
0.0
 30
0.0
  3
*D35
  1

  0
LINE
  5
148C
330
1041
100
AcDbEntity
  8
0Hatch
 62
     1
370
    -2
100
AcDbLine
 10
223391.5069647691
 20
136965.0438345547
 30
0.0
 11
223391.5069647691
 21
135750.0438345547
 31
0.0
  0
INSERT
  5
148D
330
1041
100
AcDbEntity
  8
0Hatch
 62
     1
370
    -2
100
AcDbBlockReference
  2
B-DIM
 10
223391.5069647691
 20
136995.0438345547
 30
0.0
 41
30.0
 42
30.0
 43
30.0
 50
90.0
  0
INSERT
  5
148E
330
1041
100
AcDbEntity
  8
0Hatch
 62
     1
370
    -2
100
AcDbBlockReference
  2
B-DIM
 10
223391.5069647691
 20
135720.0438345547
 30
0.0
 41
30.0
 42
30.0
 43
30.0
 50
270.0
  0
MTEXT
  5
148F
330
1041
100
AcDbEntity
  8
0Hatch
 62
   140
100
AcDbMText
 10
223311.5069647691
 20
136357.5438345548
 30
0.0
 40
80.0
 41
0.0
 71
     5
 72
     1
  1
\A1;1275
  7
ROMANS
 11
0.0000000000000001
 21
1.0
 31
0.0
 73
     1
 44
1.0
1001
ACAD
1000
MTEXTBEGIN
1070
    73
1070
     1
1070
    44
1040
1.0
1070
    74
1070
     0
1000
MTEXTEND
  0
POINT
  5
1490
330
1041
100
AcDbEntity
  8
DEFPOINTS
 62
     0
100
AcDbPoint
 10
222746.7021671531
 20
136995.0438345547
 30
-19.0
  0
POINT
  5
1491
330
1041
100
AcDbEntity
  8
DEFPOINTS
 62
     0
100
AcDbPoint
 10
222746.7021671531
 20
135720.0438345547
 30
-19.0
  0
POINT
  5
1492
330
1041
100
AcDbEntity
  8
DEFPOINTS
 62
     0
100
AcDbPoint
 10
223391.5069647691
 20
135720.0438345547
 30
0.0
  0
ENDBLK
  5
104A
330
1041
100
AcDbEntity
  8
0
100
AcDbBlockEnd
  0
BLOCK
  5
1053
330
104B
100
AcDbEntity
  8
0
100
AcDbBlockBegin
  2
*D36
 70
     1
 10
0.0
 20
0.0
 30
0.0
  3
*D36
  1

  0
LINE
  5
14A8
330
104B
100
AcDbEntity
  8
0Hatch
 62
     1
370
    -2
100
AcDbLine
 10
222976.702167153
 20
135048.9020368902
 30
0.0
 11
221526.702167153
 21
135048.9020368902
 31
0.0
  0
INSERT
  5
14A9
330
104B
100
AcDbEntity
  8
0Hatch
 62
     1
370
    -2
100
AcDbBlockReference
  2
B-DIM
 10
223006.702167153
 20
135048.9020368902
 30
0.0
 41
30.0
 42
30.0
 43
30.0
  0
INSERT
  5
14AA
330
104B
100
AcDbEntity
  8
0Hatch
 62
     1
370
    -2
100
AcDbBlockReference
  2
B-DIM
 10
221496.702167153
 20
135048.9020368902
 30
0.0
 41
30.0
 42
30.0
 43
30.0
 50
180.0
  0
MTEXT
  5
14AB
330
104B
100
AcDbEntity
  8
0Hatch
 62
   140
100
AcDbMText
 10
222251.702167153
 20
135128.9020368902
 30
0.0
 40
80.0
 41
0.0
 71
     5
 72
     1
  1
\A1;1510
  7
ROMANS
 73
     1
 44
1.0
1001
ACAD
1000
MTEXTBEGIN
1070
    73
1070
     1
1070
    44
1040
1.0
1070
    74
1070
     0
1000
MTEXTEND
  0
POINT
  5
14AC
330
104B
100
AcDbEntity
  8
DEFPOINTS
 62
     0
100
AcDbPoint
 10
223006.702167153
 20
135670.0438345547
 30
-19.0
  0
POINT
  5
14AD
330
104B
100
AcDbEntity
  8
DEFPOINTS
 62
     0
100
AcDbPoint
 10
221496.702167153
 20
136025.0438345547
 30
-19.0
  0
POINT
  5
14AE
330
104B
100
AcDbEntity
  8
DEFPOINTS
 62
     0
100
AcDbPoint
 10
221496.702167153
 20
135048.9020368902
 30
0.0
  0
ENDBLK
  5
1054
330
104B
100
AcDbEntity
  8
0
100
AcDbBlockEnd
  0
ENDSEC
  0
SECTION
  2
ENTITIES
  0
TEXT
  5
142
330
2
100
AcDbEntity
  8
NAPISY
100
AcDbText
 10
216646.5520012698
 20
128323.0717886572
 30
0.0
 40
100.0
  1
   O B R Y S   B U D Y N K U           S K A L A   1 : 5 0 0 
  7
AVA
100
AcDbText
  0
LINE
  5
157
330
2
100
AcDbEntity
  8
NAPISY
  6
HIDDEN
 62
     1
100
AcDbLine
 10
220399.8892448725
 20
133670.6627583035
 30
0.0
 11
220399.8892448725
 21
138473.1198157809
 31
0.0
  0
TEXT
  5
159
330
2
100
AcDbEntity
  8
NAPISY
100
AcDbText
 10
220340.3680678792
 20
134752.3099211241
 30
0.0
 40
100.0
  1
OŚ ODBICIA LUSTRZANEGO
 50
90.0
  7
AVA
100
AcDbText
  0
TEXT
  5
15B
330
2
100
AcDbEntity
  8
NAPISY
100
AcDbText
 10
216742.7650523877
 20
140786.437049539
 30
0.0
 40
150.0
  1
MOŻNA WKLEIĆ DO PROJEKTU ZAGOSPODAROWANIA TERENU
  7
AVA
100
AcDbText
  0
TEXT
  5
15C
330
2
100
AcDbEntity
  8
NAPISY
100
AcDbText
 10
216666.4297817526
 20
141116.3055269018
 30
0.0
 40
150.0
  1
"DOM W ARBUZACH"
  7
AVA
100
AcDbText
  0
LWPOLYLINE
  5
15D
330
2
100
AcDbEntity
  8
RAMKI-A4
100
AcDbPolyline
 90
        4
 70
     1
 43
0.0
 10
215187.2000545948
 20
127657.5157057546
 10
215187.2000545948
 20
141677.5157057546
 10
225387.2000545948
 20
141677.5157057546
 10
225387.2000545948
 20
127657.5157057546
  0
LWPOLYLINE
  5
EEA
102
{ACAD_REACTORS
330
F10
330
F23
330
F2C
102
}
330
2
100
AcDbEntity
  8
0Hatch
100
AcDbPolyline
 90
       10
 70
     1
 43
0.0
 10
217793.0763225921
 20
135720.0438345547
 10
217793.0763225921
 20
136664.2873910845
 10
218103.076322592
 20
136664.2873910845
 10
218103.076322592
 20
136995.0438345547
 10
219303.0763225921
 20
136995.0438345547
 10
219303.0763225921
 20
136075.0438345547
 10
218863.0763225921
 20
136075.0438345547
 10
218863.0763225921
 20
136135.0438345547
 10
218503.0763225921
 20
136135.0438345547
 10
218503.0763225921
 20
135720.0438345547
  0
LWPOLYLINE
  5
EEB
102
{ACAD_REACTORS
330
F10
330
F23
330
F2C
102
}
330
2
100
AcDbEntity
  8
0Hatch
100
AcDbPolyline
 90
       10
 70
     1
 43
0.0
 10
217853.0763225921
 20
135780.0438345547
 10
217853.0763225921
 20
136604.2873910845
 10
218163.076322592
 20
136604.2873910845
 10
218163.076322592
 20
136935.0438345547
 10
219243.0763225921
 20
136935.0438345547
 10
219243.0763225921
 20
136135.0438345547
 10
218923.0763225921
 20
136135.0438345547
 10
218923.0763225921
 20
136195.0438345547
 10
218443.0763225921
 20
136195.0438345547
 10
218443.0763225921
 20
135780.0438345547
  0
LINE
  5
EEC
102
{ACAD_REACTORS
330
F10
102
}
330
2
100
AcDbEntity
  8
0Hatch
100
AcDbLine
 10
217898.0763225921
 20
135720.0438345547
 30
0.0
 11
217898.0763225921
 21
135780.0438345547
 31
0.0
  0
LINE
  5
EED
102
{ACAD_REACTORS
330
F2C
102
}
330
2
100
AcDbEntity
  8
0Hatch
100
AcDbLine
 10
218398.0763225921
 20
135720.0438345547
 30
0.0
 11
218398.0763225921
 21
135780.0438345547
 31
0.0
  0
LINE
  5
EEE
102
{ACAD_REACTORS
330
F2C
102
}
330
2
100
AcDbEntity
  8
0Hatch
100
AcDbLine
 10
218658.055554529
 20
136135.0438345547
 30
0.0
 11
218658.055554529
 21
136195.0438345547
 31
0.0
  0
LINE
  5
EEF
102
{ACAD_REACTORS
330
F23
102
}
330
2
100
AcDbEntity
  8
0Hatch
100
AcDbLine
 10
218818.0555545291
 20
136135.0438345547
 30
0.0
 11
218818.0555545291
 21
136195.0438345547
 31
0.0
  0
LINE
  5
EF0
102
{ACAD_REACTORS
330
F10
102
}
330
2
100
AcDbEntity
  8
0Hatch
100
AcDbLine
 10
217895.0763225921
 20
136664.2873910845
 30
0.0
 11
217895.0763225921
 21
136604.2873910845
 31
0.0
  0
LINE
  5
EF1
102
{ACAD_REACTORS
330
F23
102
}
330
2
100
AcDbEntity
  8
0Hatch
100
AcDbLine
 10
217995.0763225921
 20
136664.2873910845
 30
0.0
 11
217995.0763225921
 21
136604.2873910845
 31
0.0
  0
LINE
  5
EF2
330
2
100
AcDbEntity
  8
0Hatch
100
AcDbLine
 10
218503.0763225921
 20
135975.0438345547
 30
0.0
 11
218763.0763225921
 21
135975.0438345547
 31
0.0
  0
ARC
  5
EF3
330
2
100
AcDbEntity
  8
0Hatch
100
AcDbCircle
 10
218763.0763225921
 20
136075.0438345547
 30
0.0
 40
100.0000000000036
100
AcDbArc
 50
270.0
 51
0.0
  0
LINE
  5
EF4
330
2
100
AcDbEntity
  8
0Hatch
100
AcDbLine
 10
218503.0763225921
 20
135945.043837648
 30
0.0
 11
218763.0479630282
 21
135945.043837648
 31
0.0
  0
ARC
  5
EF5
330
2
100
AcDbEntity
  8
0Hatch
100
AcDbCircle
 10
218763.0763225921
 20
136075.0438345547
 30
0.0
 40
130.0000000000037
100
AcDbArc
 50
269.9875008971271
 51
0.0
  0
LINE
  5
EF6
330
2
100
AcDbEntity
  8
0Hatch
100
AcDbLine
 10
218103.076322592
 20
136744.2873910845
 30
0.0
 11
217960.0763225921
 21
136744.2873910845
 31
0.0
  0
ARC
  5
EF7
330
2
100
AcDbEntity
  8
0Hatch
100
AcDbCircle
 10
217960.0763225921
 20
136664.2873910845
 30
0.0
 40
79.9999999999979
100
AcDbArc
 50
90.0
 51
180.0
  0
LINE
  5
EF8
330
2
100
AcDbEntity
  8
0Hatch
100
AcDbLine
 10
219303.0763225921
 20
136995.0438345547
 30
0.0
 11
219303.0289776745
 21
137116.7414610005
 31
0.0
  0
ARC
  5
EF9
330
2
100
AcDbEntity
  8
0Hatch
100
AcDbCircle
 10
219151.8195146961
 20
137193.891980994
 30
0.0
 40
169.7542471618618
100
AcDbArc
 50
332.968287452353
 51
172.8123527591012
  0
LINE
  5
EFA
330
2
100
AcDbEntity
  8
0Hatch
100
AcDbLine
 10
218983.3992473958
 20
137215.131519407
 30
0.0
 11
218543.076322592
 21
137215.131519407
 31
0.0
  0
LINE
  5
EFB
330
2
100
AcDbEntity
  8
0Hatch
100
AcDbLine
 10
218543.076322592
 20
137215.131519407
 30
0.0
 11
218543.076322592
 21
136995.0438345547
 31
0.0
  0
LINE
  5
EFC
330
2
100
AcDbEntity
  8
0Hatch
100
AcDbLine
 10
219303.0753265588
 20
136995.1563875002
 30
0.0
 11
219303.031532512
 21
137116.594309386
 31
0.0
  0
ARC
  5
EFD
330
2
100
AcDbEntity
  8
0Hatch
100
AcDbCircle
 10
219151.764574102
 20
137194.1524235894
 30
0.0
 40
169.9910403091564
100
AcDbArc
 50
332.8547225419892
 51
162.548833050446
  0
LINE
  5
EFE
330
2
100
AcDbEntity
  8
0Hatch
100
AcDbLine
 10
218989.5977292323
 20
137245.131519407
 30
0.0
 11
218513.076322592
 21
137245.131519407
 31
0.0
  0
LINE
  5
EFF
330
2
100
AcDbEntity
  8
0Hatch
100
AcDbLine
 10
218513.076322592
 20
137245.131519407
 30
0.0
 11
218513.076322592
 21
136995.0423915664
 31
0.0
  0
LINE
  5
F00
330
2
100
AcDbEntity
  8
0Hatch
100
AcDbLine
 10
218418.0763225921
 20
135565.0438345547
 30
0.0000000000000036
 11
218418.0763225921
 21
135720.0438345547
 31
-0.0000000000000036
  0
LINE
  5
F01
330
2
100
AcDbEntity
  8
0Hatch
100
AcDbLine
 10
217878.0763225921
 20
135565.0438345547
 30
-0.0000000000000995
 11
217878.0763225921
 21
135720.0438345547
 31
-0.0000000000002274
  0
LINE
  5
F02
330
2
100
AcDbEntity
  8
0Hatch
100
AcDbLine
 10
218418.0763225921
 20
135620.0438345547
 30
0.0000000000000036
 11
217878.0763225921
 21
135620.0438345547
 31
0.0000000000000071
  0
LINE
  5
F03
330
2
100
AcDbEntity
  8
0Hatch
100
AcDbLine
 10
218418.0763225921
 20
135565.0438345547
 30
0.0000000000000036
 11
217878.0763225921
 21
135565.0438345547
 31
0.0000000000000071
  0
LINE
  5
F04
330
2
100
AcDbEntity
  8
0Hatch
100
AcDbLine
 10
218418.0763225921
 20
135565.0438345547
 30
0.0000000000000107
 11
217878.0763225921
 21
135565.0438345547
 31
0.0000000000000142
  0
LINE
  5
F05
330
2
100
AcDbEntity
  8
0Hatch
100
AcDbLine
 10
218148.0763225921
 20
135618.9765724999
 30
19.0
 11
218418.0763225921
 21
135565.0438345547
 31
0.0000000000000107
  0
LINE
  5
F06
330
2
100
AcDbEntity
  8
0Hatch
100
AcDbLine
 10
218148.0763225921
 20
135618.9765724999
 30
19.0
 11
217878.0763225921
 21
135565.0438345547
 31
0.0000000000000107
  0
HATCH
  5
F10
330
2
100
AcDbEntity
  8
0Hatch
100
AcDbHatch
 10
0.0
 20
0.0
 30
19.0
210
0.0
220
0.0
230
1.0
  2
SOLID
 70
     1
 71
     1
 91
        1
 92
        7
 72
     0
 73
     1
 93
        8
 10
217793.0763225921
 20
135720.0438345547
 10
217898.0763225921
 20
135720.0438345547
 10
217898.0763225921
 20
135780.0438345547
 10
217853.0763225921
 20
135780.0438345547
 10
217853.076322592
 20
136604.2873910845
 10
217895.0763225921
 20
136604.2873910845
 10
217895.0763225921
 20
136664.2873910845
 10
217793.0763225921
 20
136664.2873910845
 97
        4
330
EEA
330
EEC
330
EEB
330
EF0
 75
     0
 76
     1
 47
3.097163483320299
 98
        1
 10
217821.6256905056
 20
136623.4305785035
1001
ACAD
1010
0.0
1020
0.0
1030
0.0
  0
HATCH
  5
F23
330
2
100
AcDbEntity
  8
0Hatch
100
AcDbHatch
 10
0.0
 20
0.0
 30
19.0
210
0.0
220
0.0
230
1.0
  2
SOLID
 70
     1
 71
     1
 91
        1
 92
        7
 72
     0
 73
     1
 93
       16
 10
218163.076322592
 20
136935.0438345547
 10
219243.0763225921
 20
136935.0438345547
 10
219243.0763225921
 20
136135.0438345547
 10
218923.0763225921
 20
136135.0438345547
 10
218923.0763225921
 20
136195.0438345547
 10
218818.0555545291
 20
136195.0438345547
 10
218818.0555545291
 20
136135.0438345547
 10
218863.0763225921
 20
136135.0438345547
 10
218863.0763225921
 20
136075.0438345547
 10
219303.0763225921
 20
136075.0438345547
 10
219303.0763225921
 20
136995.0438345547
 10
218103.076322592
 20
136995.0438345547
 10
218103.076322592
 20
136664.2873910845
 10
217995.0763225921
 20
136664.2873910845
 10
217995.0763225921
 20
136604.2873910845
 10
218163.076322592
 20
136604.2873910845
 97
        4
330
EEB
330
EEF
330
EEA
330
EF1
 75
     0
 76
     1
 47
3.097163483320299
 98
        1
 10
218150.1773298824
 20
136626.5277225123
1001
ACAD
1010
0.0
1020
0.0
1030
0.0
  0
HATCH
  5
F2C
330
2
100
AcDbEntity
  8
0Hatch
100
AcDbHatch
 10
0.0
 20
0.0
 30
19.0
210
0.0
220
0.0
230
1.0
  2
SOLID
 70
     1
 71
     1
 91
        1
 92
        7
 72
     0
 73
     1
 93
        8
 10
218443.0763225921
 20
135780.0438345547
 10
218398.0763225921
 20
135780.0438345547
 10
218398.0763225921
 20
135720.0438345547
 10
218503.076322592
 20
135720.0438345547
 10
218503.0763225921
 20
136135.0438345547
 10
218658.055554529
 20
136135.0438345547
 10
218658.055554529
 20
136195.0438345547
 10
218443.0763225921
 20
136195.0438345547
 97
        4
330
EEA
330
EEE
330
EEB
330
EED
 75
     0
 76
     1
 47
3.097163483320299
 98
        1
 10
218466.3308267264
 20
135765.5162795925
1001
ACAD
1010
0.0
1020
0.0
1030
0.0
  0
DIMENSION
  5
F36
330
2
100
AcDbEntity
  8
0Hatch
100
AcDbDimension
  2
*D23
 10
218503.0763225921
 20
135260.1604804518
 30
19.0
 11
218148.0763225921
 21
135340.1604804518
 31
19.0
 70
    32
 71
     5
 42
710.0
  3
500
100
AcDbAlignedDimension
 13
217793.0763225921
 23
135670.0438345547
 33
0.0
 14
218503.0763225921
 24
135670.0438345547
 34
0.0
100
AcDbRotatedDimension
  0
DIMENSION
  5
F41
330
2
100
AcDbEntity
  8
0Hatch
100
AcDbDimension
  2
*D24
 10
218863.0763225921
 20
135260.1604804518
 30
19.0
 11
218683.0763225921
 21
135340.1604804518
 31
19.0
 70
    32
 71
     5
 42
360.0
  3
500
100
AcDbAlignedDimension
 13
218503.0763225921
 23
135670.0438345547
 33
0.0
 14
218863.0763225921
 24
136025.0438345547
 34
0.0
100
AcDbRotatedDimension
  0
DIMENSION
  5
F4C
330
2
100
AcDbEntity
  8
0Hatch
100
AcDbDimension
  2
*D25
 10
219303.0763225921
 20
135260.1604804518
 30
19.0
 11
219083.0763225921
 21
135340.1604804518
 31
19.0
 70
    32
 71
     5
 42
440.0
  3
500
100
AcDbAlignedDimension
 13
218863.0763225921
 23
136025.0438345547
 33
0.0
 14
219303.0763225921
 24
136025.0438345547
 34
0.0
100
AcDbRotatedDimension
  0
DIMENSION
  5
F57
330
2
100
AcDbEntity
  8
0Wymiary-PL
100
AcDbDimension
  2
*D26
 10
217584.4881865603
 20
136664.2873910845
 30
19.0
 11
217504.4881865602
 21
136192.1656128197
 31
19.0
 70
    32
 71
     5
 42
944.2435565298074
  3
500
100
AcDbAlignedDimension
 13
217743.0763225921
 23
135720.0438345547
 33
0.0
 14
217743.0763225921
 24
136664.2873910845
 34
0.0
 50
90.0
100
AcDbRotatedDimension
  0
DIMENSION
  5
F62
330
2
100
AcDbEntity
  8
0Hatch
100
AcDbDimension
  2
*D27
 10
217584.4881865603
 20
136995.0438345547
 30
19.0
 11
217504.4881865602
 21
136829.6656128197
 31
19.0
 70
    32
 71
     5
 42
330.7564434702217
  3
500
100
AcDbAlignedDimension
 13
218053.076322592
 23
136664.2873910845
 33
0.0
 14
218053.076322592
 24
136995.0438345547
 34
0.0
 50
90.0
100
AcDbRotatedDimension
  0
DIMENSION
  5
F6D
330
2
100
AcDbEntity
  8
0Hatch
100
AcDbDimension
  2
*D28
 10
217408.271524976
 20
135720.0438345547
 30
19.0
 11
217328.2715249759
 21
136357.5438345548
 31
19.0
 70
    32
 71
     5
 42
1275.000000000029
  3
500
100
AcDbAlignedDimension
 13
218053.076322592
 23
136995.0438345547
 33
0.0
 14
218053.076322592
 24
135720.0438345547
 34
0.0
 50
90.0
100
AcDbRotatedDimension
  0
DIMENSION
  5
F78
330
2
100
AcDbEntity
  8
0Hatch
100
AcDbDimension
  2
*D29
 10
219303.0763225921
 20
135048.9020368902
 30
19.0
 11
218548.0763225921
 21
135128.9020368902
 31
19.0
 70
    32
 71
     5
 42
1510.0
  3
500
100
AcDbAlignedDimension
 13
217793.0763225921
 23
135670.0438345547
 33
0.0
 14
219303.0763225921
 24
136025.0438345547
 34
0.0
100
AcDbRotatedDimension
  0
HATCH
  5
FE8
330
2
100
AcDbEntity
  8
0Hatch
100
AcDbHatch
 10
0.0
 20
0.0
 30
19.0
210
0.0
220
0.0
230
1.0
  2
SOLID
 70
     1
 71
     1
 91
        1
 92
        7
 72
     0
 73
     1
 93
        8
 10
223006.702167153
 20
136664.2873910845
 10
222904.702167153
 20
136664.2873910845
 10
222904.702167153
 20
136604.2873910845
 10
222946.702167153
 20
136604.2873910845
 10
222946.702167153
 20
135780.0438345547
 10
222901.702167153
 20
135780.0438345547
 10
222901.702167153
 20
135720.0438345547
 10
223006.702167153
 20
135720.0438345547
 97
        4
330
FEB
330
FED
330
FEC
330
FF1
 75
     0
 76
     1
 47
3.097163483320299
 98
        1
 10
222978.1527992395
 20
136623.4305785035
1001
ACAD
1010
0.0
1020
0.0
1030
0.0
  0
HATCH
  5
FE9
330
2
100
AcDbEntity
  8
0Hatch
100
AcDbHatch
 10
0.0
 20
0.0
 30
19.0
210
0.0
220
0.0
230
1.0
  2
SOLID
 70
     1
 71
     1
 91
        1
 92
        7
 72
     0
 73
     1
 93
       16
 10
222636.702167153
 20
136604.2873910845
 10
222804.702167153
 20
136604.2873910845
 10
222804.702167153
 20
136664.2873910845
 10
222696.702167153
 20
136664.2873910845
 10
222696.7021671531
 20
136995.0438345547
 10
221496.702167153
 20
136995.0438345546
 10
221496.702167153
 20
136075.0438345547
 10
221936.702167153
 20
136075.0438345547
 10
221936.702167153
 20
136135.0438345547
 10
221981.722935216
 20
136135.0438345547
 10
221981.722935216
 20
136195.0438345547
 10
221876.702167153
 20
136195.0438345547
 10
221876.702167153
 20
136135.0438345547
 10
221556.702167153
 20
136135.0438345547
 10
221556.702167153
 20
136935.0438345547
 10
222636.7021671531
 20
136935.0438345547
 97
        4
330
FEC
330
FF0
330
FEB
330
FF2
 75
     0
 76
     1
 47
3.097163483320299
 98
        1
 10
222649.6011598626
 20
136626.5277225123
1001
ACAD
1010
0.0
1020
0.0
1030
0.0
  0
HATCH
  5
FEA
330
2
100
AcDbEntity
  8
0Hatch
100
AcDbHatch
 10
0.0
 20
0.0
 30
19.0
210
0.0
220
0.0
230
1.0
  2
SOLID
 70
     1
 71
     1
 91
        1
 92
        7
 72
     0
 73
     1
 93
        8
 10
222356.7021671529
 20
135780.0438345547
 10
222356.702167153
 20
136195.0438345547
 10
222141.7229352161
 20
136195.0438345547
 10
222141.722935216
 20
136135.0438345547
 10
222296.702167153
 20
136135.0438345547
 10
222296.702167153
 20
135720.0438345547
 10
222401.702167153
 20
135720.0438345547
 10
222401.702167153
 20
135780.0438345547
 97
        4
330
FEB
330
FEF
330
FEC
330
FEE
 75
     0
 76
     1
 47
3.097163483320299
 98
        1
 10
222333.4476630187
 20
135765.5162795925
1001
ACAD
1010
0.0
1020
0.0
1030
0.0
  0
LWPOLYLINE
  5
FEB
102
{ACAD_REACTORS
330
FE8
330
FE9
330
FEA
102
}
330
2
100
AcDbEntity
  8
0Hatch
100
AcDbPolyline
 90
       10
 70
     1
 43
0.0
 10
223006.702167153
 20
135720.0438345547
 10
223006.702167153
 20
136664.2873910845
 10
222696.702167153
 20
136664.2873910845
 10
222696.702167153
 20
136995.0438345547
 10
221496.702167153
 20
136995.0438345547
 10
221496.702167153
 20
136075.0438345547
 10
221936.702167153
 20
136075.0438345547
 10
221936.702167153
 20
136135.0438345547
 10
222296.702167153
 20
136135.0438345547
 10
222296.702167153
 20
135720.0438345547
  0
LWPOLYLINE
  5
FEC
102
{ACAD_REACTORS
330
FE8
330
FE9
330
FEA
102
}
330
2
100
AcDbEntity
  8
0Hatch
100
AcDbPolyline
 90
       10
 70
     1
 43
0.0
 10
222946.702167153
 20
135780.0438345547
 10
222946.702167153
 20
136604.2873910845
 10
222636.702167153
 20
136604.2873910845
 10
222636.702167153
 20
136935.0438345547
 10
221556.702167153
 20
136935.0438345547
 10
221556.702167153
 20
136135.0438345547
 10
221876.702167153
 20
136135.0438345547
 10
221876.702167153
 20
136195.0438345547
 10
222356.702167153
 20
136195.0438345547
 10
222356.702167153
 20
135780.0438345547
  0
LINE
  5
FED
102
{ACAD_REACTORS
330
FE8
102
}
330
2
100
AcDbEntity
  8
0Hatch
100
AcDbLine
 10
222901.702167153
 20
135720.0438345547
 30
0.0
 11
222901.702167153
 21
135780.0438345547
 31
0.0
  0
LINE
  5
FEE
102
{ACAD_REACTORS
330
FEA
102
}
330
2
100
AcDbEntity
  8
0Hatch
100
AcDbLine
 10
222401.702167153
 20
135720.0438345547
 30
0.0
 11
222401.702167153
 21
135780.0438345547
 31
0.0
  0
LINE
  5
FEF
102
{ACAD_REACTORS
330
FEA
102
}
330
2
100
AcDbEntity
  8
0Hatch
100
AcDbLine
 10
222141.7229352161
 20
136135.0438345547
 30
0.0
 11
222141.7229352161
 21
136195.0438345547
 31
0.0
  0
LINE
  5
FF0
102
{ACAD_REACTORS
330
FE9
102
}
330
2
100
AcDbEntity
  8
0Hatch
100
AcDbLine
 10
221981.722935216
 20
136135.0438345547
 30
0.0
 11
221981.722935216
 21
136195.0438345547
 31
0.0
  0
LINE
  5
FF1
102
{ACAD_REACTORS
330
FE8
102
}
330
2
100
AcDbEntity
  8
0Hatch
100
AcDbLine
 10
222904.702167153
 20
136664.2873910845
 30
0.0
 11
222904.702167153
 21
136604.2873910845
 31
0.0
  0
LINE
  5
FF2
102
{ACAD_REACTORS
330
FE9
102
}
330
2
100
AcDbEntity
  8
0Hatch
100
AcDbLine
 10
222804.702167153
 20
136664.2873910845
 30
0.0
 11
222804.702167153
 21
136604.2873910845
 31
0.0
  0
LINE
  5
FF3
330
2
100
AcDbEntity
  8
0Hatch
100
AcDbLine
 10
222296.702167153
 20
135975.0438345547
 30
0.0
 11
222036.702167153
 21
135975.0438345547
 31
0.0
  0
ARC
  5
FF4
330
2
100
AcDbEntity
  8
0Hatch
100
AcDbCircle
 10
222036.702167153
 20
136075.0438345547
 30
0.0
 40
100.0000000000036
100
AcDbArc
 50
180.0
 51
270.0
  0
LINE
  5
FF5
330
2
100
AcDbEntity
  8
0Hatch
100
AcDbLine
 10
222296.702167153
 20
135945.043837648
 30
0.0
 11
222036.7305267168
 21
135945.043837648
 31
0.0
  0
ARC
  5
FF6
330
2
100
AcDbEntity
  8
0Hatch
100
AcDbCircle
 10
222036.702167153
 20
136075.0438345547
 30
0.0
 40
130.0000000000037
100
AcDbArc
 50
180.0
 51
270.0124991028729
  0
LINE
  5
FF7
330
2
100
AcDbEntity
  8
0Hatch
100
AcDbLine
 10
222696.702167153
 20
136744.2873910845
 30
0.0
 11
222839.702167153
 21
136744.2873910845
 31
0.0
  0
ARC
  5
FF8
330
2
100
AcDbEntity
  8
0Hatch
100
AcDbCircle
 10
222839.702167153
 20
136664.2873910845
 30
0.0
 40
79.9999999999979
100
AcDbArc
 50
0.000000000000007
 51
90.0
  0
LINE
  5
FF9
330
2
100
AcDbEntity
  8
0Hatch
100
AcDbLine
 10
221496.702167153
 20
136995.0438345547
 30
0.0
 11
221496.7495120706
 21
137116.7414610005
 31
0.0
  0
ARC
  5
FFA
330
2
100
AcDbEntity
  8
0Hatch
100
AcDbCircle
 10
221647.958975049
 20
137193.891980994
 30
0.0
 40
169.7542471618618
100
AcDbArc
 50
7.187647240820467
 51
207.0317125477366
  0
LINE
  5
FFB
330
2
100
AcDbEntity
  8
0Hatch
100
AcDbLine
 10
221816.3792423492
 20
137215.131519407
 30
0.0
 11
222256.702167153
 21
137215.131519407
 31
0.0
  0
LINE
  5
FFC
330
2
100
AcDbEntity
  8
0Hatch
100
AcDbLine
 10
222256.702167153
 20
137215.131519407
 30
0.0
 11
222256.702167153
 21
136995.0438345547
 31
0.0
  0
LINE
  5
FFD
330
2
100
AcDbEntity
  8
0Hatch
100
AcDbLine
 10
221496.7031631863
 20
136995.1563875002
 30
0.0
 11
221496.7469572331
 21
137116.594309386
 31
0.0
  0
ARC
  5
FFE
330
2
100
AcDbEntity
  8
0Hatch
100
AcDbCircle
 10
221648.0139156431
 20
137194.1524235894
 30
0.0
 40
169.9910403091564
100
AcDbArc
 50
17.4511669499235
 51
207.1452774580649
  0
LINE
  5
FFF
330
2
100
AcDbEntity
  8
0Hatch
100
AcDbLine
 10
221810.1807605128
 20
137245.131519407
 30
0.0
 11
222286.702167153
 21
137245.131519407
 31
0.0
  0
LINE
  5
1000
330
2
100
AcDbEntity
  8
0Hatch
100
AcDbLine
 10
222286.702167153
 20
137245.131519407
 30
0.0
 11
222286.702167153
 21
136995.0423915664
 31
0.0
  0
LINE
  5
1001
330
2
100
AcDbEntity
  8
0Hatch
100
AcDbLine
 10
222381.702167153
 20
135565.0438345547
 30
0.0000000000000036
 11
222381.702167153
 21
135720.0438345547
 31
-0.0000000000000036
  0
LINE
  5
1002
330
2
100
AcDbEntity
  8
0Hatch
100
AcDbLine
 10
222921.702167153
 20
135565.0438345547
 30
-0.0000000000000995
 11
222921.702167153
 21
135720.0438345547
 31
-0.0000000000002274
  0
LINE
  5
1003
330
2
100
AcDbEntity
  8
0Hatch
100
AcDbLine
 10
222381.702167153
 20
135620.0438345547
 30
0.0000000000000036
 11
222921.702167153
 21
135620.0438345547
 31
0.0000000000000071
  0
LINE
  5
1004
330
2
100
AcDbEntity
  8
0Hatch
100
AcDbLine
 10
222381.702167153
 20
135565.0438345547
 30
0.0000000000000036
 11
222921.702167153
 21
135565.0438345547
 31
0.0000000000000071
  0
LINE
  5
1005
330
2
100
AcDbEntity
  8
0Hatch
100
AcDbLine
 10
222381.702167153
 20
135565.0438345547
 30
0.0000000000000107
 11
222921.702167153
 21
135565.0438345547
 31
0.0000000000000142
  0
LINE
  5
1006
330
2
100
AcDbEntity
  8
0Hatch
100
AcDbLine
 10
222651.702167153
 20
135618.9765724999
 30
19.0
 11
222381.702167153
 21
135565.0438345547
 31
0.0000000000000107
  0
LINE
  5
1007
330
2
100
AcDbEntity
  8
0Hatch
100
AcDbLine
 10
222651.702167153
 20
135618.9765724999
 30
19.0
 11
222921.702167153
 21
135565.0438345547
 31
0.0000000000000107
  0
DIMENSION
  5
1008
330
2
100
AcDbEntity
  8
0Hatch
100
AcDbDimension
  2
*D30
 10
222296.702167153
 20
135260.1604804518
 30
19.0
 11
222651.702167153
 21
135340.1604804518
 31
19.0
 70
    32
 71
     5
 42
710.0
  3
500
100
AcDbAlignedDimension
 13
223006.702167153
 23
135670.0438345547
 33
0.0
 14
222296.702167153
 24
135670.0438345547
 34
0.0
 50
180.0
100
AcDbRotatedDimension
  0
DIMENSION
  5
1009
330
2
100
AcDbEntity
  8
0Hatch
100
AcDbDimension
  2
*D31
 10
221936.702167153
 20
135260.1604804518
 30
19.0
 11
222116.702167153
 21
135340.1604804518
 31
19.0
 70
    32
 71
     5
 42
360.0
  3
500
100
AcDbAlignedDimension
 13
222296.702167153
 23
135670.0438345547
 33
0.0
 14
221936.702167153
 24
136025.0438345547
 34
0.0
 50
180.0
100
AcDbRotatedDimension
  0
DIMENSION
  5
100A
330
2
100
AcDbEntity
  8
0Hatch
100
AcDbDimension
  2
*D32
 10
221496.702167153
 20
135260.1604804518
 30
19.0
 11
221716.702167153
 21
135340.1604804518
 31
19.0
 70
    32
 71
     5
 42
440.0
  3
500
100
AcDbAlignedDimension
 13
221936.702167153
 23
136025.0438345547
 33
0.0
 14
221496.702167153
 24
136025.0438345547
 34
0.0
 50
180.0
100
AcDbRotatedDimension
  0
DIMENSION
  5
100B
330
2
100
AcDbEntity
  8
0Wymiary-PL
100
AcDbDimension
  2
*D33
 10
223215.2903031848
 20
136664.2873910845
 30
19.0
 11
223135.2903031848
 21
136192.1656128197
 31
19.0
 70
    32
 71
     5
 42
944.2435565298074
  3
500
100
AcDbAlignedDimension
 13
223056.702167153
 23
135720.0438345547
 33
0.0
 14
223056.702167153
 24
136664.2873910845
 34
0.0
 50
90.0
100
AcDbRotatedDimension
  0
DIMENSION
  5
100C
330
2
100
AcDbEntity
  8
0Hatch
100
AcDbDimension
  2
*D34
 10
223215.2903031848
 20
136995.0438345547
 30
19.0
 11
223135.2903031848
 21
136829.6656128197
 31
19.0
 70
    32
 71
     5
 42
330.7564434702217
  3
500
100
AcDbAlignedDimension
 13
222746.7021671531
 23
136664.2873910845
 33
0.0
 14
222746.7021671531
 24
136995.0438345547
 34
0.0
 50
90.0
100
AcDbRotatedDimension
  0
DIMENSION
  5
100D
330
2
100
AcDbEntity
  8
0Hatch
100
AcDbDimension
  2
*D35
 10
223391.5069647691
 20
135720.0438345547
 30
19.0
 11
223311.5069647691
 21
136357.5438345548
 31
19.0
 70
    32
 71
     5
 42
1275.000000000029
  3
500
100
AcDbAlignedDimension
 13
222746.7021671531
 23
136995.0438345547
 33
0.0
 14
222746.7021671531
 24
135720.0438345547
 34
0.0
 50
90.0
100
AcDbRotatedDimension
  0
DIMENSION
  5
100E
330
2
100
AcDbEntity
  8
0Hatch
100
AcDbDimension
  2
*D36
 10
221496.702167153
 20
135048.9020368902
 30
19.0
 11
222251.702167153
 21
135128.9020368902
 31
19.0
 70
    32
 71
     5
 42
1510.0
  3
500
100
AcDbAlignedDimension
 13
223006.702167153
 23
135670.0438345547
 33
0.0
 14
221496.702167153
 24
136025.0438345547
 34
0.0
 50
180.0
100
AcDbRotatedDimension
  0
ENDSEC
  0
SECTION
  2
OBJECTS
  0
DICTIONARY
  5
7
330
0
100
AcDbDictionary
281
     1
  3
ACAD_COLOR
350
31
  3
ACAD_GROUP
350
2D
  3
ACAD_LAYOUT
350
B
  3
ACAD_MATERIAL
350
30
  3
ACAD_MLEADERSTYLE
350
10DF
  3
ACAD_MLINESTYLE
350
2E
  3
ACAD_PLOTSETTINGS
350
2F
  3
ACAD_PLOTSTYLENAME
350
6
  3
ACAD_SCALELIST
350
10BD
  3
ACAD_TABLESTYLE
350
E06
  3
ACAD_VISUALSTYLE
350
DF5
  3
ACDB_RECOMPOSE_DATA
350
1507
  3
AcDbVariableDictionary
350
EAA
  3
AEC_CLASSIFICATION_SYSTEM_DEFS
350
3C3
  3
AEC_PROPERTY_SET_DEFS
350
3C4
  3
ASE_INDEX_DICTIONARY
350
1096
  3
DWGPROPS
350
1508
  0
DICTIONARY
  5
109C
330
1C
100
AcDbDictionary
280
     1
281
     1
  0
DICTIONARY
  5
12
330
11
100
AcDbDictionary
280
     1
281
     1
  3
ACAD_LAYERSTATES
360
13
  0
DICTIONARY
  5
10EA
330
4
100
AcDbDictionary
280
     1
281
     1
  3
ADSK_XREC_LAYER_RECONCILED
360
10EB
  0
DICTIONARY
  5
10F2
330
15E
100
AcDbDictionary
280
     1
281
     1
  3
ADSK_XREC_LAYER_RECONCILED
360
10F3
  0
DICTIONARY
  5
10F6
330
143
100
AcDbDictionary
280
     1
281
     1
  3
ADSK_XREC_LAYER_RECONCILED
360
10F7
  0
DICTIONARY
  5
10F8
330
EBF
100
AcDbDictionary
280
     1
281
     1
  3
ADSK_XREC_LAYER_RECONCILED
360
10F9
  0
DICTIONARY
  5
10FE
330
F07
100
AcDbDictionary
280
     1
281
     1
  3
ADSK_XREC_LAYER_RECONCILED
360
10FF
  0
DICTIONARY
  5
F11
330
2
100
AcDbDictionary
280
     1
281
     1
  3
ACAD_SORTENTS
360
F12
  0
DICTIONARY
  5
24
330
23
100
AcDbDictionary
280
     1
281
     1
  3
ACAD_SORTENTS
360
B1C
  0
DICTIONARY
  5
31
102
{ACAD_REACTORS
330
7
102
}
330
7
100
AcDbDictionary
281
     1
  0
DICTIONARY
  5
2D
102
{ACAD_REACTORS
330
7
102
}
330
7
100
AcDbDictionary
281
     1
  0
DICTIONARY
  5
B
102
{ACAD_REACTORS
330
7
102
}
330
7
100
AcDbDictionary
281
     1
  3
Layout1
350
10
  3
Model
350
A
  0
DICTIONARY
  5
30
102
{ACAD_REACTORS
330
7
102
}
330
7
100
AcDbDictionary
281
     1
  3
ByBlock
350
DF3
  3
ByLayer
350
DF2
  3
Global
350
DF4
  0
DICTIONARY
  5
10DF
102
{ACAD_REACTORS
330
7
102
}
330
7
100
AcDbDictionary
281
     1
  3
Standard
350
10E0
  0
DICTIONARY
  5
2E
102
{ACAD_REACTORS
330
7
102
}
330
7
100
AcDbDictionary
281
     1
  3
Standard
350
33
  0
DICTIONARY
  5
2F
102
{ACAD_REACTORS
330
7
102
}
330
7
100
AcDbDictionary
281
     1
  0
ACDBDICTIONARYWDFLT
  5
6
102
{ACAD_REACTORS
330
7
102
}
330
7
100
AcDbDictionary
281
     1
  3
Normal
350
5
100
AcDbDictionaryWithDefault
340
5
  0
DICTIONARY
  5
10BD
102
{ACAD_REACTORS
330
7
102
}
330
7
100
AcDbDictionary
281
     1
  3
*A1
350
11B3
  3
*A10
350
11BC
  3
*A11
350
11BD
  3
*A12
350
11BE
  3
*A13
350
11BF
  3
*A14
350
11C0
  3
*A15
350
11C1
  3
*A16
350
11C2
  3
*A17
350
11C3
  3
*A18
350
11C4
  3
*A19
350
11C5
  3
*A2
350
11B4
  3
*A20
350
11C6
  3
*A21
350
11C7
  3
*A3
350
11B5
  3
*A4
350
11B6
  3
*A5
350
11B7
  3
*A6
350
11B8
  3
*A7
350
11B9
  3
*A8
350
11BA
  3
*A9
350
11BB
  3
A0
350
10BE
  3
A1
350
10BF
  3
A2
350
10C0
  3
A3
350
10C1
  3
A4
350
10C2
  3
A5
350
10C3
  3
A6
350
10C4
  3
A7
350
10C5
  3
A8
350
10C6
  3
A9
350
10C7
  3
B0
350
10C8
  3
B1
350
10C9
  3
B2
350
10CA
  3
B3
350
10CB
  3
B4
350
10CC
  3
B5
350
10CD
  3
B6
350
10CE
  3
B7
350
10CF
  3
B8
350
10D0
  3
B9
350
10D1
  3
C0
350
10D2
  3
C1
350
10D3
  3
C2
350
10D4
  3
C3
350
10D5
  3
C4
350
10D6
  3
C5
350
10D7
  3
C6
350
10D8
  3
C7
350
10D9
  3
C8
350
10DA
  3
C9
350
10DB
  3
D0
350
10DC
  3
D1
350
10DD
  3
D2
350
10DE
  0
DICTIONARY
  5
E06
102
{ACAD_REACTORS
330
7
102
}
330
7
100
AcDbDictionary
281
     1
  3
Standard
350
E07
  0
DICTIONARY
  5
DF5
102
{ACAD_REACTORS
330
7
102
}
330
7
100
AcDbDictionary
281
     1
  3
2dWireframe
350
DFB
  3
3D Hidden
350
EAE
  3
3dWireframe
350
EAD
  3
Basic
350
DFA
  3
Brighten
350
E01
  3
ColorChange
350
E05
  3
Conceptual
350
EAF
  3
Dim
350
E00
  3
Facepattern
350
E04
  3
Flat
350
DF6
  3
FlatWithEdges
350
DF7
  3
Gouraud
350
DF8
  3
GouraudWithEdges
350
DF9
  3
Linepattern
350
E03
  3
Phong
350
10E8
  3
PhongWithEdges
350
10E9
  3
Realistic
350
EB0
  3
Thicken
350
E02
  0
XRECORD
  5
1507
102
{ACAD_REACTORS
330
7
102
}
330
7
100
AcDbXrecord
280
     1
 90
        1
330
E07
  0
DICTIONARY
  5
EAA
102
{ACAD_REACTORS
330
7
102
}
330
7
100
AcDbDictionary
281
     1
  3
CANNOSCALE
350
1500
  3
CMLEADERSTYLE
350
14FF
  3
CTABLESTYLE
350
EAB
  3
DIMASSOC
350
1504
  3
HIDETEXT
350
1503
  3
INDEXCTL
350
1502
  3
SORTENTS
350
1501
  0
DICTIONARY
  5
3C3
102
{ACAD_REACTORS
330
7
102
}
330
7
100
AcDbDictionary
281
     1
  0
DICTIONARY
  5
3C4
102
{ACAD_REACTORS
330
7
102
}
330
7
100
AcDbDictionary
281
     1
  0
DICTIONARY
  5
1096
102
{ACAD_REACTORS
330
7
102
}
330
7
100
AcDbDictionary
281
     1
  3
ASEBlockHierarchyIndexRecord
350
1097
1001
DCO15
1040
1594441911.734
  0
XRECORD
  5
1508
102
{ACAD_REACTORS
330
7
102
}
330
7
100
AcDbXrecord
280
     1
  1
DWGPROPS COOKIE
  2

  3

  4

  6

  7

  8
beata.rzonca
  9

300
=
301
=
302
=
303
=
304
=
305
=
306
=
307
=
308
=
309
=
 40
7.673915625
 41
2452027.670547454
 42
2454957.550393333
  1

 90
        0
  0
DICTIONARY
  5
13
102
{ACAD_REACTORS
330
12
102
}
330
12
100
AcDbDictionary
281
     1
  0
XRECORD
  5
10EB
102
{ACAD_REACTORS
330
10EA
102
}
330
10EA
100
AcDbXrecord
280
     1
290
     1
  0
XRECORD
  5
10F3
102
{ACAD_REACTORS
330
10F2
102
}
330
10F2
100
AcDbXrecord
280
     1
290
     1
  0
XRECORD
  5
10F7
102
{ACAD_REACTORS
330
10F6
102
}
330
10F6
100
AcDbXrecord
280
     1
290
     1
  0
XRECORD
  5
10F9
102
{ACAD_REACTORS
330
10F8
102
}
330
10F8
100
AcDbXrecord
280
     1
290
     1
  0
XRECORD
  5
10FF
102
{ACAD_REACTORS
330
10FE
102
}
330
10FE
100
AcDbXrecord
280
     1
290
     1
  0
SORTENTSTABLE
  5
F12
102
{ACAD_REACTORS
330
F11
102
}
330
F11
100
AcDbSortentsTable
330
2
331
EEF
  5
EF2
331
EF7
  5
EFA
331
EFF
  5
F02
331
15C
  5
15C
331
EF0
  5
EF3
331
EF8
  5
EFB
331
15D
  5
15D
331
F00
  5
F03
331
F10
  5
EEA
331
EF1
  5
EF4
331
EF9
  5
EFC
331
F01
  5
F04
331
EEA
  5
EED
331
EF2
  5
EF5
331
EFA
  5
EFD
331
157
  5
157
331
F02
  5
F05
331
EEB
  5
EEE
331
EF3
  5
EF6
331
EFB
  5
EFE
331
F03
  5
F06
331
F23
  5
EEB
331
EEC
  5
EEF
331
EF4
  5
EF7
331
EFC
  5
EFF
331
159
  5
159
331
F04
  5
F08
331
F2C
  5
EEC
331
142
  5
142
331
EED
  5
EF0
331
EF5
  5
EF8
331
EFD
  5
F00
331
F05
  5
F13
331
EEE
  5
EF1
331
EF6
  5
EF9
331
EFE
  5
F01
331
15B
  5
15B
331
F06
  5
F24
  0
SORTENTSTABLE
  5
B1C
102
{ACAD_REACTORS
330
24
102
}
330
24
100
AcDbSortentsTable
330
23
  0
LAYOUT
  5
10
102
{ACAD_XDICTIONARY
360
150B
102
}
102
{ACAD_REACTORS
330
B
102
}
330
B
100
AcDbPlotSettings
  1

  2
C:\PROGRAM FILES\AUTOCAD LT 2000\plotters\DWF ePlot.pc3
  4

  6

 40
0.0
 41
0.0
 42
0.0
 43
0.0
 44
0.0
 45
0.0
 46
0.0
 47
0.0
 48
0.0
 49
0.0
140
0.0
141
0.0
142
1.0
143
1.0
 70
   688
 72
     0
 73
     0
 74
     5
  7
monia.ctb
 75
    16
147
1.0
148
0.0
149
0.0
100
AcDbLayout
  1
Layout1
 70
     1
 71
     1
 10
0.0
 20
0.0
 11
420.0
 21
297.0
 12
0.0
 22
0.0
 32
0.0
 14
1.000000000000000E+20
 24
1.000000000000000E+20
 34
1.000000000000000E+20
 15
-1.000000000000000E+20
 25
-1.000000000000000E+20
 35
-1.000000000000000E+20
146
0.0
 13
0.0
 23
0.0
 33
0.0
 16
1.0
 26
0.0
 36
0.0
 17
0.0
 27
1.0
 37
0.0
 76
     0
330
D
  0
LAYOUT
  5
A
102
{ACAD_XDICTIONARY
360
1509
102
}
102
{ACAD_REACTORS
330
B
102
}
330
B
100
AcDbPlotSettings
  1

  2
CutePDF Writer
  4
A4
  6

 40
3.174999952316284
 41
3.174999952316284
 42
3.175003051757812
 43
3.17498779296875
 44
209.8886566162109
 45
297.0530090332031
 46
0.0
 47
5.468573210520304
 48
215187.2000545948
 49
127657.5157057546
140
225387.2000545948
141
141677.5157057546
142
1.0
143
50.11333139422816
 70
 11956
 72
     1
 73
     0
 74
     4
  7
monochrome_140.ctb
 75
     0
147
0.0199547699619742
148
-215187.2000545948
149
-127657.5157057546
100
AcDbLayout
  1
Model
 70
     1
 71
     0
 10
0.0
 20
0.0
 11
12.0
 21
9.0
 12
0.0
 22
0.0
 32
0.0
 14
0.0
 24
0.0
 34
0.0
 15
0.0
 25
0.0
 35
0.0
146
0.0
 13
0.0
 23
0.0
 33
0.0
 16
1.0
 26
0.0
 36
0.0
 17
0.0
 27
1.0
 37
0.0
 76
     0
330
2
331
DF0
1001
ACAD_PSEXT
1000
CutePDF Writer
1000
CutePDF Writer
1000
CPW2:
1000

1070
     0
  0
MATERIAL
  5
DF3
102
{ACAD_XDICTIONARY
360
150F
102
}
102
{ACAD_REACTORS
330
30
102
}
330
30
100
AcDbMaterial
  1
ByBlock
 73
     1
 78
     1
172
     1
176
     1
270
     1
274
     1
  0
MATERIAL
  5
DF2
102
{ACAD_XDICTIONARY
360
150D
102
}
102
{ACAD_REACTORS
330
30
102
}
330
30
100
AcDbMaterial
  1
ByLayer
 73
     1
 78
     1
172
     1
176
     1
270
     1
274
     1
  0
MATERIAL
  5
DF4
102
{ACAD_XDICTIONARY
360
1511
102
}
102
{ACAD_REACTORS
330
30
102
}
330
30
100
AcDbMaterial
  1
Global
 73
     1
 78
     1
172
     1
176
     1
270
     1
274
     1
  0
MLEADERSTYLE
  5
10E0
102
{ACAD_REACTORS
330
10DF
102
}
330
10DF
100
AcDbMLeaderStyle
170
     2
171
     1
172
     0
 90
        2
 40
0.0
 41
0.0
173
     1
 91
-1056964608
340
18
 92
       -2
290
     1
 42
0.09
291
     1
 43
0.36
  3
Standard
 44
0.18
300

342
15
174
     1
178
     6
175
     1
176
     0
 93
-1056964608
 45
0.18
292
     0
297
     0
 46
0.18
 94
-1056964608
 47
1.0
 49
1.0
140
1.0
293
     1
141
0.0
294
     1
177
     0
142
1.0
295
     0
296
     0
143
0.125
1001
ACAD_MLEADERVER
1070
     2
  0
MLINESTYLE
  5
33
102
{ACAD_REACTORS
330
2E
102
}
330
2E
100
AcDbMlineStyle
  2
STANDARD
 70
     0
  3

 62
   256
 51
90.0
 52
90.0
 71
     2
 49
0.5
 62
   256
  6
BYLAYER
 49
-0.5
 62
   256
  6
BYLAYER
  0
ACDBPLACEHOLDER
  5
5
102
{ACAD_REACTORS
330
6
102
}
330
6
  0
SCALE
  5
11B3
102
{ACAD_REACTORS
330
10BD
102
}
330
10BD
100
AcDbScale
 70
     0
300
1:10_1
140
1.0
141
1.0
290
     0
  0
SCALE
  5
11BC
102
{ACAD_REACTORS
330
10BD
102
}
330
10BD
100
AcDbScale
 70
     0
300
1:10_2
140
1.0
141
10.0
290
     0
  0
SCALE
  5
11BD
102
{ACAD_REACTORS
330
10BD
102
}
330
10BD
100
AcDbScale
 70
     0
300
1:20_2
140
1.0
141
20.0
290
     0
  0
SCALE
  5
11BE
102
{ACAD_REACTORS
330
10BD
102
}
330
10BD
100
AcDbScale
 70
     0
300
1:50_2
140
1.0
141
50.0
290
     0
  0
SCALE
  5
11BF
102
{ACAD_REACTORS
330
10BD
102
}
330
10BD
100
AcDbScale
 70
     0
300
1:100_2
140
1.0
141
100.0
290
     0
  0
SCALE
  5
11C0
102
{ACAD_REACTORS
330
10BD
102
}
330
10BD
100
AcDbScale
 70
     0
300
1:1_1
140
1.0
141
0.1
290
     0
  0
SCALE
  5
11C1
102
{ACAD_REACTORS
330
10BD
102
}
330
10BD
100
AcDbScale
 70
     0
300
1:1_1_1
140
1.0
141
1.0
290
     0
  0
SCALE
  5
11C2
102
{ACAD_REACTORS
330
10BD
102
}
330
10BD
100
AcDbScale
 70
     0
300
1:2_1_1
140
1.0
141
2.0
290
     0
  0
SCALE
  5
11C3
102
{ACAD_REACTORS
330
10BD
102
}
330
10BD
100
AcDbScale
 70
     0
300
1:5_1_1
140
1.0
141
5.0
290
     0
  0
SCALE
  5
11C4
102
{ACAD_REACTORS
330
10BD
102
}
330
10BD
100
AcDbScale
 70
     0
300
1:10_1_1
140
1.0
141
10.0
290
     0
  0
SCALE
  5
11C5
102
{ACAD_REACTORS
330
10BD
102
}
330
10BD
100
AcDbScale
 70
     0
300
1:20_1_1
140
1.0
141
20.0
290
     0
  0
SCALE
  5
11B4
102
{ACAD_REACTORS
330
10BD
102
}
330
10BD
100
AcDbScale
 70
     0
300
1:2_1
140
1.0
141
0.2
290
     0
  0
SCALE
  5
11C6
102
{ACAD_REACTORS
330
10BD
102
}
330
10BD
100
AcDbScale
 70
     0
300
1:50_1_1
140
1.0
141
50.0
290
     0
  0
SCALE
  5
11C7
102
{ACAD_REACTORS
330
10BD
102
}
330
10BD
100
AcDbScale
 70
     0
300
1:100_1_1
140
1.0
141
100.0
290
     0
  0
SCALE
  5
11B5
102
{ACAD_REACTORS
330
10BD
102
}
330
10BD
100
AcDbScale
 70
     0
300
1:5_1
140
1.0
141
0.5
290
     0
  0
SCALE
  5
11B6
102
{ACAD_REACTORS
330
10BD
102
}
330
10BD
100
AcDbScale
 70
     0
300
1:20_1
140
1.0
141
2.0
290
     0
  0
SCALE
  5
11B7
102
{ACAD_REACTORS
330
10BD
102
}
330
10BD
100
AcDbScale
 70
     0
300
1:50_1
140
1.0
141
5.0
290
     0
  0
SCALE
  5
11B8
102
{ACAD_REACTORS
330
10BD
102
}
330
10BD
100
AcDbScale
 70
     0
300
1:100_1
140
1.0
141
10.0
290
     0
  0
SCALE
  5
11B9
102
{ACAD_REACTORS
330
10BD
102
}
330
10BD
100
AcDbScale
 70
     0
300
1:1_2
140
1.0
141
1.0
290
     0
  0
SCALE
  5
11BA
102
{ACAD_REACTORS
330
10BD
102
}
330
10BD
100
AcDbScale
 70
     0
300
1:2_2
140
1.0
141
2.0
290
     0
  0
SCALE
  5
11BB
102
{ACAD_REACTORS
330
10BD
102
}
330
10BD
100
AcDbScale
 70
     0
300
1:5_2
140
1.0
141
5.0
290
     0
  0
SCALE
  5
10BE
102
{ACAD_REACTORS
330
10BD
102
}
330
10BD
100
AcDbScale
 70
     0
300
1:1
140
1.0
141
1.0
290
     1
  0
SCALE
  5
10BF
102
{ACAD_REACTORS
330
10BD
102
}
330
10BD
100
AcDbScale
 70
     0
300
1:2
140
1.0
141
2.0
290
     0
  0
SCALE
  5
10C0
102
{ACAD_REACTORS
330
10BD
102
}
330
10BD
100
AcDbScale
 70
     0
300
1:4
140
1.0
141
4.0
290
     0
  0
SCALE
  5
10C1
102
{ACAD_REACTORS
330
10BD
102
}
330
10BD
100
AcDbScale
 70
     0
300
1:5
140
1.0
141
5.0
290
     0
  0
SCALE
  5
10C2
102
{ACAD_REACTORS
330
10BD
102
}
330
10BD
100
AcDbScale
 70
     0
300
1:8
140
1.0
141
8.0
290
     0
  0
SCALE
  5
10C3
102
{ACAD_REACTORS
330
10BD
102
}
330
10BD
100
AcDbScale
 70
     0
300
1:10
140
1.0
141
10.0
290
     0
  0
SCALE
  5
10C4
102
{ACAD_REACTORS
330
10BD
102
}
330
10BD
100
AcDbScale
 70
     0
300
1:16
140
1.0
141
16.0
290
     0
  0
SCALE
  5
10C5
102
{ACAD_REACTORS
330
10BD
102
}
330
10BD
100
AcDbScale
 70
     0
300
1:20
140
1.0
141
20.0
290
     0
  0
SCALE
  5
10C6
102
{ACAD_REACTORS
330
10BD
102
}
330
10BD
100
AcDbScale
 70
     0
300
1:30
140
1.0
141
30.0
290
     0
  0
SCALE
  5
10C7
102
{ACAD_REACTORS
330
10BD
102
}
330
10BD
100
AcDbScale
 70
     0
300
1:40
140
1.0
141
40.0
290
     0
  0
SCALE
  5
10C8
102
{ACAD_REACTORS
330
10BD
102
}
330
10BD
100
AcDbScale
 70
     0
300
1:50
140
1.0
141
50.0
290
     0
  0
SCALE
  5
10C9
102
{ACAD_REACTORS
330
10BD
102
}
330
10BD
100
AcDbScale
 70
     0
300
1:100
140
1.0
141
100.0
290
     0
  0
SCALE
  5
10CA
102
{ACAD_REACTORS
330
10BD
102
}
330
10BD
100
AcDbScale
 70
     0
300
2:1
140
2.0
141
1.0
290
     0
  0
SCALE
  5
10CB
102
{ACAD_REACTORS
330
10BD
102
}
330
10BD
100
AcDbScale
 70
     0
300
4:1
140
4.0
141
1.0
290
     0
  0
SCALE
  5
10CC
102
{ACAD_REACTORS
330
10BD
102
}
330
10BD
100
AcDbScale
 70
     0
300
8:1
140
8.0
141
1.0
290
     0
  0
SCALE
  5
10CD
102
{ACAD_REACTORS
330
10BD
102
}
330
10BD
100
AcDbScale
 70
     0
300
10:1
140
10.0
141
1.0
290
     0
  0
SCALE
  5
10CE
102
{ACAD_REACTORS
330
10BD
102
}
330
10BD
100
AcDbScale
 70
     0
300
100:1
140
100.0
141
1.0
290
     0
  0
SCALE
  5
10CF
102
{ACAD_REACTORS
330
10BD
102
}
330
10BD
100
AcDbScale
 70
     0
300
1/128" = 1'-0"
140
0.0078125
141
12.0
290
     0
  0
SCALE
  5
10D0
102
{ACAD_REACTORS
330
10BD
102
}
330
10BD
100
AcDbScale
 70
     0
300
1/64" = 1'-0"
140
0.015625
141
12.0
290
     0
  0
SCALE
  5
10D1
102
{ACAD_REACTORS
330
10BD
102
}
330
10BD
100
AcDbScale
 70
     0
300
1/32" = 1'-0"
140
0.03125
141
12.0
290
     0
  0
SCALE
  5
10D2
102
{ACAD_REACTORS
330
10BD
102
}
330
10BD
100
AcDbScale
 70
     0
300
1/16" = 1'-0"
140
0.0625
141
12.0
290
     0
  0
SCALE
  5
10D3
102
{ACAD_REACTORS
330
10BD
102
}
330
10BD
100
AcDbScale
 70
     0
300
3/32" = 1'-0"
140
0.09375
141
12.0
290
     0
  0
SCALE
  5
10D4
102
{ACAD_REACTORS
330
10BD
102
}
330
10BD
100
AcDbScale
 70
     0
300
1/8" = 1'-0"
140
0.125
141
12.0
290
     0
  0
SCALE
  5
10D5
102
{ACAD_REACTORS
330
10BD
102
}
330
10BD
100
AcDbScale
 70
     0
300
3/16" = 1'-0"
140
0.1875
141
12.0
290
     0
  0
SCALE
  5
10D6
102
{ACAD_REACTORS
330
10BD
102
}
330
10BD
100
AcDbScale
 70
     0
300
1/4" = 1'-0"
140
0.25
141
12.0
290
     0
  0
SCALE
  5
10D7
102
{ACAD_REACTORS
330
10BD
102
}
330
10BD
100
AcDbScale
 70
     0
300
3/8" = 1'-0"
140
0.375
141
12.0
290
     0
  0
SCALE
  5
10D8
102
{ACAD_REACTORS
330
10BD
102
}
330
10BD
100
AcDbScale
 70
     0
300
1/2" = 1'-0"
140
0.5
141
12.0
290
     0
  0
SCALE
  5
10D9
102
{ACAD_REACTORS
330
10BD
102
}
330
10BD
100
AcDbScale
 70
     0
300
3/4" = 1'-0"
140
0.75
141
12.0
290
     0
  0
SCALE
  5
10DA
102
{ACAD_REACTORS
330
10BD
102
}
330
10BD
100
AcDbScale
 70
     0
300
1" = 1'-0"
140
1.0
141
12.0
290
     0
  0
SCALE
  5
10DB
102
{ACAD_REACTORS
330
10BD
102
}
330
10BD
100
AcDbScale
 70
     0
300
1-1/2" = 1'-0"
140
1.5
141
12.0
290
     0
  0
SCALE
  5
10DC
102
{ACAD_REACTORS
330
10BD
102
}
330
10BD
100
AcDbScale
 70
     0
300
3" = 1'-0"
140
3.0
141
12.0
290
     0
  0
SCALE
  5
10DD
102
{ACAD_REACTORS
330
10BD
102
}
330
10BD
100
AcDbScale
 70
     0
300
6" = 1'-0"
140
6.0
141
12.0
290
     0
  0
SCALE
  5
10DE
102
{ACAD_REACTORS
330
10BD
102
}
330
10BD
100
AcDbScale
 70
     0
300
1'-0" = 1'-0"
140
12.0
141
12.0
290
     0
  0
TABLESTYLE
  5
E07
102
{ACAD_XDICTIONARY
360
1505
102
}
102
{ACAD_REACTORS
330
E06
102
}
330
E06
100
AcDbTableStyle
  3
Standard
 70
     0
 71
     0
 40
0.06
 41
0.06
280
     0
281
     0
  7
Standard
140
0.18
170
     2
 62
     0
 63
     7
283
     0
274
    -2
284
     1
 64
     0
275
    -2
285
     1
 65
     0
276
    -2
286
     1
 66
     0
277
    -2
287
     1
 67
     0
278
    -2
288
     1
 68
     0
279
    -2
289
     1
 69
     0
  7
Standard
140
0.25
170
     5
 62
     0
 63
     7
283
     0
274
    -2
284
     1
 64
     0
275
    -2
285
     1
 65
     0
276
    -2
286
     1
 66
     0
277
    -2
287
     1
 67
     0
278
    -2
288
     1
 68
     0
279
    -2
289
     1
 69
     0
  7
Standard
140
0.18
170
     5
 62
     0
 63
     7
283
     0
274
    -2
284
     1
 64
     0
275
    -2
285
     1
 65
     0
276
    -2
286
     1
 66
     0
277
    -2
287
     1
 67
     0
278
    -2
288
     1
 68
     0
279
    -2
289
     1
 69
     0
  0
VISUALSTYLE
  5
DFB
102
{ACAD_REACTORS
330
DF5
102
}
330
DF5
100
AcDbVisualStyle
  2
2dWireframe
 70
     4
 71
     0
 72
     2
 73
     0
 90
        0
 40
-0.6
 41
-30.0
 62
     5
 63
     7
 74
     1
 91
        4
 64
     7
 65
   257
 75
     1
175
     1
 42
1.0
 92
        0
 66
   257
 43
1.0
 76
     1
 77
     6
 78
     2
 67
     7
 79
     5
170
     0
171
     0
290
     0
174
     0
 93
        1
 44
0.0
173
     0
291
     0
 45
0.0
1001
ACAD
1000
AcDbSavedByObjectVersion
1070
     0
  0
VISUALSTYLE
  5
EAE
102
{ACAD_REACTORS
330
DF5
102
}
330
DF5
100
AcDbVisualStyle
  2
3D Hidden
 70
     6
 71
     1
 72
     2
 73
     2
 90
        0
 40
-0.6
 41
-30.0
 62
     5
 63
     7
 74
     2
 91
        2
 64
     7
 65
   257
 75
     2
175
     1
 42
40.0
 92
        0
 66
   257
 43
1.0
 76
     1
 77
     6
 78
     2
 67
     7
 79
     3
170
     0
171
     0
290
     0
174
     0
 93
        1
 44
0.0
173
     0
291
     0
 45
0.0
1001
ACAD
1000
AcDbSavedByObjectVersion
1070
     0
  0
VISUALSTYLE
  5
EAD
102
{ACAD_REACTORS
330
DF5
102
}
330
DF5
100
AcDbVisualStyle
  2
3dWireframe
 70
     5
 71
     0
 72
     2
 73
     0
 90
        0
 40
-0.6
 41
-30.0
 62
     5
 63
     7
 74
     1
 91
        4
 64
     7
 65
   257
 75
     1
175
     1
 42
1.0
 92
        0
 66
   257
 43
1.0
 76
     1
 77
     6
 78
     2
 67
     7
 79
     5
170
     0
171
     0
290
     0
174
     0
 93
        1
 44
0.0
173
     0
291
     0
 45
0.0
1001
ACAD
1000
AcDbSavedByObjectVersion
1070
     0
  0
VISUALSTYLE
  5
DFA
102
{ACAD_REACTORS
330
DF5
102
}
330
DF5
100
AcDbVisualStyle
  2
Basic
 70
     7
 71
     1
 72
     0
 73
     1
 90
        0
 40
-0.6
 41
-30.0
 62
     5
 63
     7
 74
     0
 91
        4
 64
     7
 65
   257
 75
     1
175
     1
 42
1.0
 92
        8
 66
     7
 43
1.0
 76
     1
 77
     6
 78
     2
 67
     7
 79
     5
170
     0
171
     0
290
     0
174
     0
 93
        1
 44
0.0
173
     0
291
     1
 45
0.0
1001
ACAD
1000
AcDbSavedByObjectVersion
1070
     0
  0
VISUALSTYLE
  5
E01
102
{ACAD_REACTORS
330
DF5
102
}
330
DF5
100
AcDbVisualStyle
  2
Brighten
 70
    12
 71
     2
 72
     2
 73
     0
 90
        0
 40
-0.6
 41
-30.0
 62
     5
 63
     7
 74
     1
 91
        4
 64
     7
 65
   257
 75
     1
175
     1
 42
1.0
 92
        8
 66
     7
 43
1.0
 76
     1
 77
     6
 78
     2
 67
     7
 79
     5
170
     0
171
     0
290
     0
174
     0
 93
        1
 44
50.0
173
     0
291
     1
 45
0.0
1001
ACAD
1000
AcDbSavedByObjectVersion
1070
     0
  0
VISUALSTYLE
  5
E05
102
{ACAD_REACTORS
330
DF5
102
}
330
DF5
100
AcDbVisualStyle
  2
ColorChange
 70
    16
 71
     2
 72
     2
 73
     3
 90
        0
 40
-0.6
 41
-30.0
 62
     5
 63
     8
 74
     1
 91
        4
 64
     7
 65
   257
 75
     1
175
     1
 42
1.0
 92
        8
 66
     8
 43
1.0
 76
     1
 77
     6
 78
     2
 67
     7
 79
     5
170
     0
171
     0
290
     0
174
     0
 93
        1
 44
0.0
173
     0
291
     1
 45
0.0
1001
ACAD
1000
AcDbSavedByObjectVersion
1070
     0
  0
VISUALSTYLE
  5
EAF
102
{ACAD_REACTORS
330
DF5
102
}
330
DF5
100
AcDbVisualStyle
  2
Conceptual
 70
     9
 71
     3
 72
     2
 73
     0
 90
        0
 40
-0.6
 41
-30.0
 62
     5
 63
     7
 74
     2
 91
        2
 64
     7
 65
   257
 75
     1
175
     1
 42
40.0
 92
        8
 66
     7
 43
1.0
 76
     1
 77
     6
 78
     2
 67
     7
 79
     3
170
     0
171
     0
290
     0
174
     0
 93
        1
 44
0.0
173
     0
291
     0
 45
0.0
1001
ACAD
1000
AcDbSavedByObjectVersion
1070
     0
  0
VISUALSTYLE
  5
E00
102
{ACAD_REACTORS
330
DF5
102
}
330
DF5
100
AcDbVisualStyle
  2
Dim
 70
    11
 71
     2
 72
     2
 73
     0
 90
        0
 40
-0.6
 41
-30.0
 62
     5
 63
     7
 74
     1
 91
        4
 64
     7
 65
   257
 75
     1
175
     1
 42
1.0
 92
        8
 66
     7
 43
1.0
 76
     1
 77
     6
 78
     2
 67
     7
 79
     5
170
     0
171
     0
290
     0
174
     0
 93
        1
 44
-50.0
173
     0
291
     1
 45
0.0
1001
ACAD
1000
AcDbSavedByObjectVersion
1070
     0
  0
VISUALSTYLE
  5
E04
102
{ACAD_REACTORS
330
DF5
102
}
330
DF5
100
AcDbVisualStyle
  2
Facepattern
 70
    15
 71
     2
 72
     2
 73
     0
 90
        0
 40
-0.6
 41
-30.0
 62
     5
 63
     7
 74
     1
 91
        4
 64
     7
 65
   257
 75
     1
175
     1
 42
1.0
 92
        8
 66
     7
 43
1.0
 76
     1
 77
     6
 78
     2
 67
     7
 79
     5
170
     0
171
     0
290
     0
174
     0
 93
        1
 44
0.0
173
     0
291
     1
 45
0.0
1001
ACAD
1000
AcDbSavedByObjectVersion
1070
     0
  0
VISUALSTYLE
  5
DF6
102
{ACAD_REACTORS
330
DF5
102
}
330
DF5
100
AcDbVisualStyle
  2
Flat
 70
     0
 71
     2
 72
     1
 73
     1
 90
        2
 40
-0.6
 41
30.0
 62
     5
 63
     7
 74
     0
 91
        4
 64
     7
 65
   257
 75
     1
175
     1
 42
1.0
 92
        8
 66
     7
 43
1.0
 76
     1
 77
     6
 78
     2
 67
     7
 79
     5
170
     0
171
     0
290
     0
174
     0
 93
       13
 44
0.0
173
     0
291
     0
 45
0.0
1001
ACAD
1000
AcDbSavedByObjectVersion
1070
     0
  0
VISUALSTYLE
  5
DF7
102
{ACAD_REACTORS
330
DF5
102
}
330
DF5
100
AcDbVisualStyle
  2
FlatWithEdges
 70
     1
 71
     2
 72
     1
 73
     1
 90
        2
 40
-0.6
 41
30.0
 62
     5
 63
     7
 74
     1
 91
        4
 64
     7
 65
   257
 75
     1
175
     1
 42
1.0
 92
        0
 66
   257
 43
1.0
 76
     1
 77
     6
 78
     2
 67
     7
 79
     5
170
     0
171
     0
290
     0
174
     0
 93
       13
 44
0.0
173
     0
291
     0
 45
0.0
1001
ACAD
1000
AcDbSavedByObjectVersion
1070
     0
  0
VISUALSTYLE
  5
DF8
102
{ACAD_REACTORS
330
DF5
102
}
330
DF5
100
AcDbVisualStyle
  2
Gouraud
 70
     2
 71
     2
 72
     2
 73
     1
 90
        2
 40
-0.6
 41
30.0
 62
     5
 63
     7
 74
     0
 91
        4
 64
     7
 65
   257
 75
     1
175
     1
 42
1.0
 92
        0
 66
     7
 43
1.0
 76
     1
 77
     6
 78
     2
 67
     7
 79
     5
170
     0
171
     0
290
     0
174
     0
 93
       13
 44
0.0
173
     0
291
     0
 45
0.0
1001
ACAD
1000
AcDbSavedByObjectVersion
1070
     0
  0
VISUALSTYLE
  5
DF9
102
{ACAD_REACTORS
330
DF5
102
}
330
DF5
100
AcDbVisualStyle
  2
GouraudWithEdges
 70
     3
 71
     2
 72
     2
 73
     1
 90
        2
 40
-0.6
 41
30.0
 62
     5
 63
     7
 74
     1
 91
        4
 64
     7
 65
   257
 75
     1
175
     1
 42
1.0
 92
        0
 66
   257
 43
1.0
 76
     1
 77
     6
 78
     2
 67
     7
 79
     5
170
     0
171
     0
290
     0
174
     0
 93
       13
 44
0.0
173
     0
291
     0
 45
0.0
1001
ACAD
1000
AcDbSavedByObjectVersion
1070
     0
  0
VISUALSTYLE
  5
E03
102
{ACAD_REACTORS
330
DF5
102
}
330
DF5
100
AcDbVisualStyle
  2
Linepattern
 70
    14
 71
     2
 72
     2
 73
     0
 90
        0
 40
-0.6
 41
-30.0
 62
     5
 63
     7
 74
     1
 91
        4
 64
     7
 65
   257
 75
     7
175
     7
 42
1.0
 92
        8
 66
     7
 43
1.0
 76
     1
 77
     6
 78
     2
 67
     7
 79
     5
170
     0
171
     0
290
     0
174
     0
 93
        1
 44
0.0
173
     0
291
     1
 45
0.0
1001
ACAD
1000
AcDbSavedByObjectVersion
1070
     0
  0
VISUALSTYLE
  5
10E8
102
{ACAD_REACTORS
330
DF5
102
}
330
DF5
100
AcDbVisualStyle
  2

 70
     8
 71
     2
 72
     2
 73
     0
 90
        0
 40
-0.6
 41
-30.0
 62
     5
 63
     7
 74
     0
 91
        0
 64
     7
 65
   257
 75
     1
175
     1
 42
1.0
 92
        8
 66
     8
 43
1.0
 76
     1
 77
     6
 78
     2
 67
     7
 79
     5
170
     0
171
     0
290
     0
174
     0
 93
       13
 44
0.0
173
     0
291
     0
 45
0.0
1001
ACAD
1000
AcDbSavedByObjectVersion
1070
     0
  0
VISUALSTYLE
  5
10E9
102
{ACAD_REACTORS
330
DF5
102
}
330
DF5
100
AcDbVisualStyle
  2

 70
     8
 71
     2
 72
     2
 73
     0
 90
        0
 40
-0.6
 41
-30.0
 62
     5
 63
     7
 74
     1
 91
        0
 64
     7
 65
   257
 75
     1
175
     1
 42
1.0
 92
        8
 66
     8
 43
1.0
 76
     1
 77
     6
 78
     2
 67
     7
 79
     5
170
     0
171
     0
290
     0
174
     0
 93
       13
 44
0.0
173
     0
291
     0
 45
0.0
1001
ACAD
1000
AcDbSavedByObjectVersion
1070
     0
  0
VISUALSTYLE
  5
EB0
102
{ACAD_REACTORS
330
DF5
102
}
330
DF5
100
AcDbVisualStyle
  2
Realistic
 70
     8
 71
     2
 72
     2
 73
     0
 90
        0
 40
-0.6
 41
-30.0
 62
     5
 63
     7
 74
     1
 91
        0
 64
     7
 65
   257
 75
     1
175
     1
 42
1.0
 92
        8
 66
     8
 43
1.0
 76
     1
 77
     6
 78
     2
 67
     7
 79
     5
170
     0
171
     0
290
     0
174
     0
 93
       13
 44
0.0
173
     0
291
     0
 45
0.0
1001
ACAD
1000
AcDbSavedByObjectVersion
1070
     0
  0
VISUALSTYLE
  5
E02
102
{ACAD_REACTORS
330
DF5
102
}
330
DF5
100
AcDbVisualStyle
  2
Thicken
 70
    13
 71
     2
 72
     2
 73
     0
 90
        0
 40
-0.6
 41
-30.0
 62
     5
 63
     7
 74
     1
 91
        4
 64
     7
 65
   257
 75
     1
175
     1
 42
1.0
 92
       12
 66
     7
 43
1.0
 76
     1
 77
     6
 78
     2
 67
     7
 79
     5
170
     0
171
     0
290
     0
174
     0
 93
        1
 44
0.0
173
     0
291
     1
 45
0.0
1001
ACAD
1000
AcDbSavedByObjectVersion
1070
     0
  0
DICTIONARYVAR
  5
1500
102
{ACAD_REACTORS
330
EAA
102
}
330
EAA
100
DictionaryVariables
280
     0
  1
1:1
  0
DICTIONARYVAR
  5
14FF
102
{ACAD_REACTORS
330
EAA
102
}
330
EAA
100
DictionaryVariables
280
     0
  1
STANDARD
  0
DICTIONARYVAR
  5
EAB
102
{ACAD_REACTORS
330
EAA
102
}
330
EAA
100
DictionaryVariables
280
     0
  1
STANDARD
  0
DICTIONARYVAR
  5
1504
102
{ACAD_REACTORS
330
EAA
102
}
330
EAA
100
DictionaryVariables
280
     0
  1
1
  0
DICTIONARYVAR
  5
1503
102
{ACAD_REACTORS
330
EAA
102
}
330
EAA
100
DictionaryVariables
280
     0
  1
1
  0
DICTIONARYVAR
  5
1502
102
{ACAD_REACTORS
330
EAA
102
}
330
EAA
100
DictionaryVariables
280
     0
  1
0
  0
DICTIONARYVAR
  5
1501
102
{ACAD_REACTORS
330
EAA
102
}
330
EAA
100
DictionaryVariables
280
     0
  1
127
  0
XRECORD
  5
1097
102
{ACAD_REACTORS
330
1096
102
}
330
1096
100
AcDbXrecord
280
     1
330
E13
330
E14
330
E1A
330
E1B
330
E23
330
E24
330
E2A
330
E2B
330
E34
330
E35
330
E3B
330
E3C
330
E41
330
E42
330
E4A
330
E4B
330
E51
330
E52
330
E58
330
E59
330
E5F
330
E60
330
E66
330
E67
330
E6F
330
E70
330
E76
330
E77
330
E80
330
E81
330
E87
330
E88
330
E8D
330
E8E
330
E96
330
E97
330
E9D
330
E9E
330
EA4
330
EA5
330
FAE
330
FAF
330
FB5
330
FB6
330
FBC
330
FBD
330
FC3
330
FC4
330
FCA
330
FCB
330
FD1
330
FD2
330
FD8
330
FD9
330
1056
330
1057
330
105D
330
105E
330
1064
330
1065
330
106B
330
106C
330
1072
330
1073
330
1079
330
107A
330
1080
330
1081
  0
DICTIONARY
  5
150B
330
10
100
AcDbDictionary
280
     1
281
     1
  3
ACAD_XREC_ROUNDTRIP
360
150C
  0
DICTIONARY
  5
1509
330
A
100
AcDbDictionary
280
     1
281
     1
  3
ACAD_XREC_ROUNDTRIP
360
150A
  0
DICTIONARY
  5
150F
330
DF3
100
AcDbDictionary
280
     1
281
     1
  3
ACAD_XREC_ROUNDTRIP
360
1510
  0
DICTIONARY
  5
150D
330
DF2
100
AcDbDictionary
280
     1
281
     1
  3
ACAD_XREC_ROUNDTRIP
360
150E
  0
DICTIONARY
  5
1511
330
DF4
100
AcDbDictionary
280
     1
281
     1
  3
ACAD_XREC_ROUNDTRIP
360
1512
  0
DICTIONARY
  5
1505
330
E07
100
AcDbDictionary
280
     1
281
     1
  3
ACAD_ROUNDTRIP_2008_TABLESTYLE_CELLSTYLEMAP
360
1506
  3
ACAD_XREC_ROUNDTRIP
360
1513
  0
XRECORD
  5
150C
102
{ACAD_REACTORS
330
150B
102
}
330
150B
100
AcDbXrecord
280
     1
102
SHADEPLOT
 70
     0
102
SHADEPLOTRESLEVEL
 70
     2
102
SHADEPLOTCUSTOMDPI
 70
   300
  0
XRECORD
  5
150A
102
{ACAD_REACTORS
330
1509
102
}
330
1509
100
AcDbXrecord
280
     1
102
SHADEPLOT
 70
     0
102
SHADEPLOTRESLEVEL
 70
     2
102
SHADEPLOTCUSTOMDPI
 70
   300
  0
XRECORD
  5
1510
102
{ACAD_REACTORS
330
150F
102
}
330
150F
100
AcDbXrecord
280
     1
102
MATERIAL
148
0.0
149
0.0
149
0.0
 93
        0
 94
       63
282
     0
 72
     1
 77
     1
171
     1
175
     1
179
     1
273
     0
  0
XRECORD
  5
150E
102
{ACAD_REACTORS
330
150D
102
}
330
150D
100
AcDbXrecord
280
     1
102
MATERIAL
148
0.0
149
0.0
149
0.0
 93
        0
 94
       63
282
     0
 72
     1
 77
     1
171
     1
175
     1
179
     1
273
     0
  0
XRECORD
  5
1512
102
{ACAD_REACTORS
330
1511
102
}
330
1511
100
AcDbXrecord
280
     1
102
MATERIAL
148
0.0
149
0.0
149
0.0
 93
        0
 94
       63
282
     0
 72
     1
 77
     1
171
     1
175
     1
179
     1
273
     0
  0
CELLSTYLEMAP
  5
1506
102
{ACAD_REACTORS
330
1505
102
}
330
1505
100
AcDbCellStyleMap
 90
        3
300
CELLSTYLE
  1
TABLEFORMAT_BEGIN
 90
        5
170
     1
 91
        0
 92
    32768
 62
   257
 93
        1
300
CONTENTFORMAT
  1
CONTENTFORMAT_BEGIN
 90
        0
 91
        0
 92
      512
 93
        0
300

 40
0.0
140
1.0
 94
        5
 62
     0
340
15
144
0.25
309
CONTENTFORMAT_END
171
     0
 94
        6
 95
        1
302
GRIDFORMAT
  1
GRIDFORMAT_BEGIN
 90
        0
 91
        1
 62
     0
 92
       -2
340
0
 93
        0
 40
0.045
309
GRIDFORMAT_END
 95
        2
302
GRIDFORMAT
  1
GRIDFORMAT_BEGIN
 90
        0
 91
        1
 62
     0
 92
       -2
340
0
 93
        0
 40
0.045
309
GRIDFORMAT_END
 95
        4
302
GRIDFORMAT
  1
GRIDFORMAT_BEGIN
 90
        0
 91
        1
 62
     0
 92
       -2
340
0
 93
        0
 40
0.045
309
GRIDFORMAT_END
 95
        8
302
GRIDFORMAT
  1
GRIDFORMAT_BEGIN
 90
        0
 91
        1
 62
     0
 92
       -2
340
0
 93
        0
 40
0.045
309
GRIDFORMAT_END
 95
       16
302
GRIDFORMAT
  1
GRIDFORMAT_BEGIN
 90
        0
 91
        1
 62
     0
 92
       -2
340
0
 93
        0
 40
0.045
309
GRIDFORMAT_END
 95
       32
302
GRIDFORMAT
  1
GRIDFORMAT_BEGIN
 90
        0
 91
        1
 62
     0
 92
       -2
340
0
 93
        0
 40
0.045
309
GRIDFORMAT_END
309
TABLEFORMAT_END
  1
CELLSTYLE_BEGIN
 90
        1
 91
        1
300
_TITLE
309
CELLSTYLE_END
300
CELLSTYLE
  1
TABLEFORMAT_BEGIN
 90
        5
170
     1
 91
        0
 92
        0
 62
   257
 93
        1
300
CONTENTFORMAT
  1
CONTENTFORMAT_BEGIN
 90
        0
 91
        0
 92
      512
 93
        0
300

 40
0.0
140
1.0
 94
        5
 62
     0
340
15
144
0.18
309
CONTENTFORMAT_END
171
     0
 94
        6
 95
        1
302
GRIDFORMAT
  1
GRIDFORMAT_BEGIN
 90
        0
 91
        1
 62
     0
 92
       -2
340
0
 93
        0
 40
0.045
309
GRIDFORMAT_END
 95
        2
302
GRIDFORMAT
  1
GRIDFORMAT_BEGIN
 90
        0
 91
        1
 62
     0
 92
       -2
340
0
 93
        0
 40
0.045
309
GRIDFORMAT_END
 95
        4
302
GRIDFORMAT
  1
GRIDFORMAT_BEGIN
 90
        0
 91
        1
 62
     0
 92
       -2
340
0
 93
        0
 40
0.045
309
GRIDFORMAT_END
 95
        8
302
GRIDFORMAT
  1
GRIDFORMAT_BEGIN
 90
        0
 91
        1
 62
     0
 92
       -2
340
0
 93
        0
 40
0.045
309
GRIDFORMAT_END
 95
       16
302
GRIDFORMAT
  1
GRIDFORMAT_BEGIN
 90
        0
 91
        1
 62
     0
 92
       -2
340
0
 93
        0
 40
0.045
309
GRIDFORMAT_END
 95
       32
302
GRIDFORMAT
  1
GRIDFORMAT_BEGIN
 90
        0
 91
        1
 62
     0
 92
       -2
340
0
 93
        0
 40
0.045
309
GRIDFORMAT_END
309
TABLEFORMAT_END
  1
CELLSTYLE_BEGIN
 90
        2
 91
        1
300
_HEADER
309
CELLSTYLE_END
300
CELLSTYLE
  1
TABLEFORMAT_BEGIN
 90
        5
170
     1
 91
        0
 92
        0
 62
   257
 93
        1
300
CONTENTFORMAT
  1
CONTENTFORMAT_BEGIN
 90
        0
 91
        0
 92
      512
 93
        0
300

 40
0.0
140
1.0
 94
        2
 62
     0
340
15
144
0.18
309
CONTENTFORMAT_END
171
     0
 94
        6
 95
        1
302
GRIDFORMAT
  1
GRIDFORMAT_BEGIN
 90
        0
 91
        1
 62
     0
 92
       -2
340
0
 93
        0
 40
0.045
309
GRIDFORMAT_END
 95
        2
302
GRIDFORMAT
  1
GRIDFORMAT_BEGIN
 90
        0
 91
        1
 62
     0
 92
       -2
340
0
 93
        0
 40
0.045
309
GRIDFORMAT_END
 95
        4
302
GRIDFORMAT
  1
GRIDFORMAT_BEGIN
 90
        0
 91
        1
 62
     0
 92
       -2
340
0
 93
        0
 40
0.045
309
GRIDFORMAT_END
 95
        8
302
GRIDFORMAT
  1
GRIDFORMAT_BEGIN
 90
        0
 91
        1
 62
     0
 92
       -2
340
0
 93
        0
 40
0.045
309
GRIDFORMAT_END
 95
       16
302
GRIDFORMAT
  1
GRIDFORMAT_BEGIN
 90
        0
 91
        1
 62
     0
 92
       -2
340
0
 93
        0
 40
0.045
309
GRIDFORMAT_END
 95
       32
302
GRIDFORMAT
  1
GRIDFORMAT_BEGIN
 90
        0
 91
        1
 62
     0
 92
       -2
340
0
 93
        0
 40
0.045
309
GRIDFORMAT_END
309
TABLEFORMAT_END
  1
CELLSTYLE_BEGIN
 90
        3
 91
        2
300
_DATA
309
CELLSTYLE_END
  0
XRECORD
  5
1513
102
{ACAD_REACTORS
330
1505
102
}
330
1505
100
AcDbXrecord
280
     1
102
ACAD_ROUNDTRIP_PRE2007_TABLESTYLE
 90
      512
 91
        0
  1

 92
      512
 93
        0
  2

 94
      512
 95
        0
  3

  0
ENDSEC
  0
EOF
