  0
SECTION
  2
HEADER
  9
$ACADVER
  1
AC1015
  9
$ACADMAINTVER
 70
    20
  9
$DWGCODEPAGE
  3
ANSI_1250
  9
$INSBASE
 10
-29313.98758201227
 20
-281.0312462224374
 30
0.0
  9
$EXTMIN
 10
-24867.64944698339
 20
-9819.050713998761
 30
-0.0015258207003583
  9
$EXTMAX
 10
-14665.31523897214
 20
4201.804998892861
 30
0.0000000349246037
  9
$LIMMIN
 10
0.0
 20
0.0
  9
$LIMMAX
 10
12.0
 20
9.0
  9
$ORTHOMODE
 70
     1
  9
$REGENMODE
 70
     1
  9
$FILLMODE
 70
     1
  9
$QTEXTMODE
 70
     0
  9
$MIRRTEXT
 70
     0
  9
$LTSCALE
 40
50.0
  9
$ATTMODE
 70
     1
  9
$TEXTSIZE
 40
20.0
  9
$TRACEWID
 40
0.05
  9
$TEXTSTYLE
  7
ROMANS
  9
$CLAYER
  8
0Wymiary-PL
  9
$CELTYPE
  6
ByLayer
  9
$CECOLOR
 62
   256
  9
$CELTSCALE
 40
1.0
  9
$DISPSILH
 70
     0
  9
$DIMSCALE
 40
1.0
  9
$DIMASZ
 40
8.0
  9
$DIMEXO
 40
43.0
  9
$DIMDLI
 40
384.5552415826316
  9
$DIMRND
 40
0.5
  9
$DIMDLE
 40
12.0
  9
$DIMEXE
 40
13.0
  9
$DIMTP
 40
0.0
  9
$DIMTM
 40
0.0
  9
$DIMTXT
 40
16.0
  9
$DIMCEN
 40
0.0
  9
$DIMTSZ
 40
0.0
  9
$DIMTOL
 70
     0
  9
$DIMLIM
 70
     0
  9
$DIMTIH
 70
     0
  9
$DIMTOH
 70
     0
  9
$DIMSE1
 70
     1
  9
$DIMSE2
 70
     1
  9
$DIMTAD
 70
     0
  9
$DIMZIN
 70
     8
  9
$DIMBLK
  1
B-DIM
  9
$DIMASO
 70
     1
  9
$DIMSHO
 70
     1
  9
$DIMPOST
  1

  9
$DIMAPOST
  1

  9
$DIMALT
 70
     0
  9
$DIMALTD
 70
     2
  9
$DIMALTF
 40
25.4
  9
$DIMLFAC
 40
1.0
  9
$DIMTOFL
 70
     1
  9
$DIMTVP
 40
1.0
  9
$DIMTIX
 70
     1
  9
$DIMSOXD
 70
     0
  9
$DIMSAH
 70
     0
  9
$DIMBLK1
  1

  9
$DIMBLK2
  1

  9
$DIMSTYLE
  2
100-archon
  9
$DIMCLRD
 70
     1
  9
$DIMCLRE
 70
     1
  9
$DIMCLRT
 70
   140
  9
$DIMTFAC
 40
1.0
  9
$DIMGAP
 40
4.0
  9
$DIMJUST
 70
     0
  9
$DIMSD1
 70
     0
  9
$DIMSD2
 70
     0
  9
$DIMTOLJ
 70
     1
  9
$DIMTZIN
 70
     0
  9
$DIMALTZ
 70
     0
  9
$DIMALTTZ
 70
     0
  9
$DIMUPT
 70
     0
  9
$DIMDEC
 70
     1
  9
$DIMTDEC
 70
     1
  9
$DIMALTU
 70
     2
  9
$DIMALTTD
 70
     2
  9
$DIMTXSTY
  7
romansDIM
  9
$DIMAUNIT
 70
     0
  9
$DIMADEC
 70
     0
  9
$DIMALTRND
 40
0.0
  9
$DIMAZIN
 70
     0
  9
$DIMDSEP
 70
    46
  9
$DIMATFIT
 70
     3
  9
$DIMFRAC
 70
     0
  9
$DIMLDRBLK
  1
Dot
  9
$DIMLUNIT
 70
     2
  9
$DIMLWD
 70
     5
  9
$DIMLWE
 70
    -2
  9
$DIMTMOVE
 70
     2
  9
$LUNITS
 70
     2
  9
$LUPREC
 70
     2
  9
$SKETCHINC
 40
0.1
  9
$FILLETRAD
 40
0.0
  9
$AUNITS
 70
     0
  9
$AUPREC
 70
     2
  9
$MENU
  1
.
  9
$ELEVATION
 40
0.0
  9
$PELEVATION
 40
0.0
  9
$THICKNESS
 40
0.0
  9
$LIMCHECK
 70
     0
  9
$CHAMFERA
 40
0.0
  9
$CHAMFERB
 40
0.0
  9
$CHAMFERC
 40
0.0
  9
$CHAMFERD
 40
0.0
  9
$SKPOLY
 70
     0
  9
$TDCREATE
 40
2453080.724599746
  9
$TDUCREATE
 40
2453080.641266412
  9
$TDUPDATE
 40
2455029.678333334
  9
$TDUUPDATE
 40
2455029.595000000
  9
$TDINDWG
 40
9.7527284259
  9
$TDUSRTIMER
 40
9.7527284259
  9
$USRTIMER
 70
     1
  9
$ANGBASE
 50
0.0
  9
$ANGDIR
 70
     0
  9
$PDMODE
 70
     0
  9
$PDSIZE
 40
0.0
  9
$PLINEWID
 40
0.0
  9
$SPLFRAME
 70
     0
  9
$SPLINETYPE
 70
     6
  9
$SPLINESEGS
 70
     8
  9
$HANDSEED
  5
1652
  9
$SURFTAB1
 70
     6
  9
$SURFTAB2
 70
     6
  9
$SURFTYPE
 70
     6
  9
$SURFU
 70
     6
  9
$SURFV
 70
     6
  9
$UCSBASE
  2

  9
$UCSNAME
  2

  9
$UCSORG
 10
0.0
 20
0.0
 30
0.0
  9
$UCSXDIR
 10
1.0
 20
0.0
 30
0.0
  9
$UCSYDIR
 10
0.0
 20
1.0
 30
0.0
  9
$UCSORTHOREF
  2

  9
$UCSORTHOVIEW
 70
     1
  9
$UCSORGTOP
 10
0.0
 20
0.0
 30
0.0
  9
$UCSORGBOTTOM
 10
0.0
 20
0.0
 30
0.0
  9
$UCSORGLEFT
 10
0.0
 20
0.0
 30
0.0
  9
$UCSORGRIGHT
 10
0.0
 20
0.0
 30
0.0
  9
$UCSORGFRONT
 10
0.0
 20
0.0
 30
0.0
  9
$UCSORGBACK
 10
0.0
 20
0.0
 30
0.0
  9
$PUCSBASE
  2

  9
$PUCSNAME
  2

  9
$PUCSORG
 10
0.0
 20
0.0
 30
0.0
  9
$PUCSXDIR
 10
1.0
 20
0.0
 30
0.0
  9
$PUCSYDIR
 10
0.0
 20
1.0
 30
0.0
  9
$PUCSORTHOREF
  2

  9
$PUCSORTHOVIEW
 70
     0
  9
$PUCSORGTOP
 10
0.0
 20
0.0
 30
0.0
  9
$PUCSORGBOTTOM
 10
0.0
 20
0.0
 30
0.0
  9
$PUCSORGLEFT
 10
0.0
 20
0.0
 30
0.0
  9
$PUCSORGRIGHT
 10
0.0
 20
0.0
 30
0.0
  9
$PUCSORGFRONT
 10
0.0
 20
0.0
 30
0.0
  9
$PUCSORGBACK
 10
0.0
 20
0.0
 30
0.0
  9
$USERI1
 70
     1
  9
$USERI2
 70
     1
  9
$USERI3
 70
     0
  9
$USERI4
 70
     0
  9
$USERI5
 70
     1
  9
$USERR1
 40
0.0
  9
$USERR2
 40
0.0
  9
$USERR3
 40
0.0
  9
$USERR4
 40
0.0
  9
$USERR5
 40
0.0
  9
$WORLDVIEW
 70
     1
  9
$SHADEDGE
 70
     3
  9
$SHADEDIF
 70
    70
  9
$TILEMODE
 70
     1
  9
$MAXACTVP
 70
    64
  9
$PINSBASE
 10
0.0
 20
0.0
 30
0.0
  9
$PLIMCHECK
 70
     0
  9
$PEXTMIN
 10
-2168.317592469716
 20
-155.8517489963451
 30
0.0
  9
$PEXTMAX
 10
9512.510412890922
 20
4575.582946269039
 30
0.0
  9
$PLIMMIN
 10
-31.74999952316284
 20
-31.74999952316284
  9
$PLIMMAX
 10
2067.136566638946
 20
2938.780090808869
  9
$UNITMODE
 70
     0
  9
$VISRETAIN
 70
     1
  9
$PLINEGEN
 70
     0
  9
$PSLTSCALE
 70
     1
  9
$TREEDEPTH
 70
  3020
  9
$CMLSTYLE
  2
Standard
  9
$CMLJUST
 70
     0
  9
$CMLSCALE
 40
1.0
  9
$PROXYGRAPHICS
 70
     1
  9
$MEASUREMENT
 70
     0
  9
$CELWEIGHT
370
    -1
  9
$ENDCAPS
280
     0
  9
$JOINSTYLE
280
     0
  9
$LWDISPLAY
290
     0
  9
$INSUNITS
 70
     5
  9
$HYPERLINKBASE
  1

  9
$STYLESHEET
  1
monochrome_140.ctb
  9
$XEDIT
290
     1
  9
$CEPSNTYPE
380
     0
  9
$PSTYLEMODE
290
     1
  9
$FINGERPRINTGUID
  2
{449B46AC-54AA-49C5-A97F-B597A196380D}
  9
$VERSIONGUID
  2
{0C352AF5-331F-4D7B-AF3B-907E2E120741}
  9
$EXTNAMES
290
     1
  9
$PSVPSCALE
 40
0.0
  9
$OLESTARTUP
290
     0
  0
ENDSEC
  0
SECTION
  2
CLASSES
  0
CLASS
  1
ACDBDICTIONARYWDFLT
  2
AcDbDictionaryWithDefault
  3
ObjectDBX Classes
 90
        0
280
     0
281
     0
  0
CLASS
  1
ACDBPLACEHOLDER
  2
AcDbPlaceHolder
  3
ObjectDBX Classes
 90
        0
280
     0
281
     0
  0
CLASS
  1
LAYOUT
  2
AcDbLayout
  3
ObjectDBX Classes
 90
        0
280
     0
281
     0
  0
CLASS
  1
DICTIONARYVAR
  2
AcDbDictionaryVar
  3
ObjectDBX Classes
 90
        0
280
     0
281
     0
  0
CLASS
  1
AEC_NOTIFICATION_TRACKER
  2
AecDbNotificationTracker
  3
AecBase50|Product Desc: Autodesk Architectural Desktop 2007 |Company: Autodesk,Inc. |WEB Address: www.autodesk.com
 90
    32897
280
     0
281
     0
  0
CLASS
  1
AEC_DISP_REP_2D_SECTION
  2
AecDbDispRep2dSection
  3
AecBase50|Product Desc: Autodesk Architectural Desktop 2007 |Company: Autodesk,Inc. |WEB Address: www.autodesk.com
 90
    32897
280
     0
281
     0
  0
CLASS
  1
AEC_VARS_DWG_SETUP
  2
AecDbVarsDwgSetup
  3
AecBase50|Product Desc: Autodesk Architectural Desktop 2007 |Company: Autodesk,Inc. |WEB Address: www.autodesk.com
 90
    32897
280
     0
281
     0
  0
CLASS
  1
AEC_DISP_PROPS_2D_SECTION
  2
AecDbDispProps2dSection
  3
AecBase50|Product Desc: Autodesk Architectural Desktop 2007 |Company: Autodesk,Inc. |WEB Address: www.autodesk.com
 90
    32897
280
     0
281
     0
  0
CLASS
  1
AEC_DISP_REP_ANCHOR
  2
AecDbDispRepAnchor
  3
AecBase50|Product Desc: Autodesk Architectural Desktop 2007 |Company: Autodesk,Inc. |WEB Address: www.autodesk.com
 90
    32897
280
     0
281
     0
  0
CLASS
  1
AEC_DISP_REP_ANCHOR_ENT_TO_NODE
  2
AecDbDispRepAnchorEntToNode
  3
AecBaseEx50|Product Desc: Autodesk Architectural Desktop 2007 |Company: Autodesk,Inc. |WEB Address: www.autodesk.com
 90
    32897
280
     0
281
     0
  0
CLASS
  1
AEC_DISP_PROPS_ENT
  2
AecDbDispPropsEnt
  3
AecBase50|Product Desc: Autodesk Architectural Desktop 2007 |Company: Autodesk,Inc. |WEB Address: www.autodesk.com
 90
    32897
280
     0
281
     0
  0
CLASS
  1
AEC_DISP_REP_CAMERA
  2
AecDbDispRepCamera
  3
AecBase50|Product Desc: Autodesk Architectural Desktop 2007 |Company: Autodesk,Inc. |WEB Address: www.autodesk.com
 90
    32897
280
     0
281
     0
  0
CLASS
  1
AEC_DISP_PROPS_CAMERA
  2
AecDbDispPropsCamera
  3
AecBase50|Product Desc: Autodesk Architectural Desktop 2007 |Company: Autodesk,Inc. |WEB Address: www.autodesk.com
 90
    32897
280
     0
281
     0
  0
CLASS
  1
AEC_DISP_REP_CLIP_VOLUME_MODEL
  2
AecDbDispRepClipVolModel
  3
AecBase50|Product Desc: Autodesk Architectural Desktop 2007 |Company: Autodesk,Inc. |WEB Address: www.autodesk.com
 90
    32897
280
     0
281
     0
  0
CLASS
  1
AEC_DISP_PROPS_CLIP_VOLUME
  2
AecDbDispPropsClipVol
  3
AecBase50|Product Desc: Autodesk Architectural Desktop 2007 |Company: Autodesk,Inc. |WEB Address: www.autodesk.com
 90
    32897
280
     0
281
     0
  0
CLASS
  1
AEC_DISP_REP_CLIP_VOLUME_PLAN
  2
AecDbDispRepClipVolPlan
  3
AecBase50|Product Desc: Autodesk Architectural Desktop 2007 |Company: Autodesk,Inc. |WEB Address: www.autodesk.com
 90
    32897
280
     0
281
     0
  0
CLASS
  1
AEC_DISP_REP_CLIP_VOLUME_RESULT
  2
AecDbDispRepClipVolResult
  3
AecBase50|Product Desc: Autodesk Architectural Desktop 2007 |Company: Autodesk,Inc. |WEB Address: www.autodesk.com
 90
    32897
280
     0
281
     0
  0
CLASS
  1
AEC_DISP_REP_CLIP_VOLUME_RESULT_SUBDIV
  2
AecDbDispRepClipVolResSubDiv
  3
AecBase50|Product Desc: Autodesk Architectural Desktop 2007 |Company: Autodesk,Inc. |WEB Address: www.autodesk.com
 90
    32897
280
     0
281
     0
  0
CLASS
  1
AEC_DISP_PROPS_CLIP_VOLUME_RESULT
  2
AecDbDispPropsClipVolResSubDiv
  3
AecBase50|Product Desc: Autodesk Architectural Desktop 2007 |Company: Autodesk,Inc. |WEB Address: www.autodesk.com
 90
    32897
280
     0
281
     0
  0
CLASS
  1
AEC_DISP_REP_EDITINPLACEPROFILE
  2
AecDbDispRepEditInPlaceProfile
  3
AecBase50|Product Desc: Autodesk Architectural Desktop 2007 |Company: Autodesk,Inc. |WEB Address: www.autodesk.com
 90
    32897
280
     0
281
     0
  0
CLASS
  1
AEC_DISP_PROPS_EDITINPLACEPROFILE_MODEL
  2
AecDbDispPropsEditInPlaceProfile
  3
AecBase50|Product Desc: Autodesk Architectural Desktop 2007 |Company: Autodesk,Inc. |WEB Address: www.autodesk.com
 90
    32897
280
     0
281
     0
  0
CLASS
  1
AEC_DISP_REP_ENT_REF
  2
AecDbDispRepEntRef
  3
AecBase50|Product Desc: Autodesk Architectural Desktop 2007 |Company: Autodesk,Inc. |WEB Address: www.autodesk.com
 90
    32897
280
     0
281
     0
  0
CLASS
  1
AEC_DISP_PROPS_ENT_REF
  2
AecDbDispPropsEntRef
  3
AecBase50|Product Desc: Autodesk Architectural Desktop 2007 |Company: Autodesk,Inc. |WEB Address: www.autodesk.com
 90
    32897
280
     0
281
     0
  0
CLASS
  1
AEC_DISP_REP_LAYOUT_CURVE
  2
AecDbDispRepLayoutCurve
  3
AecBase50|Product Desc: Autodesk Architectural Desktop 2007 |Company: Autodesk,Inc. |WEB Address: www.autodesk.com
 90
    32897
280
     0
281
     0
  0
CLASS
  1
AEC_DISP_PROPS_LAYOUT_CURVE
  2
AecDbDispPropsLayoutCurve
  3
AecBase50|Product Desc: Autodesk Architectural Desktop 2007 |Company: Autodesk,Inc. |WEB Address: www.autodesk.com
 90
    32897
280
     0
281
     0
  0
CLASS
  1
AEC_DISP_REP_LAYOUT_GRID2D
  2
AecDbDispRepLayoutGrid2d
  3
AecBase50|Product Desc: Autodesk Architectural Desktop 2007 |Company: Autodesk,Inc. |WEB Address: www.autodesk.com
 90
    32897
280
     0
281
     0
  0
CLASS
  1
AEC_DISP_PROPS_LAYOUT_GRID2D
  2
AecDbDispPropsLayoutGrid2d
  3
AecBase50|Product Desc: Autodesk Architectural Desktop 2007 |Company: Autodesk,Inc. |WEB Address: www.autodesk.com
 90
    32897
280
     0
281
     0
  0
CLASS
  1
AEC_DISP_REP_LAYOUT_GRID3D
  2
AecDbDispRepLayoutGrid3d
  3
AecBase50|Product Desc: Autodesk Architectural Desktop 2007 |Company: Autodesk,Inc. |WEB Address: www.autodesk.com
 90
    32897
280
     0
281
     0
  0
CLASS
  1
AEC_DISP_PROPS_LAYOUT_GRID3D
  2
AecDbDispPropsLayoutGrid3d
  3
AecBase50|Product Desc: Autodesk Architectural Desktop 2007 |Company: Autodesk,Inc. |WEB Address: www.autodesk.com
 90
    32897
280
     0
281
     0
  0
CLASS
  1
AEC_DISP_REP_MASKBLOCK_REF
  2
AecDbDispRepMaskBlockRef
  3
AecBase50|Product Desc: Autodesk Architectural Desktop 2007 |Company: Autodesk,Inc. |WEB Address: www.autodesk.com
 90
    32897
280
     0
281
     0
  0
CLASS
  1
AEC_DISP_PROPS_MASKBLOCK
  2
AecDbDispPropsMaskBlock
  3
AecBase50|Product Desc: Autodesk Architectural Desktop 2007 |Company: Autodesk,Inc. |WEB Address: www.autodesk.com
 90
    32897
280
     0
281
     0
  0
CLASS
  1
AEC_DISP_REP_MASS_ELEM_MODEL
  2
AecDbDispRepMassElemModel
  3
AecBaseEx50|Product Desc: Autodesk Architectural Desktop 2007 |Company: Autodesk,Inc. |WEB Address: www.autodesk.com
 90
    32897
280
     0
281
     0
  0
CLASS
  1
AEC_DISP_PROPS_MASS_ELEM_MODEL
  2
AecDbDispPropsMassElem
  3
AecBaseEx50|Product Desc: Autodesk Architectural Desktop 2007 |Company: Autodesk,Inc. |WEB Address: www.autodesk.com
 90
    32897
280
     0
281
     0
  0
CLASS
  1
AEC_DISP_REP_MASS_ELEM_SCHEM
  2
AecDbDispRepMassElemSchem
  3
AecBaseEx50|Product Desc: Autodesk Architectural Desktop 2007 |Company: Autodesk,Inc. |WEB Address: www.autodesk.com
 90
    32897
280
     0
281
     0
  0
CLASS
  1
AEC_DISP_REP_MASS_GROUP_MODEL
  2
AecDbDispRepMassGroupModel
  3
AecBaseEx50|Product Desc: Autodesk Architectural Desktop 2007 |Company: Autodesk,Inc. |WEB Address: www.autodesk.com
 90
    32897
280
     0
281
     0
  0
CLASS
  1
AEC_DISP_PROPS_MASS_GROUP
  2
AecDbDispPropsMassGroup
  3
AecBaseEx50|Product Desc: Autodesk Architectural Desktop 2007 |Company: Autodesk,Inc. |WEB Address: www.autodesk.com
 90
    32897
280
     0
281
     0
  0
CLASS
  1
AEC_DISP_REP_MASS_GROUP_PLAN
  2
AecDbDispRepMassGroupPlan
  3
AecBaseEx50|Product Desc: Autodesk Architectural Desktop 2007 |Company: Autodesk,Inc. |WEB Address: www.autodesk.com
 90
    32897
280
     0
281
     0
  0
CLASS
  1
AEC_DISP_REP_MATERIAL
  2
AecDbDispRepMaterial
  3
AecBase50|Product Desc: Autodesk Architectural Desktop 2007 |Company: Autodesk,Inc. |WEB Address: www.autodesk.com
 90
    32897
280
     0
281
     0
  0
CLASS
  1
AEC_DISP_PROPS_MATERIAL
  2
AecDbDispPropsMaterial
  3
AecBase50|Product Desc: Autodesk Architectural Desktop 2007 |Company: Autodesk,Inc. |WEB Address: www.autodesk.com
 90
    32897
280
     0
281
     0
  0
CLASS
  1
AEC_DISP_REP_MVBLOCK_REF
  2
AecDbDispRepMvBlockRef
  3
AecBase50|Product Desc: Autodesk Architectural Desktop 2007 |Company: Autodesk,Inc. |WEB Address: www.autodesk.com
 90
    32897
280
     0
281
     0
  0
CLASS
  1
AEC_DISP_REP_MVBLOCK_REF_MODEL
  2
AecDbDispRepMvBlockRefModel
  3
AecBase50|Product Desc: Autodesk Architectural Desktop 2007 |Company: Autodesk,Inc. |WEB Address: www.autodesk.com
 90
    32897
280
     0
281
     0
  0
CLASS
  1
AEC_DISP_REP_POLYGON_MODEL
  2
AecDbDispRepPolygonModel
  3
AecBaseEx50|Product Desc: Autodesk Architectural Desktop 2007 |Company: Autodesk,Inc. |WEB Address: www.autodesk.com
 90
    32897
280
     0
281
     0
  0
CLASS
  1
AEC_DISP_PROPS_POLYGON_MODEL
  2
AecDbDispPropsPolygonModel
  3
AecBaseEx50|Product Desc: Autodesk Architectural Desktop 2007 |Company: Autodesk,Inc. |WEB Address: www.autodesk.com
 90
    32897
280
     0
281
     0
  0
CLASS
  1
AEC_DISP_REP_POLYGON_TRUECOLOUR
  2
AecDbDispRepPolygonTrueColour
  3
AecBaseEx50|Product Desc: Autodesk Architectural Desktop 2007 |Company: Autodesk,Inc. |WEB Address: www.autodesk.com
 90
    32897
280
     0
281
     0
  0
CLASS
  1
AEC_DISP_PROPS_POLYGON_TRUECOLOUR
  2
AecDbDispPropsPolygonTrueColour
  3
AecBaseEx50|Product Desc: Autodesk Architectural Desktop 2007 |Company: Autodesk,Inc. |WEB Address: www.autodesk.com
 90
    32897
280
     0
281
     0
  0
CLASS
  1
AEC_DISP_REP_SLICE
  2
AecDbDispRepSlice
  3
AecBase50|Product Desc: Autodesk Architectural Desktop 2007 |Company: Autodesk,Inc. |WEB Address: www.autodesk.com
 90
    32897
280
     0
281
     0
  0
CLASS
  1
AEC_DISP_PROPS_SLICE
  2
AecDbDispPropsSlice
  3
AecBase50|Product Desc: Autodesk Architectural Desktop 2007 |Company: Autodesk,Inc. |WEB Address: www.autodesk.com
 90
    32897
280
     0
281
     0
  0
CLASS
  1
AEC_DISP_REP_ANCHOR_TAG_TO_ENT
  2
AecDbDispRepAnchorTagToEnt
  3
AecScheduleData50|Product Desc: Autodesk Architectural Desktop 2007 |Company: Autodesk,Inc. |WEB Address: www.autodesk.com
 90
    32897
280
     0
281
     0
  0
CLASS
  1
AEC_DISP_REP_BDG_ELEVLINE_MODEL
  2
AecDbDispRepBdgElevLineModel
  3
AecArchBase50|Product Desc: Autodesk Architectural Desktop 2007 |Company: Autodesk,Inc. |WEB Address: www.autodesk.com
 90
    32897
280
     0
281
     0
  0
CLASS
  1
AEC_DISP_REP_BDG_SECTIONLINE_PLAN
  2
AecDbDispRepBdgElevLinePlan
  3
AecArchBase50|Product Desc: Autodesk Architectural Desktop 2007 |Company: Autodesk,Inc. |WEB Address: www.autodesk.com
 90
    32897
280
     0
281
     0
  0
CLASS
  1
AEC_DISP_REP_BDG_ELEVLINE_RCP
  2
AecDbDispRepBdgElevLineRcp
  3
AecArchBase50|Product Desc: Autodesk Architectural Desktop 2007 |Company: Autodesk,Inc. |WEB Address: www.autodesk.com
 90
    32897
280
     0
281
     0
  0
CLASS
  1
AEC_DISP_REP_BDG_SECTIONLINE_MODEL
  2
AecDbDispRepBdgSectionLineModel
  3
AecArchBase50|Product Desc: Autodesk Architectural Desktop 2007 |Company: Autodesk,Inc. |WEB Address: www.autodesk.com
 90
    32897
280
     0
281
     0
  0
CLASS
  1
AEC_DISP_REP_BDG_SECTIONLINE_PLAN
  2
AecDbDispRepBdgSectionLinePlan
  3
AecArchBase50|Product Desc: Autodesk Architectural Desktop 2007 |Company: Autodesk,Inc. |WEB Address: www.autodesk.com
 90
    32897
280
     0
281
     0
  0
CLASS
  1
AEC_DISP_REP_BDG_SECTIONLINE_RCP
  2
AecDbDispRepBdgSectionLineRcp
  3
AecArchBase50|Product Desc: Autodesk Architectural Desktop 2007 |Company: Autodesk,Inc. |WEB Address: www.autodesk.com
 90
    32897
280
     0
281
     0
  0
CLASS
  1
AEC_DISP_REP_BDG_SECTION_MODEL
  2
AecDbDispRepBdgSectionModel
  3
AecArchBase50|Product Desc: Autodesk Architectural Desktop 2007 |Company: Autodesk,Inc. |WEB Address: www.autodesk.com
 90
    32897
280
     0
281
     0
  0
CLASS
  1
AEC_DISP_REP_BDG_SECTION_SUBDIV
  2
AecDbDispRepBdgSectionSubDiv
  3
AecArchBase50|Product Desc: Autodesk Architectural Desktop 2007 |Company: Autodesk,Inc. |WEB Address: www.autodesk.com
 90
    32897
280
     0
281
     0
  0
CLASS
  1
AEC_DISP_REP_CEILING_GRID
  2
AecDbDispRepCeilingGrid
  3
AecArchBase50|Product Desc: Autodesk Architectural Desktop 2007 |Company: Autodesk,Inc. |WEB Address: www.autodesk.com
 90
    33661
280
     0
281
     0
  0
CLASS
  1
AEC_DISP_REP_CEILING_GRID_MODEL
  2
AecDbDispRepCeilingGridModel
  3
AecArchBase50|Product Desc: Autodesk Architectural Desktop 2007 |Company: Autodesk,Inc. |WEB Address: www.autodesk.com
 90
    32897
280
     0
281
     0
  0
CLASS
  1
AEC_DISP_REP_CEILING_GRID_RCP
  2
AecDbDispRepCeilingGridRcp
  3
AecArchBase50|Product Desc: Autodesk Architectural Desktop 2007 |Company: Autodesk,Inc. |WEB Address: www.autodesk.com
 90
    32897
280
     0
281
     0
  0
CLASS
  1
AEC_DISP_REP_CURTAIN_WALL_LAYOUT_MODEL
  2
AecDbDispRepCurtainWallLayoutModel
  3
AecArchBase50|Product Desc: Autodesk Architectural Desktop 2007 |Company: Autodesk,Inc. |WEB Address: www.autodesk.com
 90
    32897
280
     0
281
     0
  0
CLASS
  1
AEC_DISP_PROPS_GRID_ASSEMBLY_MODEL
  2
AecDbDispPropsGridAssemblyModel
  3
AecArchBase50|Product Desc: Autodesk Architectural Desktop 2007 |Company: Autodesk,Inc. |WEB Address: www.autodesk.com
 90
    32897
280
     0
281
     0
  0
CLASS
  1
AEC_DISP_REP_CURTAIN_WALL_LAYOUT_PLAN
  2
AecDbDispRepCurtainWallLayoutPlan
  3
AecArchBase50|Product Desc: Autodesk Architectural Desktop 2007 |Company: Autodesk,Inc. |WEB Address: www.autodesk.com
 90
    32897
280
     0
281
     0
  0
CLASS
  1
AEC_DISP_PROPS_GRID_ASSEMBLY_PLAN
  2
AecDbDispPropsGridAssemblyPlan
  3
AecArchBase50|Product Desc: Autodesk Architectural Desktop 2007 |Company: Autodesk,Inc. |WEB Address: www.autodesk.com
 90
    32897
280
     0
281
     0
  0
CLASS
  1
AEC_DISP_REP_CURTAIN_WALL_UNIT_MODEL
  2
AecDbDispRepCurtainWallUnitModel
  3
AecArchBase50|Product Desc: Autodesk Architectural Desktop 2007 |Company: Autodesk,Inc. |WEB Address: www.autodesk.com
 90
    32897
280
     0
281
     0
  0
CLASS
  1
AEC_DISP_REP_CURTAIN_WALL_UNIT_PLAN
  2
AecDbDispRepCurtainWallUnitPlan
  3
AecArchBase50|Product Desc: Autodesk Architectural Desktop 2007 |Company: Autodesk,Inc. |WEB Address: www.autodesk.com
 90
    32897
280
     0
281
     0
  0
CLASS
  1
AEC_DISP_REP_DOOR_MODEL
  2
AecDbDispRepDoorModel
  3
AecArchBase50|Product Desc: Autodesk Architectural Desktop 2007 |Company: Autodesk,Inc. |WEB Address: www.autodesk.com
 90
    32897
280
     0
281
     0
  0
CLASS
  1
AEC_DISP_PROPS_DOOR
  2
AecDbDispPropsDoor
  3
AecArchBase50|Product Desc: Autodesk Architectural Desktop 2007 |Company: Autodesk,Inc. |WEB Address: www.autodesk.com
 90
    32897
280
     0
281
     0
  0
CLASS
  1
AEC_DISP_REP_DOOR_ELEV
  2
AecDbDispRepDoorElev
  3
AecArchBase50|Product Desc: Autodesk Architectural Desktop 2007 |Company: Autodesk,Inc. |WEB Address: www.autodesk.com
 90
    32897
280
     0
281
     0
  0
CLASS
  1
AEC_DISP_REP_DOOR_PLAN
  2
AecDbDispRepDoorPlan
  3
AecArchBase50|Product Desc: Autodesk Architectural Desktop 2007 |Company: Autodesk,Inc. |WEB Address: www.autodesk.com
 90
    32897
280
     0
281
     0
  0
CLASS
  1
AEC_DISP_REP_DOOR_NOMINAL
  2
AecDbDispRepDoorNominal
  3
AecArchBase50|Product Desc: Autodesk Architectural Desktop 2007 |Company: Autodesk,Inc. |WEB Address: www.autodesk.com
 90
    32897
280
     0
281
     0
  0
CLASS
  1
AEC_DISP_PROPS_DOOR_NOMINAL
  2
AecDbDispPropsDoorNominal
  3
AecArchBase50|Product Desc: Autodesk Architectural Desktop 2007 |Company: Autodesk,Inc. |WEB Address: www.autodesk.com
 90
    32897
280
     0
281
     0
  0
CLASS
  1
AEC_DISP_REP_DOOR_RCP
  2
AecDbDispRepDoorRcp
  3
AecArchBase50|Product Desc: Autodesk Architectural Desktop 2007 |Company: Autodesk,Inc. |WEB Address: www.autodesk.com
 90
    32897
280
     0
281
     0
  0
CLASS
  1
AEC_DISP_REP_DOOR_THRESHOLD_PLAN
  2
AecDbDispRepDoorThresholdPlan
  3
AecArchBase50|Product Desc: Autodesk Architectural Desktop 2007 |Company: Autodesk,Inc. |WEB Address: www.autodesk.com
 90
    32897
280
     0
281
     0
  0
CLASS
  1
AEC_DISP_PROPS_DOOR_THRESHOLD_PLAN
  2
AecDbDispPropsDoorThresholdPlan
  3
AecArchBase50|Product Desc: Autodesk Architectural Desktop 2007 |Company: Autodesk,Inc. |WEB Address: www.autodesk.com
 90
    32897
280
     0
281
     0
  0
CLASS
  1
AEC_DISP_REP_MASKBLOCK_REF_RCP
  2
AecDbDispRepMaskBlockRefRcp
  3
AecArchBase50|Product Desc: Autodesk Architectural Desktop 2007 |Company: Autodesk,Inc. |WEB Address: www.autodesk.com
 90
    32897
280
     0
281
     0
  0
CLASS
  1
AEC_DISP_REP_MASS_ELEM_RCP
  2
AecDbDispRepMassElemRcp
  3
AecArchBase50|Product Desc: Autodesk Architectural Desktop 2007 |Company: Autodesk,Inc. |WEB Address: www.autodesk.com
 90
    32897
280
     0
281
     0
  0
CLASS
  1
AEC_DISP_REP_MASS_GROUP_RCP
  2
AecDbDispRepMassGroupRcp
  3
AecArchBase50|Product Desc: Autodesk Architectural Desktop 2007 |Company: Autodesk,Inc. |WEB Address: www.autodesk.com
 90
    32897
280
     0
281
     0
  0
CLASS
  1
AEC_DISP_REP_MVBLOCK_REF_RCP
  2
AecDbDispRepMvBlockRefRcp
  3
AecArchBase50|Product Desc: Autodesk Architectural Desktop 2007 |Company: Autodesk,Inc. |WEB Address: www.autodesk.com
 90
    32897
280
     0
281
     0
  0
CLASS
  1
AEC_DISP_REP_OPENING
  2
AecDbDispRepOpening
  3
AecArchBase50|Product Desc: Autodesk Architectural Desktop 2007 |Company: Autodesk,Inc. |WEB Address: www.autodesk.com
 90
    32897
280
     0
281
     0
  0
CLASS
  1
AEC_DISP_PROPS_OPENING
  2
AecDbDispPropsOpening
  3
AecArchBase50|Product Desc: Autodesk Architectural Desktop 2007 |Company: Autodesk,Inc. |WEB Address: www.autodesk.com
 90
    32897
280
     0
281
     0
  0
CLASS
  1
AEC_DISP_REP_OPENING_MODEL
  2
AecDbDispRepOpeningModel
  3
AecArchBase50|Product Desc: Autodesk Architectural Desktop 2007 |Company: Autodesk,Inc. |WEB Address: www.autodesk.com
 90
    32897
280
     0
281
     0
  0
CLASS
  1
AEC_DISP_REP_RAILING_MODEL
  2
AecDbDispRepRailingModel
  3
AecArchBase50|Product Desc: Autodesk Architectural Desktop 2007 |Company: Autodesk,Inc. |WEB Address: www.autodesk.com
 90
    32897
280
     0
281
     0
  0
CLASS
  1
AEC_DISP_PROPS_RAILING_MODEL
  2
AecDbDispPropsRailingModel
  3
AecArchBase50|Product Desc: Autodesk Architectural Desktop 2007 |Company: Autodesk,Inc. |WEB Address: www.autodesk.com
 90
    32897
280
     0
281
     0
  0
CLASS
  1
AEC_DISP_REP_RAILING_PLAN
  2
AecDbDispRepRailingPlan
  3
AecArchBase50|Product Desc: Autodesk Architectural Desktop 2007 |Company: Autodesk,Inc. |WEB Address: www.autodesk.com
 90
    32897
280
     0
281
     0
  0
CLASS
  1
AEC_DISP_PROPS_RAILING_PLAN
  2
AecDbDispPropsRailingPlan
  3
AecArchBase50|Product Desc: Autodesk Architectural Desktop 2007 |Company: Autodesk,Inc. |WEB Address: www.autodesk.com
 90
    32897
280
     0
281
     0
  0
CLASS
  1
AEC_DISP_REP_ROOF_MODEL
  2
AecDbDispRepRoofModel
  3
AecArchBase50|Product Desc: Autodesk Architectural Desktop 2007 |Company: Autodesk,Inc. |WEB Address: www.autodesk.com
 90
    32897
280
     0
281
     0
  0
CLASS
  1
AEC_DISP_PROPS_ROOF
  2
AecDbDispPropsRoof
  3
AecArchBase50|Product Desc: Autodesk Architectural Desktop 2007 |Company: Autodesk,Inc. |WEB Address: www.autodesk.com
 90
    32897
280
     0
281
     0
  0
CLASS
  1
AEC_DISP_REP_ROOF_PLAN
  2
AecDbDispRepRoofPlan
  3
AecArchBase50|Product Desc: Autodesk Architectural Desktop 2007 |Company: Autodesk,Inc. |WEB Address: www.autodesk.com
 90
    32897
280
     0
281
     0
  0
CLASS
  1
AEC_DISP_REP_ROOF_RCP
  2
AecDbDispRepRoofRcp
  3
AecArchBase50|Product Desc: Autodesk Architectural Desktop 2007 |Company: Autodesk,Inc. |WEB Address: www.autodesk.com
 90
    32897
280
     0
281
     0
  0
CLASS
  1
AEC_DISP_REP_SLAB_MODEL
  2
AecDbDispRepSlabModel
  3
AecArchBase50|Product Desc: Autodesk Architectural Desktop 2007 |Company: Autodesk,Inc. |WEB Address: www.autodesk.com
 90
    32897
280
     0
281
     0
  0
CLASS
  1
AEC_DISP_PROPS_SLAB
  2
AecDbDispPropsSlab
  3
AecArchBase50|Product Desc: Autodesk Architectural Desktop 2007 |Company: Autodesk,Inc. |WEB Address: www.autodesk.com
 90
    32897
280
     0
281
     0
  0
CLASS
  1
AEC_DISP_REP_ROOFSLAB_MODEL
  2
AecDbDispRepRoofSlabModel
  3
AecArchBase50|Product Desc: Autodesk Architectural Desktop 2007 |Company: Autodesk,Inc. |WEB Address: www.autodesk.com
 90
    32897
280
     0
281
     0
  0
CLASS
  1
AEC_DISP_PROPS_ROOFSLAB
  2
AecDbDispPropsRoofSlab
  3
AecArchBase50|Product Desc: Autodesk Architectural Desktop 2007 |Company: Autodesk,Inc. |WEB Address: www.autodesk.com
 90
    32897
280
     0
281
     0
  0
CLASS
  1
AEC_DISP_REP_SLAB_PLAN
  2
AecDbDispRepSlabPlan
  3
AecArchBase50|Product Desc: Autodesk Architectural Desktop 2007 |Company: Autodesk,Inc. |WEB Address: www.autodesk.com
 90
    32897
280
     0
281
     0
  0
CLASS
  1
AEC_DISP_PROPS_SLAB_PLAN
  2
AecDbDispPropsSlabPlan
  3
AecArchBase50|Product Desc: Autodesk Architectural Desktop 2007 |Company: Autodesk,Inc. |WEB Address: www.autodesk.com
 90
    32897
280
     0
281
     0
  0
CLASS
  1
AEC_DISP_REP_ROOFSLAB_PLAN
  2
AecDbDispRepRoofSlabPlan
  3
AecArchBase50|Product Desc: Autodesk Architectural Desktop 2007 |Company: Autodesk,Inc. |WEB Address: www.autodesk.com
 90
    32897
280
     0
281
     0
  0
CLASS
  1
AEC_DISP_PROPS_ROOFSLAB_PLAN
  2
AecDbDispPropsRoofSlabPlan
  3
AecArchBase50|Product Desc: Autodesk Architectural Desktop 2007 |Company: Autodesk,Inc. |WEB Address: www.autodesk.com
 90
    32897
280
     0
281
     0
  0
CLASS
  1
AEC_DISP_REP_SPACE_BOUNDARY_DIAGRAM
  2
AecDbDispRepSpaceBoundaryDgrm
  3
AecArchBase50|Product Desc: Autodesk Architectural Desktop 2007 |Company: Autodesk,Inc. |WEB Address: www.autodesk.com
 90
    32897
280
     0
281
     0
  0
CLASS
  1
AEC_DISP_PROPS_SPACE_BOUNDARY
  2
AecDbDispPropsSpaceBoundary
  3
AecArchBase50|Product Desc: Autodesk Architectural Desktop 2007 |Company: Autodesk,Inc. |WEB Address: www.autodesk.com
 90
    32897
280
     0
281
     0
  0
CLASS
  1
AEC_DISP_REP_SPACE_BOUNDARY_MODEL
  2
AecDbDispRepSpaceBoundaryModel
  3
AecArchBase50|Product Desc: Autodesk Architectural Desktop 2007 |Company: Autodesk,Inc. |WEB Address: www.autodesk.com
 90
    32897
280
     0
281
     0
  0
CLASS
  1
AEC_DISP_REP_SPACE_BOUNDARY_PLAN
  2
AecDbDispRepSpaceBoundaryPlan
  3
AecArchBase50|Product Desc: Autodesk Architectural Desktop 2007 |Company: Autodesk,Inc. |WEB Address: www.autodesk.com
 90
    32897
280
     0
281
     0
  0
CLASS
  1
AEC_DISP_REP_SPACE_BOUNDARY_SCHEM
  2
AecDbDispRepSpaceBoundarySketch
  3
AecArchBase50|Product Desc: Autodesk Architectural Desktop 2007 |Company: Autodesk,Inc. |WEB Address: www.autodesk.com
 90
    32897
280
     0
281
     0
  0
CLASS
  1
AEC_DISP_REP_SPACE_MODEL
  2
AecDbDispRepSpaceModel
  3
AecArchBase50|Product Desc: Autodesk Architectural Desktop 2007 |Company: Autodesk,Inc. |WEB Address: www.autodesk.com
 90
    32897
280
     0
281
     0
  0
CLASS
  1
AEC_DISP_PROPS_SPACE_MODEL
  2
AecDbDispPropsSpaceModel
  3
AecArchBase50|Product Desc: Autodesk Architectural Desktop 2007 |Company: Autodesk,Inc. |WEB Address: www.autodesk.com
 90
    32897
280
     0
281
     0
  0
CLASS
  1
AEC_DISP_REP_SPACE_PLAN
  2
AecDbDispRepSpacePlan
  3
AecArchBase50|Product Desc: Autodesk Architectural Desktop 2007 |Company: Autodesk,Inc. |WEB Address: www.autodesk.com
 90
    32897
280
     0
281
     0
  0
CLASS
  1
AEC_DISP_PROPS_SPACE_PLAN
  2
AecDbDispPropsSpacePlan
  3
AecArchBase50|Product Desc: Autodesk Architectural Desktop 2007 |Company: Autodesk,Inc. |WEB Address: www.autodesk.com
 90
    32897
280
     0
281
     0
  0
CLASS
  1
AEC_DISP_REP_SPACE_RCP
  2
AecDbDispRepSpaceRcp
  3
AecArchBase50|Product Desc: Autodesk Architectural Desktop 2007 |Company: Autodesk,Inc. |WEB Address: www.autodesk.com
 90
    32897
280
     0
281
     0
  0
CLASS
  1
AEC_DISP_REP_SPACE_VOLUME
  2
AecDbDispRepSpaceVolume
  3
AecArchBase50|Product Desc: Autodesk Architectural Desktop 2007 |Company: Autodesk,Inc. |WEB Address: www.autodesk.com
 90
    32897
280
     0
281
     0
  0
CLASS
  1
AEC_DISP_REP_STAIR_MODEL
  2
AecDbDispRepStairModel
  3
AecArchBase50|Product Desc: Autodesk Architectural Desktop 2007 |Company: Autodesk,Inc. |WEB Address: www.autodesk.com
 90
    32897
280
     0
281
     0
  0
CLASS
  1
AEC_DISP_PROPS_STAIR_MODEL
  2
AecDbDispPropsStairModel
  3
AecArchBase50|Product Desc: Autodesk Architectural Desktop 2007 |Company: Autodesk,Inc. |WEB Address: www.autodesk.com
 90
    32897
280
     0
281
     0
  0
CLASS
  1
AEC_DISP_REP_STAIR_PLAN
  2
AecDbDispRepStairPlan
  3
AecArchBase50|Product Desc: Autodesk Architectural Desktop 2007 |Company: Autodesk,Inc. |WEB Address: www.autodesk.com
 90
    32897
280
     0
281
     0
  0
CLASS
  1
AEC_DISP_PROPS_STAIR_PLAN
  2
AecDbDispPropsStairPlan
  3
AecArchBase50|Product Desc: Autodesk Architectural Desktop 2007 |Company: Autodesk,Inc. |WEB Address: www.autodesk.com
 90
    32897
280
     0
281
     0
  0
CLASS
  1
AEC_DISP_REP_STAIR_PLAN_OVERLAPPING
  2
AecDbDispRepStairPlanOverlapping
  3
AecArchBase50|Product Desc: Autodesk Architectural Desktop 2007 |Company: Autodesk,Inc. |WEB Address: www.autodesk.com
 90
    32897
280
     0
281
     0
  0
CLASS
  1
AEC_DISP_PROPS_STAIR_PLAN_OVERLAPPING
  2
AecDbDispPropsStairPlanOverlapping
  3
AecArchBase50|Product Desc: Autodesk Architectural Desktop 2007 |Company: Autodesk,Inc. |WEB Address: www.autodesk.com
 90
    32897
280
     0
281
     0
  0
CLASS
  1
AEC_DISP_REP_STAIR_RCP
  2
AecDbDispRepStairRcp
  3
AecArchBase50|Product Desc: Autodesk Architectural Desktop 2007 |Company: Autodesk,Inc. |WEB Address: www.autodesk.com
 90
    32897
280
     0
281
     0
  0
CLASS
  1
AEC_DISP_REP_WALL_GRAPH
  2
AecDbDispRepWallGraph
  3
AecArchBase50|Product Desc: Autodesk Architectural Desktop 2007 |Company: Autodesk,Inc. |WEB Address: www.autodesk.com
 90
    32897
280
     0
281
     0
  0
CLASS
  1
AEC_DISP_PROPS_WALL_GRAPH
  2
AecDbDispPropsWallGraph
  3
AecArchBase50|Product Desc: Autodesk Architectural Desktop 2007 |Company: Autodesk,Inc. |WEB Address: www.autodesk.com
 90
    32897
280
     0
281
     0
  0
CLASS
  1
AEC_DISP_REP_WALL_MODEL
  2
AecDbDispRepWallModel
  3
AecArchBase50|Product Desc: Autodesk Architectural Desktop 2007 |Company: Autodesk,Inc. |WEB Address: www.autodesk.com
 90
    32897
280
     0
281
     0
  0
CLASS
  1
AEC_DISP_PROPS_WALL_MODEL
  2
AecDbDispPropsWallModel
  3
AecArchBase50|Product Desc: Autodesk Architectural Desktop 2007 |Company: Autodesk,Inc. |WEB Address: www.autodesk.com
 90
    32897
280
     0
281
     0
  0
CLASS
  1
AEC_DISP_REP_WALL_PLAN
  2
AecDbDispRepWallPlan
  3
AecArchBase50|Product Desc: Autodesk Architectural Desktop 2007 |Company: Autodesk,Inc. |WEB Address: www.autodesk.com
 90
    32897
280
     0
281
     0
  0
CLASS
  1
AEC_DISP_PROPS_WALL_PLAN
  2
AecDbDispPropsWallPlan
  3
AecArchBase50|Product Desc: Autodesk Architectural Desktop 2007 |Company: Autodesk,Inc. |WEB Address: www.autodesk.com
 90
    32897
280
     0
281
     0
  0
CLASS
  1
AEC_DISP_REP_WALL_RCP
  2
AecDbDispRepWallRcp
  3
AecArchBase50|Product Desc: Autodesk Architectural Desktop 2007 |Company: Autodesk,Inc. |WEB Address: www.autodesk.com
 90
    32897
280
     0
281
     0
  0
CLASS
  1
AEC_DISP_REP_WALL_SCHEM
  2
AecDbDispRepWallSchem
  3
AecArchBase50|Product Desc: Autodesk Architectural Desktop 2007 |Company: Autodesk,Inc. |WEB Address: www.autodesk.com
 90
    32897
280
     0
281
     0
  0
CLASS
  1
AEC_DISP_PROPS_WALL_SCHEM
  2
AecDbDispPropsWallSchem
  3
AecArchBase50|Product Desc: Autodesk Architectural Desktop 2007 |Company: Autodesk,Inc. |WEB Address: www.autodesk.com
 90
    32897
280
     0
281
     0
  0
CLASS
  1
AEC_DISP_REP_WINDOW_ASSEMBLY_MODEL
  2
AecDbDispRepWindowAssemblyModel
  3
AecArchBase50|Product Desc: Autodesk Architectural Desktop 2007 |Company: Autodesk,Inc. |WEB Address: www.autodesk.com
 90
    32897
280
     0
281
     0
  0
CLASS
  1
AEC_DISP_REP_WINDOW_ASSEMBLY_PLAN
  2
AecDbDispRepWindowAssemblyPlan
  3
AecArchBase50|Product Desc: Autodesk Architectural Desktop 2007 |Company: Autodesk,Inc. |WEB Address: www.autodesk.com
 90
    32897
280
     0
281
     0
  0
CLASS
  1
AEC_DISP_REP_WINDOWASSEMBLY_SILL_PLAN
  2
AecDbDispRepWindowAssemblySillPlan
  3
AecArchBase50|Product Desc: Autodesk Architectural Desktop 2007 |Company: Autodesk,Inc. |WEB Address: www.autodesk.com
 90
    32897
280
     0
281
     0
  0
CLASS
  1
AEC_DISP_PROPS_WINDOW_ASSEMBLY_SILL_PLAN
  2
AecDbDispPropsWindowAssemblySillPlan
  3
AecArchBase50|Product Desc: Autodesk Architectural Desktop 2007 |Company: Autodesk,Inc. |WEB Address: www.autodesk.com
 90
    32897
280
     0
281
     0
  0
CLASS
  1
AEC_DISP_REP_WINDOW_MODEL
  2
AecDbDispRepWindowModel
  3
AecArchBase50|Product Desc: Autodesk Architectural Desktop 2007 |Company: Autodesk,Inc. |WEB Address: www.autodesk.com
 90
    32897
280
     0
281
     0
  0
CLASS
  1
AEC_DISP_PROPS_WINDOW
  2
AecDbDispPropsWindow
  3
AecArchBase50|Product Desc: Autodesk Architectural Desktop 2007 |Company: Autodesk,Inc. |WEB Address: www.autodesk.com
 90
    32897
280
     0
281
     0
  0
CLASS
  1
AEC_DISP_REP_WINDOW_ELEV
  2
AecDbDispRepWindowElev
  3
AecArchBase50|Product Desc: Autodesk Architectural Desktop 2007 |Company: Autodesk,Inc. |WEB Address: www.autodesk.com
 90
    32897
280
     0
281
     0
  0
CLASS
  1
AEC_DISP_REP_WINDOW_PLAN
  2
AecDbDispRepWindowPlan
  3
AecArchBase50|Product Desc: Autodesk Architectural Desktop 2007 |Company: Autodesk,Inc. |WEB Address: www.autodesk.com
 90
    32897
280
     0
281
     0
  0
CLASS
  1
AEC_DISP_REP_WINDOW_NOMINAL
  2
AecDbDispRepWindowNominal
  3
AecArchBase50|Product Desc: Autodesk Architectural Desktop 2007 |Company: Autodesk,Inc. |WEB Address: www.autodesk.com
 90
    32897
280
     0
281
     0
  0
CLASS
  1
AEC_DISP_PROPS_WINDOW_NOMINAL
  2
AecDbDispPropsWindowNominal
  3
AecArchBase50|Product Desc: Autodesk Architectural Desktop 2007 |Company: Autodesk,Inc. |WEB Address: www.autodesk.com
 90
    32897
280
     0
281
     0
  0
CLASS
  1
AEC_DISP_REP_WINDOW_RCP
  2
AecDbDispRepWindowRcp
  3
AecArchBase50|Product Desc: Autodesk Architectural Desktop 2007 |Company: Autodesk,Inc. |WEB Address: www.autodesk.com
 90
    32897
280
     0
281
     0
  0
CLASS
  1
AEC_DISP_REP_WINDOW_SILL_PLAN
  2
AecDbDispRepWindowSillPlan
  3
AecArchBase50|Product Desc: Autodesk Architectural Desktop 2007 |Company: Autodesk,Inc. |WEB Address: www.autodesk.com
 90
    32897
280
     0
281
     0
  0
CLASS
  1
AEC_DISP_PROPS_WINDOW_SILL_PLAN
  2
AecDbDispPropsWindowSillPlan
  3
AecArchBase50|Product Desc: Autodesk Architectural Desktop 2007 |Company: Autodesk,Inc. |WEB Address: www.autodesk.com
 90
    32897
280
     0
281
     0
  0
CLASS
  1
AEC_DISP_REP_ANCHOR_BUB_TO_GRID
  2
AecDbDispRepAnchorBubToGrid
  3
AecStructureBase50|Product Desc: Autodesk Architectural Desktop 2007 |Company: Autodesk,Inc. |WEB Address: www.autodesk.com
 90
    32897
280
     0
281
     0
  0
CLASS
  1
AEC_DISP_REP_ANCHOR_BUB_TO_GRID_MODEL
  2
AecDbDispRepAnchorBubToGridMdl
  3
AecStructureBase50|Product Desc: Autodesk Architectural Desktop 2007 |Company: Autodesk,Inc. |WEB Address: www.autodesk.com
 90
    32897
280
     0
281
     0
  0
CLASS
  1
AEC_DISP_REP_ANCHOR_BUB_TO_GRID_RCP
  2
AecDbDispRepAnchorBubToGridRcp
  3
AecStructureBase50|Product Desc: Autodesk Architectural Desktop 2007 |Company: Autodesk,Inc. |WEB Address: www.autodesk.com
 90
    32897
280
     0
281
     0
  0
CLASS
  1
AEC_DISP_REP_COLUMN_GRID
  2
AecDbDispRepColumnGrid
  3
AecStructureBase50|Product Desc: Autodesk Architectural Desktop 2007 |Company: Autodesk,Inc. |WEB Address: www.autodesk.com
 90
    32897
280
     0
281
     0
  0
CLASS
  1
AEC_DISP_REP_COLUMN_GRID_MODEL
  2
AecDbDispRepColumnGridModel
  3
AecStructureBase50|Product Desc: Autodesk Architectural Desktop 2007 |Company: Autodesk,Inc. |WEB Address: www.autodesk.com
 90
    32897
280
     0
281
     0
  0
CLASS
  1
AEC_DISP_REP_COLUMN_GRID_RCP
  2
AecDbDispRepColumnGridRcp
  3
AecStructureBase50|Product Desc: Autodesk Architectural Desktop 2007 |Company: Autodesk,Inc. |WEB Address: www.autodesk.com
 90
    32897
280
     0
281
     0
  0
CLASS
  1
AECS_DISP_REP_MEMBER_ELEVATION_DESIGN
  2
AecsDbDispRepMemberElevationDesign
  3
AecStructureBase50|Product Desc: Autodesk Architectural Desktop 2007 |Company: Autodesk,Inc. |WEB Address: www.autodesk.com
 90
    32897
280
     0
281
     0
  0
CLASS
  1
AECS_DISP_PROPS_MEMBER_PROJECTED
  2
AecsDbDispPropsMemberProjected
  3
AecStructureBase50|Product Desc: Autodesk Architectural Desktop 2007 |Company: Autodesk,Inc. |WEB Address: www.autodesk.com
 90
    32897
280
     0
281
     0
  0
CLASS
  1
AECS_DISP_REP_MEMBER_ELEVATION_DETAIL
  2
AecsDbDispRepMemberElevationDetail
  3
AecStructureBase50|Product Desc: Autodesk Architectural Desktop 2007 |Company: Autodesk,Inc. |WEB Address: www.autodesk.com
 90
    32897
280
     0
281
     0
  0
CLASS
  1
AECS_DISP_REP_MEMBER_LOGICAL
  2
AecsDbDispRepMemberLogical
  3
AecStructureBase50|Product Desc: Autodesk Architectural Desktop 2007 |Company: Autodesk,Inc. |WEB Address: www.autodesk.com
 90
    32897
280
     0
281
     0
  0
CLASS
  1
AECS_DISP_PROPS_MEMBER_LOGICAL
  2
AecsDbDispPropsMemberLogical
  3
AecStructureBase50|Product Desc: Autodesk Architectural Desktop 2007 |Company: Autodesk,Inc. |WEB Address: www.autodesk.com
 90
    32897
280
     0
281
     0
  0
CLASS
  1
AECS_DISP_REP_MEMBER_MODEL_DESIGN
  2
AecsDbDispRepMemberModelDesign
  3
AecStructureBase50|Product Desc: Autodesk Architectural Desktop 2007 |Company: Autodesk,Inc. |WEB Address: www.autodesk.com
 90
    32897
280
     0
281
     0
  0
CLASS
  1
AECS_DISP_PROPS_MEMBER
  2
AecsDbDispPropsMember
  3
AecStructureBase50|Product Desc: Autodesk Architectural Desktop 2007 |Company: Autodesk,Inc. |WEB Address: www.autodesk.com
 90
    32897
280
     0
281
     0
  0
CLASS
  1
AECS_DISP_REP_MEMBER_MODEL_DETAIL
  2
AecsDbDispRepMemberModelDetail
  3
AecStructureBase50|Product Desc: Autodesk Architectural Desktop 2007 |Company: Autodesk,Inc. |WEB Address: www.autodesk.com
 90
    32897
280
     0
281
     0
  0
CLASS
  1
AECS_DISP_REP_MEMBER_PLAN_DESIGN
  2
AecsDbDispRepMemberPlanDesign
  3
AecStructureBase50|Product Desc: Autodesk Architectural Desktop 2007 |Company: Autodesk,Inc. |WEB Address: www.autodesk.com
 90
    32897
280
     0
281
     0
  0
CLASS
  1
AECS_DISP_PROPS_MEMBER_PLAN
  2
AecsDbDispPropsMemberPlan
  3
AecStructureBase50|Product Desc: Autodesk Architectural Desktop 2007 |Company: Autodesk,Inc. |WEB Address: www.autodesk.com
 90
    32897
280
     0
281
     0
  0
CLASS
  1
AECS_DISP_REP_MEMBER_PLAN_DETAIL
  2
AecsDbDispRepMemberPlanDetail
  3
AecStructureBase50|Product Desc: Autodesk Architectural Desktop 2007 |Company: Autodesk,Inc. |WEB Address: www.autodesk.com
 90
    32897
280
     0
281
     0
  0
CLASS
  1
AECS_DISP_REP_MEMBER_PLAN_SKETCH
  2
AecsDbDispRepMemberPlanSketch
  3
AecStructureBase50|Product Desc: Autodesk Architectural Desktop 2007 |Company: Autodesk,Inc. |WEB Address: www.autodesk.com
 90
    32897
280
     0
281
     0
  0
CLASS
  1
AECS_DISP_PROPS_MEMBER_PLAN_SKETCH
  2
AecsDbDispPropsMemberPlanSketch
  3
AecStructureBase50|Product Desc: Autodesk Architectural Desktop 2007 |Company: Autodesk,Inc. |WEB Address: www.autodesk.com
 90
    32897
280
     0
281
     0
  0
CLASS
  1
AEC_DISP_REP_AREA
  2
AecDbDispRepArea
  3
AecAreaCalculationBase50|Product Desc: Autodesk Architectural Desktop 2007 |Company: Autodesk,Inc. |WEB Address: www.autodesk.com
 90
    32897
280
     0
281
     0
  0
CLASS
  1
AEC_DISP_PROPS_AREA
  2
AecDbDispPropsArea
  3
AecAreaCalculationBase50|Product Desc: Autodesk Architectural Desktop 2007 |Company: Autodesk,Inc. |WEB Address: www.autodesk.com
 90
    32897
280
     0
281
     0
  0
CLASS
  1
AEC_DISP_REP_AREA_DECOMPOSED
  2
AecDbDispRepAreaDecomposed
  3
AecAreaCalculationBase50|Product Desc: Autodesk Architectural Desktop 2007 |Company: Autodesk,Inc. |WEB Address: www.autodesk.com
 90
    32897
280
     0
281
     0
  0
CLASS
  1
AEC_DISP_PROPS_AREA_DECOMPOSED
  2
AecDbDispPropsAreaDecomposed
  3
AecAreaCalculationBase50|Product Desc: Autodesk Architectural Desktop 2007 |Company: Autodesk,Inc. |WEB Address: www.autodesk.com
 90
    32897
280
     0
281
     0
  0
CLASS
  1
AEC_DISP_REP_AREAGROUP
  2
AecDbDispRepAreaGroup
  3
AecAreaCalculationBase50|Product Desc: Autodesk Architectural Desktop 2007 |Company: Autodesk,Inc. |WEB Address: www.autodesk.com
 90
    32897
280
     0
281
     0
  0
CLASS
  1
AEC_DISP_PROPS_AREAGROUP
  2
AecDbDispPropsAreaGroup
  3
AecAreaCalculationBase50|Product Desc: Autodesk Architectural Desktop 2007 |Company: Autodesk,Inc. |WEB Address: www.autodesk.com
 90
    32897
280
     0
281
     0
  0
CLASS
  1
AEC_AECDBDISPREPAREA100
  2
AecDbDispRepArea100
  3
AecArchDACHBase50|Product Desc: Autodesk Architectural Desktop 2007 |Company: Autodesk,Inc. |WEB Address: www.autodesk.com
 90
    32897
280
     0
281
     0
  0
CLASS
  1
AEC_AECDBDISPREPAREAGROUP100
  2
AecDbDispRepAreaGroup100
  3
AecArchDACHBase50|Product Desc: Autodesk Architectural Desktop 2007 |Company: Autodesk,Inc. |WEB Address: www.autodesk.com
 90
    32897
280
     0
281
     0
  0
CLASS
  1
AEC_AECDBDISPREPBDGELEVLINEPLAN100
  2
AecDbDispRepBdgElevLinePlan100
  3
AecArchDACHBase50|Product Desc: Autodesk Architectural Desktop 2007 |Company: Autodesk,Inc. |WEB Address: www.autodesk.com
 90
    32897
280
     0
281
     0
  0
CLASS
  1
AEC_AECDBDISPREPBDGSECTIONLINEPLAN100
  2
AecDbDispRepBdgSectionLinePlan100
  3
AecArchDACHBase50|Product Desc: Autodesk Architectural Desktop 2007 |Company: Autodesk,Inc. |WEB Address: www.autodesk.com
 90
    32897
280
     0
281
     0
  0
CLASS
  1
AEC_AECDBDISPREPCEILINGGRIDPLAN100
  2
AecDbDispRepCeilingGridPlan100
  3
AecArchDACHBase50|Product Desc: Autodesk Architectural Desktop 2007 |Company: Autodesk,Inc. |WEB Address: www.autodesk.com
 90
    32897
280
     0
281
     0
  0
CLASS
  1
AEC_AECDBDISPREPCOLUMNGRIDPLAN100
  2
AecDbDispRepColumnGridPlan100
  3
AecArchDACHBase50|Product Desc: Autodesk Architectural Desktop 2007 |Company: Autodesk,Inc. |WEB Address: www.autodesk.com
 90
    32897
280
     0
281
     0
  0
CLASS
  1
AEC_AECDBDISPREPCURTAINWALLLAYOUTPLAN100
  2
AecDbDispRepCurtainWallLayoutPlan100
  3
AecArchDACHBase50|Product Desc: Autodesk Architectural Desktop 2007 |Company: Autodesk,Inc. |WEB Address: www.autodesk.com
 90
    32897
280
     0
281
     0
  0
CLASS
  1
AEC_AECDBDISPREPCURTAINWALLUNITPLAN100
  2
AecDbDispRepCurtainWallUnitPlan100
  3
AecArchDACHBase50|Product Desc: Autodesk Architectural Desktop 2007 |Company: Autodesk,Inc. |WEB Address: www.autodesk.com
 90
    32897
280
     0
281
     0
  0
CLASS
  1
AEC_AECDBDISPREPMVBLOCKREFPLAN100
  2
AecDbDispRepMvBlockRefPlan100
  3
AecArchDACHBase50|Product Desc: Autodesk Architectural Desktop 2007 |Company: Autodesk,Inc. |WEB Address: www.autodesk.com
 90
    32897
280
     0
281
     0
  0
CLASS
  1
AEC_AECDBDISPREPROOFPLAN100
  2
AecDbDispRepRoofPlan100
  3
AecArchDACHBase50|Product Desc: Autodesk Architectural Desktop 2007 |Company: Autodesk,Inc. |WEB Address: www.autodesk.com
 90
    32897
280
     0
281
     0
  0
CLASS
  1
AEC_AECDBDISPREPROOFSLABPLAN100
  2
AecDbDispRepRoofSlabPlan100
  3
AecArchDACHBase50|Product Desc: Autodesk Architectural Desktop 2007 |Company: Autodesk,Inc. |WEB Address: www.autodesk.com
 90
    32897
280
     0
281
     0
  0
CLASS
  1
AEC_AECDBDISPREPSLABPLAN100
  2
AecDbDispRepSlabPlan100
  3
AecArchDACHBase50|Product Desc: Autodesk Architectural Desktop 2007 |Company: Autodesk,Inc. |WEB Address: www.autodesk.com
 90
    32897
280
     0
281
     0
  0
CLASS
  1
AEC_AECDBDISPREPSPACEBOUNDARYPLAN100
  2
AecDbDispRepSpaceBoundaryPlan100
  3
AecArchDACHBase50|Product Desc: Autodesk Architectural Desktop 2007 |Company: Autodesk,Inc. |WEB Address: www.autodesk.com
 90
    32897
280
     0
281
     0
  0
CLASS
  1
AEC_AECDBDISPREPSPACEPLAN100
  2
AecDbDispRepSpacePlan100
  3
AecArchDACHBase50|Product Desc: Autodesk Architectural Desktop 2007 |Company: Autodesk,Inc. |WEB Address: www.autodesk.com
 90
    32897
280
     0
281
     0
  0
CLASS
  1
AEC_AECDBDISPREPWALLPLAN100
  2
AecDbDispRepWallPlan100
  3
AecArchDACHBase50|Product Desc: Autodesk Architectural Desktop 2007 |Company: Autodesk,Inc. |WEB Address: www.autodesk.com
 90
    32897
280
     0
281
     0
  0
CLASS
  1
AEC_AECDBDISPREPWINDOWASSEMBLYPLAN100
  2
AecDbDispRepWindowAssemblyPlan100
  3
AecArchDACHBase50|Product Desc: Autodesk Architectural Desktop 2007 |Company: Autodesk,Inc. |WEB Address: www.autodesk.com
 90
    32897
280
     0
281
     0
  0
CLASS
  1
AEC_AECDBDISPREPAREA50
  2
AecDbDispRepArea50
  3
AecArchDACHBase50|Product Desc: Autodesk Architectural Desktop 2007 |Company: Autodesk,Inc. |WEB Address: www.autodesk.com
 90
    32897
280
     0
281
     0
  0
CLASS
  1
AEC_AECDBDISPREPAREAGROUP50
  2
AecDbDispRepAreaGroup50
  3
AecArchDACHBase50|Product Desc: Autodesk Architectural Desktop 2007 |Company: Autodesk,Inc. |WEB Address: www.autodesk.com
 90
    32897
280
     0
281
     0
  0
CLASS
  1
AEC_AECDBDISPREPBDGELEVLINEPLAN50
  2
AecDbDispRepBdgElevLinePlan50
  3
AecArchDACHBase50|Product Desc: Autodesk Architectural Desktop 2007 |Company: Autodesk,Inc. |WEB Address: www.autodesk.com
 90
    32897
280
     0
281
     0
  0
CLASS
  1
AEC_AECDBDISPREPBDGSECTIONLINEPLAN50
  2
AecDbDispRepBdgSectionLinePlan50
  3
AecArchDACHBase50|Product Desc: Autodesk Architectural Desktop 2007 |Company: Autodesk,Inc. |WEB Address: www.autodesk.com
 90
    32897
280
     0
281
     0
  0
CLASS
  1
AEC_AECDBDISPREPCEILINGGRIDPLAN50
  2
AecDbDispRepCeilingGridPlan50
  3
AecArchDACHBase50|Product Desc: Autodesk Architectural Desktop 2007 |Company: Autodesk,Inc. |WEB Address: www.autodesk.com
 90
    32897
280
     0
281
     0
  0
CLASS
  1
AEC_AECDBDISPREPCOLUMNGRIDPLAN50
  2
AecDbDispRepColumnGridPlan50
  3
AecArchDACHBase50|Product Desc: Autodesk Architectural Desktop 2007 |Company: Autodesk,Inc. |WEB Address: www.autodesk.com
 90
    32897
280
     0
281
     0
  0
CLASS
  1
AEC_AECDBDISPREPCURTAINWALLLAYOUTPLAN50
  2
AecDbDispRepCurtainWallLayoutPlan50
  3
AecArchDACHBase50|Product Desc: Autodesk Architectural Desktop 2007 |Company: Autodesk,Inc. |WEB Address: www.autodesk.com
 90
    32897
280
     0
281
     0
  0
CLASS
  1
AEC_AECDBDISPREPCURTAINWALLUNITPLAN50
  2
AecDbDispRepCurtainWallUnitPlan50
  3
AecArchDACHBase50|Product Desc: Autodesk Architectural Desktop 2007 |Company: Autodesk,Inc. |WEB Address: www.autodesk.com
 90
    32897
280
     0
281
     0
  0
CLASS
  1
AEC_AECDBDISPREPMVBLOCKREFPLAN50
  2
AecDbDispRepMvBlockRefPlan50
  3
AecArchDACHBase50|Product Desc: Autodesk Architectural Desktop 2007 |Company: Autodesk,Inc. |WEB Address: www.autodesk.com
 90
    32897
280
     0
281
     0
  0
CLASS
  1
AEC_AECDBDISPREPROOFPLAN50
  2
AecDbDispRepRoofPlan50
  3
AecArchDACHBase50|Product Desc: Autodesk Architectural Desktop 2007 |Company: Autodesk,Inc. |WEB Address: www.autodesk.com
 90
    32897
280
     0
281
     0
  0
CLASS
  1
AEC_AECDBDISPREPROOFSLABPLAN50
  2
AecDbDispRepRoofSlabPlan50
  3
AecArchDACHBase50|Product Desc: Autodesk Architectural Desktop 2007 |Company: Autodesk,Inc. |WEB Address: www.autodesk.com
 90
    32897
280
     0
281
     0
  0
CLASS
  1
AEC_AECDBDISPREPSLABPLAN50
  2
AecDbDispRepSlabPlan50
  3
AecArchDACHBase50|Product Desc: Autodesk Architectural Desktop 2007 |Company: Autodesk,Inc. |WEB Address: www.autodesk.com
 90
    32897
280
     0
281
     0
  0
CLASS
  1
AEC_AECDBDISPREPSPACEBOUNDARYPLAN50
  2
AecDbDispRepSpaceBoundaryPlan50
  3
AecArchDACHBase50|Product Desc: Autodesk Architectural Desktop 2007 |Company: Autodesk,Inc. |WEB Address: www.autodesk.com
 90
    32897
280
     0
281
     0
  0
CLASS
  1
AEC_AECDBDISPREPSPACEPLAN50
  2
AecDbDispRepSpacePlan50
  3
AecArchDACHBase50|Product Desc: Autodesk Architectural Desktop 2007 |Company: Autodesk,Inc. |WEB Address: www.autodesk.com
 90
    32897
280
     0
281
     0
  0
CLASS
  1
AEC_AECDBDISPREPWALLPLAN50
  2
AecDbDispRepWallPlan50
  3
AecArchDACHBase50|Product Desc: Autodesk Architectural Desktop 2007 |Company: Autodesk,Inc. |WEB Address: www.autodesk.com
 90
    32897
280
     0
281
     0
  0
CLASS
  1
AEC_AECDBDISPREPWINDOWASSEMBLYPLAN50
  2
AecDbDispRepWindowAssemblyPlan50
  3
AecArchDACHBase50|Product Desc: Autodesk Architectural Desktop 2007 |Company: Autodesk,Inc. |WEB Address: www.autodesk.com
 90
    32897
280
     0
281
     0
  0
CLASS
  1
AEC_DB_DISP_REP_DIM_GROUP_PLAN100
  2
AecDbDispRepDimGroupPlan100
  3
AecArchDACHBase50|Product Desc: Autodesk Architectural Desktop 2007 |Company: Autodesk,Inc. |WEB Address: www.autodesk.com
 90
    32897
280
     0
281
     0
  0
CLASS
  1
AEC_DISP_PROPS_DIM
  2
AecDbDispPropsDimGroup
  3
AecArchDACHBase50|Product Desc: Autodesk Architectural Desktop 2007 |Company: Autodesk,Inc. |WEB Address: www.autodesk.com
 90
    32897
280
     0
281
     0
  0
CLASS
  1
AEC_DB_DISP_REP_DIM_GROUP_PLAN50
  2
AecDbDispRepDimGroupPlan50
  3
AecArchDACHBase50|Product Desc: Autodesk Architectural Desktop 2007 |Company: Autodesk,Inc. |WEB Address: www.autodesk.com
 90
    32897
280
     0
281
     0
  0
CLASS
  1
AEC_DB_DISP_REP_DIM_GROUP_PLAN
  2
AecDbDispRepDimGroupPlan
  3
AecArchDACHBase50|Product Desc: Autodesk Architectural Desktop 2007 |Company: Autodesk,Inc. |WEB Address: www.autodesk.com
 90
    32897
280
     0
281
     0
  0
CLASS
  1
AEC_DISP_REP_DOOR_PLAN_50
  2
AecDbDispRepDoorPlan50
  3
AecArchDACHBase50|Product Desc: Autodesk Architectural Desktop 2007 |Company: Autodesk,Inc. |WEB Address: www.autodesk.com
 90
    32897
280
     0
281
     0
  0
CLASS
  1
AEC_DISP_PROPS_DOOR_PLAN_50
  2
AecDbDispPropsDoorPlan50
  3
AecArchDACHBase50|Product Desc: Autodesk Architectural Desktop 2007 |Company: Autodesk,Inc. |WEB Address: www.autodesk.com
 90
    32897
280
     0
281
     0
  0
CLASS
  1
AEC_DISP_REP_DOOR_PLAN_HEKTO
  2
AecDbDispRepDoorPlanHekto
  3
AecArchDACHBase50|Product Desc: Autodesk Architectural Desktop 2007 |Company: Autodesk,Inc. |WEB Address: www.autodesk.com
 90
    32897
280
     0
281
     0
  0
CLASS
  1
AEC_DISP_PROPS_DOOR_PLAN_100
  2
AecDbDispPropsDoorPlan100
  3
AecArchDACHBase50|Product Desc: Autodesk Architectural Desktop 2007 |Company: Autodesk,Inc. |WEB Address: www.autodesk.com
 90
    32897
280
     0
281
     0
  0
CLASS
  1
AEC_DISP_REP_DOOR_THRESHOLD_SYMBOL_PLAN
  2
AecDbDispRepDoorThresholdSymbolPlan
  3
AecArchDACHBase50|Product Desc: Autodesk Architectural Desktop 2007 |Company: Autodesk,Inc. |WEB Address: www.autodesk.com
 90
    32897
280
     0
281
     0
  0
CLASS
  1
AEC_DISP_PROPS_DOOR_THRESHOLD_SYMBOL_PLAN
  2
AecDbDispPropsDoorThresholdSymbolPlan
  3
AecArchDACHBase50|Product Desc: Autodesk Architectural Desktop 2007 |Company: Autodesk,Inc. |WEB Address: www.autodesk.com
 90
    32897
280
     0
281
     0
  0
CLASS
  1
AEC_DISPREPAECDBDISPREPMASSELEMPLAN100
  2
AecDbDispRepMassElemPlan100
  3
AecArchDACHBase50|Product Desc: Autodesk Architectural Desktop 2007 |Company: Autodesk,Inc. |WEB Address: www.autodesk.com
 90
    32897
280
     0
281
     0
  0
CLASS
  1
AEC_DISPROPSMASSELEMPLANCOMMON
  2
AecDbDispPropsMassElemPlanCommon
  3
AecArchDACHBase50|Product Desc: Autodesk Architectural Desktop 2007 |Company: Autodesk,Inc. |WEB Address: www.autodesk.com
 90
    32897
280
     0
281
     0
  0
CLASS
  1
AEC_DISPREPAECDBDISPREPMASSELEMPLAN50
  2
AecDbDispRepMassElemPlan50
  3
AecArchDACHBase50|Product Desc: Autodesk Architectural Desktop 2007 |Company: Autodesk,Inc. |WEB Address: www.autodesk.com
 90
    32897
280
     0
281
     0
  0
CLASS
  1
AEC_DISPREPAECDBDISPREPMASSGROUPPLAN100
  2
AecDbDispRepMassGroupPlan100
  3
AecArchDACHBase50|Product Desc: Autodesk Architectural Desktop 2007 |Company: Autodesk,Inc. |WEB Address: www.autodesk.com
 90
    32897
280
     0
281
     0
  0
CLASS
  1
AEC_DISPROPSMASSGROUPPLANCOMMON
  2
AecDbDispPropsMassGroupPlanCommon
  3
AecArchDACHBase50|Product Desc: Autodesk Architectural Desktop 2007 |Company: Autodesk,Inc. |WEB Address: www.autodesk.com
 90
    32897
280
     0
281
     0
  0
CLASS
  1
AEC_DISPREPAECDBDISPREPMASSGROUPPLAN50
  2
AecDbDispRepMassGroupPlan50
  3
AecArchDACHBase50|Product Desc: Autodesk Architectural Desktop 2007 |Company: Autodesk,Inc. |WEB Address: www.autodesk.com
 90
    32897
280
     0
281
     0
  0
CLASS
  1
AEC_DISPREPAECDBDISPREPOPENINGPLAN100
  2
AecDbDispRepOpeningPlan100
  3
AecArchDACHBase50|Product Desc: Autodesk Architectural Desktop 2007 |Company: Autodesk,Inc. |WEB Address: www.autodesk.com
 90
    32897
280
     0
281
     0
  0
CLASS
  1
AEC_DISPROPSOPENINGPLANCOMMONHATCHED
  2
AecDbDispPropsOpeningPlanCommonHatched
  3
AecArchDACHBase50|Product Desc: Autodesk Architectural Desktop 2007 |Company: Autodesk,Inc. |WEB Address: www.autodesk.com
 90
    32897
280
     0
281
     0
  0
CLASS
  1
AEC_DISPREPAECDBDISPREPOPENINGPLAN50
  2
AecDbDispRepOpeningPlan50
  3
AecArchDACHBase50|Product Desc: Autodesk Architectural Desktop 2007 |Company: Autodesk,Inc. |WEB Address: www.autodesk.com
 90
    32897
280
     0
281
     0
  0
CLASS
  1
AEC_DISPREPAECDBDISPREPOPENINGPLANREFLECTED
  2
AecDbDispRepOpeningPlanReflected
  3
AecArchDACHBase50|Product Desc: Autodesk Architectural Desktop 2007 |Company: Autodesk,Inc. |WEB Address: www.autodesk.com
 90
    32897
280
     0
281
     0
  0
CLASS
  1
AEC_DISPROPSOPENINGPLANCOMMON
  2
AecDbDispPropsOpeningPlanCommon
  3
AecArchDACHBase50|Product Desc: Autodesk Architectural Desktop 2007 |Company: Autodesk,Inc. |WEB Address: www.autodesk.com
 90
    32897
280
     0
281
     0
  0
CLASS
  1
AEC_DISPREPAECDBDISPREPOPENINGSILLPLAN
  2
AecDbDispRepOpeningSillPlan
  3
AecArchDACHBase50|Product Desc: Autodesk Architectural Desktop 2007 |Company: Autodesk,Inc. |WEB Address: www.autodesk.com
 90
    32897
280
     0
281
     0
  0
CLASS
  1
AEC_DISPROPSOPENINGSILLPLAN
  2
AecDbDispPropsOpeningSillPlan
  3
AecArchDACHBase50|Product Desc: Autodesk Architectural Desktop 2007 |Company: Autodesk,Inc. |WEB Address: www.autodesk.com
 90
    32897
280
     0
281
     0
  0
CLASS
  1
AEC_DISP_REP_RAILING_PLAN_100
  2
AecDbDispRepRailingPlan100
  3
AecArchDACHBase50|Product Desc: Autodesk Architectural Desktop 2007 |Company: Autodesk,Inc. |WEB Address: www.autodesk.com
 90
    32897
280
     0
281
     0
  0
CLASS
  1
AEC_DISP_ROPS_RAILING_PLAN_100
  2
AecDbDispPropsRailingPlan100
  3
AecArchDACHBase50|Product Desc: Autodesk Architectural Desktop 2007 |Company: Autodesk,Inc. |WEB Address: www.autodesk.com
 90
    32897
280
     0
281
     0
  0
CLASS
  1
AEC_DISP_REP_RAILING_PLAN_50
  2
AecDbDispRepRailingPlan50
  3
AecArchDACHBase50|Product Desc: Autodesk Architectural Desktop 2007 |Company: Autodesk,Inc. |WEB Address: www.autodesk.com
 90
    32897
280
     0
281
     0
  0
CLASS
  1
AEC_DISP_ROPS_RAILING_PLAN_50
  2
AecDbDispPropsRailingPlan50
  3
AecArchDACHBase50|Product Desc: Autodesk Architectural Desktop 2007 |Company: Autodesk,Inc. |WEB Address: www.autodesk.com
 90
    32897
280
     0
281
     0
  0
CLASS
  1
AEC_DISP_REP_STAIR_PLAN_100
  2
AecDbDispRepStairPlan100
  3
AecArchDACHBase50|Product Desc: Autodesk Architectural Desktop 2007 |Company: Autodesk,Inc. |WEB Address: www.autodesk.com
 90
    32897
280
     0
281
     0
  0
CLASS
  1
AEC_DISP_ROPS_STAIR_PLAN_100
  2
AecDbDispPropsStairPlan100
  3
AecArchDACHBase50|Product Desc: Autodesk Architectural Desktop 2007 |Company: Autodesk,Inc. |WEB Address: www.autodesk.com
 90
    32897
280
     0
281
     0
  0
CLASS
  1
AEC_DISP_REP_STAIR_PLAN_50
  2
AecDbDispRepStairPlan50
  3
AecArchDACHBase50|Product Desc: Autodesk Architectural Desktop 2007 |Company: Autodesk,Inc. |WEB Address: www.autodesk.com
 90
    32897
280
     0
281
     0
  0
CLASS
  1
AEC_DISP_ROPS_STAIR_PLAN_50
  2
AecDbDispPropsStairPlan50
  3
AecArchDACHBase50|Product Desc: Autodesk Architectural Desktop 2007 |Company: Autodesk,Inc. |WEB Address: www.autodesk.com
 90
    32897
280
     0
281
     0
  0
CLASS
  1
AEC_DISP_REP_WINDOW_PLAN_100
  2
AecDbDispRepWindowPlan100
  3
AecArchDACHBase50|Product Desc: Autodesk Architectural Desktop 2007 |Company: Autodesk,Inc. |WEB Address: www.autodesk.com
 90
    32897
280
     0
281
     0
  0
CLASS
  1
AEC_DISP_PROPS_WINDOW_PLAN_100
  2
AecDbDispPropsWindowPlan100
  3
AecArchDACHBase50|Product Desc: Autodesk Architectural Desktop 2007 |Company: Autodesk,Inc. |WEB Address: www.autodesk.com
 90
    32897
280
     0
281
     0
  0
CLASS
  1
AEC_DISP_REP_WINDOW_PLAN_50
  2
AecDbDispRepWindowPlan50
  3
AecArchDACHBase50|Product Desc: Autodesk Architectural Desktop 2007 |Company: Autodesk,Inc. |WEB Address: www.autodesk.com
 90
    32897
280
     0
281
     0
  0
CLASS
  1
AEC_DISP_PROPS_WINDOW_PLAN_50
  2
AecDbDispPropsWindowPlan50
  3
AecArchDACHBase50|Product Desc: Autodesk Architectural Desktop 2007 |Company: Autodesk,Inc. |WEB Address: www.autodesk.com
 90
    32897
280
     0
281
     0
  0
CLASS
  1
AEC_DISP_REP_SCHEDULE_TABLE
  2
AecDbDispRepScheduleTable
  3
AecSchedule50|Product Desc: Autodesk Architectural Desktop 2007 |Company: Autodesk,Inc. |WEB Address: www.autodesk.com
 90
    32897
280
     0
281
     0
  0
CLASS
  1
AEC_DISP_PROPS_SCHEDULE_TABLE
  2
AecDbDispPropsScheduleTable
  3
AecSchedule50|Product Desc: Autodesk Architectural Desktop 2007 |Company: Autodesk,Inc. |WEB Address: www.autodesk.com
 90
    32897
280
     0
281
     0
  0
CLASS
  1
AEC_DISP_REP_SET
  2
AecDbDispRepSet
  3
AecBase50|Product Desc: Autodesk Architectural Desktop 2007 |Company: Autodesk,Inc. |WEB Address: www.autodesk.com
 90
    32897
280
     0
281
     0
  0
CLASS
  1
AEC_DISP_REP_CONFIG
  2
AecDbDispRepConfig
  3
AecBase50|Product Desc: Autodesk Architectural Desktop 2007 |Company: Autodesk,Inc. |WEB Address: www.autodesk.com
 90
    32897
280
     0
281
     0
  0
CLASS
  1
AEC_LAYERKEY_STYLE
  2
AecDbLayerKeyStyle
  3
AecBase50|Product Desc: Autodesk Architectural Desktop 2007 |Company: Autodesk,Inc. |WEB Address: www.autodesk.com
 90
    32897
280
     0
281
     0
  0
CLASS
  1
AEC_VARS_ARCHBASE
  2
AecDbVarsArchBase
  3
AecArchBase50|Product Desc: Autodesk Architectural Desktop 2007 |Company: Autodesk,Inc. |WEB Address: www.autodesk.com
 90
    32897
280
     0
281
     0
  0
CLASS
  1
AEC_VARS_MUNICH
  2
AecDbVarsMunich
  3
AecArchDACHBase50|Product Desc: Autodesk Architectural Desktop 2007 |Company: Autodesk,Inc. |WEB Address: www.autodesk.com
 90
    32897
280
     0
281
     0
  0
CLASS
  1
BINRECORD
  2
AcAecBinRecord
  3
AecBase50|Product Desc: Autodesk Architectural Desktop 2007 |Company: Autodesk,Inc. |WEB Address: www.autodesk.com
 90
    32897
280
     0
281
     0
  0
CLASS
  1
SPATIAL_FILTER
  2
AcDbSpatialFilter
  3
ObjectDBX Classes
 90
    32768
280
     0
281
     0
  0
CLASS
  1
SORTENTSTABLE
  2
AcDbSortentsTable
  3
ObjectDBX Classes
 90
        0
280
     0
281
     0
  0
CLASS
  1
RTEXT
  2
RText
  3
RText|AutoCAD Express Tool|expresstools@autodesk.com
 90
    35839
280
     0
281
     1
  0
CLASS
  1
OBJECT_PTR
  2
CAseDLPNTableRecord
  3
ASE-LPNTableRecord
 90
    32769
280
     0
281
     0
  0
CLASS
  1
IMAGE
  2
AcDbRasterImage
  3
ISM
 90
    34943
280
     0
281
     1
  0
CLASS
  1
IMAGEDEF_REACTOR
  2
AcDbRasterImageDefReactor
  3
ISM
 90
    32769
280
     0
281
     0
  0
CLASS
  1
IMAGEDEF
  2
AcDbRasterImageDef
  3
ISM
 90
    32768
280
     0
281
     0
  0
CLASS
  1
RASTERVARIABLES
  2
AcDbRasterVariables
  3
ISM
 90
    32768
280
     0
281
     0
  0
CLASS
  1
MATERIAL
  2
AcDbMaterial
  3
ObjectDBX Classes
 90
     1153
280
     0
281
     0
  0
CLASS
  1
AEC_MVBLOCK_REF
  2
AecDbMvBlockRef
  3
AecBase50|Product Desc: Autodesk Architectural Desktop 2007 |Company: Autodesk,Inc. |WEB Address: www.autodesk.com
 90
    33661
280
     0
281
     1
  0
CLASS
  1
AEC_AECDBAREAPROPOSALNAMES
  2
AecDbAreaProposalNames
  3
AecAreaCalculationBase50|Product Desc: Autodesk Architectural Desktop 2007 |Company: Autodesk,Inc. |WEB Address: www.autodesk.com
 90
    32897
280
     0
281
     0
  0
CLASS
  1
AEC_AECDBAREAGROUPSTYLE
  2
AecDbAreaGroupStyle
  3
AecAreaCalculationBase50|Product Desc: Autodesk Architectural Desktop 2007 |Company: Autodesk,Inc. |WEB Address: www.autodesk.com
 90
    32897
280
     0
281
     0
  0
CLASS
  1
AEC_ENDCAP_STYLE
  2
AecDbEndcapStyle
  3
AecArchBase50|Product Desc: Autodesk Architectural Desktop 2007 |Company: Autodesk,Inc. |WEB Address: www.autodesk.com
 90
    32897
280
     0
281
     0
  0
CLASS
  1
AEC_MATERIAL_DEF
  2
AecDbMaterialDef
  3
AecBase50|Product Desc: Autodesk Architectural Desktop 2007 |Company: Autodesk,Inc. |WEB Address: www.autodesk.com
 90
    32897
280
     0
281
     0
  0
CLASS
  1
AEC_MVBLOCK_DEF
  2
AecDbMvBlockDef
  3
AecBase50|Product Desc: Autodesk Architectural Desktop 2007 |Company: Autodesk,Inc. |WEB Address: www.autodesk.com
 90
    32897
280
     0
281
     0
  0
CLASS
  1
AEC_VARS_STRUCTUREBASE
  2
AecsDbVarsStructureBase
  3
AecStructureBase50|Product Desc: Autodesk Architectural Desktop 2007 |Company: Autodesk,Inc. |WEB Address: www.autodesk.com
 90
    32897
280
     0
281
     0
  0
CLASS
  1
AECS_MEMBER_NODE_SHAPE
  2
AecsDbMemberNodeShape
  3
AecStructureBase50|Product Desc: Autodesk Architectural Desktop 2007 |Company: Autodesk,Inc. |WEB Address: www.autodesk.com
 90
    32897
280
     0
281
     0
  0
CLASS
  1
TABLESTYLE
  2
AcDbTableStyle
  3
ObjectDBX Classes
 90
     4095
280
     0
281
     0
  0
CLASS
  1
AEC_DISP_REP_DISPLAYTHEME
  2
AecDbDispRepDisplayTheme
  3
AecBase50|Product Desc: Autodesk Architectural Desktop 2007 |Company: Autodesk,Inc. |WEB Address: www.autodesk.com
 90
    32897
280
     0
281
     0
  0
CLASS
  1
AEC_DISP_PROPS_DISPLAYTHEME
  2
AecDbDispPropsDisplayTheme
  3
AecBase50|Product Desc: Autodesk Architectural Desktop 2007 |Company: Autodesk,Inc. |WEB Address: www.autodesk.com
 90
    32897
280
     0
281
     0
  0
CLASS
  1
AEC_DISP_REP_ANCHOR_EXT_TAG_TO_ENT
  2
AecDbDispRepAnchorExtendedTagToEnt
  3
AecScheduleData50|Product Desc: Autodesk Architectural Desktop 2007 |Company: Autodesk,Inc. |WEB Address: www.autodesk.com
 90
    32897
280
     0
281
     0
  0
CLASS
  1
AEC_CLASSIFICATION_SYSTEM_DEF
  2
AecDbClassificationSystemDef
  3
AecBase50|Product Desc: Autodesk Architectural Desktop 2007 |Company: Autodesk,Inc. |WEB Address: www.autodesk.com
 90
    32897
280
     0
281
     0
  0
CLASS
  1
AEC_CLASSIFICATION_DEF
  2
AecDbClassificationDef
  3
AecBase50|Product Desc: Autodesk Architectural Desktop 2007 |Company: Autodesk,Inc. |WEB Address: www.autodesk.com
 90
    32897
280
     0
281
     0
  0
CLASS
  1
PLOTSETTINGS
  2
AcDbPlotSettings
  3
ObjectDBX Classes
 90
    32768
280
     0
281
     0
  0
CLASS
  1
AEC_SPACE_BOUNDARY
  2
AecDbSpaceBoundary
  3
AecArchBase50|Product Desc: Autodesk Architectural Desktop 2007 |Company: Autodesk,Inc. |WEB Address: www.autodesk.com
 90
    33661
280
     0
281
     1
  0
CLASS
  1
AEC_SPACE
  2
AecDbSpace
  3
AecArchBase50|Product Desc: Autodesk Architectural Desktop 2007 |Company: Autodesk,Inc. |WEB Address: www.autodesk.com
 90
    33661
280
     0
281
     1
  0
CLASS
  1
AecDbPropertySet
  2
AecDbPropertySet
  3
AecScheduleData50|Product Desc: Autodesk Architectural Desktop 2007 |Company: Autodesk,Inc. |WEB Address: www.autodesk.com
 90
    32897
280
     0
281
     0
  0
CLASS
  1
AEC_SCHEDULE_TABLE
  2
AecDbScheduleTable
  3
AecSchedule50|Product Desc: Autodesk Architectural Desktop 2007 |Company: Autodesk,Inc. |WEB Address: www.autodesk.com
 90
    33661
280
     0
281
     1
  0
CLASS
  1
AEC_SCHEDULE_DATA_FORMAT
  2
AecDbScheduleDataFormat
  3
AecScheduleData50|Product Desc: Autodesk Architectural Desktop 2007 |Company: Autodesk,Inc. |WEB Address: www.autodesk.com
 90
    32897
280
     0
281
     0
  0
CLASS
  1
AEC_PROPERTY_SET_DEF
  2
AecDbPropertySetDef
  3
AecScheduleData50|Product Desc: Autodesk Architectural Desktop 2007 |Company: Autodesk,Inc. |WEB Address: www.autodesk.com
 90
    32897
280
     0
281
     0
  0
CLASS
  1
AEC_SCHEDULE_TABLE_STYLE
  2
AecDbScheduleTableStyle
  3
AecSchedule50|Product Desc: Autodesk Architectural Desktop 2007 |Company: Autodesk,Inc. |WEB Address: www.autodesk.com
 90
    32897
280
     0
281
     0
  0
CLASS
  1
AEC_SPACE_STYLES
  2
AecDbSpaceStyle
  3
AecArchBase50|Product Desc: Autodesk Architectural Desktop 2007 |Company: Autodesk,Inc. |WEB Address: www.autodesk.com
 90
    32897
280
     0
281
     0
  0
CLASS
  1
AEC_TEXT_NOTE
  2
AecDbTextNote
  3
AecBase50|Product Desc: Autodesk Architectural Desktop 2007 |Company: Autodesk,Inc. |WEB Address: www.autodesk.com
 90
    32897
280
     0
281
     0
  0
CLASS
  1
AEC_2D_SECTION
  2
AecDb2dSection
  3
AecBase50|Product Desc: Autodesk Architectural Desktop 2007 |Company: Autodesk,Inc. |WEB Address: www.autodesk.com
 90
    33661
280
     0
281
     1
  0
CLASS
  1
AEC_2DSECTION_STYLE
  2
AecDb2dSectionStyle
  3
AecBase50|Product Desc: Autodesk Architectural Desktop 2007 |Company: Autodesk,Inc. |WEB Address: www.autodesk.com
 90
    32897
280
     0
281
     0
  0
CLASS
  1
DIMASSOC
  2
AcDbDimAssoc
  3
"AcDbDimAssoc|Product Desc:     AcDim ARX App For Dimension|Company:          Autodesk, Inc.|WEB Address:      www.autodesk.com"
 90
    32768
280
     0
281
     0
  0
CLASS
  1
AEC_ANCHOR_MVB_TO_UCS
  2
AecDbAnchorMVBToUCS
  3
AecBase50|Product Desc: Autodesk Architectural Desktop 2007 |Company: Autodesk,Inc. |WEB Address: www.autodesk.com
 90
    32897
280
     0
281
     0
  0
CLASS
  1
AECS_MEMBER_STYLE
  2
AecsDbMemberStyle
  3
AecStructureBase50|Product Desc: Autodesk Architectural Desktop 2007 |Company: Autodesk,Inc. |WEB Address: www.autodesk.com
 90
    32897
280
     0
281
     0
  0
CLASS
  1
AEC_AECDBAREASTYLE
  2
AecDbAreaStyle
  3
AecAreaCalculationBase50|Product Desc: Autodesk Architectural Desktop 2007 |Company: Autodesk,Inc. |WEB Address: www.autodesk.com
 90
    32897
280
     0
281
     0
  0
CLASS
  1
AEC_FRAME_DEF
  2
AecDbOpeningEndcapStyle
  3
AecArchBase50|Product Desc: Autodesk Architectural Desktop 2007 |Company: Autodesk,Inc. |WEB Address: www.autodesk.com
 90
    32897
280
     0
281
     0
  0
CLASS
  1
AEC_CLEANUP_GROUP_DEF
  2
AecDbCleanupGroupDef
  3
AecArchBase50|Product Desc: Autodesk Architectural Desktop 2007 |Company: Autodesk,Inc. |WEB Address: www.autodesk.com
 90
    32897
280
     0
281
     0
  0
CLASS
  1
AEC_WALL_STYLE
  2
AecDbWallStyle
  3
AecArchBase50|Product Desc: Autodesk Architectural Desktop 2007 |Company: Autodesk,Inc. |WEB Address: www.autodesk.com
 90
    32897
280
     0
281
     0
  0
CLASS
  1
AEC_SLABEDGE_STYLE
  2
AecDbSlabEdgeStyle
  3
AecArchBase50|Product Desc: Autodesk Architectural Desktop 2007 |Company: Autodesk,Inc. |WEB Address: www.autodesk.com
 90
    32897
280
     0
281
     0
  0
CLASS
  1
AEC_SLAB_STYLE
  2
AecDbSlabStyle
  3
AecArchBase50|Product Desc: Autodesk Architectural Desktop 2007 |Company: Autodesk,Inc. |WEB Address: www.autodesk.com
 90
    32897
280
     0
281
     0
  0
CLASS
  1
AEC_MASS_ELEM_STYLE
  2
AecDbMassElemStyle
  3
AecBaseEx50|Product Desc: Autodesk Architectural Desktop 2007 |Company: Autodesk,Inc. |WEB Address: www.autodesk.com
 90
    32897
280
     0
281
     0
  0
CLASS
  1
AEC_STAIR_STYLE
  2
AecDbStairStyle
  3
AecArchBase50|Product Desc: Autodesk Architectural Desktop 2007 |Company: Autodesk,Inc. |WEB Address: www.autodesk.com
 90
    32897
280
     0
281
     0
  0
CLASS
  1
AEC_STAIR_WINDER_TYPE_BALANCED
  2
AecDbStairWinderTypeBalanced
  3
AecArchBase50|Product Desc: Autodesk Architectural Desktop 2007 |Company: Autodesk,Inc. |WEB Address: www.autodesk.com
 90
    32897
280
     0
281
     0
  0
CLASS
  1
AEC_STAIR_WINDER_TYPE_SINGLE_POINT
  2
AecDbStairWinderTypeSinglePoint
  3
AecArchBase50|Product Desc: Autodesk Architectural Desktop 2007 |Company: Autodesk,Inc. |WEB Address: www.autodesk.com
 90
    32897
280
     0
281
     0
  0
CLASS
  1
AEC_STAIR_WINDER_TYPE_MANUAL
  2
AecDbStairWinderTypeManual
  3
AecArchBase50|Product Desc: Autodesk Architectural Desktop 2007 |Company: Autodesk,Inc. |WEB Address: www.autodesk.com
 90
    32897
280
     0
281
     0
  0
CLASS
  1
AEC_STAIR_WINDER_STYLE
  2
AecDbStairWinderStyle
  3
AecArchBase50|Product Desc: Autodesk Architectural Desktop 2007 |Company: Autodesk,Inc. |WEB Address: www.autodesk.com
 90
    32897
280
     0
281
     0
  0
CLASS
  1
AEC_ROOFSLABEDGE_STYLE
  2
AecDbRoofSlabEdgeStyle
  3
AecArchBase50|Product Desc: Autodesk Architectural Desktop 2007 |Company: Autodesk,Inc. |WEB Address: www.autodesk.com
 90
    32897
280
     0
281
     0
  0
CLASS
  1
AEC_ROOFSLAB_STYLE
  2
AecDbRoofSlabStyle
  3
AecArchBase50|Product Desc: Autodesk Architectural Desktop 2007 |Company: Autodesk,Inc. |WEB Address: www.autodesk.com
 90
    32897
280
     0
281
     0
  0
CLASS
  1
AEC_RAILING_STYLE
  2
AecDbRailingStyle
  3
AecArchBase50|Product Desc: Autodesk Architectural Desktop 2007 |Company: Autodesk,Inc. |WEB Address: www.autodesk.com
 90
    32897
280
     0
281
     0
  0
CLASS
  1
AEC_DOOR_STYLE
  2
AecDbDoorStyle
  3
AecArchBase50|Product Desc: Autodesk Architectural Desktop 2007 |Company: Autodesk,Inc. |WEB Address: www.autodesk.com
 90
    32897
280
     0
281
     0
  0
CLASS
  1
AEC_WINDOW_ASSEMBLY_STYLE
  2
AecDbWindowAssemblyStyle
  3
AecArchBase50|Product Desc: Autodesk Architectural Desktop 2007 |Company: Autodesk,Inc. |WEB Address: www.autodesk.com
 90
    32897
280
     0
281
     0
  0
CLASS
  1
AEC_WINDOW_STYLE
  2
AecDbWindowStyle
  3
AecArchBase50|Product Desc: Autodesk Architectural Desktop 2007 |Company: Autodesk,Inc. |WEB Address: www.autodesk.com
 90
    32897
280
     0
281
     0
  0
CLASS
  1
AEC_CURTAIN_WALL_LAYOUT_STYLE
  2
AecDbCurtainWallLayoutStyle
  3
AecArchBase50|Product Desc: Autodesk Architectural Desktop 2007 |Company: Autodesk,Inc. |WEB Address: www.autodesk.com
 90
    32897
280
     0
281
     0
  0
CLASS
  1
AEC_AREA
  2
AecDbArea
  3
AecAreaCalculationBase50|Product Desc: Autodesk Architectural Desktop 2007 |Company: Autodesk,Inc. |WEB Address: www.autodesk.com
 90
    33661
280
     0
281
     1
  0
CLASS
  1
AEC_AREAGROUP
  2
AecDbAreaGroup
  3
AecAreaCalculationBase50|Product Desc: Autodesk Architectural Desktop 2007 |Company: Autodesk,Inc. |WEB Address: www.autodesk.com
 90
    33661
280
     0
281
     1
  0
CLASS
  1
AECS_MEMBER
  2
AecsDbMember
  3
AecStructureBase50|Product Desc: Autodesk Architectural Desktop 2007 |Company: Autodesk,Inc. |WEB Address: www.autodesk.com
 90
    33661
280
     0
281
     1
  0
CLASS
  1
AEC_ANCHOR_TAG_TO_ENT
  2
AecDbAnchorTagToEnt
  3
AecScheduleData50|Product Desc: Autodesk Architectural Desktop 2007 |Company: Autodesk,Inc. |WEB Address: www.autodesk.com
 90
    32897
280
     0
281
     0
  0
CLASS
  1
VISUALSTYLE
  2
AcDbVisualStyle
  3
ObjectDBX Classes
 90
     4095
280
     0
281
     0
  0
CLASS
  1
AEC_ENT_REF
  2
AecDbEntRef
  3
AecBase50|Product Desc: Autodesk Architectural Desktop 2007 |Company: Autodesk,Inc. |WEB Address: www.autodesk.com
 90
    33661
280
     0
281
     1
  0
CLASS
  1
AEC_AECDBDISPREPZONE100
  2
AecDbDispRepZonePlan100
  3
AecArchDACHBase50|Product Desc: Autodesk Architectural Desktop 2007 |Company: Autodesk,Inc. |WEB Address: www.autodesk.com
 90
    32897
280
     0
281
     0
  0
CLASS
  1
AEC_DISP_PROPS_ZONE
  2
AecDbDispPropsZone
  3
AecArchBase50|Product Desc: Autodesk Architectural Desktop 2007 |Company: Autodesk,Inc. |WEB Address: www.autodesk.com
 90
    32897
280
     0
281
     0
  0
CLASS
  1
AEC_AECDBDISPREPZONE50
  2
AecDbDispRepZonePlan50
  3
AecArchDACHBase50|Product Desc: Autodesk Architectural Desktop 2007 |Company: Autodesk,Inc. |WEB Address: www.autodesk.com
 90
    32897
280
     0
281
     0
  0
CLASS
  1
AEC_DISP_REP_SPACE_DECOMPOSED
  2
AecDbDispRepSpaceDecomposed
  3
AecArchBase50|Product Desc: Autodesk Architectural Desktop 2007 |Company: Autodesk,Inc. |WEB Address: www.autodesk.com
 90
    32897
280
     0
281
     0
  0
CLASS
  1
AEC_DISP_PROPS_SPACE_DECOMPOSED
  2
AecDbDispPropsSpaceDecomposed
  3
AecArchBase50|Product Desc: Autodesk Architectural Desktop 2007 |Company: Autodesk,Inc. |WEB Address: www.autodesk.com
 90
    32897
280
     0
281
     0
  0
CLASS
  1
AEC_DISP_REP_ZONE
  2
AecDbDispRepZone
  3
AecArchBase50|Product Desc: Autodesk Architectural Desktop 2007 |Company: Autodesk,Inc. |WEB Address: www.autodesk.com
 90
    32897
280
     0
281
     0
  0
CLASS
  1
AEC_WALL
  2
AecDbWall
  3
AecArchBase50|Product Desc: Autodesk Architectural Desktop 2007 |Company: Autodesk,Inc. |WEB Address: www.autodesk.com
 90
    33661
280
     0
281
     1
  0
CLASS
  1
AEC_LIST_DEF
  2
AecDbListDefinition
  3
AecBase50|Product Desc: Autodesk Architectural Desktop 2007 |Company: Autodesk,Inc. |WEB Address: www.autodesk.com
 90
    32897
280
     0
281
     0
  0
CLASS
  1
AEC_LIST_DEF
  2
AecDbListItem
  3
AecBase50|Product Desc: Autodesk Architectural Desktop 2007 |Company: Autodesk,Inc. |WEB Address: www.autodesk.com
 90
    32897
280
     0
281
     0
  0
CLASS
  1
AEC_AECDBZONESTYLE
  2
AecDbZoneStyle
  3
AecArchBase50|Product Desc: Autodesk Architectural Desktop 2007 |Company: Autodesk,Inc. |WEB Address: www.autodesk.com
 90
    32897
280
     0
281
     0
  0
CLASS
  1
AEC_ZONE
  2
AecDbZone
  3
AecArchBase50|Product Desc: Autodesk Architectural Desktop 2007 |Company: Autodesk,Inc. |WEB Address: www.autodesk.com
 90
    33661
280
     0
281
     1
  0
CLASS
  1
SOLID_BACKGROUND
  2
AcDbSolidBackground
  3
SCENEOE
 90
    36863
280
     0
281
     0
  0
CLASS
  1
NPOCOLLECTION
  2
AcDbImpNonPersistentObjectsCollection
  3
ObjectDBX Classes
 90
    33921
280
     0
281
     0
  0
CLASS
  1
SCALE
  2
AcDbScale
  3
ObjectDBX Classes
 90
     1153
280
     0
281
     0
  0
CLASS
  1
MLEADERSTYLE
  2
AcDbMLeaderStyle
  3
ACDB_MLEADERSTYLE_CLASS
 90
     4095
280
     0
281
     0
  0
CLASS
  1
CELLSTYLEMAP
  2
AcDbCellStyleMap
  3
ObjectDBX Classes
 90
     1152
280
     0
281
     0
  0
ENDSEC
  0
SECTION
  2
TABLES
  0
TABLE
  2
VPORT
  5
24
330
0
100
AcDbSymbolTable
 70
     1
  0
VPORT
  5
25
330
24
100
AcDbSymbolTableRecord
100
AcDbViewportTableRecord
  2
*Active
 70
     0
 10
0.0
 20
0.0
 11
1.0
 21
1.0
 12
-22592.20270017148
 22
-1509.585148047603
 13
0.0
 23
0.0
 14
0.5
 24
0.5
 15
0.5
 25
0.5
 16
0.0
 26
0.0
 36
1.0
 17
0.0
 27
0.0
 37
0.0
 40
20818.17149487813
 41
2.246612466124661
 42
50.0
 43
0.0
 44
0.0
 50
0.0
 51
0.0
 71
     0
 72
  1000
 73
     1
 74
     1
 75
     0
 76
     0
 77
     0
 78
     0
281
     0
 65
     1
110
0.0
120
0.0
130
0.0
111
1.0
121
0.0
131
0.0
112
0.0
122
1.0
132
0.0
 79
     0
146
0.0
  0
ENDTAB
  0
TABLE
  2
LTYPE
  5
1F
330
0
100
AcDbSymbolTable
 70
     4
  0
LTYPE
  5
20
330
1F
100
AcDbSymbolTableRecord
100
AcDbLinetypeTableRecord
  2
ByBlock
 70
     0
  3

 72
    65
 73
     0
 40
0.0
  0
LTYPE
  5
21
330
1F
100
AcDbSymbolTableRecord
100
AcDbLinetypeTableRecord
  2
ByLayer
 70
     0
  3

 72
    65
 73
     0
 40
0.0
  0
LTYPE
  5
C
330
1F
100
AcDbSymbolTableRecord
100
AcDbLinetypeTableRecord
  2
Continuous
 70
     0
  3
Solid line
 72
    65
 73
     0
 40
0.0
  0
LTYPE
  5
601
330
1F
100
AcDbSymbolTableRecord
100
AcDbLinetypeTableRecord
  2
HIDDEN
 70
     0
  3
Hidden __ __ __ __ __ __ __ __ __ __ __ __ __
 72
    65
 73
     2
 40
9.524999999999998
 49
6.349999999999999
 74
     0
 49
-3.174999999999999
 74
     0
  0
ENDTAB
  0
TABLE
  2
LAYER
  5
16
102
{ACAD_XDICTIONARY
360
17
102
}
330
0
100
AcDbSymbolTable
 70
    19
  0
LAYER
  5
6
102
{ACAD_XDICTIONARY
360
161A
102
}
330
16
100
AcDbSymbolTableRecord
100
AcDbLayerTableRecord
  2
0
 70
     0
 62
     7
  6
Continuous
370
    -3
390
7
1001
RAK
1000
{ACET-LAYISO
1070
     0
1070
     7
1000
Continuous
1071
       -3
1071
        1
1005
7
1000
ACET-LAYISO}
  0
LAYER
  5
3E0
330
16
100
AcDbSymbolTableRecord
100
AcDbLayerTableRecord
  2
DEFPOINTS
 70
     0
 62
     7
  6
Continuous
290
     0
370
    -3
390
7
1001
RAK
1000
{ACET-LAYISO
1070
     1
1070
     7
1000
Continuous
1071
       -3
1071
        0
1005
7
1000
ACET-LAYISO}
  0
LAYER
  5
69
102
{ACAD_XDICTIONARY
360
161C
102
}
330
16
100
AcDbSymbolTableRecord
100
AcDbLayerTableRecord
  2
-widok
 70
     0
 62
   114
  6
Continuous
370
     9
390
7
1001
RAK
1000
{ACET-LAYISO
1070
     0
1070
   114
1000
Continuous
1071
        9
1071
        1
1005
7
1000
ACET-LAYISO}
  0
LAYER
  5
602
102
{ACAD_XDICTIONARY
360
161E
102
}
330
16
100
AcDbSymbolTableRecord
100
AcDbLayerTableRecord
  2
NAPISY
 70
     0
 62
   140
  6
Continuous
370
    -3
390
7
1001
RAK
1000
{ACET-LAYISO
1070
     0
1070
   140
1000
Continuous
1071
       -3
1071
        1
1005
7
1000
ACET-LAYISO}
  0
LAYER
  5
603
102
{ACAD_XDICTIONARY
360
1620
102
}
330
16
100
AcDbSymbolTableRecord
100
AcDbLayerTableRecord
  2
A-Dimline-D
 70
     0
 62
     1
  6
Continuous
370
     5
390
7
1001
AcAecLayerStandard
1000
BS1192 - Descriptive
1001
RAK
1000
{ACET-LAYISO
1070
     0
1070
     1
1000
Continuous
1071
        5
1071
        1
1005
7
1000
ACET-LAYISO}
  0
LAYER
  5
608
102
{ACAD_XDICTIONARY
360
1622
102
}
330
16
100
AcDbSymbolTableRecord
100
AcDbLayerTableRecord
  2
RAMKI-A4
 70
     0
 62
     2
  6
Continuous
290
     0
370
    -3
390
7
1001
RAK
1000
{ACET-LAYISO
1070
     0
1070
     2
1000
Continuous
1071
       -3
1071
        0
1005
7
1000
ACET-LAYISO}
  0
LAYER
  5
B0D
102
{ACAD_XDICTIONARY
360
1624
102
}
330
16
100
AcDbSymbolTableRecord
100
AcDbLayerTableRecord
  2
0Wymiary-PL
 70
     0
 62
     1
  6
Continuous
370
     5
390
7
  0
LAYER
  5
BCE
102
{ACAD_XDICTIONARY
360
1626
102
}
330
16
100
AcDbSymbolTableRecord
100
AcDbLayerTableRecord
  2
0Hatch
 70
     0
 62
   122
  6
Continuous
370
     5
390
7
  0
ENDTAB
  0
TABLE
  2
STYLE
  5
1C
330
0
100
AcDbSymbolTable
 70
     8
  0
STYLE
  5
1D
330
1C
100
AcDbSymbolTableRecord
100
AcDbTextStyleTableRecord
  2
Standard
 70
     0
 40
0.0
 41
1.0
 50
0.0
 71
     0
 42
0.2
  3
txt_____.ttf
  4

1001
ACAD
1000
txt
1071
        2
  0
STYLE
  5
3A
330
1C
100
AcDbSymbolTableRecord
100
AcDbTextStyleTableRecord
  2
ROMANS
 70
     0
 40
0.0
 41
0.8
 50
0.0
 71
     0
 42
20.0
  3
romans.shx
  4

  0
STYLE
  5
2B
330
1C
100
AcDbSymbolTableRecord
100
AcDbTextStyleTableRecord
  2
romansDIM
 70
     0
 40
0.0
 41
0.8
 50
0.0
 71
     0
 42
18.0
  3
romansw.shx
  4

  0
STYLE
  5
60A
330
1C
100
AcDbSymbolTableRecord
100
AcDbTextStyleTableRecord
  2
AVA
 70
     0
 40
0.0
 41
1.0
 50
0.0
 71
     0
 42
158.5644099714409
  3
ARIAL.TTF
  4

1001
ACAD
1000
Arial CE
1071
    60962
  0
ENDTAB
  0
TABLE
  2
VIEW
  5
22
330
0
100
AcDbSymbolTable
 70
     0
  0
ENDTAB
  0
TABLE
  2
UCS
  5
23
330
0
100
AcDbSymbolTable
 70
     0
  0
ENDTAB
  0
TABLE
  2
APPID
  5
28
330
0
100
AcDbSymbolTable
 70
    12
  0
APPID
  5
1B
330
28
100
AcDbSymbolTableRecord
100
AcDbRegAppTableRecord
  2
ACAD
 70
     0
  0
APPID
  5
D
330
28
100
AcDbSymbolTableRecord
100
AcDbRegAppTableRecord
  2
RAK
 70
     0
  0
APPID
  5
3D8
330
28
100
AcDbSymbolTableRecord
100
AcDbRegAppTableRecord
  2
AcAecLayerStandard
 70
     0
  0
APPID
  5
4D2
330
28
100
AcDbSymbolTableRecord
100
AcDbRegAppTableRecord
  2
DCO15
 70
     0
  0
APPID
  5
4EA
330
28
100
AcDbSymbolTableRecord
100
AcDbRegAppTableRecord
  2
ACAD_EXEMPT_FROM_CAD_STANDARDS
 70
     0
  0
APPID
  5
4EB
330
28
100
AcDbSymbolTableRecord
100
AcDbRegAppTableRecord
  2
ACAD_DSTYLE_DIM_LINETYPE
 70
     0
  0
APPID
  5
4EC
330
28
100
AcDbSymbolTableRecord
100
AcDbRegAppTableRecord
  2
ACAD_DSTYLE_DIM_EXT1_LINETYPE
 70
     0
  0
APPID
  5
4ED
330
28
100
AcDbSymbolTableRecord
100
AcDbRegAppTableRecord
  2
ACAD_DSTYLE_DIM_EXT2_LINETYPE
 70
     0
  0
APPID
  5
60E
330
28
100
AcDbSymbolTableRecord
100
AcDbRegAppTableRecord
  2
ACAD_PSEXT
 70
     0
  0
APPID
  5
60F
330
28
100
AcDbSymbolTableRecord
100
AcDbRegAppTableRecord
  2
ACAD_DSTYLE_DIMJOGGED_JOGANGLE_SYMBOL
 70
     0
  0
APPID
  5
1611
330
28
100
AcDbSymbolTableRecord
100
AcDbRegAppTableRecord
  2
ACAD_MLEADERVER
 70
     0
  0
APPID
  5
1651
330
28
100
AcDbSymbolTableRecord
100
AcDbRegAppTableRecord
  2
ACAD_DSTYLE_DIMEXT_LENGTH
 70
     0
  0
ENDTAB
  0
TABLE
  2
DIMSTYLE
  5
29
330
0
100
AcDbSymbolTable
 70
    10
100
AcDbDimStyleTable
 71
     2
340
2A
340
60D
  0
DIMSTYLE
105
2A
330
29
100
AcDbSymbolTableRecord
100
AcDbDimStyleTableRecord
  2
100-archon
 70
     0
 41
8.0
 42
43.0
 43
24.0
 44
13.0
 45
0.5
 46
12.0
 73
     0
 74
     0
 75
     1
 76
     1
 78
     8
140
16.0
141
0.0
145
1.0
147
4.0
172
     1
174
     1
176
     1
177
     1
178
   140
271
     1
272
     1
279
     2
340
2B
341
2C
342
31
371
     5
  0
DIMSTYLE
105
60D
102
{ACAD_REACTORS
330
ED7
330
EC3
330
F14
330
F00
330
103F
330
104A
330
1055
330
FF6
330
1015
330
100A
330
1088
330
1069
330
1029
330
11CC
330
11E7
102
}
330
29
100
AcDbSymbolTableRecord
100
AcDbDimStyleTableRecord
  2
500
 70
     0
 41
30.0
 42
43.0
 43
0.0
 44
13.0
 45
0.5
 46
12.0
 73
     0
 74
     0
 75
     1
 76
     1
 78
    12
140
80.0
141
0.0
145
1.0
147
0.0
172
     1
174
     1
176
     1
177
     1
178
   140
271
     1
272
     1
279
     2
340
3A
341
31
342
31
1001
ACAD_DSTYLE_DIMJOGGED_JOGANGLE_SYMBOL
1070
   384
1040
0.7853981633974483
1001
ACAD_DSTYLE_DIMEXT_LENGTH
1070
   378
1040
13.0
  0
ENDTAB
  0
TABLE
  2
BLOCK_RECORD
  5
1
330
0
100
AcDbSymbolTable
 70
    33
  0
BLOCK_RECORD
  5
2
102
{ACAD_XDICTIONARY
360
3
102
}
330
1
100
AcDbSymbolTableRecord
100
AcDbBlockTableRecord
  2
*Model_Space
340
F
  0
BLOCK_RECORD
  5
11
102
{ACAD_XDICTIONARY
360
12
102
}
330
1
100
AcDbSymbolTableRecord
100
AcDbBlockTableRecord
  2
*Paper_Space
340
15
  0
BLOCK_RECORD
  5
31
102
{ACAD_XDICTIONARY
360
32
102
}
330
1
100
AcDbSymbolTableRecord
100
AcDbBlockTableRecord
  2
B-DIM
340
0
102
{BLKREFS
331
154D
331
154E
331
1556
331
1557
331
155D
331
155E
331
1566
331
1567
331
156D
331
156E
331
1574
331
1575
331
157B
331
157C
331
1582
331
1583
331
1589
331
158A
331
1590
331
1591
331
1597
331
1598
331
159E
331
159F
331
15A5
331
15A6
331
15AC
331
15AD
331
15B3
331
15B4
331
15BA
331
15BB
331
15C3
331
15C4
331
15CC
331
15CD
331
15D3
331
15D4
331
15DA
331
15DB
331
15E1
331
15E2
102
}
  0
BLOCK_RECORD
  5
2C
330
1
100
AcDbSymbolTableRecord
100
AcDbBlockTableRecord
  2
_Dot
340
0
  0
BLOCK_RECORD
  5
EC4
330
1
100
AcDbSymbolTableRecord
100
AcDbBlockTableRecord
  2
*D11
340
0
  0
BLOCK_RECORD
  5
ED8
330
1
100
AcDbSymbolTableRecord
100
AcDbBlockTableRecord
  2
*D12
340
0
  0
BLOCK_RECORD
  5
F01
330
1
100
AcDbSymbolTableRecord
100
AcDbBlockTableRecord
  2
*D13
340
0
  0
BLOCK_RECORD
  5
F15
330
1
100
AcDbSymbolTableRecord
100
AcDbBlockTableRecord
  2
*D14
340
0
  0
BLOCK_RECORD
  5
FF7
330
1
100
AcDbSymbolTableRecord
100
AcDbBlockTableRecord
  2
*D21
340
0
  0
BLOCK_RECORD
  5
100B
330
1
100
AcDbSymbolTableRecord
100
AcDbBlockTableRecord
  2
*D22
340
0
  0
BLOCK_RECORD
  5
1016
330
1
100
AcDbSymbolTableRecord
100
AcDbBlockTableRecord
  2
*D23
340
0
  0
BLOCK_RECORD
  5
102A
330
1
100
AcDbSymbolTableRecord
100
AcDbBlockTableRecord
  2
*D24
340
0
  0
BLOCK_RECORD
  5
1040
330
1
100
AcDbSymbolTableRecord
100
AcDbBlockTableRecord
  2
*D25
340
0
  0
BLOCK_RECORD
  5
104B
330
1
100
AcDbSymbolTableRecord
100
AcDbBlockTableRecord
  2
*D26
340
0
  0
BLOCK_RECORD
  5
1056
330
1
100
AcDbSymbolTableRecord
100
AcDbBlockTableRecord
  2
*D27
340
0
  0
BLOCK_RECORD
  5
106A
330
1
100
AcDbSymbolTableRecord
100
AcDbBlockTableRecord
  2
*D28
340
0
  0
BLOCK_RECORD
  5
1089
330
1
100
AcDbSymbolTableRecord
100
AcDbBlockTableRecord
  2
*D29
340
0
  0
BLOCK_RECORD
  5
11CD
330
1
100
AcDbSymbolTableRecord
100
AcDbBlockTableRecord
  2
*D30
340
0
  0
BLOCK_RECORD
  5
11E8
330
1
100
AcDbSymbolTableRecord
100
AcDbBlockTableRecord
  2
*D31
340
0
  0
ENDTAB
  0
ENDSEC
  0
SECTION
  2
BLOCKS
  0
BLOCK
  5
5
330
2
100
AcDbEntity
  8
0
100
AcDbBlockBegin
  2
*Model_Space
 70
     0
 10
0.0
 20
0.0
 30
0.0
  3
*Model_Space
  1

  0
ENDBLK
  5
E
330
2
100
AcDbEntity
  8
0
100
AcDbBlockEnd
  0
BLOCK
  5
13
330
11
100
AcDbEntity
 67
     1
  8
0
100
AcDbBlockBegin
  2
*Paper_Space
 70
     0
 10
0.0
 20
0.0
 30
0.0
  3
*Paper_Space
  1

  0
ENDBLK
  5
14
330
11
100
AcDbEntity
 67
     1
  8
0
100
AcDbBlockEnd
  0
BLOCK
  5
34
330
31
100
AcDbEntity
  8
0
100
AcDbBlockBegin
  2
B-DIM
 70
     0
 10
0.0
 20
0.0
 30
0.0
  3
B-DIM
  1

  0
LINE
  5
35
330
31
100
AcDbEntity
  8
0
 62
     1
100
AcDbLine
 10
0.000000000000091
 20
-1.1
 30
0.0
 11
0.000000000000091
 21
1.1
 31
0.0
  0
LWPOLYLINE
  5
36
330
31
100
AcDbEntity
  8
0
 62
     1
100
AcDbPolyline
 90
        2
 70
     0
 43
0.3
 10
-0.7071067811864851
 20
-0.7071067811864851
 10
0.707106781186576
 20
0.707106781186576
  0
LINE
  5
37
330
31
100
AcDbEntity
  8
0
 62
     1
100
AcDbLine
 10
1.20000000000009
 20
0.0
 30
0.0
 11
-1.199999999999909
 21
0.0
 31
0.0
  0
ENDBLK
  5
38
330
31
100
AcDbEntity
  8
0
100
AcDbBlockEnd
  0
BLOCK
  5
2D
330
2C
100
AcDbEntity
  8
0
100
AcDbBlockBegin
  2
_Dot
 70
     0
 10
0.0
 20
0.0
 30
0.0
  3
_Dot
  1

  0
LWPOLYLINE
  5
2E
330
2C
100
AcDbEntity
  8
0
  6
ByBlock
 62
     0
100
AcDbPolyline
 90
        2
 70
     1
 43
0.5
 10
-0.25
 20
0.0
 42
1.0
 10
0.25
 20
0.0
 42
1.0
  0
LINE
  5
2F
330
2C
100
AcDbEntity
  8
0
  6
ByBlock
 62
     0
370
    -2
100
AcDbLine
 10
-0.5
 20
0.0
 30
0.0
 11
-1.0
 21
0.0
 31
0.0
  0
ENDBLK
  5
30
330
2C
100
AcDbEntity
  8
0
100
AcDbBlockEnd
  0
BLOCK
  5
ECC
330
EC4
100
AcDbEntity
  8
0
100
AcDbBlockBegin
  2
*D11
 70
     1
 10
0.0
 20
0.0
 30
0.0
  3
*D11
  1

  0
LINE
  5
154C
330
EC4
100
AcDbEntity
  8
A-Dimline-D
 62
     1
 48
4.0
370
    -2
100
AcDbLine
 10
-19686.20107115327
 20
-2477.075637583561
 30
0.0
 11
-20823.20107115327
 21
-2477.075637583561
 31
0.0
  0
INSERT
  5
154D
330
EC4
100
AcDbEntity
  8
A-Dimline-D
 62
     1
 48
4.0
370
    -2
100
AcDbBlockReference
  2
B-DIM
 10
-19656.20107115327
 20
-2477.075637583561
 30
0.0
 41
30.0
 42
30.0
 43
30.0
  0
INSERT
  5
154E
330
EC4
100
AcDbEntity
  8
A-Dimline-D
 62
     1
 48
4.0
370
    -2
100
AcDbBlockReference
  2
B-DIM
 10
-20853.20107115328
 20
-2477.075637583561
 30
0.0
 41
30.0
 42
30.0
 43
30.0
 50
180.0
  0
MTEXT
  5
154F
330
EC4
100
AcDbEntity
  8
A-Dimline-D
 62
   140
 48
4.0
100
AcDbMText
 10
-20254.70107115328
 20
-2397.075637583561
 30
0.0
 40
80.0
 41
0.0
 71
     5
 72
     1
  1
\A1;1197
  7
ROMANS
 73
     1
 44
1.0
1001
ACAD
1000
MTEXTBEGIN
1070
    73
1070
     1
1070
    44
1040
1.0
1070
    74
1070
     0
1000
MTEXTEND
  0
POINT
  5
1550
330
EC4
100
AcDbEntity
  8
DEFPOINTS
 62
     0
 48
4.0
100
AcDbPoint
 10
-19656.20107115327
 20
-2127.267046483839
 30
0.0
  0
POINT
  5
1551
330
EC4
100
AcDbEntity
  8
DEFPOINTS
 62
     0
 48
4.0
100
AcDbPoint
 10
-20853.20107115328
 20
-2127.267046483839
 30
0.0
  0
POINT
  5
1552
330
EC4
100
AcDbEntity
  8
DEFPOINTS
 62
     0
 48
4.0
100
AcDbPoint
 10
-20853.20107115328
 20
-2477.075637583561
 30
0.0
  0
ENDBLK
  5
ECD
330
EC4
100
AcDbEntity
  8
0
100
AcDbBlockEnd
  0
BLOCK
  5
EE0
330
ED8
100
AcDbEntity
  8
0
100
AcDbBlockBegin
  2
*D12
 70
     1
 10
0.0
 20
0.0
 30
0.0
  3
*D12
  1

  0
LINE
  5
1553
330
ED8
100
AcDbEntity
  8
A-Dimline-D
 62
     1
 48
4.0
370
    -2
100
AcDbLine
 10
-20825.20107115327
 20
-2477.075637583561
 30
0.0
 11
-20795.20107115328
 21
-2477.075637583561
 31
0.0
  0
LINE
  5
1554
330
ED8
100
AcDbEntity
  8
A-Dimline-D
 62
     1
 48
4.0
370
    -2
100
AcDbLine
 10
-20945.20107115327
 20
-2477.075637583561
 30
0.0
 11
-20975.20107115327
 21
-2477.075637583561
 31
0.0
  0
LINE
  5
1555
330
ED8
100
AcDbEntity
  8
A-Dimline-D
 62
     1
 48
4.0
370
    -2
100
AcDbLine
 10
-20855.20107115327
 20
-2477.075637583561
 30
0.0
 11
-20915.20107115328
 21
-2477.075637583561
 31
0.0
  0
INSERT
  5
1556
330
ED8
100
AcDbEntity
  8
A-Dimline-D
 62
     1
 48
4.0
370
    -2
100
AcDbBlockReference
  2
B-DIM
 10
-20855.20107115327
 20
-2477.075637583561
 30
0.0
 41
30.0
 42
30.0
 43
30.0
 50
180.0
  0
INSERT
  5
1557
330
ED8
100
AcDbEntity
  8
A-Dimline-D
 62
     1
 48
4.0
370
    -2
100
AcDbBlockReference
  2
B-DIM
 10
-20915.20107115328
 20
-2477.075637583561
 30
0.0
 41
30.0
 42
30.0
 43
30.0
  0
MTEXT
  5
1558
330
ED8
100
AcDbEntity
  8
A-Dimline-D
 62
   140
 48
4.0
100
AcDbMText
 10
-20885.20107115328
 20
-2397.075637583561
 30
0.0
 40
80.0
 41
0.0
 71
     5
 72
     1
  1
\A1;60
  7
ROMANS
 73
     1
 44
1.0
1001
ACAD
1000
MTEXTBEGIN
1070
    73
1070
     1
1070
    44
1040
1.0
1070
    74
1070
     0
1000
MTEXTEND
  0
POINT
  5
1559
330
ED8
100
AcDbEntity
  8
DEFPOINTS
 62
     0
 48
4.0
100
AcDbPoint
 10
-20855.20107115327
 20
-2127.267046483839
 30
0.0
  0
POINT
  5
155A
330
ED8
100
AcDbEntity
  8
DEFPOINTS
 62
     0
 48
4.0
100
AcDbPoint
 10
-20915.20107115328
 20
-1747.421375416395
 30
0.0
  0
POINT
  5
155B
330
ED8
100
AcDbEntity
  8
DEFPOINTS
 62
     0
 48
4.0
100
AcDbPoint
 10
-20915.20107115328
 20
-2477.075637583561
 30
0.0
  0
ENDBLK
  5
EE1
330
ED8
100
AcDbEntity
  8
0
100
AcDbBlockEnd
  0
BLOCK
  5
F09
330
F01
100
AcDbEntity
  8
0
100
AcDbBlockBegin
  2
*D13
 70
     1
 10
0.0
 20
0.0
 30
0.0
  3
*D13
  1

  0
LINE
  5
155C
330
F01
100
AcDbEntity
  8
A-Dimline-D
 62
     1
 48
4.0
370
    -2
100
AcDbLine
 10
-19626.20107115327
 20
-2477.075637583561
 30
0.0
 11
-18489.20107115327
 21
-2477.075637583561
 31
0.0
  0
INSERT
  5
155D
330
F01
100
AcDbEntity
  8
A-Dimline-D
 62
     1
 48
4.0
370
    -2
100
AcDbBlockReference
  2
B-DIM
 10
-19656.20107115327
 20
-2477.075637583561
 30
0.0
 41
30.0
 42
30.0
 43
30.0
 50
180.0
  0
INSERT
  5
155E
330
F01
100
AcDbEntity
  8
A-Dimline-D
 62
     1
 48
4.0
370
    -2
100
AcDbBlockReference
  2
B-DIM
 10
-18459.20107115327
 20
-2477.075637583561
 30
0.0
 41
30.0
 42
30.0
 43
30.0
  0
MTEXT
  5
155F
330
F01
100
AcDbEntity
  8
A-Dimline-D
 62
   140
 48
4.0
100
AcDbMText
 10
-19057.70107115327
 20
-2397.075637583561
 30
0.0
 40
80.0
 41
0.0
 71
     5
 72
     1
  1
\A1;1197
  7
ROMANS
 73
     1
 44
1.0
1001
ACAD
1000
MTEXTBEGIN
1070
    73
1070
     1
1070
    44
1040
1.0
1070
    74
1070
     0
1000
MTEXTEND
  0
POINT
  5
1560
330
F01
100
AcDbEntity
  8
DEFPOINTS
 62
     0
 48
4.0
100
AcDbPoint
 10
-19656.20107115327
 20
-2127.267046483839
 30
0.0
  0
POINT
  5
1561
330
F01
100
AcDbEntity
  8
DEFPOINTS
 62
     0
 48
4.0
100
AcDbPoint
 10
-18459.20107115327
 20
-2127.267046483839
 30
0.0
  0
POINT
  5
1562
330
F01
100
AcDbEntity
  8
DEFPOINTS
 62
     0
 48
4.0
100
AcDbPoint
 10
-18459.20107115327
 20
-2477.075637583561
 30
0.0
  0
ENDBLK
  5
F0A
330
F01
100
AcDbEntity
  8
0
100
AcDbBlockEnd
  0
BLOCK
  5
F1D
330
F15
100
AcDbEntity
  8
0
100
AcDbBlockBegin
  2
*D14
 70
     1
 10
0.0
 20
0.0
 30
0.0
  3
*D14
  1

  0
LINE
  5
1563
330
F15
100
AcDbEntity
  8
A-Dimline-D
 62
     1
 48
4.0
370
    -2
100
AcDbLine
 10
-18489.20107115327
 20
-2477.075637583561
 30
0.0
 11
-18519.20107115327
 21
-2477.075637583561
 31
0.0
  0
LINE
  5
1564
330
F15
100
AcDbEntity
  8
A-Dimline-D
 62
     1
 48
4.0
370
    -2
100
AcDbLine
 10
-18369.20107115327
 20
-2477.075637583561
 30
0.0
 11
-18339.20107115327
 21
-2477.075637583561
 31
0.0
  0
LINE
  5
1565
330
F15
100
AcDbEntity
  8
A-Dimline-D
 62
     1
 48
4.0
370
    -2
100
AcDbLine
 10
-18459.20107115327
 20
-2477.075637583561
 30
0.0
 11
-18399.20107115327
 21
-2477.075637583561
 31
0.0
  0
INSERT
  5
1566
330
F15
100
AcDbEntity
  8
A-Dimline-D
 62
     1
 48
4.0
370
    -2
100
AcDbBlockReference
  2
B-DIM
 10
-18459.20107115327
 20
-2477.075637583561
 30
0.0
 41
30.0
 42
30.0
 43
30.0
  0
INSERT
  5
1567
330
F15
100
AcDbEntity
  8
A-Dimline-D
 62
     1
 48
4.0
370
    -2
100
AcDbBlockReference
  2
B-DIM
 10
-18399.20107115327
 20
-2477.075637583561
 30
0.0
 41
30.0
 42
30.0
 43
30.0
 50
180.0
  0
MTEXT
  5
1568
330
F15
100
AcDbEntity
  8
A-Dimline-D
 62
   140
 48
4.0
100
AcDbMText
 10
-18429.20107115327
 20
-2397.075637583561
 30
0.0
 40
80.0
 41
0.0
 71
     5
 72
     1
  1
\A1;60
  7
ROMANS
 73
     1
 44
1.0
1001
ACAD
1000
MTEXTBEGIN
1070
    73
1070
     1
1070
    44
1040
1.0
1070
    74
1070
     0
1000
MTEXTEND
  0
POINT
  5
1569
330
F15
100
AcDbEntity
  8
DEFPOINTS
 62
     0
 48
4.0
100
AcDbPoint
 10
-18459.20107115327
 20
-2127.267046483839
 30
0.0
  0
POINT
  5
156A
330
F15
100
AcDbEntity
  8
DEFPOINTS
 62
     0
 48
4.0
100
AcDbPoint
 10
-18399.20107115327
 20
-1747.421375416395
 30
0.0
  0
POINT
  5
156B
330
F15
100
AcDbEntity
  8
DEFPOINTS
 62
     0
 48
4.0
100
AcDbPoint
 10
-18399.20107115327
 20
-2477.075637583561
 30
0.0
  0
ENDBLK
  5
F1E
330
F15
100
AcDbEntity
  8
0
100
AcDbBlockEnd
  0
BLOCK
  5
FFF
330
FF7
100
AcDbEntity
  8
0
100
AcDbBlockBegin
  2
*D21
 70
     1
 10
0.0
 20
0.0
 30
0.0
  3
*D21
  1

  0
LINE
  5
1596
330
FF7
100
AcDbEntity
  8
A-Dimline-D
 62
     1
 48
4.0
370
    -2
100
AcDbLine
 10
-20823.20107115327
 20
-700.2415211339267
 30
0.0
 11
-20033.20107115327
 21
-700.2415211339267
 31
0.0
  0
INSERT
  5
1597
330
FF7
100
AcDbEntity
  8
A-Dimline-D
 62
     1
 48
4.0
370
    -2
100
AcDbBlockReference
  2
B-DIM
 10
-20853.20107115327
 20
-700.2415211339267
 30
0.0
 41
30.0
 42
30.0
 43
30.0
 50
180.0
  0
INSERT
  5
1598
330
FF7
100
AcDbEntity
  8
A-Dimline-D
 62
     1
 48
4.0
370
    -2
100
AcDbBlockReference
  2
B-DIM
 10
-20003.20107115327
 20
-700.2415211339267
 30
0.0
 41
30.0
 42
30.0
 43
30.0
  0
MTEXT
  5
1599
330
FF7
100
AcDbEntity
  8
A-Dimline-D
 62
   140
 48
4.0
100
AcDbMText
 10
-20428.20107115327
 20
-620.2415211339266
 30
0.0
 40
80.0
 41
0.0
 71
     5
 72
     1
  1
\A1;850
  7
ROMANS
 73
     1
 44
1.0
1001
ACAD
1000
MTEXTBEGIN
1070
    73
1070
     1
1070
    44
1040
1.0
1070
    74
1070
     0
1000
MTEXTEND
  0
POINT
  5
159A
330
FF7
100
AcDbEntity
  8
DEFPOINTS
 62
     0
 48
4.0
100
AcDbPoint
 10
-20853.20107115327
 20
-830.7969840617797
 30
0.0
  0
POINT
  5
159B
330
FF7
100
AcDbEntity
  8
DEFPOINTS
 62
     0
 48
4.0
100
AcDbPoint
 10
-20003.20107115327
 20
-830.7969840617797
 30
0.0
  0
POINT
  5
159C
330
FF7
100
AcDbEntity
  8
DEFPOINTS
 62
     0
 48
4.0
100
AcDbPoint
 10
-20003.20107115327
 20
-700.2415211339267
 30
0.0
  0
ENDBLK
  5
1000
330
FF7
100
AcDbEntity
  8
0
100
AcDbBlockEnd
  0
BLOCK
  5
1013
330
100B
100
AcDbEntity
  8
0
100
AcDbBlockBegin
  2
*D22
 70
     1
 10
0.0
 20
0.0
 30
0.0
  3
*D22
  1

  0
LINE
  5
159D
330
100B
100
AcDbEntity
  8
A-Dimline-D
 62
     1
 48
4.0
370
    -2
100
AcDbLine
 10
-19973.20107115327
 20
-700.2415211339267
 30
0.0
 11
-19686.20107115327
 21
-700.2415211339267
 31
0.0
  0
INSERT
  5
159E
330
100B
100
AcDbEntity
  8
A-Dimline-D
 62
     1
 48
4.0
370
    -2
100
AcDbBlockReference
  2
B-DIM
 10
-20003.20107115327
 20
-700.2415211339267
 30
0.0
 41
30.0
 42
30.0
 43
30.0
 50
180.0
  0
INSERT
  5
159F
330
100B
100
AcDbEntity
  8
A-Dimline-D
 62
     1
 48
4.0
370
    -2
100
AcDbBlockReference
  2
B-DIM
 10
-19656.20107115327
 20
-700.2415211339267
 30
0.0
 41
30.0
 42
30.0
 43
30.0
  0
MTEXT
  5
15A0
330
100B
100
AcDbEntity
  8
A-Dimline-D
 62
   140
 48
4.0
100
AcDbMText
 10
-19829.70107115327
 20
-620.2415211339266
 30
0.0
 40
80.0
 41
0.0
 71
     5
 72
     1
  1
\A1;347
  7
ROMANS
 73
     1
 44
1.0
1001
ACAD
1000
MTEXTBEGIN
1070
    73
1070
     1
1070
    44
1040
1.0
1070
    74
1070
     0
1000
MTEXTEND
  0
POINT
  5
15A1
330
100B
100
AcDbEntity
  8
DEFPOINTS
 62
     0
 48
4.0
100
AcDbPoint
 10
-20003.20107115327
 20
-830.7969840617797
 30
0.0
  0
POINT
  5
15A2
330
100B
100
AcDbEntity
  8
DEFPOINTS
 62
     0
 48
4.0
100
AcDbPoint
 10
-19656.20107115327
 20
-1012.796984061772
 30
0.0
  0
POINT
  5
15A3
330
100B
100
AcDbEntity
  8
DEFPOINTS
 62
     0
 48
4.0
100
AcDbPoint
 10
-19656.20107115327
 20
-700.2415211339267
 30
0.0
  0
ENDBLK
  5
1014
330
100B
100
AcDbEntity
  8
0
100
AcDbBlockEnd
  0
BLOCK
  5
101E
330
1016
100
AcDbEntity
  8
0
100
AcDbBlockBegin
  2
*D23
 70
     1
 10
0.0
 20
0.0
 30
0.0
  3
*D23
  1

  0
LINE
  5
15A4
330
1016
100
AcDbEntity
  8
A-Dimline-D
 62
     1
 48
4.0
370
    -2
100
AcDbLine
 10
-19626.20107115327
 20
-700.2415211339267
 30
0.0
 11
-19339.20107115327
 21
-700.2415211339267
 31
0.0
  0
INSERT
  5
15A5
330
1016
100
AcDbEntity
  8
A-Dimline-D
 62
     1
 48
4.0
370
    -2
100
AcDbBlockReference
  2
B-DIM
 10
-19656.20107115327
 20
-700.2415211339267
 30
0.0
 41
30.0
 42
30.0
 43
30.0
 50
180.0
  0
INSERT
  5
15A6
330
1016
100
AcDbEntity
  8
A-Dimline-D
 62
     1
 48
4.0
370
    -2
100
AcDbBlockReference
  2
B-DIM
 10
-19309.20107115327
 20
-700.2415211339267
 30
0.0
 41
30.0
 42
30.0
 43
30.0
  0
MTEXT
  5
15A7
330
1016
100
AcDbEntity
  8
A-Dimline-D
 62
   140
 48
4.0
100
AcDbMText
 10
-19482.70107115327
 20
-620.2415211339266
 30
0.0
 40
80.0
 41
0.0
 71
     5
 72
     1
  1
\A1;347
  7
ROMANS
 73
     1
 44
1.0
1001
ACAD
1000
MTEXTBEGIN
1070
    73
1070
     1
1070
    44
1040
1.0
1070
    74
1070
     0
1000
MTEXTEND
  0
POINT
  5
15A8
330
1016
100
AcDbEntity
  8
DEFPOINTS
 62
     0
 48
4.0
100
AcDbPoint
 10
-19656.20107115327
 20
-1012.796984061772
 30
0.0
  0
POINT
  5
15A9
330
1016
100
AcDbEntity
  8
DEFPOINTS
 62
     0
 48
4.0
100
AcDbPoint
 10
-19309.20107115327
 20
-830.7969840617797
 30
0.0
  0
POINT
  5
15AA
330
1016
100
AcDbEntity
  8
DEFPOINTS
 62
     0
 48
4.0
100
AcDbPoint
 10
-19309.20107115327
 20
-700.2415211339267
 30
0.0
  0
ENDBLK
  5
101F
330
1016
100
AcDbEntity
  8
0
100
AcDbBlockEnd
  0
BLOCK
  5
1032
330
102A
100
AcDbEntity
  8
0
100
AcDbBlockBegin
  2
*D24
 70
     1
 10
0.0
 20
0.0
 30
0.0
  3
*D24
  1

  0
LINE
  5
15AB
330
102A
100
AcDbEntity
  8
A-Dimline-D
 62
     1
 48
4.0
370
    -2
100
AcDbLine
 10
-19279.20107115327
 20
-700.2415211339267
 30
0.0
 11
-18489.20107115327
 21
-700.2415211339267
 31
0.0
  0
INSERT
  5
15AC
330
102A
100
AcDbEntity
  8
A-Dimline-D
 62
     1
 48
4.0
370
    -2
100
AcDbBlockReference
  2
B-DIM
 10
-19309.20107115327
 20
-700.2415211339267
 30
0.0
 41
30.0
 42
30.0
 43
30.0
 50
180.0
  0
INSERT
  5
15AD
330
102A
100
AcDbEntity
  8
A-Dimline-D
 62
     1
 48
4.0
370
    -2
100
AcDbBlockReference
  2
B-DIM
 10
-18459.20107115327
 20
-700.2415211339267
 30
0.0
 41
30.0
 42
30.0
 43
30.0
  0
MTEXT
  5
15AE
330
102A
100
AcDbEntity
  8
A-Dimline-D
 62
   140
 48
4.0
100
AcDbMText
 10
-18884.20107115327
 20
-620.2415211339266
 30
0.0
 40
80.0
 41
0.0
 71
     5
 72
     1
  1
\A1;850
  7
ROMANS
 73
     1
 44
1.0
1001
ACAD
1000
MTEXTBEGIN
1070
    73
1070
     1
1070
    44
1040
1.0
1070
    74
1070
     0
1000
MTEXTEND
  0
POINT
  5
15AF
330
102A
100
AcDbEntity
  8
DEFPOINTS
 62
     0
 48
4.0
100
AcDbPoint
 10
-19309.20107115327
 20
-830.7969840617797
 30
0.0
  0
POINT
  5
15B0
330
102A
100
AcDbEntity
  8
DEFPOINTS
 62
     0
 48
4.0
100
AcDbPoint
 10
-18459.20107115327
 20
-830.7969840617797
 30
0.0
  0
POINT
  5
15B1
330
102A
100
AcDbEntity
  8
DEFPOINTS
 62
     0
 48
4.0
100
AcDbPoint
 10
-18459.20107115327
 20
-700.2415211339267
 30
0.0
  0
ENDBLK
  5
1033
330
102A
100
AcDbEntity
  8
0
100
AcDbBlockEnd
  0
BLOCK
  5
1048
330
1040
100
AcDbEntity
  8
0
100
AcDbBlockBegin
  2
*D25
 70
     1
 10
0.0
 20
0.0
 30
0.0
  3
*D25
  1

  0
LINE
  5
15B2
330
1040
100
AcDbEntity
  8
A-Dimline-D
 62
     1
 48
4.0
370
    -2
100
AcDbLine
 10
-17581.0870202381
 20
-1920.845668644562
 30
0.0
 11
-17581.0870202381
 21
-1080.845668644562
 31
0.0
  0
INSERT
  5
15B3
330
1040
100
AcDbEntity
  8
A-Dimline-D
 62
     1
 48
4.0
370
    -2
100
AcDbBlockReference
  2
B-DIM
 10
-17581.0870202381
 20
-1950.845668644562
 30
0.0
 41
30.0
 42
30.0
 43
30.0
 50
270.0
  0
INSERT
  5
15B4
330
1040
100
AcDbEntity
  8
A-Dimline-D
 62
     1
 48
4.0
370
    -2
100
AcDbBlockReference
  2
B-DIM
 10
-17581.0870202381
 20
-1050.845668644562
 30
0.0
 41
30.0
 42
30.0
 43
30.0
 50
90.0
  0
MTEXT
  5
15B5
330
1040
100
AcDbEntity
  8
A-Dimline-D
 62
   140
 48
4.0
100
AcDbMText
 10
-17661.0870202381
 20
-1500.845668644565
 30
0.0
 40
80.0
 41
0.0
 71
     5
 72
     1
  1
\A1;900
  7
ROMANS
 11
0.0000000000000001
 21
1.0
 31
0.0
 73
     1
 44
1.0
1001
ACAD
1000
MTEXTBEGIN
1070
    73
1070
     1
1070
    44
1040
1.0
1070
    74
1070
     0
1000
MTEXTEND
  0
POINT
  5
15B6
330
1040
100
AcDbEntity
  8
DEFPOINTS
 62
     0
 48
4.0
100
AcDbPoint
 10
-18262.02656315365
 20
-1950.845668644562
 30
0.0
  0
POINT
  5
15B7
330
1040
100
AcDbEntity
  8
DEFPOINTS
 62
     0
 48
4.0
100
AcDbPoint
 10
-18262.02656315365
 20
-1050.845668644562
 30
0.0
  0
POINT
  5
15B8
330
1040
100
AcDbEntity
  8
DEFPOINTS
 62
     0
 48
4.0
100
AcDbPoint
 10
-17581.0870202381
 20
-1050.845668644562
 30
0.0
  0
ENDBLK
  5
1049
330
1040
100
AcDbEntity
  8
0
100
AcDbBlockEnd
  0
BLOCK
  5
1053
330
104B
100
AcDbEntity
  8
0
100
AcDbBlockBegin
  2
*D26
 70
     1
 10
0.0
 20
0.0
 30
0.0
  3
*D26
  1

  0
LINE
  5
15B9
330
104B
100
AcDbEntity
  8
A-Dimline-D
 62
     1
 48
4.0
370
    -2
100
AcDbLine
 10
-21760.8767747843
 20
-1920.845668644562
 30
0.0
 11
-21760.8767747843
 21
-1080.845668644561
 31
0.0
  0
INSERT
  5
15BA
330
104B
100
AcDbEntity
  8
A-Dimline-D
 62
     1
 48
4.0
370
    -2
100
AcDbBlockReference
  2
B-DIM
 10
-21760.8767747843
 20
-1950.845668644562
 30
0.0
 41
30.0
 42
30.0
 43
30.0
 50
270.0
  0
INSERT
  5
15BB
330
104B
100
AcDbEntity
  8
A-Dimline-D
 62
     1
 48
4.0
370
    -2
100
AcDbBlockReference
  2
B-DIM
 10
-21760.8767747843
 20
-1050.845668644561
 30
0.0
 41
30.0
 42
30.0
 43
30.0
 50
90.0
  0
MTEXT
  5
15BC
330
104B
100
AcDbEntity
  8
A-Dimline-D
 62
   140
 48
4.0
100
AcDbMText
 10
-21840.8767747843
 20
-1500.845668644565
 30
0.0
 40
80.0
 41
0.0
 71
     5
 72
     1
  1
\A1;900
  7
ROMANS
 11
0.0000000000000001
 21
1.0
 31
0.0
 73
     1
 44
1.0
1001
ACAD
1000
MTEXTBEGIN
1070
    73
1070
     1
1070
    44
1040
1.0
1070
    74
1070
     0
1000
MTEXTEND
  0
POINT
  5
15BD
330
104B
100
AcDbEntity
  8
DEFPOINTS
 62
     0
 48
4.0
100
AcDbPoint
 10
-20987.27970448426
 20
-1950.845668644562
 30
0.0
  0
POINT
  5
15BE
330
104B
100
AcDbEntity
  8
DEFPOINTS
 62
     0
 48
4.0
100
AcDbPoint
 10
-20987.27970448426
 20
-1050.845668644562
 30
0.0
  0
POINT
  5
15BF
330
104B
100
AcDbEntity
  8
DEFPOINTS
 62
     0
 48
4.0
100
AcDbPoint
 10
-21760.8767747843
 20
-1050.845668644561
 30
0.0
  0
ENDBLK
  5
1054
330
104B
100
AcDbEntity
  8
0
100
AcDbBlockEnd
  0
BLOCK
  5
105E
330
1056
100
AcDbEntity
  8
0
100
AcDbBlockBegin
  2
*D27
 70
     1
 10
0.0
 20
0.0
 30
0.0
  3
*D27
  1

  0
LINE
  5
15C0
330
1056
100
AcDbEntity
  8
A-Dimline-D
 62
     1
 48
4.0
370
    -2
100
AcDbLine
 10
-20823.20107115327
 20
-700.2415211339267
 30
0.0
 11
-20793.20107115327
 21
-700.2415211339267
 31
0.0
  0
LINE
  5
15C1
330
1056
100
AcDbEntity
  8
A-Dimline-D
 62
     1
 48
4.0
370
    -2
100
AcDbLine
 10
-20943.20107115327
 20
-700.2415211339267
 30
0.0
 11
-20973.20107115327
 21
-700.2415211339267
 31
0.0
  0
LINE
  5
15C2
330
1056
100
AcDbEntity
  8
A-Dimline-D
 62
     1
 48
4.0
370
    -2
100
AcDbLine
 10
-20853.20107115327
 20
-700.2415211339267
 30
0.0
 11
-20913.20107115327
 21
-700.2415211339267
 31
0.0
  0
INSERT
  5
15C3
330
1056
100
AcDbEntity
  8
A-Dimline-D
 62
     1
 48
4.0
370
    -2
100
AcDbBlockReference
  2
B-DIM
 10
-20853.20107115327
 20
-700.2415211339267
 30
0.0
 41
30.0
 42
30.0
 43
30.0
 50
180.0
  0
INSERT
  5
15C4
330
1056
100
AcDbEntity
  8
A-Dimline-D
 62
     1
 48
4.0
370
    -2
100
AcDbBlockReference
  2
B-DIM
 10
-20913.20107115327
 20
-700.2415211339267
 30
0.0
 41
30.0
 42
30.0
 43
30.0
  0
MTEXT
  5
15C5
330
1056
100
AcDbEntity
  8
A-Dimline-D
 62
   140
 48
4.0
100
AcDbMText
 10
-20883.20107115327
 20
-620.2415211339266
 30
0.0
 40
80.0
 41
0.0
 71
     5
 72
     1
  1
\A1;60
  7
ROMANS
 73
     1
 44
1.0
1001
ACAD
1000
MTEXTBEGIN
1070
    73
1070
     1
1070
    44
1040
1.0
1070
    74
1070
     0
1000
MTEXTEND
  0
POINT
  5
15C6
330
1056
100
AcDbEntity
  8
DEFPOINTS
 62
     0
 48
4.0
100
AcDbPoint
 10
-20853.20107115327
 20
-700.2415211339267
 30
0.0
  0
POINT
  5
15C7
330
1056
100
AcDbEntity
  8
DEFPOINTS
 62
     0
 48
4.0
100
AcDbPoint
 10
-20913.20107115327
 20
-1210.642655129223
 30
0.0
  0
POINT
  5
15C8
330
1056
100
AcDbEntity
  8
DEFPOINTS
 62
     0
 48
4.0
100
AcDbPoint
 10
-20913.20107115327
 20
-700.2415211339267
 30
0.0
  0
ENDBLK
  5
105F
330
1056
100
AcDbEntity
  8
0
100
AcDbBlockEnd
  0
BLOCK
  5
1072
330
106A
100
AcDbEntity
  8
0
100
AcDbBlockBegin
  2
*D28
 70
     1
 10
0.0
 20
0.0
 30
0.0
  3
*D28
  1

  0
LINE
  5
15C9
330
106A
100
AcDbEntity
  8
A-Dimline-D
 62
     1
 48
4.0
370
    -2
100
AcDbLine
 10
-18489.20107115327
 20
-700.5076128674213
 30
0.0
 11
-18519.20107115327
 21
-700.5076128674213
 31
0.0
  0
LINE
  5
15CA
330
106A
100
AcDbEntity
  8
A-Dimline-D
 62
     1
 48
4.0
370
    -2
100
AcDbLine
 10
-18369.20107115327
 20
-700.5076128674213
 30
0.0
 11
-18339.20107115327
 21
-700.5076128674213
 31
0.0
  0
LINE
  5
15CB
330
106A
100
AcDbEntity
  8
A-Dimline-D
 62
     1
 48
4.0
370
    -2
100
AcDbLine
 10
-18459.20107115327
 20
-700.5076128674213
 30
0.0
 11
-18399.20107115327
 21
-700.5076128674213
 31
0.0
  0
INSERT
  5
15CC
330
106A
100
AcDbEntity
  8
A-Dimline-D
 62
     1
 48
4.0
370
    -2
100
AcDbBlockReference
  2
B-DIM
 10
-18459.20107115327
 20
-700.5076128674213
 30
0.0
 41
30.0
 42
30.0
 43
30.0
  0
INSERT
  5
15CD
330
106A
100
AcDbEntity
  8
A-Dimline-D
 62
     1
 48
4.0
370
    -2
100
AcDbBlockReference
  2
B-DIM
 10
-18399.20107115327
 20
-700.5076128674213
 30
0.0
 41
30.0
 42
30.0
 43
30.0
 50
180.0
  0
MTEXT
  5
15CE
330
106A
100
AcDbEntity
  8
A-Dimline-D
 62
   140
 48
4.0
100
AcDbMText
 10
-18429.20107115327
 20
-620.5076128674213
 30
0.0
 40
80.0
 41
0.0
 71
     5
 72
     1
  1
\A1;60
  7
ROMANS
 73
     1
 44
1.0
1001
ACAD
1000
MTEXTBEGIN
1070
    73
1070
     1
1070
    44
1040
1.0
1070
    74
1070
     0
1000
MTEXTEND
  0
POINT
  5
15CF
330
106A
100
AcDbEntity
  8
DEFPOINTS
 62
     0
 48
4.0
100
AcDbPoint
 10
-18459.20107115327
 20
-700.2415211339261
 30
0.0
  0
POINT
  5
15D0
330
106A
100
AcDbEntity
  8
DEFPOINTS
 62
     0
 48
4.0
100
AcDbPoint
 10
-18399.20107115327
 20
-1210.642655129223
 30
0.0
  0
POINT
  5
15D1
330
106A
100
AcDbEntity
  8
DEFPOINTS
 62
     0
 48
4.0
100
AcDbPoint
 10
-18399.20107115327
 20
-700.5076128674213
 30
0.0
  0
ENDBLK
  5
1073
330
106A
100
AcDbEntity
  8
0
100
AcDbBlockEnd
  0
BLOCK
  5
1091
330
1089
100
AcDbEntity
  8
0
100
AcDbBlockBegin
  2
*D29
 70
     1
 10
0.0
 20
0.0
 30
0.0
  3
*D29
  1

  0
LINE
  5
15D2
330
1089
100
AcDbEntity
  8
A-Dimline-D
 62
     1
 48
4.0
370
    -2
100
AcDbLine
 10
-19626.20107115327
 20
-503.2582772843845
 30
0.0
 11
-18429.20107115327
 21
-503.2582772843845
 31
0.0
  0
INSERT
  5
15D3
330
1089
100
AcDbEntity
  8
A-Dimline-D
 62
     1
 48
4.0
370
    -2
100
AcDbBlockReference
  2
B-DIM
 10
-19656.20107115327
 20
-503.2582772843845
 30
0.0
 41
30.0
 42
30.0
 43
30.0
 50
180.0
  0
INSERT
  5
15D4
330
1089
100
AcDbEntity
  8
A-Dimline-D
 62
     1
 48
4.0
370
    -2
100
AcDbBlockReference
  2
B-DIM
 10
-18399.20107115327
 20
-503.2582772843845
 30
0.0
 41
30.0
 42
30.0
 43
30.0
  0
MTEXT
  5
15D5
330
1089
100
AcDbEntity
  8
A-Dimline-D
 62
   140
 48
4.0
100
AcDbMText
 10
-19027.70107115327
 20
-423.2582772843845
 30
0.0
 40
80.0
 41
0.0
 71
     5
 72
     1
  1
\A1;1257
  7
ROMANS
 73
     1
 44
1.0
1001
ACAD
1000
MTEXTBEGIN
1070
    73
1070
     1
1070
    44
1040
1.0
1070
    74
1070
     0
1000
MTEXTEND
  0
POINT
  5
15D6
330
1089
100
AcDbEntity
  8
DEFPOINTS
 62
     0
 48
4.0
100
AcDbPoint
 10
-19656.20107115327
 20
-2080.605575161502
 30
0.0
  0
POINT
  5
15D7
330
1089
100
AcDbEntity
  8
DEFPOINTS
 62
     0
 48
4.0
100
AcDbPoint
 10
-18399.20107115327
 20
-2080.605575161501
 30
0.0
  0
POINT
  5
15D8
330
1089
100
AcDbEntity
  8
DEFPOINTS
 62
     0
 48
4.0
100
AcDbPoint
 10
-18399.20107115327
 20
-503.2582772843845
 30
0.0
  0
ENDBLK
  5
1092
330
1089
100
AcDbEntity
  8
0
100
AcDbBlockEnd
  0
BLOCK
  5
11D5
330
11CD
100
AcDbEntity
  8
0
100
AcDbBlockBegin
  2
*D30
 70
     1
 10
0.0
 20
0.0
 30
0.0
  3
*D30
  1

  0
LINE
  5
15D9
330
11CD
100
AcDbEntity
  8
A-Dimline-D
 62
     1
 48
4.0
370
    -2
100
AcDbLine
 10
-20883.20107115327
 20
-503.2582772843845
 30
0.0
 11
-19686.20107115327
 21
-503.2582772843845
 31
0.0
  0
INSERT
  5
15DA
330
11CD
100
AcDbEntity
  8
A-Dimline-D
 62
     1
 48
4.0
370
    -2
100
AcDbBlockReference
  2
B-DIM
 10
-20913.20107115327
 20
-503.2582772843845
 30
0.0
 41
30.0
 42
30.0
 43
30.0
 50
180.0
  0
INSERT
  5
15DB
330
11CD
100
AcDbEntity
  8
A-Dimline-D
 62
     1
 48
4.0
370
    -2
100
AcDbBlockReference
  2
B-DIM
 10
-19656.20107115327
 20
-503.2582772843845
 30
0.0
 41
30.0
 42
30.0
 43
30.0
  0
MTEXT
  5
15DC
330
11CD
100
AcDbEntity
  8
A-Dimline-D
 62
   140
 48
4.0
100
AcDbMText
 10
-20284.70107115327
 20
-423.2582772843845
 30
0.0
 40
80.0
 41
0.0
 71
     5
 72
     1
  1
\A1;1257
  7
ROMANS
 73
     1
 44
1.0
1001
ACAD
1000
MTEXTBEGIN
1070
    73
1070
     1
1070
    44
1040
1.0
1070
    74
1070
     0
1000
MTEXTEND
  0
POINT
  5
15DD
330
11CD
100
AcDbEntity
  8
DEFPOINTS
 62
     0
 48
4.0
100
AcDbPoint
 10
-20913.20107115327
 20
-1210.642655129223
 30
0.0
  0
POINT
  5
15DE
330
11CD
100
AcDbEntity
  8
DEFPOINTS
 62
     0
 48
4.0
100
AcDbPoint
 10
-19656.20107115327
 20
-1210.642655129223
 30
0.0
  0
POINT
  5
15DF
330
11CD
100
AcDbEntity
  8
DEFPOINTS
 62
     0
 48
4.0
100
AcDbPoint
 10
-19656.20107115327
 20
-503.2582772843845
 30
0.0
  0
ENDBLK
  5
11D6
330
11CD
100
AcDbEntity
  8
0
100
AcDbBlockEnd
  0
BLOCK
  5
11F0
330
11E8
100
AcDbEntity
  8
0
100
AcDbBlockBegin
  2
*D31
 70
     1
 10
0.0
 20
0.0
 30
0.0
  3
*D31
  1

  0
LINE
  5
15E0
330
11E8
100
AcDbEntity
  8
A-Dimline-D
 62
     1
 48
4.0
370
    -2
100
AcDbLine
 10
-20883.20107115327
 20
-321.3917776481908
 30
0.0
 11
-18429.20107115327
 21
-321.3917776481908
 31
0.0
  0
INSERT
  5
15E1
330
11E8
100
AcDbEntity
  8
A-Dimline-D
 62
     1
 48
4.0
370
    -2
100
AcDbBlockReference
  2
B-DIM
 10
-20913.20107115327
 20
-321.3917776481908
 30
0.0
 41
30.0
 42
30.0
 43
30.0
 50
180.0
  0
INSERT
  5
15E2
330
11E8
100
AcDbEntity
  8
A-Dimline-D
 62
     1
 48
4.0
370
    -2
100
AcDbBlockReference
  2
B-DIM
 10
-18399.20107115327
 20
-321.3917776481908
 30
0.0
 41
30.0
 42
30.0
 43
30.0
  0
MTEXT
  5
15E3
330
11E8
100
AcDbEntity
  8
A-Dimline-D
 62
   140
 48
4.0
100
AcDbMText
 10
-19656.20107115327
 20
-241.3917776481908
 30
0.0
 40
80.0
 41
0.0
 71
     5
 72
     1
  1
\A1;2514
  7
ROMANS
 73
     1
 44
1.0
1001
ACAD
1000
MTEXTBEGIN
1070
    73
1070
     1
1070
    44
1040
1.0
1070
    74
1070
     0
1000
MTEXTEND
  0
POINT
  5
15E4
330
11E8
100
AcDbEntity
  8
DEFPOINTS
 62
     0
 48
4.0
100
AcDbPoint
 10
-20913.20107115327
 20
-1210.642655129223
 30
0.0
  0
POINT
  5
15E5
330
11E8
100
AcDbEntity
  8
DEFPOINTS
 62
     0
 48
4.0
100
AcDbPoint
 10
-18399.20107115327
 20
-1210.642655130677
 30
0.0
  0
POINT
  5
15E6
330
11E8
100
AcDbEntity
  8
DEFPOINTS
 62
     0
 48
4.0
100
AcDbPoint
 10
-18399.20107115327
 20
-321.3917776481908
 30
0.0
  0
ENDBLK
  5
11F1
330
11E8
100
AcDbEntity
  8
0
100
AcDbBlockEnd
  0
ENDSEC
  0
SECTION
  2
ENTITIES
  0
LINE
  5
6D
330
2
100
AcDbEntity
  8
-widok
370
     5
100
AcDbLine
 10
-21153.09672206212
 20
-2050.845668644563
 30
0.0
 11
-20453.16275238449
 21
-2050.845668644563
 31
0.0
  0
LINE
  5
6F
330
2
100
AcDbEntity
  8
-widok
370
     5
100
AcDbLine
 10
-20857.91107115326
 20
-2085.845668644563
 30
0.0
 11
-20488.16275238449
 21
-2085.845668644563
 31
0.0
  0
LINE
  5
73
330
2
100
AcDbEntity
  8
-widok
370
     5
100
AcDbLine
 10
-21153.09672206212
 20
-1600.772614908285
 30
0.0
 11
-21153.09672206212
 21
-2050.845668644563
 31
0.0
  0
LINE
  5
74
330
2
100
AcDbEntity
  8
-widok
370
     5
100
AcDbLine
 10
-21183.20229487112
 20
-1588.346208037092
 30
0.0
 11
-21183.20229487112
 21
-2080.845668644563
 31
0.0
  0
LINE
  5
75
330
2
100
AcDbEntity
  8
-widok
370
     5
100
AcDbLine
 10
-21183.20229487112
 20
-2080.845668644563
 30
0.0
 11
-20857.91107115326
 21
-2080.845668644563
 31
0.0
  0
LINE
  5
79
330
2
100
AcDbEntity
  8
-widok
370
     5
100
AcDbLine
 10
-20853.20107115327
 20
-1950.845668644563
 30
0.0
 11
-20691.33648410509
 21
-1950.845668644563
 31
0.0
  0
LINE
  5
7E
330
2
100
AcDbEntity
  8
-widok
370
     5
100
AcDbLine
 10
-20853.20107115327
 20
-1860.981566356237
 30
0.0
 11
-20853.20107115327
 21
-1950.845668644563
 31
0.0
  0
LINE
  5
84
330
2
100
AcDbEntity
  8
-widok
370
     5
100
AcDbLine
 10
-20857.91107115326
 20
-2050.845668644563
 30
0.0
 11
-20857.91107115326
 21
-2085.845668644563
 31
0.0
  0
LINE
  5
8A
330
2
100
AcDbEntity
  8
-widok
370
     5
100
AcDbLine
 10
-20853.20107115327
 20
-1300.771391190457
 30
0.0
 11
-21153.09672206212
 21
-1600.772614908285
 31
0.0
  0
LINE
  5
8B
330
2
100
AcDbEntity
  8
-widok
370
     5
100
AcDbLine
 10
-20853.20107115328
 20
-1258.378921835546
 30
0.0
 11
-21183.20229487112
 21
-1588.346208037092
 31
0.0
  0
POINT
  5
8C
330
2
100
AcDbEntity
  8
-widok
370
     5
100
AcDbPoint
 10
-20913.20107115327
 20
-1440.691339712023
 30
0.0
  0
LINE
  5
92
330
2
100
AcDbEntity
  8
-widok
370
     5
100
AcDbLine
 10
-20853.20107115327
 20
-1297.825992182138
 30
0.0
 11
-20853.20107115327
 21
-1370.691339712006
 31
0.0
  0
LINE
  5
94
330
2
100
AcDbEntity
  8
-widok
370
     5
100
AcDbLine
 10
-20853.20107115327
 20
-1050.845668644563
 30
0.0
 11
-20853.20107115327
 21
-1207.825992182154
 31
0.0
  0
LINE
  5
99
330
2
100
AcDbEntity
  8
-widok
370
     5
100
AcDbLine
 10
-20662.20577532957
 20
-1050.845668644563
 30
0.0
 11
-20853.20107115327
 21
-1050.845668644563
 31
0.0
  0
LINE
  5
A1
330
2
100
AcDbEntity
  8
-widok
370
     5
100
AcDbLine
 10
-20898.4559051492
 20
-1415.946173707946
 30
0.0
 11
-20913.20107115327
 21
-1430.691339712006
 31
0.0
  0
LINE
  5
A3
330
2
100
AcDbEntity
  8
-widok
370
     5
100
AcDbLine
 10
-20853.20107115327
 20
-1370.691339712006
 30
0.0
 11
-20856.02949827801
 21
-1373.519766836751
 31
0.0
  0
LINE
  5
AD
330
2
100
AcDbEntity
  8
-widok
370
     5
100
AcDbLine
 10
-20913.20107115327
 20
-1430.691339712006
 30
0.0
 11
-20898.4559051492
 21
-1415.946173707945
 31
0.0
  0
LINE
  5
AE
330
2
100
AcDbEntity
  8
-widok
370
     5
100
AcDbLine
 10
-20853.20107115327
 20
-1370.691339712006
 30
0.0
 11
-20853.20107115327
 21
-1304.825992182138
 31
0.0
  0
LINE
  5
D3
330
2
100
AcDbEntity
  8
-widok
370
     5
100
AcDbLine
 10
-20913.20107115327
 20
-1545.845668644554
 30
0.0
 11
-20913.20107115327
 21
-1570.999997577119
 31
0.0
  0
LINE
  5
F0
330
2
100
AcDbEntity
  8
-widok
370
     5
100
AcDbLine
 10
-20913.20107115327
 20
-1430.691339712006
 30
0.0
 11
-20913.20107115327
 21
-1455.84566864457
 31
0.0
  0
LINE
  5
F1
330
2
100
AcDbEntity
  8
-widok
370
     5
100
AcDbLine
 10
-20913.20107115327
 20
-1570.999997577119
 30
0.0
 11
-20913.20107115326
 21
-1545.845668644554
 31
0.0
  0
LINE
  5
101
330
2
100
AcDbEntity
  8
-widok
370
     5
100
AcDbLine
 10
-20088.22608958124
 20
-1950.845668644563
 30
0.0
 11
-19943.20107115327
 21
-1950.845668644563
 31
0.0
  0
LINE
  5
10A
330
2
100
AcDbEntity
  8
-widok
370
     5
100
AcDbLine
 10
-20453.16275238449
 20
-2120.845668644563
 30
0.0
 11
-20213.16275238449
 21
-2120.845668644563
 31
0.0
  0
LINE
  5
113
330
2
100
AcDbEntity
  8
-widok
370
     5
100
AcDbLine
 10
-20511.33648410508
 20
-1950.845668644563
 30
0.0
 11
-20388.16275238449
 21
-1950.845668644563
 31
0.0
  0
LINE
  5
114
330
2
100
AcDbEntity
  8
-widok
370
     5
100
AcDbLine
 10
-20388.16275238449
 20
-1950.845668644563
 30
0.0
 11
-20388.16275238449
 21
-1911.845668644563
 31
0.0
  0
LINE
  5
11A
330
2
100
AcDbEntity
  8
-widok
370
     5
100
AcDbLine
 10
-20278.16275238449
 20
-1911.845668644563
 30
0.0
 11
-20278.16275238449
 21
-1950.845668644563
 31
0.0
  0
LINE
  5
11B
330
2
100
AcDbEntity
  8
-widok
370
     5
100
AcDbLine
 10
-20278.16275238449
 20
-1950.845668644563
 30
0.0
 11
-20178.22608958125
 21
-1950.845668644563
 31
0.0
  0
LINE
  5
126
330
2
100
AcDbEntity
  8
-widok
370
     5
100
AcDbLine
 10
-20213.16275238449
 20
-1950.845668644563
 30
0.0
 11
-20213.16275238449
 21
-2120.845668644563
 31
0.0
  0
LINE
  5
127
330
2
100
AcDbEntity
  8
-widok
370
     5
100
AcDbLine
 10
-20178.16275238449
 20
-2120.845668644563
 30
0.0
 11
-20178.16275238449
 21
-1950.845668644563
 31
0.0
  0
LINE
  5
128
330
2
100
AcDbEntity
  8
-widok
370
     5
100
AcDbLine
 10
-20453.16275238449
 20
-2090.845668644563
 30
0.0
 11
-20213.16275238449
 21
-2090.845668644563
 31
0.0
  0
LINE
  5
129
330
2
100
AcDbEntity
  8
-widok
370
     5
100
AcDbLine
 10
-20453.16275238449
 20
-2050.845668644563
 30
0.0
 11
-20453.16275238449
 21
-2120.845668644563
 31
0.0
  0
LINE
  5
12A
330
2
100
AcDbEntity
  8
-widok
370
     5
100
AcDbLine
 10
-20488.16275238449
 20
-2085.845668644563
 30
0.0
 11
-20488.16275238449
 21
-2120.845668644563
 31
0.0
  0
POINT
  5
13A
330
2
100
AcDbEntity
  8
-widok
370
     5
100
AcDbPoint
 10
-20003.20107115327
 20
-1950.845668644563
 30
0.0
  0
LINE
  5
13F
330
2
100
AcDbEntity
  8
-widok
370
     5
100
AcDbLine
 10
-19703.20107115327
 20
-1911.845668644563
 30
0.0
 11
-19703.20107115327
 21
-1950.845668644563
 31
0.0
  0
LINE
  5
140
330
2
100
AcDbEntity
  8
-widok
370
     5
100
AcDbLine
 10
-19703.20107115327
 20
-1950.845668644563
 30
0.0
 11
-19657.15043053017
 21
-1950.845668644563
 31
0.0
  0
LINE
  5
141
330
2
100
AcDbEntity
  8
-widok
370
     5
100
AcDbLine
 10
-19657.15043053017
 20
-1950.845668644563
 30
0.0
 11
-19657.15043053017
 21
-1911.845668644563
 31
0.0
  0
LINE
  5
143
330
2
100
AcDbEntity
  8
-widok
370
     5
100
AcDbLine
 10
-19943.20107115327
 20
-1950.845668644563
 30
0.0
 11
-19943.20107115327
 21
-1911.845668644563
 31
0.0
  0
LINE
  5
144
330
2
100
AcDbEntity
  8
-widok
370
     5
100
AcDbLine
 10
-19988.20107115327
 20
-2049.845668644556
 30
0.0
 11
-19658.20107115327
 21
-2049.845668644556
 31
0.0
  0
LINE
  5
145
330
2
100
AcDbEntity
  8
-widok
370
     5
100
AcDbLine
 10
-19988.20107115327
 20
-1950.845668644563
 30
0.0
 11
-19988.20107115327
 21
-2049.845668644556
 31
0.0
  0
LINE
  5
14B
330
2
100
AcDbEntity
  8
-widok
370
     5
100
AcDbLine
 10
-20003.20107115327
 20
-1050.845668644563
 30
0.0
 11
-20194.19636697697
 21
-1050.845668644563
 31
0.0
  0
LINE
  5
158
330
2
100
AcDbEntity
  8
-widok
370
     5
100
AcDbLine
 10
-20314.19636697697
 20
-1050.845668644563
 30
0.0
 11
-20542.20577532957
 21
-1050.845668644563
 31
0.0
  0
LINE
  5
18B
330
2
100
AcDbEntity
  8
-widok
370
     5
100
AcDbLine
 10
-19873.20107335527
 20
-1232.845668644556
 30
0.0
 11
-20003.20107115327
 21
-1232.845668644556
 31
0.0
  0
LINE
  5
18D
330
2
100
AcDbEntity
  8
-widok
370
     5
100
AcDbLine
 10
-19657.12564743209
 20
-1232.845668644556
 30
0.0
 11
-19773.20107335527
 21
-1232.845668644556
 31
0.0
  0
LINE
  5
190
330
2
100
AcDbEntity
  8
-widok
370
     5
100
AcDbLine
 10
-20003.20107115327
 20
-1232.845668644556
 30
0.0
 11
-20003.20107115327
 21
-1050.845668644563
 31
0.0
  0
LINE
  5
191
330
2
100
AcDbEntity
  8
-widok
370
     5
100
AcDbLine
 10
-19903.20107115327
 20
-1152.845668644555
 30
0.0
 11
-19903.20107115327
 21
-1232.845668644556
 31
0.0
  0
LINE
  5
192
330
2
100
AcDbEntity
  8
-widok
370
     5
100
AcDbLine
 10
-19743.20107115327
 20
-1152.845668644555
 30
0.0
 11
-19903.20107115327
 21
-1152.845668644555
 31
0.0
  0
LINE
  5
193
330
2
100
AcDbEntity
  8
-widok
370
     5
100
AcDbLine
 10
-19743.20107115327
 20
-1232.845668644556
 30
0.0
 11
-19743.20107115327
 21
-1152.845668644555
 31
0.0
  0
LINE
  5
249
330
2
100
AcDbEntity
  8
-widok
370
     5
100
AcDbLine
 10
-20913.20107115326
 20
-1455.84566864457
 30
0.0
 11
-20913.20107115327
 21
-1430.691339712006
 31
0.0
  0
LINE
  5
24A
330
2
100
AcDbEntity
  8
-widok
370
     5
100
AcDbLine
 10
-20856.02949827801
 20
-1373.519766836751
 30
0.0
 11
-20853.20107115327
 21
-1370.691339712006
 31
0.0
  0
LINE
  5
265
330
2
100
AcDbEntity
  8
-widok
370
     5
100
AcDbLine
 10
-20913.20107115327
 20
-1455.84566864457
 30
0.0
 11
-20913.20107115326
 21
-1546.917277351377
 31
0.0
  0
LINE
  5
269
330
2
100
AcDbEntity
  8
-widok
370
     5
100
AcDbLine
 10
-20691.33648410509
 20
-1950.845668644563
 30
0.0
 11
-20511.33648410508
 21
-1950.845668644563
 31
0.0
  0
LINE
  5
26A
330
2
100
AcDbEntity
  8
-widok
370
     5
100
AcDbLine
 10
-20853.20107115327
 20
-1207.825992182154
 30
0.0
 11
-20853.20107115327
 21
-1297.825992182138
 31
0.0
  0
LINE
  5
26C
330
2
100
AcDbEntity
  8
-widok
370
     5
100
AcDbLine
 10
-20662.20577532957
 20
-1050.845668644563
 30
0.0
 11
-20542.20577532957
 21
-1050.845668644563
 31
0.0
  0
LINE
  5
26E
330
2
100
AcDbEntity
  8
-widok
370
     5
100
AcDbLine
 10
-20314.19636697697
 20
-1050.845668644563
 30
0.0
 11
-20194.19636697698
 21
-1050.845668644562
 31
0.0
  0
LINE
  5
270
330
2
100
AcDbEntity
  8
-widok
370
     5
100
AcDbLine
 10
-20178.22608958125
 20
-1950.845668644563
 30
0.0
 11
-20088.22608958124
 21
-1950.845668644563
 31
0.0
  0
LINE
  5
273
330
2
100
AcDbEntity
  8
-widok
370
     5
100
AcDbLine
 10
-20488.16275238449
 20
-2120.845668644563
 30
0.0
 11
-20453.16275238448
 21
-2120.845668644563
 31
0.0
  0
LINE
  5
274
330
2
100
AcDbEntity
  8
-widok
370
     5
100
AcDbLine
 10
-20213.16275238449
 20
-2120.845668644563
 30
0.0
 11
-20178.1627523845
 21
-2120.845668644563
 31
0.0
  0
LINE
  5
288
330
2
100
AcDbEntity
  8
-widok
370
     5
100
AcDbLine
 10
-19099.23938992205
 20
-2120.845668644563
 30
0.0
 11
-19134.23938992205
 21
-2120.845668644563
 31
0.0
  0
LINE
  5
289
330
2
100
AcDbEntity
  8
-widok
370
     5
100
AcDbLine
 10
-18824.23938992205
 20
-2120.845668644563
 30
0.0
 11
-18859.23938992206
 21
-2120.845668644563
 31
0.0
  0
LINE
  5
28C
330
2
100
AcDbEntity
  8
-widok
370
     5
100
AcDbLine
 10
-19134.1760527253
 20
-1950.845668644563
 30
0.0
 11
-19224.1760527253
 21
-1950.845668644563
 31
0.0
  0
LINE
  5
28E
330
2
100
AcDbEntity
  8
-widok
370
     5
100
AcDbLine
 10
-18998.20577532957
 20
-1050.845668644563
 30
0.0
 11
-19118.20577532957
 21
-1050.845668644562
 31
0.0
  0
LINE
  5
290
330
2
100
AcDbEntity
  8
-widok
370
     5
100
AcDbLine
 10
-18650.19636697697
 20
-1050.845668644563
 30
0.0
 11
-18770.19636697697
 21
-1050.845668644563
 31
0.0
  0
LINE
  5
292
330
2
100
AcDbEntity
  8
-widok
370
     5
100
AcDbLine
 10
-18459.20107115327
 20
-1207.825992182154
 30
0.0
 11
-18459.20107115327
 21
-1297.825992182138
 31
0.0
  0
LINE
  5
293
330
2
100
AcDbEntity
  8
-widok
370
     5
100
AcDbLine
 10
-18621.06565820145
 20
-1950.845668644563
 30
0.0
 11
-18801.06565820145
 21
-1950.845668644563
 31
0.0
  0
LINE
  5
298
330
2
100
AcDbEntity
  8
-widok
370
     5
100
AcDbLine
 10
-18413.9838382987
 20
-1585.782764722537
 30
0.0
 11
-18456.4102451699
 21
-1628.20917159373
 31
0.0
  0
LINE
  5
2B1
330
2
100
AcDbEntity
  8
-widok
370
     5
100
AcDbLine
 10
-18456.37264402853
 20
-1373.519766836751
 30
0.0
 11
-18459.20107115327
 21
-1370.691339712006
 31
0.0
  0
LINE
  5
2B2
330
2
100
AcDbEntity
  8
-widok
370
     5
100
AcDbLine
 10
-18399.20107115328
 20
-1455.84566864457
 30
0.0
 11
-18399.20107115327
 21
-1430.691339712006
 31
0.0
  0
LINE
  5
2B3
330
2
100
AcDbEntity
  8
-widok
370
     5
100
AcDbLine
 10
-18413.9838382987
 20
-1585.782764722537
 30
0.0
 11
-18399.20107115327
 21
-1570.999997577119
 31
0.0
  0
LINE
  5
2B7
330
2
100
AcDbEntity
  8
-widok
370
     5
100
AcDbLine
 10
-19569.20107115327
 20
-1232.845668644556
 30
0.0
 11
-19569.20107115327
 21
-1152.845668644555
 31
0.0
  0
LINE
  5
2B8
330
2
100
AcDbEntity
  8
-widok
370
     5
100
AcDbLine
 10
-19569.20107115327
 20
-1152.845668644555
 30
0.0
 11
-19409.20107115327
 21
-1152.845668644555
 31
0.0
  0
LINE
  5
2B9
330
2
100
AcDbEntity
  8
-widok
370
     5
100
AcDbLine
 10
-19409.20107115327
 20
-1152.845668644555
 30
0.0
 11
-19409.20107115327
 21
-1232.845668644556
 31
0.0
  0
LINE
  5
2BA
330
2
100
AcDbEntity
  8
-widok
370
     5
100
AcDbLine
 10
-19309.20107115327
 20
-1232.845668644556
 30
0.0
 11
-19309.20107115327
 21
-1050.845668644563
 31
0.0
  0
LINE
  5
2BD
330
2
100
AcDbEntity
  8
-widok
370
     5
100
AcDbLine
 10
-19655.27649487445
 20
-1232.845668644556
 30
0.0
 11
-19539.20106895127
 21
-1232.845668644556
 31
0.0
  0
LINE
  5
2BF
330
2
100
AcDbEntity
  8
-widok
370
     5
100
AcDbLine
 10
-19439.20106895127
 20
-1232.845668644556
 30
0.0
 11
-19309.20107115327
 21
-1232.845668644556
 31
0.0
  0
LINE
  5
2F2
330
2
100
AcDbEntity
  8
-widok
370
     5
100
AcDbLine
 10
-18998.20577532957
 20
-1050.845668644563
 30
0.0
 11
-18770.19636697697
 21
-1050.845668644563
 31
0.0
  0
LINE
  5
2FF
330
2
100
AcDbEntity
  8
-widok
370
     5
100
AcDbLine
 10
-19309.20107115327
 20
-1050.845668644563
 30
0.0
 11
-19118.20577532957
 21
-1050.845668644563
 31
0.0
  0
LINE
  5
305
330
2
100
AcDbEntity
  8
-widok
370
     5
100
AcDbLine
 10
-19324.20107115327
 20
-1950.845668644563
 30
0.0
 11
-19324.20107115327
 21
-2049.845668644556
 31
0.0
  0
LINE
  5
306
330
2
100
AcDbEntity
  8
-widok
370
     5
100
AcDbLine
 10
-19324.20107115327
 20
-2049.845668644556
 30
0.0
 11
-19654.20107115327
 21
-2049.845668644556
 31
0.0
  0
LINE
  5
307
330
2
100
AcDbEntity
  8
-widok
370
     5
100
AcDbLine
 10
-19369.20107115327
 20
-1950.845668644563
 30
0.0
 11
-19369.20107115327
 21
-1911.845668644563
 31
0.0
  0
LINE
  5
309
330
2
100
AcDbEntity
  8
-widok
370
     5
100
AcDbLine
 10
-19655.25171177637
 20
-1950.845668644563
 30
0.0
 11
-19655.25171177637
 21
-1911.845668644563
 31
0.0
  0
LINE
  5
30A
330
2
100
AcDbEntity
  8
-widok
370
     5
100
AcDbLine
 10
-19609.20107115327
 20
-1950.845668644563
 30
0.0
 11
-19655.25171177637
 21
-1950.845668644563
 31
0.0
  0
LINE
  5
30B
330
2
100
AcDbEntity
  8
-widok
370
     5
100
AcDbLine
 10
-19609.20107115327
 20
-1911.845668644563
 30
0.0
 11
-19609.20107115327
 21
-1950.845668644563
 31
0.0
  0
POINT
  5
310
330
2
100
AcDbEntity
  8
-widok
370
     5
100
AcDbPoint
 10
-19309.20107115327
 20
-1950.845668644563
 30
0.0
  0
LINE
  5
320
330
2
100
AcDbEntity
  8
-widok
370
     5
100
AcDbLine
 10
-18824.23938992205
 20
-2085.845668644563
 30
0.0
 11
-18824.23938992205
 21
-2120.845668644563
 31
0.0
  0
LINE
  5
321
330
2
100
AcDbEntity
  8
-widok
370
     5
100
AcDbLine
 10
-18859.23938992205
 20
-2050.845668644563
 30
0.0
 11
-18859.23938992205
 21
-2120.845668644563
 31
0.0
  0
LINE
  5
322
330
2
100
AcDbEntity
  8
-widok
370
     5
100
AcDbLine
 10
-18859.23938992205
 20
-2090.845668644563
 30
0.0
 11
-19099.23938992205
 21
-2090.845668644563
 31
0.0
  0
LINE
  5
323
330
2
100
AcDbEntity
  8
-widok
370
     5
100
AcDbLine
 10
-19134.23938992205
 20
-2120.845668644563
 30
0.0
 11
-19134.23938992205
 21
-1950.845668644563
 31
0.0
  0
LINE
  5
324
330
2
100
AcDbEntity
  8
-widok
370
     5
100
AcDbLine
 10
-19099.23938992205
 20
-1950.845668644563
 30
0.0
 11
-19099.23938992205
 21
-2120.845668644563
 31
0.0
  0
LINE
  5
32F
330
2
100
AcDbEntity
  8
-widok
370
     5
100
AcDbLine
 10
-19034.23938992205
 20
-1950.845668644563
 30
0.0
 11
-19134.1760527253
 21
-1950.845668644563
 31
0.0
  0
LINE
  5
330
330
2
100
AcDbEntity
  8
-widok
370
     5
100
AcDbLine
 10
-19034.23938992205
 20
-1911.845668644563
 30
0.0
 11
-19034.23938992205
 21
-1950.845668644563
 31
0.0
  0
LINE
  5
336
330
2
100
AcDbEntity
  8
-widok
370
     5
100
AcDbLine
 10
-18924.23938992205
 20
-1950.845668644563
 30
0.0
 11
-18924.23938992205
 21
-1911.845668644563
 31
0.0
  0
LINE
  5
337
330
2
100
AcDbEntity
  8
-widok
370
     5
100
AcDbLine
 10
-18801.06565820145
 20
-1950.845668644563
 30
0.0
 11
-18924.23938992205
 21
-1950.845668644563
 31
0.0
  0
LINE
  5
340
330
2
100
AcDbEntity
  8
-widok
370
     5
100
AcDbLine
 10
-18859.23938992205
 20
-2120.845668644563
 30
0.0
 11
-19099.23938992205
 21
-2120.845668644563
 31
0.0
  0
LINE
  5
348
330
2
100
AcDbEntity
  8
-widok
370
     5
100
AcDbLine
 10
-19224.1760527253
 20
-1950.845668644563
 30
0.0
 11
-19369.20107115327
 21
-1950.845668644563
 31
0.0
  0
LINE
  5
357
330
2
100
AcDbEntity
  8
-widok
370
     5
100
AcDbLine
 10
-18399.20107115327
 20
-1570.999997577119
 30
0.0
 11
-18399.20107115328
 21
-1545.845668644553
 31
0.0
  0
LINE
  5
358
330
2
100
AcDbEntity
  8
-widok
370
     5
100
AcDbLine
 10
-18399.20107115327
 20
-1430.691339712006
 30
0.0
 11
-18399.20107115327
 21
-1455.84566864457
 31
0.0
  0
LINE
  5
367
330
2
100
AcDbEntity
  8
-widok
370
     5
100
AcDbLine
 10
-18459.20107115327
 20
-1630.999997577114
 30
0.0
 11
-18456.41024516989
 21
-1628.209171593729
 31
0.0
  0
LINE
  5
36B
330
2
100
AcDbEntity
  8
-widok
370
     5
100
AcDbLine
 10
-18399.20107115327
 20
-1545.845668644553
 30
0.0
 11
-18399.20107115327
 21
-1570.999997577119
 31
0.0
  0
LINE
  5
370
330
2
100
AcDbEntity
  8
-widok
370
     5
100
AcDbLine
 10
-18399.20107115327
 20
-1570.999997577119
 30
0.0
 11
-18413.9838382987
 21
-1585.782764722537
 31
0.0
  0
LINE
  5
372
330
2
100
AcDbEntity
  8
-widok
370
     5
100
AcDbLine
 10
-18456.41024516989
 20
-1628.20917159373
 30
0.0
 11
-18459.20107115327
 21
-1630.999997577117
 31
0.0
  0
LINE
  5
38F
330
2
100
AcDbEntity
  8
-widok
370
     5
100
AcDbLine
 10
-18459.20107115327
 20
-1370.691339712006
 30
0.0
 11
-18459.20107115327
 21
-1304.825992182138
 31
0.0
  0
LINE
  5
399
330
2
100
AcDbEntity
  8
-widok
370
     5
100
AcDbLine
 10
-18459.20107115327
 20
-1370.691339712006
 30
0.0
 11
-18456.37264402853
 21
-1373.519766836751
 31
0.0
  0
LINE
  5
3A2
330
2
100
AcDbEntity
  8
-widok
370
     5
100
AcDbLine
 10
-18650.19636697697
 20
-1050.845668644563
 30
0.0
 11
-18459.20107115327
 21
-1050.845668644563
 31
0.0
  0
LINE
  5
3A7
330
2
100
AcDbEntity
  8
-widok
370
     5
100
AcDbLine
 10
-18459.20107115327
 20
-1050.845668644563
 30
0.0
 11
-18459.20107115327
 21
-1207.825992182154
 31
0.0
  0
LINE
  5
3A9
330
2
100
AcDbEntity
  8
-widok
370
     5
100
AcDbLine
 10
-18459.20107115327
 20
-1297.825992182138
 30
0.0
 11
-18459.20107115327
 21
-1370.691339712006
 31
0.0
  0
POINT
  5
3AF
330
2
100
AcDbEntity
  8
-widok
370
     5
100
AcDbPoint
 10
-18399.20107115327
 20
-1440.691339712022
 30
0.0
  0
LINE
  5
3B0
330
2
100
AcDbEntity
  8
-widok
370
     5
100
AcDbLine
 10
-18459.20107115326
 20
-1258.378921835546
 30
0.0
 11
-18129.19984743542
 21
-1588.346208037092
 31
0.0
  0
LINE
  5
3B1
330
2
100
AcDbEntity
  8
-widok
370
     5
100
AcDbLine
 10
-18459.20107115327
 20
-1300.771391190457
 30
0.0
 11
-18159.30542024442
 21
-1600.772614908285
 31
0.0
  0
LINE
  5
3B7
330
2
100
AcDbEntity
  8
-widok
370
     5
100
AcDbLine
 10
-18454.49107115328
 20
-2050.845668644563
 30
0.0
 11
-18454.49107115328
 21
-2085.845668644563
 31
0.0
  0
LINE
  5
3BD
330
2
100
AcDbEntity
  8
-widok
370
     5
100
AcDbLine
 10
-18459.20107115327
 20
-1860.981566356237
 30
0.0
 11
-18459.20107115327
 21
-1950.845668644563
 31
0.0
  0
LINE
  5
3C2
330
2
100
AcDbEntity
  8
-widok
370
     5
100
AcDbLine
 10
-18459.20107115327
 20
-1950.845668644563
 30
0.0
 11
-18621.06565820145
 21
-1950.845668644563
 31
0.0
  0
LINE
  5
3C6
330
2
100
AcDbEntity
  8
-widok
370
     5
100
AcDbLine
 10
-18129.19984743542
 20
-2080.845668644563
 30
0.0
 11
-18454.49107115328
 21
-2080.845668644563
 31
0.0
  0
LINE
  5
3C7
330
2
100
AcDbEntity
  8
-widok
370
     5
100
AcDbLine
 10
-18129.19984743542
 20
-1588.346208037092
 30
0.0
 11
-18129.19984743542
 21
-2080.845668644563
 31
0.0
  0
LINE
  5
3C8
330
2
100
AcDbEntity
  8
-widok
370
     5
100
AcDbLine
 10
-18159.30542024442
 20
-1600.772614908285
 30
0.0
 11
-18159.30542024442
 21
-2050.845668644563
 31
0.0
  0
LINE
  5
3C9
330
2
100
AcDbEntity
  8
-widok
370
     5
100
AcDbLine
 10
-18459.20107115327
 20
-1630.999997577117
 30
0.0
 11
-18459.20107115327
 21
-1700.981566356237
 31
0.0
  0
LINE
  5
3CC
330
2
100
AcDbEntity
  8
-widok
370
     5
100
AcDbLine
 10
-18454.49107115328
 20
-2085.845668644563
 30
0.0
 11
-18824.23938992205
 21
-2085.845668644563
 31
0.0
  0
LINE
  5
3CE
330
2
100
AcDbEntity
  8
-widok
370
     5
100
AcDbLine
 10
-18159.30542024442
 20
-2050.845668644563
 30
0.0
 11
-18859.23938992205
 21
-2050.845668644563
 31
0.0
  0
LINE
  5
461
330
2
100
AcDbEntity
  8
-widok
370
     5
100
AcDbLine
 10
-18399.20107115326
 20
-1455.845668644552
 30
0.0
 11
-18399.20107115327
 21
-1546.917277351359
 31
0.0
  0
TEXT
  5
883
330
2
100
AcDbEntity
  8
NAPISY
100
AcDbText
 10
-23407.538314756
 20
-9153.066807293264
 30
0.0
 40
100.0
  1
   O B R Y S   B U D Y N K U           S K A L A   1 : 5 0 0 
  7
AVA
100
AcDbText
  0
LINE
  5
884
330
2
100
AcDbEntity
  8
NAPISY
  6
HIDDEN
 62
     1
100
AcDbLine
 10
-19656.20107115327
 20
-3805.475837646885
 30
0.0
 11
-19656.20107115327
 21
2497.427117035019
 31
0.0
  0
TEXT
  5
887
330
2
100
AcDbEntity
  8
NAPISY
100
AcDbText
 10
-23311.3252636381
 20
3310.298453588607
 30
0.0
 40
150.0
  1
MOŻNA WKLEIĆ DO PROJEKTU ZAGOSPODAROWANIA TERENU
  7
AVA
100
AcDbText
  0
TEXT
  5
888
330
2
100
AcDbEntity
  8
NAPISY
100
AcDbText
 10
-23387.66053427324
 20
3640.166930951367
 30
0.0
 40
150.0
  1
"DOM W RODODENDRONACH 3 (GB)"
  7
AVA
100
AcDbText
  0
LWPOLYLINE
  5
889
330
2
100
AcDbEntity
  8
RAMKI-A4
100
AcDbPolyline
 90
        4
 70
     1
 43
0.0
 10
-24866.89026143098
 20
-9818.622890195799
 10
-24866.89026143098
 20
4201.377109804205
 10
-14666.89026143095
 20
4201.377109804205
 10
-14666.89026143095
 20
-9818.622890195799
  0
LWPOLYLINE
  5
B13
330
2
100
AcDbEntity
  8
0Wymiary-PL
100
AcDbPolyline
 90
       16
 70
     1
 43
0.0
 10
-20913.20107115327
 20
-1570.999997577119
 10
-20913.20107115327
 20
-1430.691339712006
 10
-20853.20107115327
 20
-1370.691339712006
 10
-20853.20107115327
 20
-1050.845668644563
 10
-20003.20107115327
 20
-1050.845668644563
 10
-20003.20107115327
 20
-1232.845668644556
 10
-19309.20107115327
 20
-1232.845668644556
 10
-19309.20107115327
 20
-1050.845668644563
 10
-18459.20107115327
 20
-1050.845668644563
 10
-18459.20107115327
 20
-1370.691339712006
 10
-18399.20107115327
 20
-1430.691339712006
 10
-18399.20107115327
 20
-1570.999997577119
 10
-18459.20107115327
 20
-1630.999997577117
 10
-18459.20107115327
 20
-1950.845668644563
 10
-20853.20107115327
 20
-1950.845668644563
 10
-20853.20107115327
 20
-1630.999997577114
  0
LINE
  5
B14
330
2
100
AcDbEntity
  8
0Wymiary-PL
100
AcDbLine
 10
-20388.16275238449
 20
-1950.845668644563
 30
0.0
 11
-20388.16275238449
 21
-1890.845668644563
 31
0.0
  0
LINE
  5
B15
330
2
100
AcDbEntity
  8
0Wymiary-PL
100
AcDbLine
 10
-20278.16275238449
 20
-1950.845668644563
 30
0.0
 11
-20278.16275238449
 21
-1890.845668644563
 31
0.0
  0
LINE
  5
B16
330
2
100
AcDbEntity
  8
0Wymiary-PL
100
AcDbLine
 10
-19943.20107115327
 20
-1950.845668644563
 30
0.0
 11
-19943.20107115327
 21
-1890.845668644563
 31
0.0
  0
LINE
  5
B17
330
2
100
AcDbEntity
  8
0Wymiary-PL
100
AcDbLine
 10
-19703.20107115327
 20
-1950.845668644563
 30
0.0
 11
-19703.20107115327
 21
-1890.845668644563
 31
0.0
  0
LINE
  5
B18
330
2
100
AcDbEntity
  8
0Wymiary-PL
100
AcDbLine
 10
-19609.20107115327
 20
-1950.845668644563
 30
0.0
 11
-19609.20107115327
 21
-1890.845668644563
 31
0.0
  0
LINE
  5
B19
330
2
100
AcDbEntity
  8
0Wymiary-PL
100
AcDbLine
 10
-19369.20107115327
 20
-1950.845668644563
 30
0.0
 11
-19369.20107115327
 21
-1890.845668644563
 31
0.0
  0
LINE
  5
B1A
330
2
100
AcDbEntity
  8
0Wymiary-PL
100
AcDbLine
 10
-19034.23938992205
 20
-1950.845668644563
 30
0.0
 11
-19034.23938992205
 21
-1890.845668644563
 31
0.0
  0
LINE
  5
B1B
330
2
100
AcDbEntity
  8
0Wymiary-PL
100
AcDbLine
 10
-18924.23938992205
 20
-1950.845668644563
 30
0.0
 11
-18924.23938992205
 21
-1890.845668644563
 31
0.0
  0
LINE
  5
B1C
330
2
100
AcDbEntity
  8
0Wymiary-PL
100
AcDbLine
 10
-19655.20107115327
 20
-1232.845668644556
 30
0.0
 11
-19655.25171177637
 21
-1950.845668644563
 31
0.0
  0
LINE
  5
B1D
330
2
100
AcDbEntity
  8
0Wymiary-PL
100
AcDbLine
 10
-19657.15043053017
 20
-1950.845668644563
 30
0.0
 11
-19657.15043053017
 21
-1232.845668644556
 31
0.0
  0
LWPOLYLINE
  5
B1E
330
2
100
AcDbEntity
  8
0Wymiary-PL
100
AcDbPolyline
 90
       16
 70
     1
 43
0.0
 10
-20853.20107115327
 20
-1546.147183834732
 10
-20853.20107115327
 20
-1455.544153454392
 10
-20793.20107115327
 20
-1395.544153454392
 10
-20793.20107115327
 20
-1110.845668644563
 10
-20063.20107115327
 20
-1110.845668644563
 10
-20063.20107115327
 20
-1292.845668644555
 10
-19249.20107115327
 20
-1292.845668644555
 10
-19249.20107115327
 20
-1110.845668644563
 10
-18519.20107115327
 20
-1110.845668644563
 10
-18519.20107115327
 20
-1395.544153454392
 10
-18459.20107115327
 20
-1455.544153454392
 10
-18459.20107115327
 20
-1546.147183834732
 10
-18519.20107115327
 20
-1606.147183834731
 10
-18519.20107115327
 20
-1890.845668644563
 10
-20793.20107115327
 20
-1890.845668644563
 10
-20793.20107115327
 20
-1606.147183834726
  0
LINE
  5
BCC
330
2
100
AcDbEntity
  8
0Wymiary-PL
100
AcDbLine
 10
-19687.15043053017
 20
-1890.845668644563
 30
0.0
 11
-19687.15043053017
 21
-1292.845668644555
 31
0.0
  0
LINE
  5
BCD
330
2
100
AcDbEntity
  8
0Wymiary-PL
100
AcDbLine
 10
-19627.15043053017
 20
-1890.845668644563
 30
0.0
 11
-19627.15043053017
 21
-1292.845668644555
 31
0.0
  0
LWPOLYLINE
  5
C7A
330
2
100
AcDbEntity
  8
0Hatch
100
AcDbPolyline
 90
        5
 70
     0
 43
0.0
 10
-19034.23938992205
 20
-1950.845668644563
 10
-19034.23938992205
 20
-1890.845668644563
 10
-18924.23938992205
 20
-1890.845668644563
 10
-18924.23938992205
 20
-1950.845668644563
 10
-19034.23938992205
 20
-1950.845668644563
  0
HATCH
  5
CDF
330
2
100
AcDbEntity
  8
0Hatch
100
AcDbHatch
 10
0.0
 20
0.0
 30
0.0
210
0.0
220
0.0
230
1.0
  2
ANSI31
 70
     0
 71
     0
 91
        4
 92
        7
 72
     0
 73
     1
 93
        4
 10
-19657.15043053016
 20
-1292.845668644555
 10
-19687.15043053017
 20
-1292.845668644555
 10
-19687.15043053017
 20
-1890.845668644563
 10
-19657.15043053017
 20
-1890.845668644563
 97
        0
 92
        7
 72
     0
 73
     1
 93
        4
 10
-19627.15043053017
 20
-1292.845668644555
 10
-19655.20530296021
 20
-1292.845668644555
 10
-19655.24747996942
 20
-1890.845668644563
 10
-19627.15043053017
 20
-1890.845668644563
 97
        0
 92
        7
 72
     0
 73
     1
 93
        4
 10
-19609.20107115327
 20
-1890.845668644563
 10
-19655.24747996943
 20
-1890.845668644563
 10
-19655.25171177637
 20
-1950.845668644563
 10
-19609.20107115327
 20
-1950.845668644563
 97
        0
 92
        7
 72
     0
 73
     1
 93
        4
 10
-19657.15043053018
 20
-1890.845668644563
 10
-19703.20107115327
 20
-1890.845668644563
 10
-19703.20107115327
 20
-1950.845668644563
 10
-19657.15043053017
 20
-1950.845668644563
 97
        0
 75
     0
 76
     1
 52
0.0
 41
1.0
 77
     0
 78
     1
 53
45.0
 43
7397.17646992499
 44
-1781.348018257855
 45
-0.0883883476483184
 46
0.0883883476483185
 79
     0
 47
1.131557858997123
 98
        4
 10
-19679.8968950956
 20
-1553.175058098448
 10
-19638.00526601726
 20
-1539.59638291409
 10
-19638.00526601726
 20
-1908.484277631137
 10
-19691.21898551024
 20
-1922.062952815495
1001
ACAD
1010
0.0
1020
0.0
1030
0.0
  0
HATCH
  5
D10
330
2
100
AcDbEntity
  8
0Hatch
100
AcDbHatch
 10
0.0
 20
0.0
 30
0.0
210
0.0
220
0.0
230
1.0
  2
ANSI31
 70
     0
 71
     0
 91
        1
 92
        7
 72
     0
 73
     1
 93
        4
 10
-19034.23938992205
 20
-1890.845668644563
 10
-19369.20107115327
 20
-1890.845668644563
 10
-19369.20107115327
 20
-1950.845668644563
 10
-19034.23938992205
 20
-1950.845668644563
 97
        0
 75
     0
 76
     1
 52
0.0
 41
1.0
 77
     0
 78
     1
 53
45.0
 43
7397.17646992499
 44
-1781.348018257855
 45
-0.0883883476483184
 46
0.0883883476483185
 79
     0
 47
2.267564981845674
 98
        1
 10
-19188.85223762264
 20
-1923.889319264018
1001
ACAD
1010
0.0
1020
0.0
1030
0.0
  0
HATCH
  5
D29
330
2
100
AcDbEntity
  8
0Hatch
100
AcDbHatch
 10
0.0
 20
0.0
 30
0.0
210
0.0
220
0.0
230
1.0
  2
ANSI31
 70
     0
 71
     0
 91
        1
 92
        7
 72
     0
 73
     1
 93
       20
 10
-18459.20107115327
 20
-1630.999997577117
 10
-18399.20107115327
 20
-1570.999997577119
 10
-18399.20107115327
 20
-1430.691339712005
 10
-18459.20107115327
 20
-1370.691339712005
 10
-18459.20107115327
 20
-1050.845668644563
 10
-19309.20107115327
 20
-1050.845668644563
 10
-19309.20107115327
 20
-1232.845668644556
 10
-19655.20107115327
 20
-1232.845668644556
 10
-19655.20530296022
 20
-1292.845668644555
 10
-19249.20107115327
 20
-1292.845668644555
 10
-19249.20107115327
 20
-1110.845668644563
 10
-18519.20107115327
 20
-1110.845668644563
 10
-18519.20107115327
 20
-1395.544153454392
 10
-18459.20107115327
 20
-1455.544153454391
 10
-18459.20107115327
 20
-1546.14718383473
 10
-18519.20107115327
 20
-1606.147183834735
 10
-18519.20107115327
 20
-1890.845668644563
 10
-18924.23938992205
 20
-1890.845668644563
 10
-18924.23938992205
 20
-1950.845668644563
 10
-18459.20107115327
 20
-1950.845668644563
 97
        0
 75
     0
 76
     1
 52
0.0
 41
1.0
 77
     0
 78
     1
 53
45.0
 43
7397.17646992499
 44
-1781.348018257855
 45
-0.0883883476483184
 46
0.0883883476483185
 79
     0
 47
2.267564981845674
 98
        1
 10
-18753.23016007431
 20
-1919.354190899755
1001
ACAD
1010
0.0
1020
0.0
1030
0.0
  0
HATCH
  5
D31
330
2
100
AcDbEntity
  8
0Hatch
100
AcDbHatch
 10
0.0
 20
0.0
 30
0.0
210
0.0
220
0.0
230
1.0
  2
ANSI31
 70
     0
 71
     0
 91
        1
 92
        7
 72
     0
 73
     1
 93
        4
 10
-19943.20107115327
 20
-1890.845668644563
 10
-20278.16275238449
 20
-1890.845668644563
 10
-20278.16275238449
 20
-1950.845668644563
 10
-19943.20107115327
 20
-1950.845668644563
 97
        0
 75
     0
 76
     1
 52
0.0
 41
1.0
 77
     0
 78
     1
 53
45.0
 43
7397.17646992499
 44
-1781.348018257855
 45
-0.0883883476483184
 46
0.0883883476483185
 79
     0
 47
1.409585772293045
 98
        1
 10
-20081.04317393699
 20
-1927.358192161626
1001
ACAD
1010
0.0
1020
0.0
1030
0.0
  0
HATCH
  5
D4F
330
2
100
AcDbEntity
  8
0Hatch
100
AcDbHatch
 10
0.0
 20
0.0
 30
0.0
210
0.0
220
0.0
230
1.0
  2
ANSI31
 70
     0
 71
     0
 91
        1
 92
        7
 72
     0
 73
     1
 93
       20
 10
-20388.16275238449
 20
-1890.845668644563
 10
-20793.20107115327
 20
-1890.845668644563
 10
-20793.20107115327
 20
-1606.147183834724
 10
-20853.20107115327
 20
-1546.147183834733
 10
-20853.20107115327
 20
-1455.544153454388
 10
-20793.20107115327
 20
-1395.544153454392
 10
-20793.20107115327
 20
-1110.845668644563
 10
-20063.20107115327
 20
-1110.845668644563
 10
-20063.20107115327
 20
-1292.845668644555
 10
-19657.15043053017
 20
-1292.845668644555
 10
-19657.15043053017
 20
-1232.845668644556
 10
-20003.20107115327
 20
-1232.845668644556
 10
-20003.20107115328
 20
-1050.845668644563
 10
-20853.20107115328
 20
-1050.845668644563
 10
-20853.20107115327
 20
-1370.691339712008
 10
-20913.20107115327
 20
-1430.691339712006
 10
-20913.20107115327
 20
-1570.999997577121
 10
-20853.20107115327
 20
-1630.999997577118
 10
-20853.20107115327
 20
-1950.845668644563
 10
-20388.16275238449
 20
-1950.845668644563
 97
        0
 75
     0
 76
     1
 52
0.0
 41
1.0
 77
     0
 78
     1
 53
45.0
 43
7397.17646992499
 44
-1781.348018257855
 45
-0.0883883476483184
 46
0.0883883476483185
 79
     0
 47
2.841718069717574
 98
        1
 10
-20592.48879077998
 20
-1923.724574179964
1001
ACAD
1010
0.0
1020
0.0
1030
0.0
  0
DIMENSION
  5
EC3
330
2
100
AcDbEntity
  8
A-Dimline-D
 48
4.0
100
AcDbDimension
  2
*D11
 10
-20853.20107115328
 20
-2477.075637583561
 30
0.0
 11
-20254.70107115328
 21
-2397.075637583561
 31
0.0
 70
    32
 71
     5
 42
1197.0
  3
500
100
AcDbAlignedDimension
 13
-19656.20107115327
 23
-2127.267046483839
 33
0.0
 14
-20853.20107115328
 24
-2127.267046483839
 34
0.0
100
AcDbRotatedDimension
  0
DIMENSION
  5
ED7
330
2
100
AcDbEntity
  8
A-Dimline-D
 48
4.0
100
AcDbDimension
  2
*D12
 10
-20915.20107115328
 20
-2477.075637583561
 30
0.0
 11
-20885.20107115328
 21
-2397.075637583561
 31
0.0
 70
    32
 71
     5
 42
60.0
  3
500
100
AcDbAlignedDimension
 13
-20855.20107115327
 23
-2127.267046483839
 33
0.0
 14
-20915.20107115328
 24
-1747.421375416395
 34
0.0
100
AcDbRotatedDimension
  0
DIMENSION
  5
F00
330
2
100
AcDbEntity
  8
A-Dimline-D
 48
4.0
100
AcDbDimension
  2
*D13
 10
-18459.20107115327
 20
-2477.075637583561
 30
0.0
 11
-19057.70107115327
 21
-2397.075637583561
 31
0.0
 70
    32
 71
     5
 42
1197.0
  3
500
100
AcDbAlignedDimension
 13
-19656.20107115327
 23
-2127.267046483839
 33
0.0
 14
-18459.20107115327
 24
-2127.267046483839
 34
0.0
100
AcDbRotatedDimension
  0
DIMENSION
  5
F14
330
2
100
AcDbEntity
  8
A-Dimline-D
 48
4.0
100
AcDbDimension
  2
*D14
 10
-18399.20107115327
 20
-2477.075637583561
 30
0.0
 11
-18429.20107115327
 21
-2397.075637583561
 31
0.0
 70
    32
 71
     5
 42
60.0
  3
500
100
AcDbAlignedDimension
 13
-18459.20107115327
 23
-2127.267046483839
 33
0.0
 14
-18399.20107115327
 24
-1747.421375416395
 34
0.0
100
AcDbRotatedDimension
  0
DIMENSION
  5
FF6
330
2
100
AcDbEntity
  8
A-Dimline-D
 48
4.0
100
AcDbDimension
  2
*D21
 10
-20003.20107115327
 20
-700.2415211339267
 30
0.0
 11
-20428.20107115327
 21
-620.2415211339266
 31
0.0
 70
    32
 71
     5
 42
850.0
  3
500
100
AcDbAlignedDimension
 13
-20853.20107115327
 23
-830.7969840617797
 33
0.0
 14
-20003.20107115327
 24
-830.7969840617797
 34
0.0
100
AcDbRotatedDimension
  0
DIMENSION
  5
100A
330
2
100
AcDbEntity
  8
A-Dimline-D
 48
4.0
100
AcDbDimension
  2
*D22
 10
-19656.20107115327
 20
-700.2415211339267
 30
0.0
 11
-19829.70107115327
 21
-620.2415211339266
 31
0.0
 70
    32
 71
     5
 42
347.0
  3
500
100
AcDbAlignedDimension
 13
-20003.20107115327
 23
-830.7969840617797
 33
0.0
 14
-19656.20107115327
 24
-1012.796984061772
 34
0.0
100
AcDbRotatedDimension
  0
DIMENSION
  5
1015
330
2
100
AcDbEntity
  8
A-Dimline-D
 48
4.0
100
AcDbDimension
  2
*D23
 10
-19309.20107115327
 20
-700.2415211339267
 30
0.0
 11
-19482.70107115327
 21
-620.2415211339266
 31
0.0
 70
    32
 71
     5
 42
347.0
  3
500
100
AcDbAlignedDimension
 13
-19656.20107115327
 23
-1012.796984061772
 33
0.0
 14
-19309.20107115327
 24
-830.7969840617797
 34
0.0
100
AcDbRotatedDimension
  0
DIMENSION
  5
1029
330
2
100
AcDbEntity
  8
A-Dimline-D
 48
4.0
100
AcDbDimension
  2
*D24
 10
-18459.20107115327
 20
-700.2415211339267
 30
0.0
 11
-18884.20107115327
 21
-620.2415211339266
 31
0.0
 70
    32
 71
     5
 42
850.0
  3
500
100
AcDbAlignedDimension
 13
-19309.20107115327
 23
-830.7969840617797
 33
0.0
 14
-18459.20107115327
 24
-830.7969840617797
 34
0.0
100
AcDbRotatedDimension
  0
DIMENSION
  5
103F
330
2
100
AcDbEntity
  8
A-Dimline-D
 48
4.0
100
AcDbDimension
  2
*D25
 10
-17581.0870202381
 20
-1050.845668644562
 30
0.0
 11
-17661.0870202381
 21
-1500.845668644565
 31
0.0
 70
    32
 71
     5
 42
900.0
  3
500
100
AcDbAlignedDimension
 13
-18262.02656315365
 23
-1950.845668644563
 33
0.0
 14
-18262.02656315365
 24
-1050.845668644563
 34
0.0
 50
90.0
100
AcDbRotatedDimension
  0
DIMENSION
  5
104A
330
2
100
AcDbEntity
  8
A-Dimline-D
 48
4.0
100
AcDbDimension
  2
*D26
 10
-21760.8767747843
 20
-1050.845668644561
 30
0.0
 11
-21840.8767747843
 21
-1500.845668644565
 31
0.0
 70
    32
 71
     5
 42
900.0
  3
500
100
AcDbAlignedDimension
 13
-20987.27970448426
 23
-1950.845668644563
 33
0.0
 14
-20987.27970448426
 24
-1050.845668644563
 34
0.0
 50
90.0
100
AcDbRotatedDimension
  0
DIMENSION
  5
1055
330
2
100
AcDbEntity
  8
A-Dimline-D
 48
4.0
100
AcDbDimension
  2
*D27
 10
-20913.20107115327
 20
-700.2415211339267
 30
0.0
 11
-20883.20107115327
 21
-620.2415211339266
 31
0.0
 70
    32
 71
     5
 42
60.0
  3
500
100
AcDbAlignedDimension
 13
-20853.20107115327
 23
-700.2415211339267
 33
0.0
 14
-20913.20107115327
 24
-1210.642655129223
 34
0.0
100
AcDbRotatedDimension
  0
DIMENSION
  5
1069
330
2
100
AcDbEntity
  8
A-Dimline-D
 48
4.0
100
AcDbDimension
  2
*D28
 10
-18399.20107115327
 20
-700.5076128674213
 30
0.0
 11
-18429.20107115327
 21
-620.5076128674213
 31
0.0
 70
    32
 71
     5
 42
60.0
  3
500
100
AcDbAlignedDimension
 13
-18459.20107115327
 23
-700.2415211339261
 33
0.0
 14
-18399.20107115327
 24
-1210.642655129223
 34
0.0
100
AcDbRotatedDimension
  0
DIMENSION
  5
1088
330
2
100
AcDbEntity
  8
A-Dimline-D
 48
4.0
100
AcDbDimension
  2
*D29
 10
-18399.20107115327
 20
-503.2582772843845
 30
0.0
 11
-19027.70107115327
 21
-423.2582772843845
 31
0.0
 70
    32
 71
     5
 42
1257.0
  3
500
100
AcDbAlignedDimension
 13
-19656.20107115327
 23
-2080.605575161502
 33
0.0
 14
-18399.20107115327
 24
-2080.605575161501
 34
0.0
100
AcDbRotatedDimension
  0
DIMENSION
  5
11CC
330
2
100
AcDbEntity
  8
A-Dimline-D
 48
4.0
100
AcDbDimension
  2
*D30
 10
-19656.20107115327
 20
-503.2582772843845
 30
0.0
 11
-20284.70107115327
 21
-423.2582772843845
 31
0.0
 70
    32
 71
     5
 42
1257.0
  3
500
100
AcDbAlignedDimension
 13
-20913.20107115327
 23
-1210.642655129223
 33
0.0
 14
-19656.20107115327
 24
-1210.642655129223
 34
0.0
100
AcDbRotatedDimension
  0
DIMENSION
  5
11E7
330
2
100
AcDbEntity
  8
A-Dimline-D
 48
4.0
100
AcDbDimension
  2
*D31
 10
-18399.20107115327
 20
-321.3917776481908
 30
0.0
 11
-19656.20107115327
 21
-241.3917776481908
 31
0.0
 70
    32
 71
     5
 42
2514.0
  3
500
100
AcDbAlignedDimension
 13
-20913.20107115327
 23
-1210.642655129223
 33
0.0
 14
-18399.20107115327
 24
-1210.642655130677
 34
0.0
100
AcDbRotatedDimension
  0
ENDSEC
  0
SECTION
  2
OBJECTS
  0
DICTIONARY
  5
9
330
0
100
AcDbDictionary
281
     1
  3
ACAD_COLOR
350
4A
  3
ACAD_GROUP
350
45
  3
ACAD_LAYOUT
350
10
  3
ACAD_MATERIAL
350
B
  3
ACAD_MLEADERSTYLE
350
160F
  3
ACAD_MLINESTYLE
350
46
  3
ACAD_PLOTSETTINGS
350
47
  3
ACAD_PLOTSTYLENAME
350
8
  3
ACAD_SCALELIST
350
15FF
  3
ACAD_TABLESTYLE
350
4B
  3
ACAD_VISUALSTYLE
350
27
  3
ACDB_RECOMPOSE_DATA
350
1644
  3
AcDbVariableDictionary
350
4D4
  3
AEC_PROPERTY_SET_DEFS
350
7D4
  3
ASE_INDEX_DICTIONARY
350
1631
  3
DWGPROPS
350
1645
  0
DICTIONARY
  5
17
330
16
100
AcDbDictionary
280
     1
281
     1
  3
ACAD_LAYERFILTERS
360
18
  3
ACAD_LAYERSTATES
360
19
  3
ACLYDICTIONARY
360
1A
  0
DICTIONARY
  5
161A
330
6
100
AcDbDictionary
280
     1
281
     1
  3
ADSK_XREC_LAYER_RECONCILED
360
161B
  0
DICTIONARY
  5
161C
330
69
100
AcDbDictionary
280
     1
281
     1
  3
ADSK_XREC_LAYER_RECONCILED
360
161D
  0
DICTIONARY
  5
161E
330
602
100
AcDbDictionary
280
     1
281
     1
  3
ADSK_XREC_LAYER_RECONCILED
360
161F
  0
DICTIONARY
  5
1620
330
603
100
AcDbDictionary
280
     1
281
     1
  3
ADSK_XREC_LAYER_RECONCILED
360
1621
  0
DICTIONARY
  5
1622
330
608
100
AcDbDictionary
280
     1
281
     1
  3
ADSK_XREC_LAYER_RECONCILED
360
1623
  0
DICTIONARY
  5
1624
330
B0D
100
AcDbDictionary
280
     1
281
     1
  3
ADSK_XREC_LAYER_RECONCILED
360
1625
  0
DICTIONARY
  5
1626
330
BCE
100
AcDbDictionary
280
     1
281
     1
  3
ADSK_XREC_LAYER_RECONCILED
360
1627
  0
DICTIONARY
  5
3
330
2
100
AcDbDictionary
280
     1
281
     1
  3
ACAD_SORTENTS
360
4CD
  0
DICTIONARY
  5
12
330
11
100
AcDbDictionary
280
     1
281
     1
  0
DICTIONARY
  5
32
330
31
100
AcDbDictionary
280
     1
281
     1
  3
ACAD_SORTENTS
360
4CC
  0
DICTIONARY
  5
4A
102
{ACAD_REACTORS
330
9
102
}
330
9
100
AcDbDictionary
281
     1
  0
DICTIONARY
  5
45
102
{ACAD_REACTORS
330
9
102
}
330
9
100
AcDbDictionary
281
     1
  0
DICTIONARY
  5
10
102
{ACAD_REACTORS
330
9
102
}
330
9
100
AcDbDictionary
281
     1
  3
Model
350
F
  3
Sytuacja
350
15
  0
DICTIONARY
  5
B
102
{ACAD_REACTORS
330
9
102
}
330
9
100
AcDbDictionary
281
     1
  3
ByBlock
350
49
  3
ByLayer
350
48
  3
Global
350
A
  0
DICTIONARY
  5
160F
102
{ACAD_REACTORS
330
9
102
}
330
9
100
AcDbDictionary
281
     1
  3
Standard
350
1610
  0
DICTIONARY
  5
46
102
{ACAD_REACTORS
330
9
102
}
330
9
100
AcDbDictionary
281
     1
  3
Standard
350
4E
  0
DICTIONARY
  5
47
102
{ACAD_REACTORS
330
9
102
}
330
9
100
AcDbDictionary
281
     1
  0
ACDBDICTIONARYWDFLT
  5
8
102
{ACAD_REACTORS
330
9
102
}
330
9
100
AcDbDictionary
281
     1
  3
Normal
350
7
100
AcDbDictionaryWithDefault
340
7
  0
DICTIONARY
  5
15FF
102
{ACAD_REACTORS
330
9
102
}
330
9
100
AcDbDictionary
281
     1
  3
A0
350
1600
  3
A1
350
1601
  3
A2
350
1602
  3
A3
350
1603
  3
A4
350
1604
  3
A5
350
1605
  3
A6
350
1606
  3
A7
350
1607
  3
A8
350
1608
  3
A9
350
1609
  3
B0
350
160A
  3
B1
350
160B
  3
B2
350
160C
  3
B3
350
160D
  3
B4
350
160E
  0
DICTIONARY
  5
4B
102
{ACAD_REACTORS
330
9
102
}
330
9
100
AcDbDictionary
281
     1
  3
Standard
350
4F
  0
DICTIONARY
  5
27
102
{ACAD_REACTORS
330
9
102
}
330
9
100
AcDbDictionary
281
     1
  3
2dWireframe
350
26
  3
3D Hidden
350
4DC
  3
3dWireframe
350
51
  3
Basic
350
4DB
  3
Brighten
350
4DF
  3
ColorChange
350
4E3
  3
Conceptual
350
4DD
  3
Dim
350
4DE
  3
Facepattern
350
4E2
  3
Flat
350
4D7
  3
FlatWithEdges
350
4D8
  3
Gouraud
350
4D9
  3
GouraudWithEdges
350
4DA
  3
Linepattern
350
4E1
  3
Realistic
350
50
  3
Thicken
350
4E0
  0
XRECORD
  5
1644
102
{ACAD_REACTORS
330
9
102
}
330
9
100
AcDbXrecord
280
     1
 90
        1
330
4F
  0
DICTIONARY
  5
4D4
102
{ACAD_REACTORS
330
9
102
}
330
9
100
AcDbDictionary
281
     1
  3
CANNOSCALE
350
163D
  3
CMLEADERSTYLE
350
163C
  3
CTABLESTYLE
350
4D5
  3
DIMASSOC
350
1641
  3
HIDETEXT
350
1640
  3
INDEXCTL
350
163F
  3
SORTENTS
350
163E
  0
DICTIONARY
  5
7D4
102
{ACAD_REACTORS
330
9
102
}
330
9
100
AcDbDictionary
281
     1
  0
DICTIONARY
  5
1631
102
{ACAD_REACTORS
330
9
102
}
330
9
100
AcDbDictionary
281
     1
  3
ASEBlockHierarchyIndexRecord
350
1632
1001
DCO15
1040
1661166704.0
  0
XRECORD
  5
1645
102
{ACAD_REACTORS
330
9
102
}
330
9
100
AcDbXrecord
280
     1
  1
DWGPROPS COOKIE
  2

  3

  4

  6

  7

  8
magdalena.jozwik
  9

300
=
301
=
302
=
303
=
304
=
305
=
306
=
307
=
308
=
309
=
 40
9.752728067129629
 41
2453080.724599746
 42
2455029.678333334
  1

 90
        0
  0
DICTIONARY
  5
18
102
{ACAD_REACTORS
330
17
102
}
330
17
100
AcDbDictionary
281
     1
  0
DICTIONARY
  5
19
102
{ACAD_REACTORS
330
17
102
}
330
17
100
AcDbDictionary
281
     1
  0
DICTIONARY
  5
1A
102
{ACAD_REACTORS
330
17
102
}
330
17
100
AcDbDictionary
281
     1
1001
ACAD
1000
<All
  0
XRECORD
  5
161B
102
{ACAD_REACTORS
330
161A
102
}
330
161A
100
AcDbXrecord
280
     1
290
     1
  0
XRECORD
  5
161D
102
{ACAD_REACTORS
330
161C
102
}
330
161C
100
AcDbXrecord
280
     1
290
     1
  0
XRECORD
  5
161F
102
{ACAD_REACTORS
330
161E
102
}
330
161E
100
AcDbXrecord
280
     1
290
     1
  0
XRECORD
  5
1621
102
{ACAD_REACTORS
330
1620
102
}
330
1620
100
AcDbXrecord
280
     1
290
     1
  0
XRECORD
  5
1623
102
{ACAD_REACTORS
330
1622
102
}
330
1622
100
AcDbXrecord
280
     1
290
     1
  0
XRECORD
  5
1625
102
{ACAD_REACTORS
330
1624
102
}
330
1624
100
AcDbXrecord
280
     1
290
     1
  0
XRECORD
  5
1627
102
{ACAD_REACTORS
330
1626
102
}
330
1626
100
AcDbXrecord
280
     1
290
     1
  0
SORTENTSTABLE
  5
4CD
102
{ACAD_REACTORS
330
3
102
}
330
3
100
AcDbSortentsTable
330
2
331
6F
  5
6F
331
3C9
  5
3C9
331
372
  5
372
331
B16
  5
B1C
331
B1E
  5
B19
331
F0
  5
F0
331
79
  5
79
331
13F
  5
13F
331
273
  5
273
331
30A
  5
30A
331
293
  5
293
331
3A2
  5
3A2
331
887
  5
887
331
461
  5
461
331
99
  5
99
331
322
  5
322
331
A1
  5
A1
331
2B3
  5
2B3
331
128
  5
128
331
36B
  5
36B
331
3C2
  5
3C2
331
B17
  5
B1D
331
F1
  5
F1
331
101
  5
101
331
140
  5
140
331
26C
  5
26C
331
274
  5
274
331
8A
  5
8A
331
30B
  5
30B
331
92
  5
92
331
158
  5
158
331
28C
  5
28C
331
888
  5
888
331
CDF
  5
B13
331
323
  5
323
331
190
  5
190
331
129
  5
129
331
265
  5
265
331
B18
  5
B23
331
D4F
  5
B17
331
141
  5
141
331
8B
  5
8B
331
10A
  5
10A
331
889
  5
889
331
D10
  5
B14
331
11A
  5
11A
331
324
  5
324
331
A3
  5
A3
331
191
  5
191
331
12A
  5
12A
331
D3
  5
D3
331
2BD
  5
2BD
331
3CC
  5
3CC
331
B19
  5
BCC
331
13A
  5
13A
331
84
  5
84
331
26E
  5
26E
331
305
  5
305
331
8C
  5
8C
331
94
  5
94
331
113
  5
113
331
28E
  5
28E
331
D29
  5
B15
331
11B
  5
11B
331
192
  5
192
331
73
  5
73
331
3BD
  5
3BD
331
D31
  5
B16
331
B1A
  5
BCD
331
143
  5
143
331
14B
  5
14B
331
306
  5
306
331
114
  5
114
331
C7A
  5
D32
331
883
  5
883
331
357
  5
357
331
18B
  5
18B
331
193
  5
193
331
AD
  5
AD
331
2B7
  5
2B7
331
2BF
  5
2BF
331
336
  5
336
331
74
  5
74
331
367
  5
367
331
B13
  5
B18
331
3C6
  5
3C6
331
B1B
  5
C7A
331
3CE
  5
3CE
331
38F
  5
38F
331
7E
  5
7E
331
2FF
  5
2FF
331
144
  5
144
331
270
  5
270
331
307
  5
307
331
288
  5
288
331
290
  5
290
331
340
  5
340
331
884
  5
884
331
348
  5
348
331
3A7
  5
3A7
331
358
  5
358
331
3AF
  5
3AF
331
3B7
  5
3B7
331
298
  5
298
331
249
  5
249
331
2B8
  5
2B8
331
AE
  5
AE
331
32F
  5
32F
331
337
  5
337
331
6D
  5
6D
331
75
  5
75
331
B14
  5
B1A
331
3C7
  5
3C7
331
370
  5
370
331
B1C
  5
CCF
331
BCC
  5
D2A
331
269
  5
269
331
145
  5
145
331
289
  5
289
331
310
  5
310
331
3B0
  5
3B0
331
320
  5
320
331
18D
  5
18D
331
2B1
  5
2B1
331
126
  5
126
331
24A
  5
24A
331
2B9
  5
2B9
331
330
  5
330
331
3C8
  5
3C8
331
B15
  5
B1B
331
B1D
  5
D08
331
BCD
  5
D11
331
26A
  5
26A
331
309
  5
309
331
292
  5
292
331
399
  5
399
331
3A9
  5
3A9
331
3B1
  5
3B1
331
321
  5
321
331
127
  5
127
331
2B2
  5
2B2
331
2BA
  5
2BA
331
2F2
  5
2F2
  0
SORTENTSTABLE
  5
4CC
102
{ACAD_REACTORS
330
32
102
}
330
32
100
AcDbSortentsTable
330
31
  0
LAYOUT
  5
F
102
{ACAD_XDICTIONARY
360
1648
102
}
102
{ACAD_REACTORS
330
10
102
}
330
10
100
AcDbPlotSettings
  1

  2
CutePDF Writer
  4
A4
  6

 40
3.174999952316284
 41
3.174999952316284
 42
3.175003051757812
 43
3.17498779296875
 44
209.8886566162109
 45
297.0530090332031
 46
-0.0000000000000012
 47
5.468573210520264
 48
-24866.89026143098
 49
-9818.622890195799
140
-14666.89026143095
141
4201.377109804205
142
1.0
143
50.11333139422816
 70
 11956
 72
     1
 73
     0
 74
     4
  7
monochrome_140.ctb
 75
     0
147
0.0199547699619742
148
24866.89026143098
149
9818.622890195799
100
AcDbLayout
  1
Model
 70
     1
 71
     0
 10
0.0
 20
0.0
 11
12.0
 21
9.0
 12
0.0
 22
0.0
 32
0.0
 14
0.0
 24
0.0
 34
0.0
 15
0.0
 25
0.0
 35
0.0
146
0.0
 13
0.0
 23
0.0
 33
0.0
 16
1.0
 26
0.0
 36
0.0
 17
0.0
 27
1.0
 37
0.0
 76
     0
330
2
331
25
1001
ACAD_PSEXT
1000
CutePDF Writer
1000
CutePDF Writer
1000
CPW2:
1000

1070
     0
  0
LAYOUT
  5
15
102
{ACAD_XDICTIONARY
360
164A
102
}
102
{ACAD_REACTORS
330
10
102
}
330
10
100
AcDbPlotSettings
  1

  2
CutePDF Writer
  4
A4
  6

 40
3.174999952316284
 41
3.174999952316284
 42
3.175003051757812
 43
3.17498779296875
 44
209.8886566162109
 45
297.0530090332031
 46
0.0
 47
0.0
 48
0.0
 49
0.0
140
0.0
141
0.0
142
1.0
143
10.0
 70
   672
 72
     1
 73
     0
 74
     5
  7
monochrome_140.ctb
 75
     0
147
1.0
148
0.0
149
0.0
100
AcDbLayout
  1
Sytuacja
 70
     1
 71
     1
 10
-31.74999952316284
 20
-31.74999952316284
 11
2067.136566638946
 21
2938.780090808869
 12
0.0
 22
0.0
 32
0.0
 14
-2168.317592469716
 24
-155.8517489963451
 34
0.0
 15
9512.510412890922
 25
4575.582946269039
 35
0.0
146
0.0
 13
0.0
 23
0.0
 33
0.0
 16
1.0
 26
0.0
 36
0.0
 17
0.0
 27
1.0
 37
0.0
 76
     0
330
11
  0
MATERIAL
  5
49
102
{ACAD_XDICTIONARY
360
164E
102
}
102
{ACAD_REACTORS
330
B
102
}
330
B
100
AcDbMaterial
  1
ByBlock
 73
     1
 78
     1
172
     1
176
     1
270
     1
274
     1
  0
MATERIAL
  5
48
102
{ACAD_XDICTIONARY
360
164C
102
}
102
{ACAD_REACTORS
330
B
102
}
330
B
100
AcDbMaterial
  1
ByLayer
 73
     1
 78
     1
172
     1
176
     1
270
     1
274
     1
  0
MATERIAL
  5
A
102
{ACAD_XDICTIONARY
360
1646
102
}
102
{ACAD_REACTORS
330
B
102
}
330
B
100
AcDbMaterial
  1
Global
 73
     1
 78
     1
172
     1
176
     1
270
     1
274
     1
  0
MLEADERSTYLE
  5
1610
102
{ACAD_REACTORS
330
160F
102
}
330
160F
100
AcDbMLeaderStyle
170
     2
171
     1
172
     0
 90
        2
 40
0.0
 41
0.0
173
     1
 91
-1056964608
340
20
 92
       -2
290
     1
 42
0.09
291
     1
 43
0.36
  3
Standard
 44
0.18
300

342
1D
174
     1
178
     6
175
     1
176
     0
 93
-1056964608
 45
0.18
292
     0
297
     0
 46
0.18
 94
-1056964608
 47
1.0
 49
1.0
140
1.0
293
     1
141
0.0
294
     1
177
     0
142
1.0
295
     0
296
     0
143
0.125
1001
ACAD_MLEADERVER
1070
     2
  0
MLINESTYLE
  5
4E
102
{ACAD_REACTORS
330
46
102
}
330
46
100
AcDbMlineStyle
  2
STANDARD
 70
     0
  3

 62
   256
 51
90.0
 52
90.0
 71
     2
 49
0.5
 62
   256
  6
BYLAYER
 49
-0.5
 62
   256
  6
BYLAYER
  0
ACDBPLACEHOLDER
  5
7
102
{ACAD_REACTORS
330
8
102
}
330
8
  0
SCALE
  5
1600
102
{ACAD_REACTORS
330
15FF
102
}
330
15FF
100
AcDbScale
 70
     0
300
1/64" = 1'-0"
140
0.015625
141
12.0
290
     0
  0
SCALE
  5
1601
102
{ACAD_REACTORS
330
15FF
102
}
330
15FF
100
AcDbScale
 70
     0
300
1/32" = 1'-0"
140
0.03125
141
12.0
290
     0
  0
SCALE
  5
1602
102
{ACAD_REACTORS
330
15FF
102
}
330
15FF
100
AcDbScale
 70
     0
300
1/16" = 1'-0"
140
0.0625
141
12.0
290
     0
  0
SCALE
  5
1603
102
{ACAD_REACTORS
330
15FF
102
}
330
15FF
100
AcDbScale
 70
     0
300
3/32" = 1'-0"
140
0.09375
141
12.0
290
     0
  0
SCALE
  5
1604
102
{ACAD_REACTORS
330
15FF
102
}
330
15FF
100
AcDbScale
 70
     0
300
1/8" = 1'-0"
140
0.125
141
12.0
290
     0
  0
SCALE
  5
1605
102
{ACAD_REACTORS
330
15FF
102
}
330
15FF
100
AcDbScale
 70
     0
300
3/16" = 1'-0"
140
0.1875
141
12.0
290
     0
  0
SCALE
  5
1606
102
{ACAD_REACTORS
330
15FF
102
}
330
15FF
100
AcDbScale
 70
     0
300
1/4" = 1'-0"
140
0.25
141
12.0
290
     0
  0
SCALE
  5
1607
102
{ACAD_REACTORS
330
15FF
102
}
330
15FF
100
AcDbScale
 70
     0
300
3/8" = 1'-0"
140
0.375
141
12.0
290
     0
  0
SCALE
  5
1608
102
{ACAD_REACTORS
330
15FF
102
}
330
15FF
100
AcDbScale
 70
     0
300
1/2" = 1'-0"
140
0.5
141
12.0
290
     0
  0
SCALE
  5
1609
102
{ACAD_REACTORS
330
15FF
102
}
330
15FF
100
AcDbScale
 70
     0
300
3/4" = 1'-0"
140
0.75
141
12.0
290
     0
  0
SCALE
  5
160A
102
{ACAD_REACTORS
330
15FF
102
}
330
15FF
100
AcDbScale
 70
     0
300
1" = 1'-0"
140
1.0
141
12.0
290
     0
  0
SCALE
  5
160B
102
{ACAD_REACTORS
330
15FF
102
}
330
15FF
100
AcDbScale
 70
     0
300
1 1/2" = 1'-0"
140
1.5
141
12.0
290
     0
  0
SCALE
  5
160C
102
{ACAD_REACTORS
330
15FF
102
}
330
15FF
100
AcDbScale
 70
     0
300
3" = 1'-0"
140
3.0
141
12.0
290
     0
  0
SCALE
  5
160D
102
{ACAD_REACTORS
330
15FF
102
}
330
15FF
100
AcDbScale
 70
     0
300
6" = 1'-0"
140
6.0
141
12.0
290
     0
  0
SCALE
  5
160E
102
{ACAD_REACTORS
330
15FF
102
}
330
15FF
100
AcDbScale
 70
     0
300
1'-0" = 1'-0"
140
12.0
141
12.0
290
     1
  0
TABLESTYLE
  5
4F
102
{ACAD_XDICTIONARY
360
1642
102
}
102
{ACAD_REACTORS
330
4B
102
}
330
4B
100
AcDbTableStyle
  3
Standard
 70
     0
 71
     0
 40
0.06
 41
0.06
280
     0
281
     0
  7
Standard
140
0.18
170
     2
 62
     0
 63
     7
283
     0
274
    -2
284
     1
 64
     0
275
    -2
285
     1
 65
     0
276
    -2
286
     1
 66
     0
277
    -2
287
     1
 67
     0
278
    -2
288
     1
 68
     0
279
    -2
289
     1
 69
     0
  7
Standard
140
0.25
170
     5
 62
     0
 63
     7
283
     0
274
    -2
284
     1
 64
     0
275
    -2
285
     1
 65
     0
276
    -2
286
     1
 66
     0
277
    -2
287
     1
 67
     0
278
    -2
288
     1
 68
     0
279
    -2
289
     1
 69
     0
  7
Standard
140
0.18
170
     5
 62
     0
 63
     7
283
     0
274
    -2
284
     1
 64
     0
275
    -2
285
     1
 65
     0
276
    -2
286
     1
 66
     0
277
    -2
287
     1
 67
     0
278
    -2
288
     1
 68
     0
279
    -2
289
     1
 69
     0
  0
VISUALSTYLE
  5
26
102
{ACAD_REACTORS
330
27
102
}
330
27
100
AcDbVisualStyle
  2
2dWireframe
 70
     4
 71
     0
 72
     2
 73
     0
 90
        0
 40
-0.6
 41
-30.0
 62
     5
 63
     7
 74
     1
 91
        4
 64
     7
 65
   257
 75
     1
175
     1
 42
1.0
 92
        0
 66
   257
 43
1.0
 76
     1
 77
     6
 78
     2
 67
     7
 79
     5
170
     0
171
     0
290
     0
174
     0
 93
        1
 44
0.0
173
     0
291
     0
 45
0.0
1001
ACAD
1000
AcDbSavedByObjectVersion
1070
     0
  0
VISUALSTYLE
  5
4DC
102
{ACAD_REACTORS
330
27
102
}
330
27
100
AcDbVisualStyle
  2
3D Hidden
 70
     6
 71
     1
 72
     2
 73
     2
 90
        0
 40
-0.6
 41
-30.0
 62
     5
 63
     7
 74
     2
 91
        2
 64
     7
 65
   257
 75
     2
175
     1
 42
40.0
 92
        0
 66
   257
 43
1.0
 76
     1
 77
     6
 78
     2
 67
     7
 79
     3
170
     0
171
     0
290
     0
174
     0
 93
        1
 44
0.0
173
     0
291
     0
 45
0.0
1001
ACAD
1000
AcDbSavedByObjectVersion
1070
     0
  0
VISUALSTYLE
  5
51
102
{ACAD_REACTORS
330
27
102
}
330
27
100
AcDbVisualStyle
  2
3dWireframe
 70
     5
 71
     0
 72
     2
 73
     0
 90
        0
 40
-0.6
 41
-30.0
 62
     5
 63
     7
 74
     1
 91
        4
 64
     7
 65
   257
 75
     1
175
     1
 42
1.0
 92
        0
 66
   257
 43
1.0
 76
     1
 77
     6
 78
     2
 67
     7
 79
     5
170
     0
171
     0
290
     0
174
     0
 93
        1
 44
0.0
173
     0
291
     0
 45
0.0
1001
ACAD
1000
AcDbSavedByObjectVersion
1070
     0
  0
VISUALSTYLE
  5
4DB
102
{ACAD_REACTORS
330
27
102
}
330
27
100
AcDbVisualStyle
  2
Basic
 70
     7
 71
     1
 72
     0
 73
     1
 90
        0
 40
-0.6
 41
-30.0
 62
     5
 63
     7
 74
     0
 91
        4
 64
     7
 65
   257
 75
     1
175
     1
 42
1.0
 92
        8
 66
     7
 43
1.0
 76
     1
 77
     6
 78
     2
 67
     7
 79
     5
170
     0
171
     0
290
     0
174
     0
 93
        1
 44
0.0
173
     0
291
     1
 45
0.0
1001
ACAD
1000
AcDbSavedByObjectVersion
1070
     0
  0
VISUALSTYLE
  5
4DF
102
{ACAD_REACTORS
330
27
102
}
330
27
100
AcDbVisualStyle
  2
Brighten
 70
    12
 71
     2
 72
     2
 73
     0
 90
        0
 40
-0.6
 41
-30.0
 62
     5
 63
     7
 74
     1
 91
        4
 64
     7
 65
   257
 75
     1
175
     1
 42
1.0
 92
        8
 66
     7
 43
1.0
 76
     1
 77
     6
 78
     2
 67
     7
 79
     5
170
     0
171
     0
290
     0
174
     0
 93
        1
 44
50.0
173
     0
291
     1
 45
0.0
1001
ACAD
1000
AcDbSavedByObjectVersion
1070
     0
  0
VISUALSTYLE
  5
4E3
102
{ACAD_REACTORS
330
27
102
}
330
27
100
AcDbVisualStyle
  2
ColorChange
 70
    16
 71
     2
 72
     2
 73
     3
 90
        0
 40
-0.6
 41
-30.0
 62
     5
 63
     8
 74
     1
 91
        4
 64
     7
 65
   257
 75
     1
175
     1
 42
1.0
 92
        8
 66
     8
 43
1.0
 76
     1
 77
     6
 78
     2
 67
     7
 79
     5
170
     0
171
     0
290
     0
174
     0
 93
        1
 44
0.0
173
     0
291
     1
 45
0.0
1001
ACAD
1000
AcDbSavedByObjectVersion
1070
     0
  0
VISUALSTYLE
  5
4DD
102
{ACAD_REACTORS
330
27
102
}
330
27
100
AcDbVisualStyle
  2
Conceptual
 70
     9
 71
     3
 72
     2
 73
     0
 90
        0
 40
-0.6
 41
-30.0
 62
     5
 63
     7
 74
     2
 91
        2
 64
     7
 65
   257
 75
     1
175
     1
 42
40.0
 92
        8
 66
     7
 43
1.0
 76
     1
 77
     6
 78
     2
 67
     7
 79
     3
170
     0
171
     0
290
     0
174
     0
 93
        1
 44
0.0
173
     0
291
     0
 45
0.0
1001
ACAD
1000
AcDbSavedByObjectVersion
1070
     0
  0
VISUALSTYLE
  5
4DE
102
{ACAD_REACTORS
330
27
102
}
330
27
100
AcDbVisualStyle
  2
Dim
 70
    11
 71
     2
 72
     2
 73
     0
 90
        0
 40
-0.6
 41
-30.0
 62
     5
 63
     7
 74
     1
 91
        4
 64
     7
 65
   257
 75
     1
175
     1
 42
1.0
 92
        8
 66
     7
 43
1.0
 76
     1
 77
     6
 78
     2
 67
     7
 79
     5
170
     0
171
     0
290
     0
174
     0
 93
        1
 44
-50.0
173
     0
291
     1
 45
0.0
1001
ACAD
1000
AcDbSavedByObjectVersion
1070
     0
  0
VISUALSTYLE
  5
4E2
102
{ACAD_REACTORS
330
27
102
}
330
27
100
AcDbVisualStyle
  2
Facepattern
 70
    15
 71
     2
 72
     2
 73
     0
 90
        0
 40
-0.6
 41
-30.0
 62
     5
 63
     7
 74
     1
 91
        4
 64
     7
 65
   257
 75
     1
175
     1
 42
1.0
 92
        8
 66
     7
 43
1.0
 76
     1
 77
     6
 78
     2
 67
     7
 79
     5
170
     0
171
     0
290
     0
174
     0
 93
        1
 44
0.0
173
     0
291
     1
 45
0.0
1001
ACAD
1000
AcDbSavedByObjectVersion
1070
     0
  0
VISUALSTYLE
  5
4D7
102
{ACAD_REACTORS
330
27
102
}
330
27
100
AcDbVisualStyle
  2
Flat
 70
     0
 71
     2
 72
     1
 73
     1
 90
        2
 40
-0.6
 41
30.0
 62
     5
 63
     7
 74
     0
 91
        4
 64
     7
 65
   257
 75
     1
175
     1
 42
1.0
 92
        8
 66
     7
 43
1.0
 76
     1
 77
     6
 78
     2
 67
     7
 79
     5
170
     0
171
     0
290
     0
174
     0
 93
       13
 44
0.0
173
     0
291
     1
 45
0.0
1001
ACAD
1000
AcDbSavedByObjectVersion
1070
     0
  0
VISUALSTYLE
  5
4D8
102
{ACAD_REACTORS
330
27
102
}
330
27
100
AcDbVisualStyle
  2
FlatWithEdges
 70
     1
 71
     2
 72
     1
 73
     1
 90
        2
 40
-0.6
 41
30.0
 62
     5
 63
     7
 74
     1
 91
        4
 64
     7
 65
   257
 75
     1
175
     1
 42
1.0
 92
        0
 66
   257
 43
1.0
 76
     1
 77
     6
 78
     2
 67
     7
 79
     5
170
     0
171
     0
290
     0
174
     0
 93
       13
 44
0.0
173
     0
291
     1
 45
0.0
1001
ACAD
1000
AcDbSavedByObjectVersion
1070
     0
  0
VISUALSTYLE
  5
4D9
102
{ACAD_REACTORS
330
27
102
}
330
27
100
AcDbVisualStyle
  2
Gouraud
 70
     2
 71
     2
 72
     2
 73
     1
 90
        2
 40
-0.6
 41
30.0
 62
     5
 63
     7
 74
     0
 91
        4
 64
     7
 65
   257
 75
     1
175
     1
 42
1.0
 92
        0
 66
     7
 43
1.0
 76
     1
 77
     6
 78
     2
 67
     7
 79
     5
170
     0
171
     0
290
     0
174
     0
 93
       13
 44
0.0
173
     0
291
     1
 45
0.0
1001
ACAD
1000
AcDbSavedByObjectVersion
1070
     0
  0
VISUALSTYLE
  5
4DA
102
{ACAD_REACTORS
330
27
102
}
330
27
100
AcDbVisualStyle
  2
GouraudWithEdges
 70
     3
 71
     2
 72
     2
 73
     1
 90
        2
 40
-0.6
 41
30.0
 62
     5
 63
     7
 74
     1
 91
        4
 64
     7
 65
   257
 75
     1
175
     1
 42
1.0
 92
        0
 66
   257
 43
1.0
 76
     1
 77
     6
 78
     2
 67
     7
 79
     5
170
     0
171
     0
290
     0
174
     0
 93
       13
 44
0.0
173
     0
291
     1
 45
0.0
1001
ACAD
1000
AcDbSavedByObjectVersion
1070
     0
  0
VISUALSTYLE
  5
4E1
102
{ACAD_REACTORS
330
27
102
}
330
27
100
AcDbVisualStyle
  2
Linepattern
 70
    14
 71
     2
 72
     2
 73
     0
 90
        0
 40
-0.6
 41
-30.0
 62
     5
 63
     7
 74
     1
 91
        4
 64
     7
 65
   257
 75
     7
175
     7
 42
1.0
 92
        8
 66
     7
 43
1.0
 76
     1
 77
     6
 78
     2
 67
     7
 79
     5
170
     0
171
     0
290
     0
174
     0
 93
        1
 44
0.0
173
     0
291
     1
 45
0.0
1001
ACAD
1000
AcDbSavedByObjectVersion
1070
     0
  0
VISUALSTYLE
  5
50
102
{ACAD_REACTORS
330
27
102
}
330
27
100
AcDbVisualStyle
  2
Realistic
 70
     8
 71
     2
 72
     2
 73
     0
 90
        0
 40
-0.6
 41
-30.0
 62
     5
 63
     7
 74
     1
 91
        0
 64
     7
 65
   257
 75
     1
175
     1
 42
1.0
 92
        8
 66
     8
 43
1.0
 76
     1
 77
     6
 78
     2
 67
     7
 79
     5
170
     0
171
     0
290
     0
174
     0
 93
       13
 44
0.0
173
     0
291
     0
 45
0.0
1001
ACAD
1000
AcDbSavedByObjectVersion
1070
     0
  0
VISUALSTYLE
  5
4E0
102
{ACAD_REACTORS
330
27
102
}
330
27
100
AcDbVisualStyle
  2
Thicken
 70
    13
 71
     2
 72
     2
 73
     0
 90
        0
 40
-0.6
 41
-30.0
 62
     5
 63
     7
 74
     1
 91
        4
 64
     7
 65
   257
 75
     1
175
     1
 42
1.0
 92
       12
 66
     7
 43
1.0
 76
     1
 77
     6
 78
     2
 67
     7
 79
     5
170
     0
171
     0
290
     0
174
     0
 93
        1
 44
0.0
173
     0
291
     1
 45
0.0
1001
ACAD
1000
AcDbSavedByObjectVersion
1070
     0
  0
DICTIONARYVAR
  5
163D
102
{ACAD_REACTORS
330
4D4
102
}
330
4D4
100
DictionaryVariables
280
     0
  1
1'-0" = 1'-0"
  0
DICTIONARYVAR
  5
163C
102
{ACAD_REACTORS
330
4D4
102
}
330
4D4
100
DictionaryVariables
280
     0
  1
STANDARD
  0
DICTIONARYVAR
  5
4D5
102
{ACAD_REACTORS
330
4D4
102
}
330
4D4
100
DictionaryVariables
280
     0
  1
STANDARD
  0
DICTIONARYVAR
  5
1641
102
{ACAD_REACTORS
330
4D4
102
}
330
4D4
100
DictionaryVariables
280
     0
  1
2
  0
DICTIONARYVAR
  5
1640
102
{ACAD_REACTORS
330
4D4
102
}
330
4D4
100
DictionaryVariables
280
     0
  1
1
  0
DICTIONARYVAR
  5
163F
102
{ACAD_REACTORS
330
4D4
102
}
330
4D4
100
DictionaryVariables
280
     0
  1
0
  0
DICTIONARYVAR
  5
163E
102
{ACAD_REACTORS
330
4D4
102
}
330
4D4
100
DictionaryVariables
280
     0
  1
127
  0
XRECORD
  5
1632
102
{ACAD_REACTORS
330
1631
102
}
330
1631
100
AcDbXrecord
280
     1
330
154D
330
154E
330
1556
330
1557
330
155D
330
155E
330
1566
330
1567
330
1597
330
1598
330
159E
330
159F
330
15A5
330
15A6
330
15AC
330
15AD
330
15B3
330
15B4
330
15BA
330
15BB
330
15C3
330
15C4
330
15CC
330
15CD
330
15D3
330
15D4
330
15DA
330
15DB
330
15E1
330
15E2
330
156D
330
156E
330
1574
330
1575
330
157B
330
157C
330
1582
330
1583
330
1589
330
158A
330
1590
330
1591
  0
DICTIONARY
  5
1648
330
F
100
AcDbDictionary
280
     1
281
     1
  3
ACAD_XREC_ROUNDTRIP
360
1649
  0
DICTIONARY
  5
164A
330
15
100
AcDbDictionary
280
     1
281
     1
  3
ACAD_XREC_ROUNDTRIP
360
164B
  0
DICTIONARY
  5
164E
330
49
100
AcDbDictionary
280
     1
281
     1
  3
ACAD_XREC_ROUNDTRIP
360
164F
  0
DICTIONARY
  5
164C
330
48
100
AcDbDictionary
280
     1
281
     1
  3
ACAD_XREC_ROUNDTRIP
360
164D
  0
DICTIONARY
  5
1646
330
A
100
AcDbDictionary
280
     1
281
     1
  3
ACAD_XREC_ROUNDTRIP
360
1647
  0
DICTIONARY
  5
1642
330
4F
100
AcDbDictionary
280
     1
281
     1
  3
ACAD_ROUNDTRIP_2008_TABLESTYLE_CELLSTYLEMAP
360
1643
  3
ACAD_XREC_ROUNDTRIP
360
1650
  0
XRECORD
  5
1649
102
{ACAD_REACTORS
330
1648
102
}
330
1648
100
AcDbXrecord
280
     1
102
SHADEPLOT
 70
     0
102
SHADEPLOTRESLEVEL
 70
     2
102
SHADEPLOTCUSTOMDPI
 70
   300
  0
XRECORD
  5
164B
102
{ACAD_REACTORS
330
164A
102
}
330
164A
100
AcDbXrecord
280
     1
102
SHADEPLOT
 70
     1
102
SHADEPLOTRESLEVEL
 70
     2
102
SHADEPLOTCUSTOMDPI
 70
   300
  0
XRECORD
  5
164F
102
{ACAD_REACTORS
330
164E
102
}
330
164E
100
AcDbXrecord
280
     1
102
MATERIAL
148
0.0
149
0.0
149
0.0
 93
        0
 94
       63
282
     0
 72
     1
 77
     1
171
     1
175
     1
179
     1
273
     0
  0
XRECORD
  5
164D
102
{ACAD_REACTORS
330
164C
102
}
330
164C
100
AcDbXrecord
280
     1
102
MATERIAL
148
0.0
149
0.0
149
0.0
 93
        0
 94
       63
282
     0
 72
     1
 77
     1
171
     1
175
     1
179
     1
273
     0
  0
XRECORD
  5
1647
102
{ACAD_REACTORS
330
1646
102
}
330
1646
100
AcDbXrecord
280
     1
102
MATERIAL
148
0.0
149
0.0
149
0.0
 93
        0
 94
       63
282
     0
 72
     1
 77
     1
171
     1
175
     1
179
     1
273
     0
  0
CELLSTYLEMAP
  5
1643
102
{ACAD_REACTORS
330
1642
102
}
330
1642
100
AcDbCellStyleMap
 90
        3
300
CELLSTYLE
  1
TABLEFORMAT_BEGIN
 90
        5
170
     1
 91
        0
 92
    32768
 62
   257
 93
        1
300
CONTENTFORMAT
  1
CONTENTFORMAT_BEGIN
 90
        0
 91
        0
 92
        4
 93
        0
300

 40
0.0
140
1.0
 94
        5
 62
     0
340
1D
144
0.25
309
CONTENTFORMAT_END
171
     0
 94
        6
 95
        1
302
GRIDFORMAT
  1
GRIDFORMAT_BEGIN
 90
        0
 91
        1
 62
     0
 92
       -2
340
0
 93
        0
 40
0.045
309
GRIDFORMAT_END
 95
        2
302
GRIDFORMAT
  1
GRIDFORMAT_BEGIN
 90
        0
 91
        1
 62
     0
 92
       -2
340
0
 93
        0
 40
0.045
309
GRIDFORMAT_END
 95
        4
302
GRIDFORMAT
  1
GRIDFORMAT_BEGIN
 90
        0
 91
        1
 62
     0
 92
       -2
340
0
 93
        0
 40
0.045
309
GRIDFORMAT_END
 95
        8
302
GRIDFORMAT
  1
GRIDFORMAT_BEGIN
 90
        0
 91
        1
 62
     0
 92
       -2
340
0
 93
        0
 40
0.045
309
GRIDFORMAT_END
 95
       16
302
GRIDFORMAT
  1
GRIDFORMAT_BEGIN
 90
        0
 91
        1
 62
     0
 92
       -2
340
0
 93
        0
 40
0.045
309
GRIDFORMAT_END
 95
       32
302
GRIDFORMAT
  1
GRIDFORMAT_BEGIN
 90
        0
 91
        1
 62
     0
 92
       -2
340
0
 93
        0
 40
0.045
309
GRIDFORMAT_END
309
TABLEFORMAT_END
  1
CELLSTYLE_BEGIN
 90
        1
 91
        1
300
_TITLE
309
CELLSTYLE_END
300
CELLSTYLE
  1
TABLEFORMAT_BEGIN
 90
        5
170
     1
 91
        0
 92
        0
 62
   257
 93
        1
300
CONTENTFORMAT
  1
CONTENTFORMAT_BEGIN
 90
        0
 91
        0
 92
        4
 93
        0
300

 40
0.0
140
1.0
 94
        5
 62
     0
340
1D
144
0.18
309
CONTENTFORMAT_END
171
     0
 94
        6
 95
        1
302
GRIDFORMAT
  1
GRIDFORMAT_BEGIN
 90
        0
 91
        1
 62
     0
 92
       -2
340
0
 93
        0
 40
0.045
309
GRIDFORMAT_END
 95
        2
302
GRIDFORMAT
  1
GRIDFORMAT_BEGIN
 90
        0
 91
        1
 62
     0
 92
       -2
340
0
 93
        0
 40
0.045
309
GRIDFORMAT_END
 95
        4
302
GRIDFORMAT
  1
GRIDFORMAT_BEGIN
 90
        0
 91
        1
 62
     0
 92
       -2
340
0
 93
        0
 40
0.045
309
GRIDFORMAT_END
 95
        8
302
GRIDFORMAT
  1
GRIDFORMAT_BEGIN
 90
        0
 91
        1
 62
     0
 92
       -2
340
0
 93
        0
 40
0.045
309
GRIDFORMAT_END
 95
       16
302
GRIDFORMAT
  1
GRIDFORMAT_BEGIN
 90
        0
 91
        1
 62
     0
 92
       -2
340
0
 93
        0
 40
0.045
309
GRIDFORMAT_END
 95
       32
302
GRIDFORMAT
  1
GRIDFORMAT_BEGIN
 90
        0
 91
        1
 62
     0
 92
       -2
340
0
 93
        0
 40
0.045
309
GRIDFORMAT_END
309
TABLEFORMAT_END
  1
CELLSTYLE_BEGIN
 90
        2
 91
        1
300
_HEADER
309
CELLSTYLE_END
300
CELLSTYLE
  1
TABLEFORMAT_BEGIN
 90
        5
170
     1
 91
        0
 92
        0
 62
   257
 93
        1
300
CONTENTFORMAT
  1
CONTENTFORMAT_BEGIN
 90
        0
 91
        0
 92
        4
 93
        0
300

 40
0.0
140
1.0
 94
        2
 62
     0
340
1D
144
0.18
309
CONTENTFORMAT_END
171
     0
 94
        6
 95
        1
302
GRIDFORMAT
  1
GRIDFORMAT_BEGIN
 90
        0
 91
        1
 62
     0
 92
       -2
340
0
 93
        0
 40
0.045
309
GRIDFORMAT_END
 95
        2
302
GRIDFORMAT
  1
GRIDFORMAT_BEGIN
 90
        0
 91
        1
 62
     0
 92
       -2
340
0
 93
        0
 40
0.045
309
GRIDFORMAT_END
 95
        4
302
GRIDFORMAT
  1
GRIDFORMAT_BEGIN
 90
        0
 91
        1
 62
     0
 92
       -2
340
0
 93
        0
 40
0.045
309
GRIDFORMAT_END
 95
        8
302
GRIDFORMAT
  1
GRIDFORMAT_BEGIN
 90
        0
 91
        1
 62
     0
 92
       -2
340
0
 93
        0
 40
0.045
309
GRIDFORMAT_END
 95
       16
302
GRIDFORMAT
  1
GRIDFORMAT_BEGIN
 90
        0
 91
        1
 62
     0
 92
       -2
340
0
 93
        0
 40
0.045
309
GRIDFORMAT_END
 95
       32
302
GRIDFORMAT
  1
GRIDFORMAT_BEGIN
 90
        0
 91
        1
 62
     0
 92
       -2
340
0
 93
        0
 40
0.045
309
GRIDFORMAT_END
309
TABLEFORMAT_END
  1
CELLSTYLE_BEGIN
 90
        3
 91
        2
300
_DATA
309
CELLSTYLE_END
  0
XRECORD
  5
1650
102
{ACAD_REACTORS
330
1642
102
}
330
1642
100
AcDbXrecord
280
     1
102
ACAD_ROUNDTRIP_PRE2007_TABLESTYLE
 90
        4
 91
        0
  1

 92
        4
 93
        0
  2

 94
        4
 95
        0
  3

  0
ENDSEC
  0
EOF
