  0
SECTION
  2
HEADER
  9
$ACADVER
  1
AC1015
  9
$ACADMAINTVER
 70
    20
  9
$DWGCODEPAGE
  3
ANSI_1250
  9
$INSBASE
 10
0.0
 20
0.0
 30
0.0
  9
$EXTMIN
 10
5183.667123019317
 20
-1402.831588320376
 30
-0.0000000602163146
  9
$EXTMAX
 10
15386.60896702974
 20
12622.47904526199
 30
0.0000003705072322
  9
$LIMMIN
 10
0.0
 20
0.0
  9
$LIMMAX
 10
53600.0
 20
41400.0
  9
$ORTHOMODE
 70
     1
  9
$REGENMODE
 70
     1
  9
$FILLMODE
 70
     1
  9
$QTEXTMODE
 70
     0
  9
$MIRRTEXT
 70
     0
  9
$LTSCALE
 40
50.0
  9
$ATTMODE
 70
     1
  9
$TEXTSIZE
 40
14.0
  9
$TRACEWID
 40
0.5
  9
$TEXTSTYLE
  7
RomanS
  9
$CLAYER
  8
0Wymiary-PL
  9
$CELTYPE
  6
ByLayer
  9
$CECOLOR
 62
   256
  9
$CELTSCALE
 40
1.0
  9
$DISPSILH
 70
     1
  9
$DIMSCALE
 40
1.0
  9
$DIMASZ
 40
30.0
  9
$DIMEXO
 40
43.0
  9
$DIMDLI
 40
0.0
  9
$DIMRND
 40
0.5
  9
$DIMDLE
 40
12.0
  9
$DIMEXE
 40
13.0
  9
$DIMTP
 40
0.0
  9
$DIMTM
 40
0.0
  9
$DIMTXT
 40
80.0
  9
$DIMCEN
 40
0.0
  9
$DIMTSZ
 40
0.0
  9
$DIMTOL
 70
     0
  9
$DIMLIM
 70
     0
  9
$DIMTIH
 70
     0
  9
$DIMTOH
 70
     0
  9
$DIMSE1
 70
     1
  9
$DIMSE2
 70
     1
  9
$DIMTAD
 70
     0
  9
$DIMZIN
 70
    12
  9
$DIMBLK
  1
B-DIM
  9
$DIMASO
 70
     1
  9
$DIMSHO
 70
     1
  9
$DIMPOST
  1

  9
$DIMAPOST
  1

  9
$DIMALT
 70
     0
  9
$DIMALTD
 70
     2
  9
$DIMALTF
 40
25.4
  9
$DIMLFAC
 40
1.0
  9
$DIMTOFL
 70
     1
  9
$DIMTVP
 40
1.0
  9
$DIMTIX
 70
     1
  9
$DIMSOXD
 70
     0
  9
$DIMSAH
 70
     0
  9
$DIMBLK1
  1

  9
$DIMBLK2
  1

  9
$DIMSTYLE
  2
500
  9
$DIMCLRD
 70
     1
  9
$DIMCLRE
 70
     1
  9
$DIMCLRT
 70
    10
  9
$DIMTFAC
 40
1.0
  9
$DIMGAP
 40
0.0
  9
$DIMJUST
 70
     0
  9
$DIMSD1
 70
     0
  9
$DIMSD2
 70
     0
  9
$DIMTOLJ
 70
     1
  9
$DIMTZIN
 70
     0
  9
$DIMALTZ
 70
     0
  9
$DIMALTTZ
 70
     0
  9
$DIMUPT
 70
     0
  9
$DIMDEC
 70
     1
  9
$DIMTDEC
 70
     1
  9
$DIMALTU
 70
     2
  9
$DIMALTTD
 70
     2
  9
$DIMTXSTY
  7
RomanS
  9
$DIMAUNIT
 70
     0
  9
$DIMADEC
 70
     0
  9
$DIMALTRND
 40
0.0
  9
$DIMAZIN
 70
     0
  9
$DIMDSEP
 70
    46
  9
$DIMATFIT
 70
     3
  9
$DIMFRAC
 70
     0
  9
$DIMLDRBLK
  1
B-DIM
  9
$DIMLUNIT
 70
     2
  9
$DIMLWD
 70
    -2
  9
$DIMLWE
 70
    -2
  9
$DIMTMOVE
 70
     2
  9
$LUNITS
 70
     2
  9
$LUPREC
 70
     3
  9
$SKETCHINC
 40
1.0
  9
$FILLETRAD
 40
0.0
  9
$AUNITS
 70
     0
  9
$AUPREC
 70
     2
  9
$MENU
  1
.
  9
$ELEVATION
 40
0.0
  9
$PELEVATION
 40
0.0
  9
$THICKNESS
 40
0.0
  9
$LIMCHECK
 70
     0
  9
$CHAMFERA
 40
30.0
  9
$CHAMFERB
 40
30.0
  9
$CHAMFERC
 40
0.0
  9
$CHAMFERD
 40
0.0
  9
$SKPOLY
 70
     0
  9
$TDCREATE
 40
2453112.609624132
  9
$TDUCREATE
 40
2453112.526290798
  9
$TDUPDATE
 40
2455065.412736898
  9
$TDUUPDATE
 40
2455065.329403565
  9
$TDINDWG
 40
5.5848532407
  9
$TDUSRTIMER
 40
5.5848532407
  9
$USRTIMER
 70
     1
  9
$ANGBASE
 50
0.0
  9
$ANGDIR
 70
     1
  9
$PDMODE
 70
     0
  9
$PDSIZE
 40
0.0
  9
$PLINEWID
 40
0.0
  9
$SPLFRAME
 70
     0
  9
$SPLINETYPE
 70
     6
  9
$SPLINESEGS
 70
     8
  9
$HANDSEED
  5
11E59
  9
$SURFTAB1
 70
     6
  9
$SURFTAB2
 70
     6
  9
$SURFTYPE
 70
     6
  9
$SURFU
 70
     6
  9
$SURFV
 70
     6
  9
$UCSBASE
  2

  9
$UCSNAME
  2

  9
$UCSORG
 10
0.0
 20
0.0
 30
0.0
  9
$UCSXDIR
 10
1.0
 20
0.0
 30
0.0
  9
$UCSYDIR
 10
0.0
 20
1.0
 30
0.0
  9
$UCSORTHOREF
  2

  9
$UCSORTHOVIEW
 70
     0
  9
$UCSORGTOP
 10
0.0
 20
0.0
 30
0.0
  9
$UCSORGBOTTOM
 10
0.0
 20
0.0
 30
0.0
  9
$UCSORGLEFT
 10
0.0
 20
0.0
 30
0.0
  9
$UCSORGRIGHT
 10
0.0
 20
0.0
 30
0.0
  9
$UCSORGFRONT
 10
0.0
 20
0.0
 30
0.0
  9
$UCSORGBACK
 10
0.0
 20
0.0
 30
0.0
  9
$PUCSBASE
  2

  9
$PUCSNAME
  2

  9
$PUCSORG
 10
0.0
 20
0.0
 30
0.0
  9
$PUCSXDIR
 10
1.0
 20
0.0
 30
0.0
  9
$PUCSYDIR
 10
0.0
 20
1.0
 30
0.0
  9
$PUCSORTHOREF
  2

  9
$PUCSORTHOVIEW
 70
     0
  9
$PUCSORGTOP
 10
0.0
 20
0.0
 30
0.0
  9
$PUCSORGBOTTOM
 10
0.0
 20
0.0
 30
0.0
  9
$PUCSORGLEFT
 10
0.0
 20
0.0
 30
0.0
  9
$PUCSORGRIGHT
 10
0.0
 20
0.0
 30
0.0
  9
$PUCSORGFRONT
 10
0.0
 20
0.0
 30
0.0
  9
$PUCSORGBACK
 10
0.0
 20
0.0
 30
0.0
  9
$USERI1
 70
     0
  9
$USERI2
 70
     0
  9
$USERI3
 70
     0
  9
$USERI4
 70
     0
  9
$USERI5
 70
     0
  9
$USERR1
 40
0.0
  9
$USERR2
 40
0.0
  9
$USERR3
 40
0.0
  9
$USERR4
 40
0.0
  9
$USERR5
 40
0.0
  9
$WORLDVIEW
 70
     1
  9
$SHADEDGE
 70
     3
  9
$SHADEDIF
 70
    70
  9
$TILEMODE
 70
     1
  9
$MAXACTVP
 70
    64
  9
$PINSBASE
 10
0.0
 20
0.0
 30
0.0
  9
$PLIMCHECK
 70
     0
  9
$PEXTMIN
 10
0.0
 20
0.0
 30
0.0
  9
$PEXTMAX
 10
826.0
 20
554.0
 30
0.0
  9
$PLIMMIN
 10
-5.793749809265136
 20
-17.79375076293945
  9
$PLIMMAX
 10
835.2062501907349
 20
576.2062492370605
  9
$UNITMODE
 70
     0
  9
$VISRETAIN
 70
     1
  9
$PLINEGEN
 70
     0
  9
$PSLTSCALE
 70
     0
  9
$TREEDEPTH
 70
  3020
  9
$CMLSTYLE
  2
Standard
  9
$CMLJUST
 70
     0
  9
$CMLSCALE
 40
20.0
  9
$PROXYGRAPHICS
 70
     0
  9
$MEASUREMENT
 70
     1
  9
$CELWEIGHT
370
    -1
  9
$ENDCAPS
280
     0
  9
$JOINSTYLE
280
     0
  9
$LWDISPLAY
290
     0
  9
$INSUNITS
 70
     4
  9
$HYPERLINKBASE
  1

  9
$STYLESHEET
  1
monochrome_140.ctb
  9
$XEDIT
290
     1
  9
$CEPSNTYPE
380
     0
  9
$PSTYLEMODE
290
     1
  9
$FINGERPRINTGUID
  2
{37B35CCD-F15F-49F8-90FB-7B73A2861210}
  9
$VERSIONGUID
  2
{60E50C9C-9B02-48FE-9A36-99C1E74D154E}
  9
$EXTNAMES
290
     1
  9
$PSVPSCALE
 40
0.0
  9
$OLESTARTUP
290
     0
  0
ENDSEC
  0
SECTION
  2
CLASSES
  0
CLASS
  1
ACDBDICTIONARYWDFLT
  2
AcDbDictionaryWithDefault
  3
ObjectDBX Classes
 90
        0
280
     0
281
     0
  0
CLASS
  1
ACDBPLACEHOLDER
  2
AcDbPlaceHolder
  3
ObjectDBX Classes
 90
        0
280
     0
281
     0
  0
CLASS
  1
LAYOUT
  2
AcDbLayout
  3
ObjectDBX Classes
 90
        0
280
     0
281
     0
  0
CLASS
  1
DICTIONARYVAR
  2
AcDbDictionaryVar
  3
ObjectDBX Classes
 90
        0
280
     0
281
     0
  0
CLASS
  1
AEC_DISP_REP_2D_SECTION
  2
AecDbDispRep2dSection
  3
AecBase50|Product Desc: Autodesk Architectural Desktop 2007 |Company: Autodesk,Inc. |WEB Address: www.autodesk.com
 90
      129
280
     0
281
     0
  0
CLASS
  1
AEC_DISP_PROPS_2D_SECTION
  2
AecDbDispProps2dSection
  3
AecBase50|Product Desc: Autodesk Architectural Desktop 2007 |Company: Autodesk,Inc. |WEB Address: www.autodesk.com
 90
      129
280
     0
281
     0
  0
CLASS
  1
AEC_DISP_REP_ANCHOR
  2
AecDbDispRepAnchor
  3
AecBase50|Product Desc: Autodesk Architectural Desktop 2007 |Company: Autodesk,Inc. |WEB Address: www.autodesk.com
 90
      129
280
     0
281
     0
  0
CLASS
  1
AEC_DISP_REP_ANCHOR_ENT_TO_NODE
  2
AecDbDispRepAnchorEntToNode
  3
AecBaseEx50|Product Desc: Autodesk Architectural Desktop 2007 |Company: Autodesk,Inc. |WEB Address: www.autodesk.com
 90
      129
280
     0
281
     0
  0
CLASS
  1
AEC_DISP_PROPS_ENT
  2
AecDbDispPropsEnt
  3
AecBase50|Product Desc: Autodesk Architectural Desktop 2007 |Company: Autodesk,Inc. |WEB Address: www.autodesk.com
 90
      129
280
     0
281
     0
  0
CLASS
  1
AEC_DISP_REP_CAMERA
  2
AecDbDispRepCamera
  3
AecBase50|Product Desc: Autodesk Architectural Desktop 2007 |Company: Autodesk,Inc. |WEB Address: www.autodesk.com
 90
    32897
280
     0
281
     0
  0
CLASS
  1
AEC_DISP_PROPS_CAMERA
  2
AecDbDispPropsCamera
  3
AecBase50|Product Desc: Autodesk Architectural Desktop 2007 |Company: Autodesk,Inc. |WEB Address: www.autodesk.com
 90
    32897
280
     0
281
     0
  0
CLASS
  1
AEC_DISP_REP_CLIP_VOLUME_MODEL
  2
AecDbDispRepClipVolModel
  3
AecBase50|Product Desc: Autodesk Architectural Desktop 2007 |Company: Autodesk,Inc. |WEB Address: www.autodesk.com
 90
      129
280
     0
281
     0
  0
CLASS
  1
AEC_DISP_PROPS_CLIP_VOLUME
  2
AecDbDispPropsClipVol
  3
AecBase50|Product Desc: Autodesk Architectural Desktop 2007 |Company: Autodesk,Inc. |WEB Address: www.autodesk.com
 90
      129
280
     0
281
     0
  0
CLASS
  1
AEC_DISP_REP_CLIP_VOLUME_PLAN
  2
AecDbDispRepClipVolPlan
  3
AecBase50|Product Desc: Autodesk Architectural Desktop 2007 |Company: Autodesk,Inc. |WEB Address: www.autodesk.com
 90
      129
280
     0
281
     0
  0
CLASS
  1
AEC_DISP_REP_CLIP_VOLUME_RESULT
  2
AecDbDispRepClipVolResult
  3
AecBase50|Product Desc: Autodesk Architectural Desktop 2007 |Company: Autodesk,Inc. |WEB Address: www.autodesk.com
 90
      129
280
     0
281
     0
  0
CLASS
  1
AEC_DISP_REP_CLIP_VOLUME_RESULT_SUBDIV
  2
AecDbDispRepClipVolResSubDiv
  3
AecBase50|Product Desc: Autodesk Architectural Desktop 2007 |Company: Autodesk,Inc. |WEB Address: www.autodesk.com
 90
      129
280
     0
281
     0
  0
CLASS
  1
AEC_DISP_PROPS_CLIP_VOLUME_RESULT
  2
AecDbDispPropsClipVolResSubDiv
  3
AecBase50|Product Desc: Autodesk Architectural Desktop 2007 |Company: Autodesk,Inc. |WEB Address: www.autodesk.com
 90
      129
280
     0
281
     0
  0
CLASS
  1
AEC_DISP_REP_ENT_REF
  2
AecDbDispRepEntRef
  3
AecBase50|Product Desc: Autodesk Architectural Desktop 2007 |Company: Autodesk,Inc. |WEB Address: www.autodesk.com
 90
      129
280
     0
281
     0
  0
CLASS
  1
AEC_DISP_PROPS_ENT_REF
  2
AecDbDispPropsEntRef
  3
AecBase50|Product Desc: Autodesk Architectural Desktop 2007 |Company: Autodesk,Inc. |WEB Address: www.autodesk.com
 90
      129
280
     0
281
     0
  0
CLASS
  1
AEC_DISP_REP_LAYOUT_CURVE
  2
AecDbDispRepLayoutCurve
  3
AecBase50|Product Desc: Autodesk Architectural Desktop 2007 |Company: Autodesk,Inc. |WEB Address: www.autodesk.com
 90
      129
280
     0
281
     0
  0
CLASS
  1
AEC_VARS_DWG_SETUP
  2
AecDbVarsDwgSetup
  3
AecBase50|Product Desc: Autodesk Architectural Desktop 2007 |Company: Autodesk,Inc. |WEB Address: www.autodesk.com
 90
      129
280
     0
281
     0
  0
CLASS
  1
AEC_DISP_PROPS_LAYOUT_CURVE
  2
AecDbDispPropsLayoutCurve
  3
AecBase50|Product Desc: Autodesk Architectural Desktop 2007 |Company: Autodesk,Inc. |WEB Address: www.autodesk.com
 90
      129
280
     0
281
     0
  0
CLASS
  1
AEC_DISP_REP_LAYOUT_GRID2D
  2
AecDbDispRepLayoutGrid2d
  3
AecBase50|Product Desc: Autodesk Architectural Desktop 2007 |Company: Autodesk,Inc. |WEB Address: www.autodesk.com
 90
      129
280
     0
281
     0
  0
CLASS
  1
AEC_DISP_PROPS_LAYOUT_GRID2D
  2
AecDbDispPropsLayoutGrid2d
  3
AecBase50|Product Desc: Autodesk Architectural Desktop 2007 |Company: Autodesk,Inc. |WEB Address: www.autodesk.com
 90
      129
280
     0
281
     0
  0
CLASS
  1
AEC_DISP_REP_LAYOUT_GRID3D
  2
AecDbDispRepLayoutGrid3d
  3
AecBase50|Product Desc: Autodesk Architectural Desktop 2007 |Company: Autodesk,Inc. |WEB Address: www.autodesk.com
 90
      129
280
     0
281
     0
  0
CLASS
  1
AEC_DISP_PROPS_LAYOUT_GRID3D
  2
AecDbDispPropsLayoutGrid3d
  3
AecBase50|Product Desc: Autodesk Architectural Desktop 2007 |Company: Autodesk,Inc. |WEB Address: www.autodesk.com
 90
      129
280
     0
281
     0
  0
CLASS
  1
AEC_DISP_REP_MASKBLOCK_REF
  2
AecDbDispRepMaskBlockRef
  3
AecBase50|Product Desc: Autodesk Architectural Desktop 2007 |Company: Autodesk,Inc. |WEB Address: www.autodesk.com
 90
      129
280
     0
281
     0
  0
CLASS
  1
AEC_DISP_PROPS_MASKBLOCK
  2
AecDbDispPropsMaskBlock
  3
AecBase50|Product Desc: Autodesk Architectural Desktop 2007 |Company: Autodesk,Inc. |WEB Address: www.autodesk.com
 90
      129
280
     0
281
     0
  0
CLASS
  1
AEC_DISP_REP_MASS_ELEM_MODEL
  2
AecDbDispRepMassElemModel
  3
AecBaseEx50|Product Desc: Autodesk Architectural Desktop 2007 |Company: Autodesk,Inc. |WEB Address: www.autodesk.com
 90
      129
280
     0
281
     0
  0
CLASS
  1
AEC_DISP_PROPS_MASS_ELEM_MODEL
  2
AecDbDispPropsMassElem
  3
AecBaseEx50|Product Desc: Autodesk Architectural Desktop 2007 |Company: Autodesk,Inc. |WEB Address: www.autodesk.com
 90
      129
280
     0
281
     0
  0
CLASS
  1
AEC_DISP_REP_MASS_ELEM_SCHEM
  2
AecDbDispRepMassElemSchem
  3
AecBaseEx50|Product Desc: Autodesk Architectural Desktop 2007 |Company: Autodesk,Inc. |WEB Address: www.autodesk.com
 90
      129
280
     0
281
     0
  0
CLASS
  1
AEC_DISP_REP_MASS_GROUP_MODEL
  2
AecDbDispRepMassGroupModel
  3
AecBaseEx50|Product Desc: Autodesk Architectural Desktop 2007 |Company: Autodesk,Inc. |WEB Address: www.autodesk.com
 90
      129
280
     0
281
     0
  0
CLASS
  1
AEC_DISP_PROPS_MASS_GROUP
  2
AecDbDispPropsMassGroup
  3
AecBaseEx50|Product Desc: Autodesk Architectural Desktop 2007 |Company: Autodesk,Inc. |WEB Address: www.autodesk.com
 90
      129
280
     0
281
     0
  0
CLASS
  1
AEC_DISP_REP_MASS_GROUP_PLAN
  2
AecDbDispRepMassGroupPlan
  3
AecBaseEx50|Product Desc: Autodesk Architectural Desktop 2007 |Company: Autodesk,Inc. |WEB Address: www.autodesk.com
 90
      129
280
     0
281
     0
  0
CLASS
  1
AEC_DISP_REP_MVBLOCK_REF
  2
AecDbDispRepMvBlockRef
  3
AecBase50|Product Desc: Autodesk Architectural Desktop 2007 |Company: Autodesk,Inc. |WEB Address: www.autodesk.com
 90
      129
280
     0
281
     0
  0
CLASS
  1
AEC_DISP_REP_MVBLOCK_REF_MODEL
  2
AecDbDispRepMvBlockRefModel
  3
AecBase50|Product Desc: Autodesk Architectural Desktop 2007 |Company: Autodesk,Inc. |WEB Address: www.autodesk.com
 90
      129
280
     0
281
     0
  0
CLASS
  1
AEC_DISP_REP_POLYGON_MODEL
  2
AecDbDispRepPolygonModel
  3
AecBaseEx50|Product Desc: Autodesk Architectural Desktop 2007 |Company: Autodesk,Inc. |WEB Address: www.autodesk.com
 90
      129
280
     0
281
     0
  0
CLASS
  1
AEC_DISP_PROPS_POLYGON_MODEL
  2
AecDbDispPropsPolygonModel
  3
AecBaseEx50|Product Desc: Autodesk Architectural Desktop 2007 |Company: Autodesk,Inc. |WEB Address: www.autodesk.com
 90
      129
280
     0
281
     0
  0
CLASS
  1
AEC_DISP_REP_POLYGON_TRUECOLOUR
  2
AecDbDispRepPolygonTrueColour
  3
AecBaseEx50|Product Desc: Autodesk Architectural Desktop 2007 |Company: Autodesk,Inc. |WEB Address: www.autodesk.com
 90
      129
280
     0
281
     0
  0
CLASS
  1
AEC_DISP_PROPS_POLYGON_TRUECOLOUR
  2
AecDbDispPropsPolygonTrueColour
  3
AecBaseEx50|Product Desc: Autodesk Architectural Desktop 2007 |Company: Autodesk,Inc. |WEB Address: www.autodesk.com
 90
      129
280
     0
281
     0
  0
CLASS
  1
AEC_DISP_REP_SLICE
  2
AecDbDispRepSlice
  3
AecBase50|Product Desc: Autodesk Architectural Desktop 2007 |Company: Autodesk,Inc. |WEB Address: www.autodesk.com
 90
      129
280
     0
281
     0
  0
CLASS
  1
AEC_DISP_PROPS_SLICE
  2
AecDbDispPropsSlice
  3
AecBase50|Product Desc: Autodesk Architectural Desktop 2007 |Company: Autodesk,Inc. |WEB Address: www.autodesk.com
 90
      129
280
     0
281
     0
  0
CLASS
  1
AEC_DISP_REP_ANCHOR_BUB_TO_GRID
  2
AecDbDispRepAnchorBubToGrid
  3
AecStructureBase50|Product Desc: Autodesk Architectural Desktop 2007 |Company: Autodesk,Inc. |WEB Address: www.autodesk.com
 90
      129
280
     0
281
     0
  0
CLASS
  1
AEC_DISP_REP_ANCHOR_BUB_TO_GRID_MODEL
  2
AecDbDispRepAnchorBubToGridMdl
  3
AecStructureBase50|Product Desc: Autodesk Architectural Desktop 2007 |Company: Autodesk,Inc. |WEB Address: www.autodesk.com
 90
      129
280
     0
281
     0
  0
CLASS
  1
AEC_DISP_REP_ANCHOR_BUB_TO_GRID_RCP
  2
AecDbDispRepAnchorBubToGridRcp
  3
AecStructureBase50|Product Desc: Autodesk Architectural Desktop 2007 |Company: Autodesk,Inc. |WEB Address: www.autodesk.com
 90
      129
280
     0
281
     0
  0
CLASS
  1
AEC_DISP_REP_BDG_ELEVLINE_MODEL
  2
AecDbDispRepBdgElevLineModel
  3
AecArchBase50|Product Desc: Autodesk Architectural Desktop 2007 |Company: Autodesk,Inc. |WEB Address: www.autodesk.com
 90
      129
280
     0
281
     0
  0
CLASS
  1
AEC_DISP_REP_BDG_SECTIONLINE_PLAN
  2
AecDbDispRepBdgElevLinePlan
  3
AecArchBase50|Product Desc: Autodesk Architectural Desktop 2007 |Company: Autodesk,Inc. |WEB Address: www.autodesk.com
 90
      129
280
     0
281
     0
  0
CLASS
  1
AEC_DISP_REP_BDG_ELEVLINE_RCP
  2
AecDbDispRepBdgElevLineRcp
  3
AecArchBase50|Product Desc: Autodesk Architectural Desktop 2007 |Company: Autodesk,Inc. |WEB Address: www.autodesk.com
 90
      129
280
     0
281
     0
  0
CLASS
  1
AEC_DISP_REP_BDG_SECTIONLINE_MODEL
  2
AecDbDispRepBdgSectionLineModel
  3
AecArchBase50|Product Desc: Autodesk Architectural Desktop 2007 |Company: Autodesk,Inc. |WEB Address: www.autodesk.com
 90
      129
280
     0
281
     0
  0
CLASS
  1
AEC_DISP_REP_BDG_SECTIONLINE_PLAN
  2
AecDbDispRepBdgSectionLinePlan
  3
AecArchBase50|Product Desc: Autodesk Architectural Desktop 2007 |Company: Autodesk,Inc. |WEB Address: www.autodesk.com
 90
      129
280
     0
281
     0
  0
CLASS
  1
AEC_DISP_REP_BDG_SECTIONLINE_RCP
  2
AecDbDispRepBdgSectionLineRcp
  3
AecArchBase50|Product Desc: Autodesk Architectural Desktop 2007 |Company: Autodesk,Inc. |WEB Address: www.autodesk.com
 90
      129
280
     0
281
     0
  0
CLASS
  1
AEC_DISP_REP_BDG_SECTION_MODEL
  2
AecDbDispRepBdgSectionModel
  3
AecArchBase50|Product Desc: Autodesk Architectural Desktop 2007 |Company: Autodesk,Inc. |WEB Address: www.autodesk.com
 90
      129
280
     0
281
     0
  0
CLASS
  1
AEC_DISP_REP_BDG_SECTION_SUBDIV
  2
AecDbDispRepBdgSectionSubDiv
  3
AecArchBase50|Product Desc: Autodesk Architectural Desktop 2007 |Company: Autodesk,Inc. |WEB Address: www.autodesk.com
 90
      129
280
     0
281
     0
  0
CLASS
  1
AEC_DISP_REP_CEILING_GRID
  2
AecDbDispRepCeilingGrid
  3
AecArchBase50|Product Desc: Autodesk Architectural Desktop 2007 |Company: Autodesk,Inc. |WEB Address: www.autodesk.com
 90
      893
280
     0
281
     0
  0
CLASS
  1
AEC_DISP_REP_CEILING_GRID_MODEL
  2
AecDbDispRepCeilingGridModel
  3
AecArchBase50|Product Desc: Autodesk Architectural Desktop 2007 |Company: Autodesk,Inc. |WEB Address: www.autodesk.com
 90
      129
280
     0
281
     0
  0
CLASS
  1
AEC_DISP_REP_CEILING_GRID_RCP
  2
AecDbDispRepCeilingGridRcp
  3
AecArchBase50|Product Desc: Autodesk Architectural Desktop 2007 |Company: Autodesk,Inc. |WEB Address: www.autodesk.com
 90
      129
280
     0
281
     0
  0
CLASS
  1
AEC_DISP_REP_COLUMN_GRID
  2
AecDbDispRepColumnGrid
  3
AecStructureBase50|Product Desc: Autodesk Architectural Desktop 2007 |Company: Autodesk,Inc. |WEB Address: www.autodesk.com
 90
      129
280
     0
281
     0
  0
CLASS
  1
AEC_DISP_REP_COLUMN_GRID_MODEL
  2
AecDbDispRepColumnGridModel
  3
AecStructureBase50|Product Desc: Autodesk Architectural Desktop 2007 |Company: Autodesk,Inc. |WEB Address: www.autodesk.com
 90
      129
280
     0
281
     0
  0
CLASS
  1
AEC_DISP_REP_COLUMN_GRID_RCP
  2
AecDbDispRepColumnGridRcp
  3
AecStructureBase50|Product Desc: Autodesk Architectural Desktop 2007 |Company: Autodesk,Inc. |WEB Address: www.autodesk.com
 90
      129
280
     0
281
     0
  0
CLASS
  1
AEC_DISP_REP_CURTAIN_WALL_LAYOUT_MODEL
  2
AecDbDispRepCurtainWallLayoutModel
  3
AecArchBase50|Product Desc: Autodesk Architectural Desktop 2007 |Company: Autodesk,Inc. |WEB Address: www.autodesk.com
 90
      129
280
     0
281
     0
  0
CLASS
  1
AEC_DISP_PROPS_GRID_ASSEMBLY_MODEL
  2
AecDbDispPropsGridAssemblyModel
  3
AecArchBase50|Product Desc: Autodesk Architectural Desktop 2007 |Company: Autodesk,Inc. |WEB Address: www.autodesk.com
 90
      129
280
     0
281
     0
  0
CLASS
  1
AEC_DISP_REP_CURTAIN_WALL_LAYOUT_PLAN
  2
AecDbDispRepCurtainWallLayoutPlan
  3
AecArchBase50|Product Desc: Autodesk Architectural Desktop 2007 |Company: Autodesk,Inc. |WEB Address: www.autodesk.com
 90
      129
280
     0
281
     0
  0
CLASS
  1
AEC_DISP_PROPS_GRID_ASSEMBLY_PLAN
  2
AecDbDispPropsGridAssemblyPlan
  3
AecArchBase50|Product Desc: Autodesk Architectural Desktop 2007 |Company: Autodesk,Inc. |WEB Address: www.autodesk.com
 90
      129
280
     0
281
     0
  0
CLASS
  1
AEC_DISP_REP_CURTAIN_WALL_UNIT_MODEL
  2
AecDbDispRepCurtainWallUnitModel
  3
AecArchBase50|Product Desc: Autodesk Architectural Desktop 2007 |Company: Autodesk,Inc. |WEB Address: www.autodesk.com
 90
      129
280
     0
281
     0
  0
CLASS
  1
AEC_DISP_REP_CURTAIN_WALL_UNIT_PLAN
  2
AecDbDispRepCurtainWallUnitPlan
  3
AecArchBase50|Product Desc: Autodesk Architectural Desktop 2007 |Company: Autodesk,Inc. |WEB Address: www.autodesk.com
 90
      129
280
     0
281
     0
  0
CLASS
  1
AEC_DISP_REP_DOOR_MODEL
  2
AecDbDispRepDoorModel
  3
AecArchBase50|Product Desc: Autodesk Architectural Desktop 2007 |Company: Autodesk,Inc. |WEB Address: www.autodesk.com
 90
      129
280
     0
281
     0
  0
CLASS
  1
AEC_DISP_PROPS_DOOR
  2
AecDbDispPropsDoor
  3
AecArchBase50|Product Desc: Autodesk Architectural Desktop 2007 |Company: Autodesk,Inc. |WEB Address: www.autodesk.com
 90
      129
280
     0
281
     0
  0
CLASS
  1
AEC_DISP_REP_DOOR_ELEV
  2
AecDbDispRepDoorElev
  3
AecArchBase50|Product Desc: Autodesk Architectural Desktop 2007 |Company: Autodesk,Inc. |WEB Address: www.autodesk.com
 90
      129
280
     0
281
     0
  0
CLASS
  1
AEC_DISP_REP_DOOR_PLAN
  2
AecDbDispRepDoorPlan
  3
AecArchBase50|Product Desc: Autodesk Architectural Desktop 2007 |Company: Autodesk,Inc. |WEB Address: www.autodesk.com
 90
      129
280
     0
281
     0
  0
CLASS
  1
AEC_DISP_REP_DOOR_NOMINAL
  2
AecDbDispRepDoorNominal
  3
AecArchBase50|Product Desc: Autodesk Architectural Desktop 2007 |Company: Autodesk,Inc. |WEB Address: www.autodesk.com
 90
      129
280
     0
281
     0
  0
CLASS
  1
AEC_DISP_PROPS_DOOR_NOMINAL
  2
AecDbDispPropsDoorNominal
  3
AecArchBase50|Product Desc: Autodesk Architectural Desktop 2007 |Company: Autodesk,Inc. |WEB Address: www.autodesk.com
 90
      129
280
     0
281
     0
  0
CLASS
  1
AEC_DISP_REP_DOOR_RCP
  2
AecDbDispRepDoorRcp
  3
AecArchBase50|Product Desc: Autodesk Architectural Desktop 2007 |Company: Autodesk,Inc. |WEB Address: www.autodesk.com
 90
      129
280
     0
281
     0
  0
CLASS
  1
AEC_DISP_REP_DOOR_THRESHOLD_PLAN
  2
AecDbDispRepDoorThresholdPlan
  3
AecArchBase50|Product Desc: Autodesk Architectural Desktop 2007 |Company: Autodesk,Inc. |WEB Address: www.autodesk.com
 90
      129
280
     0
281
     0
  0
CLASS
  1
AEC_DISP_PROPS_DOOR_THRESHOLD_PLAN
  2
AecDbDispPropsDoorThresholdPlan
  3
AecArchBase50|Product Desc: Autodesk Architectural Desktop 2007 |Company: Autodesk,Inc. |WEB Address: www.autodesk.com
 90
      129
280
     0
281
     0
  0
CLASS
  1
AEC_DISP_REP_MASKBLOCK_REF_RCP
  2
AecDbDispRepMaskBlockRefRcp
  3
AecArchBase50|Product Desc: Autodesk Architectural Desktop 2007 |Company: Autodesk,Inc. |WEB Address: www.autodesk.com
 90
      129
280
     0
281
     0
  0
CLASS
  1
AEC_DISP_REP_MASS_ELEM_RCP
  2
AecDbDispRepMassElemRcp
  3
AecArchBase50|Product Desc: Autodesk Architectural Desktop 2007 |Company: Autodesk,Inc. |WEB Address: www.autodesk.com
 90
      129
280
     0
281
     0
  0
CLASS
  1
AEC_DISP_REP_MASS_GROUP_RCP
  2
AecDbDispRepMassGroupRcp
  3
AecArchBase50|Product Desc: Autodesk Architectural Desktop 2007 |Company: Autodesk,Inc. |WEB Address: www.autodesk.com
 90
      129
280
     0
281
     0
  0
CLASS
  1
AEC_DISP_REP_MVBLOCK_REF_RCP
  2
AecDbDispRepMvBlockRefRcp
  3
AecArchBase50|Product Desc: Autodesk Architectural Desktop 2007 |Company: Autodesk,Inc. |WEB Address: www.autodesk.com
 90
      129
280
     0
281
     0
  0
CLASS
  1
AEC_DISP_REP_OPENING
  2
AecDbDispRepOpening
  3
AecArchBase50|Product Desc: Autodesk Architectural Desktop 2007 |Company: Autodesk,Inc. |WEB Address: www.autodesk.com
 90
      129
280
     0
281
     0
  0
CLASS
  1
AEC_DISP_PROPS_OPENING
  2
AecDbDispPropsOpening
  3
AecArchBase50|Product Desc: Autodesk Architectural Desktop 2007 |Company: Autodesk,Inc. |WEB Address: www.autodesk.com
 90
      129
280
     0
281
     0
  0
CLASS
  1
AEC_DISP_REP_OPENING_MODEL
  2
AecDbDispRepOpeningModel
  3
AecArchBase50|Product Desc: Autodesk Architectural Desktop 2007 |Company: Autodesk,Inc. |WEB Address: www.autodesk.com
 90
      129
280
     0
281
     0
  0
CLASS
  1
AEC_DISP_REP_RAILING_MODEL
  2
AecDbDispRepRailingModel
  3
AecArchBase50|Product Desc: Autodesk Architectural Desktop 2007 |Company: Autodesk,Inc. |WEB Address: www.autodesk.com
 90
      129
280
     0
281
     0
  0
CLASS
  1
AEC_DISP_PROPS_RAILING_MODEL
  2
AecDbDispPropsRailingModel
  3
AecArchBase50|Product Desc: Autodesk Architectural Desktop 2007 |Company: Autodesk,Inc. |WEB Address: www.autodesk.com
 90
      129
280
     0
281
     0
  0
CLASS
  1
AEC_DISP_REP_RAILING_PLAN
  2
AecDbDispRepRailingPlan
  3
AecArchBase50|Product Desc: Autodesk Architectural Desktop 2007 |Company: Autodesk,Inc. |WEB Address: www.autodesk.com
 90
      129
280
     0
281
     0
  0
CLASS
  1
AEC_DISP_PROPS_RAILING_PLAN
  2
AecDbDispPropsRailingPlan
  3
AecArchBase50|Product Desc: Autodesk Architectural Desktop 2007 |Company: Autodesk,Inc. |WEB Address: www.autodesk.com
 90
      129
280
     0
281
     0
  0
CLASS
  1
AEC_DISP_REP_ROOF_MODEL
  2
AecDbDispRepRoofModel
  3
AecArchBase50|Product Desc: Autodesk Architectural Desktop 2007 |Company: Autodesk,Inc. |WEB Address: www.autodesk.com
 90
      129
280
     0
281
     0
  0
CLASS
  1
AEC_DISP_PROPS_ROOF
  2
AecDbDispPropsRoof
  3
AecArchBase50|Product Desc: Autodesk Architectural Desktop 2007 |Company: Autodesk,Inc. |WEB Address: www.autodesk.com
 90
      129
280
     0
281
     0
  0
CLASS
  1
AEC_DISP_REP_ROOF_PLAN
  2
AecDbDispRepRoofPlan
  3
AecArchBase50|Product Desc: Autodesk Architectural Desktop 2007 |Company: Autodesk,Inc. |WEB Address: www.autodesk.com
 90
      129
280
     0
281
     0
  0
CLASS
  1
AEC_DISP_REP_ROOF_RCP
  2
AecDbDispRepRoofRcp
  3
AecArchBase50|Product Desc: Autodesk Architectural Desktop 2007 |Company: Autodesk,Inc. |WEB Address: www.autodesk.com
 90
      129
280
     0
281
     0
  0
CLASS
  1
AEC_DISP_REP_SLAB_MODEL
  2
AecDbDispRepSlabModel
  3
AecArchBase50|Product Desc: Autodesk Architectural Desktop 2007 |Company: Autodesk,Inc. |WEB Address: www.autodesk.com
 90
      129
280
     0
281
     0
  0
CLASS
  1
AEC_DISP_PROPS_SLAB
  2
AecDbDispPropsSlab
  3
AecArchBase50|Product Desc: Autodesk Architectural Desktop 2007 |Company: Autodesk,Inc. |WEB Address: www.autodesk.com
 90
      129
280
     0
281
     0
  0
CLASS
  1
AEC_DISP_REP_ROOFSLAB_MODEL
  2
AecDbDispRepRoofSlabModel
  3
AecArchBase50|Product Desc: Autodesk Architectural Desktop 2007 |Company: Autodesk,Inc. |WEB Address: www.autodesk.com
 90
      129
280
     0
281
     0
  0
CLASS
  1
AEC_DISP_PROPS_ROOFSLAB
  2
AecDbDispPropsRoofSlab
  3
AecArchBase50|Product Desc: Autodesk Architectural Desktop 2007 |Company: Autodesk,Inc. |WEB Address: www.autodesk.com
 90
      129
280
     0
281
     0
  0
CLASS
  1
AEC_DISP_REP_SLAB_PLAN
  2
AecDbDispRepSlabPlan
  3
AecArchBase50|Product Desc: Autodesk Architectural Desktop 2007 |Company: Autodesk,Inc. |WEB Address: www.autodesk.com
 90
      129
280
     0
281
     0
  0
CLASS
  1
AEC_DISP_PROPS_SLAB_PLAN
  2
AecDbDispPropsSlabPlan
  3
AecArchBase50|Product Desc: Autodesk Architectural Desktop 2007 |Company: Autodesk,Inc. |WEB Address: www.autodesk.com
 90
      129
280
     0
281
     0
  0
CLASS
  1
AEC_DISP_REP_ROOFSLAB_PLAN
  2
AecDbDispRepRoofSlabPlan
  3
AecArchBase50|Product Desc: Autodesk Architectural Desktop 2007 |Company: Autodesk,Inc. |WEB Address: www.autodesk.com
 90
      129
280
     0
281
     0
  0
CLASS
  1
AEC_DISP_PROPS_ROOFSLAB_PLAN
  2
AecDbDispPropsRoofSlabPlan
  3
AecArchBase50|Product Desc: Autodesk Architectural Desktop 2007 |Company: Autodesk,Inc. |WEB Address: www.autodesk.com
 90
      129
280
     0
281
     0
  0
CLASS
  1
AEC_DISP_REP_SPACE_BOUNDARY_DIAGRAM
  2
AecDbDispRepSpaceBoundaryDgrm
  3
AecArchBase50|Product Desc: Autodesk Architectural Desktop 2007 |Company: Autodesk,Inc. |WEB Address: www.autodesk.com
 90
    32897
280
     0
281
     0
  0
CLASS
  1
AEC_DISP_REP_SPACE_BOUNDARY_MODEL
  2
AecDbDispRepSpaceBoundaryModel
  3
AecArchBase50|Product Desc: Autodesk Architectural Desktop 2007 |Company: Autodesk,Inc. |WEB Address: www.autodesk.com
 90
    32897
280
     0
281
     0
  0
CLASS
  1
AEC_DISP_REP_SPACE_BOUNDARY_PLAN
  2
AecDbDispRepSpaceBoundaryPlan
  3
AecArchBase50|Product Desc: Autodesk Architectural Desktop 2007 |Company: Autodesk,Inc. |WEB Address: www.autodesk.com
 90
    32897
280
     0
281
     0
  0
CLASS
  1
AEC_DISP_REP_SPACE_BOUNDARY_SCHEM
  2
AecDbDispRepSpaceBoundarySketch
  3
AecArchBase50|Product Desc: Autodesk Architectural Desktop 2007 |Company: Autodesk,Inc. |WEB Address: www.autodesk.com
 90
    32897
280
     0
281
     0
  0
CLASS
  1
AEC_DISP_REP_SPACE_MODEL
  2
AecDbDispRepSpaceModel
  3
AecArchBase50|Product Desc: Autodesk Architectural Desktop 2007 |Company: Autodesk,Inc. |WEB Address: www.autodesk.com
 90
      129
280
     0
281
     0
  0
CLASS
  1
AEC_DISP_PROPS_SPACE_MODEL
  2
AecDbDispPropsSpaceModel
  3
AecArchBase50|Product Desc: Autodesk Architectural Desktop 2007 |Company: Autodesk,Inc. |WEB Address: www.autodesk.com
 90
      129
280
     0
281
     0
  0
CLASS
  1
AEC_DISP_REP_SPACE_PLAN
  2
AecDbDispRepSpacePlan
  3
AecArchBase50|Product Desc: Autodesk Architectural Desktop 2007 |Company: Autodesk,Inc. |WEB Address: www.autodesk.com
 90
      129
280
     0
281
     0
  0
CLASS
  1
AEC_DISP_PROPS_SPACE_PLAN
  2
AecDbDispPropsSpacePlan
  3
AecArchBase50|Product Desc: Autodesk Architectural Desktop 2007 |Company: Autodesk,Inc. |WEB Address: www.autodesk.com
 90
      129
280
     0
281
     0
  0
CLASS
  1
AEC_DISP_REP_SPACE_RCP
  2
AecDbDispRepSpaceRcp
  3
AecArchBase50|Product Desc: Autodesk Architectural Desktop 2007 |Company: Autodesk,Inc. |WEB Address: www.autodesk.com
 90
      129
280
     0
281
     0
  0
CLASS
  1
AEC_DISP_REP_SPACE_VOLUME
  2
AecDbDispRepSpaceVolume
  3
AecArchBase50|Product Desc: Autodesk Architectural Desktop 2007 |Company: Autodesk,Inc. |WEB Address: www.autodesk.com
 90
      129
280
     0
281
     0
  0
CLASS
  1
AEC_DISP_REP_STAIR_MODEL
  2
AecDbDispRepStairModel
  3
AecArchBase50|Product Desc: Autodesk Architectural Desktop 2007 |Company: Autodesk,Inc. |WEB Address: www.autodesk.com
 90
      129
280
     0
281
     0
  0
CLASS
  1
AEC_DISP_PROPS_STAIR_MODEL
  2
AecDbDispPropsStairModel
  3
AecArchBase50|Product Desc: Autodesk Architectural Desktop 2007 |Company: Autodesk,Inc. |WEB Address: www.autodesk.com
 90
      129
280
     0
281
     0
  0
CLASS
  1
AEC_DISP_REP_STAIR_PLAN
  2
AecDbDispRepStairPlan
  3
AecArchBase50|Product Desc: Autodesk Architectural Desktop 2007 |Company: Autodesk,Inc. |WEB Address: www.autodesk.com
 90
      129
280
     0
281
     0
  0
CLASS
  1
AEC_DISP_PROPS_STAIR_PLAN
  2
AecDbDispPropsStairPlan
  3
AecArchBase50|Product Desc: Autodesk Architectural Desktop 2007 |Company: Autodesk,Inc. |WEB Address: www.autodesk.com
 90
      129
280
     0
281
     0
  0
CLASS
  1
AEC_DISP_REP_STAIR_RCP
  2
AecDbDispRepStairRcp
  3
AecArchBase50|Product Desc: Autodesk Architectural Desktop 2007 |Company: Autodesk,Inc. |WEB Address: www.autodesk.com
 90
      129
280
     0
281
     0
  0
CLASS
  1
AEC_DISP_REP_WALL_GRAPH
  2
AecDbDispRepWallGraph
  3
AecArchBase50|Product Desc: Autodesk Architectural Desktop 2007 |Company: Autodesk,Inc. |WEB Address: www.autodesk.com
 90
      129
280
     0
281
     0
  0
CLASS
  1
AEC_DISP_PROPS_WALL_GRAPH
  2
AecDbDispPropsWallGraph
  3
AecArchBase50|Product Desc: Autodesk Architectural Desktop 2007 |Company: Autodesk,Inc. |WEB Address: www.autodesk.com
 90
      129
280
     0
281
     0
  0
CLASS
  1
AEC_DISP_REP_WALL_MODEL
  2
AecDbDispRepWallModel
  3
AecArchBase50|Product Desc: Autodesk Architectural Desktop 2007 |Company: Autodesk,Inc. |WEB Address: www.autodesk.com
 90
      129
280
     0
281
     0
  0
CLASS
  1
AEC_DISP_PROPS_WALL
  2
AecDbDispPropsWall
  3
AecArchBase50|Product Desc: Autodesk Architectural Desktop 2007 |Company: Autodesk,Inc. |WEB Address: www.autodesk.com
 90
    32897
280
     0
281
     0
  0
CLASS
  1
AEC_DISP_REP_WALL_PLAN
  2
AecDbDispRepWallPlan
  3
AecArchBase50|Product Desc: Autodesk Architectural Desktop 2007 |Company: Autodesk,Inc. |WEB Address: www.autodesk.com
 90
      129
280
     0
281
     0
  0
CLASS
  1
AEC_DISP_PROPS_WALL_PLAN
  2
AecDbDispPropsWallPlan
  3
AecArchBase50|Product Desc: Autodesk Architectural Desktop 2007 |Company: Autodesk,Inc. |WEB Address: www.autodesk.com
 90
      129
280
     0
281
     0
  0
CLASS
  1
AEC_DISP_REP_WALL_RCP
  2
AecDbDispRepWallRcp
  3
AecArchBase50|Product Desc: Autodesk Architectural Desktop 2007 |Company: Autodesk,Inc. |WEB Address: www.autodesk.com
 90
      129
280
     0
281
     0
  0
CLASS
  1
AEC_DISP_REP_WALL_SCHEM
  2
AecDbDispRepWallSchem
  3
AecArchBase50|Product Desc: Autodesk Architectural Desktop 2007 |Company: Autodesk,Inc. |WEB Address: www.autodesk.com
 90
      129
280
     0
281
     0
  0
CLASS
  1
AEC_DISP_PROPS_WALL_SCHEM
  2
AecDbDispPropsWallSchem
  3
AecArchBase50|Product Desc: Autodesk Architectural Desktop 2007 |Company: Autodesk,Inc. |WEB Address: www.autodesk.com
 90
      129
280
     0
281
     0
  0
CLASS
  1
AEC_DISP_REP_WINDOW_ASSEMBLY_MODEL
  2
AecDbDispRepWindowAssemblyModel
  3
AecArchBase50|Product Desc: Autodesk Architectural Desktop 2007 |Company: Autodesk,Inc. |WEB Address: www.autodesk.com
 90
      129
280
     0
281
     0
  0
CLASS
  1
AEC_DISP_REP_WINDOW_ASSEMBLY_PLAN
  2
AecDbDispRepWindowAssemblyPlan
  3
AecArchBase50|Product Desc: Autodesk Architectural Desktop 2007 |Company: Autodesk,Inc. |WEB Address: www.autodesk.com
 90
      129
280
     0
281
     0
  0
CLASS
  1
AEC_DISP_REP_WINDOW_MODEL
  2
AecDbDispRepWindowModel
  3
AecArchBase50|Product Desc: Autodesk Architectural Desktop 2007 |Company: Autodesk,Inc. |WEB Address: www.autodesk.com
 90
      129
280
     0
281
     0
  0
CLASS
  1
AEC_DISP_PROPS_WINDOW
  2
AecDbDispPropsWindow
  3
AecArchBase50|Product Desc: Autodesk Architectural Desktop 2007 |Company: Autodesk,Inc. |WEB Address: www.autodesk.com
 90
      129
280
     0
281
     0
  0
CLASS
  1
AEC_DISP_REP_WINDOW_ELEV
  2
AecDbDispRepWindowElev
  3
AecArchBase50|Product Desc: Autodesk Architectural Desktop 2007 |Company: Autodesk,Inc. |WEB Address: www.autodesk.com
 90
      129
280
     0
281
     0
  0
CLASS
  1
AEC_DISP_REP_WINDOW_PLAN
  2
AecDbDispRepWindowPlan
  3
AecArchBase50|Product Desc: Autodesk Architectural Desktop 2007 |Company: Autodesk,Inc. |WEB Address: www.autodesk.com
 90
      129
280
     0
281
     0
  0
CLASS
  1
AEC_DISP_REP_WINDOW_NOMINAL
  2
AecDbDispRepWindowNominal
  3
AecArchBase50|Product Desc: Autodesk Architectural Desktop 2007 |Company: Autodesk,Inc. |WEB Address: www.autodesk.com
 90
      129
280
     0
281
     0
  0
CLASS
  1
AEC_DISP_PROPS_WINDOW_NOMINAL
  2
AecDbDispPropsWindowNominal
  3
AecArchBase50|Product Desc: Autodesk Architectural Desktop 2007 |Company: Autodesk,Inc. |WEB Address: www.autodesk.com
 90
      129
280
     0
281
     0
  0
CLASS
  1
AEC_DISP_REP_WINDOW_RCP
  2
AecDbDispRepWindowRcp
  3
AecArchBase50|Product Desc: Autodesk Architectural Desktop 2007 |Company: Autodesk,Inc. |WEB Address: www.autodesk.com
 90
      129
280
     0
281
     0
  0
CLASS
  1
AEC_DISP_REP_WINDOW_SILL_PLAN
  2
AecDbDispRepWindowSillPlan
  3
AecArchBase50|Product Desc: Autodesk Architectural Desktop 2007 |Company: Autodesk,Inc. |WEB Address: www.autodesk.com
 90
      129
280
     0
281
     0
  0
CLASS
  1
AEC_DISP_PROPS_WINDOW_SILL_PLAN
  2
AecDbDispPropsWindowSillPlan
  3
AecArchBase50|Product Desc: Autodesk Architectural Desktop 2007 |Company: Autodesk,Inc. |WEB Address: www.autodesk.com
 90
      129
280
     0
281
     0
  0
CLASS
  1
AEC_DISP_REP_ANCHOR_TAG_TO_ENT
  2
AecDbDispRepAnchorTagToEnt
  3
AecScheduleData50|Product Desc: Autodesk Architectural Desktop 2007 |Company: Autodesk,Inc. |WEB Address: www.autodesk.com
 90
      129
280
     0
281
     0
  0
CLASS
  1
AECS_DISP_REP_MEMBER_ELEVATION_DESIGN
  2
AecsDbDispRepMemberElevationDesign
  3
AecStructureBase50|Product Desc: Autodesk Architectural Desktop 2007 |Company: Autodesk,Inc. |WEB Address: www.autodesk.com
 90
      129
280
     0
281
     0
  0
CLASS
  1
AECS_DISP_PROPS_MEMBER_PROJECTED
  2
AecsDbDispPropsMemberProjected
  3
AecStructureBase50|Product Desc: Autodesk Architectural Desktop 2007 |Company: Autodesk,Inc. |WEB Address: www.autodesk.com
 90
      129
280
     0
281
     0
  0
CLASS
  1
AECS_DISP_REP_MEMBER_ELEVATION_DETAIL
  2
AecsDbDispRepMemberElevationDetail
  3
AecStructureBase50|Product Desc: Autodesk Architectural Desktop 2007 |Company: Autodesk,Inc. |WEB Address: www.autodesk.com
 90
      129
280
     0
281
     0
  0
CLASS
  1
AECS_DISP_REP_MEMBER_LOGICAL
  2
AecsDbDispRepMemberLogical
  3
AecStructureBase50|Product Desc: Autodesk Architectural Desktop 2007 |Company: Autodesk,Inc. |WEB Address: www.autodesk.com
 90
      129
280
     0
281
     0
  0
CLASS
  1
AECS_DISP_PROPS_MEMBER_LOGICAL
  2
AecsDbDispPropsMemberLogical
  3
AecStructureBase50|Product Desc: Autodesk Architectural Desktop 2007 |Company: Autodesk,Inc. |WEB Address: www.autodesk.com
 90
      129
280
     0
281
     0
  0
CLASS
  1
AECS_DISP_REP_MEMBER_MODEL_DESIGN
  2
AecsDbDispRepMemberModelDesign
  3
AecStructureBase50|Product Desc: Autodesk Architectural Desktop 2007 |Company: Autodesk,Inc. |WEB Address: www.autodesk.com
 90
      129
280
     0
281
     0
  0
CLASS
  1
AECS_DISP_PROPS_MEMBER
  2
AecsDbDispPropsMember
  3
AecStructureBase50|Product Desc: Autodesk Architectural Desktop 2007 |Company: Autodesk,Inc. |WEB Address: www.autodesk.com
 90
      129
280
     0
281
     0
  0
CLASS
  1
AECS_DISP_REP_MEMBER_MODEL_DETAIL
  2
AecsDbDispRepMemberModelDetail
  3
AecStructureBase50|Product Desc: Autodesk Architectural Desktop 2007 |Company: Autodesk,Inc. |WEB Address: www.autodesk.com
 90
      129
280
     0
281
     0
  0
CLASS
  1
AECS_DISP_REP_MEMBER_PLAN_DESIGN
  2
AecsDbDispRepMemberPlanDesign
  3
AecStructureBase50|Product Desc: Autodesk Architectural Desktop 2007 |Company: Autodesk,Inc. |WEB Address: www.autodesk.com
 90
      129
280
     0
281
     0
  0
CLASS
  1
AECS_DISP_PROPS_MEMBER_PLAN
  2
AecsDbDispPropsMemberPlan
  3
AecStructureBase50|Product Desc: Autodesk Architectural Desktop 2007 |Company: Autodesk,Inc. |WEB Address: www.autodesk.com
 90
      129
280
     0
281
     0
  0
CLASS
  1
AECS_DISP_REP_MEMBER_PLAN_DETAIL
  2
AecsDbDispRepMemberPlanDetail
  3
AecStructureBase50|Product Desc: Autodesk Architectural Desktop 2007 |Company: Autodesk,Inc. |WEB Address: www.autodesk.com
 90
      129
280
     0
281
     0
  0
CLASS
  1
AECS_DISP_REP_MEMBER_PLAN_SKETCH
  2
AecsDbDispRepMemberPlanSketch
  3
AecStructureBase50|Product Desc: Autodesk Architectural Desktop 2007 |Company: Autodesk,Inc. |WEB Address: www.autodesk.com
 90
      129
280
     0
281
     0
  0
CLASS
  1
AECS_DISP_PROPS_MEMBER_PLAN_SKETCH
  2
AecsDbDispPropsMemberPlanSketch
  3
AecStructureBase50|Product Desc: Autodesk Architectural Desktop 2007 |Company: Autodesk,Inc. |WEB Address: www.autodesk.com
 90
      129
280
     0
281
     0
  0
CLASS
  1
AEC_DISP_REP_SCHEDULE_TABLE
  2
AecDbDispRepScheduleTable
  3
AecSchedule50|Product Desc: Autodesk Architectural Desktop 2007 |Company: Autodesk,Inc. |WEB Address: www.autodesk.com
 90
      129
280
     0
281
     0
  0
CLASS
  1
AEC_DISP_PROPS_SCHEDULE_TABLE
  2
AecDbDispPropsScheduleTable
  3
AecSchedule50|Product Desc: Autodesk Architectural Desktop 2007 |Company: Autodesk,Inc. |WEB Address: www.autodesk.com
 90
      129
280
     0
281
     0
  0
CLASS
  1
AEC_DISP_REP_AREA
  2
AecDbDispRepArea
  3
AecAreaCalculationBase50|Product Desc: Autodesk Architectural Desktop 2007 |Company: Autodesk,Inc. |WEB Address: www.autodesk.com
 90
    32897
280
     0
281
     0
  0
CLASS
  1
AEC_DISP_PROPS_AREA
  2
AecDbDispPropsArea
  3
AecAreaCalculationBase50|Product Desc: Autodesk Architectural Desktop 2007 |Company: Autodesk,Inc. |WEB Address: www.autodesk.com
 90
    32897
280
     0
281
     0
  0
CLASS
  1
AEC_DISP_REP_AREA_DECOMPOSED
  2
AecDbDispRepAreaDecomposed
  3
AecAreaCalculationBase50|Product Desc: Autodesk Architectural Desktop 2007 |Company: Autodesk,Inc. |WEB Address: www.autodesk.com
 90
    32897
280
     0
281
     0
  0
CLASS
  1
AEC_DISP_PROPS_AREA_DECOMPOSED
  2
AecDbDispPropsAreaDecomposed
  3
AecAreaCalculationBase50|Product Desc: Autodesk Architectural Desktop 2007 |Company: Autodesk,Inc. |WEB Address: www.autodesk.com
 90
    32897
280
     0
281
     0
  0
CLASS
  1
AEC_DISP_REP_AREAGROUP
  2
AecDbDispRepAreaGroup
  3
AecAreaCalculationBase50|Product Desc: Autodesk Architectural Desktop 2007 |Company: Autodesk,Inc. |WEB Address: www.autodesk.com
 90
    32897
280
     0
281
     0
  0
CLASS
  1
AEC_DISP_PROPS_AREAGROUP
  2
AecDbDispPropsAreaGroup
  3
AecAreaCalculationBase50|Product Desc: Autodesk Architectural Desktop 2007 |Company: Autodesk,Inc. |WEB Address: www.autodesk.com
 90
    32897
280
     0
281
     0
  0
CLASS
  1
AEC_AECDBDISPREPAREA100
  2
AecDbDispRepArea100
  3
AecArchDACHBase50|Product Desc: Autodesk Architectural Desktop 2007 |Company: Autodesk,Inc. |WEB Address: www.autodesk.com
 90
    32897
280
     0
281
     0
  0
CLASS
  1
AEC_AECDBDISPREPAREAGROUP100
  2
AecDbDispRepAreaGroup100
  3
AecArchDACHBase50|Product Desc: Autodesk Architectural Desktop 2007 |Company: Autodesk,Inc. |WEB Address: www.autodesk.com
 90
    32897
280
     0
281
     0
  0
CLASS
  1
AEC_AECDBDISPREPBDGELEVLINEPLAN100
  2
AecDbDispRepBdgElevLinePlan100
  3
AecArchDACHBase50|Product Desc: Autodesk Architectural Desktop 2007 |Company: Autodesk,Inc. |WEB Address: www.autodesk.com
 90
      129
280
     0
281
     0
  0
CLASS
  1
AEC_AECDBDISPREPBDGSECTIONLINEPLAN100
  2
AecDbDispRepBdgSectionLinePlan100
  3
AecArchDACHBase50|Product Desc: Autodesk Architectural Desktop 2007 |Company: Autodesk,Inc. |WEB Address: www.autodesk.com
 90
      129
280
     0
281
     0
  0
CLASS
  1
AEC_AECDBDISPREPCEILINGGRIDPLAN100
  2
AecDbDispRepCeilingGridPlan100
  3
AecArchDACHBase50|Product Desc: Autodesk Architectural Desktop 2007 |Company: Autodesk,Inc. |WEB Address: www.autodesk.com
 90
      129
280
     0
281
     0
  0
CLASS
  1
AEC_AECDBDISPREPCOLUMNGRIDPLAN100
  2
AecDbDispRepColumnGridPlan100
  3
AecArchDACHBase50|Product Desc: Autodesk Architectural Desktop 2007 |Company: Autodesk,Inc. |WEB Address: www.autodesk.com
 90
      129
280
     0
281
     0
  0
CLASS
  1
AEC_AECDBDISPREPCURTAINWALLLAYOUTPLAN100
  2
AecDbDispRepCurtainWallLayoutPlan100
  3
AecArchDACHBase50|Product Desc: Autodesk Architectural Desktop 2007 |Company: Autodesk,Inc. |WEB Address: www.autodesk.com
 90
      129
280
     0
281
     0
  0
CLASS
  1
AEC_AECDBDISPREPCURTAINWALLUNITPLAN100
  2
AecDbDispRepCurtainWallUnitPlan100
  3
AecArchDACHBase50|Product Desc: Autodesk Architectural Desktop 2007 |Company: Autodesk,Inc. |WEB Address: www.autodesk.com
 90
      129
280
     0
281
     0
  0
CLASS
  1
AEC_AECDBDISPREPMVBLOCKREFPLAN100
  2
AecDbDispRepMvBlockRefPlan100
  3
AecArchDACHBase50|Product Desc: Autodesk Architectural Desktop 2007 |Company: Autodesk,Inc. |WEB Address: www.autodesk.com
 90
      129
280
     0
281
     0
  0
CLASS
  1
AEC_AECDBDISPREPROOFPLAN100
  2
AecDbDispRepRoofPlan100
  3
AecArchDACHBase50|Product Desc: Autodesk Architectural Desktop 2007 |Company: Autodesk,Inc. |WEB Address: www.autodesk.com
 90
      129
280
     0
281
     0
  0
CLASS
  1
AEC_AECDBDISPREPROOFSLABPLAN100
  2
AecDbDispRepRoofSlabPlan100
  3
AecArchDACHBase50|Product Desc: Autodesk Architectural Desktop 2007 |Company: Autodesk,Inc. |WEB Address: www.autodesk.com
 90
      129
280
     0
281
     0
  0
CLASS
  1
AEC_AECDBDISPREPSLABPLAN100
  2
AecDbDispRepSlabPlan100
  3
AecArchDACHBase50|Product Desc: Autodesk Architectural Desktop 2007 |Company: Autodesk,Inc. |WEB Address: www.autodesk.com
 90
      129
280
     0
281
     0
  0
CLASS
  1
AEC_AECDBDISPREPSPACEBOUNDARYPLAN100
  2
AecDbDispRepSpaceBoundaryPlan100
  3
AecArchDACHBase50|Product Desc: Autodesk Architectural Desktop 2007 |Company: Autodesk,Inc. |WEB Address: www.autodesk.com
 90
    32897
280
     0
281
     0
  0
CLASS
  1
AEC_AECDBDISPREPSPACEPLAN100
  2
AecDbDispRepSpacePlan100
  3
AecArchDACHBase50|Product Desc: Autodesk Architectural Desktop 2007 |Company: Autodesk,Inc. |WEB Address: www.autodesk.com
 90
      129
280
     0
281
     0
  0
CLASS
  1
AEC_AECDBDISPREPWALLPLAN100
  2
AecDbDispRepWallPlan100
  3
AecArchDACHBase50|Product Desc: Autodesk Architectural Desktop 2007 |Company: Autodesk,Inc. |WEB Address: www.autodesk.com
 90
      129
280
     0
281
     0
  0
CLASS
  1
AEC_AECDBDISPREPWINDOWASSEMBLYPLAN100
  2
AecDbDispRepWindowAssemblyPlan100
  3
AecArchDACHBase50|Product Desc: Autodesk Architectural Desktop 2007 |Company: Autodesk,Inc. |WEB Address: www.autodesk.com
 90
      129
280
     0
281
     0
  0
CLASS
  1
AEC_AECSDBDISPREPMEMBERPLAN100
  2
AecsDbDispRepMemberPlan100
  3
AecArchDACHBase50|Product Desc: Autodesk Architectural Desktop 2007 |Company: Autodesk,Inc. |WEB Address: www.autodesk.com
 90
    32897
280
     0
281
     0
  0
CLASS
  1
AEC_AECDBDISPREPAREA50
  2
AecDbDispRepArea50
  3
AecArchDACHBase50|Product Desc: Autodesk Architectural Desktop 2007 |Company: Autodesk,Inc. |WEB Address: www.autodesk.com
 90
    32897
280
     0
281
     0
  0
CLASS
  1
AEC_AECDBDISPREPAREAGROUP50
  2
AecDbDispRepAreaGroup50
  3
AecArchDACHBase50|Product Desc: Autodesk Architectural Desktop 2007 |Company: Autodesk,Inc. |WEB Address: www.autodesk.com
 90
    32897
280
     0
281
     0
  0
CLASS
  1
AEC_AECDBDISPREPBDGELEVLINEPLAN50
  2
AecDbDispRepBdgElevLinePlan50
  3
AecArchDACHBase50|Product Desc: Autodesk Architectural Desktop 2007 |Company: Autodesk,Inc. |WEB Address: www.autodesk.com
 90
      129
280
     0
281
     0
  0
CLASS
  1
AEC_AECDBDISPREPBDGSECTIONLINEPLAN50
  2
AecDbDispRepBdgSectionLinePlan50
  3
AecArchDACHBase50|Product Desc: Autodesk Architectural Desktop 2007 |Company: Autodesk,Inc. |WEB Address: www.autodesk.com
 90
      129
280
     0
281
     0
  0
CLASS
  1
AEC_AECDBDISPREPCEILINGGRIDPLAN50
  2
AecDbDispRepCeilingGridPlan50
  3
AecArchDACHBase50|Product Desc: Autodesk Architectural Desktop 2007 |Company: Autodesk,Inc. |WEB Address: www.autodesk.com
 90
      129
280
     0
281
     0
  0
CLASS
  1
AEC_AECDBDISPREPCOLUMNGRIDPLAN50
  2
AecDbDispRepColumnGridPlan50
  3
AecArchDACHBase50|Product Desc: Autodesk Architectural Desktop 2007 |Company: Autodesk,Inc. |WEB Address: www.autodesk.com
 90
      129
280
     0
281
     0
  0
CLASS
  1
AEC_AECDBDISPREPCURTAINWALLLAYOUTPLAN50
  2
AecDbDispRepCurtainWallLayoutPlan50
  3
AecArchDACHBase50|Product Desc: Autodesk Architectural Desktop 2007 |Company: Autodesk,Inc. |WEB Address: www.autodesk.com
 90
      129
280
     0
281
     0
  0
CLASS
  1
AEC_AECDBDISPREPCURTAINWALLUNITPLAN50
  2
AecDbDispRepCurtainWallUnitPlan50
  3
AecArchDACHBase50|Product Desc: Autodesk Architectural Desktop 2007 |Company: Autodesk,Inc. |WEB Address: www.autodesk.com
 90
      129
280
     0
281
     0
  0
CLASS
  1
AEC_AECDBDISPREPMVBLOCKREFPLAN50
  2
AecDbDispRepMvBlockRefPlan50
  3
AecArchDACHBase50|Product Desc: Autodesk Architectural Desktop 2007 |Company: Autodesk,Inc. |WEB Address: www.autodesk.com
 90
      129
280
     0
281
     0
  0
CLASS
  1
AEC_AECDBDISPREPROOFPLAN50
  2
AecDbDispRepRoofPlan50
  3
AecArchDACHBase50|Product Desc: Autodesk Architectural Desktop 2007 |Company: Autodesk,Inc. |WEB Address: www.autodesk.com
 90
      129
280
     0
281
     0
  0
CLASS
  1
AEC_AECDBDISPREPROOFSLABPLAN50
  2
AecDbDispRepRoofSlabPlan50
  3
AecArchDACHBase50|Product Desc: Autodesk Architectural Desktop 2007 |Company: Autodesk,Inc. |WEB Address: www.autodesk.com
 90
      129
280
     0
281
     0
  0
CLASS
  1
AEC_AECDBDISPREPSLABPLAN50
  2
AecDbDispRepSlabPlan50
  3
AecArchDACHBase50|Product Desc: Autodesk Architectural Desktop 2007 |Company: Autodesk,Inc. |WEB Address: www.autodesk.com
 90
      129
280
     0
281
     0
  0
CLASS
  1
AEC_AECDBDISPREPSPACEBOUNDARYPLAN50
  2
AecDbDispRepSpaceBoundaryPlan50
  3
AecArchDACHBase50|Product Desc: Autodesk Architectural Desktop 2007 |Company: Autodesk,Inc. |WEB Address: www.autodesk.com
 90
    32897
280
     0
281
     0
  0
CLASS
  1
AEC_AECDBDISPREPSPACEPLAN50
  2
AecDbDispRepSpacePlan50
  3
AecArchDACHBase50|Product Desc: Autodesk Architectural Desktop 2007 |Company: Autodesk,Inc. |WEB Address: www.autodesk.com
 90
      129
280
     0
281
     0
  0
CLASS
  1
AEC_AECDBDISPREPWALLPLAN50
  2
AecDbDispRepWallPlan50
  3
AecArchDACHBase50|Product Desc: Autodesk Architectural Desktop 2007 |Company: Autodesk,Inc. |WEB Address: www.autodesk.com
 90
      129
280
     0
281
     0
  0
CLASS
  1
AEC_AECDBDISPREPWINDOWASSEMBLYPLAN50
  2
AecDbDispRepWindowAssemblyPlan50
  3
AecArchDACHBase50|Product Desc: Autodesk Architectural Desktop 2007 |Company: Autodesk,Inc. |WEB Address: www.autodesk.com
 90
      129
280
     0
281
     0
  0
CLASS
  1
AEC_AECSDBDISPREPMEMBERPLAN50
  2
AecsDbDispRepMemberPlan50
  3
AecArchDACHBase50|Product Desc: Autodesk Architectural Desktop 2007 |Company: Autodesk,Inc. |WEB Address: www.autodesk.com
 90
    32897
280
     0
281
     0
  0
CLASS
  1
AEC_AECDBDISPREPCURTAINWALLLAYOUTXSECTION
  2
AecDbDispRepCurtainWallLayoutXSection
  3
AecArchDACHBase50|Product Desc: Autodesk Architectural Desktop 2007 |Company: Autodesk,Inc. |WEB Address: www.autodesk.com
 90
    32897
280
     0
281
     0
  0
CLASS
  1
AEC_DISPROPSXSECTIONCOMMON
  2
AecDbDispPropsXSectionCmn
  3
AecArchDACHBase50|Product Desc: Autodesk Architectural Desktop 2007 |Company: Autodesk,Inc. |WEB Address: www.autodesk.com
 90
    32897
280
     0
281
     0
  0
CLASS
  1
AEC_AECDBDISPREPCURTAINWALLUNITXSECTION
  2
AecDbDispRepCurtainWallUnitXSection
  3
AecArchDACHBase50|Product Desc: Autodesk Architectural Desktop 2007 |Company: Autodesk,Inc. |WEB Address: www.autodesk.com
 90
    32897
280
     0
281
     0
  0
CLASS
  1
AEC_AECDBDISPREPDOORXSECTION
  2
AecDbDispRepDoorXSection
  3
AecArchDACHBase50|Product Desc: Autodesk Architectural Desktop 2007 |Company: Autodesk,Inc. |WEB Address: www.autodesk.com
 90
    32897
280
     0
281
     0
  0
CLASS
  1
AEC_AECDBDISPREPMASSELEMXSECTION
  2
AecDbDispRepMassElemXSection
  3
AecArchDACHBase50|Product Desc: Autodesk Architectural Desktop 2007 |Company: Autodesk,Inc. |WEB Address: www.autodesk.com
 90
    32897
280
     0
281
     0
  0
CLASS
  1
AEC_AECDBDISPREPROOFXSECTION
  2
AecDbDispRepRoofXSection
  3
AecArchDACHBase50|Product Desc: Autodesk Architectural Desktop 2007 |Company: Autodesk,Inc. |WEB Address: www.autodesk.com
 90
    32897
280
     0
281
     0
  0
CLASS
  1
AEC_AECDBDISPREPROOFSLABXSECTION
  2
AecDbDispRepRoofSlabXSection
  3
AecArchDACHBase50|Product Desc: Autodesk Architectural Desktop 2007 |Company: Autodesk,Inc. |WEB Address: www.autodesk.com
 90
    32897
280
     0
281
     0
  0
CLASS
  1
AEC_AECDBDISPREPSLABXSECTION
  2
AecDbDispRepSlabXSection
  3
AecArchDACHBase50|Product Desc: Autodesk Architectural Desktop 2007 |Company: Autodesk,Inc. |WEB Address: www.autodesk.com
 90
    32897
280
     0
281
     0
  0
CLASS
  1
AEC_AECDBDISPREPSPACEXSECTION
  2
AecDbDispRepSpaceXSection
  3
AecArchDACHBase50|Product Desc: Autodesk Architectural Desktop 2007 |Company: Autodesk,Inc. |WEB Address: www.autodesk.com
 90
    32897
280
     0
281
     0
  0
CLASS
  1
AEC_AECDBDISPREPSPACEBOUNDARYXSECTION
  2
AecDbDispRepSpaceBoundaryXSection
  3
AecArchDACHBase50|Product Desc: Autodesk Architectural Desktop 2007 |Company: Autodesk,Inc. |WEB Address: www.autodesk.com
 90
    32897
280
     0
281
     0
  0
CLASS
  1
AEC_AECDBDISPREPWINDOWXSECTION
  2
AecDbDispRepWindowXSection
  3
AecArchDACHBase50|Product Desc: Autodesk Architectural Desktop 2007 |Company: Autodesk,Inc. |WEB Address: www.autodesk.com
 90
    32897
280
     0
281
     0
  0
CLASS
  1
AEC_AECDBDISPREPWINDOWASSEMBLYXSECTION
  2
AecDbDispRepWindowAssemblyXSection
  3
AecArchDACHBase50|Product Desc: Autodesk Architectural Desktop 2007 |Company: Autodesk,Inc. |WEB Address: www.autodesk.com
 90
    32897
280
     0
281
     0
  0
CLASS
  1
AEC_AECDBDISPREPMEMBERXSECTION
  2
AecDbDispRepMemberXSection
  3
AecArchDACHBase50|Product Desc: Autodesk Architectural Desktop 2007 |Company: Autodesk,Inc. |WEB Address: www.autodesk.com
 90
    32897
280
     0
281
     0
  0
CLASS
  1
AEC_DB_DISP_REP_DIM_GROUP_PLAN100
  2
AecDbDispRepDimGroupPlan100
  3
AecArchDACHBase50|Product Desc: Autodesk Architectural Desktop 2007 |Company: Autodesk,Inc. |WEB Address: www.autodesk.com
 90
      129
280
     0
281
     0
  0
CLASS
  1
AEC_DISP_PROPS_DIM
  2
AecDbDispPropsDimGroup
  3
AecArchDACHBase50|Product Desc: Autodesk Architectural Desktop 2007 |Company: Autodesk,Inc. |WEB Address: www.autodesk.com
 90
      129
280
     0
281
     0
  0
CLASS
  1
AEC_DB_DISP_REP_DIM_GROUP_PLAN50
  2
AecDbDispRepDimGroupPlan50
  3
AecArchDACHBase50|Product Desc: Autodesk Architectural Desktop 2007 |Company: Autodesk,Inc. |WEB Address: www.autodesk.com
 90
      129
280
     0
281
     0
  0
CLASS
  1
AEC_DB_DISP_REP_DIM_GROUP_PLAN
  2
AecDbDispRepDimGroupPlan
  3
AecArchDACHBase50|Product Desc: Autodesk Architectural Desktop 2007 |Company: Autodesk,Inc. |WEB Address: www.autodesk.com
 90
      129
280
     0
281
     0
  0
CLASS
  1
AEC_DISP_REP_DOOR_PLAN_50
  2
AecDbDispRepDoorPlan50
  3
AecArchDACHBase50|Product Desc: Autodesk Architectural Desktop 2007 |Company: Autodesk,Inc. |WEB Address: www.autodesk.com
 90
      129
280
     0
281
     0
  0
CLASS
  1
AEC_DISP_PROPS_DOOR_PLAN_50
  2
AecDbDispPropsDoorPlan50
  3
AecArchDACHBase50|Product Desc: Autodesk Architectural Desktop 2007 |Company: Autodesk,Inc. |WEB Address: www.autodesk.com
 90
      129
280
     0
281
     0
  0
CLASS
  1
AEC_DISP_REP_DOOR_PLAN_HEKTO
  2
AecDbDispRepDoorPlanHekto
  3
AecArchDACHBase50|Product Desc: Autodesk Architectural Desktop 2007 |Company: Autodesk,Inc. |WEB Address: www.autodesk.com
 90
      129
280
     0
281
     0
  0
CLASS
  1
AEC_DISP_PROPS_DOOR_PLAN_100
  2
AecDbDispPropsDoorPlan100
  3
AecArchDACHBase50|Product Desc: Autodesk Architectural Desktop 2007 |Company: Autodesk,Inc. |WEB Address: www.autodesk.com
 90
      129
280
     0
281
     0
  0
CLASS
  1
AEC_DISP_REP_DOOR_THRESHOLD_SYMBOL_PLAN
  2
AecDbDispRepDoorThresholdSymbolPlan
  3
AecArchDACHBase50|Product Desc: Autodesk Architectural Desktop 2007 |Company: Autodesk,Inc. |WEB Address: www.autodesk.com
 90
      129
280
     0
281
     0
  0
CLASS
  1
AEC_DISP_PROPS_DOOR_THRESHOLD_SYMBOL_PLAN
  2
AecDbDispPropsDoorThresholdSymbolPlan
  3
AecArchDACHBase50|Product Desc: Autodesk Architectural Desktop 2007 |Company: Autodesk,Inc. |WEB Address: www.autodesk.com
 90
      129
280
     0
281
     0
  0
CLASS
  1
AEC_DISPREPAECDBDISPREPMASSELEMPLAN100
  2
AecDbDispRepMassElemPlan100
  3
AecArchDACHBase50|Product Desc: Autodesk Architectural Desktop 2007 |Company: Autodesk,Inc. |WEB Address: www.autodesk.com
 90
      129
280
     0
281
     0
  0
CLASS
  1
AEC_DISPROPSMASSELEMPLANCOMMON
  2
AecDbDispPropsMassElemPlanCommon
  3
AecArchDACHBase50|Product Desc: Autodesk Architectural Desktop 2007 |Company: Autodesk,Inc. |WEB Address: www.autodesk.com
 90
      129
280
     0
281
     0
  0
CLASS
  1
AEC_DISPREPAECDBDISPREPMASSELEMPLAN50
  2
AecDbDispRepMassElemPlan50
  3
AecArchDACHBase50|Product Desc: Autodesk Architectural Desktop 2007 |Company: Autodesk,Inc. |WEB Address: www.autodesk.com
 90
      129
280
     0
281
     0
  0
CLASS
  1
AEC_DISPREPAECDBDISPREPMASSGROUPPLAN100
  2
AecDbDispRepMassGroupPlan100
  3
AecArchDACHBase50|Product Desc: Autodesk Architectural Desktop 2007 |Company: Autodesk,Inc. |WEB Address: www.autodesk.com
 90
      129
280
     0
281
     0
  0
CLASS
  1
AEC_DISPROPSMASSGROUPPLANCOMMON
  2
AecDbDispPropsMassGroupPlanCommon
  3
AecArchDACHBase50|Product Desc: Autodesk Architectural Desktop 2007 |Company: Autodesk,Inc. |WEB Address: www.autodesk.com
 90
      129
280
     0
281
     0
  0
CLASS
  1
AEC_DISPREPAECDBDISPREPMASSGROUPPLAN50
  2
AecDbDispRepMassGroupPlan50
  3
AecArchDACHBase50|Product Desc: Autodesk Architectural Desktop 2007 |Company: Autodesk,Inc. |WEB Address: www.autodesk.com
 90
      129
280
     0
281
     0
  0
CLASS
  1
AEC_DISPREPMASSGROUPXSECTION
  2
AecDbDispRepMassGroupXSection
  3
AecArchDACHBase50|Product Desc: Autodesk Architectural Desktop 2007 |Company: Autodesk,Inc. |WEB Address: www.autodesk.com
 90
    32897
280
     0
281
     0
  0
CLASS
  1
AEC_DISPREPAECDBDISPREPOPENINGPLAN100
  2
AecDbDispRepOpeningPlan100
  3
AecArchDACHBase50|Product Desc: Autodesk Architectural Desktop 2007 |Company: Autodesk,Inc. |WEB Address: www.autodesk.com
 90
      129
280
     0
281
     0
  0
CLASS
  1
AEC_DISPROPSOPENINGPLANCOMMONHATCHED
  2
AecDbDispPropsOpeningPlanCommonHatched
  3
AecArchDACHBase50|Product Desc: Autodesk Architectural Desktop 2007 |Company: Autodesk,Inc. |WEB Address: www.autodesk.com
 90
      129
280
     0
281
     0
  0
CLASS
  1
AEC_DISPREPAECDBDISPREPOPENINGPLAN50
  2
AecDbDispRepOpeningPlan50
  3
AecArchDACHBase50|Product Desc: Autodesk Architectural Desktop 2007 |Company: Autodesk,Inc. |WEB Address: www.autodesk.com
 90
      129
280
     0
281
     0
  0
CLASS
  1
AEC_DISPREPAECDBDISPREPOPENINGPLANREFLECTED
  2
AecDbDispRepOpeningPlanReflected
  3
AecArchDACHBase50|Product Desc: Autodesk Architectural Desktop 2007 |Company: Autodesk,Inc. |WEB Address: www.autodesk.com
 90
      129
280
     0
281
     0
  0
CLASS
  1
AEC_DISPROPSOPENINGPLANCOMMON
  2
AecDbDispPropsOpeningPlanCommon
  3
AecArchDACHBase50|Product Desc: Autodesk Architectural Desktop 2007 |Company: Autodesk,Inc. |WEB Address: www.autodesk.com
 90
      129
280
     0
281
     0
  0
CLASS
  1
AEC_DISPREPAECDBDISPREPOPENINGSILLPLAN
  2
AecDbDispRepOpeningSillPlan
  3
AecArchDACHBase50|Product Desc: Autodesk Architectural Desktop 2007 |Company: Autodesk,Inc. |WEB Address: www.autodesk.com
 90
      129
280
     0
281
     0
  0
CLASS
  1
AEC_DISPROPSOPENINGSILLPLAN
  2
AecDbDispPropsOpeningSillPlan
  3
AecArchDACHBase50|Product Desc: Autodesk Architectural Desktop 2007 |Company: Autodesk,Inc. |WEB Address: www.autodesk.com
 90
      129
280
     0
281
     0
  0
CLASS
  1
AEC_DISP_REP_RAILING_PLAN_100
  2
AecDbDispRepRailingPlan100
  3
AecArchDACHBase50|Product Desc: Autodesk Architectural Desktop 2007 |Company: Autodesk,Inc. |WEB Address: www.autodesk.com
 90
      129
280
     0
281
     0
  0
CLASS
  1
AEC_DISP_ROPS_RAILING_PLAN_100
  2
AecDbDispPropsRailingPlan100
  3
AecArchDACHBase50|Product Desc: Autodesk Architectural Desktop 2007 |Company: Autodesk,Inc. |WEB Address: www.autodesk.com
 90
      129
280
     0
281
     0
  0
CLASS
  1
AEC_DISP_REP_RAILING_PLAN_50
  2
AecDbDispRepRailingPlan50
  3
AecArchDACHBase50|Product Desc: Autodesk Architectural Desktop 2007 |Company: Autodesk,Inc. |WEB Address: www.autodesk.com
 90
      129
280
     0
281
     0
  0
CLASS
  1
AEC_DISP_ROPS_RAILING_PLAN_COMMON
  2
AecDbDispPropsRailingPlanCommon
  3
AecArchDACHBase50|Product Desc: Autodesk Architectural Desktop 2007 |Company: Autodesk,Inc. |WEB Address: www.autodesk.com
 90
    32897
280
     0
281
     0
  0
CLASS
  1
AEC_DISPREPRAILINGXSECTION
  2
AecDbDispRepRailingXSection
  3
AecArchDACHBase50|Product Desc: Autodesk Architectural Desktop 2007 |Company: Autodesk,Inc. |WEB Address: www.autodesk.com
 90
    32897
280
     0
281
     0
  0
CLASS
  1
AEC_DISP_REP_STAIR_PLAN_100
  2
AecDbDispRepStairPlan100
  3
AecArchDACHBase50|Product Desc: Autodesk Architectural Desktop 2007 |Company: Autodesk,Inc. |WEB Address: www.autodesk.com
 90
      129
280
     0
281
     0
  0
CLASS
  1
AEC_DISP_ROPS_STAIR_PLAN_100
  2
AecDbDispPropsStairPlan100
  3
AecArchDACHBase50|Product Desc: Autodesk Architectural Desktop 2007 |Company: Autodesk,Inc. |WEB Address: www.autodesk.com
 90
      129
280
     0
281
     0
  0
CLASS
  1
AEC_DISP_REP_STAIR_PLAN_50
  2
AecDbDispRepStairPlan50
  3
AecArchDACHBase50|Product Desc: Autodesk Architectural Desktop 2007 |Company: Autodesk,Inc. |WEB Address: www.autodesk.com
 90
      129
280
     0
281
     0
  0
CLASS
  1
AEC_DISP_ROPS_STAIR_PLAN_50
  2
AecDbDispPropsStairPlan50
  3
AecArchDACHBase50|Product Desc: Autodesk Architectural Desktop 2007 |Company: Autodesk,Inc. |WEB Address: www.autodesk.com
 90
      129
280
     0
281
     0
  0
CLASS
  1
AEC_DISPREPSTAIRXSECTION
  2
AecDbDispRepStairXSection
  3
AecArchDACHBase50|Product Desc: Autodesk Architectural Desktop 2007 |Company: Autodesk,Inc. |WEB Address: www.autodesk.com
 90
    32897
280
     0
281
     0
  0
CLASS
  1
AEC_DISPREPWALLXSECTION
  2
AecDbDispRepWallXSection
  3
AecArchDACHBase50|Product Desc: Autodesk Architectural Desktop 2007 |Company: Autodesk,Inc. |WEB Address: www.autodesk.com
 90
    32897
280
     0
281
     0
  0
CLASS
  1
AEC_DISPROPSXSECTIONWALL
  2
AecDbDispPropsWallXSection
  3
AecArchDACHBase50|Product Desc: Autodesk Architectural Desktop 2007 |Company: Autodesk,Inc. |WEB Address: www.autodesk.com
 90
    32897
280
     0
281
     0
  0
CLASS
  1
AEC_DISP_REP_WINDOW_PLAN_100
  2
AecDbDispRepWindowPlan100
  3
AecArchDACHBase50|Product Desc: Autodesk Architectural Desktop 2007 |Company: Autodesk,Inc. |WEB Address: www.autodesk.com
 90
      129
280
     0
281
     0
  0
CLASS
  1
AEC_DISP_PROPS_WINDOW_PLAN_100
  2
AecDbDispPropsWindowPlan100
  3
AecArchDACHBase50|Product Desc: Autodesk Architectural Desktop 2007 |Company: Autodesk,Inc. |WEB Address: www.autodesk.com
 90
      129
280
     0
281
     0
  0
CLASS
  1
AEC_DISP_REP_WINDOW_PLAN_50
  2
AecDbDispRepWindowPlan50
  3
AecArchDACHBase50|Product Desc: Autodesk Architectural Desktop 2007 |Company: Autodesk,Inc. |WEB Address: www.autodesk.com
 90
      129
280
     0
281
     0
  0
CLASS
  1
AEC_DISP_PROPS_WINDOW_PLAN_50
  2
AecDbDispPropsWindowPlan50
  3
AecArchDACHBase50|Product Desc: Autodesk Architectural Desktop 2007 |Company: Autodesk,Inc. |WEB Address: www.autodesk.com
 90
      129
280
     0
281
     0
  0
CLASS
  1
AEC_DISP_REP_SET
  2
AecDbDispRepSet
  3
AecBase50|Product Desc: Autodesk Architectural Desktop 2007 |Company: Autodesk,Inc. |WEB Address: www.autodesk.com
 90
      129
280
     0
281
     0
  0
CLASS
  1
AEC_DISP_REP_CONFIG
  2
AecDbDispRepConfig
  3
AecBase50|Product Desc: Autodesk Architectural Desktop 2007 |Company: Autodesk,Inc. |WEB Address: www.autodesk.com
 90
      129
280
     0
281
     0
  0
CLASS
  1
AEC_LAYERKEY_STYLE
  2
AecDbLayerKeyStyle
  3
AecBase50|Product Desc: Autodesk Architectural Desktop 2007 |Company: Autodesk,Inc. |WEB Address: www.autodesk.com
 90
      129
280
     0
281
     0
  0
CLASS
  1
AEC_VARS_ARCHBASE
  2
AecDbVarsArchBase
  3
AecArchBase50|Product Desc: Autodesk Architectural Desktop 2007 |Company: Autodesk,Inc. |WEB Address: www.autodesk.com
 90
      129
280
     0
281
     0
  0
CLASS
  1
BINRECORD
  2
AcAecBinRecord
  3
AecBase50|Product Desc: Autodesk Architectural Desktop 2007 |Company: Autodesk,Inc. |WEB Address: www.autodesk.com
 90
      129
280
     0
281
     0
  0
CLASS
  1
AEC_VARS_MUNICH
  2
AecDbVarsMunich
  3
AecArchDACHBase50|Product Desc: Autodesk Architectural Desktop 2007 |Company: Autodesk,Inc. |WEB Address: www.autodesk.com
 90
      129
280
     0
281
     0
  0
CLASS
  1
AEC_STAIR_STYLE
  2
AecDbStairStyle
  3
AecArchBase50|Product Desc: Autodesk Architectural Desktop 2007 |Company: Autodesk,Inc. |WEB Address: www.autodesk.com
 90
    32897
280
     0
281
     0
  0
CLASS
  1
AEC_2DSECTION_STYLE
  2
AecDb2dSectionStyle
  3
AecBase50|Product Desc: Autodesk Architectural Desktop 2007 |Company: Autodesk,Inc. |WEB Address: www.autodesk.com
 90
    32897
280
     0
281
     0
  0
CLASS
  1
AEC_DIM_STYLE
  2
AecDbDimensionStyle
  3
AecArchDACHBase50|Product Desc: Autodesk Architectural Desktop 2007 |Company: Autodesk,Inc. |WEB Address: www.autodesk.com
 90
    32897
280
     0
281
     0
  0
CLASS
  1
AEC_LAYOUT_GRID2D
  2
AecDbLayoutGrid2d
  3
AecBase50|Product Desc: Autodesk Architectural Desktop 2007 |Company: Autodesk,Inc. |WEB Address: www.autodesk.com
 90
    33661
280
     0
281
     1
  0
CLASS
  1
AEC_MVBLOCK_DEF
  2
AecDbMvBlockDef
  3
AecBase50|Product Desc: Autodesk Architectural Desktop 2007 |Company: Autodesk,Inc. |WEB Address: www.autodesk.com
 90
      129
280
     0
281
     0
  0
CLASS
  1
AEC_AECDBAREAPROPOSALNAMES
  2
AecDbAreaProposalNames
  3
AecAreaCalculationBase50|Product Desc: Autodesk Architectural Desktop 2007 |Company: Autodesk,Inc. |WEB Address: www.autodesk.com
 90
    32897
280
     0
281
     0
  0
CLASS
  1
AEC_AECDBAREAGROUPSTYLE
  2
AecDbAreaGroupStyle
  3
AecAreaCalculationBase50|Product Desc: Autodesk Architectural Desktop 2007 |Company: Autodesk,Inc. |WEB Address: www.autodesk.com
 90
    32897
280
     0
281
     0
  0
CLASS
  1
AEC_AECDBAREAGROUPDEF
  2
AecDbAreaGroupDef
  3
AecAreaCalculationBase50|Product Desc: Autodesk Architectural Desktop 2007 |Company: Autodesk,Inc. |WEB Address: www.autodesk.com
 90
    32897
280
     0
281
     0
  0
CLASS
  1
AecDbPropertySet
  2
AecDbPropertySet
  3
AecScheduleData50|Product Desc: Autodesk Architectural Desktop 2007 |Company: Autodesk,Inc. |WEB Address: www.autodesk.com
 90
    32897
280
     0
281
     0
  0
CLASS
  1
AEC_TEXT_NOTE
  2
AecDbTextNote
  3
AecBase50|Product Desc: Autodesk Architectural Desktop 2007 |Company: Autodesk,Inc. |WEB Address: www.autodesk.com
 90
    32897
280
     0
281
     0
  0
CLASS
  1
AEC_SCHEDULE_DATA_FORMAT
  2
AecDbScheduleDataFormat
  3
AecScheduleData50|Product Desc: Autodesk Architectural Desktop 2007 |Company: Autodesk,Inc. |WEB Address: www.autodesk.com
 90
    32897
280
     0
281
     0
  0
CLASS
  1
AEC_PROPERTY_SET_DEF
  2
AecDbPropertySetDef
  3
AecScheduleData50|Product Desc: Autodesk Architectural Desktop 2007 |Company: Autodesk,Inc. |WEB Address: www.autodesk.com
 90
    32897
280
     0
281
     0
  0
CLASS
  1
AEC_SCHEDULE_TABLE_STYLE
  2
AecDbScheduleTableStyle
  3
AecSchedule50|Product Desc: Autodesk Architectural Desktop 2007 |Company: Autodesk,Inc. |WEB Address: www.autodesk.com
 90
    32897
280
     0
281
     0
  0
CLASS
  1
AEC_AECDBAREAMODIFIER
  2
AecDbAreaModifier
  3
AecAreaCalculationBase50|Product Desc: Autodesk Architectural Desktop 2007 |Company: Autodesk,Inc. |WEB Address: www.autodesk.com
 90
    32897
280
     0
281
     0
  0
CLASS
  1
AEC_AECDBAREASTYLE
  2
AecDbAreaStyle
  3
AecAreaCalculationBase50|Product Desc: Autodesk Architectural Desktop 2007 |Company: Autodesk,Inc. |WEB Address: www.autodesk.com
 90
    32897
280
     0
281
     0
  0
CLASS
  1
AEC_MATERIAL_DEF
  2
AecDbMaterialDef
  3
AecBase50|Product Desc: Autodesk Architectural Desktop 2007 |Company: Autodesk,Inc. |WEB Address: www.autodesk.com
 90
      129
280
     0
281
     0
  0
CLASS
  1
AEC_DISP_PROPS_SPACE_BOUNDARY
  2
AecDbDispPropsSpaceBoundary
  3
AecArchBase50|Product Desc: Autodesk Architectural Desktop 2007 |Company: Autodesk,Inc. |WEB Address: www.autodesk.com
 90
    32897
280
     0
281
     0
  0
CLASS
  1
AEC_DISP_PROPS_WALL_MODEL
  2
AecDbDispPropsWallModel
  3
AecArchBase50|Product Desc: Autodesk Architectural Desktop 2007 |Company: Autodesk,Inc. |WEB Address: www.autodesk.com
 90
      129
280
     0
281
     0
  0
CLASS
  1
AEC_BLOCK_REF_PATH_MGR
  2
AecDbBlockRefPathMgr
  3
AecBase40
 90
    32897
280
     0
281
     0
  0
CLASS
  1
AEC_NOTIFICATION_TRACKER
  2
AecDbNotificationTracker
  3
AecBase50|Product Desc: Autodesk Architectural Desktop 2007 |Company: Autodesk,Inc. |WEB Address: www.autodesk.com
 90
    32897
280
     0
281
     0
  0
CLASS
  1
AEC_DISP_REP_EDITINPLACEPROFILE
  2
AecDbDispRepEditInPlaceProfile
  3
AecBase50|Product Desc: Autodesk Architectural Desktop 2007 |Company: Autodesk,Inc. |WEB Address: www.autodesk.com
 90
      129
280
     0
281
     0
  0
CLASS
  1
AEC_DISP_PROPS_EDITINPLACEPROFILE_MODEL
  2
AecDbDispPropsEditInPlaceProfile
  3
AecBase50|Product Desc: Autodesk Architectural Desktop 2007 |Company: Autodesk,Inc. |WEB Address: www.autodesk.com
 90
      129
280
     0
281
     0
  0
CLASS
  1
AEC_DISP_REP_MATERIAL
  2
AecDbDispRepMaterial
  3
AecBase50|Product Desc: Autodesk Architectural Desktop 2007 |Company: Autodesk,Inc. |WEB Address: www.autodesk.com
 90
      129
280
     0
281
     0
  0
CLASS
  1
AEC_DISP_PROPS_MATERIAL
  2
AecDbDispPropsMaterial
  3
AecBase50|Product Desc: Autodesk Architectural Desktop 2007 |Company: Autodesk,Inc. |WEB Address: www.autodesk.com
 90
      129
280
     0
281
     0
  0
CLASS
  1
AEC_DISP_REP_STAIR_PLAN_OVERLAPPING
  2
AecDbDispRepStairPlanOverlapping
  3
AecArchBase50|Product Desc: Autodesk Architectural Desktop 2007 |Company: Autodesk,Inc. |WEB Address: www.autodesk.com
 90
      129
280
     0
281
     0
  0
CLASS
  1
AEC_DISP_PROPS_STAIR_PLAN_OVERLAPPING
  2
AecDbDispPropsStairPlanOverlapping
  3
AecArchBase50|Product Desc: Autodesk Architectural Desktop 2007 |Company: Autodesk,Inc. |WEB Address: www.autodesk.com
 90
      129
280
     0
281
     0
  0
CLASS
  1
AEC_DISP_REP_WINDOWASSEMBLY_SILL_PLAN
  2
AecDbDispRepWindowAssemblySillPlan
  3
AecArchBase50|Product Desc: Autodesk Architectural Desktop 2007 |Company: Autodesk,Inc. |WEB Address: www.autodesk.com
 90
      129
280
     0
281
     0
  0
CLASS
  1
AEC_DISP_PROPS_WINDOW_ASSEMBLY_SILL_PLAN
  2
AecDbDispPropsWindowAssemblySillPlan
  3
AecArchBase50|Product Desc: Autodesk Architectural Desktop 2007 |Company: Autodesk,Inc. |WEB Address: www.autodesk.com
 90
      129
280
     0
281
     0
  0
CLASS
  1
SPATIAL_INDEX
  2
AcDbSpatialIndex
  3
ObjectDBX Classes
 90
        0
280
     0
281
     0
  0
CLASS
  1
AEC_MASS_ELEM_STYLE
  2
AecDbMassElemStyle
  3
AecBaseEx50|Product Desc: Autodesk Architectural Desktop 2007 |Company: Autodesk,Inc. |WEB Address: www.autodesk.com
 90
    32897
280
     0
281
     0
  0
CLASS
  1
MATERIAL
  2
AcDbMaterial
  3
ObjectDBX Classes
 90
     1153
280
     0
281
     0
  0
CLASS
  1
AEC_CURTAIN_WALL_UNIT_STYLE
  2
AecDbCurtainWallUnitStyle
  3
AecArchBase50|Product Desc: Autodesk Architectural Desktop 2007 |Company: Autodesk,Inc. |WEB Address: www.autodesk.com
 90
    32897
280
     0
281
     0
  0
CLASS
  1
AEC_CURTAIN_WALL_LAYOUT_STYLE
  2
AecDbCurtainWallLayoutStyle
  3
AecArchBase50|Product Desc: Autodesk Architectural Desktop 2007 |Company: Autodesk,Inc. |WEB Address: www.autodesk.com
 90
    32897
280
     0
281
     0
  0
CLASS
  1
AEC_DOOR_STYLE
  2
AecDbDoorStyle
  3
AecArchBase50|Product Desc: Autodesk Architectural Desktop 2007 |Company: Autodesk,Inc. |WEB Address: www.autodesk.com
 90
    32897
280
     0
281
     0
  0
CLASS
  1
AEC_WINDOW_STYLE
  2
AecDbWindowStyle
  3
AecArchBase50|Product Desc: Autodesk Architectural Desktop 2007 |Company: Autodesk,Inc. |WEB Address: www.autodesk.com
 90
    32897
280
     0
281
     0
  0
CLASS
  1
AEC_POLYGON_STYLE
  2
AecDbPolygonStyle
  3
AecBaseEx50|Product Desc: Autodesk Architectural Desktop 2007 |Company: Autodesk,Inc. |WEB Address: www.autodesk.com
 90
    32897
280
     0
281
     0
  0
CLASS
  1
AEC_WINDOW_ASSEMBLY_STYLE
  2
AecDbWindowAssemblyStyle
  3
AecArchBase50|Product Desc: Autodesk Architectural Desktop 2007 |Company: Autodesk,Inc. |WEB Address: www.autodesk.com
 90
    32897
280
     0
281
     0
  0
CLASS
  1
AEC_DISP_REP_GRIP_SAMPLER
  2
AecDbDispRepGripSampler
  3
AecTestBase40
 90
    32897
280
     0
281
     0
  0
CLASS
  1
AEC_DISP_ROPS_RAILING_PLAN_50
  2
AecDbDispPropsRailingPlan50
  3
AecArchDACHBase50|Product Desc: Autodesk Architectural Desktop 2007 |Company: Autodesk,Inc. |WEB Address: www.autodesk.com
 90
      129
280
     0
281
     0
  0
CLASS
  1
AEC_STAIR_WINDER_TYPE_BALANCED
  2
AecDbStairWinderTypeBalanced
  3
AecArchBase50|Product Desc: Autodesk Architectural Desktop 2007 |Company: Autodesk,Inc. |WEB Address: www.autodesk.com
 90
    32897
280
     0
281
     0
  0
CLASS
  1
AEC_STAIR_WINDER_TYPE_SINGLE_POINT
  2
AecDbStairWinderTypeSinglePoint
  3
AecArchBase50|Product Desc: Autodesk Architectural Desktop 2007 |Company: Autodesk,Inc. |WEB Address: www.autodesk.com
 90
    32897
280
     0
281
     0
  0
CLASS
  1
AEC_STAIR_WINDER_TYPE_MANUAL
  2
AecDbStairWinderTypeManual
  3
AecArchBase50|Product Desc: Autodesk Architectural Desktop 2007 |Company: Autodesk,Inc. |WEB Address: www.autodesk.com
 90
    32897
280
     0
281
     0
  0
CLASS
  1
AEC_STAIR_WINDER_STYLE
  2
AecDbStairWinderStyle
  3
AecArchBase50|Product Desc: Autodesk Architectural Desktop 2007 |Company: Autodesk,Inc. |WEB Address: www.autodesk.com
 90
    32897
280
     0
281
     0
  0
CLASS
  1
AEC_STAIR
  2
AecDbStair
  3
AecArchBase50|Product Desc: Autodesk Architectural Desktop 2007 |Company: Autodesk,Inc. |WEB Address: www.autodesk.com
 90
    33661
280
     0
281
     1
  0
CLASS
  1
AEC_MASKBLOCK_DEF
  2
AecDbMaskBlockDef
  3
AecBase50|Product Desc: Autodesk Architectural Desktop 2007 |Company: Autodesk,Inc. |WEB Address: www.autodesk.com
 90
    32897
280
     0
281
     0
  0
CLASS
  1
SORTENTSTABLE
  2
AcDbSortentsTable
  3
ObjectDBX Classes
 90
        0
280
     0
281
     0
  0
CLASS
  1
AECS_MEMBER_NODE_SHAPE
  2
AecsDbMemberNodeShape
  3
AecStructureBase50|Product Desc: Autodesk Architectural Desktop 2007 |Company: Autodesk,Inc. |WEB Address: www.autodesk.com
 90
    32897
280
     0
281
     0
  0
CLASS
  1
AECS_MEMBER_STYLE
  2
AecsDbMemberStyle
  3
AecStructureBase50|Product Desc: Autodesk Architectural Desktop 2007 |Company: Autodesk,Inc. |WEB Address: www.autodesk.com
 90
    32897
280
     0
281
     0
  0
CLASS
  1
AECS_MEMBER
  2
AecsDbMember
  3
AecStructureBase50|Product Desc: Autodesk Architectural Desktop 2007 |Company: Autodesk,Inc. |WEB Address: www.autodesk.com
 90
    33661
280
     0
281
     1
  0
CLASS
  1
AEC_MVBLOCK_REF
  2
AecDbMvBlockRef
  3
AecBase50|Product Desc: Autodesk Architectural Desktop 2007 |Company: Autodesk,Inc. |WEB Address: www.autodesk.com
 90
    33661
280
     0
281
     1
  0
CLASS
  1
AEC_VARS_STRUCTUREBASE
  2
AecsDbVarsStructureBase
  3
AecStructureBase50|Product Desc: Autodesk Architectural Desktop 2007 |Company: Autodesk,Inc. |WEB Address: www.autodesk.com
 90
      129
280
     0
281
     0
  0
CLASS
  1
AEC_MASS_ELEM
  2
AecDbMassElem
  3
AecBaseEx50|Product Desc: Autodesk Architectural Desktop 2007 |Company: Autodesk,Inc. |WEB Address: www.autodesk.com
 90
    33661
280
     0
281
     1
  0
CLASS
  1
AEC_WALL
  2
AecDbWall
  3
AecArchBase50|Product Desc: Autodesk Architectural Desktop 2007 |Company: Autodesk,Inc. |WEB Address: www.autodesk.com
 90
    33661
280
     0
281
     1
  0
CLASS
  1
AEC_WINDOW
  2
AecDbWindow
  3
AecArchBase50|Product Desc: Autodesk Architectural Desktop 2007 |Company: Autodesk,Inc. |WEB Address: www.autodesk.com
 90
    33661
280
     0
281
     1
  0
CLASS
  1
AEC_ANCHOR_OPENINGBASE_TO_WALL
  2
AecDbAnchorOpeningBaseToWall
  3
AecArchBase50|Product Desc: Autodesk Architectural Desktop 2007 |Company: Autodesk,Inc. |WEB Address: www.autodesk.com
 90
    32897
280
     0
281
     0
  0
CLASS
  1
AEC_DOOR
  2
AecDbDoor
  3
AecArchBase50|Product Desc: Autodesk Architectural Desktop 2007 |Company: Autodesk,Inc. |WEB Address: www.autodesk.com
 90
    33661
280
     0
281
     1
  0
CLASS
  1
AEC_ANCHOR_TAG_TO_ENT
  2
AecDbAnchorTagToEnt
  3
AecScheduleData50|Product Desc: Autodesk Architectural Desktop 2007 |Company: Autodesk,Inc. |WEB Address: www.autodesk.com
 90
    32897
280
     0
281
     0
  0
CLASS
  1
AEC_OPENING
  2
AecDbOpening
  3
AecArchBase50|Product Desc: Autodesk Architectural Desktop 2007 |Company: Autodesk,Inc. |WEB Address: www.autodesk.com
 90
    33661
280
     0
281
     1
  0
CLASS
  1
AEC_POLYGON
  2
AecDbPolygon
  3
AecBaseEx50|Product Desc: Autodesk Architectural Desktop 2007 |Company: Autodesk,Inc. |WEB Address: www.autodesk.com
 90
    33661
280
     0
281
     1
  0
CLASS
  1
AEC_ROOFSLAB
  2
AecDbRoofSlab
  3
AecArchBase50|Product Desc: Autodesk Architectural Desktop 2007 |Company: Autodesk,Inc. |WEB Address: www.autodesk.com
 90
    33661
280
     0
281
     1
  0
CLASS
  1
AEC_SPACE_BOUNDARY
  2
AecDbSpaceBoundary
  3
AecArchBase50|Product Desc: Autodesk Architectural Desktop 2007 |Company: Autodesk,Inc. |WEB Address: www.autodesk.com
 90
    33661
280
     0
281
     1
  0
CLASS
  1
AEC_SPACE
  2
AecDbSpace
  3
AecArchBase50|Product Desc: Autodesk Architectural Desktop 2007 |Company: Autodesk,Inc. |WEB Address: www.autodesk.com
 90
    33661
280
     0
281
     1
  0
CLASS
  1
AEC_CLASSIFICATION_SYSTEM_DEF
  2
AecDbClassificationSystemDef
  3
AecBase50|Product Desc: Autodesk Architectural Desktop 2007 |Company: Autodesk,Inc. |WEB Address: www.autodesk.com
 90
      129
280
     0
281
     0
  0
CLASS
  1
AEC_CLASSIFICATION_DEF
  2
AecDbClassificationDef
  3
AecBase50|Product Desc: Autodesk Architectural Desktop 2007 |Company: Autodesk,Inc. |WEB Address: www.autodesk.com
 90
      129
280
     0
281
     0
  0
CLASS
  1
AEC_CLEANUP_GROUP_DEF
  2
AecDbCleanupGroupDef
  3
AecArchBase50|Product Desc: Autodesk Architectural Desktop 2007 |Company: Autodesk,Inc. |WEB Address: www.autodesk.com
 90
      129
280
     0
281
     0
  0
CLASS
  1
AEC_STDSIZE_OPENINGS
  2
AecDbStdSizeOpeningList
  3
AecArchBase50|Product Desc: Autodesk Architectural Desktop 2007 |Company: Autodesk,Inc. |WEB Address: www.autodesk.com
 90
    32897
280
     0
281
     0
  0
CLASS
  1
AEC_ENDCAP_STYLE
  2
AecDbEndcapStyle
  3
AecArchBase50|Product Desc: Autodesk Architectural Desktop 2007 |Company: Autodesk,Inc. |WEB Address: www.autodesk.com
 90
      129
280
     0
281
     0
  0
CLASS
  1
AEC_FRAME_DEF
  2
AecDbOpeningEndcapStyle
  3
AecArchBase50|Product Desc: Autodesk Architectural Desktop 2007 |Company: Autodesk,Inc. |WEB Address: www.autodesk.com
 90
      129
280
     0
281
     0
  0
CLASS
  1
AEC_PROFILE_DEF
  2
AecDbProfileDef
  3
AecBase50|Product Desc: Autodesk Architectural Desktop 2007 |Company: Autodesk,Inc. |WEB Address: www.autodesk.com
 90
    32897
280
     0
281
     0
  0
CLASS
  1
AEC_ROOFSLAB_STYLE
  2
AecDbRoofSlabStyle
  3
AecArchBase50|Product Desc: Autodesk Architectural Desktop 2007 |Company: Autodesk,Inc. |WEB Address: www.autodesk.com
 90
    32897
280
     0
281
     0
  0
CLASS
  1
AEC_ROOFSLABEDGE_STYLE
  2
AecDbRoofSlabEdgeStyle
  3
AecArchBase50|Product Desc: Autodesk Architectural Desktop 2007 |Company: Autodesk,Inc. |WEB Address: www.autodesk.com
 90
    32897
280
     0
281
     0
  0
CLASS
  1
AEC_SPACE_STYLES
  2
AecDbSpaceStyle
  3
AecArchBase50|Product Desc: Autodesk Architectural Desktop 2007 |Company: Autodesk,Inc. |WEB Address: www.autodesk.com
 90
      129
280
     0
281
     0
  0
CLASS
  1
AEC_WALL_STYLE
  2
AecDbWallStyle
  3
AecArchBase50|Product Desc: Autodesk Architectural Desktop 2007 |Company: Autodesk,Inc. |WEB Address: www.autodesk.com
 90
      129
280
     0
281
     0
  0
CLASS
  1
AEC_DIMENSION_GROUP
  2
AecDbDimensionGroup
  3
AecArchDACHBase50|Product Desc: Autodesk Architectural Desktop 2007 |Company: Autodesk,Inc. |WEB Address: www.autodesk.com
 90
    33661
280
     0
281
     1
  0
CLASS
  1
AEC_ANCHOR_TO_N_REF
  2
AecDbAnchorToNRef
  3
AecArchDACHBase50|Product Desc: Autodesk Architectural Desktop 2007 |Company: Autodesk,Inc. |WEB Address: www.autodesk.com
 90
    32897
280
     0
281
     0
  0
CLASS
  1
AEC_SLABEDGE_STYLE
  2
AecDbSlabEdgeStyle
  3
AecArchBase50|Product Desc: Autodesk Architectural Desktop 2007 |Company: Autodesk,Inc. |WEB Address: www.autodesk.com
 90
    32897
280
     0
281
     0
  0
CLASS
  1
AEC_SLAB_STYLE
  2
AecDbSlabStyle
  3
AecArchBase50|Product Desc: Autodesk Architectural Desktop 2007 |Company: Autodesk,Inc. |WEB Address: www.autodesk.com
 90
    32897
280
     0
281
     0
  0
CLASS
  1
AEC_SCHEDULE_TABLE
  2
AecDbScheduleTable
  3
AecSchedule50|Product Desc: Autodesk Architectural Desktop 2007 |Company: Autodesk,Inc. |WEB Address: www.autodesk.com
 90
    33661
280
     0
281
     1
  0
CLASS
  1
AEC_SLAB
  2
AecDbSlab
  3
AecArchBase50|Product Desc: Autodesk Architectural Desktop 2007 |Company: Autodesk,Inc. |WEB Address: www.autodesk.com
 90
    33661
280
     0
281
     1
  0
CLASS
  1
AEC_DIMGROUP_OVERRIDE_CONTAINER
  2
AecDbDimensionGroupOverride
  3
AecArchDACHBase50|Product Desc: Autodesk Architectural Desktop 2007 |Company: Autodesk,Inc. |WEB Address: www.autodesk.com
 90
    32897
280
     0
281
     0
  0
CLASS
  1
AEC_RAILING_STYLE
  2
AecDbRailingStyle
  3
AecArchBase50|Product Desc: Autodesk Architectural Desktop 2007 |Company: Autodesk,Inc. |WEB Address: www.autodesk.com
 90
    32897
280
     0
281
     0
  0
CLASS
  1
AEC_RAILING
  2
AecDbRailing
  3
AecArchBase50|Product Desc: Autodesk Architectural Desktop 2007 |Company: Autodesk,Inc. |WEB Address: www.autodesk.com
 90
    33661
280
     0
281
     1
  0
CLASS
  1
AEC_ANCHOR
  2
AecDbAnchor
  3
AecBase50|Product Desc: Autodesk Architectural Desktop 2007 |Company: Autodesk,Inc. |WEB Address: www.autodesk.com
 90
    32897
280
     0
281
     0
  0
CLASS
  1
AEC_ANCHOR_RAILING_TO_STAIR
  2
AecDbAnchorRailingToStair
  3
AecArchBase50|Product Desc: Autodesk Architectural Desktop 2007 |Company: Autodesk,Inc. |WEB Address: www.autodesk.com
 90
    32897
280
     0
281
     0
  0
CLASS
  1
AEC_AREA
  2
AecDbArea
  3
AecAreaCalculationBase50|Product Desc: Autodesk Architectural Desktop 2007 |Company: Autodesk,Inc. |WEB Address: www.autodesk.com
 90
    33661
280
     0
281
     1
  0
CLASS
  1
RTEXT
  2
RText
  3
RText|AutoCAD Express Tool|expresstools@autodesk.com
 90
    35839
280
     0
281
     1
  0
CLASS
  1
AEC_SLICE
  2
AecDbSlice
  3
AecBase50|Product Desc: Autodesk Architectural Desktop 2007 |Company: Autodesk,Inc. |WEB Address: www.autodesk.com
 90
    33661
280
     0
281
     1
  0
CLASS
  1
DIMASSOC
  2
AcDbDimAssoc
  3
"AcDbDimAssoc|Product Desc:     AcDim ARX App For Dimension|Company:          Autodesk, Inc.|WEB Address:      www.autodesk.com"
 90
    32768
280
     0
281
     0
  0
CLASS
  1
AEC_WALLMOD_STYLE
  2
AecDbWallModStyle
  3
AecArchBase50|Product Desc: Autodesk Architectural Desktop 2007 |Company: Autodesk,Inc. |WEB Address: www.autodesk.com
 90
    32897
280
     0
281
     0
  0
CLASS
  1
ABAD_DB_DISPREP_ROOF_HATCH
  2
AbAdDbDispRepRoofHatch
  3
AbAdDbWinRoof|Custom Application
 90
        1
280
     0
281
     0
  0
CLASS
  1
ABAD_DB_DISPPROP_ROOF_HATCH
  2
AbAdDbDispPropsRoofHatch
  3
AbAdDbWinRoof|Custom Application
 90
        1
280
     0
281
     0
  0
CLASS
  1
ABAD_DB_DISPREP_ROOFSLAB_HATCH
  2
AbAdDbDispRepRoofSlabHatch
  3
AbAdDbWinRoof|Custom Application
 90
        1
280
     0
281
     0
  0
CLASS
  1
ABAD_DB_WINROOF_DISPREP
  2
AbAdDbWinRoofDispRep
  3
AbAdDbWinRoof|Custom Application
 90
        1
280
     0
281
     0
  0
CLASS
  1
AB_AD_DISP_PROPS_WINROOF
  2
AbAdDbWinRoofDispProp
  3
AbAdDbWinRoof|Custom Application
 90
        1
280
     0
281
     0
  0
CLASS
  1
ABAD_DB_WINROOF_DISPREP_DRAWINGROOF
  2
AbAdDbWinRoofDispRepDrawingRoof
  3
AbAdDbWinRoof|Custom Application
 90
        1
280
     0
281
     0
  0
CLASS
  1
AB_AD_DISP_PROPS_WINROOF_DRAWINGROOF
  2
AbAdDbWinRoofDispPropDrawingRoof
  3
AbAdDbWinRoof|Custom Application
 90
        1
280
     0
281
     0
  0
CLASS
  1
ABAD_DB_WINROOF_DISPREP_PLAN
  2
AbAdDbWinRoofDispRepPlan
  3
AbAdDbWinRoof|Custom Application
 90
        1
280
     0
281
     0
  0
CLASS
  1
AB_AD_DISP_PROPS_WINROOF_PLAN
  2
AbAdDbWinRoofDispPropPlan
  3
AbAdDbWinRoof|Custom Application
 90
        1
280
     0
281
     0
  0
CLASS
  1
ABAD_WIN_PANELS_DISPREP
  2
AbAdDispRepWinPanels
  3
AbAdWinDoorPanelsDbx|Custom Application
 90
        1
280
     0
281
     0
  0
CLASS
  1
ABAD_WIN_PANELS_DISPPROP
  2
AbAdDispPropWinPanels
  3
AbAdWinDoorPanelsDbx|Custom Application
 90
        1
280
     0
281
     0
  0
CLASS
  1
ABAD_WIN_PANELS_ELEVATION_DISPREP
  2
AbAdDispRepWinPanelsElev
  3
AbAdWinDoorPanelsDbx|Custom Application
 90
        1
280
     0
281
     0
  0
CLASS
  1
ABAD_DOOR_DISP_REP
  2
AbAdDoorDispRep
  3
AbAdDoorDispRep|Custom Application
 90
        1
280
     0
281
     0
  0
CLASS
  1
ABAD_DOOR_DISP_PROP
  2
AbAdDoorDispProp
  3
AbAdDoorDispRep|Custom Application
 90
        1
280
     0
281
     0
  0
CLASS
  1
ABAD_DOOR_THRESHOLD_DISP_REP
  2
AbAdThresholdDispRep
  3
AbAdDoorDispRep|Custom Application
 90
        1
280
     0
281
     0
  0
CLASS
  1
ABAD_DOOR_THRESHOLD_DISP_PROP
  2
AbAdThresholdDispProps
  3
AbAdDoorDispRep|Custom Application
 90
        1
280
     0
281
     0
  0
CLASS
  1
ABAD_ISOLATION_DISPREP
  2
AbAdIsolationDispRep
  3
AbAdIsolationDbx|Custom Application
 90
        1
280
     0
281
     0
  0
CLASS
  1
ABAD_ISOLATION_DISPPROPS
  2
AbAdIsolationDispProps
  3
AbAdIsolationDbx|Custom Application
 90
        1
280
     0
281
     0
  0
CLASS
  1
ABAD_PLATEOPENING_DISPREP_DESC
  2
AbAdOpeningPlateRepDesc
  3
AbAdPlateDbx|Custom Application
 90
        1
280
     0
281
     0
  0
CLASS
  1
ABAD_PLATEOPENING_DISPPROPS_DESC
  2
AbAdOpeningPlatePropsDesc
  3
AbAdPlateDbx|Custom Application
 90
        1
280
     0
281
     0
  0
CLASS
  1
ABAD_PLATEOPENING_DISPREP_MODEL
  2
AbAdOpeningPlateRepModel
  3
AbAdPlateDbx|Custom Application
 90
        1
280
     0
281
     0
  0
CLASS
  1
ABAD_PLATEOPENING_DISPPROPS_MODEL
  2
AbAdOpeningPlatePropsModel
  3
AbAdPlateDbx|Custom Application
 90
        1
280
     0
281
     0
  0
CLASS
  1
ABAD_PLATEOPENING_DISPREP_PLAN
  2
AbAdOpeningPlateRepPlan
  3
AbAdPlateDbx|Custom Application
 90
        1
280
     0
281
     0
  0
CLASS
  1
ABAD_PLATEOPENING_DISPPROPS_PLAN
  2
AbAdOpeningPlatePropsPlan
  3
AbAdPlateDbx|Custom Application
 90
        1
280
     0
281
     0
  0
CLASS
  1
ABAD_PLATEOPENING_DISPREP_SIMPLE
  2
AbAdOpeningPlateRepSimple
  3
AbAdPlateDbx|Custom Application
 90
        1
280
     0
281
     0
  0
CLASS
  1
ABAD_PLATEOPENING_DISPPROPS_SIMPLE
  2
AbAdOpeningPlatePropsSimple
  3
AbAdPlateDbx|Custom Application
 90
        1
280
     0
281
     0
  0
CLASS
  1
ABAD_PLATE_DISPREPPLAN
  2
AbAdPlateDispRepPlan
  3
AbAdPlateDbx|Custom Application
 90
        1
280
     0
281
     0
  0
CLASS
  1
ABAD_PLATE_DISPPROPS_PLAN
  2
AbAdPlateDispPropsPlan
  3
AbAdPlateDbx|Custom Application
 90
        1
280
     0
281
     0
  0
CLASS
  1
ABAD_PLATE_DISPREPCEILING
  2
AbAdPlateDispRepCeiling
  3
AbAdPlateDbx|Custom Application
 90
        1
280
     0
281
     0
  0
CLASS
  1
ABAD_PLATE_DISPREPMODEL
  2
AbAdPlateDispRepModel
  3
AbAdPlateDbx|Custom Application
 90
        1
280
     0
281
     0
  0
CLASS
  1
ABAD_PLATE_DISPPROPS_BASE
  2
AbAdPlateDispPropsBase
  3
AbAdPlateDbx|Custom Application
 90
        1
280
     0
281
     0
  0
CLASS
  1
ABAD_ROOF_OUTLINE_DISPREP
  2
AbAdRoofOutlineDispRep
  3
AbAdRoofDispRep|Custom Application
 90
        1
280
     0
281
     0
  0
CLASS
  1
ABAD_ROOF_OUTLINE_DISP_PROP
  2
AbAdRoofOutlineDispProp
  3
AbAdRoofDispRep|Custom Application
 90
        1
280
     0
281
     0
  0
CLASS
  1
ABAD_ROOF_PLANLOFT_DISPREP
  2
AbAdRoofPlanLoftDispRep
  3
AbAdRoofDispRep|Custom Application
 90
        1
280
     0
281
     0
  0
CLASS
  1
ABAD_ROOF_PLANLOFT_DISPROP
  2
AbAdRoofPlanLoftDispProp
  3
AbAdRoofDispRep|Custom Application
 90
        1
280
     0
281
     0
  0
CLASS
  1
ABAD_STAIR_DESC_DISPREP
  2
AbAdStairDesDispRep
  3
AbAdStairDispRep|Custom Application
 90
        1
280
     0
281
     0
  0
CLASS
  1
ADCG_STAIR_DESC_DISPROP
  2
AbAdStairDesDispProp
  3
AbAdStairDispRep|Custom Application
 90
        1
280
     0
281
     0
  0
CLASS
  1
ABAD_STAIR_DISP_REP
  2
AbAdStairDispRep
  3
AbAdStairDispRep|Custom Application
 90
        1
280
     0
281
     0
  0
CLASS
  1
ABAD_STAIR_DISP_PROP
  2
AbAdStairDispProp
  3
AbAdStairDispRep|Custom Application
 90
        1
280
     0
281
     0
  0
CLASS
  1
ABAD_WALL_DISP_REP
  2
AbAdWallDispRep
  3
AbAdWallDispRep|Custom Application
 90
        1
280
     0
281
     0
  0
CLASS
  1
ABAD_WINDOW_DISP_REP
  2
AbAdWindowDispRep
  3
AbAdWindowDispRep|Custom Application
 90
        1
280
     0
281
     0
  0
CLASS
  1
ABAD_WINDOW_DISP_PROP
  2
AbAdWindowDispProp
  3
AbAdWindowDispRep|Custom Application
 90
        1
280
     0
281
     0
  0
CLASS
  1
TABLESTYLE
  2
AcDbTableStyle
  3
ObjectDBX Classes
 90
     4095
280
     0
281
     0
  0
CLASS
  1
AEC_WALLMODIFIER_EDITOR
  2
AecDbWallModifierEditor
  3
AecArchBase50|Product Desc: Autodesk Architectural Desktop 2007 |Company: Autodesk,Inc. |WEB Address: www.autodesk.com
 90
    32897
280
     0
281
     0
  0
CLASS
  1
AEC_EDIT_IN_PLACE_PROFILE
  2
AecDbEditInPlaceProfile
  3
AecBase50|Product Desc: Autodesk Architectural Desktop 2007 |Company: Autodesk,Inc. |WEB Address: www.autodesk.com
 90
    33661
280
     0
281
     1
  0
CLASS
  1
OBJECT_PTR
  2
CAseDLPNTableRecord
  3
ASE-LPNTableRecord
 90
        1
280
     0
281
     0
  0
CLASS
  1
AEC_ANCHOR_MVB_TO_UCS
  2
AecDbAnchorMVBToUCS
  3
AecBase50|Product Desc: Autodesk Architectural Desktop 2007 |Company: Autodesk,Inc. |WEB Address: www.autodesk.com
 90
    32897
280
     0
281
     0
  0
CLASS
  1
AEC_DISP_REP_DISPLAYTHEME
  2
AecDbDispRepDisplayTheme
  3
AecBase50|Product Desc: Autodesk Architectural Desktop 2007 |Company: Autodesk,Inc. |WEB Address: www.autodesk.com
 90
      129
280
     0
281
     0
  0
CLASS
  1
AEC_DISP_PROPS_DISPLAYTHEME
  2
AecDbDispPropsDisplayTheme
  3
AecBase50|Product Desc: Autodesk Architectural Desktop 2007 |Company: Autodesk,Inc. |WEB Address: www.autodesk.com
 90
      129
280
     0
281
     0
  0
CLASS
  1
AEC_DISP_REP_ANCHOR_EXT_TAG_TO_ENT
  2
AecDbDispRepAnchorExtendedTagToEnt
  3
AecScheduleData50|Product Desc: Autodesk Architectural Desktop 2007 |Company: Autodesk,Inc. |WEB Address: www.autodesk.com
 90
      129
280
     0
281
     0
  0
CLASS
  1
VISUALSTYLE
  2
AcDbVisualStyle
  3
ObjectDBX Classes
 90
     4095
280
     0
281
     0
  0
CLASS
  1
AEC_AECDBDISPREPZONE100
  2
AecDbDispRepZonePlan100
  3
AecArchDACHBase50|Product Desc: Autodesk Architectural Desktop 2007 |Company: Autodesk,Inc. |WEB Address: www.autodesk.com
 90
      129
280
     0
281
     0
  0
CLASS
  1
AEC_DISP_PROPS_ZONE
  2
AecDbDispPropsZone
  3
AecArchBase50|Product Desc: Autodesk Architectural Desktop 2007 |Company: Autodesk,Inc. |WEB Address: www.autodesk.com
 90
      129
280
     0
281
     0
  0
CLASS
  1
AEC_AECDBDISPREPZONE50
  2
AecDbDispRepZonePlan50
  3
AecArchDACHBase50|Product Desc: Autodesk Architectural Desktop 2007 |Company: Autodesk,Inc. |WEB Address: www.autodesk.com
 90
      129
280
     0
281
     0
  0
CLASS
  1
AEC_DISP_REP_SPACE_DECOMPOSED
  2
AecDbDispRepSpaceDecomposed
  3
AecArchBase50|Product Desc: Autodesk Architectural Desktop 2007 |Company: Autodesk,Inc. |WEB Address: www.autodesk.com
 90
      129
280
     0
281
     0
  0
CLASS
  1
AEC_DISP_PROPS_SPACE_DECOMPOSED
  2
AecDbDispPropsSpaceDecomposed
  3
AecArchBase50|Product Desc: Autodesk Architectural Desktop 2007 |Company: Autodesk,Inc. |WEB Address: www.autodesk.com
 90
      129
280
     0
281
     0
  0
CLASS
  1
AEC_DISP_REP_ZONE
  2
AecDbDispRepZone
  3
AecArchBase50|Product Desc: Autodesk Architectural Desktop 2007 |Company: Autodesk,Inc. |WEB Address: www.autodesk.com
 90
      129
280
     0
281
     0
  0
CLASS
  1
AEC_LIST_DEF
  2
AecDbListDefinition
  3
AecBase50|Product Desc: Autodesk Architectural Desktop 2007 |Company: Autodesk,Inc. |WEB Address: www.autodesk.com
 90
      129
280
     0
281
     0
  0
CLASS
  1
EXACXREFPANELOBJECT
  2
ExAcXREFPanelObject
  3
EXAC_ESW
 90
    33793
280
     0
281
     0
  0
CLASS
  1
NPOCOLLECTION
  2
AcDbImpNonPersistentObjectsCollection
  3
ObjectDBX Classes
 90
    33921
280
     0
281
     0
  0
CLASS
  1
SCALE
  2
AcDbScale
  3
ObjectDBX Classes
 90
     1153
280
     0
281
     0
  0
CLASS
  1
MLEADERSTYLE
  2
AcDbMLeaderStyle
  3
ACDB_MLEADERSTYLE_CLASS
 90
     4095
280
     0
281
     0
  0
CLASS
  1
CELLSTYLEMAP
  2
AcDbCellStyleMap
  3
ObjectDBX Classes
 90
     1152
280
     0
281
     0
  0
ENDSEC
  0
SECTION
  2
TABLES
  0
TABLE
  2
VPORT
  5
8
330
0
100
AcDbSymbolTable
 70
     1
  0
VPORT
  5
F76F
330
8
100
AcDbSymbolTableRecord
100
AcDbViewportTableRecord
  2
*Active
 70
     0
 10
0.0
 20
0.0
 11
1.0
 21
1.0
 12
10286.13879899992
 22
4510.144651141198
 13
0.0
 23
0.0
 14
1.0
 24
1.0
 15
3000.0
 25
3000.0
 16
0.0
 26
0.0
 36
1.0
 17
368.2406903388942
 27
714.5874646818969
 37
-408.808817214672
 40
17438.68327370788
 41
2.246612466124661
 42
50.0
 43
0.0
 44
0.0
 50
0.0
 51
0.0
 71
     0
 72
 20000
 73
     1
 74
     1
 75
     0
 76
     0
 77
     0
 78
     0
281
     0
 65
     1
110
0.0
120
0.0
130
0.0
111
1.0
121
0.0
131
0.0
112
0.0
122
1.0
132
0.0
 79
     0
146
0.0
  0
ENDTAB
  0
TABLE
  2
LTYPE
  5
5
330
0
100
AcDbSymbolTable
 70
     6
  0
LTYPE
  5
14
330
5
100
AcDbSymbolTableRecord
100
AcDbLinetypeTableRecord
  2
ByBlock
 70
     0
  3

 72
    65
 73
     0
 40
0.0
  0
LTYPE
  5
15
330
5
100
AcDbSymbolTableRecord
100
AcDbLinetypeTableRecord
  2
ByLayer
 70
     0
  3

 72
    65
 73
     0
 40
0.0
  0
LTYPE
  5
16
330
5
100
AcDbSymbolTableRecord
100
AcDbLinetypeTableRecord
  2
Continuous
 70
     0
  3
Solid line
 72
    65
 73
     0
 40
0.0
  0
LTYPE
  5
26E
330
5
100
AcDbSymbolTableRecord
100
AcDbLinetypeTableRecord
  2
HIDDEN2
 70
     0
  3
Hidden (.5x) _ _ _ _ _ _ _ _ _ _ _ _ _ _ _ _ _
 72
    65
 73
     2
 40
0.1875
 49
0.125
 74
     0
 49
-0.0625
 74
     0
  0
LTYPE
  5
1BEC
330
5
100
AcDbSymbolTableRecord
100
AcDbLinetypeTableRecord
  2
DASHED
 70
     0
  3
Dashed __ __ __ __ __ __ __ __ __ __ __ __ __ _
 72
    65
 73
     2
 40
0.75
 49
0.5
 74
     0
 49
-0.25
 74
     0
  0
LTYPE
  5
6165
330
5
100
AcDbSymbolTableRecord
100
AcDbLinetypeTableRecord
  2
DIVIDE2
 70
     0
  3
Divide (.5x) __..__..__..__..__..__..__..__.._
 72
    65
 73
     6
 40
15.875
 49
6.349999999999999
 74
     0
 49
-3.174999999999999
 74
     0
 49
0.0
 74
     0
 49
-3.174999999999999
 74
     0
 49
0.0
 74
     0
 49
-3.174999999999999
 74
     0
  0
LTYPE
  5
616F
330
5
100
AcDbSymbolTableRecord
100
AcDbLinetypeTableRecord
  2
DIVIDE
 70
     0
  3
Divide ____ . . ____ . . ____ . . ____ . . ____
 72
    65
 73
     6
 40
31.75
 49
12.7
 74
     0
 49
-6.349999999999999
 74
     0
 49
0.0
 74
     0
 49
-6.349999999999999
 74
     0
 49
0.0
 74
     0
 49
-6.349999999999999
 74
     0
  0
LTYPE
  5
9117
330
5
100
AcDbSymbolTableRecord
100
AcDbLinetypeTableRecord
  2
PHANTOM2
 70
     0
  3
Phantom (.5x) ___ _ _ ___ _ _ ___ _ _ ___ _ _
 72
    65
 73
     6
 40
1.25
 49
0.625
 74
     0
 49
-0.125
 74
     0
 49
0.125
 74
     0
 49
-0.125
 74
     0
 49
0.125
 74
     0
 49
-0.125
 74
     0
  0
ENDTAB
  0
TABLE
  2
LAYER
  5
2
102
{ACAD_XDICTIONARY
360
91F
102
}
330
0
100
AcDbSymbolTable
 70
    12
  0
LAYER
  5
10
102
{ACAD_XDICTIONARY
360
11E14
102
}
330
2
100
AcDbSymbolTableRecord
100
AcDbLayerTableRecord
  2
0
 70
     0
 62
     7
  6
Continuous
370
    -3
390
F
1001
AcAecLayerStandard
1000

1001
RAK
1000
{ACET-LAYISO
1070
     0
1070
     7
1000
Continuous
1071
       -3
1071
        1
1005
F
1000
ACET-LAYISO}
  0
LAYER
  5
222
102
{ACAD_XDICTIONARY
360
11E16
102
}
330
2
100
AcDbSymbolTableRecord
100
AcDbLayerTableRecord
  2
G-Anno-View
 70
     0
 62
   161
  6
Continuous
290
     0
370
    18
390
F
1001
AcAecLayerStandard
1000
NCSv2
1001
RAK
1000
{ACET-LAYISO
1070
     0
1070
   161
1000
Continuous
1071
       18
1071
        0
1005
F
1000
ACET-LAYISO}
  0
LAYER
  5
2A2
102
{ACAD_XDICTIONARY
360
11E18
102
}
330
2
100
AcDbSymbolTableRecord
100
AcDbLayerTableRecord
  2
G-Anno-Nplt
 70
     0
 62
   140
  6
Continuous
290
     0
370
    18
390
F
1001
AcAecLayerStandard
1000
NCSv2
1001
RAK
1000
{ACET-LAYISO
1070
     1
1070
   140
1000
Continuous
1071
       18
1071
        0
1005
F
1000
ACET-LAYISO}
  0
LAYER
  5
D21
330
2
100
AcDbSymbolTableRecord
100
AcDbLayerTableRecord
  2
Defpoints
 70
     0
 62
     7
  6
Continuous
290
     0
370
    -3
390
F
1001
AcAecLayerStandard
1000

1000
Default Non-Plotting Layer
1001
RAK
1000
{ACET-LAYISO
1070
     1
1070
     7
1000
Continuous
1071
       -3
1071
        0
1005
F
1000
ACET-LAYISO}
  0
LAYER
  5
433A
102
{ACAD_XDICTIONARY
360
11E1A
102
}
330
2
100
AcDbSymbolTableRecord
100
AcDbLayerTableRecord
  2
A-SchedObject-G
 70
     0
 62
   171
  6
Continuous
370
     9
390
F
1001
AcAecLayerStandard
1000
BS1192 - Descriptive
1001
RAK
1000
{ACET-LAYISO
1070
     0
1070
   171
1000
Continuous
1071
        9
1071
        1
1005
F
1000
ACET-LAYISO}
  0
LAYER
  5
4377
102
{ACAD_XDICTIONARY
360
11E1C
102
}
330
2
100
AcDbSymbolTableRecord
100
AcDbLayerTableRecord
  2
A-Window-T
 70
     0
 62
    91
  6
Continuous
370
    15
390
F
1001
AcAecLayerStandard
1000
BS1192 - Descriptive
1001
RAK
1000
{ACET-LAYISO
1070
     1
1070
    91
1000
Continuous
1071
       15
1071
        1
1005
F
1000
ACET-LAYISO}
  0
LAYER
  5
B8C9
102
{ACAD_XDICTIONARY
360
11E1E
102
}
330
2
100
AcDbSymbolTableRecord
100
AcDbLayerTableRecord
  2
WYMIARY
 70
     0
 62
     1
  6
Continuous
370
    -3
390
F
1001
RAK
1000
{ACET-LAYISO
1070
     0
1070
     1
1000
Continuous
1071
       -3
1071
        1
1005
F
1000
ACET-LAYISO}
  0
LAYER
  5
F86A
102
{ACAD_XDICTIONARY
360
11E20
102
}
330
2
100
AcDbSymbolTableRecord
100
AcDbLayerTableRecord
  2
0Wymiary-PL
 70
     0
 62
     1
  6
Continuous
370
     5
390
F
  0
LAYER
  5
FE57
102
{ACAD_XDICTIONARY
360
11E22
102
}
330
2
100
AcDbSymbolTableRecord
100
AcDbLayerTableRecord
  2
A-Anno-Scrn
 70
     0
 62
   250
  6
Continuous
370
    25
390
FE58
1001
AcAecLayerStandard
1000
AIA 2nd Edition
1001
RAK
1000
{ACET-LAYISO
1070
     0
1070
   250
1000
Continuous
1071
       25
1071
        1
1005
FE58
1000
ACET-LAYISO}
  0
LAYER
  5
10FCC
102
{ACAD_XDICTIONARY
360
11E24
102
}
330
2
100
AcDbSymbolTableRecord
100
AcDbLayerTableRecord
  2
0Napisy
 70
     0
 62
   150
  6
Continuous
370
    15
390
F
1001
RAK
1000
{ACET-LAYISO
1070
     0
1070
   150
1000
Continuous
1071
       15
1071
        1
1005
F
1000
ACET-LAYISO}
  0
LAYER
  5
10FCD
102
{ACAD_XDICTIONARY
360
11E26
102
}
330
2
100
AcDbSymbolTableRecord
100
AcDbLayerTableRecord
  2
NIEPLOT
 70
     0
 62
     2
  6
Continuous
290
     0
370
     5
390
F
1001
RAK
1000
{ACET-LAYISO
1070
     0
1070
     2
1000
Continuous
1071
        5
1071
        0
1005
F
1000
ACET-LAYISO}
  0
LAYER
  5
10FCE
102
{ACAD_XDICTIONARY
360
11E28
102
}
330
2
100
AcDbSymbolTableRecord
100
AcDbLayerTableRecord
  2
-przerywana
 70
     0
 62
   144
  6
DASHED
370
     5
390
F
1001
RAK
1000
{ACET-LAYISO
1070
     0
1070
   144
1000
DASHED
1071
        5
1071
        1
1005
F
1000
ACET-LAYISO}
  0
ENDTAB
  0
TABLE
  2
STYLE
  5
3
330
0
100
AcDbSymbolTable
 70
     6
  0
STYLE
  5
11
330
3
100
AcDbSymbolTableRecord
100
AcDbTextStyleTableRecord
  2
Standard
 70
     0
 40
0.0
 41
1.0
 50
0.0
 71
     0
 42
0.2
  3
txt
  4

  0
STYLE
  5
1B8
330
3
100
AcDbSymbolTableRecord
100
AcDbTextStyleTableRecord
  2
Arch-Dim
 70
     0
 40
0.0
 41
0.75
 50
0.0
 71
     0
 42
0.2
  3
romans.shx
  4

  0
STYLE
  5
338
330
3
100
AcDbSymbolTableRecord
100
AcDbTextStyleTableRecord
  2
RomanS
 70
     0
 40
0.0
 41
1.0
 50
0.0
 71
     0
 42
14.0
  3
romans.shx
  4

  0
STYLE
  5
10FD2
330
3
100
AcDbSymbolTableRecord
100
AcDbTextStyleTableRecord
  2
AVA
 70
     0
 40
0.0
 41
1.0
 50
0.0
 71
     0
 42
158.5644099714409
  3
ARIAL.TTF
  4

1001
ACAD
1000
Arial CE
1071
    60962
  0
ENDTAB
  0
TABLE
  2
VIEW
  5
6
330
0
100
AcDbSymbolTable
 70
     2
  0
VIEW
  5
2FF3
330
6
100
AcDbSymbolTableRecord
100
AcDbViewTableRecord
  2
wykusz
 70
     0
 40
973.328352773522
 10
-1388.846134590788
 20
-1882.802821350853
 41
1547.373628162394
 11
-0.7547627349079206
 21
-0.622178385043724
 31
0.2079116908177593
 12
8667.49664343232
 22
5490.860073979209
 32
138.5000000000008
 42
50.0
 43
0.0
 44
0.0
 50
0.0
 71
     0
281
     0
 72
     1
110
0.0
120
0.0
130
0.0
111
1.0
121
0.0
131
0.0
112
0.0
122
1.0
132
0.0
 79
     0
146
0.0
  0
VIEW
  5
31EF
330
6
100
AcDbSymbolTableRecord
100
AcDbViewTableRecord
  2
TYŁ
 70
     0
 40
973.3283567210474
 10
0.0
 20
0.0
 41
1547.373634438074
 11
695.8063090254022
 21
1988.490530268102
 31
545.6881055839553
 12
-2727.768184322112
 22
-8670.127153667172
 32
-2183.069520335121
 42
50.0
 43
0.0
 44
0.0
 50
0.0
 71
     0
281
     0
 72
     1
110
0.0
120
0.0
130
0.0
111
1.0
121
0.0
131
0.0
112
0.0
122
1.0
132
0.0
 79
     0
146
0.0
  0
ENDTAB
  0
TABLE
  2
UCS
  5
7
330
0
100
AcDbSymbolTable
 70
     1
  0
UCS
  5
F1D5
330
7
100
AcDbSymbolTableRecord
100
AcDbUCSTableRecord
  2
a
 70
     0
 10
5157.019989918877
 20
-39.97371105293644
 30
0.0
 11
-1.0
 21
0.0000000000000061
 31
0.0
 12
0.0
 22
0.0
 32
1.0
 79
     0
146
0.0
  0
ENDTAB
  0
TABLE
  2
APPID
  5
9
330
0
100
AcDbSymbolTable
 70
    34
  0
APPID
  5
12
330
9
100
AcDbSymbolTableRecord
100
AcDbRegAppTableRecord
  2
ACAD
 70
     0
  0
APPID
  5
49
330
9
100
AcDbSymbolTableRecord
100
AcDbRegAppTableRecord
  2
ADCADD_ZZ
 70
     0
  0
APPID
  5
4A
330
9
100
AcDbSymbolTableRecord
100
AcDbRegAppTableRecord
  2
SDSK_PMN
 70
     0
  0
APPID
  5
196
330
9
100
AcDbSymbolTableRecord
100
AcDbRegAppTableRecord
  2
AECBASE
 70
     0
  0
APPID
  5
197
330
9
100
AcDbSymbolTableRecord
100
AcDbRegAppTableRecord
  2
AEC_DWGVARSSETUP_DATA
 70
     0
  0
APPID
  5
198
330
9
100
AcDbSymbolTableRecord
100
AcDbRegAppTableRecord
  2
AEC_DISPREPCONFIG_DATA
 70
     0
  0
APPID
  5
199
330
9
100
AcDbSymbolTableRecord
100
AcDbRegAppTableRecord
  2
AEC_DISPREPSET_DATA
 70
     0
  0
APPID
  5
221
330
9
100
AcDbSymbolTableRecord
100
AcDbRegAppTableRecord
  2
AcAecLayerStandard
 70
     0
  0
APPID
  5
CE2
330
9
100
AcDbSymbolTableRecord
100
AcDbRegAppTableRecord
  2
AEC_TEXTNOTE_DATA
 70
     0
  0
APPID
  5
ECC
330
9
100
AcDbSymbolTableRecord
100
AcDbRegAppTableRecord
  2
AEC_URLDATA
 70
     0
  0
APPID
  5
1326
330
9
100
AcDbSymbolTableRecord
100
AcDbRegAppTableRecord
  2
AVE_RENDER
 70
     0
  0
APPID
  5
1327
330
9
100
AcDbSymbolTableRecord
100
AcDbRegAppTableRecord
  2
AVE_ENTITY_MATERIAL
 70
     0
  0
APPID
  5
1334
330
9
100
AcDbSymbolTableRecord
100
AcDbRegAppTableRecord
  2
AVE_FINISH
 70
     0
  0
APPID
  5
1335
330
9
100
AcDbSymbolTableRecord
100
AcDbRegAppTableRecord
  2
AVE_MATERIAL
 70
     0
  0
APPID
  5
1336
330
9
100
AcDbSymbolTableRecord
100
AcDbRegAppTableRecord
  2
AVE_GLOBAL
 70
     0
  0
APPID
  5
1799
330
9
100
AcDbSymbolTableRecord
100
AcDbRegAppTableRecord
  2
ADCADD_MATERIAL
 70
     0
  0
APPID
  5
179A
330
9
100
AcDbSymbolTableRecord
100
AcDbRegAppTableRecord
  2
ADCADD_KEYNOTES
 70
     0
  0
APPID
  5
1A6A
330
9
100
AcDbSymbolTableRecord
100
AcDbRegAppTableRecord
  2
RAK
 70
     0
  0
APPID
  5
1F14
330
9
100
AcDbSymbolTableRecord
100
AcDbRegAppTableRecord
  2
PE_URL
 70
     0
  0
APPID
  5
1F15
330
9
100
AcDbSymbolTableRecord
100
AcDbRegAppTableRecord
  2
DCO15
 70
     0
  0
APPID
  5
35AE
330
9
100
AcDbSymbolTableRecord
100
AcDbRegAppTableRecord
  2
ACCURENDER3
 70
     0
  0
APPID
  5
3630
330
9
100
AcDbSymbolTableRecord
100
AcDbRegAppTableRecord
  2
AECGUIBASE
 70
     0
  0
APPID
  5
5D94
330
9
100
AcDbSymbolTableRecord
100
AcDbRegAppTableRecord
  2
CAD_PROFI
 70
     0
  0
APPID
  5
618C
330
9
100
AcDbSymbolTableRecord
100
AcDbRegAppTableRecord
  2
AbAdWinPanels
 70
     0
  0
APPID
  5
6462
330
9
100
AcDbSymbolTableRecord
100
AcDbRegAppTableRecord
  2
AEC_KEYNOTE_INFO
 70
     0
  0
APPID
  5
F1E6
330
9
100
AcDbSymbolTableRecord
100
AcDbRegAppTableRecord
  2
AcDbAttr
 70
     0
  0
APPID
  5
F76C
330
9
100
AcDbSymbolTableRecord
100
AcDbRegAppTableRecord
  2
ACAD_PSEXT
 70
     0
  0
APPID
  5
F799
330
9
100
AcDbSymbolTableRecord
100
AcDbRegAppTableRecord
  2
ACAD_EXEMPT_FROM_CAD_STANDARDS
 70
     0
  0
APPID
  5
F79A
330
9
100
AcDbSymbolTableRecord
100
AcDbRegAppTableRecord
  2
ACAD_DSTYLE_DIM_LINETYPE
 70
     0
  0
APPID
  5
F79B
330
9
100
AcDbSymbolTableRecord
100
AcDbRegAppTableRecord
  2
ACAD_DSTYLE_DIM_EXT1_LINETYPE
 70
     0
  0
APPID
  5
F79C
330
9
100
AcDbSymbolTableRecord
100
AcDbRegAppTableRecord
  2
ACAD_DSTYLE_DIM_EXT2_LINETYPE
 70
     0
  0
APPID
  5
10FD4
330
9
100
AcDbSymbolTableRecord
100
AcDbRegAppTableRecord
  2
AcLayerTools
 70
     0
  0
APPID
  5
11E07
330
9
100
AcDbSymbolTableRecord
100
AcDbRegAppTableRecord
  2
ACAD_MLEADERVER
 70
     0
  0
APPID
  5
11E13
330
9
100
AcDbSymbolTableRecord
100
AcDbRegAppTableRecord
  2
AEC_XDATA_BOUND_SPACE
 70
     0
  0
ENDTAB
  0
TABLE
  2
DIMSTYLE
  5
A
330
0
100
AcDbSymbolTable
 70
     4
100
AcDbDimStyleTable
 71
     1
340
10FD3
  0
DIMSTYLE
105
B6C9
330
A
100
AcDbSymbolTableRecord
100
AcDbDimStyleTableRecord
  2
Standard
 70
     0
340
11
  0
DIMSTYLE
105
10FD3
102
{ACAD_REACTORS
330
119BC
330
119DD
330
119F1
330
11A09
330
11A21
330
11A35
330
11A49
330
11A5D
330
11B23
330
11B24
330
11B25
330
11B26
330
11B27
330
11B28
330
11B29
330
11B2A
102
}
330
A
100
AcDbSymbolTableRecord
100
AcDbDimStyleTableRecord
  2
500
 70
     0
 41
30.0
 42
43.0
 43
0.0
 44
13.0
 45
0.5
 46
12.0
 73
     0
 74
     0
 75
     1
 76
     1
 78
    12
140
80.0
141
0.0
145
1.0
147
0.0
172
     1
174
     1
176
     1
177
     1
178
    10
271
     1
272
     1
279
     2
340
338
341
10EE5
342
10EE5
  0
ENDTAB
  0
TABLE
  2
BLOCK_RECORD
  5
1
330
0
100
AcDbSymbolTable
 70
    24
  0
BLOCK_RECORD
  5
1F
102
{ACAD_XDICTIONARY
360
DE5
102
}
330
1
100
AcDbSymbolTableRecord
100
AcDbBlockTableRecord
  2
*Model_Space
340
22
  0
BLOCK_RECORD
  5
1F9
330
1
100
AcDbSymbolTableRecord
100
AcDbBlockTableRecord
  2
*Paper_Space
340
1FE
  0
BLOCK_RECORD
  5
61AD
330
1
100
AcDbSymbolTableRecord
100
AcDbBlockTableRecord
  2
opis_opis
340
0
102
{BLKREFS
331
643F
102
}
  0
BLOCK_RECORD
  5
87F7
330
1
100
AcDbSymbolTableRecord
100
AcDbBlockTableRecord
  2
*U1
340
0
102
{BLKREFS
331
8F0C
102
}
  0
BLOCK_RECORD
  5
F1AD
102
{ACAD_XDICTIONARY
360
F1AE
102
}
330
1
100
AcDbSymbolTableRecord
100
AcDbBlockTableRecord
  2
normalna
340
0
310
2800000020000000200000000100080000000000000400000000000000000000000000000000000000000000000080000080000000808000800000008000800080800000C0C0C000C0DCC000F0CAA6000020400000206000002080000020A0000020C0000020E00000400000004020000040400000406000004080000040A0
310
000040C0000040E00000600000006020000060400000606000006080000060A0000060C0000060E00000800000008020000080400000806000008080000080A0000080C0000080E00000A0000000A0200000A0400000A0600000A0800000A0A00000A0C00000A0E00000C0000000C0200000C0400000C0600000C0800000C0
310
A00000C0C00000C0E00000E0000000E0200000E0400000E0600000E0800000E0A00000E0C00000E0E00040000000400020004000400040006000400080004000A0004000C0004000E00040200000402020004020400040206000402080004020A0004020C0004020E000404000004040200040404000404060004040800040
310
40A0004040C0004040E00040600000406020004060400040606000406080004060A0004060C0004060E00040800000408020004080400040806000408080004080A0004080C0004080E00040A0000040A0200040A0400040A0600040A0800040A0A00040A0C00040A0E00040C0000040C0200040C0400040C0600040C08000
310
40C0A00040C0C00040C0E00040E0000040E0200040E0400040E0600040E0800040E0A00040E0C00040E0E00080000000800020008000400080006000800080008000A0008000C0008000E00080200000802020008020400080206000802080008020A0008020C0008020E00080400000804020008040400080406000804080
310
008040A0008040C0008040E00080600000806020008060400080606000806080008060A0008060C0008060E00080800000808020008080400080806000808080008080A0008080C0008080E00080A0000080A0200080A0400080A0600080A0800080A0A00080A0C00080A0E00080C0000080C0200080C0400080C0600080C0
310
800080C0A00080C0C00080C0E00080E0000080E0200080E0400080E0600080E0800080E0A00080E0C00080E0E000C0000000C0002000C0004000C0006000C0008000C000A000C000C000C000E000C0200000C0202000C0204000C0206000C0208000C020A000C020C000C020E000C0400000C0402000C0404000C0406000C0
310
408000C040A000C040C000C040E000C0600000C0602000C0604000C0606000C0608000C060A000C060C000C060E000C0800000C0802000C0804000C0806000C0808000C080A000C080C000C080E000C0A00000C0A02000C0A04000C0A06000C0A08000C0A0A000C0A0C000C0A0E000C0C00000C0C02000C0C04000C0C06000
310
C0C08000C0C0A000F0FBFF00A4A0A000808080000000FF0000FF000000FFFF00FF000000FF00FF00FFFF0000FFFFFF0000000000000000000000000000000000000000000000000000000000000000000000000000000000000000000000000000000000000000000000000000000000000000000000000000000000000000
310
00000000000000000000000000000000000000000000000000000000000000000000000000000000000000000000000000000000000000000000000000000000000000000000000000000000000000000000000000000000000000000000000000000000000000000000000000000000000000000000000000000000000000
310
00000000000000000000000000000000000000000000000000000000000000000000000000000000000000000000000000000000000000000000000000000000000000000000000000000000000000000000000000000000000000000000000000000000000000000000000000000000000000000000000000000000000000
310
0000000000000000000000000000000000000000E0E0E0E0E000000000000000000000000000000000000000000000000000000000E000E00000000000000000000000000000000000000000000000000000000000E000E000000000000000000000000000000000000000000000000000000000E0E0E0E0E0000000000000
310
000000000000000000000000000000000000000000000000000000000000000000000000000000000000000000000000000000000000F0F0F0F0F0F0F0F0F0F000F000F00000F0F00000F000F0F000F00000F0000000F0000000F00000F0000000F0F0F00000F0F00000F0F000F0F0F000F0F0000000F0F0F000F00000F0F0
310
0000F0F0F0F0F000F00000F0F00000F0F000F0F0000000F0000000F00000F00000F00000F0F0F000F00000F0F00000F0F0F000F0000000F0F0F0F0F00000F0F0F0F00000F0F000F0F0F0F0F0F0F0F000F00000F000000000000000000000000000000000000000000000000000000000000000000000000000000000000000
310
00000000000000000000000000000000000000000000000000000000000000000000000000000000000000000000000000000000000000000000000000000000000000000000000000000000000000000000000000000000000000000000000000000000000000000000000000000000000000000000000000000000000000
310
00000000000000000000000000000000000000000000000000000000000000000000000000000000000000000000000000000000000000000000000000000000000000000000000000000000000000000000000000000000000000000000000000000000000000000000000000000000000000000000000000000000000000
310
0000000000000000000000000000000000000000000000000000000000000000000000000000000000000000000000000000000000000000
1001
ACAD
1000
DesignCenter Data
1002
{
1070
     1
1070
     5
1002
}
  0
BLOCK_RECORD
  5
F1B7
330
1
100
AcDbSymbolTableRecord
100
AcDbBlockTableRecord
  2
normalna_konstrukcja
340
0
310
2800000020000000200000000100080000000000000400000000000000000000000000000000000000000000000080000080000000808000800000008000800080800000C0C0C000C0DCC000F0CAA6000020400000206000002080000020A0000020C0000020E00000400000004020000040400000406000004080000040A0
310
000040C0000040E00000600000006020000060400000606000006080000060A0000060C0000060E00000800000008020000080400000806000008080000080A0000080C0000080E00000A0000000A0200000A0400000A0600000A0800000A0A00000A0C00000A0E00000C0000000C0200000C0400000C0600000C0800000C0
310
A00000C0C00000C0E00000E0000000E0200000E0400000E0600000E0800000E0A00000E0C00000E0E00040000000400020004000400040006000400080004000A0004000C0004000E00040200000402020004020400040206000402080004020A0004020C0004020E000404000004040200040404000404060004040800040
310
40A0004040C0004040E00040600000406020004060400040606000406080004060A0004060C0004060E00040800000408020004080400040806000408080004080A0004080C0004080E00040A0000040A0200040A0400040A0600040A0800040A0A00040A0C00040A0E00040C0000040C0200040C0400040C0600040C08000
310
40C0A00040C0C00040C0E00040E0000040E0200040E0400040E0600040E0800040E0A00040E0C00040E0E00080000000800020008000400080006000800080008000A0008000C0008000E00080200000802020008020400080206000802080008020A0008020C0008020E00080400000804020008040400080406000804080
310
008040A0008040C0008040E00080600000806020008060400080606000806080008060A0008060C0008060E00080800000808020008080400080806000808080008080A0008080C0008080E00080A0000080A0200080A0400080A0600080A0800080A0A00080A0C00080A0E00080C0000080C0200080C0400080C0600080C0
310
800080C0A00080C0C00080C0E00080E0000080E0200080E0400080E0600080E0800080E0A00080E0C00080E0E000C0000000C0002000C0004000C0006000C0008000C000A000C000C000C000E000C0200000C0202000C0204000C0206000C0208000C020A000C020C000C020E000C0400000C0402000C0404000C0406000C0
310
408000C040A000C040C000C040E000C0600000C0602000C0604000C0606000C0608000C060A000C060C000C060E000C0800000C0802000C0804000C0806000C0808000C080A000C080C000C080E000C0A00000C0A02000C0A04000C0A06000C0A08000C0A0A000C0A0C000C0A0E000C0C00000C0C02000C0C04000C0C06000
310
C0C08000C0C0A000F0FBFF00A4A0A000808080000000FF0000FF000000FFFF00FF000000FF00FF00FFFF0000FFFFFF0000000000000000000000000000000000000000000000000000000000000000000000000000000000000000000000000000000000000000000000000000000000000000000000000000000000000000
310
00000000000000000000000000000000000000000000000000000000000000000000000000000000000000000000000000000000000000000000000000000000000000000000000000000000000000000000000000000000000000000000000000000000000000000000000000000000000000000000000000000000000000
310
00000000000000000000000000000000000000000000000000000000000000000000000000000000000000000000000000000000000000000000000000000000000000000000000000000000000000000000000000000000000000000000000000000000000000000000000000000000000000000000000000000000000000
310
0000000000000000000000000000000000000000E0E0E0E0E000000000000000000000000000000000000000000000000000000000E0E0E00000000000000000000000000000000000000000000000000000000000E0E0E000000000000000000000000000000000000000000000000000000000E0E0E0E0E0000000000000
310
000000000000000000000000000000000000000000000000000000000000000000000000000000000000000000000000000000000000F0F0F0F0F0F0F0F0F0F000F000F00000F0F00000F000F0F000F00000F0000000F0000000F00000F0000000F0F0F00000F0F00000F0F000F0F0F000F0F0000000F0F0F000F00000F0F0
310
0000F0F0F0F0F000F00000F0F00000F0F000F0F0000000F0000000F00000F00000F00000F0F0F000F00000F0F00000F0F0F000F0000000F0F0F0F0F00000F0F0F0F00000F0F000F0F0F0F0F0F0F0F000F00000F000000000000000000000000000000000000000000000000000000000000000000000000000000000000000
310
00000000000000000000000000000000000000000000000000000000000000000000000000000000000000000000000000000000000000000000000000000000000000000000000000000000000000000000000000000000000000000000000000000000000000000000000000000000000000000000000000000000000000
310
00000000000000000000000000000000000000000000000000000000000000000000000000000000000000000000000000000000000000000000000000000000000000000000000000000000000000000000000000000000000000000000000000000000000000000000000000000000000000000000000000000000000000
310
0000000000000000000000000000000000000000000000000000000000000000000000000000000000000000000000000000000000000000
1001
ACAD
1000
DesignCenter Data
1002
{
1070
     1
1070
     5
1002
}
  0
BLOCK_RECORD
  5
F1C0
330
1
100
AcDbSymbolTableRecord
100
AcDbBlockTableRecord
  2
odwrocona
340
0
310
2800000020000000200000000100080000000000000400000000000000000000000000000000000000000000000080000080000000808000800000008000800080800000C0C0C000C0DCC000F0CAA6000020400000206000002080000020A0000020C0000020E00000400000004020000040400000406000004080000040A0
310
000040C0000040E00000600000006020000060400000606000006080000060A0000060C0000060E00000800000008020000080400000806000008080000080A0000080C0000080E00000A0000000A0200000A0400000A0600000A0800000A0A00000A0C00000A0E00000C0000000C0200000C0400000C0600000C0800000C0
310
A00000C0C00000C0E00000E0000000E0200000E0400000E0600000E0800000E0A00000E0C00000E0E00040000000400020004000400040006000400080004000A0004000C0004000E00040200000402020004020400040206000402080004020A0004020C0004020E000404000004040200040404000404060004040800040
310
40A0004040C0004040E00040600000406020004060400040606000406080004060A0004060C0004060E00040800000408020004080400040806000408080004080A0004080C0004080E00040A0000040A0200040A0400040A0600040A0800040A0A00040A0C00040A0E00040C0000040C0200040C0400040C0600040C08000
310
40C0A00040C0C00040C0E00040E0000040E0200040E0400040E0600040E0800040E0A00040E0C00040E0E00080000000800020008000400080006000800080008000A0008000C0008000E00080200000802020008020400080206000802080008020A0008020C0008020E00080400000804020008040400080406000804080
310
008040A0008040C0008040E00080600000806020008060400080606000806080008060A0008060C0008060E00080800000808020008080400080806000808080008080A0008080C0008080E00080A0000080A0200080A0400080A0600080A0800080A0A00080A0C00080A0E00080C0000080C0200080C0400080C0600080C0
310
800080C0A00080C0C00080C0E00080E0000080E0200080E0400080E0600080E0800080E0A00080E0C00080E0E000C0000000C0002000C0004000C0006000C0008000C000A000C000C000C000E000C0200000C0202000C0204000C0206000C0208000C020A000C020C000C020E000C0400000C0402000C0404000C0406000C0
310
408000C040A000C040C000C040E000C0600000C0602000C0604000C0606000C0608000C060A000C060C000C060E000C0800000C0802000C0804000C0806000C0808000C080A000C080C000C080E000C0A00000C0A02000C0A04000C0A06000C0A08000C0A0A000C0A0C000C0A0E000C0C00000C0C02000C0C04000C0C06000
310
C0C08000C0C0A000F0FBFF00A4A0A000808080000000FF0000FF000000FFFF00FF000000FF00FF00FFFF0000FFFFFF0000000000000000000000000000000000000000000000000000000000000000000000000000000000000000000000000000000000000000000000000000000000000000000000000000000000000000
310
00000000000000000000000000000000000000000000000000000000000000000000000000000000000000000000000000000000000000000000000000000000000000000000000000000000000000000000000000000000000000000000000000000000000000000000000000000000000000000000000000000000000000
310
00000000000000000000000000000000000000000000000000000000000000000000000000000000000000000000000000000000000000000000000000000000000000000000000000000000000000000000000000000000000000000000000000000000000000000000000000000000000000000000000000000000000000
310
000000000000000000000000000000000000000000F0F0F0F0F0F0F0F0F0F000F000F00000F0F00000F0F0F0F000F00000F0000000F0000000F00000F0000000F0F0F0F0F0F0F00000F0F00000F0F000F0F0000000F0F0F000F00000F0F00000F0F000F0F000F00000F0F00000F0F000F0F0000000F0000000F00000F00000
310
F00000F0F0F000F00000F0F000F0F0F0F000F0000000F0F0F0F0F00000F0F0F0F00000F0F000F0F0F0F0F000F0F000F00000F000000000000000000000000000000000000000000000000000000000000000000000E0E0E0E0E000000000000000000000000000000000000000000000000000000000E000E0000000000000
310
0000000000000000000000000000000000000000000000E000E000000000000000000000000000000000000000000000000000000000E0E0E0E0E00000000000000000000000000000000000000000000000000000000000000000000000000000000000000000000000000000000000000000000000000000000000000000
310
00000000000000000000000000000000000000000000000000000000000000000000000000000000000000000000000000000000000000000000000000000000000000000000000000000000000000000000000000000000000000000000000000000000000000000000000000000000000000000000000000000000000000
310
00000000000000000000000000000000000000000000000000000000000000000000000000000000000000000000000000000000000000000000000000000000000000000000000000000000000000000000000000000000000000000000000000000000000000000000000000000000000000000000000000000000000000
310
0000000000000000000000000000000000000000000000000000000000000000000000000000000000000000000000000000000000000000
1001
ACAD
1000
DesignCenter Data
1002
{
1070
     1
1070
     5
1002
}
  0
BLOCK_RECORD
  5
F1C8
330
1
100
AcDbSymbolTableRecord
100
AcDbBlockTableRecord
  2
odwrocona_konstrukcja
340
0
310
2800000020000000200000000100080000000000000400000000000000000000000000000000000000000000000080000080000000808000800000008000800080800000C0C0C000C0DCC000F0CAA6000020400000206000002080000020A0000020C0000020E00000400000004020000040400000406000004080000040A0
310
000040C0000040E00000600000006020000060400000606000006080000060A0000060C0000060E00000800000008020000080400000806000008080000080A0000080C0000080E00000A0000000A0200000A0400000A0600000A0800000A0A00000A0C00000A0E00000C0000000C0200000C0400000C0600000C0800000C0
310
A00000C0C00000C0E00000E0000000E0200000E0400000E0600000E0800000E0A00000E0C00000E0E00040000000400020004000400040006000400080004000A0004000C0004000E00040200000402020004020400040206000402080004020A0004020C0004020E000404000004040200040404000404060004040800040
310
40A0004040C0004040E00040600000406020004060400040606000406080004060A0004060C0004060E00040800000408020004080400040806000408080004080A0004080C0004080E00040A0000040A0200040A0400040A0600040A0800040A0A00040A0C00040A0E00040C0000040C0200040C0400040C0600040C08000
310
40C0A00040C0C00040C0E00040E0000040E0200040E0400040E0600040E0800040E0A00040E0C00040E0E00080000000800020008000400080006000800080008000A0008000C0008000E00080200000802020008020400080206000802080008020A0008020C0008020E00080400000804020008040400080406000804080
310
008040A0008040C0008040E00080600000806020008060400080606000806080008060A0008060C0008060E00080800000808020008080400080806000808080008080A0008080C0008080E00080A0000080A0200080A0400080A0600080A0800080A0A00080A0C00080A0E00080C0000080C0200080C0400080C0600080C0
310
800080C0A00080C0C00080C0E00080E0000080E0200080E0400080E0600080E0800080E0A00080E0C00080E0E000C0000000C0002000C0004000C0006000C0008000C000A000C000C000C000E000C0200000C0202000C0204000C0206000C0208000C020A000C020C000C020E000C0400000C0402000C0404000C0406000C0
310
408000C040A000C040C000C040E000C0600000C0602000C0604000C0606000C0608000C060A000C060C000C060E000C0800000C0802000C0804000C0806000C0808000C080A000C080C000C080E000C0A00000C0A02000C0A04000C0A06000C0A08000C0A0A000C0A0C000C0A0E000C0C00000C0C02000C0C04000C0C06000
310
C0C08000C0C0A000F0FBFF00A4A0A000808080000000FF0000FF000000FFFF00FF000000FF00FF00FFFF0000FFFFFF0000000000000000000000000000000000000000000000000000000000000000000000000000000000000000000000000000000000000000000000000000000000000000000000000000000000000000
310
00000000000000000000000000000000000000000000000000000000000000000000000000000000000000000000000000000000000000000000000000000000000000000000000000000000000000000000000000000000000000000000000000000000000000000000000000000000000000000000000000000000000000
310
00000000000000000000000000000000000000000000000000000000000000000000000000000000000000000000000000000000000000000000000000000000000000000000000000000000000000000000000000000000000000000000000000000000000000000000000000000000000000000000000000000000000000
310
000000000000000000000000000000000000000000F0F0F000F0F0F0F0F0F000F000F00000F0F00000F0F0F0F000F00000F0000000F0000000F00000F0000000F000F0F0F0F0F00000F0F00000F0F000F0F0000000F0F0F000F00000F0F00000F0F000F0F000F00000F0F00000F0F000F0F0000000F0000000F00000F00000
310
F000F000F0F000F00000F0F000F0F0F0F000F0000000F0F0F000F00000F0F0F0F000F000F000F0F0F0F0F000F0F000F00000F000000000000000000000000000000000000000000000000000000000000000000000E0E0E0E0E000000000000000000000000000000000000000000000000000000000E0E0E0000000000000
310
0000000000000000000000000000000000000000000000E0E0E000000000000000000000000000000000000000000000000000000000E0E0E0E0E00000000000000000000000000000000000000000000000000000000000000000000000000000000000000000000000000000000000000000000000000000000000000000
310
00000000000000000000000000000000000000000000000000000000000000000000000000000000000000000000000000000000000000000000000000000000000000000000000000000000000000000000000000000000000000000000000000000000000000000000000000000000000000000000000000000000000000
310
00000000000000000000000000000000000000000000000000000000000000000000000000000000000000000000000000000000000000000000000000000000000000000000000000000000000000000000000000000000000000000000000000000000000000000000000000000000000000000000000000000000000000
310
0000000000000000000000000000000000000000000000000000000000000000000000000000000000000000000000000000000000000000
1001
ACAD
1000
DesignCenter Data
1002
{
1070
     1
1070
     5
1002
}
  0
BLOCK_RECORD
  5
10EE5
102
{ACAD_XDICTIONARY
360
10EE6
102
}
330
1
100
AcDbSymbolTableRecord
100
AcDbBlockTableRecord
  2
B-DIM
340
0
102
{BLKREFS
331
11A94
331
11A95
331
11A9B
331
11A9C
331
11AA4
331
11AA5
331
11AAB
331
11AAC
331
11AD2
331
11AD3
331
11AD9
331
11ADA
331
11AE0
331
11AE1
331
11AE7
331
11AE8
331
11BE2
331
11BE3
331
11BE9
331
11BEA
331
11BF2
331
11BF3
331
11BFB
331
11BFC
331
11C02
331
11C03
331
11C09
331
11C0A
331
11C10
331
11C11
331
11C17
331
11C18
102
}
  0
BLOCK_RECORD
  5
119BD
330
1
100
AcDbSymbolTableRecord
100
AcDbBlockTableRecord
  2
*D7
340
0
  0
BLOCK_RECORD
  5
119DE
330
1
100
AcDbSymbolTableRecord
100
AcDbBlockTableRecord
  2
*D8
340
0
  0
BLOCK_RECORD
  5
119F2
330
1
100
AcDbSymbolTableRecord
100
AcDbBlockTableRecord
  2
*D9
340
0
  0
BLOCK_RECORD
  5
11A0A
330
1
100
AcDbSymbolTableRecord
100
AcDbBlockTableRecord
  2
*D10
340
0
  0
BLOCK_RECORD
  5
11A22
330
1
100
AcDbSymbolTableRecord
100
AcDbBlockTableRecord
  2
*D11
340
0
  0
BLOCK_RECORD
  5
11A36
330
1
100
AcDbSymbolTableRecord
100
AcDbBlockTableRecord
  2
*D12
340
0
  0
BLOCK_RECORD
  5
11A4A
330
1
100
AcDbSymbolTableRecord
100
AcDbBlockTableRecord
  2
*D13
340
0
  0
BLOCK_RECORD
  5
11A5E
330
1
100
AcDbSymbolTableRecord
100
AcDbBlockTableRecord
  2
*D14
340
0
  0
BLOCK_RECORD
  5
11B2B
330
1
100
AcDbSymbolTableRecord
100
AcDbBlockTableRecord
  2
*D15
340
0
  0
BLOCK_RECORD
  5
11B37
330
1
100
AcDbSymbolTableRecord
100
AcDbBlockTableRecord
  2
*D16
340
0
  0
BLOCK_RECORD
  5
11B41
330
1
100
AcDbSymbolTableRecord
100
AcDbBlockTableRecord
  2
*D17
340
0
  0
BLOCK_RECORD
  5
11B4D
330
1
100
AcDbSymbolTableRecord
100
AcDbBlockTableRecord
  2
*D18
340
0
  0
BLOCK_RECORD
  5
11B59
330
1
100
AcDbSymbolTableRecord
100
AcDbBlockTableRecord
  2
*D19
340
0
  0
BLOCK_RECORD
  5
11B63
330
1
100
AcDbSymbolTableRecord
100
AcDbBlockTableRecord
  2
*D20
340
0
  0
BLOCK_RECORD
  5
11B6D
330
1
100
AcDbSymbolTableRecord
100
AcDbBlockTableRecord
  2
*D21
340
0
  0
BLOCK_RECORD
  5
11B77
330
1
100
AcDbSymbolTableRecord
100
AcDbBlockTableRecord
  2
*D22
340
0
  0
ENDTAB
  0
ENDSEC
  0
SECTION
  2
BLOCKS
  0
BLOCK
  5
20
330
1F
100
AcDbEntity
  8
0
100
AcDbBlockBegin
  2
*Model_Space
 70
     0
 10
0.0
 20
0.0
 30
0.0
  3
*Model_Space
  1

  0
ENDBLK
  5
21
330
1F
100
AcDbEntity
  8
0
100
AcDbBlockEnd
  0
BLOCK
  5
1FC
330
1F9
100
AcDbEntity
 67
     1
  8
0
100
AcDbBlockBegin
  2
*Paper_Space
 70
     0
 10
0.0
 20
0.0
 30
0.0
  3
*Paper_Space
  1

  0
ENDBLK
  5
1FD
330
1F9
100
AcDbEntity
 67
     1
  8
0
100
AcDbBlockEnd
  0
BLOCK
  5
61AE
330
61AD
100
AcDbEntity
  8
0
100
AcDbBlockBegin
  2
opis_opis
 70
     2
 10
0.0
 20
0.0
 30
0.0
  3
opis_opis
  1

  0
ATTDEF
  5
61B0
330
61AD
100
AcDbEntity
  8
0
100
AcDbText
 10
-8.962725577777746
 20
-0.5459305799751065
 30
0.0
 40
1.0
  1
cos tam
  7
RomanS
100
AcDbAttributeDefinition
  3
?
  2
NOTES_ALL_OBJECTS:OPIS
 70
     0
  0
ENDBLK
  5
61AF
330
61AD
100
AcDbEntity
  8
0
100
AcDbBlockEnd
  0
BLOCK
  5
87F8
330
87F7
100
AcDbEntity
  8
0
100
AcDbBlockBegin
  2
*U1
 70
     1
 10
0.0
 20
0.0
 30
0.0
  3
*U1
  1

  0
ENDBLK
  5
87F9
330
87F7
100
AcDbEntity
  8
0
100
AcDbBlockEnd
  0
BLOCK
  5
F1B0
330
F1AD
100
AcDbEntity
  8
0
100
AcDbBlockBegin
  2
normalna
 70
     2
 10
0.0
 20
0.0
 30
0.0
  3
normalna
  1

  0
LWPOLYLINE
  5
F1B1
330
F1AD
100
AcDbEntity
  8
0
  6
ByBlock
 62
   150
370
     5
100
AcDbPolyline
 90
        3
 70
     1
 43
0.0
 10
0.0000000000005684
 20
-0.0000000000005684
 10
80.00000000000056
 20
138.5640646055975
 10
-79.99999999999943
 20
138.5640646055975
  0
LINE
  5
F1B2
330
F1AD
100
AcDbEntity
  8
0
  6
ByBlock
 62
   150
370
     5
100
AcDbLine
 10
80.0000000000017
 20
0.0
 30
0.0
 11
-79.99999999999829
 21
0.0
 31
0.0
  0
ATTDEF
  5
F1B3
330
F1AD
100
AcDbEntity
  8
0
  6
ByBlock
 62
   140
370
    15
100
AcDbText
 10
-79.99999999999829
 20
224.7690161514038
 30
0.0
 40
160.0
  1
+10"
  7
RomanS
100
AcDbAttributeDefinition
  3
Elevation
  2
ELEVATION
 70
     0
  0
ENDBLK
  5
F1B4
330
F1AD
100
AcDbEntity
  8
0
100
AcDbBlockEnd
  0
BLOCK
  5
F1B8
330
F1B7
100
AcDbEntity
  8
0
100
AcDbBlockBegin
  2
normalna_konstrukcja
 70
     2
 10
0.0
 20
0.0
 30
0.0
  3
normalna_konstrukcja
  1

  0
LWPOLYLINE
  5
F1B9
330
F1B7
100
AcDbEntity
  8
0
  6
ByBlock
 62
   150
370
     5
100
AcDbPolyline
 90
        3
 70
     1
 43
0.0
 10
0.0
 20
0.0
 10
80.0
 20
138.5640646055981
 10
-80.0
 20
138.5640646055981
  0
LINE
  5
F1BA
330
F1B7
100
AcDbEntity
  8
0
  6
ByBlock
 62
   150
370
     5
100
AcDbLine
 10
80.00000000000113
 20
0.0000000000011369
 30
0.0
 11
-79.99999999999886
 21
0.0000000000011369
 31
0.0
  0
HATCH
  5
F1BB
330
F1B7
100
AcDbEntity
  8
0
  6
ByBlock
 62
   150
370
     5
100
AcDbHatch
 10
0.0
 20
0.0
 30
0.0
210
0.0
220
0.0
230
1.0
  2
SOLID
 70
     1
 71
     0
 91
        1
 92
        7
 72
     0
 73
     1
 93
        3
 10
80.0
 20
138.5640646055981
 10
-80.0
 20
138.5640646055981
 10
0.0
 20
0.0
 97
        0
 75
     0
 76
     1
 47
0.0206825870053143
 98
        1
 10
23.18281136198493
 20
95.96720227185869
  0
LWPOLYLINE
  5
F1BC
330
F1B7
100
AcDbEntity
  8
0
  6
ByBlock
 62
   150
370
     5
100
AcDbPolyline
 90
        3
 70
     1
 43
0.0
 10
0.0
 20
0.0
 10
-80.0
 20
138.5640646055981
 10
80.0
 20
138.5640646055981
  0
ATTDEF
  5
F1BD
330
F1B7
100
AcDbEntity
  8
0
  6
ByBlock
 62
   140
370
    15
100
AcDbText
 10
-79.99999999999886
 20
224.7690161514049
 30
0.0
 40
160.0
  1
+10"
  7
RomanS
100
AcDbAttributeDefinition
  3
Elevation
  2
ELEVATION
 70
     0
  0
ENDBLK
  5
F1BE
330
F1B7
100
AcDbEntity
  8
0
100
AcDbBlockEnd
  0
BLOCK
  5
F1C1
330
F1C0
100
AcDbEntity
  8
0
100
AcDbBlockBegin
  2
odwrocona
 70
     2
 10
0.0
 20
0.0
 30
0.0
  3
odwrocona
  1

  0
LINE
  5
F1C2
330
F1C0
100
AcDbEntity
  8
0
  6
ByBlock
 62
   150
370
     5
100
AcDbLine
 10
80.0000000000017
 20
0.0
 30
0.0
 11
-79.99999999999829
 21
0.0
 31
0.0
  0
LWPOLYLINE
  5
F1C3
330
F1C0
100
AcDbEntity
  8
0
  6
ByBlock
 62
   150
370
     5
100
AcDbPolyline
 90
        3
 70
     1
 43
0.0
 10
0.0000000000005684
 20
-0.0000000000005684
 10
-79.99999999999943
 20
-138.5640646054531
 10
80.00000000000056
 20
-138.5640646054531
  0
LINE
  5
F1C4
330
F1C0
100
AcDbEntity
  8
0
  6
ByBlock
 62
   150
370
     5
100
AcDbLine
 10
80.0000000000017
 20
0.0
 30
0.0
 11
-79.99999999999829
 21
0.0
 31
0.0
  0
ATTDEF
  5
F1C5
330
F1C0
100
AcDbEntity
  8
0
  6
ByBlock
 62
   140
370
    15
100
AcDbText
 10
-79.99999999999829
 20
-384.9346879070799
 30
0.0
 40
160.0
  1
+10"
  7
RomanS
100
AcDbAttributeDefinition
  3
Elevation
  2
ELEVATION
 70
     0
  0
ENDBLK
  5
F1C6
330
F1C0
100
AcDbEntity
  8
0
100
AcDbBlockEnd
  0
BLOCK
  5
F1C9
330
F1C8
100
AcDbEntity
  8
0
100
AcDbBlockBegin
  2
odwrocona_konstrukcja
 70
     2
 10
0.0
 20
0.0
 30
0.0
  3
odwrocona_konstrukcja
  1

  0
LINE
  5
F1CA
330
F1C8
100
AcDbEntity
  8
0
  6
ByBlock
 62
   150
370
     5
100
AcDbLine
 10
79.99999999978172
 20
-0.0000000000727596
 30
0.0
 11
-80.00000000021827
 21
-0.0000000000727596
 31
0.0
  0
HATCH
  5
F1CB
330
F1C8
100
AcDbEntity
  8
0
  6
ByBlock
 62
   150
370
     5
100
AcDbHatch
 10
0.0
 20
0.0
 30
0.0
210
0.0
220
0.0
230
1.0
  2
SOLID
 70
     1
 71
     0
 91
        1
 92
        7
 72
     0
 73
     1
 93
        3
 10
0.0
 20
0.0
 10
-80.0
 20
-138.5640646051615
 10
80.0
 20
-138.5640646051615
 97
        0
 75
     0
 76
     1
 47
0.0206825870053143
 98
        1
 10
23.18281136220321
 20
-95.96720227156765
  0
LWPOLYLINE
  5
F1CC
330
F1C8
100
AcDbEntity
  8
0
  6
ByBlock
 62
   150
370
     5
100
AcDbPolyline
 90
        3
 70
     1
 43
0.0
 10
0.0
 20
0.0
 10
-80.0
 20
-138.5640646051615
 10
80.0
 20
-138.5640646051615
  0
LINE
  5
F1CD
330
F1C8
100
AcDbEntity
  8
0
  6
ByBlock
 62
   150
370
     5
100
AcDbLine
 10
79.99999999978172
 20
-0.0000000000727596
 30
0.0
 11
-80.00000000021827
 21
-0.0000000000727596
 31
0.0
  0
ATTDEF
  5
F1CE
330
F1C8
100
AcDbEntity
  8
0
  6
ByBlock
 62
   140
370
    15
100
AcDbText
 10
-80.00000000021827
 20
-384.9346879072982
 30
0.0
 40
160.0
  1
+10"
  7
RomanS
100
AcDbAttributeDefinition
  3
Elevation
  2
ELEVATION
 70
     0
  0
ENDBLK
  5
F1CF
330
F1C8
100
AcDbEntity
  8
0
100
AcDbBlockEnd
  0
BLOCK
  5
10EE8
330
10EE5
100
AcDbEntity
  8
0
100
AcDbBlockBegin
  2
B-DIM
 70
     0
 10
0.0
 20
0.0
 30
0.0
  3
B-DIM
  1

  0
LINE
  5
10EE9
330
10EE5
100
AcDbEntity
  8
0
 62
     1
100
AcDbLine
 10
0.000000000000091
 20
-1.1
 30
0.0
 11
0.000000000000091
 21
1.1
 31
0.0
  0
LWPOLYLINE
  5
10EEA
330
10EE5
100
AcDbEntity
  8
0
 62
     1
100
AcDbPolyline
 90
        2
 70
     0
 43
0.3
 10
-0.7071067811864851
 20
-0.7071067811864851
 10
0.707106781186576
 20
0.707106781186576
  0
LINE
  5
10EEB
330
10EE5
100
AcDbEntity
  8
0
 62
     1
100
AcDbLine
 10
1.20000000000009
 20
0.0
 30
0.0
 11
-1.199999999999909
 21
0.0
 31
0.0
  0
ENDBLK
  5
10EEC
330
10EE5
100
AcDbEntity
  8
0
100
AcDbBlockEnd
  0
BLOCK
  5
119C7
330
119BD
100
AcDbEntity
  8
0
100
AcDbBlockBegin
  2
*D7
 70
     1
 10
0.0
 20
0.0
 30
0.0
  3
*D7
  1

  0
LINE
  5
11A91
330
119BD
100
AcDbEntity
  8
WYMIARY
 62
     1
370
    -2
100
AcDbLine
 10
9408.02012609722
 20
7086.809548495506
 30
0.0
 11
9408.02012609722
 21
7116.809548495506
 31
0.0
  0
LINE
  5
11A92
330
119BD
100
AcDbEntity
  8
WYMIARY
 62
     1
370
    -2
100
AcDbLine
 10
9408.02012609722
 20
6971.809548495497
 30
0.0
 11
9408.02012609722
 21
6941.809548495498
 31
0.0
  0
LINE
  5
11A93
330
119BD
100
AcDbEntity
  8
WYMIARY
 62
     1
370
    -2
100
AcDbLine
 10
9408.02012609722
 20
7056.809548495507
 30
0.0
 11
9408.02012609722
 21
7001.809548495497
 31
0.0
  0
INSERT
  5
11A94
330
119BD
100
AcDbEntity
  8
WYMIARY
 62
     1
370
    -2
100
AcDbBlockReference
  2
B-DIM
 10
9408.02012609722
 20
7056.809548495507
 30
0.0
 41
30.0
 42
30.0
 43
30.0
 50
270.0
  0
INSERT
  5
11A95
330
119BD
100
AcDbEntity
  8
WYMIARY
 62
     1
370
    -2
100
AcDbBlockReference
  2
B-DIM
 10
9408.02012609722
 20
7001.809548495497
 30
0.0
 41
30.0
 42
30.0
 43
30.0
 50
90.0
  0
MTEXT
  5
11A96
330
119BD
100
AcDbEntity
  8
WYMIARY
 62
    10
100
AcDbMText
 10
9328.02012609722
 20
7029.309548495503
 30
0.0
 40
80.0
 41
0.0
 71
     5
 72
     1
  1
\A1;55
  7
RomanS
 11
0.0000000000000001
 21
1.0
 31
0.0
 73
     1
 44
1.0
1001
ACAD
1000
MTEXTBEGIN
1070
    73
1070
     1
1070
    44
1040
1.0
1070
    74
1070
     0
1000
MTEXTEND
  0
POINT
  5
11A97
330
119BD
100
AcDbEntity
  8
Defpoints
 62
     0
100
AcDbPoint
 10
8532.760995744203
 20
7056.809548495507
 30
0.0
  0
POINT
  5
11A98
330
119BD
100
AcDbEntity
  8
Defpoints
 62
     0
100
AcDbPoint
 10
8532.760995744203
 20
7001.809548495497
 30
0.0
  0
POINT
  5
11A99
330
119BD
100
AcDbEntity
  8
Defpoints
 62
     0
100
AcDbPoint
 10
9408.02012609722
 20
7001.809548495497
 30
0.0
  0
ENDBLK
  5
119C8
330
119BD
100
AcDbEntity
  8
0
100
AcDbBlockEnd
  0
BLOCK
  5
119E6
330
119DE
100
AcDbEntity
  8
0
100
AcDbBlockBegin
  2
*D8
 70
     1
 10
0.0
 20
0.0
 30
0.0
  3
*D8
  1

  0
LINE
  5
11A9A
330
119DE
100
AcDbEntity
  8
0Wymiary-PL
 62
     1
370
    -2
100
AcDbLine
 10
9408.02012609722
 20
6971.809548495497
 30
0.0
 11
9408.02012609722
 21
6241.809548495497
 31
0.0
  0
INSERT
  5
11A9B
330
119DE
100
AcDbEntity
  8
0Wymiary-PL
 62
     1
370
    -2
100
AcDbBlockReference
  2
B-DIM
 10
9408.02012609722
 20
7001.809548495497
 30
0.0
 41
30.0
 42
30.0
 43
30.0
 50
90.0
  0
INSERT
  5
11A9C
330
119DE
100
AcDbEntity
  8
0Wymiary-PL
 62
     1
370
    -2
100
AcDbBlockReference
  2
B-DIM
 10
9408.02012609722
 20
6211.809548495498
 30
0.0
 41
30.0
 42
30.0
 43
30.0
 50
270.0
  0
MTEXT
  5
11A9D
330
119DE
100
AcDbEntity
  8
0Wymiary-PL
 62
    10
100
AcDbMText
 10
9328.02012609722
 20
6606.809548495498
 30
0.0
 40
80.0
 41
0.0
 71
     5
 72
     1
  1
\A1;790
  7
RomanS
 11
0.0000000000000001
 21
1.0
 31
0.0
 73
     1
 44
1.0
1001
ACAD
1000
MTEXTBEGIN
1070
    73
1070
     1
1070
    44
1040
1.0
1070
    74
1070
     0
1000
MTEXTEND
  0
POINT
  5
11A9E
330
119DE
100
AcDbEntity
  8
Defpoints
 62
     0
100
AcDbPoint
 10
8532.760995744203
 20
7001.809548495497
 30
0.0
  0
POINT
  5
11A9F
330
119DE
100
AcDbEntity
  8
Defpoints
 62
     0
100
AcDbPoint
 10
8892.760995744204
 20
6211.809548495498
 30
0.0
  0
POINT
  5
11AA0
330
119DE
100
AcDbEntity
  8
Defpoints
 62
     0
100
AcDbPoint
 10
9408.02012609722
 20
6211.809548495498
 30
0.0
  0
ENDBLK
  5
119E7
330
119DE
100
AcDbEntity
  8
0
100
AcDbBlockEnd
  0
BLOCK
  5
119FC
330
119F2
100
AcDbEntity
  8
0
100
AcDbBlockBegin
  2
*D9
 70
     1
 10
0.0
 20
0.0
 30
0.0
  3
*D9
  1

  0
LINE
  5
11AA1
330
119F2
100
AcDbEntity
  8
0Wymiary-PL
 62
     1
370
    -2
100
AcDbLine
 10
9408.02012609722
 20
6241.809548495497
 30
0.0
 11
9408.02012609722
 21
6271.809548495498
 31
0.0
  0
LINE
  5
11AA2
330
119F2
100
AcDbEntity
  8
0Wymiary-PL
 62
     1
370
    -2
100
AcDbLine
 10
9408.02012609722
 20
6126.809548495507
 30
0.0
 11
9408.02012609722
 21
6096.809548495507
 31
0.0
  0
LINE
  5
11AA3
330
119F2
100
AcDbEntity
  8
0Wymiary-PL
 62
     1
370
    -2
100
AcDbLine
 10
9408.02012609722
 20
6211.809548495498
 30
0.0
 11
9408.02012609722
 21
6156.809548495506
 31
0.0
  0
INSERT
  5
11AA4
330
119F2
100
AcDbEntity
  8
0Wymiary-PL
 62
     1
370
    -2
100
AcDbBlockReference
  2
B-DIM
 10
9408.02012609722
 20
6211.809548495498
 30
0.0
 41
30.0
 42
30.0
 43
30.0
 50
270.0
  0
INSERT
  5
11AA5
330
119F2
100
AcDbEntity
  8
0Wymiary-PL
 62
     1
370
    -2
100
AcDbBlockReference
  2
B-DIM
 10
9408.02012609722
 20
6156.809548495506
 30
0.0
 41
30.0
 42
30.0
 43
30.0
 50
90.0
  0
MTEXT
  5
11AA6
330
119F2
100
AcDbEntity
  8
0Wymiary-PL
 62
    10
100
AcDbMText
 10
9328.02012609722
 20
6184.309548495503
 30
0.0
 40
80.0
 41
0.0
 71
     5
 72
     1
  1
\A1;55
  7
RomanS
 11
0.0000000000000001
 21
1.0
 31
0.0
 73
     1
 44
1.0
1001
ACAD
1000
MTEXTBEGIN
1070
    73
1070
     1
1070
    44
1040
1.0
1070
    74
1070
     0
1000
MTEXTEND
  0
POINT
  5
11AA7
330
119F2
100
AcDbEntity
  8
Defpoints
 62
     0
100
AcDbPoint
 10
8892.760995744204
 20
6211.809548495498
 30
0.0
  0
POINT
  5
11AA8
330
119F2
100
AcDbEntity
  8
Defpoints
 62
     0
100
AcDbPoint
 10
8532.760995744203
 20
6156.809548495506
 30
0.0
  0
POINT
  5
11AA9
330
119F2
100
AcDbEntity
  8
Defpoints
 62
     0
100
AcDbPoint
 10
9408.02012609722
 20
6156.809548495506
 30
0.0
  0
ENDBLK
  5
119FD
330
119F2
100
AcDbEntity
  8
0
100
AcDbBlockEnd
  0
BLOCK
  5
11A14
330
11A0A
100
AcDbEntity
  8
0
100
AcDbBlockBegin
  2
*D10
 70
     1
 10
0.0
 20
0.0
 30
0.0
  3
*D10
  1

  0
LINE
  5
11ACF
330
11A0A
100
AcDbEntity
  8
0Wymiary-PL
 62
     1
370
    -2
100
AcDbLine
 10
7611.295843912362
 20
7487.358390465132
 30
0.0
 11
7581.295843912362
 21
7487.358390465132
 31
0.0
  0
LINE
  5
11AD0
330
11A0A
100
AcDbEntity
  8
0Wymiary-PL
 62
     1
370
    -2
100
AcDbLine
 10
7781.295843912359
 20
7487.358390465132
 30
0.0
 11
7811.29584391236
 21
7487.358390465132
 31
0.0
  0
LINE
  5
11AD1
330
11A0A
100
AcDbEntity
  8
0Wymiary-PL
 62
     1
370
    -2
100
AcDbLine
 10
7641.295843912361
 20
7487.358390465132
 30
0.0
 11
7751.295843912359
 21
7487.358390465132
 31
0.0
  0
INSERT
  5
11AD2
330
11A0A
100
AcDbEntity
  8
0Wymiary-PL
 62
     1
370
    -2
100
AcDbBlockReference
  2
B-DIM
 10
7641.295843912361
 20
7487.358390465132
 30
0.0
 41
30.0
 42
30.0
 43
30.0
  0
INSERT
  5
11AD3
330
11A0A
100
AcDbEntity
  8
0Wymiary-PL
 62
     1
370
    -2
100
AcDbBlockReference
  2
B-DIM
 10
7751.295843912359
 20
7487.358390465132
 30
0.0
 41
30.0
 42
30.0
 43
30.0
 50
180.0
  0
MTEXT
  5
11AD4
330
11A0A
100
AcDbEntity
  8
0Wymiary-PL
 62
    10
100
AcDbMText
 10
7696.295843912361
 20
7567.358390465132
 30
0.0
 40
80.0
 41
0.0
 71
     5
 72
     1
  1
\A1;110
  7
RomanS
 73
     1
 44
1.0
1001
ACAD
1000
MTEXTBEGIN
1070
    73
1070
     1
1070
    44
1040
1.0
1070
    74
1070
     0
1000
MTEXTEND
  0
POINT
  5
11AD5
330
11A0A
100
AcDbEntity
  8
Defpoints
 62
     0
100
AcDbPoint
 10
7641.295843912361
 20
6911.700683318191
 30
0.0
  0
POINT
  5
11AD6
330
11A0A
100
AcDbEntity
  8
Defpoints
 62
     0
100
AcDbPoint
 10
7751.295843912359
 20
6911.700683318189
 30
0.0
  0
POINT
  5
11AD7
330
11A0A
100
AcDbEntity
  8
Defpoints
 62
     0
100
AcDbPoint
 10
7751.295843912359
 20
7487.358390465132
 30
0.0
  0
ENDBLK
  5
11A15
330
11A0A
100
AcDbEntity
  8
0
100
AcDbBlockEnd
  0
BLOCK
  5
11A2A
330
11A22
100
AcDbEntity
  8
0
100
AcDbBlockBegin
  2
*D11
 70
     1
 10
0.0
 20
0.0
 30
0.0
  3
*D11
  1

  0
LINE
  5
11AD8
330
11A22
100
AcDbEntity
  8
0Wymiary-PL
 62
     1
370
    -2
100
AcDbLine
 10
7781.295843912367
 20
7487.358390465129
 30
0.0
 11
8621.295843912365
 21
7487.358390465118
 31
0.0
  0
INSERT
  5
11AD9
330
11A22
100
AcDbEntity
  8
0Wymiary-PL
 62
     1
370
    -2
100
AcDbBlockReference
  2
B-DIM
 10
7751.295843912368
 20
7487.358390465131
 30
0.0
 41
30.0
 42
30.0
 43
30.0
 50
179.9999999999992
  0
INSERT
  5
11ADA
330
11A22
100
AcDbEntity
  8
0Wymiary-PL
 62
     1
370
    -2
100
AcDbBlockReference
  2
B-DIM
 10
8651.295843912365
 20
7487.358390465118
 30
0.0
 41
30.0
 42
30.0
 43
30.0
 50
359.9999999999992
  0
MTEXT
  5
11ADB
330
11A22
100
AcDbEntity
  8
0Wymiary-PL
 62
    10
100
AcDbMText
 10
8201.295843912367
 20
7567.358390465123
 30
0.0
 40
80.0
 41
0.0
 71
     5
 72
     1
  1
\A1;900
  7
RomanS
 73
     1
 44
1.0
1001
ACAD
1000
MTEXTBEGIN
1070
    73
1070
     1
1070
    44
1040
1.0
1070
    74
1070
     0
1000
MTEXTEND
  0
POINT
  5
11ADC
330
11A22
100
AcDbEntity
  8
Defpoints
 62
     0
100
AcDbPoint
 10
7751.295843912359
 20
6911.700683318189
 30
0.0
  0
POINT
  5
11ADD
330
11A22
100
AcDbEntity
  8
Defpoints
 62
     0
100
AcDbPoint
 10
8651.295843912361
 20
7129.700683318197
 30
0.0
  0
POINT
  5
11ADE
330
11A22
100
AcDbEntity
  8
Defpoints
 62
     0
100
AcDbPoint
 10
8651.295843912365
 20
7487.358390465118
 30
0.0
  0
ENDBLK
  5
11A2B
330
11A22
100
AcDbEntity
  8
0
100
AcDbBlockEnd
  0
BLOCK
  5
11A3E
330
11A36
100
AcDbEntity
  8
0
100
AcDbBlockBegin
  2
*D12
 70
     1
 10
0.0
 20
0.0
 30
0.0
  3
*D12
  1

  0
LINE
  5
11ADF
330
11A36
100
AcDbEntity
  8
0Wymiary-PL
 62
     1
370
    -2
100
AcDbLine
 10
8681.295843912364
 20
7487.358390465117
 30
0.0
 11
8981.295843912368
 21
7487.358390465113
 31
0.0
  0
INSERT
  5
11AE0
330
11A36
100
AcDbEntity
  8
0Wymiary-PL
 62
     1
370
    -2
100
AcDbBlockReference
  2
B-DIM
 10
8651.295843912365
 20
7487.358390465118
 30
0.0
 41
30.0
 42
30.0
 43
30.0
 50
179.9999999999992
  0
INSERT
  5
11AE1
330
11A36
100
AcDbEntity
  8
0Wymiary-PL
 62
     1
370
    -2
100
AcDbBlockReference
  2
B-DIM
 10
9011.295843912368
 20
7487.358390465113
 30
0.0
 41
30.0
 42
30.0
 43
30.0
 50
359.9999999999992
  0
MTEXT
  5
11AE2
330
11A36
100
AcDbEntity
  8
0Wymiary-PL
 62
    10
100
AcDbMText
 10
8831.295843912368
 20
7567.358390465115
 30
0.0
 40
80.0
 41
0.0
 71
     5
 72
     1
  1
\A1;360
  7
RomanS
 73
     1
 44
1.0
1001
ACAD
1000
MTEXTBEGIN
1070
    73
1070
     1
1070
    44
1040
1.0
1070
    74
1070
     0
1000
MTEXTEND
  0
POINT
  5
11AE3
330
11A36
100
AcDbEntity
  8
Defpoints
 62
     0
100
AcDbPoint
 10
8651.295843912361
 20
7129.700683318197
 30
0.0
  0
POINT
  5
11AE4
330
11A36
100
AcDbEntity
  8
Defpoints
 62
     0
100
AcDbPoint
 10
9011.295843912362
 20
7074.700683318188
 30
0.0
  0
POINT
  5
11AE5
330
11A36
100
AcDbEntity
  8
Defpoints
 62
     0
100
AcDbPoint
 10
9011.295843912368
 20
7487.358390465113
 30
0.0
  0
ENDBLK
  5
11A3F
330
11A36
100
AcDbEntity
  8
0
100
AcDbBlockEnd
  0
BLOCK
  5
11A52
330
11A4A
100
AcDbEntity
  8
0
100
AcDbBlockBegin
  2
*D13
 70
     1
 10
0.0
 20
0.0
 30
0.0
  3
*D13
  1

  0
LINE
  5
11AAA
330
11A4A
100
AcDbEntity
  8
0Wymiary-PL
 62
     1
370
    -2
100
AcDbLine
 10
9621.99068552788
 20
6186.809548495507
 30
0.0
 11
9621.99068552788
 21
7026.809548495506
 31
0.0
  0
INSERT
  5
11AAB
330
11A4A
100
AcDbEntity
  8
0Wymiary-PL
 62
     1
370
    -2
100
AcDbBlockReference
  2
B-DIM
 10
9621.99068552788
 20
6156.809548495506
 30
0.0
 41
30.0
 42
30.0
 43
30.0
 50
270.0
  0
INSERT
  5
11AAC
330
11A4A
100
AcDbEntity
  8
0Wymiary-PL
 62
     1
370
    -2
100
AcDbBlockReference
  2
B-DIM
 10
9621.99068552788
 20
7056.809548495507
 30
0.0
 41
30.0
 42
30.0
 43
30.0
 50
90.0
  0
MTEXT
  5
11AAD
330
11A4A
100
AcDbEntity
  8
0Wymiary-PL
 62
    10
100
AcDbMText
 10
9541.990685527876
 20
6606.809548495508
 30
0.0
 40
80.0
 41
0.0
 71
     5
 72
     1
  1
\A1;900
  7
RomanS
 11
0.0000000000000001
 21
1.0
 31
0.0
 73
     1
 44
1.0
1001
ACAD
1000
MTEXTBEGIN
1070
    73
1070
     1
1070
    44
1040
1.0
1070
    74
1070
     0
1000
MTEXTEND
  0
POINT
  5
11AAE
330
11A4A
100
AcDbEntity
  8
Defpoints
 62
     0
100
AcDbPoint
 10
7632.760995744203
 20
6156.809548495506
 30
0.0
  0
POINT
  5
11AAF
330
11A4A
100
AcDbEntity
  8
Defpoints
 62
     0
100
AcDbPoint
 10
7632.760995744203
 20
7056.809548495507
 30
0.0
  0
POINT
  5
11AB0
330
11A4A
100
AcDbEntity
  8
Defpoints
 62
     0
100
AcDbPoint
 10
9621.99068552788
 20
7056.809548495507
 30
0.0
  0
ENDBLK
  5
11A53
330
11A4A
100
AcDbEntity
  8
0
100
AcDbBlockEnd
  0
BLOCK
  5
11A66
330
11A5E
100
AcDbEntity
  8
0
100
AcDbBlockBegin
  2
*D14
 70
     1
 10
0.0
 20
0.0
 30
0.0
  3
*D14
  1

  0
LINE
  5
11AE6
330
11A5E
100
AcDbEntity
  8
0Wymiary-PL
 62
     1
370
    -2
100
AcDbLine
 10
7671.295843912361
 20
7712.745748817929
 30
0.0
 11
8981.295843912361
 21
7712.745748817929
 31
0.0
  0
INSERT
  5
11AE7
330
11A5E
100
AcDbEntity
  8
0Wymiary-PL
 62
     1
370
    -2
100
AcDbBlockReference
  2
B-DIM
 10
7641.295843912361
 20
7712.745748817929
 30
0.0
 41
30.0
 42
30.0
 43
30.0
 50
180.0
  0
INSERT
  5
11AE8
330
11A5E
100
AcDbEntity
  8
0Wymiary-PL
 62
     1
370
    -2
100
AcDbBlockReference
  2
B-DIM
 10
9011.295843912362
 20
7712.745748817929
 30
0.0
 41
30.0
 42
30.0
 43
30.0
  0
MTEXT
  5
11AE9
330
11A5E
100
AcDbEntity
  8
0Wymiary-PL
 62
    10
100
AcDbMText
 10
8326.29584391236
 20
7792.745748817928
 30
0.0
 40
80.0
 41
0.0
 71
     5
 72
     1
  1
\A1;1370
  7
RomanS
 73
     1
 44
1.0
1001
ACAD
1000
MTEXTBEGIN
1070
    73
1070
     1
1070
    44
1040
1.0
1070
    74
1070
     0
1000
MTEXTEND
  0
POINT
  5
11AEA
330
11A5E
100
AcDbEntity
  8
Defpoints
 62
     0
100
AcDbPoint
 10
7641.295843912361
 20
6911.700683318191
 30
0.0
  0
POINT
  5
11AEB
330
11A5E
100
AcDbEntity
  8
Defpoints
 62
     0
100
AcDbPoint
 10
9011.295843912362
 20
6911.700683318191
 30
0.0
  0
POINT
  5
11AEC
330
11A5E
100
AcDbEntity
  8
Defpoints
 62
     0
100
AcDbPoint
 10
9011.295843912362
 20
7712.745748817929
 30
0.0
  0
ENDBLK
  5
11A67
330
11A5E
100
AcDbEntity
  8
0
100
AcDbBlockEnd
  0
BLOCK
  5
11B35
330
11B2B
100
AcDbEntity
  8
0
100
AcDbBlockBegin
  2
*D15
 70
     1
 10
0.0
 20
0.0
 30
0.0
  3
*D15
  1

  0
LINE
  5
11BDF
330
11B2B
100
AcDbEntity
  8
WYMIARY
 62
     1
370
    -2
100
AcDbLine
 10
11407.1617073439
 20
7086.809548495506
 30
0.0
 11
11407.1617073439
 21
7116.809548495506
 31
0.0
  0
LINE
  5
11BE0
330
11B2B
100
AcDbEntity
  8
WYMIARY
 62
     1
370
    -2
100
AcDbLine
 10
11407.1617073439
 20
6971.809548495497
 30
0.0
 11
11407.1617073439
 21
6941.809548495498
 31
0.0
  0
LINE
  5
11BE1
330
11B2B
100
AcDbEntity
  8
WYMIARY
 62
     1
370
    -2
100
AcDbLine
 10
11407.1617073439
 20
7056.809548495507
 30
0.0
 11
11407.1617073439
 21
7001.809548495497
 31
0.0
  0
INSERT
  5
11BE2
330
11B2B
100
AcDbEntity
  8
WYMIARY
 62
     1
370
    -2
100
AcDbBlockReference
  2
B-DIM
 10
11407.1617073439
 20
7056.809548495507
 30
0.0
 41
30.0
 42
30.0
 43
30.0
 50
270.0
  0
INSERT
  5
11BE3
330
11B2B
100
AcDbEntity
  8
WYMIARY
 62
     1
370
    -2
100
AcDbBlockReference
  2
B-DIM
 10
11407.1617073439
 20
7001.809548495497
 30
0.0
 41
30.0
 42
30.0
 43
30.0
 50
90.0
  0
MTEXT
  5
11BE4
330
11B2B
100
AcDbEntity
  8
WYMIARY
 62
    10
100
AcDbMText
 10
11327.1617073439
 20
7029.309548495504
 30
0.0
 40
80.0
 41
0.0
 71
     5
 72
     1
  1
\A1;55
  7
RomanS
 11
0.0000000000000001
 21
1.0
 31
0.0
 73
     1
 44
1.0
1001
ACAD
1000
MTEXTBEGIN
1070
    73
1070
     1
1070
    44
1040
1.0
1070
    74
1070
     0
1000
MTEXTEND
  0
POINT
  5
11BE5
330
11B2B
100
AcDbEntity
  8
Defpoints
 62
     0
100
AcDbPoint
 10
12282.42083769692
 20
7056.809548495507
 30
0.0
  0
POINT
  5
11BE6
330
11B2B
100
AcDbEntity
  8
Defpoints
 62
     0
100
AcDbPoint
 10
12282.42083769692
 20
7001.809548495497
 30
0.0
  0
POINT
  5
11BE7
330
11B2B
100
AcDbEntity
  8
Defpoints
 62
     0
100
AcDbPoint
 10
11407.1617073439
 20
7001.809548495497
 30
0.0
  0
ENDBLK
  5
11B36
330
11B2B
100
AcDbEntity
  8
0
100
AcDbBlockEnd
  0
BLOCK
  5
11B3F
330
11B37
100
AcDbEntity
  8
0
100
AcDbBlockBegin
  2
*D16
 70
     1
 10
0.0
 20
0.0
 30
0.0
  3
*D16
  1

  0
LINE
  5
11BE8
330
11B37
100
AcDbEntity
  8
0Wymiary-PL
 62
     1
370
    -2
100
AcDbLine
 10
11407.1617073439
 20
6971.809548495497
 30
0.0
 11
11407.1617073439
 21
6241.809548495497
 31
0.0
  0
INSERT
  5
11BE9
330
11B37
100
AcDbEntity
  8
0Wymiary-PL
 62
     1
370
    -2
100
AcDbBlockReference
  2
B-DIM
 10
11407.1617073439
 20
7001.809548495497
 30
0.0
 41
30.0
 42
30.0
 43
30.0
 50
90.0
  0
INSERT
  5
11BEA
330
11B37
100
AcDbEntity
  8
0Wymiary-PL
 62
     1
370
    -2
100
AcDbBlockReference
  2
B-DIM
 10
11407.1617073439
 20
6211.809548495498
 30
0.0
 41
30.0
 42
30.0
 43
30.0
 50
270.0
  0
MTEXT
  5
11BEB
330
11B37
100
AcDbEntity
  8
0Wymiary-PL
 62
    10
100
AcDbMText
 10
11327.1617073439
 20
6606.809548495499
 30
0.0
 40
80.0
 41
0.0
 71
     5
 72
     1
  1
\A1;790
  7
RomanS
 11
0.0000000000000001
 21
1.0
 31
0.0
 73
     1
 44
1.0
1001
ACAD
1000
MTEXTBEGIN
1070
    73
1070
     1
1070
    44
1040
1.0
1070
    74
1070
     0
1000
MTEXTEND
  0
POINT
  5
11BEC
330
11B37
100
AcDbEntity
  8
Defpoints
 62
     0
100
AcDbPoint
 10
12282.42083769692
 20
7001.809548495497
 30
0.0
  0
POINT
  5
11BED
330
11B37
100
AcDbEntity
  8
Defpoints
 62
     0
100
AcDbPoint
 10
11922.42083769692
 20
6211.809548495498
 30
0.0
  0
POINT
  5
11BEE
330
11B37
100
AcDbEntity
  8
Defpoints
 62
     0
100
AcDbPoint
 10
11407.1617073439
 20
6211.809548495498
 30
0.0
  0
ENDBLK
  5
11B40
330
11B37
100
AcDbEntity
  8
0
100
AcDbBlockEnd
  0
BLOCK
  5
11B4B
330
11B41
100
AcDbEntity
  8
0
100
AcDbBlockBegin
  2
*D17
 70
     1
 10
0.0
 20
0.0
 30
0.0
  3
*D17
  1

  0
LINE
  5
11BEF
330
11B41
100
AcDbEntity
  8
0Wymiary-PL
 62
     1
370
    -2
100
AcDbLine
 10
11407.1617073439
 20
6241.809548495497
 30
0.0
 11
11407.1617073439
 21
6271.809548495498
 31
0.0
  0
LINE
  5
11BF0
330
11B41
100
AcDbEntity
  8
0Wymiary-PL
 62
     1
370
    -2
100
AcDbLine
 10
11407.1617073439
 20
6126.809548495507
 30
0.0
 11
11407.1617073439
 21
6096.809548495507
 31
0.0
  0
LINE
  5
11BF1
330
11B41
100
AcDbEntity
  8
0Wymiary-PL
 62
     1
370
    -2
100
AcDbLine
 10
11407.1617073439
 20
6211.809548495498
 30
0.0
 11
11407.1617073439
 21
6156.809548495506
 31
0.0
  0
INSERT
  5
11BF2
330
11B41
100
AcDbEntity
  8
0Wymiary-PL
 62
     1
370
    -2
100
AcDbBlockReference
  2
B-DIM
 10
11407.1617073439
 20
6211.809548495498
 30
0.0
 41
30.0
 42
30.0
 43
30.0
 50
270.0
  0
INSERT
  5
11BF3
330
11B41
100
AcDbEntity
  8
0Wymiary-PL
 62
     1
370
    -2
100
AcDbBlockReference
  2
B-DIM
 10
11407.1617073439
 20
6156.809548495506
 30
0.0
 41
30.0
 42
30.0
 43
30.0
 50
90.0
  0
MTEXT
  5
11BF4
330
11B41
100
AcDbEntity
  8
0Wymiary-PL
 62
    10
100
AcDbMText
 10
11327.1617073439
 20
6184.309548495503
 30
0.0
 40
80.0
 41
0.0
 71
     5
 72
     1
  1
\A1;55
  7
RomanS
 11
0.0000000000000001
 21
1.0
 31
0.0
 73
     1
 44
1.0
1001
ACAD
1000
MTEXTBEGIN
1070
    73
1070
     1
1070
    44
1040
1.0
1070
    74
1070
     0
1000
MTEXTEND
  0
POINT
  5
11BF5
330
11B41
100
AcDbEntity
  8
Defpoints
 62
     0
100
AcDbPoint
 10
11922.42083769692
 20
6211.809548495498
 30
0.0
  0
POINT
  5
11BF6
330
11B41
100
AcDbEntity
  8
Defpoints
 62
     0
100
AcDbPoint
 10
12282.42083769692
 20
6156.809548495506
 30
0.0
  0
POINT
  5
11BF7
330
11B41
100
AcDbEntity
  8
Defpoints
 62
     0
100
AcDbPoint
 10
11407.1617073439
 20
6156.809548495506
 30
0.0
  0
ENDBLK
  5
11B4C
330
11B41
100
AcDbEntity
  8
0
100
AcDbBlockEnd
  0
BLOCK
  5
11B57
330
11B4D
100
AcDbEntity
  8
0
100
AcDbBlockBegin
  2
*D18
 70
     1
 10
0.0
 20
0.0
 30
0.0
  3
*D18
  1

  0
LINE
  5
11BF8
330
11B4D
100
AcDbEntity
  8
0Wymiary-PL
 62
     1
370
    -2
100
AcDbLine
 10
13083.08456489087
 20
7487.358390465134
 30
0.0
 11
13113.08456489087
 21
7487.358390465136
 31
0.0
  0
LINE
  5
11BF9
330
11B4D
100
AcDbEntity
  8
0Wymiary-PL
 62
     1
370
    -2
100
AcDbLine
 10
12913.08456489087
 20
7487.358390465131
 30
0.0
 11
12883.08456489087
 21
7487.358390465131
 31
0.0
  0
LINE
  5
11BFA
330
11B4D
100
AcDbEntity
  8
0Wymiary-PL
 62
     1
370
    -2
100
AcDbLine
 10
13053.08456489087
 20
7487.358390465134
 30
0.0
 11
12943.08456489087
 21
7487.358390465132
 31
0.0
  0
INSERT
  5
11BFB
330
11B4D
100
AcDbEntity
  8
0Wymiary-PL
 62
     1
370
    -2
100
AcDbBlockReference
  2
B-DIM
 10
13053.08456489087
 20
7487.358390465134
 30
0.0
 41
30.0
 42
30.0
 43
30.0
 50
180.0000000000009
  0
INSERT
  5
11BFC
330
11B4D
100
AcDbEntity
  8
0Wymiary-PL
 62
     1
370
    -2
100
AcDbBlockReference
  2
B-DIM
 10
12943.08456489087
 20
7487.358390465132
 30
0.0
 41
30.0
 42
30.0
 43
30.0
 50
0.000000000000916
  0
MTEXT
  5
11BFD
330
11B4D
100
AcDbEntity
  8
0Wymiary-PL
 62
    10
100
AcDbMText
 10
12998.08456489087
 20
7567.358390465132
 30
0.0
 40
80.0
 41
0.0
 71
     5
 72
     1
  1
\A1;110
  7
RomanS
 73
     1
 44
1.0
1001
ACAD
1000
MTEXTBEGIN
1070
    73
1070
     1
1070
    44
1040
1.0
1070
    74
1070
     0
1000
MTEXTEND
  0
POINT
  5
11BFE
330
11B4D
100
AcDbEntity
  8
Defpoints
 62
     0
100
AcDbPoint
 10
13053.08456489088
 20
6911.700683318191
 30
0.0
  0
POINT
  5
11BFF
330
11B4D
100
AcDbEntity
  8
Defpoints
 62
     0
100
AcDbPoint
 10
12943.08456489088
 20
6911.700683318189
 30
0.0
  0
POINT
  5
11C00
330
11B4D
100
AcDbEntity
  8
Defpoints
 62
     0
100
AcDbPoint
 10
12943.08456489087
 20
7487.358390465132
 30
0.0
  0
ENDBLK
  5
11B58
330
11B4D
100
AcDbEntity
  8
0
100
AcDbBlockEnd
  0
BLOCK
  5
11B61
330
11B59
100
AcDbEntity
  8
0
100
AcDbBlockBegin
  2
*D19
 70
     1
 10
0.0
 20
0.0
 30
0.0
  3
*D19
  1

  0
LINE
  5
11C01
330
11B59
100
AcDbEntity
  8
0Wymiary-PL
 62
     1
370
    -2
100
AcDbLine
 10
12913.08456489088
 20
7487.358390465118
 30
0.0
 11
12073.08456489088
 21
7487.358390465118
 31
0.0
  0
INSERT
  5
11C02
330
11B59
100
AcDbEntity
  8
0Wymiary-PL
 62
     1
370
    -2
100
AcDbBlockReference
  2
B-DIM
 10
12943.08456489088
 20
7487.358390465118
 30
0.0
 41
30.0
 42
30.0
 43
30.0
  0
INSERT
  5
11C03
330
11B59
100
AcDbEntity
  8
0Wymiary-PL
 62
     1
370
    -2
100
AcDbBlockReference
  2
B-DIM
 10
12043.08456489088
 20
7487.358390465118
 30
0.0
 41
30.0
 42
30.0
 43
30.0
 50
180.0
  0
MTEXT
  5
11C04
330
11B59
100
AcDbEntity
  8
0Wymiary-PL
 62
    10
100
AcDbMText
 10
12493.08456489088
 20
7567.358390465118
 30
0.0
 40
80.0
 41
0.0
 71
     5
 72
     1
  1
\A1;900
  7
RomanS
 73
     1
 44
1.0
1001
ACAD
1000
MTEXTBEGIN
1070
    73
1070
     1
1070
    44
1040
1.0
1070
    74
1070
     0
1000
MTEXTEND
  0
POINT
  5
11C05
330
11B59
100
AcDbEntity
  8
Defpoints
 62
     0
100
AcDbPoint
 10
12943.08456489088
 20
6911.700683318189
 30
0.0
  0
POINT
  5
11C06
330
11B59
100
AcDbEntity
  8
Defpoints
 62
     0
100
AcDbPoint
 10
12043.08456489088
 20
7129.700683318197
 30
0.0
  0
POINT
  5
11C07
330
11B59
100
AcDbEntity
  8
Defpoints
 62
     0
100
AcDbPoint
 10
12043.08456489088
 20
7487.358390465118
 30
0.0
  0
ENDBLK
  5
11B62
330
11B59
100
AcDbEntity
  8
0
100
AcDbBlockEnd
  0
BLOCK
  5
11B6B
330
11B63
100
AcDbEntity
  8
0
100
AcDbBlockBegin
  2
*D20
 70
     1
 10
0.0
 20
0.0
 30
0.0
  3
*D20
  1

  0
LINE
  5
11C08
330
11B63
100
AcDbEntity
  8
0Wymiary-PL
 62
     1
370
    -2
100
AcDbLine
 10
12013.08456489088
 20
7487.358390465113
 30
0.0
 11
11713.08456489088
 21
7487.358390465113
 31
0.0
  0
INSERT
  5
11C09
330
11B63
100
AcDbEntity
  8
0Wymiary-PL
 62
     1
370
    -2
100
AcDbBlockReference
  2
B-DIM
 10
12043.08456489088
 20
7487.358390465113
 30
0.0
 41
30.0
 42
30.0
 43
30.0
  0
INSERT
  5
11C0A
330
11B63
100
AcDbEntity
  8
0Wymiary-PL
 62
     1
370
    -2
100
AcDbBlockReference
  2
B-DIM
 10
11683.08456489088
 20
7487.358390465113
 30
0.0
 41
30.0
 42
30.0
 43
30.0
 50
180.0
  0
MTEXT
  5
11C0B
330
11B63
100
AcDbEntity
  8
0Wymiary-PL
 62
    10
100
AcDbMText
 10
11863.08456489088
 20
7567.358390465113
 30
0.0
 40
80.0
 41
0.0
 71
     5
 72
     1
  1
\A1;360
  7
RomanS
 73
     1
 44
1.0
1001
ACAD
1000
MTEXTBEGIN
1070
    73
1070
     1
1070
    44
1040
1.0
1070
    74
1070
     0
1000
MTEXTEND
  0
POINT
  5
11C0C
330
11B63
100
AcDbEntity
  8
Defpoints
 62
     0
100
AcDbPoint
 10
12043.08456489088
 20
7129.700683318197
 30
0.0
  0
POINT
  5
11C0D
330
11B63
100
AcDbEntity
  8
Defpoints
 62
     0
100
AcDbPoint
 10
11683.08456489088
 20
7074.700683318188
 30
0.0
  0
POINT
  5
11C0E
330
11B63
100
AcDbEntity
  8
Defpoints
 62
     0
100
AcDbPoint
 10
11683.08456489088
 20
7487.358390465113
 30
0.0
  0
ENDBLK
  5
11B6C
330
11B63
100
AcDbEntity
  8
0
100
AcDbBlockEnd
  0
BLOCK
  5
11B75
330
11B6D
100
AcDbEntity
  8
0
100
AcDbBlockBegin
  2
*D21
 70
     1
 10
0.0
 20
0.0
 30
0.0
  3
*D21
  1

  0
LINE
  5
11C0F
330
11B6D
100
AcDbEntity
  8
0Wymiary-PL
 62
     1
370
    -2
100
AcDbLine
 10
11193.19114791324
 20
6186.809548495507
 30
0.0
 11
11193.19114791324
 21
7026.809548495506
 31
0.0
  0
INSERT
  5
11C10
330
11B6D
100
AcDbEntity
  8
0Wymiary-PL
 62
     1
370
    -2
100
AcDbBlockReference
  2
B-DIM
 10
11193.19114791324
 20
6156.809548495506
 30
0.0
 41
30.0
 42
30.0
 43
30.0
 50
270.0
  0
INSERT
  5
11C11
330
11B6D
100
AcDbEntity
  8
0Wymiary-PL
 62
     1
370
    -2
100
AcDbBlockReference
  2
B-DIM
 10
11193.19114791324
 20
7056.809548495507
 30
0.0
 41
30.0
 42
30.0
 43
30.0
 50
90.0
  0
MTEXT
  5
11C12
330
11B6D
100
AcDbEntity
  8
0Wymiary-PL
 62
    10
100
AcDbMText
 10
11113.19114791324
 20
6606.809548495508
 30
0.0
 40
80.0
 41
0.0
 71
     5
 72
     1
  1
\A1;900
  7
RomanS
 11
0.0000000000000001
 21
1.0
 31
0.0
 73
     1
 44
1.0
1001
ACAD
1000
MTEXTBEGIN
1070
    73
1070
     1
1070
    44
1040
1.0
1070
    74
1070
     0
1000
MTEXTEND
  0
POINT
  5
11C13
330
11B6D
100
AcDbEntity
  8
Defpoints
 62
     0
100
AcDbPoint
 10
13182.42083769692
 20
6156.809548495506
 30
0.0
  0
POINT
  5
11C14
330
11B6D
100
AcDbEntity
  8
Defpoints
 62
     0
100
AcDbPoint
 10
13182.42083769692
 20
7056.809548495507
 30
0.0
  0
POINT
  5
11C15
330
11B6D
100
AcDbEntity
  8
Defpoints
 62
     0
100
AcDbPoint
 10
11193.19114791324
 20
7056.809548495507
 30
0.0
  0
ENDBLK
  5
11B76
330
11B6D
100
AcDbEntity
  8
0
100
AcDbBlockEnd
  0
BLOCK
  5
11B7F
330
11B77
100
AcDbEntity
  8
0
100
AcDbBlockBegin
  2
*D22
 70
     1
 10
0.0
 20
0.0
 30
0.0
  3
*D22
  1

  0
LINE
  5
11C16
330
11B77
100
AcDbEntity
  8
0Wymiary-PL
 62
     1
370
    -2
100
AcDbLine
 10
13023.08456489088
 20
7712.745748817929
 30
0.0
 11
11713.08456489088
 21
7712.745748817929
 31
0.0
  0
INSERT
  5
11C17
330
11B77
100
AcDbEntity
  8
0Wymiary-PL
 62
     1
370
    -2
100
AcDbBlockReference
  2
B-DIM
 10
13053.08456489088
 20
7712.745748817929
 30
0.0
 41
30.0
 42
30.0
 43
30.0
  0
INSERT
  5
11C18
330
11B77
100
AcDbEntity
  8
0Wymiary-PL
 62
     1
370
    -2
100
AcDbBlockReference
  2
B-DIM
 10
11683.08456489088
 20
7712.745748817929
 30
0.0
 41
30.0
 42
30.0
 43
30.0
 50
180.0
  0
MTEXT
  5
11C19
330
11B77
100
AcDbEntity
  8
0Wymiary-PL
 62
    10
100
AcDbMText
 10
12368.08456489088
 20
7792.745748817928
 30
0.0
 40
80.0
 41
0.0
 71
     5
 72
     1
  1
\A1;1370
  7
RomanS
 73
     1
 44
1.0
1001
ACAD
1000
MTEXTBEGIN
1070
    73
1070
     1
1070
    44
1040
1.0
1070
    74
1070
     0
1000
MTEXTEND
  0
POINT
  5
11C1A
330
11B77
100
AcDbEntity
  8
Defpoints
 62
     0
100
AcDbPoint
 10
13053.08456489088
 20
6911.700683318191
 30
0.0
  0
POINT
  5
11C1B
330
11B77
100
AcDbEntity
  8
Defpoints
 62
     0
100
AcDbPoint
 10
11683.08456489088
 20
6911.700683318191
 30
0.0
  0
POINT
  5
11C1C
330
11B77
100
AcDbEntity
  8
Defpoints
 62
     0
100
AcDbPoint
 10
11683.08456489088
 20
7712.745748817929
 30
0.0
  0
ENDBLK
  5
11B80
330
11B77
100
AcDbEntity
  8
0
100
AcDbBlockEnd
  0
ENDSEC
  0
SECTION
  2
ENTITIES
  0
INSERT
  5
643F
330
1F
100
AcDbEntity
  8
A-Window-T
  6
Continuous
 62
    91
370
    15
100
AcDbBlockReference
  2
opis_opis
 10
-636.7197040226865
 20
1030.779532396625
 30
0.0
 41
17.0
 42
17.0
 43
17.0
1001
AEC_XDATA_BOUND_SPACE
1070
   100
1070
     1
  0
MTEXT
  5
81FD
330
1F
100
AcDbEntity
  8
A-SchedObject-G
  6
Continuous
 62
   171
370
    18
100
AcDbMText
 10
-21.09093037215917
 20
-1923.193705584576
 30
0.0
 40
16.0
 41
92.79999999999999
 71
     5
 72
     5
  1

  7
RomanS
 73
     2
 44
1.0
1001
ACAD
1000
MTEXTBEGIN
1070
    73
1070
     2
1070
    44
1040
1.0
1070
    74
1070
     0
1000
MTEXTEND
  0
MTEXT
  5
81FF
330
1F
100
AcDbEntity
  8
A-SchedObject-G
  6
Continuous
 62
   171
370
    18
100
AcDbMText
 10
194.9090696278408
 20
-1923.193705584576
 30
0.0
 40
16.0
 41
300.8
 71
     5
 72
     5
  1

  7
RomanS
 73
     2
 44
1.0
1001
ACAD
1000
MTEXTBEGIN
1070
    73
1070
     2
1070
    44
1040
1.0
1070
    74
1070
     0
1000
MTEXTEND
  0
MTEXT
  5
8680
330
1F
100
AcDbEntity
  8
A-SchedObject-G
  6
Continuous
 62
   171
370
    18
100
AcDbMText
 10
-21.09093037215917
 20
-861.1937055845757
 30
0.0
 40
16.0
 41
92.79999999999999
 71
     5
 72
     5
  1

  7
RomanS
 73
     2
 44
1.0
1001
ACAD
1000
MTEXTBEGIN
1070
    73
1070
     2
1070
    44
1040
1.0
1070
    74
1070
     0
1000
MTEXTEND
  0
MTEXT
  5
8682
330
1F
100
AcDbEntity
  8
A-SchedObject-G
  6
Continuous
 62
   171
370
    18
100
AcDbMText
 10
194.9090696278408
 20
-861.1937055845757
 30
0.0
 40
16.0
 41
300.8
 71
     5
 72
     5
  1

  7
RomanS
 73
     2
 44
1.0
1001
ACAD
1000
MTEXTBEGIN
1070
    73
1070
     2
1070
    44
1040
1.0
1070
    74
1070
     0
1000
MTEXTEND
  0
MTEXT
  5
8C15
330
1F
100
AcDbEntity
  8
A-SchedObject-G
  6
Continuous
 62
   191
370
    18
100
AcDbMText
 10
137.6041179780763
 20
-510.2019430735532
 30
0.0
 40
15.0
 41
72.0
 71
     4
 72
     5
  1

  7
RomanS
 73
     2
 44
1.0
1001
ACAD
1000
MTEXTBEGIN
1070
    73
1070
     2
1070
    44
1040
1.0
1070
    74
1070
     0
1000
MTEXTEND
  0
INSERT
  5
8F0C
330
1F
100
AcDbEntity
  8
0
100
AcDbBlockReference
  2
*U1
 10
0.0
 20
0.0
 30
0.0
1001
AEC_XDATA_BOUND_SPACE
1070
   100
1070
     1
  0
TEXT
  5
110A6
330
1F
100
AcDbEntity
  8
0Napisy
100
AcDbText
 10
6720.429877208913
 20
12058.57039146095
 30
0.0
 40
150.0
  1
"DOM W RODODENDRONACH 6 (N)"
  7
AVA
100
AcDbText
  0
TEXT
  5
110A7
330
1F
100
AcDbEntity
  8
0Napisy
100
AcDbText
 10
6740.399945762405
 20
11728.70191409819
 30
0.0
 40
150.0
  1
MOŻNA WKLEIĆ DO PROJEKTU ZAGOSPODAROWANIA TERENU
  7
AVA
100
AcDbText
  0
TEXT
  5
110A9
330
1F
100
AcDbEntity
  8
0Napisy
100
AcDbText
 10
10338.00296125391
 20
5694.574785683233
 30
0.0
 40
100.0
  1
OŚ ODBICIA LUSTRZANEGO
 50
90.0
  7
AVA
100
AcDbText
  0
LINE
  5
110AA
330
1F
100
AcDbEntity
  8
-przerywana
 62
     1
 48
4.0
100
AcDbLine
 10
10397.52413824723
 20
4612.9276228627
 30
0.0
 11
10397.52413824723
 21
9415.384680340082
 31
0.0
  0
TEXT
  5
110AB
330
1F
100
AcDbEntity
  8
0Napisy
100
AcDbText
 10
6644.186894644507
 20
-734.6633467836786
 30
0.0
 40
100.0
  1
   O B R Y S   B U D Y N K U           S K A L A   1 : 5 0 0 
  7
AVA
100
AcDbText
  0
LINE
  5
110AC
330
1F
100
AcDbEntity
  8
NIEPLOT
100
AcDbLine
 10
5184.834947969521
 20
-1400.219429686213
 30
0.0
 11
5184.834947969521
 21
12619.78057031378
 31
0.0
  0
LINE
  5
110AD
330
1F
100
AcDbEntity
  8
NIEPLOT
100
AcDbLine
 10
5184.834947969521
 20
12619.78057031378
 30
0.0
 11
15384.83494796955
 21
12619.78057031378
 31
0.0
  0
LINE
  5
110AE
330
1F
100
AcDbEntity
  8
NIEPLOT
100
AcDbLine
 10
15384.83494796955
 20
12619.78057031378
 30
0.0
 11
15384.83494796955
 21
-1400.219429686213
 31
0.0
  0
LINE
  5
110AF
330
1F
100
AcDbEntity
  8
NIEPLOT
100
AcDbLine
 10
15384.83494796955
 20
-1400.219429686213
 30
0.0
 11
5184.834947969521
 21
-1400.219429686213
 31
0.0
  0
LINE
  5
117DF
330
1F
100
AcDbEntity
  8
0
  6
Continuous
370
     9
100
AcDbLine
 10
8021.313782088631
 20
6007.271498073298
 30
0.0
 11
8381.277905736093
 21
6007.271498073298
 31
0.0
  0
LINE
  5
117E0
330
1F
100
AcDbEntity
  8
0
  6
Continuous
370
     9
100
AcDbLine
 10
8021.313782088631
 20
6156.809548495506
 30
0.0
 11
8021.313782088631
 21
6007.271498073298
 31
0.0
  0
LINE
  5
117E1
330
1F
100
AcDbEntity
  8
0
  6
Continuous
370
     9
100
AcDbLine
 10
8381.277905736093
 20
6007.271498073298
 30
0.0
 11
8381.277905736093
 21
6156.809548495506
 31
0.0
  0
LINE
  5
117E2
330
1F
100
AcDbEntity
  8
0
  6
Continuous
370
     9
100
AcDbLine
 10
8080.548937834683
 20
6066.809548495506
 30
0.0
 11
8320.548937834683
 21
6066.809548495506
 31
0.0
  0
LINE
  5
117E3
330
1F
100
AcDbEntity
  8
0
  6
Continuous
370
     9
100
AcDbLine
 10
8080.548937834683
 20
6156.809548495506
 30
0.0
 11
8080.548937834683
 21
6066.809548495506
 31
0.0
  0
LINE
  5
117E4
330
1F
100
AcDbEntity
  8
0
  6
Continuous
370
     9
100
AcDbLine
 10
8320.548937834683
 20
6066.809548495506
 30
0.0
 11
8320.548937834683
 21
6156.809548495506
 31
0.0
  0
LINE
  5
117E5
330
1F
100
AcDbEntity
  8
0
  6
Continuous
370
     9
100
AcDbLine
 10
8050.548937834681
 20
6036.809548495506
 30
0.0
 11
8350.548937834684
 21
6036.809548495506
 31
0.0
  0
LINE
  5
117E6
330
1F
100
AcDbEntity
  8
0
  6
Continuous
370
     9
100
AcDbLine
 10
8050.548937834681
 20
6156.809548495506
 30
0.0
 11
8050.548937834681
 21
6036.809548495506
 31
0.0
  0
LINE
  5
117E7
330
1F
100
AcDbEntity
  8
0
  6
Continuous
370
     9
100
AcDbLine
 10
8350.548937834684
 20
6036.809548495506
 30
0.0
 11
8350.548937834684
 21
6156.809548495506
 31
0.0
  0
LINE
  5
117E8
330
1F
100
AcDbEntity
  8
0
  6
Continuous
370
     9
100
AcDbLine
 10
8715.025018008736
 20
6211.809548495498
 30
0.0
 11
8947.566669815989
 21
6211.809548495498
 31
0.0
  0
LINE
  5
117E9
330
1F
100
AcDbEntity
  8
0
  6
Continuous
370
     9
100
AcDbLine
 10
9011.295843912362
 20
6156.809548495506
 30
0.0
 11
9011.295843912362
 21
6211.809548495498
 31
0.0
  0
LINE
  5
117EA
330
1F
100
AcDbEntity
  8
0
  6
Continuous
370
     9
100
AcDbLine
 10
8651.295843912361
 20
6156.809548495506
 30
0.0
 11
9011.295843912362
 21
6156.809548495506
 31
0.0
  0
LINE
  5
117EF
330
1F
100
AcDbEntity
  8
0
  6
Continuous
370
     9
100
AcDbLine
 10
8251.295843912361
 20
6216.809548495504
 30
0.0
 11
8251.295843912361
 21
6156.809548495506
 31
0.0
  0
LINE
  5
117F0
330
1F
100
AcDbEntity
  8
0
  6
Continuous
370
     9
100
AcDbLine
 10
8151.295843912375
 20
6216.809548495507
 30
0.0
 11
8151.295843912375
 21
6156.809548495506
 31
0.0
  0
LINE
  5
117F1
330
1F
100
AcDbEntity
  8
0
  6
Continuous
370
     9
100
AcDbLine
 10
8690.475851602306
 20
6271.809548495498
 30
0.0
 11
8690.475851602306
 21
6211.809548495498
 31
0.0
  0
LINE
  5
117F2
330
1F
100
AcDbEntity
  8
0
  6
Continuous
370
     9
100
AcDbLine
 10
8930.475851602308
 20
6271.809548495498
 30
0.0
 11
8930.475851602308
 21
6211.809548495498
 31
0.0
  0
LINE
  5
117F4
330
1F
100
AcDbEntity
  8
0
  6
Continuous
370
     9
100
AcDbLine
 10
7751.295843912361
 20
6156.809548495506
 30
0.0
 11
7751.295843912361
 21
6460.809548495501
 31
0.0
  0
LINE
  5
117F5
330
1F
100
AcDbEntity
  8
0
  6
Continuous
370
     9
100
AcDbLine
 10
7751.295843912361
 20
6460.809548495501
 30
0.0
 11
7641.295843912361
 21
6460.809548495501
 31
0.0
  0
LINE
  5
117F6
330
1F
100
AcDbEntity
  8
0
  6
Continuous
370
     9
100
AcDbLine
 10
7641.295843912361
 20
6460.809548495501
 30
0.0
 11
7641.295843912361
 21
6838.809548495501
 31
0.0
  0
LINE
  5
117F7
330
1F
100
AcDbEntity
  8
0
  6
Continuous
370
     9
100
AcDbLine
 10
7641.295843912361
 20
6838.809548495501
 30
0.0
 11
7751.295843912359
 21
6838.809548495501
 31
0.0
  0
LINE
  5
117F8
330
1F
100
AcDbEntity
  8
0
  6
Continuous
370
     9
100
AcDbLine
 10
7751.295843912359
 20
6838.809548495501
 30
0.0
 11
7751.295843912361
 21
7056.809548495507
 31
0.0
  0
LINE
  5
117F9
330
1F
100
AcDbEntity
  8
0
  6
Continuous
370
     9
100
AcDbLine
 10
7751.295843912361
 20
7056.809548495507
 30
0.0
 11
8651.295843912361
 21
7056.809548495507
 31
0.0
  0
LINE
  5
117FA
330
1F
100
AcDbEntity
  8
0
  6
Continuous
370
     9
100
AcDbLine
 10
8651.295843912361
 20
7056.809548495507
 30
0.0
 11
8651.295843912361
 21
7001.809548495497
 31
0.0
  0
LINE
  5
117FB
330
1F
100
AcDbEntity
  8
0
  6
Continuous
370
     9
100
AcDbLine
 10
8651.295843912361
 20
7001.809548495497
 30
0.0
 11
9011.295843912362
 21
7001.809548495497
 31
0.0
  0
LINE
  5
117FC
330
1F
100
AcDbEntity
  8
0
  6
Continuous
370
     9
100
AcDbLine
 10
9011.295843912362
 20
7001.809548495497
 30
0.0
 11
9011.295843912362
 21
6211.809548495498
 31
0.0
  0
LINE
  5
117FD
330
1F
100
AcDbEntity
  8
0
  6
Continuous
370
     9
100
AcDbLine
 10
9011.295843912362
 20
6211.809548495498
 30
0.0
 11
8651.295843912361
 21
6211.809548495498
 31
0.0
  0
LINE
  5
117FE
330
1F
100
AcDbEntity
  8
0
  6
Continuous
370
     9
100
AcDbLine
 10
8651.295843912361
 20
6211.809548495498
 30
0.0
 11
8651.295843912361
 21
6156.809548495506
 31
0.0
  0
LINE
  5
117FF
330
1F
100
AcDbEntity
  8
0
  6
Continuous
370
     9
100
AcDbLine
 10
8651.295843912361
 20
6156.809548495506
 30
0.0
 11
7751.295843912361
 21
6156.809548495506
 31
0.0
  0
LINE
  5
11800
330
1F
100
AcDbEntity
  8
0
  6
Continuous
370
     9
100
AcDbLine
 10
8227.295843912362
 20
7056.809548495507
 30
0.0
 11
8227.295843912362
 21
7286.809548495506
 31
0.0
  0
LINE
  5
11801
330
1F
100
AcDbEntity
  8
0
  6
Continuous
370
     9
100
AcDbLine
 10
8227.295843912362
 20
7286.809548495506
 30
0.0
 11
7442.004620194514
 21
7286.809548495506
 31
0.0
  0
LINE
  5
11802
330
1F
100
AcDbEntity
  8
0
  6
Continuous
370
     9
100
AcDbLine
 10
7442.004620194514
 20
7286.809548495506
 30
0.0
 11
7442.004620194514
 21
6400.809548495501
 31
0.0
  0
LINE
  5
11803
330
1F
100
AcDbEntity
  8
0
  6
Continuous
370
     9
100
AcDbLine
 10
7442.004620194514
 20
6400.809548495501
 30
0.0
 11
7744.295843912363
 21
6400.809548495499
 31
0.0
  0
LINE
  5
11804
330
1F
100
AcDbEntity
  8
0
  6
Continuous
370
     9
100
AcDbLine
 10
8257.295843912361
 20
7056.809548495507
 30
0.0
 11
8257.295843912361
 21
7316.809548495506
 31
0.0
  0
LINE
  5
11805
330
1F
100
AcDbEntity
  8
0
  6
Continuous
370
     9
100
AcDbLine
 10
8257.295843912361
 20
7316.809548495506
 30
0.0
 11
7412.004620194513
 21
7316.809548495506
 31
0.0
  0
LINE
  5
11806
330
1F
100
AcDbEntity
  8
0
  6
Continuous
370
     9
100
AcDbLine
 10
7412.004620194513
 20
7316.809548495506
 30
0.0
 11
7412.004620194513
 21
6370.8095484955
 31
0.0
  0
LINE
  5
11807
330
1F
100
AcDbEntity
  8
0
  6
Continuous
370
     9
100
AcDbLine
 10
7412.004620194513
 20
6370.8095484955
 30
0.0
 11
7744.295843912361
 21
6370.8095484955
 31
0.0
  0
LINE
  5
11808
330
1F
100
AcDbEntity
  8
0
  6
Continuous
370
     9
100
AcDbLine
 10
8197.295843912362
 20
7056.809548495507
 30
0.0
 11
8197.295843912362
 21
7256.809548495507
 31
0.0
  0
LINE
  5
11809
330
1F
100
AcDbEntity
  8
0
  6
Continuous
370
     9
100
AcDbLine
 10
8197.295843912362
 20
7256.809548495507
 30
0.0
 11
7472.004620194514
 21
7256.809548495507
 31
0.0
  0
LINE
  5
1180A
330
1F
100
AcDbEntity
  8
0
  6
Continuous
370
     9
100
AcDbLine
 10
7472.004620194514
 20
7256.809548495507
 30
0.0
 11
7472.004620194514
 21
6430.809548495502
 31
0.0
  0
LINE
  5
1180B
330
1F
100
AcDbEntity
  8
0
  6
Continuous
370
     9
100
AcDbLine
 10
7472.004620194514
 20
6430.809548495502
 30
0.0
 11
7751.295843912361
 21
6430.809548495499
 31
0.0
  0
LINE
  5
1180C
330
1F
100
AcDbEntity
  8
0
  6
Continuous
370
     9
100
AcDbLine
 10
7811.295843912361
 20
6216.809548495507
 30
0.0
 11
7811.295843912361
 21
6520.809548495501
 31
0.0
  0
LINE
  5
1180D
330
1F
100
AcDbEntity
  8
0
  6
Continuous
370
     9
100
AcDbLine
 10
7811.295843912361
 20
6520.809548495501
 30
0.0
 11
7701.295843912361
 21
6520.809548495501
 31
0.0
  0
LINE
  5
1180E
330
1F
100
AcDbEntity
  8
0
  6
Continuous
370
     9
100
AcDbLine
 10
7701.295843912361
 20
6520.809548495501
 30
0.0
 11
7701.295843912361
 21
6778.809548495501
 31
0.0
  0
LINE
  5
1180F
330
1F
100
AcDbEntity
  8
0
  6
Continuous
370
     9
100
AcDbLine
 10
7701.295843912361
 20
6778.809548495501
 30
0.0
 11
7811.29584391236
 21
6778.809548495501
 31
0.0
  0
LINE
  5
11810
330
1F
100
AcDbEntity
  8
0
  6
Continuous
370
     9
100
AcDbLine
 10
7811.29584391236
 20
6778.809548495501
 30
0.0
 11
7811.295843912361
 21
6996.809548495507
 31
0.0
  0
LINE
  5
11811
330
1F
100
AcDbEntity
  8
0
  6
Continuous
370
     9
100
AcDbLine
 10
7811.295843912361
 20
6996.809548495507
 30
0.0
 11
8591.295843912361
 21
6996.809548495507
 31
0.0
  0
LINE
  5
11812
330
1F
100
AcDbEntity
  8
0
  6
Continuous
370
     9
100
AcDbLine
 10
8591.295843912361
 20
6996.809548495507
 30
0.0
 11
8591.295843912361
 21
6941.809548495498
 31
0.0
  0
LINE
  5
11813
330
1F
100
AcDbEntity
  8
0
  6
Continuous
370
     9
100
AcDbLine
 10
8591.295843912361
 20
6941.809548495498
 30
0.0
 11
8951.29584391236
 21
6941.809548495498
 31
0.0
  0
LINE
  5
11814
330
1F
100
AcDbEntity
  8
0
  6
Continuous
370
     9
100
AcDbLine
 10
8951.29584391236
 20
6941.809548495498
 30
0.0
 11
8951.29584391236
 21
6271.809548495498
 31
0.0
  0
LINE
  5
11815
330
1F
100
AcDbEntity
  8
0
  6
Continuous
370
     9
100
AcDbLine
 10
8951.29584391236
 20
6271.809548495498
 30
0.0
 11
8591.295843912361
 21
6271.809548495498
 31
0.0
  0
LINE
  5
11816
330
1F
100
AcDbEntity
  8
0
  6
Continuous
370
     9
100
AcDbLine
 10
8591.295843912361
 20
6271.809548495498
 30
0.0
 11
8591.295843912361
 21
6216.809548495504
 31
0.0
  0
LINE
  5
11817
330
1F
100
AcDbEntity
  8
0
  6
Continuous
370
     9
100
AcDbLine
 10
8591.295843912361
 20
6216.809548495504
 30
0.0
 11
7811.295843912361
 21
6216.809548495507
 31
0.0
  0
HATCH
  5
118FC
330
1F
100
AcDbEntity
  8
0
  6
Continuous
370
     9
100
AcDbHatch
 10
0.0
 20
0.0
 30
0.0
210
0.0
220
0.0
230
1.0
  2
SOLID
 70
     1
 71
     0
 91
        1
 92
        7
 72
     0
 73
     1
 93
       24
 10
8651.295843912361
 20
7056.809548495507
 10
7751.295843912361
 20
7056.809548495507
 10
7751.295843912359
 20
6838.809548495501
 10
7641.295843912361
 20
6838.809548495501
 10
7641.295843912361
 20
6460.809548495499
 10
7751.295843912361
 20
6460.809548495501
 10
7751.295843912361
 20
6156.809548495506
 10
8151.295843912375
 20
6156.809548495506
 10
8151.295843912375
 20
6216.809548495507
 10
7811.295843912361
 20
6216.809548495507
 10
7811.295843912361
 20
6520.809548495501
 10
7701.295843912361
 20
6520.809548495501
 10
7701.295843912361
 20
6778.809548495501
 10
7811.29584391236
 20
6778.809548495501
 10
7811.29584391236
 20
6996.809548495507
 10
8591.295843912361
 20
6996.809548495507
 10
8591.295843912361
 20
6941.809548495498
 10
8951.29584391236
 20
6941.809548495498
 10
8951.29584391236
 20
6271.809548495498
 10
8930.475851602308
 20
6271.809548495498
 10
8930.475851602308
 20
6211.809548495498
 10
9011.295843912362
 20
6211.809548495499
 10
9011.295843912362
 20
7001.809548495497
 10
8651.295843912361
 20
7001.809548495497
 97
        0
 75
     0
 76
     1
 47
2.466190134206583
 98
        1
 10
7887.158955397521
 20
7033.313268754328
1001
ACAD
1010
0.0
1020
0.0
1030
0.0
  0
HATCH
  5
119BA
330
1F
100
AcDbEntity
  8
0
  6
Continuous
370
     9
100
AcDbHatch
 10
0.0
 20
0.0
 30
0.0
210
0.0
220
0.0
230
1.0
  2
SOLID
 70
     1
 71
     0
 91
        1
 92
        7
 72
     0
 73
     1
 93
        8
 10
8651.295843912361
 20
6211.809548495498
 10
8690.475851602306
 20
6211.809548495498
 10
8690.475851602306
 20
6271.809548495498
 10
8591.295843912361
 20
6271.809548495499
 10
8591.295843912361
 20
6216.809548495507
 10
8251.295843912361
 20
6216.809548495504
 10
8251.295843912361
 20
6156.809548495506
 10
8651.295843912361
 20
6156.809548495506
 97
        0
 75
     0
 76
     1
 47
2.466190134206581
 98
        1
 10
8533.311194021939
 20
6198.793428737912
1001
ACAD
1010
0.0
1020
0.0
1030
0.0
  0
DIMENSION
  5
119BC
330
1F
100
AcDbEntity
  8
WYMIARY
100
AcDbDimension
  2
*D7
 10
9408.02012609722
 20
7001.809548495497
 30
0.0
 11
9328.02012609722
 21
7029.309548495503
 31
0.0
 70
    33
 71
     5
 42
55.00000000000909
  3
500
100
AcDbAlignedDimension
 13
8532.760995744203
 23
7056.809548495507
 33
0.0
 14
8532.760995744203
 24
7001.809548495497
 34
0.0
  0
DIMENSION
  5
119DD
330
1F
100
AcDbEntity
  8
0Wymiary-PL
100
AcDbDimension
  2
*D8
 10
9408.02012609722
 20
6211.809548495498
 30
0.0
 11
9328.02012609722
 21
6606.809548495498
 31
0.0
 70
    32
 71
     5
 42
790.0
  3
500
100
AcDbAlignedDimension
 13
8532.760995744203
 23
7001.809548495497
 33
0.0
 14
8892.760995744204
 24
6211.809548495498
 34
0.0
 50
90.0
100
AcDbRotatedDimension
  0
DIMENSION
  5
119F1
330
1F
100
AcDbEntity
  8
0Wymiary-PL
100
AcDbDimension
  2
*D9
 10
9408.02012609722
 20
6156.809548495506
 30
0.0
 11
9328.02012609722
 21
6184.309548495503
 31
0.0
 70
    32
 71
     5
 42
54.9999999999909
  3
500
100
AcDbAlignedDimension
 13
8892.760995744204
 23
6211.809548495498
 33
0.0
 14
8532.760995744203
 24
6156.809548495506
 34
0.0
 50
90.0
100
AcDbRotatedDimension
  0
DIMENSION
  5
11A09
330
1F
100
AcDbEntity
  8
0Wymiary-PL
100
AcDbDimension
  2
*D10
 10
7751.295843912359
 20
7487.358390465132
 30
0.0
 11
7696.295843912361
 21
7567.358390465132
 31
0.0
 70
    33
 71
     5
 42
109.9999999999982
  3
500
100
AcDbAlignedDimension
 13
7641.295843912361
 23
6911.700683318191
 33
0.0
 14
7751.295843912359
 24
6911.700683318189
 34
0.0
  0
DIMENSION
  5
11A21
330
1F
100
AcDbEntity
  8
0Wymiary-PL
100
AcDbDimension
  2
*D11
 10
8651.295843912365
 20
7487.358390465118
 30
0.0
 11
8201.295843912367
 21
7567.358390465123
 31
0.0
 70
    32
 71
     5
 42
899.9999999999982
  3
500
100
AcDbAlignedDimension
 13
7751.295843912359
 23
6911.700683318189
 33
0.0
 14
8651.295843912361
 24
7129.700683318197
 34
0.0
 50
179.9999999999992
100
AcDbRotatedDimension
  0
DIMENSION
  5
11A35
330
1F
100
AcDbEntity
  8
0Wymiary-PL
100
AcDbDimension
  2
*D12
 10
9011.295843912368
 20
7487.358390465113
 30
0.0
 11
8831.295843912368
 21
7567.358390465115
 31
0.0
 70
    32
 71
     5
 42
360.0000000000018
  3
500
100
AcDbAlignedDimension
 13
8651.295843912361
 23
7129.700683318197
 33
0.0
 14
9011.295843912362
 24
7074.700683318188
 34
0.0
 50
179.9999999999992
100
AcDbRotatedDimension
  0
DIMENSION
  5
11A49
330
1F
100
AcDbEntity
  8
0Wymiary-PL
100
AcDbDimension
  2
*D13
 10
9621.99068552788
 20
7056.809548495507
 30
0.0
 11
9541.990685527876
 21
6606.809548495508
 31
0.0
 70
    33
 71
     5
 42
900.0
  3
500
100
AcDbAlignedDimension
 13
7632.760995744203
 23
6156.809548495506
 33
0.0
 14
7632.760995744203
 24
7056.809548495507
 34
0.0
  0
DIMENSION
  5
11A5D
330
1F
100
AcDbEntity
  8
0Wymiary-PL
100
AcDbDimension
  2
*D14
 10
9011.295843912362
 20
7712.745748817929
 30
0.0
 11
8326.29584391236
 21
7792.745748817928
 31
0.0
 70
    33
 71
     5
 42
1370.0
  3
500
100
AcDbAlignedDimension
 13
7641.295843912361
 23
6911.700683318191
 33
0.0
 14
9011.295843912362
 24
6911.700683318191
 34
0.0
  0
LINE
  5
11AED
330
1F
100
AcDbEntity
  8
0
  6
Continuous
370
     9
100
AcDbLine
 10
12673.06662671461
 20
6007.271498073298
 30
0.0
 11
12313.10250306715
 21
6007.271498073298
 31
0.0
  0
LINE
  5
11AEE
330
1F
100
AcDbEntity
  8
0
  6
Continuous
370
     9
100
AcDbLine
 10
12673.06662671461
 20
6156.809548495506
 30
0.0
 11
12673.06662671461
 21
6007.271498073298
 31
0.0
  0
LINE
  5
11AEF
330
1F
100
AcDbEntity
  8
0
  6
Continuous
370
     9
100
AcDbLine
 10
12313.10250306715
 20
6007.271498073298
 30
0.0
 11
12313.10250306715
 21
6156.809548495506
 31
0.0
  0
LINE
  5
11AF0
330
1F
100
AcDbEntity
  8
0
  6
Continuous
370
     9
100
AcDbLine
 10
12613.83147096856
 20
6066.809548495506
 30
0.0
 11
12373.83147096856
 21
6066.809548495506
 31
0.0
  0
LINE
  5
11AF1
330
1F
100
AcDbEntity
  8
0
  6
Continuous
370
     9
100
AcDbLine
 10
12613.83147096856
 20
6156.809548495506
 30
0.0
 11
12613.83147096856
 21
6066.809548495506
 31
0.0
  0
LINE
  5
11AF2
330
1F
100
AcDbEntity
  8
0
  6
Continuous
370
     9
100
AcDbLine
 10
12373.83147096856
 20
6066.809548495506
 30
0.0
 11
12373.83147096856
 21
6156.809548495506
 31
0.0
  0
LINE
  5
11AF3
330
1F
100
AcDbEntity
  8
0
  6
Continuous
370
     9
100
AcDbLine
 10
12643.83147096856
 20
6036.809548495506
 30
0.0
 11
12343.83147096856
 21
6036.809548495506
 31
0.0
  0
LINE
  5
11AF4
330
1F
100
AcDbEntity
  8
0
  6
Continuous
370
     9
100
AcDbLine
 10
12643.83147096856
 20
6156.809548495506
 30
0.0
 11
12643.83147096856
 21
6036.809548495506
 31
0.0
  0
LINE
  5
11AF5
330
1F
100
AcDbEntity
  8
0
  6
Continuous
370
     9
100
AcDbLine
 10
12343.83147096856
 20
6036.809548495506
 30
0.0
 11
12343.83147096856
 21
6156.809548495506
 31
0.0
  0
LINE
  5
11AF6
330
1F
100
AcDbEntity
  8
0
  6
Continuous
370
     9
100
AcDbLine
 10
11979.3553907945
 20
6211.809548495498
 30
0.0
 11
11746.81373898725
 21
6211.809548495498
 31
0.0
  0
LINE
  5
11AF7
330
1F
100
AcDbEntity
  8
0
  6
Continuous
370
     9
100
AcDbLine
 10
11683.08456489088
 20
6156.809548495506
 30
0.0
 11
11683.08456489088
 21
6211.809548495498
 31
0.0
  0
LINE
  5
11AF8
330
1F
100
AcDbEntity
  8
0
  6
Continuous
370
     9
100
AcDbLine
 10
12043.08456489088
 20
6156.809548495506
 30
0.0
 11
11683.08456489088
 21
6156.809548495506
 31
0.0
  0
LINE
  5
11AF9
330
1F
100
AcDbEntity
  8
0
  6
Continuous
370
     9
100
AcDbLine
 10
12437.08456489088
 20
7056.809548495507
 30
0.0
 11
12437.08456489088
 21
7316.809548495506
 31
0.0
  0
LINE
  5
11AFA
330
1F
100
AcDbEntity
  8
0
  6
Continuous
370
     9
100
AcDbLine
 10
12437.08456489088
 20
7316.809548495506
 30
0.0
 11
13282.37578860873
 21
7316.809548495506
 31
0.0
  0
LINE
  5
11AFB
330
1F
100
AcDbEntity
  8
0
  6
Continuous
370
     9
100
AcDbLine
 10
13282.37578860873
 20
7316.809548495506
 30
0.0
 11
13282.37578860873
 21
6370.8095484955
 31
0.0
  0
LINE
  5
11AFC
330
1F
100
AcDbEntity
  8
0
  6
Continuous
370
     9
100
AcDbLine
 10
13282.37578860873
 20
6370.8095484955
 30
0.0
 11
12950.08456489088
 21
6370.8095484955
 31
0.0
  0
LINE
  5
11AFD
330
1F
100
AcDbEntity
  8
0
  6
Continuous
370
     9
100
AcDbLine
 10
12467.08456489088
 20
7056.809548495507
 30
0.0
 11
12467.08456489088
 21
7286.809548495506
 31
0.0
  0
LINE
  5
11AFE
330
1F
100
AcDbEntity
  8
0
  6
Continuous
370
     9
100
AcDbLine
 10
12467.08456489088
 20
7286.809548495506
 30
0.0
 11
13252.37578860873
 21
7286.809548495506
 31
0.0
  0
LINE
  5
11AFF
330
1F
100
AcDbEntity
  8
0
  6
Continuous
370
     9
100
AcDbLine
 10
13252.37578860873
 20
7286.809548495506
 30
0.0
 11
13252.37578860873
 21
6400.809548495501
 31
0.0
  0
LINE
  5
11B00
330
1F
100
AcDbEntity
  8
0
  6
Continuous
370
     9
100
AcDbLine
 10
13252.37578860873
 20
6400.809548495501
 30
0.0
 11
12950.08456489088
 21
6400.809548495499
 31
0.0
  0
LINE
  5
11B01
330
1F
100
AcDbEntity
  8
0
  6
Continuous
370
     9
100
AcDbLine
 10
12497.08456489088
 20
7056.809548495507
 30
0.0
 11
12497.08456489088
 21
7256.809548495507
 31
0.0
  0
LINE
  5
11B02
330
1F
100
AcDbEntity
  8
0
  6
Continuous
370
     9
100
AcDbLine
 10
12497.08456489088
 20
7256.809548495507
 30
0.0
 11
13222.37578860873
 21
7256.809548495507
 31
0.0
  0
LINE
  5
11B03
330
1F
100
AcDbEntity
  8
0
  6
Continuous
370
     9
100
AcDbLine
 10
13222.37578860873
 20
7256.809548495507
 30
0.0
 11
13222.37578860873
 21
6430.809548495502
 31
0.0
  0
LINE
  5
11B04
330
1F
100
AcDbEntity
  8
0
  6
Continuous
370
     9
100
AcDbLine
 10
13222.37578860873
 20
6430.809548495502
 30
0.0
 11
12943.08456489088
 21
6430.809548495499
 31
0.0
  0
HATCH
  5
11B05
330
1F
100
AcDbEntity
  8
0
  6
Continuous
370
     9
100
AcDbHatch
 10
0.0
 20
0.0
 30
0.0
210
0.0
220
0.0
230
1.0
  2
SOLID
 70
     1
 71
     0
 91
        1
 92
        7
 72
     0
 73
     1
 93
       24
 10
12043.08456489088
 20
7056.809548495507
 10
12943.08456489088
 20
7056.809548495507
 10
12943.08456489088
 20
6838.809548495501
 10
13053.08456489088
 20
6838.809548495501
 10
13053.08456489088
 20
6460.809548495499
 10
12943.08456489088
 20
6460.809548495501
 10
12943.08456489088
 20
6156.809548495506
 10
12543.08456489086
 20
6156.809548495506
 10
12543.08456489086
 20
6216.809548495507
 10
12883.08456489088
 20
6216.809548495507
 10
12883.08456489088
 20
6520.809548495501
 10
12993.08456489088
 20
6520.809548495501
 10
12993.08456489088
 20
6778.809548495501
 10
12883.08456489088
 20
6778.809548495501
 10
12883.08456489088
 20
6996.809548495507
 10
12103.08456489088
 20
6996.809548495507
 10
12103.08456489088
 20
6941.809548495498
 10
11743.08456489088
 20
6941.809548495498
 10
11743.08456489088
 20
6271.809548495498
 10
11763.90455720093
 20
6271.809548495498
 10
11763.90455720093
 20
6211.809548495498
 10
11683.08456489088
 20
6211.809548495499
 10
11683.08456489088
 20
7001.809548495497
 10
12043.08456489088
 20
7001.809548495497
 97
        0
 75
     0
 76
     1
 47
2.466190134206583
 98
        1
 10
12807.22145340572
 20
7033.313268754328
1001
ACAD
1010
0.0
1020
0.0
1030
0.0
  0
LINE
  5
11B06
330
1F
100
AcDbEntity
  8
0
  6
Continuous
370
     9
100
AcDbLine
 10
12943.08456489088
 20
6156.809548495506
 30
0.0
 11
12943.08456489088
 21
6460.809548495501
 31
0.0
  0
LINE
  5
11B07
330
1F
100
AcDbEntity
  8
0
  6
Continuous
370
     9
100
AcDbLine
 10
12943.08456489088
 20
6460.809548495501
 30
0.0
 11
13053.08456489088
 21
6460.809548495501
 31
0.0
  0
LINE
  5
11B08
330
1F
100
AcDbEntity
  8
0
  6
Continuous
370
     9
100
AcDbLine
 10
13053.08456489088
 20
6460.809548495501
 30
0.0
 11
13053.08456489088
 21
6838.809548495501
 31
0.0
  0
LINE
  5
11B09
330
1F
100
AcDbEntity
  8
0
  6
Continuous
370
     9
100
AcDbLine
 10
13053.08456489088
 20
6838.809548495501
 30
0.0
 11
12943.08456489088
 21
6838.809548495501
 31
0.0
  0
LINE
  5
11B0A
330
1F
100
AcDbEntity
  8
0
  6
Continuous
370
     9
100
AcDbLine
 10
12943.08456489088
 20
6838.809548495501
 30
0.0
 11
12943.08456489088
 21
7056.809548495507
 31
0.0
  0
LINE
  5
11B0B
330
1F
100
AcDbEntity
  8
0
  6
Continuous
370
     9
100
AcDbLine
 10
12943.08456489088
 20
7056.809548495507
 30
0.0
 11
12043.08456489088
 21
7056.809548495507
 31
0.0
  0
LINE
  5
11B0C
330
1F
100
AcDbEntity
  8
0
  6
Continuous
370
     9
100
AcDbLine
 10
12043.08456489088
 20
7056.809548495507
 30
0.0
 11
12043.08456489088
 21
7001.809548495497
 31
0.0
  0
LINE
  5
11B0D
330
1F
100
AcDbEntity
  8
0
  6
Continuous
370
     9
100
AcDbLine
 10
12043.08456489088
 20
7001.809548495497
 30
0.0
 11
11683.08456489088
 21
7001.809548495497
 31
0.0
  0
LINE
  5
11B0E
330
1F
100
AcDbEntity
  8
0
  6
Continuous
370
     9
100
AcDbLine
 10
11683.08456489088
 20
7001.809548495497
 30
0.0
 11
11683.08456489088
 21
6211.809548495498
 31
0.0
  0
HATCH
  5
11B0F
330
1F
100
AcDbEntity
  8
0
  6
Continuous
370
     9
100
AcDbHatch
 10
0.0
 20
0.0
 30
0.0
210
0.0
220
0.0
230
1.0
  2
SOLID
 70
     1
 71
     0
 91
        1
 92
        7
 72
     0
 73
     1
 93
        8
 10
12043.08456489088
 20
6211.809548495498
 10
12003.90455720093
 20
6211.809548495498
 10
12003.90455720093
 20
6271.809548495498
 10
12103.08456489088
 20
6271.809548495499
 10
12103.08456489088
 20
6216.809548495507
 10
12443.08456489088
 20
6216.809548495504
 10
12443.08456489088
 20
6156.809548495506
 10
12043.08456489088
 20
6156.809548495506
 97
        0
 75
     0
 76
     1
 47
2.466190134206581
 98
        1
 10
12161.0692147813
 20
6198.793428737912
1001
ACAD
1010
0.0
1020
0.0
1030
0.0
  0
LINE
  5
11B10
330
1F
100
AcDbEntity
  8
0
  6
Continuous
370
     9
100
AcDbLine
 10
11683.08456489088
 20
6211.809548495498
 30
0.0
 11
12043.08456489088
 21
6211.809548495498
 31
0.0
  0
LINE
  5
11B11
330
1F
100
AcDbEntity
  8
0
  6
Continuous
370
     9
100
AcDbLine
 10
12043.08456489088
 20
6211.809548495498
 30
0.0
 11
12043.08456489088
 21
6156.809548495506
 31
0.0
  0
LINE
  5
11B12
330
1F
100
AcDbEntity
  8
0
  6
Continuous
370
     9
100
AcDbLine
 10
12043.08456489088
 20
6156.809548495506
 30
0.0
 11
12943.08456489088
 21
6156.809548495506
 31
0.0
  0
LINE
  5
11B13
330
1F
100
AcDbEntity
  8
0
  6
Continuous
370
     9
100
AcDbLine
 10
12883.08456489088
 20
6216.809548495507
 30
0.0
 11
12883.08456489088
 21
6520.809548495501
 31
0.0
  0
LINE
  5
11B14
330
1F
100
AcDbEntity
  8
0
  6
Continuous
370
     9
100
AcDbLine
 10
12883.08456489088
 20
6520.809548495501
 30
0.0
 11
12993.08456489088
 21
6520.809548495501
 31
0.0
  0
LINE
  5
11B15
330
1F
100
AcDbEntity
  8
0
  6
Continuous
370
     9
100
AcDbLine
 10
12993.08456489088
 20
6520.809548495501
 30
0.0
 11
12993.08456489088
 21
6778.809548495501
 31
0.0
  0
LINE
  5
11B16
330
1F
100
AcDbEntity
  8
0
  6
Continuous
370
     9
100
AcDbLine
 10
12993.08456489088
 20
6778.809548495501
 30
0.0
 11
12883.08456489088
 21
6778.809548495501
 31
0.0
  0
LINE
  5
11B17
330
1F
100
AcDbEntity
  8
0
  6
Continuous
370
     9
100
AcDbLine
 10
12883.08456489088
 20
6778.809548495501
 30
0.0
 11
12883.08456489088
 21
6996.809548495507
 31
0.0
  0
LINE
  5
11B18
330
1F
100
AcDbEntity
  8
0
  6
Continuous
370
     9
100
AcDbLine
 10
12883.08456489088
 20
6996.809548495507
 30
0.0
 11
12103.08456489088
 21
6996.809548495507
 31
0.0
  0
LINE
  5
11B19
330
1F
100
AcDbEntity
  8
0
  6
Continuous
370
     9
100
AcDbLine
 10
12103.08456489088
 20
6996.809548495507
 30
0.0
 11
12103.08456489088
 21
6941.809548495498
 31
0.0
  0
LINE
  5
11B1A
330
1F
100
AcDbEntity
  8
0
  6
Continuous
370
     9
100
AcDbLine
 10
12103.08456489088
 20
6941.809548495498
 30
0.0
 11
11743.08456489088
 21
6941.809548495498
 31
0.0
  0
LINE
  5
11B1B
330
1F
100
AcDbEntity
  8
0
  6
Continuous
370
     9
100
AcDbLine
 10
11743.08456489088
 20
6941.809548495498
 30
0.0
 11
11743.08456489088
 21
6271.809548495498
 31
0.0
  0
LINE
  5
11B1C
330
1F
100
AcDbEntity
  8
0
  6
Continuous
370
     9
100
AcDbLine
 10
11743.08456489088
 20
6271.809548495498
 30
0.0
 11
12103.08456489088
 21
6271.809548495498
 31
0.0
  0
LINE
  5
11B1D
330
1F
100
AcDbEntity
  8
0
  6
Continuous
370
     9
100
AcDbLine
 10
12103.08456489088
 20
6271.809548495498
 30
0.0
 11
12103.08456489088
 21
6216.809548495504
 31
0.0
  0
LINE
  5
11B1E
330
1F
100
AcDbEntity
  8
0
  6
Continuous
370
     9
100
AcDbLine
 10
12103.08456489088
 20
6216.809548495504
 30
0.0
 11
12883.08456489088
 21
6216.809548495507
 31
0.0
  0
LINE
  5
11B1F
330
1F
100
AcDbEntity
  8
0
  6
Continuous
370
     9
100
AcDbLine
 10
12443.08456489088
 20
6216.809548495504
 30
0.0
 11
12443.08456489088
 21
6156.809548495506
 31
0.0
  0
LINE
  5
11B20
330
1F
100
AcDbEntity
  8
0
  6
Continuous
370
     9
100
AcDbLine
 10
12543.08456489086
 20
6216.809548495507
 30
0.0
 11
12543.08456489086
 21
6156.809548495506
 31
0.0
  0
LINE
  5
11B21
330
1F
100
AcDbEntity
  8
0
  6
Continuous
370
     9
100
AcDbLine
 10
12003.90455720093
 20
6271.809548495498
 30
0.0
 11
12003.90455720093
 21
6211.809548495498
 31
0.0
  0
LINE
  5
11B22
330
1F
100
AcDbEntity
  8
0
  6
Continuous
370
     9
100
AcDbLine
 10
11763.90455720093
 20
6271.809548495498
 30
0.0
 11
11763.90455720093
 21
6211.809548495498
 31
0.0
  0
DIMENSION
  5
11B23
330
1F
100
AcDbEntity
  8
WYMIARY
100
AcDbDimension
  2
*D15
 10
11407.1617073439
 20
7001.809548495497
 30
0.0
 11
11327.1617073439
 21
7029.309548495504
 31
0.0
 70
    33
 71
     5
 42
55.00000000000909
  3
500
100
AcDbAlignedDimension
 13
12282.42083769692
 23
7056.809548495507
 33
0.0
 14
12282.42083769692
 24
7001.809548495497
 34
0.0
  0
DIMENSION
  5
11B24
330
1F
100
AcDbEntity
  8
0Wymiary-PL
100
AcDbDimension
  2
*D16
 10
11407.1617073439
 20
6211.809548495498
 30
0.0
 11
11327.1617073439
 21
6606.809548495499
 31
0.0
 70
    32
 71
     5
 42
790.0
  3
500
100
AcDbAlignedDimension
 13
12282.42083769692
 23
7001.809548495497
 33
0.0
 14
11922.42083769692
 24
6211.809548495498
 34
0.0
 50
90.0
100
AcDbRotatedDimension
  0
DIMENSION
  5
11B25
330
1F
100
AcDbEntity
  8
0Wymiary-PL
100
AcDbDimension
  2
*D17
 10
11407.1617073439
 20
6156.809548495506
 30
0.0
 11
11327.1617073439
 21
6184.309548495503
 31
0.0
 70
    32
 71
     5
 42
54.9999999999909
  3
500
100
AcDbAlignedDimension
 13
11922.42083769692
 23
6211.809548495498
 33
0.0
 14
12282.42083769692
 24
6156.809548495506
 34
0.0
 50
90.0
100
AcDbRotatedDimension
  0
DIMENSION
  5
11B26
330
1F
100
AcDbEntity
  8
0Wymiary-PL
100
AcDbDimension
  2
*D18
 10
12943.08456489087
 20
7487.358390465132
 30
0.0
 11
12998.08456489087
 21
7567.358390465132
 31
0.0
 70
    33
 71
     5
 42
109.9999999999982
  3
500
100
AcDbAlignedDimension
 13
13053.08456489088
 23
6911.700683318191
 33
0.0
 14
12943.08456489088
 24
6911.700683318189
 34
0.0
  0
DIMENSION
  5
11B27
330
1F
100
AcDbEntity
  8
0Wymiary-PL
100
AcDbDimension
  2
*D19
 10
12043.08456489088
 20
7487.358390465118
 30
0.0
 11
12493.08456489088
 21
7567.358390465118
 31
0.0
 70
    32
 71
     5
 42
900.0000000000017
  3
500
100
AcDbAlignedDimension
 13
12943.08456489088
 23
6911.700683318189
 33
0.0
 14
12043.08456489088
 24
7129.700683318197
 34
0.0
 50
0.0000000000008212
100
AcDbRotatedDimension
  0
DIMENSION
  5
11B28
330
1F
100
AcDbEntity
  8
0Wymiary-PL
100
AcDbDimension
  2
*D20
 10
11683.08456489088
 20
7487.358390465113
 30
0.0
 11
11863.08456489088
 21
7567.358390465113
 31
0.0
 70
    32
 71
     5
 42
360.0
  3
500
100
AcDbAlignedDimension
 13
12043.08456489088
 23
7129.700683318197
 33
0.0
 14
11683.08456489088
 24
7074.700683318188
 34
0.0
 50
0.0000000000008212
100
AcDbRotatedDimension
  0
DIMENSION
  5
11B29
330
1F
100
AcDbEntity
  8
0Wymiary-PL
100
AcDbDimension
  2
*D21
 10
11193.19114791324
 20
7056.809548495507
 30
0.0
 11
11113.19114791324
 21
6606.809548495508
 31
0.0
 70
    33
 71
     5
 42
900.0
  3
500
100
AcDbAlignedDimension
 13
13182.42083769692
 23
6156.809548495506
 33
0.0
 14
13182.42083769692
 24
7056.809548495507
 34
0.0
  0
DIMENSION
  5
11B2A
330
1F
100
AcDbEntity
  8
0Wymiary-PL
100
AcDbDimension
  2
*D22
 10
11683.08456489088
 20
7712.745748817929
 30
0.0
 11
12368.08456489088
 21
7792.745748817928
 31
0.0
 70
    33
 71
     5
 42
1370.0
  3
500
100
AcDbAlignedDimension
 13
13053.08456489088
 23
6911.700683318191
 33
0.0
 14
11683.08456489088
 24
6911.700683318191
 34
0.0
  0
VIEWPORT
  5
1FB
102
{ACAD_XDICTIONARY
360
11E4B
102
}
330
1F9
100
AcDbEntity
 67
     1
  8
0
100
AcDbViewport
 10
632.4799198919816
 20
305.0547879264009
 30
0.0
 40
1446.630903397676
 41
649.4725011074941
 68
     2
 69
     1
 12
632.4799198919816
 22
305.0547879264009
 13
0.0
 23
0.0
 14
12.0
 24
12.0
 15
120.0
 25
120.0
 16
0.0
 26
0.0
 36
1.0
 17
0.0
 27
0.0
 37
0.0
 42
50.0
 43
0.0
 44
0.0
 45
649.4725011074941
 50
0.0
 51
0.0
 72
 10000
 90
    32800
  1

281
     0
 71
     1
 74
     0
110
0.0
120
0.0
130
0.0
111
1.0
121
0.0
131
0.0
112
0.0
122
1.0
132
0.0
 79
     0
146
0.0
  0
VIEWPORT
  5
BCE
102
{ACAD_XDICTIONARY
360
11E4E
102
}
330
1F9
100
AcDbEntity
 67
     1
  8
G-Anno-View
100
AcDbViewport
 10
206.5
 20
277.0
 30
0.0
 40
413.0
 41
554.0
 68
     3
 69
     2
 12
4313.351365237941
 22
19391.7937970335
 13
0.0
 23
0.0
 14
1.0
 24
1.0
 15
3000.0
 25
3000.0
 16
-1.0
 26
-1.0
 36
1.0
 17
0.0
 27
0.0
 37
0.0
 42
50.0
 43
0.0
 44
0.0
 45
90862.03148086205
 50
0.0
 51
0.0
 72
 10000
 90
    33568
  1

281
     0
 71
     1
 74
     0
110
0.0
120
0.0
130
0.0
111
1.0
121
0.0
131
0.0
112
0.0
122
1.0
132
0.0
 79
     0
146
0.0
  0
VIEWPORT
  5
1040
102
{ACAD_XDICTIONARY
360
11E50
102
}
330
1F9
100
AcDbEntity
 67
     1
  8
G-Anno-View
100
AcDbViewport
 10
619.5
 20
277.0
 30
0.0
 40
413.0
 41
554.0
 68
     1
 69
     3
 12
26800.0
 22
20700.0
 13
0.0
 23
0.0
 14
1.0
 24
1.0
 15
3000.0
 25
3000.0
 16
0.0
 26
0.0
 36
1.0
 17
0.0
 27
0.0
 37
0.0
 42
50.0
 43
0.0
 44
0.0
 45
72500.94116931929
 50
0.0
 51
0.0
 72
 10000
 90
    33568
  1

281
     0
 71
     1
 74
     0
110
0.0
120
0.0
130
0.0
111
1.0
121
0.0
131
0.0
112
0.0
122
1.0
132
0.0
 79
     1
146
0.0
  0
ENDSEC
  0
SECTION
  2
OBJECTS
  0
DICTIONARY
  5
C
330
0
100
AcDbDictionary
281
     1
  3
ACAD_COLOR
350
DC2
  3
ACAD_GROUP
350
D
  3
ACAD_LAYOUT
350
1A
  3
ACAD_MATERIAL
350
DC1
  3
ACAD_MLEADERSTYLE
350
11E05
  3
ACAD_MLINESTYLE
350
17
  3
ACAD_PLOTSETTINGS
350
19
  3
ACAD_PLOTSTYLENAME
350
E
  3
ACAD_SCALELIST
350
11DEF
  3
ACAD_TABLESTYLE
350
6416
  3
ACAD_VISUALSTYLE
350
F774
  3
AcadDim
350
A4E
  3
AcAec
350
F1AA
  3
ACDB_RECOMPOSE_DATA
350
11E47
  3
AcDbVariableDictionary
350
2C
  3
AEC_2D_SECTION_STYLES
350
10959
  3
AEC_AREA_MODIFIERS
350
F6FE
  3
AEC_AREA_PROPOSALNAMES
350
F6FF
  3
AEC_AREA_STYLES
350
F6E8
  3
AEC_CLASSIFICATION_SYSTEM_DEFS
350
94AA
  3
AEC_CLEANUP_GROUP_DEFS
350
F7B1
  3
AEC_CURTAIN_WALL_LAYOUT_STYLES
350
10964
  3
AEC_CURTAIN_WALL_UNIT_STYLES
350
10965
  3
AEC_DIM_STYLES
350
10970
  3
AEC_DISP_REP_CONFIGURATIONS
350
F067
  3
AEC_DISP_REP_SETS
350
F069
  3
AEC_DISP_REPS
350
30
  3
AEC_DISPLAY_PROPS_DEFAULTS
350
32
  3
AEC_DISPLAYTHEME_STYLES
350
1096F
  3
AEC_DOOR_STYLES
350
1095F
  3
AEC_ENDCAP_STYLES
350
F7AD
  3
AEC_LAYERKEY_STYLES
350
F066
  3
AEC_LIST_DEFINITIONS
350
F7A3
  3
AEC_MASKBLOCK_DEFS
350
10956
  3
AEC_MASS_ELEM_STYLES
350
1095A
  3
AEC_MATERIAL_DEFS
350
F7A7
  3
AEC_MVBLOCK_DEFS
350
F1B5
  3
AEC_OPENING_ENDCAP_STYLES
350
F7AF
  3
AEC_POLYGON_STYLES
350
10958
  3
AEC_PROFILE_DEFS
350
10957
  3
AEC_PROPERTY_FORMAT_DEFS
350
1095B
  3
AEC_PROPERTY_SET_DEFS
350
94AB
  3
AEC_RAILING_STYLES
350
10967
  3
AEC_ROOFSLAB_STYLES
350
10968
  3
AEC_ROOFSLABEDGE_STYLES
350
10969
  3
AEC_SCHEDULE_TABLE_STYLES
350
1095C
  3
AEC_SLAB_STYLES
350
1096A
  3
AEC_SLABEDGE_STYLES
350
1096B
  3
AEC_SPACE_MODIFIERS
350
1096C
  3
AEC_SPACE_STYLES
350
F7A6
  3
AEC_STAIR_STYLES
350
10960
  3
AEC_STAIR_WINDER_STYLES
350
10961
  3
AEC_STRUCTURALMEMBER_STYLES
350
1095D
  3
AEC_VARS
350
F064
  3
AEC_WALL_STYLES
350
F7AC
  3
AEC_WALLMOD_STYLES
350
10962
  3
AEC_WINDOW_ASSEMBLY_STYLES
350
10966
  3
AEC_WINDOW_STYLES
350
10963
  3
AEC_ZONE_DEFS
350
1096E
  3
AEC_ZONE_STYLES
350
1096D
  3
AECS_MEMBER_NODE_SHAPE
350
1095E
  3
ASE_INDEX_DICTIONARY
350
11E2B
  3
BNS_VARIABLES
350
90C0
  3
CONLABELDictionary
350
8234
  3
CONLDEFDictionary
350
8231
  3
DWGPROPS
350
11E48
  0
DICTIONARY
  5
91F
330
2
100
AcDbDictionary
280
     1
281
     1
  3
ACAD_LAYERFILTERS
360
920
  3
ACAD_LAYERSTATES
360
923
  0
DICTIONARY
  5
11E14
330
10
100
AcDbDictionary
280
     1
281
     1
  3
ADSK_XREC_LAYER_RECONCILED
360
11E15
  0
DICTIONARY
  5
11E16
330
222
100
AcDbDictionary
280
     1
281
     1
  3
ADSK_XREC_LAYER_RECONCILED
360
11E17
  0
DICTIONARY
  5
11E18
330
2A2
100
AcDbDictionary
280
     1
281
     1
  3
ADSK_XREC_LAYER_RECONCILED
360
11E19
  0
DICTIONARY
  5
11E1A
330
433A
100
AcDbDictionary
280
     1
281
     1
  3
ADSK_XREC_LAYER_RECONCILED
360
11E1B
  0
DICTIONARY
  5
11E1C
330
4377
100
AcDbDictionary
280
     1
281
     1
  3
ADSK_XREC_LAYER_RECONCILED
360
11E1D
  0
DICTIONARY
  5
11E1E
330
B8C9
100
AcDbDictionary
280
     1
281
     1
  3
ADSK_XREC_LAYER_RECONCILED
360
11E1F
  0
DICTIONARY
  5
11E20
330
F86A
100
AcDbDictionary
280
     1
281
     1
  3
ADSK_XREC_LAYER_RECONCILED
360
11E21
  0
DICTIONARY
  5
11E22
330
FE57
100
AcDbDictionary
280
     1
281
     1
  3
ADSK_XREC_LAYER_RECONCILED
360
11E23
  0
DICTIONARY
  5
11E24
330
10FCC
100
AcDbDictionary
280
     1
281
     1
  3
ADSK_XREC_LAYER_RECONCILED
360
11E25
  0
DICTIONARY
  5
11E26
330
10FCD
100
AcDbDictionary
280
     1
281
     1
  3
ADSK_XREC_LAYER_RECONCILED
360
11E27
  0
DICTIONARY
  5
11E28
330
10FCE
100
AcDbDictionary
280
     1
281
     1
  3
ADSK_XREC_LAYER_RECONCILED
360
11E29
  0
DICTIONARY
  5
DE5
330
1F
100
AcDbDictionary
280
     1
281
     1
  3
ACAD_INDEX
360
11DD0
  3
ACAD_SORTENTS
360
F86C
  0
DICTIONARY
  5
F1AE
330
F1AD
100
AcDbDictionary
280
     1
281
     1
  3
ACAD_SORTENTS
360
F1AF
  0
DICTIONARY
  5
10EE6
330
10EE5
100
AcDbDictionary
280
     1
281
     1
  3
ACAD_SORTENTS
360
10EE7
  0
DICTIONARY
  5
11E4B
330
1FB
100
AcDbDictionary
280
     1
281
     1
  3
ACAD_XREC_ROUNDTRIP
360
11E4C
  0
DICTIONARY
  5
11E4E
330
BCE
100
AcDbDictionary
280
     1
281
     1
  3
ACAD_XREC_ROUNDTRIP
360
11E4F
  0
DICTIONARY
  5
11E50
330
1040
100
AcDbDictionary
280
     1
281
     1
  3
ACAD_XREC_ROUNDTRIP
360
11E51
  0
DICTIONARY
  5
DC2
102
{ACAD_REACTORS
330
C
102
}
330
C
100
AcDbDictionary
281
     1
  0
DICTIONARY
  5
D
102
{ACAD_REACTORS
330
C
102
}
330
C
100
AcDbDictionary
281
     1
  0
DICTIONARY
  5
1A
102
{ACAD_REACTORS
330
C
102
}
330
C
100
AcDbDictionary
281
     1
  3
Model
350
22
  3
Work
350
1FE
  0
DICTIONARY
  5
DC1
102
{ACAD_REACTORS
330
C
102
}
330
C
100
AcDbDictionary
281
     1
  3
ByBlock
350
F772
  3
ByLayer
350
F771
  3
Global
350
F773
  0
DICTIONARY
  5
11E05
102
{ACAD_REACTORS
330
C
102
}
330
C
100
AcDbDictionary
281
     1
  3
Standard
350
11E06
  0
DICTIONARY
  5
17
102
{ACAD_REACTORS
330
C
102
}
330
C
100
AcDbDictionary
281
     1
  3
Standard
350
18
  0
DICTIONARY
  5
19
102
{ACAD_REACTORS
330
C
102
}
330
C
100
AcDbDictionary
281
     1
  0
ACDBDICTIONARYWDFLT
  5
E
102
{ACAD_REACTORS
330
C
102
}
330
C
100
AcDbDictionary
281
     1
  3
Fine
350
1E1
  3
Normal
350
F
  3
Standard
350
1153
  3
Thin
350
1DF
  3
Thin Screened
350
FE58
100
AcDbDictionaryWithDefault
340
F
  0
DICTIONARY
  5
11DEF
102
{ACAD_REACTORS
330
C
102
}
330
C
100
AcDbDictionary
281
     1
  3
A0
350
11DF0
  3
A1
350
11DF1
  3
A2
350
11DF2
  3
A3
350
11DF3
  3
A4
350
11DF4
  3
A5
350
11DF5
  3
A6
350
11DF6
  3
A7
350
11DF7
  3
A8
350
11DF8
  3
A9
350
11DF9
  3
B0
350
11DFA
  3
B1
350
11DFB
  3
B2
350
11DFC
  3
B3
350
11DFD
  3
B4
350
11DFE
  3
B5
350
11DFF
  3
B6
350
11E00
  3
B7
350
11E01
  3
B8
350
11E02
  3
B9
350
11E03
  3
C0
350
11E04
  0
DICTIONARY
  5
6416
102
{ACAD_REACTORS
330
C
102
}
330
C
100
AcDbDictionary
281
     1
  3
Standard
350
6417
  0
DICTIONARY
  5
F774
102
{ACAD_REACTORS
330
C
102
}
330
C
100
AcDbDictionary
281
     1
  3
2dWireframe
350
F77A
  3
3D Hidden
350
11DED
  3
3dWireframe
350
F77B
  3
Basic
350
F779
  3
Brighten
350
F780
  3
ColorChange
350
F784
  3
Conceptual
350
11DEE
  3
Dim
350
F77F
  3
Facepattern
350
F783
  3
Flat
350
F775
  3
FlatWithEdges
350
F776
  3
Gouraud
350
F777
  3
GouraudWithEdges
350
F778
  3
Linepattern
350
F782
  3
Realistic
350
F77E
  3
Thicken
350
F781
  0
XRECORD
  5
A4E
102
{ACAD_REACTORS
330
C
102
}
330
C
100
AcDbXrecord
280
     1
 90
   990106
  3

 60
     0
 61
     0
 62
     1
 63
     3
 64
     0
 65
     0
 66
     0
 67
     3
 68
     1
 69
     0
 70
     0
 71
     0
 72
     0
 40
0.0
170
     0
  0
DICTIONARY
  5
F1AA
102
{ACAD_REACTORS
330
C
102
}
330
C
100
AcDbDictionary
281
     1
  3
AcAecLayerManager
350
F1AB
  0
XRECORD
  5
11E47
102
{ACAD_REACTORS
330
C
102
}
330
C
100
AcDbXrecord
280
     1
 90
        1
330
6417
  0
DICTIONARY
  5
2C
102
{ACAD_REACTORS
330
C
102
}
330
C
100
AcDbDictionary
281
     1
  3
CANNOSCALE
350
11E41
  3
CMLEADERSTYLE
350
11E40
  3
CTABLESTYLE
350
6460
  3
DIMASSOC
350
2E
  3
HIDETEXT
350
2D
  3
INDEXCTL
350
11E43
  3
OBSCOLOR
350
11E44
  3
SORTENTS
350
11E42
  0
DICTIONARY
  5
10959
102
{ACAD_REACTORS
330
C
102
}
330
C
100
AcDbDictionary
281
     1
  0
DICTIONARY
  5
F6FE
102
{ACAD_REACTORS
330
C
102
}
330
C
100
AcDbDictionary
281
     1
  0
DICTIONARY
  5
F6FF
102
{ACAD_REACTORS
330
C
102
}
330
C
100
AcDbDictionary
281
     1
  0
DICTIONARY
  5
F6E8
102
{ACAD_REACTORS
330
C
102
}
330
C
100
AcDbDictionary
281
     1
  0
DICTIONARY
  5
94AA
102
{ACAD_REACTORS
330
C
102
}
330
C
100
AcDbDictionary
281
     1
  3
komin
350
F6EA
  0
DICTIONARY
  5
F7B1
102
{ACAD_REACTORS
330
C
102
}
330
C
100
AcDbDictionary
281
     1
  3
Space Boundary
350
FE66
  3
Standard
350
F7B2
  0
DICTIONARY
  5
10964
102
{ACAD_REACTORS
330
C
102
}
330
C
100
AcDbDictionary
281
     1
  0
DICTIONARY
  5
10965
102
{ACAD_REACTORS
330
C
102
}
330
C
100
AcDbDictionary
281
     1
  0
DICTIONARY
  5
10970
102
{ACAD_REACTORS
330
C
102
}
330
C
100
AcDbDictionary
281
     1
  0
DICTIONARY
  5
F067
102
{ACAD_REACTORS
330
C
102
}
330
C
100
AcDbDictionary
281
     1
  3
Medium Detail
350
F068
  3
Medium Detail - WIEZBA
350
FE67
  3
Standard
350
F1D1
1001
AECBASE
1070
 10000
1005
F068
  0
DICTIONARY
  5
F069
102
{ACAD_REACTORS
330
C
102
}
330
C
100
AcDbDictionary
281
     1
  3
Elevation
350
F1A5
  3
Model
350
F06A
  3
Model High Detail
350
F1A9
  3
Model Low Detail
350
F1A8
  3
Plan
350
F06B
  3
Plan Diagnostic
350
F06C
  3
Plan High Detail
350
F1A7
  3
Plan Low Detail
350
F1A6
  3
Plan Medium - WIEZBA
350
FE68
  3
Reflected
350
F1A4
  3
Section_Elev
350
F6F0
  0
DICTIONARY
  5
30
102
{ACAD_REACTORS
330
C
102
}
330
C
100
AcDbDictionary
281
     1
  3
AbAdDbDispRepRoofHatch
350
615C
  3
AbAdDbDispRepRoofSlabHatch
350
615E
  3
AbAdDbWinRoofDispRep
350
6160
  3
AbAdDbWinRoofDispRepDrawingRoof
350
6162
  3
AbAdDbWinRoofDispRepPlan
350
6164
  3
AbAdDispRepWinPanels
350
6167
  3
AbAdDispRepWinPanelsElev
350
6169
  3
AbAdDoorDispRep
350
616B
  3
AbAdIsolationDispRep
350
6170
  3
AbAdOpeningPlateRepDesc
350
6172
  3
AbAdOpeningPlateRepModel
350
6174
  3
AbAdOpeningPlateRepPlan
350
6176
  3
AbAdOpeningPlateRepSimple
350
6178
  3
AbAdPlateDispRepCeiling
350
617C
  3
AbAdPlateDispRepModel
350
617E
  3
AbAdPlateDispRepPlan
350
617A
  3
AbAdRoofOutlineDispRep
350
6180
  3
AbAdRoofPlanLoftDispRep
350
6182
  3
AbAdStairDesDispRep
350
6184
  3
AbAdStairDispRep
350
6186
  3
AbAdThresholdDispRep
350
616D
  3
AbAdWallDispRep
350
6188
  3
AbAdWindowDispRep
350
618A
  3
AecDbDispRep2dSection
350
F06D
  3
AecDbDispRepAnchor
350
F10B
  3
AecDbDispRepAnchorBubToGrid
350
F06E
  3
AecDbDispRepAnchorBubToGridMdl
350
F06F
  3
AecDbDispRepAnchorBubToGridRcp
350
F134
  3
AecDbDispRepAnchorEntToNode
350
F070
  3
AecDbDispRepAnchorExtendedTagToEnt
350
F755
  3
AecDbDispRepAnchorTagToEnt
350
F071
  3
AecDbDispRepBdgElevLineModel
350
F075
  3
AecDbDispRepBdgElevLinePlan
350
F076
  3
AecDbDispRepBdgElevLinePlan100
350
F146
  3
AecDbDispRepBdgElevLinePlan50
350
F163
  3
AecDbDispRepBdgElevLineRcp
350
F10E
  3
AecDbDispRepBdgSectionLineModel
350
F077
  3
AecDbDispRepBdgSectionLinePlan
350
F078
  3
AecDbDispRepBdgSectionLinePlan100
350
F148
  3
AecDbDispRepBdgSectionLinePlan50
350
F165
  3
AecDbDispRepBdgSectionLineRcp
350
F110
  3
AecDbDispRepBdgSectionModel
350
F112
  3
AecDbDispRepBdgSectionSubDiv
350
F079
  3
AecDbDispRepCeilingGrid
350
F07B
  3
AecDbDispRepCeilingGridModel
350
F07C
  3
AecDbDispRepCeilingGridPlan100
350
F14A
  3
AecDbDispRepCeilingGridPlan50
350
F167
  3
AecDbDispRepCeilingGridRcp
350
F07D
  3
AecDbDispRepClipVolModel
350
F07E
  3
AecDbDispRepClipVolPlan
350
F07F
  3
AecDbDispRepClipVolResSubDiv
350
F080
  3
AecDbDispRepClipVolResult
350
F081
  3
AecDbDispRepColumnGrid
350
F082
  3
AecDbDispRepColumnGridModel
350
F083
  3
AecDbDispRepColumnGridPlan100
350
F14C
  3
AecDbDispRepColumnGridPlan50
350
F169
  3
AecDbDispRepColumnGridRcp
350
F136
  3
AecDbDispRepCurtainWallLayoutModel
350
F084
  3
AecDbDispRepCurtainWallLayoutPlan
350
F085
  3
AecDbDispRepCurtainWallLayoutPlan100
350
F14E
  3
AecDbDispRepCurtainWallLayoutPlan50
350
F16B
  3
AecDbDispRepCurtainWallUnitModel
350
F086
  3
AecDbDispRepCurtainWallUnitPlan
350
F087
  3
AecDbDispRepCurtainWallUnitPlan100
350
F150
  3
AecDbDispRepCurtainWallUnitPlan50
350
F16D
  3
AecDbDispRepDimGroupPlan
350
F088
  3
AecDbDispRepDimGroupPlan100
350
F17E
  3
AecDbDispRepDimGroupPlan50
350
F180
  3
AecDbDispRepDisplayTheme
350
F753
  3
AecDbDispRepDoorElev
350
F113
  3
AecDbDispRepDoorModel
350
F089
  3
AecDbDispRepDoorNominal
350
F08A
  3
AecDbDispRepDoorPlan
350
F08B
  3
AecDbDispRepDoorPlan50
350
F182
  3
AecDbDispRepDoorPlanHekto
350
F184
  3
AecDbDispRepDoorRcp
350
F115
  3
AecDbDispRepDoorThresholdPlan
350
F117
  3
AecDbDispRepDoorThresholdSymbolPlan
350
F186
  3
AecDbDispRepEditInPlaceProfile
350
F08C
  3
AecDbDispRepEntRef
350
F08D
  3
AecDbDispRepLayoutCurve
350
F08E
  3
AecDbDispRepLayoutGrid2d
350
F08F
  3
AecDbDispRepLayoutGrid3d
350
F090
  3
AecDbDispRepMaskBlockRef
350
F091
  3
AecDbDispRepMaskBlockRefRcp
350
F092
  3
AecDbDispRepMassElemModel
350
F093
  3
AecDbDispRepMassElemPlan100
350
F188
  3
AecDbDispRepMassElemPlan50
350
F18A
  3
AecDbDispRepMassElemRcp
350
F119
  3
AecDbDispRepMassElemSchem
350
F094
  3
AecDbDispRepMassGroupModel
350
F095
  3
AecDbDispRepMassGroupPlan
350
F096
  3
AecDbDispRepMassGroupPlan100
350
F18C
  3
AecDbDispRepMassGroupPlan50
350
F18E
  3
AecDbDispRepMassGroupRcp
350
F11B
  3
AecDbDispRepMaterial
350
F097
  3
AecDbDispRepMaterial$General High Detail
350
FE69
  3
AecDbDispRepMaterial$General Low Detail
350
FE6A
  3
AecDbDispRepMaterial$General Medium Detail
350
F6F1
  3
AecDbDispRepMaterial$General Presentation
350
FE6B
  3
AecDbDispRepMaterial$General Reflected
350
FE6C
  3
AecDbDispRepMaterial$General Reflected Screened
350
FE6D
  3
AecDbDispRepMaterial$General Screened
350
FE6E
  3
AecDbDispRepMvBlockRef
350
F098
  3
AecDbDispRepMvBlockRef$Plan
350
F099
  3
AecDbDispRepMvBlockRefModel
350
F09A
  3
AecDbDispRepMvBlockRefPlan100
350
F152
  3
AecDbDispRepMvBlockRefPlan50
350
F16F
  3
AecDbDispRepMvBlockRefRcp
350
F11D
  3
AecDbDispRepOpening
350
F09B
  3
AecDbDispRepOpeningModel
350
F09C
  3
AecDbDispRepOpeningPlan100
350
F190
  3
AecDbDispRepOpeningPlan50
350
F192
  3
AecDbDispRepOpeningPlanReflected
350
F194
  3
AecDbDispRepOpeningSillPlan
350
F196
  3
AecDbDispRepPolygonModel
350
F09D
  3
AecDbDispRepPolygonTrueColour
350
F10C
  3
AecDbDispRepRailingModel
350
F09E
  3
AecDbDispRepRailingPlan
350
F09F
  3
AecDbDispRepRailingPlan100
350
F198
  3
AecDbDispRepRailingPlan50
350
F19A
  3
AecDbDispRepRoofModel
350
F0A0
  3
AecDbDispRepRoofPlan
350
F0A1
  3
AecDbDispRepRoofPlan100
350
F153
  3
AecDbDispRepRoofPlan50
350
F170
  3
AecDbDispRepRoofRcp
350
F11E
  3
AecDbDispRepRoofSlabModel
350
F0A2
  3
AecDbDispRepRoofSlabPlan
350
F0A3
  3
AecDbDispRepRoofSlabPlan$Plan Presentation
350
FE6F
  3
AecDbDispRepRoofSlabPlan100
350
F155
  3
AecDbDispRepRoofSlabPlan50
350
F172
  3
AecDbDispRepScheduleTable
350
F0A4
  3
AecDbDispRepSlabModel
350
F0A5
  3
AecDbDispRepSlabPlan
350
F0A6
  3
AecDbDispRepSlabPlan$Plan Presentation
350
FE70
  3
AecDbDispRepSlabPlan100
350
F157
  3
AecDbDispRepSlabPlan50
350
F174
  3
AecDbDispRepSlice
350
F0A7
  3
AecDbDispRepSpaceDecomposed
350
F794
  3
AecDbDispRepSpaceModel
350
F0AB
  3
AecDbDispRepSpacePlan
350
F0AC
  3
AecDbDispRepSpacePlan100
350
F15B
  3
AecDbDispRepSpacePlan50
350
F178
  3
AecDbDispRepSpaceRcp
350
F122
  3
AecDbDispRepSpaceVolume
350
F124
  3
AecDbDispRepStairModel
350
F0AD
  3
AecDbDispRepStairPlan
350
F0AE
  3
AecDbDispRepStairPlan100
350
F19C
  3
AecDbDispRepStairPlan50
350
F19E
  3
AecDbDispRepStairPlanOverlapping
350
F126
  3
AecDbDispRepStairRcp
350
F128
  3
AecDbDispRepWallGraph
350
F0AF
  3
AecDbDispRepWallModel
350
F0B0
  3
AecDbDispRepWallPlan
350
F0B1
  3
AecDbDispRepWallPlan100
350
F15D
  3
AecDbDispRepWallPlan50
350
F17A
  3
AecDbDispRepWallRcp
350
F12A
  3
AecDbDispRepWallSchem
350
F0B2
  3
AecDbDispRepWindowAssemblyModel
350
F0B3
  3
AecDbDispRepWindowAssemblyPlan
350
F0B4
  3
AecDbDispRepWindowAssemblyPlan100
350
F0B5
  3
AecDbDispRepWindowAssemblyPlan50
350
F17C
  3
AecDbDispRepWindowAssemblySillPlan
350
F12C
  3
AecDbDispRepWindowElev
350
F12E
  3
AecDbDispRepWindowModel
350
F0B6
  3
AecDbDispRepWindowNominal
350
F0B7
  3
AecDbDispRepWindowPlan
350
F0B8
  3
AecDbDispRepWindowPlan100
350
F1A0
  3
AecDbDispRepWindowPlan50
350
F1A2
  3
AecDbDispRepWindowRcp
350
F130
  3
AecDbDispRepWindowSillPlan
350
F132
  3
AecDbDispRepZone
350
F796
  3
AecDbDispRepZonePlan100
350
F790
  3
AecDbDispRepZonePlan50
350
F792
  3
AecsDbDispRepMemberElevationDesign
350
F138
  3
AecsDbDispRepMemberElevationDetail
350
F13A
  3
AecsDbDispRepMemberLogical
350
F0B9
  3
AecsDbDispRepMemberModelDesign
350
F0BA
  3
AecsDbDispRepMemberModelDetail
350
F13C
  3
AecsDbDispRepMemberPlanDesign
350
F0BB
  3
AecsDbDispRepMemberPlanDetail
350
F13E
  3
AecsDbDispRepMemberPlanSketch
350
F140
  0
DICTIONARY
  5
32
102
{ACAD_REACTORS
330
C
102
}
330
C
100
AcDbDictionary
281
     1
  3
*A1
350
616A
  3
*A10
350
F10F
  3
*A100
350
F756
  3
*A101
350
F0E0
  3
*A102
350
F0EC
  3
*A103
350
617D
  3
*A104
350
F0E4
  3
*A105
350
F123
  3
*A106
350
617F
  3
*A107
350
F0C6
  3
*A108
350
F13B
  3
*A109
350
F0CE
  3
*A11
350
6171
  3
*A110
350
F13D
  3
*A111
350
6163
  3
*A112
350
F16A
  3
*A113
350
F13F
  3
*A114
350
F0D7
  3
*A115
350
6161
  3
*A116
350
F141
  3
*A117
350
F111
  3
*A118
350
F0CD
  3
*A119
350
F10D
  3
*A12
350
F0BE
  3
*A120
350
F147
  3
*A121
350
FE71
  3
*A122
350
FE72
  3
*A123
350
FE73
  3
*A124
350
FE74
  3
*A125
350
FE75
  3
*A126
350
F0BD
  3
*A127
350
F11A
  3
*A128
350
F6F2
  3
*A129
350
F129
  3
*A13
350
6179
  3
*A130
350
FE76
  3
*A131
350
FE77
  3
*A132
350
FE78
  3
*A133
350
F16C
  3
*A134
350
F0BC
  3
*A135
350
F1A3
  3
*A136
350
F0CF
  3
*A137
350
F0C8
  3
*A138
350
F195
  3
*A139
350
618B
  3
*A14
350
F0BF
  3
*A140
350
616C
  3
*A141
350
F0E7
  3
*A142
350
F0EB
  3
*A143
350
F16E
  3
*A144
350
F171
  3
*A145
350
F173
  3
*A146
350
F175
  3
*A147
350
F14D
  3
*A148
350
616E
  3
*A149
350
F18D
  3
*A15
350
F17F
  3
*A150
350
F12F
  3
*A151
350
F0F5
  3
*A152
350
F0D2
  3
*A153
350
F0D0
  3
*A154
350
F133
  3
*A155
350
F197
  3
*A156
350
F0FA
  3
*A157
350
F181
  3
*A158
350
F0E8
  3
*A159
350
F199
  3
*A16
350
F0C0
  3
*A160
350
F0E5
  3
*A161
350
F19B
  3
*A162
350
F15E
  3
*A163
350
F158
  3
*A164
350
F19D
  3
*A165
350
F19F
  3
*A166
350
F0D8
  3
*A167
350
615D
  3
*A168
350
F17D
  3
*A169
350
F0F9
  3
*A17
350
6187
  3
*A170
350
F154
  3
*A171
350
F131
  3
*A172
350
F0D1
  3
*A18
350
F0ED
  3
*A19
350
F149
  3
*A2
350
6166
  3
*A20
350
F0C1
  3
*A21
350
F0C2
  3
*A22
350
F179
  3
*A23
350
6181
  3
*A24
350
F187
  3
*A25
350
F0C3
  3
*A26
350
F125
  3
*A27
350
F0C4
  3
*A28
350
F151
  3
*A29
350
F0D3
  3
*A3
350
F11C
  3
*A30
350
F0EA
  3
*A31
350
F0C9
  3
*A32
350
F156
  3
*A33
350
F14B
  3
*A34
350
F17B
  3
*A35
350
F193
  3
*A36
350
F791
  3
*A37
350
F793
  3
*A38
350
F795
  3
*A39
350
F797
  3
*A4
350
F0FB
  3
*A40
350
F0FD
  3
*A41
350
F183
  3
*A42
350
F0F6
  3
*A43
350
F114
  3
*A44
350
F0FE
  3
*A45
350
F0D9
  3
*A46
350
F100
  3
*A47
350
F118
  3
*A48
350
F0DA
  3
*A49
350
F164
  3
*A5
350
F0E3
  3
*A50
350
F135
  3
*A51
350
F0DB
  3
*A52
350
F0DC
  3
*A53
350
F0DD
  3
*A54
350
F0C7
  3
*A55
350
F0DE
  3
*A56
350
F0C5
  3
*A57
350
F0E2
  3
*A58
350
F0EE
  3
*A59
350
F18F
  3
*A6
350
F1A1
  3
*A60
350
F0DF
  3
*A61
350
F12B
  3
*A62
350
F127
  3
*A63
350
F137
  3
*A64
350
6185
  3
*A65
350
F166
  3
*A66
350
F0EF
  3
*A67
350
6183
  3
*A68
350
F0D4
  3
*A69
350
F189
  3
*A7
350
F0E9
  3
*A70
350
F15C
  3
*A71
350
F191
  3
*A72
350
F0D6
  3
*A73
350
F0F0
  3
*A74
350
F0F1
  3
*A75
350
F0F2
  3
*A76
350
F0F3
  3
*A77
350
F0F4
  3
*A78
350
F185
  3
*A79
350
F101
  3
*A8
350
F11F
  3
*A80
350
F0E1
  3
*A81
350
F139
  3
*A82
350
F0CB
  3
*A83
350
F168
  3
*A84
350
6175
  3
*A85
350
6168
  3
*A86
350
F18B
  3
*A87
350
F103
  3
*A88
350
615F
  3
*A89
350
F104
  3
*A9
350
617B
  3
*A90
350
F14F
  3
*A91
350
F106
  3
*A92
350
F0CA
  3
*A93
350
6177
  3
*A94
350
F0D5
  3
*A95
350
F12D
  3
*A96
350
6173
  3
*A97
350
F0CC
  3
*A98
350
F116
  3
*A99
350
F754
  0
DICTIONARY
  5
1096F
102
{ACAD_REACTORS
330
C
102
}
330
C
100
AcDbDictionary
281
     1
  0
DICTIONARY
  5
1095F
102
{ACAD_REACTORS
330
C
102
}
330
C
100
AcDbDictionary
281
     1
  0
DICTIONARY
  5
F7AD
102
{ACAD_REACTORS
330
C
102
}
330
C
100
AcDbDictionary
281
     1
  3
Standard
350
F7AE
  0
DICTIONARY
  5
F066
102
{ACAD_REACTORS
330
C
102
}
330
C
100
AcDbDictionary
281
     1
  3
AIA (256 Color)
350
F107
  0
DICTIONARY
  5
F7A3
102
{ACAD_REACTORS
330
C
102
}
330
C
100
AcDbDictionary
281
     1
  3
Standard
350
F7A4
  3
Standard (Name Definition)
350
F7A5
  0
DICTIONARY
  5
10956
102
{ACAD_REACTORS
330
C
102
}
330
C
100
AcDbDictionary
281
     1
  0
DICTIONARY
  5
1095A
102
{ACAD_REACTORS
330
C
102
}
330
C
100
AcDbDictionary
281
     1
  0
DICTIONARY
  5
F7A7
102
{ACAD_REACTORS
330
C
102
}
330
C
100
AcDbDictionary
281
     1
  3
Standard
350
F7A8
  0
DICTIONARY
  5
F1B5
102
{ACAD_REACTORS
330
C
102
}
330
C
100
AcDbDictionary
281
     1
  3
Elevation_normalna
350
F1B6
  3
Elevation_normalna_konstrukcja
350
F1BF
  3
Elevation_odwrocona
350
F1C7
  3
Elevation_odwrocona_konstrukcja
350
F1D0
  0
DICTIONARY
  5
F7AF
102
{ACAD_REACTORS
330
C
102
}
330
C
100
AcDbDictionary
281
     1
  3
Standard
350
F7B0
  0
DICTIONARY
  5
10958
102
{ACAD_REACTORS
330
C
102
}
330
C
100
AcDbDictionary
281
     1
  0
DICTIONARY
  5
10957
102
{ACAD_REACTORS
330
C
102
}
330
C
100
AcDbDictionary
281
     1
  0
DICTIONARY
  5
1095B
102
{ACAD_REACTORS
330
C
102
}
330
C
100
AcDbDictionary
281
     1
  0
DICTIONARY
  5
94AB
102
{ACAD_REACTORS
330
C
102
}
330
C
100
AcDbDictionary
281
     1
  0
DICTIONARY
  5
10967
102
{ACAD_REACTORS
330
C
102
}
330
C
100
AcDbDictionary
281
     1
  0
DICTIONARY
  5
10968
102
{ACAD_REACTORS
330
C
102
}
330
C
100
AcDbDictionary
281
     1
  0
DICTIONARY
  5
10969
102
{ACAD_REACTORS
330
C
102
}
330
C
100
AcDbDictionary
281
     1
  0
DICTIONARY
  5
1095C
102
{ACAD_REACTORS
330
C
102
}
330
C
100
AcDbDictionary
281
     1
  0
DICTIONARY
  5
1096A
102
{ACAD_REACTORS
330
C
102
}
330
C
100
AcDbDictionary
281
     1
  0
DICTIONARY
  5
1096B
102
{ACAD_REACTORS
330
C
102
}
330
C
100
AcDbDictionary
281
     1
  0
DICTIONARY
  5
1096C
102
{ACAD_REACTORS
330
C
102
}
330
C
100
AcDbDictionary
281
     1
  0
DICTIONARY
  5
F7A6
102
{ACAD_REACTORS
330
C
102
}
330
C
100
AcDbDictionary
281
     1
  3
Standard
350
F7A9
  3
Standard (Area Style)
350
F7AA
  0
DICTIONARY
  5
10960
102
{ACAD_REACTORS
330
C
102
}
330
C
100
AcDbDictionary
281
     1
  0
DICTIONARY
  5
10961
102
{ACAD_REACTORS
330
C
102
}
330
C
100
AcDbDictionary
281
     1
  0
DICTIONARY
  5
1095D
102
{ACAD_REACTORS
330
C
102
}
330
C
100
AcDbDictionary
281
     1
  0
DICTIONARY
  5
F064
102
{ACAD_REACTORS
330
C
102
}
330
C
100
AcDbDictionary
281
     1
  3
AEC_VARS_ARCHBASE
350
F108
  3
AEC_VARS_DWG_SETUP
350
F065
  3
AEC_VARS_STRUCTUREBASE
350
F6F3
  3
AECMX_VARS_MUNICH
350
F109
  0
DICTIONARY
  5
F7AC
102
{ACAD_REACTORS
330
C
102
}
330
C
100
AcDbDictionary
281
     1
  3
Space Boundary
350
FE79
  3
Standard
350
F7B3
  0
DICTIONARY
  5
10962
102
{ACAD_REACTORS
330
C
102
}
330
C
100
AcDbDictionary
281
     1
  0
DICTIONARY
  5
10966
102
{ACAD_REACTORS
330
C
102
}
330
C
100
AcDbDictionary
281
     1
  0
DICTIONARY
  5
10963
102
{ACAD_REACTORS
330
C
102
}
330
C
100
AcDbDictionary
281
     1
  0
DICTIONARY
  5
1096E
102
{ACAD_REACTORS
330
C
102
}
330
C
100
AcDbDictionary
281
     1
  0
DICTIONARY
  5
1096D
102
{ACAD_REACTORS
330
C
102
}
330
C
100
AcDbDictionary
281
     1
  0
DICTIONARY
  5
1095E
102
{ACAD_REACTORS
330
C
102
}
330
C
100
AcDbDictionary
281
     1
  0
DICTIONARY
  5
11E2B
102
{ACAD_REACTORS
330
C
102
}
330
C
100
AcDbDictionary
281
     1
  3
_posadzki_do_zestawienia_pomieszczen_Link1
350
11E2D
  3
ASEBlockHierarchyIndexRecord
350
11E2E
  3
pomieszczeniaLink1
350
11E2C
1001
DCO15
1040
1664254156.468
  0
DICTIONARY
  5
90C0
102
{ACAD_REACTORS
330
C
102
}
330
C
100
AcDbDictionary
281
     1
  3
ACET-OVERKILL-FUZZ
350
90C1
  3
ACET-OVERKILL-NO-ENDTOEND
350
90C4
  3
ACET-OVERKILL-NO-PARTIAL
350
90C3
  3
ACET-OVERKILL-NO-PLINES
350
90C2
  0
DICTIONARY
  5
8234
102
{ACAD_REACTORS
330
C
102
}
330
C
100
AcDbDictionary
281
     1
  3
_posadzki_do_zestawienia_pomieszczen_Romans17
350
8236
  3
pomieszczenia-Romans17
350
8235
  0
DICTIONARY
  5
8231
102
{ACAD_REACTORS
330
C
102
}
330
C
100
AcDbDictionary
281
     1
  3
_posadzki_do_zestawienia_pomieszczen_Link1
350
8233
  3
pomieszczeniaLink1
350
8232
  0
XRECORD
  5
11E48
102
{ACAD_REACTORS
330
C
102
}
330
C
100
AcDbXrecord
280
     1
  1
DWGPROPS COOKIE
  2

  3

  4

  6

  7

  8
magdalena.jozwik
  9

300
=
301
=
302
=
303
=
304
=
305
=
306
=
307
=
308
=
309
=
 40
5.584850706018518
 41
2453112.609624132
 42
2455065.412736898
  1

 90
        0
  0
DICTIONARY
  5
920
102
{ACAD_REACTORS
330
91F
102
}
330
91F
100
AcDbDictionary
280
     1
281
     1
  3
Title Layers
360
921
  3
XREF Insert Layers
360
922
  0
DICTIONARY
  5
923
102
{ACAD_REACTORS
330
91F
102
}
330
91F
100
AcDbDictionary
281
     1
  0
XRECORD
  5
11E15
102
{ACAD_REACTORS
330
11E14
102
}
330
11E14
100
AcDbXrecord
280
     1
290
     1
  0
XRECORD
  5
11E17
102
{ACAD_REACTORS
330
11E16
102
}
330
11E16
100
AcDbXrecord
280
     1
290
     1
  0
XRECORD
  5
11E19
102
{ACAD_REACTORS
330
11E18
102
}
330
11E18
100
AcDbXrecord
280
     1
290
     1
  0
XRECORD
  5
11E1B
102
{ACAD_REACTORS
330
11E1A
102
}
330
11E1A
100
AcDbXrecord
280
     1
290
     1
  0
XRECORD
  5
11E1D
102
{ACAD_REACTORS
330
11E1C
102
}
330
11E1C
100
AcDbXrecord
280
     1
290
     1
  0
XRECORD
  5
11E1F
102
{ACAD_REACTORS
330
11E1E
102
}
330
11E1E
100
AcDbXrecord
280
     1
290
     1
  0
XRECORD
  5
11E21
102
{ACAD_REACTORS
330
11E20
102
}
330
11E20
100
AcDbXrecord
280
     1
290
     1
  0
XRECORD
  5
11E23
102
{ACAD_REACTORS
330
11E22
102
}
330
11E22
100
AcDbXrecord
280
     1
290
     1
  0
XRECORD
  5
11E25
102
{ACAD_REACTORS
330
11E24
102
}
330
11E24
100
AcDbXrecord
280
     1
290
     1
  0
XRECORD
  5
11E27
102
{ACAD_REACTORS
330
11E26
102
}
330
11E26
100
AcDbXrecord
280
     1
290
     1
  0
XRECORD
  5
11E29
102
{ACAD_REACTORS
330
11E28
102
}
330
11E28
100
AcDbXrecord
280
     1
290
     1
  0
DICTIONARY
  5
11DD0
102
{ACAD_REACTORS
330
DE5
102
}
330
DE5
100
AcDbDictionary
281
     1
  3
*A1
350
11DD1
  0
SORTENTSTABLE
  5
F86C
102
{ACAD_REACTORS
330
DE5
102
}
330
DE5
100
AcDbSortentsTable
330
1F
331
11807
  5
117F1
331
8F0C
  5
8F0C
331
81FD
  5
81FD
331
81FF
  5
81FF
331
8C15
  5
8C15
331
8680
  5
8680
331
8682
  5
8682
331
643F
  5
643F
331
110A9
  5
110AB
331
110AA
  5
110AC
331
110AB
  5
110AD
331
110AC
  5
110AE
331
110AD
  5
110AF
331
110AE
  5
110B0
331
110AF
  5
110B1
331
117E8
  5
117E8
331
117E9
  5
117E9
331
117EA
  5
117EA
331
11808
  5
117F7
331
11809
  5
117F8
331
1180A
  5
117F9
331
117DF
  5
117DF
331
1180B
  5
117FA
331
117E0
  5
117E0
331
1180C
  5
1180A
331
117EF
  5
11816
331
117E1
  5
117E1
331
1180D
  5
1180B
331
117F0
  5
11817
331
117E2
  5
117E2
331
1180E
  5
1180C
331
117F1
  5
11818
331
117E3
  5
117E3
331
1180F
  5
1180D
331
11810
  5
1180E
331
117E4
  5
117E4
331
117F2
  5
118FD
331
117E5
  5
117E5
331
11811
  5
1180F
331
11812
  5
11810
331
117E6
  5
117E6
331
117F4
  5
117FC
331
11813
  5
11811
331
117E7
  5
117E7
331
117F5
  5
117FD
331
11814
  5
11812
331
117F6
  5
117FE
331
11815
  5
11813
331
117F7
  5
117FF
331
11816
  5
11814
331
117F8
  5
11800
331
11817
  5
11815
331
117F9
  5
11801
331
117FA
  5
11802
331
110A6
  5
110A8
331
117FB
  5
11803
331
110A7
  5
110A9
331
117FC
  5
11804
331
117FD
  5
11806
331
118FC
  5
117FB
331
117FE
  5
11808
331
117FF
  5
11809
331
11800
  5
117F2
331
11801
  5
117F3
331
11802
  5
117F4
331
11803
  5
117F5
331
119BA
  5
11805
331
11804
  5
117ED
331
11805
  5
117EF
331
11806
  5
117F0
  0
SORTENTSTABLE
  5
F1AF
102
{ACAD_REACTORS
330
F1AE
102
}
330
F1AE
100
AcDbSortentsTable
330
F1AD
  0
SORTENTSTABLE
  5
10EE7
102
{ACAD_REACTORS
330
10EE6
102
}
330
10EE6
100
AcDbSortentsTable
330
10EE5
  0
XRECORD
  5
11E4C
102
{ACAD_REACTORS
330
11E4B
102
}
330
11E4B
100
AcDbXrecord
280
     1
102
SHADEPLOT
 70
     0
  0
XRECORD
  5
11E4F
102
{ACAD_REACTORS
330
11E4E
102
}
330
11E4E
100
AcDbXrecord
280
     1
102
SHADEPLOT
 70
     0
  0
XRECORD
  5
11E51
102
{ACAD_REACTORS
330
11E50
102
}
330
11E50
100
AcDbXrecord
280
     1
102
SHADEPLOT
 70
     0
  0
LAYOUT
  5
22
102
{ACAD_XDICTIONARY
360
11E49
102
}
102
{ACAD_REACTORS
330
1A
102
}
330
1A
100
AcDbPlotSettings
  1

  2
PDFCreator
  4
A4
  6
TYŁ
 40
3.174999952316284
 41
3.174999952316284
 42
3.175003051757812
 43
3.17498779296875
 44
209.8886566162109
 45
297.0530090332031
 46
0.0
 47
5.468573210520304
 48
4816.594257630626
 49
-2114.80689436811
140
15016.59425763065
141
11905.19310563189
142
1.0
143
50.11333139422816
 70
 11956
 72
     1
 73
     0
 74
     4
  7
monochrome_140.ctb
 75
     0
147
0.0199547699619742
148
-4816.594257630626
149
2114.80689436811
100
AcDbLayout
  1
Model
 70
     1
 71
     0
 10
0.0
 20
0.0
 11
12.0
 21
9.0
 12
0.0
 22
0.0
 32
0.0
 14
0.0
 24
0.0
 34
0.0
 15
0.0
 25
0.0
 35
0.0
146
0.0
 13
0.0
 23
0.0
 33
0.0
 16
1.0
 26
0.0
 36
0.0
 17
0.0
 27
1.0
 37
0.0
 76
     0
330
1F
331
F76F
1001
ACAD_PSEXT
1000
PDFCreator
1000
PDFCreator
1000
PDFCreator:
1000
eDoc Printer
1070
     0
  0
LAYOUT
  5
1FE
102
{ACAD_XDICTIONARY
360
11DB9
102
}
102
{ACAD_REACTORS
330
1A
102
}
330
1A
100
AcDbPlotSettings
  1

  2
DWF6 ePlot.pc3
  4
ISO_A1_(841.00_x_594.00_MM)
  6

 40
5.793749809265136
 41
17.79375076293945
 42
5.79376220703125
 43
17.79376220703125
 44
841.0
 45
594.0
 46
0.0
 47
0.0
 48
0.0
 49
0.0
140
0.0
141
0.0
142
1.0
143
1.0
 70
   688
 72
     1
 73
     0
 74
     5
  7
monochrome_140.ctb
 75
     0
147
1.0
148
0.0
149
0.0
100
AcDbLayout
  1
Work
 70
     0
 71
     1
 10
-5.793749809265136
 20
-17.79375076293945
 11
835.2062501907349
 21
576.2062492370605
 12
0.0
 22
0.0
 32
0.0
 14
0.0
 24
0.0
 34
0.0
 15
826.0
 25
554.0
 35
0.0
146
0.0
 13
0.0
 23
0.0
 33
0.0
 16
1.0
 26
0.0
 36
0.0
 17
0.0
 27
1.0
 37
0.0
 76
     0
330
1F9
331
1040
  0
MATERIAL
  5
F772
102
{ACAD_XDICTIONARY
360
11E55
102
}
102
{ACAD_REACTORS
330
DC1
102
}
330
DC1
100
AcDbMaterial
  1
ByBlock
 73
     1
 78
     1
172
     1
176
     1
270
     1
274
     1
  0
MATERIAL
  5
F771
102
{ACAD_XDICTIONARY
360
11E53
102
}
102
{ACAD_REACTORS
330
DC1
102
}
330
DC1
100
AcDbMaterial
  1
ByLayer
 73
     1
 78
     1
172
     1
176
     1
270
     1
274
     1
  0
MATERIAL
  5
F773
102
{ACAD_XDICTIONARY
360
11E57
102
}
102
{ACAD_REACTORS
330
DC1
102
}
330
DC1
100
AcDbMaterial
  1
Global
 73
     1
 78
     1
172
     1
176
     1
270
     1
274
     1
  0
MLEADERSTYLE
  5
11E06
102
{ACAD_REACTORS
330
11E05
102
}
330
11E05
100
AcDbMLeaderStyle
170
     2
171
     1
172
     0
 90
        2
 40
0.0
 41
0.0
173
     1
 91
-1056964608
340
14
 92
       -2
290
     1
 42
2.0
291
     1
 43
0.36
  3
Standard
 44
4.0
300

342
11
174
     1
178
     6
175
     1
176
     0
 93
-1056964608
 45
4.0
292
     0
297
     0
 46
4.0
 94
-1056964608
 47
1.0
 49
1.0
140
1.0
293
     1
141
0.0
294
     1
177
     0
142
1.0
295
     0
296
     0
143
0.125
1001
ACAD_MLEADERVER
1070
     2
  0
MLINESTYLE
  5
18
102
{ACAD_REACTORS
330
17
102
}
330
17
100
AcDbMlineStyle
  2
STANDARD
 70
     0
  3

 62
   256
 51
90.0
 52
90.0
 71
     2
 49
0.5
 62
   256
  6
BYLAYER
 49
-0.5
 62
   256
  6
BYLAYER
  0
ACDBPLACEHOLDER
  5
1E1
102
{ACAD_REACTORS
330
E
102
}
330
E
  0
ACDBPLACEHOLDER
  5
F
102
{ACAD_REACTORS
330
E
102
}
330
E
  0
ACDBPLACEHOLDER
  5
1153
102
{ACAD_REACTORS
330
E
102
}
330
E
  0
ACDBPLACEHOLDER
  5
1DF
102
{ACAD_REACTORS
330
E
102
}
330
E
  0
ACDBPLACEHOLDER
  5
FE58
102
{ACAD_REACTORS
330
E
102
}
330
E
  0
SCALE
  5
11DF0
102
{ACAD_REACTORS
330
11DEF
102
}
330
11DEF
100
AcDbScale
 70
     0
300
1:1
140
1.0
141
1.0
290
     1
  0
SCALE
  5
11DF1
102
{ACAD_REACTORS
330
11DEF
102
}
330
11DEF
100
AcDbScale
 70
     0
300
1:2
140
1.0
141
2.0
290
     0
  0
SCALE
  5
11DF2
102
{ACAD_REACTORS
330
11DEF
102
}
330
11DEF
100
AcDbScale
 70
     0
300
1:2.5
140
1.0
141
2.5
290
     0
  0
SCALE
  5
11DF3
102
{ACAD_REACTORS
330
11DEF
102
}
330
11DEF
100
AcDbScale
 70
     0
300
1:5
140
1.0
141
5.0
290
     0
  0
SCALE
  5
11DF4
102
{ACAD_REACTORS
330
11DEF
102
}
330
11DEF
100
AcDbScale
 70
     0
300
1:7.5
140
1.0
141
7.5
290
     0
  0
SCALE
  5
11DF5
102
{ACAD_REACTORS
330
11DEF
102
}
330
11DEF
100
AcDbScale
 70
     0
300
1:10
140
1.0
141
10.0
290
     0
  0
SCALE
  5
11DF6
102
{ACAD_REACTORS
330
11DEF
102
}
330
11DEF
100
AcDbScale
 70
     0
300
1:20
140
1.0
141
20.0
290
     0
  0
SCALE
  5
11DF7
102
{ACAD_REACTORS
330
11DEF
102
}
330
11DEF
100
AcDbScale
 70
     0
300
1:25
140
1.0
141
25.0
290
     0
  0
SCALE
  5
11DF8
102
{ACAD_REACTORS
330
11DEF
102
}
330
11DEF
100
AcDbScale
 70
     0
300
1:50
140
1.0
141
50.0
290
     0
  0
SCALE
  5
11DF9
102
{ACAD_REACTORS
330
11DEF
102
}
330
11DEF
100
AcDbScale
 70
     0
300
1:75
140
1.0
141
75.0
290
     0
  0
SCALE
  5
11DFA
102
{ACAD_REACTORS
330
11DEF
102
}
330
11DEF
100
AcDbScale
 70
     0
300
1:100
140
1.0
141
100.0
290
     0
  0
SCALE
  5
11DFB
102
{ACAD_REACTORS
330
11DEF
102
}
330
11DEF
100
AcDbScale
 70
     0
300
1:150
140
1.0
141
150.0
290
     0
  0
SCALE
  5
11DFC
102
{ACAD_REACTORS
330
11DEF
102
}
330
11DEF
100
AcDbScale
 70
     0
300
1:200
140
1.0
141
200.0
290
     0
  0
SCALE
  5
11DFD
102
{ACAD_REACTORS
330
11DEF
102
}
330
11DEF
100
AcDbScale
 70
     0
300
1:250
140
1.0
141
250.0
290
     0
  0
SCALE
  5
11DFE
102
{ACAD_REACTORS
330
11DEF
102
}
330
11DEF
100
AcDbScale
 70
     0
300
1:500
140
1.0
141
500.0
290
     0
  0
SCALE
  5
11DFF
102
{ACAD_REACTORS
330
11DEF
102
}
330
11DEF
100
AcDbScale
 70
     0
300
1:750
140
1.0
141
750.0
290
     0
  0
SCALE
  5
11E00
102
{ACAD_REACTORS
330
11DEF
102
}
330
11DEF
100
AcDbScale
 70
     0
300
1:1000
140
1.0
141
1000.0
290
     0
  0
SCALE
  5
11E01
102
{ACAD_REACTORS
330
11DEF
102
}
330
11DEF
100
AcDbScale
 70
     0
300
1:1250
140
1.0
141
1250.0
290
     0
  0
SCALE
  5
11E02
102
{ACAD_REACTORS
330
11DEF
102
}
330
11DEF
100
AcDbScale
 70
     0
300
1:2000
140
1.0
141
2000.0
290
     0
  0
SCALE
  5
11E03
102
{ACAD_REACTORS
330
11DEF
102
}
330
11DEF
100
AcDbScale
 70
     0
300
1:2500
140
1.0
141
2500.0
290
     0
  0
SCALE
  5
11E04
102
{ACAD_REACTORS
330
11DEF
102
}
330
11DEF
100
AcDbScale
 70
     0
300
1:5000
140
1.0
141
5000.0
290
     0
  0
TABLESTYLE
  5
6417
102
{ACAD_XDICTIONARY
360
11E45
102
}
102
{ACAD_REACTORS
330
6416
102
}
330
6416
100
AcDbTableStyle
  3
Standard
 70
     0
 71
     0
 40
1.5
 41
1.5
280
     0
281
     0
  7
Standard
140
4.5
170
     2
 62
     0
 63
     7
283
     0
274
    -2
284
     1
 64
     0
275
    -2
285
     1
 65
     0
276
    -2
286
     1
 66
     0
277
    -2
287
     1
 67
     0
278
    -2
288
     1
 68
     0
279
    -2
289
     1
 69
     0
  7
Standard
140
6.0
170
     5
 62
     0
 63
     7
283
     0
274
    -2
284
     1
 64
     0
275
    -2
285
     1
 65
     0
276
    -2
286
     1
 66
     0
277
    -2
287
     1
 67
     0
278
    -2
288
     1
 68
     0
279
    -2
289
     1
 69
     0
  7
Standard
140
4.5
170
     5
 62
     0
 63
     7
283
     0
274
    -2
284
     1
 64
     0
275
    -2
285
     1
 65
     0
276
    -2
286
     1
 66
     0
277
    -2
287
     1
 67
     0
278
    -2
288
     1
 68
     0
279
    -2
289
     1
 69
     0
  0
VISUALSTYLE
  5
F77A
102
{ACAD_REACTORS
330
F774
102
}
330
F774
100
AcDbVisualStyle
  2
2dWireframe
 70
     4
 71
     0
 72
     2
 73
     0
 90
        0
 40
-0.6
 41
-30.0
 62
     5
 63
     7
 74
     1
 91
        4
 64
     7
 65
   257
 75
     1
175
     1
 42
1.0
 92
        0
 66
   257
 43
1.0
 76
     1
 77
     6
 78
     2
 67
     7
 79
     5
170
     0
171
     0
290
     0
174
     0
 93
        1
 44
0.0
173
     0
291
     0
 45
0.0
1001
ACAD
1000
AcDbSavedByObjectVersion
1070
     0
  0
VISUALSTYLE
  5
11DED
102
{ACAD_REACTORS
330
F774
102
}
330
F774
100
AcDbVisualStyle
  2
3D Hidden
 70
     6
 71
     1
 72
     2
 73
     2
 90
        0
 40
-0.6
 41
-30.0
 62
     5
 63
     7
 74
     2
 91
        2
 64
     7
 65
   257
 75
     2
175
     1
 42
40.0
 92
        0
 66
   257
 43
1.0
 76
     1
 77
     6
 78
     2
 67
     7
 79
     3
170
     0
171
     0
290
     0
174
     0
 93
        1
 44
0.0
173
     0
291
     0
 45
0.0
1001
ACAD
1000
AcDbSavedByObjectVersion
1070
     0
  0
VISUALSTYLE
  5
F77B
102
{ACAD_REACTORS
330
F774
102
}
330
F774
100
AcDbVisualStyle
  2
3dWireframe
 70
     5
 71
     0
 72
     2
 73
     0
 90
        0
 40
-0.6
 41
-30.0
 62
     5
 63
     7
 74
     1
 91
        4
 64
     7
 65
   257
 75
     1
175
     1
 42
1.0
 92
        0
 66
   257
 43
1.0
 76
     1
 77
     6
 78
     2
 67
     7
 79
     5
170
     0
171
     0
290
     0
174
     0
 93
        1
 44
0.0
173
     0
291
     0
 45
0.0
1001
ACAD
1000
AcDbSavedByObjectVersion
1070
     0
  0
VISUALSTYLE
  5
F779
102
{ACAD_REACTORS
330
F774
102
}
330
F774
100
AcDbVisualStyle
  2
Basic
 70
     7
 71
     1
 72
     0
 73
     1
 90
        0
 40
-0.6
 41
-30.0
 62
     5
 63
     7
 74
     0
 91
        4
 64
     7
 65
   257
 75
     1
175
     1
 42
1.0
 92
        8
 66
     7
 43
1.0
 76
     1
 77
     6
 78
     2
 67
     7
 79
     5
170
     0
171
     0
290
     0
174
     0
 93
        1
 44
0.0
173
     0
291
     1
 45
0.0
1001
ACAD
1000
AcDbSavedByObjectVersion
1070
     0
  0
VISUALSTYLE
  5
F780
102
{ACAD_REACTORS
330
F774
102
}
330
F774
100
AcDbVisualStyle
  2
Brighten
 70
    12
 71
     2
 72
     2
 73
     0
 90
        0
 40
-0.6
 41
-30.0
 62
     5
 63
     7
 74
     1
 91
        4
 64
     7
 65
   257
 75
     1
175
     1
 42
1.0
 92
        8
 66
     7
 43
1.0
 76
     1
 77
     6
 78
     2
 67
     7
 79
     5
170
     0
171
     0
290
     0
174
     0
 93
        1
 44
50.0
173
     0
291
     1
 45
0.0
1001
ACAD
1000
AcDbSavedByObjectVersion
1070
     0
  0
VISUALSTYLE
  5
F784
102
{ACAD_REACTORS
330
F774
102
}
330
F774
100
AcDbVisualStyle
  2
ColorChange
 70
    16
 71
     2
 72
     2
 73
     3
 90
        0
 40
-0.6
 41
-30.0
 62
     5
 63
     8
 74
     1
 91
        4
 64
     7
 65
   257
 75
     1
175
     1
 42
1.0
 92
        8
 66
     8
 43
1.0
 76
     1
 77
     6
 78
     2
 67
     7
 79
     5
170
     0
171
     0
290
     0
174
     0
 93
        1
 44
0.0
173
     0
291
     1
 45
0.0
1001
ACAD
1000
AcDbSavedByObjectVersion
1070
     0
  0
VISUALSTYLE
  5
11DEE
102
{ACAD_REACTORS
330
F774
102
}
330
F774
100
AcDbVisualStyle
  2
Conceptual
 70
     9
 71
     3
 72
     2
 73
     0
 90
        0
 40
-0.6
 41
-30.0
 62
     5
 63
     7
 74
     2
 91
        2
 64
     7
 65
   257
 75
     1
175
     1
 42
40.0
 92
        8
 66
     7
 43
1.0
 76
     1
 77
     6
 78
     2
 67
     7
 79
     3
170
     0
171
     0
290
     0
174
     0
 93
        1
 44
0.0
173
     0
291
     0
 45
0.0
1001
ACAD
1000
AcDbSavedByObjectVersion
1070
     0
  0
VISUALSTYLE
  5
F77F
102
{ACAD_REACTORS
330
F774
102
}
330
F774
100
AcDbVisualStyle
  2
Dim
 70
    11
 71
     2
 72
     2
 73
     0
 90
        0
 40
-0.6
 41
-30.0
 62
     5
 63
     7
 74
     1
 91
        4
 64
     7
 65
   257
 75
     1
175
     1
 42
1.0
 92
        8
 66
     7
 43
1.0
 76
     1
 77
     6
 78
     2
 67
     7
 79
     5
170
     0
171
     0
290
     0
174
     0
 93
        1
 44
-50.0
173
     0
291
     1
 45
0.0
1001
ACAD
1000
AcDbSavedByObjectVersion
1070
     0
  0
VISUALSTYLE
  5
F783
102
{ACAD_REACTORS
330
F774
102
}
330
F774
100
AcDbVisualStyle
  2
Facepattern
 70
    15
 71
     2
 72
     2
 73
     0
 90
        0
 40
-0.6
 41
-30.0
 62
     5
 63
     7
 74
     1
 91
        4
 64
     7
 65
   257
 75
     1
175
     1
 42
1.0
 92
        8
 66
     7
 43
1.0
 76
     1
 77
     6
 78
     2
 67
     7
 79
     5
170
     0
171
     0
290
     0
174
     0
 93
        1
 44
0.0
173
     0
291
     1
 45
0.0
1001
ACAD
1000
AcDbSavedByObjectVersion
1070
     0
  0
VISUALSTYLE
  5
F775
102
{ACAD_REACTORS
330
F774
102
}
330
F774
100
AcDbVisualStyle
  2
Flat
 70
     0
 71
     2
 72
     1
 73
     1
 90
        2
 40
-0.6
 41
30.0
 62
     5
 63
     7
 74
     0
 91
        4
 64
     7
 65
   257
 75
     1
175
     1
 42
1.0
 92
        8
 66
     7
 43
1.0
 76
     1
 77
     6
 78
     2
 67
     7
 79
     5
170
     0
171
     0
290
     0
174
     0
 93
       13
 44
0.0
173
     0
291
     1
 45
0.0
1001
ACAD
1000
AcDbSavedByObjectVersion
1070
     0
  0
VISUALSTYLE
  5
F776
102
{ACAD_REACTORS
330
F774
102
}
330
F774
100
AcDbVisualStyle
  2
FlatWithEdges
 70
     1
 71
     2
 72
     1
 73
     1
 90
        2
 40
-0.6
 41
30.0
 62
     5
 63
     7
 74
     1
 91
        4
 64
     7
 65
   257
 75
     1
175
     1
 42
1.0
 92
        0
 66
   257
 43
1.0
 76
     1
 77
     6
 78
     2
 67
     7
 79
     5
170
     0
171
     0
290
     0
174
     0
 93
       13
 44
0.0
173
     0
291
     1
 45
0.0
1001
ACAD
1000
AcDbSavedByObjectVersion
1070
     0
  0
VISUALSTYLE
  5
F777
102
{ACAD_REACTORS
330
F774
102
}
330
F774
100
AcDbVisualStyle
  2
Gouraud
 70
     2
 71
     2
 72
     2
 73
     1
 90
        2
 40
-0.6
 41
30.0
 62
     5
 63
     7
 74
     0
 91
        4
 64
     7
 65
   257
 75
     1
175
     1
 42
1.0
 92
        0
 66
     7
 43
1.0
 76
     1
 77
     6
 78
     2
 67
     7
 79
     5
170
     0
171
     0
290
     0
174
     0
 93
       13
 44
0.0
173
     0
291
     1
 45
0.0
1001
ACAD
1000
AcDbSavedByObjectVersion
1070
     0
  0
VISUALSTYLE
  5
F778
102
{ACAD_REACTORS
330
F774
102
}
330
F774
100
AcDbVisualStyle
  2
GouraudWithEdges
 70
     3
 71
     2
 72
     2
 73
     1
 90
        2
 40
-0.6
 41
30.0
 62
     5
 63
     7
 74
     1
 91
        4
 64
     7
 65
   257
 75
     1
175
     1
 42
1.0
 92
        0
 66
   257
 43
1.0
 76
     1
 77
     6
 78
     2
 67
     7
 79
     5
170
     0
171
     0
290
     0
174
     0
 93
       13
 44
0.0
173
     0
291
     1
 45
0.0
1001
ACAD
1000
AcDbSavedByObjectVersion
1070
     0
  0
VISUALSTYLE
  5
F782
102
{ACAD_REACTORS
330
F774
102
}
330
F774
100
AcDbVisualStyle
  2
Linepattern
 70
    14
 71
     2
 72
     2
 73
     0
 90
        0
 40
-0.6
 41
-30.0
 62
     5
 63
     7
 74
     1
 91
        4
 64
     7
 65
   257
 75
     7
175
     7
 42
1.0
 92
        8
 66
     7
 43
1.0
 76
     1
 77
     6
 78
     2
 67
     7
 79
     5
170
     0
171
     0
290
     0
174
     0
 93
        1
 44
0.0
173
     0
291
     1
 45
0.0
1001
ACAD
1000
AcDbSavedByObjectVersion
1070
     0
  0
VISUALSTYLE
  5
F77E
102
{ACAD_REACTORS
330
F774
102
}
330
F774
100
AcDbVisualStyle
  2
Realistic
 70
     8
 71
     2
 72
     2
 73
     0
 90
        0
 40
-0.6
 41
-30.0
 62
     5
 63
     7
 74
     1
 91
        0
 64
     7
 65
   257
 75
     1
175
     1
 42
1.0
 92
        8
 66
     8
 43
1.0
 76
     1
 77
     6
 78
     2
 67
     7
 79
     5
170
     0
171
     0
290
     0
174
     0
 93
       13
 44
0.0
173
     0
291
     0
 45
0.0
1001
ACAD
1000
AcDbSavedByObjectVersion
1070
     0
  0
VISUALSTYLE
  5
F781
102
{ACAD_REACTORS
330
F774
102
}
330
F774
100
AcDbVisualStyle
  2
Thicken
 70
    13
 71
     2
 72
     2
 73
     0
 90
        0
 40
-0.6
 41
-30.0
 62
     5
 63
     7
 74
     1
 91
        4
 64
     7
 65
   257
 75
     1
175
     1
 42
1.0
 92
       12
 66
     7
 43
1.0
 76
     1
 77
     6
 78
     2
 67
     7
 79
     5
170
     0
171
     0
290
     0
174
     0
 93
        1
 44
0.0
173
     0
291
     1
 45
0.0
1001
ACAD
1000
AcDbSavedByObjectVersion
1070
     0
  0
DICTIONARY
  5
F1AB
102
{ACAD_REACTORS
330
F1AA
102
}
330
F1AA
100
AcDbDictionary
280
     1
281
     1
  3
Standards
360
F1AC
  0
DICTIONARYVAR
  5
11E41
102
{ACAD_REACTORS
330
2C
102
}
330
2C
100
DictionaryVariables
280
     0
  1
1:100
  0
DICTIONARYVAR
  5
11E40
102
{ACAD_REACTORS
330
2C
102
}
330
2C
100
DictionaryVariables
280
     0
  1
STANDARD
  0
DICTIONARYVAR
  5
6460
102
{ACAD_REACTORS
330
2C
102
}
330
2C
100
DictionaryVariables
280
     0
  1
STANDARD
  0
DICTIONARYVAR
  5
2E
102
{ACAD_REACTORS
330
2C
102
}
330
2C
100
DictionaryVariables
280
     0
  1
2
  0
DICTIONARYVAR
  5
2D
102
{ACAD_REACTORS
330
2C
102
}
330
2C
100
DictionaryVariables
280
     0
  1
1
  0
DICTIONARYVAR
  5
11E43
102
{ACAD_REACTORS
330
2C
102
}
330
2C
100
DictionaryVariables
280
     0
  1
2
  0
DICTIONARYVAR
  5
11E44
102
{ACAD_REACTORS
330
2C
102
}
330
2C
100
DictionaryVariables
280
     0
  1
0
  0
DICTIONARYVAR
  5
11E42
102
{ACAD_REACTORS
330
2C
102
}
330
2C
100
DictionaryVariables
280
     0
  1
96
  0
ACAD_PROXY_OBJECT
  5
615C
102
{ACAD_REACTORS
330
30
102
}
330
30
100
AcDbProxyObject
 90
      499
 91
      836
 95
  4980761
 70
     0
 93
       95
310
4A34D128929A8942518942C9
340
615D
 94
        0
1001
ACAD
1000
AcRTDxfName
1000
ABAD_DB_DISPREP_ROOF_HATCH
  0
ACAD_PROXY_OBJECT
  5
615E
102
{ACAD_REACTORS
330
30
102
}
330
30
100
AcDbProxyObject
 90
      499
 91
      838
 95
  4980761
 70
     0
 93
      105
310
4A34D128929A894251894250B27F
340
615F
 94
        0
1001
ACAD
1000
AcRTDxfName
1000
ABAD_DB_DISPREP_ROOFSLAB_HATCH
  0
ACAD_PROXY_OBJECT
  5
6160
102
{ACAD_REACTORS
330
30
102
}
330
30
100
AcDbProxyObject
 90
      499
 91
      839
 95
  4980761
 70
     0
 93
       85
310
4A34D128929A8942518B27
340
6161
 94
        0
1001
ACAD
1000
AcRTDxfName
1000
ABAD_DB_WINROOF_DISPREP
  0
ACAD_PROXY_OBJECT
  5
6162
102
{ACAD_REACTORS
330
30
102
}
330
30
100
AcDbProxyObject
 90
      499
 91
      841
 95
  4980761
 70
     0
 93
       85
310
4A34D128929A8942518B27
340
6163
 94
        0
1001
ACAD
1000
AcRTDxfName
1000
ABAD_DB_WINROOF_DISPREP_DRAWINGROOF
  0
ACAD_PROXY_OBJECT
  5
6164
102
{ACAD_REACTORS
330
30
102
}
330
30
100
AcDbProxyObject
 90
      499
 91
      843
 95
  4980761
 70
     0
 93
       85
310
4A34D128929A8942518B27
340
6166
 94
        0
1001
ACAD
1000
AcRTDxfName
1000
ABAD_DB_WINROOF_DISPREP_PLAN
  0
ACAD_PROXY_OBJECT
  5
6167
102
{ACAD_REACTORS
330
30
102
}
330
30
100
AcDbProxyObject
 90
      499
 91
      845
 95
  4980761
 70
     0
 93
      115
310
4A34D128929A894251894250942C9F
340
6168
 94
        0
1001
ACAD
1000
AcRTDxfName
1000
ABAD_WIN_PANELS_DISPREP
  0
ACAD_PROXY_OBJECT
  5
6169
102
{ACAD_REACTORS
330
30
102
}
330
30
100
AcDbProxyObject
 90
      499
 91
      847
 95
  4980761
 70
     0
 93
      125
310
4A34D128929A89425189425094250B27
340
616A
 94
        0
1001
ACAD
1000
AcRTDxfName
1000
ABAD_WIN_PANELS_ELEVATION_DISPREP
  0
ACAD_PROXY_OBJECT
  5
616B
102
{ACAD_REACTORS
330
30
102
}
330
30
100
AcDbProxyObject
 90
      499
 91
      848
 95
  4980761
 70
     0
 93
      115
310
4A34D128929A894251894250942C9F
340
616C
 94
        0
1001
ACAD
1000
AcRTDxfName
1000
ABAD_DOOR_DISP_REP
  0
ACAD_PROXY_OBJECT
  5
6170
102
{ACAD_REACTORS
330
30
102
}
330
30
100
AcDbProxyObject
 90
      499
 91
      852
 95
  4980761
 70
     0
 93
       85
310
4A34D128929A8942518B27
340
6171
 94
        0
1001
ACAD
1000
AcRTDxfName
1000
ABAD_ISOLATION_DISPREP
  0
ACAD_PROXY_OBJECT
  5
6172
102
{ACAD_REACTORS
330
30
102
}
330
30
100
AcDbProxyObject
 90
      499
 91
      854
 95
  4980761
 70
     0
 93
       85
310
4A34D128929A8942518B27
340
6173
 94
        0
1001
ACAD
1000
AcRTDxfName
1000
ABAD_PLATEOPENING_DISPREP_DESC
  0
ACAD_PROXY_OBJECT
  5
6174
102
{ACAD_REACTORS
330
30
102
}
330
30
100
AcDbProxyObject
 90
      499
 91
      856
 95
  4980761
 70
     0
 93
       85
310
4A34D128929A8942518B27
340
6175
 94
        0
1001
ACAD
1000
AcRTDxfName
1000
ABAD_PLATEOPENING_DISPREP_MODEL
  0
ACAD_PROXY_OBJECT
  5
6176
102
{ACAD_REACTORS
330
30
102
}
330
30
100
AcDbProxyObject
 90
      499
 91
      858
 95
  4980761
 70
     0
 93
       85
310
4A34D128929A8942518B27
340
6177
 94
        0
1001
ACAD
1000
AcRTDxfName
1000
ABAD_PLATEOPENING_DISPREP_PLAN
  0
ACAD_PROXY_OBJECT
  5
6178
102
{ACAD_REACTORS
330
30
102
}
330
30
100
AcDbProxyObject
 90
      499
 91
      860
 95
  4980761
 70
     0
 93
       95
310
4A34D128929A8942518B22C9
340
6179
 94
        0
1001
ACAD
1000
AcRTDxfName
1000
ABAD_PLATEOPENING_DISPREP_SIMPLE
  0
ACAD_PROXY_OBJECT
  5
617C
102
{ACAD_REACTORS
330
30
102
}
330
30
100
AcDbProxyObject
 90
      499
 91
      864
 95
  4980761
 70
     0
 93
       95
310
4A34D128929A8942518B22C9
340
617D
 94
        0
1001
ACAD
1000
AcRTDxfName
1000
ABAD_PLATE_DISPREPCEILING
  0
ACAD_PROXY_OBJECT
  5
617E
102
{ACAD_REACTORS
330
30
102
}
330
30
100
AcDbProxyObject
 90
      499
 91
      865
 95
  4980761
 70
     0
 93
       85
310
4A34D128929A8942518B27
340
617F
 94
        0
1001
ACAD
1000
AcRTDxfName
1000
ABAD_PLATE_DISPREPMODEL
  0
ACAD_PROXY_OBJECT
  5
617A
102
{ACAD_REACTORS
330
30
102
}
330
30
100
AcDbProxyObject
 90
      499
 91
      862
 95
  4980761
 70
     0
 93
       85
310
4A34D128929A8942518B27
340
617B
 94
        0
1001
ACAD
1000
AcRTDxfName
1000
ABAD_PLATE_DISPREPPLAN
  0
ACAD_PROXY_OBJECT
  5
6180
102
{ACAD_REACTORS
330
30
102
}
330
30
100
AcDbProxyObject
 90
      499
 91
      867
 95
  4980761
 70
     0
 93
      105
310
4A34D128929A894251894250B27F
340
6181
 94
        0
1001
ACAD
1000
AcRTDxfName
1000
ABAD_ROOF_OUTLINE_DISPREP
  0
ACAD_PROXY_OBJECT
  5
6182
102
{ACAD_REACTORS
330
30
102
}
330
30
100
AcDbProxyObject
 90
      499
 91
      869
 95
  4980761
 70
     0
 93
      105
310
4A34D128929A894251894250B27F
340
6183
 94
        0
1001
ACAD
1000
AcRTDxfName
1000
ABAD_ROOF_PLANLOFT_DISPREP
  0
ACAD_PROXY_OBJECT
  5
6184
102
{ACAD_REACTORS
330
30
102
}
330
30
100
AcDbProxyObject
 90
      499
 91
      871
 95
  4980761
 70
     0
 93
      105
310
4A34D128929A894251894250B27F
340
6185
 94
        0
1001
ACAD
1000
AcRTDxfName
1000
ABAD_STAIR_DESC_DISPREP
  0
ACAD_PROXY_OBJECT
  5
6186
102
{ACAD_REACTORS
330
30
102
}
330
30
100
AcDbProxyObject
 90
      499
 91
      873
 95
  4980761
 70
     0
 93
      105
310
4A34D128929A894251894250B27F
340
6187
 94
        0
1001
ACAD
1000
AcRTDxfName
1000
ABAD_STAIR_DISP_REP
  0
ACAD_PROXY_OBJECT
  5
616D
102
{ACAD_REACTORS
330
30
102
}
330
30
100
AcDbProxyObject
 90
      499
 91
      850
 95
  4980761
 70
     0
 93
      115
310
4A34D128929A894251894250942C9F
340
616E
 94
        0
1001
ACAD
1000
AcRTDxfName
1000
ABAD_DOOR_THRESHOLD_DISP_REP
  0
ACAD_PROXY_OBJECT
  5
6188
102
{ACAD_REACTORS
330
30
102
}
330
30
100
AcDbProxyObject
 90
      499
 91
      875
 95
  4980761
 70
     0
 93
      105
310
4A34D128929A894251894250B27F
340
0
 94
        0
1001
ACAD
1000
AcRTDxfName
1000
ABAD_WALL_DISP_REP
  0
ACAD_PROXY_OBJECT
  5
618A
102
{ACAD_REACTORS
330
30
102
}
330
30
100
AcDbProxyObject
 90
      499
 91
      876
 95
  4980761
 70
     0
 93
      115
310
4A34D128929A894251894250942C9F
340
618B
 94
        0
1001
ACAD
1000
AcRTDxfName
1000
ABAD_WINDOW_DISP_REP
  0
ACAD_PROXY_OBJECT
  5
616A
102
{ACAD_REACTORS
330
32
102
}
330
32
100
AcDbProxyObject
 90
      499
 91
      846
 95
  4980761
 70
     0
 93
      192
310
4A34D128929A894250B22512512518000000C1003FBFD40652
340
10
340
14
340
0
 94
        0
1001
ACAD
1000
AcRTDxfName
1000
ABAD_WIN_PANELS_DISPPROP
  0
ACAD_PROXY_OBJECT
  5
617D
102
{ACAD_REACTORS
330
32
102
}
330
32
100
AcDbProxyObject
 90
      499
 91
      863
 95
  4980761
 70
     0
 93
      480
310
4A34D128929A894250B20000000000000B28094494494600000030400FEFF501928928928C00000060801FDFEA032512512518000000C1003FBFD40600
340
10
340
14
340
0
340
10
340
6165
340
0
340
10
340
14
340
0
 94
        0
1001
ACAD
1000
AcRTDxfName
1000
ABAD_PLATE_DISPPROPS_PLAN
  0
ACAD_PROXY_OBJECT
  5
617F
102
{ACAD_REACTORS
330
32
102
}
330
32
100
AcDbProxyObject
 90
      499
 91
      866
 95
  4980761
 70
     0
 93
      303
310
4A34D128929A894250B22512512518000000C1003FBFD4064A24A24A3000000182007F7FA80D
340
10
340
14
340
0
340
10
340
14
340
0
 94
        0
1001
ACAD
1000
AcRTDxfName
1000
ABAD_PLATE_DISPPROPS_BASE
  0
ACAD_PROXY_OBJECT
  5
6171
102
{ACAD_REACTORS
330
32
102
}
330
32
100
AcDbProxyObject
 90
      499
 91
      853
 95
  4980761
 70
     0
 93
      424
310
4A34D128929A894250B220294494494600000030400FEFF501928928928C00000060801FDFEA032512512518000000C1003FBFD40600
340
10
340
14
340
0
340
10
340
14
340
0
340
10
340
14
340
0
 94
        0
1001
ACAD
1000
AcRTDxfName
1000
ABAD_ISOLATION_DISPPROPS
  0
ACAD_PROXY_OBJECT
  5
6163
102
{ACAD_REACTORS
330
32
102
}
330
32
100
AcDbProxyObject
 90
      499
 91
      842
 95
  4980761
 70
     0
 93
      605
310
4A34D128929A894250B225125082684A512512518000000C1003FBFD406D094A24A24A3000000182007F7FA80DA1294494494600000030400FEFF501B42528928928C00800061801FDFEA037
340
10
340
14
340
0
340
10
340
26E
340
0
340
10
340
14
340
0
340
10
340
14
340
0
 94
        0
1001
ACAD
1000
AcRTDxfName
1000
AB_AD_DISP_PROPS_WINROOF_DRAWINGROOF
  0
ACAD_PROXY_OBJECT
  5
6161
102
{ACAD_REACTORS
330
32
102
}
330
32
100
AcDbProxyObject
 90
      499
 91
      840
 95
  4980761
 70
     0
 93
      605
310
4A34D128929A894250B225125082684A512512518000000C1003FBFD406D094A24A24A3000000182007F7FA80DA1294494494600000030400FEFF501B42528928928C00800061801FDFEA037
340
10
340
14
340
0
340
10
340
14
340
0
340
10
340
14
340
0
340
10
340
14
340
0
 94
        0
1001
ACAD
1000
AcRTDxfName
1000
AB_AD_DISP_PROPS_WINROOF
  0
ACAD_PROXY_OBJECT
  5
6179
102
{ACAD_REACTORS
330
32
102
}
330
32
100
AcDbProxyObject
 90
      499
 91
      861
 95
  4980761
 70
     0
 93
      646
310
4A34D128929A894250B22512512518000000C1003FBFD4064A24A24A3000000182007F7FA80C94494494600000030400FEFF501928928928C00000060801FDFEA032512512518000000C1003FBFD406593
340
10
340
14
340
0
340
10
340
6165
340
0
340
10
340
14
340
0
340
10
340
14
340
0
340
10
340
6165
340
0
 94
        0
1001
ACAD
1000
AcRTDxfName
1000
ABAD_PLATEOPENING_DISPPROPS_SIMPLE
  0
ACAD_PROXY_OBJECT
  5
618B
102
{ACAD_REACTORS
330
32
102
}
330
32
100
AcDbProxyObject
 90
      499
 91
      877
 95
  4980761
 70
     0
 93
      192
310
4A34D128929A894250B22512512518000000C1003FBFD40600
340
10
340
14
340
0
 94
        0
1001
ACAD
1000
AcRTDxfName
1000
ABAD_WINDOW_DISP_PROP
  0
ACAD_PROXY_OBJECT
  5
616C
102
{ACAD_REACTORS
330
32
102
}
330
32
100
AcDbProxyObject
 90
      499
 91
      849
 95
  4980761
 70
     0
 93
      303
310
4A34D128929A894250B22512512518000000C1003FBFD4064A24A24A3000000182007F7FA80D
340
10
340
14
340
0
340
10
340
14
340
0
 94
        0
1001
ACAD
1000
AcRTDxfName
1000
ABAD_DOOR_DISP_PROP
  0
ACAD_PROXY_OBJECT
  5
616E
102
{ACAD_REACTORS
330
32
102
}
330
32
100
AcDbProxyObject
 90
      499
 91
      851
 95
  4980761
 70
     0
 93
      303
310
4A34D128929A894250B22512512518000000C1003FBFD4064A24A24A3000000182007F7FA80D
340
10
340
616F
340
0
340
10
340
14
340
0
 94
        0
1001
ACAD
1000
AcRTDxfName
1000
ABAD_DOOR_THRESHOLD_DISP_PROP
  0
ACAD_PROXY_OBJECT
  5
615D
102
{ACAD_REACTORS
330
32
102
}
330
32
100
AcDbProxyObject
 90
      499
 91
      837
 95
  4980761
 70
     0
 93
      473
310
4A34D128929A8942508F2512512518000000C1003FBFD4064A24A24A3000000182007F7FA80C942028420A916A929A425A2B0000000000000394057F
340
10
340
14
340
0
340
10
340
14
340
0
 94
        0
1001
ACAD
1000
AcRTDxfName
1000
ABAD_DB_DISPPROP_ROOF_HATCH
  0
ACAD_PROXY_OBJECT
  5
6187
102
{ACAD_REACTORS
330
32
102
}
330
32
100
AcDbProxyObject
 90
      499
 91
      874
 95
  4980761
 70
     0
 93
      192
310
4A34D128929A894250B22512512518000000C1003FBFD40600
340
10
340
14
340
0
 94
        0
1001
ACAD
1000
AcRTDxfName
1000
ABAD_STAIR_DISP_PROP
  0
ACAD_PROXY_OBJECT
  5
6166
102
{ACAD_REACTORS
330
32
102
}
330
32
100
AcDbProxyObject
 90
      499
 91
      844
 95
  4980761
 70
     0
 93
      482
310
4A34D128929A894250B225125081E84A512512518000000C1003FBFD406D094A24A24A3000000182007F7FA80DA1294494494600400030C00FEFF501BF
340
10
340
6165
340
0
340
10
340
6165
340
0
340
10
340
14
340
0
 94
        0
1001
ACAD
1000
AcRTDxfName
1000
AB_AD_DISP_PROPS_WINROOF_PLAN
  0
ACAD_PROXY_OBJECT
  5
6181
102
{ACAD_REACTORS
330
32
102
}
330
32
100
AcDbProxyObject
 90
      499
 91
      868
 95
  4980761
 70
     0
 93
      303
310
4A34D128929A894250B22512512518000000C1003FBFD4064A24A24A3000000182007F7FA80D
340
10
340
14
340
0
340
10
340
14
340
0
 94
        0
1001
ACAD
1000
AcRTDxfName
1000
ABAD_ROOF_OUTLINE_DISP_PROP
  0
ACAD_PROXY_OBJECT
  5
6185
102
{ACAD_REACTORS
330
32
102
}
330
32
100
AcDbProxyObject
 90
      499
 91
      872
 95
  4980761
 70
     0
 93
      303
310
4A34D128929A894250B22512512518000000C1003FBFD4064A24A24A3000000182007F7FA80D
340
10
340
14
340
0
340
10
340
14
340
0
 94
        0
1001
ACAD
1000
AcRTDxfName
1000
ADCG_STAIR_DESC_DISPROP
  0
ACAD_PROXY_OBJECT
  5
6183
102
{ACAD_REACTORS
330
32
102
}
330
32
100
AcDbProxyObject
 90
      499
 91
      870
 95
  4980761
 70
     0
 93
      525
310
4A34D128929A894250B22512512518000000C1003FBFD4064A24A24A3000000182007F7FA80C94494494600000030400FEFF501928928928C00000060801FDFEA037
340
10
340
14
340
0
340
10
340
14
340
0
340
10
340
14
340
0
340
10
340
14
340
0
 94
        0
1001
ACAD
1000
AcRTDxfName
1000
ABAD_ROOF_PLANLOFT_DISPROP
  0
ACAD_PROXY_OBJECT
  5
6175
102
{ACAD_REACTORS
330
32
102
}
330
32
100
AcDbProxyObject
 90
      499
 91
      857
 95
  4980761
 70
     0
 93
      192
310
4A34D128929A894250B22512512518000000C1003FBFD40600
340
10
340
14
340
0
 94
        0
1001
ACAD
1000
AcRTDxfName
1000
ABAD_PLATEOPENING_DISPPROPS_MODEL
  0
ACAD_PROXY_OBJECT
  5
6168
102
{ACAD_REACTORS
330
32
102
}
330
32
100
AcDbProxyObject
 90
      499
 91
      846
 95
  4980761
 70
     0
 93
      192
310
4A34D128929A894250B22512512518000000C1003FBFD40652
340
10
340
14
340
0
 94
        0
1001
ACAD
1000
AcRTDxfName
1000
ABAD_WIN_PANELS_DISPPROP
  0
ACAD_PROXY_OBJECT
  5
615F
102
{ACAD_REACTORS
330
32
102
}
330
32
100
AcDbProxyObject
 90
      499
 91
      837
 95
  4980761
 70
     0
 93
      473
310
4A34D128929A8942508F2512512518000000C1003FBFD4064A24A24A3000000182007F7FA80C942028420A916A929A425A2B0000000000000394057F
340
10
340
14
340
0
340
10
340
14
340
0
 94
        0
1001
ACAD
1000
AcRTDxfName
1000
ABAD_DB_DISPPROP_ROOF_HATCH
  0
ACAD_PROXY_OBJECT
  5
617B
102
{ACAD_REACTORS
330
32
102
}
330
32
100
AcDbProxyObject
 90
      499
 91
      863
 95
  4980761
 70
     0
 93
      480
310
4A34D128929A894250B20000000000000B28094494494600000030400FEFF501928928928C00000060801FDFEA032512512518000000C1003FBFD40600
340
10
340
14
340
0
340
10
340
6165
340
0
340
10
340
14
340
0
 94
        0
1001
ACAD
1000
AcRTDxfName
1000
ABAD_PLATE_DISPPROPS_PLAN
  0
ACAD_PROXY_OBJECT
  5
6177
102
{ACAD_REACTORS
330
32
102
}
330
32
100
AcDbProxyObject
 90
      499
 91
      859
 95
  4980761
 70
     0
 93
      636
310
4A34D128929A894250B22512512518000000C1003FBFD4064A24A24A3000000182007F7FA80C94494494600000030400FEFF501928928928C00000060801FDFEA032512512518000000C1003FBFD406F
340
10
340
14
340
0
340
10
340
6165
340
0
340
10
340
14
340
0
340
10
340
14
340
0
340
10
340
6165
340
0
 94
        0
1001
ACAD
1000
AcRTDxfName
1000
ABAD_PLATEOPENING_DISPPROPS_PLAN
  0
ACAD_PROXY_OBJECT
  5
6173
102
{ACAD_REACTORS
330
32
102
}
330
32
100
AcDbProxyObject
 90
      499
 91
      855
 95
  4980761
 70
     0
 93
      264
310
4A34D128929A894250B22512512518000000C1003FBFD40680000000000000440A00
340
10
340
14
340
0
340
1B8
 94
        0
1001
ACAD
1000
AcRTDxfName
1000
ABAD_PLATEOPENING_DISPPROPS_DESC
  0
XRECORD
  5
11E2D
102
{ACAD_REACTORS
330
11E2B
102
}
330
11E2B
100
AcDbXrecord
280
     1
  0
XRECORD
  5
11E2E
102
{ACAD_REACTORS
330
11E2B
102
}
330
11E2B
100
AcDbXrecord
280
     1
330
643F
330
8F0C
330
11A94
330
11A95
330
11A9B
330
11A9C
330
11AA4
330
11AA5
330
11AD2
330
11AD3
330
11AD9
330
11ADA
330
11AE0
330
11AE1
330
11AAB
330
11AAC
330
11AE7
330
11AE8
330
11BE2
330
11BE3
330
11BE9
330
11BEA
330
11BF2
330
11BF3
330
11BFB
330
11BFC
330
11C02
330
11C03
330
11C09
330
11C0A
330
11C10
330
11C11
330
11C17
330
11C18
  0
XRECORD
  5
11E2C
102
{ACAD_REACTORS
330
11E2B
102
}
330
11E2B
100
AcDbXrecord
280
     1
  0
XRECORD
  5
90C1
102
{ACAD_REACTORS
330
90C0
102
}
330
90C0
100
AcDbXrecord
280
     1
 40
0.000001
  0
XRECORD
  5
90C4
102
{ACAD_REACTORS
330
90C0
102
}
330
90C0
100
AcDbXrecord
280
     1
 70
     0
  0
XRECORD
  5
90C3
102
{ACAD_REACTORS
330
90C0
102
}
330
90C0
100
AcDbXrecord
280
     1
 70
     0
  0
XRECORD
  5
90C2
102
{ACAD_REACTORS
330
90C0
102
}
330
90C0
100
AcDbXrecord
280
     1
 70
     0
  0
OBJECT_PTR
  5
8236
102
{ACAD_REACTORS
330
8234
102
}
330
8234
1001
DCO15
1000
jet_dbsamples..."posadzki do zestawienia pomieszczen"(_posadzki_do_zestawienia_pomieszczen_Romans17)
1000
nazwa_pos
1040
1.0
1040
1.0
1040
0.0
1040
0.0
1040
0.0
1040
0.0
1040
0.0
1040
17.0
1071
        0
1071
      256
1071
        7
1071
        5
1071
        1
1000

1000
ByLayer
1000
#(nazwa_pos)
  0
OBJECT_PTR
  5
8235
102
{ACAD_REACTORS
330
8234
102
}
330
8234
1001
DCO15
1000
jet_dbsamples...pomieszczenia(pomieszczenia-Romans17)
1000
nazwa
1040
1.0
1040
1.0
1040
0.0
1040
0.0
1040
0.0
1040
0.0
1040
0.0
1040
17.0
1071
        0
1071
      256
1071
        7
1071
        5
1071
        1
1000

1000
ByLayer
1000
#(nazwa)
  0
OBJECT_PTR
  5
8233
102
{ACAD_REACTORS
330
8231
102
}
330
8231
1001
DCO15
1000
jet_dbsamples..."posadzki do zestawienia pomieszczen"(_posadzki_do_zestawienia_pomieszczen_Link1)
1000
IDENTYFIKATOR
1000

1000

1070
     4
1070
     0
1070
     0
1070
     0
1070
  1024
  0
OBJECT_PTR
  5
8232
102
{ACAD_REACTORS
330
8231
102
}
330
8231
1001
DCO15
1000
jet_dbsamples...pomieszczenia(pomieszczeniaLink1)
1000
IDENTYFIKATOR
1000

1000

1070
     4
1070
     0
1070
     0
1070
     0
1070
  1024
  0
XRECORD
  5
921
102
{ACAD_REACTORS
330
920
102
}
330
920
100
AcDbXrecord
280
     1
  1
Title Layers
  1
*Anno*
  1
*
  1
*
 70
     0
  1
*
  1
*
  0
XRECORD
  5
922
102
{ACAD_REACTORS
330
920
102
}
330
920
100
AcDbXrecord
280
     1
  1
XREF Insert Layers
  1
*XREF*
  1
*
  1
*
 70
     0
  1
*
  1
*
  0
SPATIAL_INDEX
  5
11DD1
102
{ACAD_REACTORS
330
11DD0
102
}
330
11DD0
100
AcDbIndex
 40
2455065.412736898
100
AcDbSpatialIndex
 40
213732.1442790358
 40
-2389.819296698044
 40
226948.3972389995
 40
-4118.745729407161
 40
7670397847692935
 40
-0.0000001248248492
 90
        0
 90
      496
310
01FF0000FFFF0000FFFF0000FFFF000001080000010805000010FD83020002008109000200930B005F000000020201090000010801000006ABA10400020000000202010A000001090400000CF6AF04000C0004000400009300000202010B000001084A00009CA9A104000100B50E0001000100010001000100010001000100
310
010001000100050001000100010002000100020001000100010001000100010001000100010001000200010001000200010001000200010001000100010001000100010001000100010001000100E50100BE01000200210014001800180014001400140099010001000100140001000100020001000A000600010001000100
310
0100000000000201092F000062EDB5040001000100010001000100010001000100040001000100010001000100010001000100010001000100010001000100010001000100010004000300010001000100010001000100010001000200010001000100010006000100010002000001000002010A01000006A6A104000C0000
310
0002011801000006A9B604000C00000002011A01000006A7A104000C000000020201180000011801000006AFA104000C0000000202011A0000011A01000006ADA104000C000000020201280000012901000006ACA104000C000000020201290000012901000006AEA104000C00000002020200
  1
END ACDBSPATIALINDEX BINARY DATA
  0
DICTIONARY
  5
11E49
330
22
100
AcDbDictionary
280
     1
281
     1
  3
ACAD_XREC_ROUNDTRIP
360
11E4A
  0
DICTIONARY
  5
11DB9
330
1FE
100
AcDbDictionary
280
     1
281
     1
  3
ACAD_XREC_ROUNDTRIP
360
11E4D
  3
ADSK_XREC_LAYOUTTHUMBNAIL
360
11DBA
  0
DICTIONARY
  5
11E55
330
F772
100
AcDbDictionary
280
     1
281
     1
  3
ACAD_XREC_ROUNDTRIP
360
11E56
  0
DICTIONARY
  5
11E53
330
F771
100
AcDbDictionary
280
     1
281
     1
  3
ACAD_XREC_ROUNDTRIP
360
11E54
  0
DICTIONARY
  5
11E57
330
F773
100
AcDbDictionary
280
     1
281
     1
  3
ACAD_XREC_ROUNDTRIP
360
11E58
  0
DICTIONARY
  5
11E45
330
6417
100
AcDbDictionary
280
     1
281
     1
  3
ACAD_ROUNDTRIP_2008_TABLESTYLE_CELLSTYLEMAP
360
11E46
  3
ACAD_XREC_ROUNDTRIP
360
11E52
  0
BINRECORD
  5
F1AC
102
{ACAD_REACTORS
330
F1AB
102
}
330
F1AB
100
AcAecBinRecord
 90
        0
 91
    10761
 70
     0
310
01000F41494120326E642045646974696F6E0500FFFF01001C004163416563556B4C6179657244657363726970746976654669656C64154469736369706C696E652044657369676E61746F720102000000007B33363735454146100100002100000070BA406CD0EA76040B000015000144020000000750726F636573730E00
310
0144020000001250726F636573732044656D6F6C6974696F6E0000000000000145020000001250726F6365737320456C656374726963616C0000000000000156020000000E50726F636573732056616375756D0000000000000157020000000E50726F63657373205761746572730000000000000147020000000D50726F63
310
6573732047617365730000000000000158020000000F50726F636573732045786861757374000000000000014F020000000B50726F63657373204F696C0000000000000150020000000E50726F6365737320506970696E670000000000000151020000001150726F636573732045717569706D656E74000000000000014102
310
0000000C50726F6365737320416972730000000000000152020000001950726F6365737320447261696E732026205265636C61696D730000000000000153020000000C50726F6365737320536974650000000000000143020000001150726F63657373204368656D6963616C730000000000000154020000001850726F6365
310
737320456E747261696E656420536F6C696473000000000000000000000145020000000A456C656374726963616C090001440200000015456C656374726963616C2044656D6F6C6974696F6E0000000000000159020000001C456C656374726963616C20417578696C696172792053797374656D7300000000000001490200
310
00001A456C656374726963616C20496E737472756D656E746174696F6E000000000000014A0200000019456C656374726963616C20285573657220446566696E656429000000000000014B0200000019456C656374726963616C20285573657220446566696E656429000000000000014C0200000013456C65637472696361
310
6C204C69676874696E6700000000000001500200000010456C656374726963616C20506F7765720000000000000153020000000F456C656374726963616C20536974650000000000000154020000001D456C656374726963616C2054656C65636F6D6D756E69636174696F6E73000000000000000000000156020000001053
310
7572766579202F204D617070696E6705000146020000000C4669656C64205375727665790000000000000149020000000E4469676974616C20537572766579000000000000014A020000001F537572766579202F204D617070696E6720285573657220446566696E656429000000000000014B020000001F53757276657920
310
2F204D617070696E6720285573657220446566696E6564290000000000000141020000000D41657269616C20537572766579000000000000000000000146020000000F466972652050726F74656374696F6E0400014A02000000134669726520285573657220446566696E656429000000000000014B020000001346697265
310
20285573657220446566696E656429000000000000014102000000184669726520446574656374696F6E20616E6420416C61726D0000000000000153020000001046697265205375707072657373696F6E000000000000000000000157020000000B436976696C20576F726B730200014A020000001A436976696C20576F72
310
6B7320285573657220446566696E656429000000000000014B020000001A436976696C20576F726B7320285573657220446566696E65642900000000000000000000015802000000114F74686572204469736369706C696E65730200014A02000000204F74686572204469736369706C696E65732028557365722044656669
310
6E656429000000000000014B02000000204F74686572204469736369706C696E657320285573657220446566696E656429000000000000000000000147020000000747656E6572616C05000149020000001347656E6572616C20496E666F726D6174696F6E000000000000014A020000001647656E6572616C202855736572
310
20446566696E656429000000000000014B020000001647656E6572616C20285573657220446566696E6564290000000000000152020000001047656E6572616C205265736F757263650000000000000143020000001347656E6572616C20436F6E747261637475616C000000000000000000000148020000001348617A6172
310
646F7573204D6174657269616C730700014A020000002248617A6172646F7573204D6174657269616C7320285573657220446566696E656429000000000000014B020000002248617A6172646F7573204D6174657269616C7320285573657220446566696E656429000000000000014C02000000044C656164000000000000
310
01500200000003504342000000000000014102000000084173626573746F730000000000000152020000000C5265667269676572616E7473000000000000014302000000094368656D6963616C7300000000000000000000015A020000001A436F6E74726163746F72202F2053686F702044726177696E67730200014A0200
310
000029436F6E74726163746F72202F2053686F702044726177696E677320285573657220446566696E656429000000000000014B0200000029436F6E74726163746F72202F2053686F702044726177696E677320285573657220446566696E6564290000000000000000000001490200000009496E746572696F7273060001
310
440200000013496E746572696F722044656D6F6C6974696F6E00000000000001460200000011496E746572696F722046696E697368657300000000000001470200000012496E746572696F7273204772617068696373000000000000014A0200000018496E746572696F727320285573657220446566696E65642900000000
310
0000014B0200000018496E746572696F727320285573657220446566696E656429000000000000014E020000000F496E746572696F722044657369676E00000000000000000000014C02000000094C616E6473636170650500014402000000144C616E6473636170652044656D6F6C6974696F6E0000000000000149020000
310
00144C616E6473636170652049727269676174696F6E000000000000014A02000000184C616E64736361706520285573657220446566696E656429000000000000014B02000000184C616E64736361706520285573657220446566696E656429000000000000015002000000124C616E64736361706520506C616E74696E67
310
00000000000000000000014D020000000A4D656368616E6963616C0700014402000000154D656368616E6963616C2044656D6F6C6974696F6E0000000000000148020000000F4D656368616E6963616C20485641430000000000000149020000001A4D656368616E6963616C20496E737472756D656E746174696F6E000000
310
000000014A02000000194D656368616E6963616C20285573657220446566696E656429000000000000014B02000000194D656368616E6963616C20285573657220446566696E656429000000000000015002000000114D656368616E6963616C20506970696E670000000000000153020000000F4D656368616E6963616C20
310
5369746500000000000000000000014F020000000A4F7065726174696F6E730200014A02000000194F7065726174696F6E7320285573657220446566696E656429000000000000014B02000000194F7065726174696F6E7320285573657220446566696E6564290000000000000000000001500200000008506C756D62696E
310
67060001440200000013506C756D62696E672044656D6F6C6974696F6E000000000000014A0200000017506C756D62696E6720285573657220446566696E656429000000000000014B0200000017506C756D62696E6720285573657220446566696E6564290000000000000150020000000F506C756D62696E672050697069
310
6E6700000000000001510200000012506C756D62696E672045717569706D656E740000000000000153020000000D506C756D62696E672053697465000000000000000000000151020000000945717569706D656E74110001440200000013446574656E74696F6E2045717569706D656E740000000000000145020000001545
310
6475636174696F6E616C2045717569706D656E740000000000000156020000001C566964656F2F50686F746F677261706869632045717569706D656E7400000000000001460200000016466F6F6420536572766963652045717569706D656E7400000000000001480200000012486F73706974616C2045717569706D656E74
310
0000000000000159020000001253656375726974792045717569706D656E74000000000000014A020000001845717569706D656E7420285573657220446566696E656429000000000000014B020000001845717569706D656E7420285573657220446566696E656429000000000000014C02000000144C61626F7261746F72
310
792045717569706D656E74000000000000014D02000000154D61696E74656E616E63652045717569706D656E74000000000000015002000000155061726B696E67204C6F742045717569706D656E74000000000000014102000000124174686C657469632045717569706D656E740000000000000152020000001052657461
310
696C2045717569706D656E740000000000000142020000000E42616E6B2045717569706D656E740000000000000153020000000E536974652045717569706D656E740000000000000143020000001644727920436C65616E696E672045717569706D656E74000000000000015402000000145468656174726963616C204571
310
7569706D656E7400000000000000000000015202000000085265736F757263650700014502000000135265736F7572636520456C656374726963616C000000000000014A02000000175265736F7572636520285573657220446566696E656429000000000000014B02000000175265736F7572636520285573657220446566
310
696E656429000000000000014D02000000135265736F75726365204D656368616E6963616C000000000000014102000000165265736F75726365204172636869746563747572616C000000000000015302000000135265736F75726365205374727563747572616C0000000000000143020000000E5265736F757263652043
310
6976696C000000000000000000000141020000000D4172636869746563747572616C0A00014402000000184172636869746563747572616C2044656D6F6C6974696F6E000000000000014502000000164172636869746563747572616C20456C656D656E747300000000000001460200000016417263686974656374757261
310
6C2046696E6973686573000000000000014702000000164172636869746563747572616C204772617068696373000000000000014902000000164172636869746563747572616C20496E746572696F72000000000000014A020000001C4172636869746563747572616C20285573657220446566696E656429000000000000
310
014B020000001C4172636869746563747572616C20285573657220446566696E656429000000000000015002000000144172636869746563747572616C20506176696E67000000000000015302000000124172636869746563747572616C20536974650000000000000154020000001C4172636869746563747572616C2054
310
72616E73706F72746174696F6E000000000000000000000153020000000A5374727563747572616C0600014402000000155374727563747572616C2044656D6F6C6974696F6E000000000000014602000000125374727563747572616C204672616D696E67000000000000014A02000000195374727563747572616C202855
310
73657220446566696E656429000000000000014B02000000195374727563747572616C20285573657220446566696E656429000000000000014202000000175374727563747572616C205375627374727563747572650000000000000153020000000F5374727563747572616C205369746500000000000000000000014202
310
0000000C47656F746563686E6963616C0200014A020000001B47656F746563686E6963616C20285573657220446566696E656429000000000000014B020000001B47656F746563686E6963616C20285573657220446566696E656429000000000000000000000154020000001254656C65636F6D6D756E69636174696F6E73
310
090001590200000008536563757269747900000000000001490200000008496E746572636F6D000000000000014A020000002154656C65636F6D6D756E69636174696F6E7320285573657220446566696E656429000000000000014B020000002154656C65636F6D6D756E69636174696F6E7320285573657220446566696E
310
656429000000000000014D020000000A4D6F6E69746F72696E67000000000000014E020000000D44617461204E6574776F726B730000000000000141020000000E417564696F202F2056697375616C00000000000001430200000011436C6F636B20616E642050726F6772616D0000000000000154020000000954656C6570
310
686F6E650000000000000000000001430200000005436976696C09000155020000000F436976696C205574696C697469657300000000000001440200000010436976696C2044656D6F6C6974696F6E0000000000000147020000000D436976696C2047726164696E6700000000000001490200000012436976696C20496D70
310
726F76656D656E7473000000000000014A0200000014436976696C20285573657220446566696E656429000000000000014B0200000014436976696C20285573657220446566696E6564290000000000000150020000000C436976696C20506176696E670000000000000153020000000A436976696C205369746500000000
310
000001540200000014436976696C205472616E73706F72746174696F6E000000000000000000000180054D616A6F720300000000000000000000000000000000000000000000000000000000000000002000052D506C616E02000000154B657920706C616E2028666C6F6F7220706C616E29000000000000052D5369746502
310
000000095369746520706C616E000000000000052D4571706D020000000945717569706D656E74000000000000052D466C6F720200000005466C6F6F72000000000000052D4465746C020000000644657461696C000000000000052D536C61620200000005536C616273000000000000052D4675726E020000000B4675726E
310
697368696E6773000000000000052D4374726C020000000F436F6E74726F6C2053797374656D73000000000000052D57616C6C020000000557616C6C73000000000000052D436F6D6D020000001254656C65636F6D6D756E69636174696F6E73000000000000052D506F6C790200000008506F6C79676F6E73000000000000
310
052D5374726D0200000008447261696E616765000000000000052D436F64650200000014436F646520636F6D706C69616E636520706C616E000000000000052D41726561020000000441726561000000000000052D476C617A0200000007476C617A696E67000000000000052D416E6E6F020000000A416E6E6F746174696F
310
6E000000000000052D446F6F720200000005446F6F7273000000000000052D4265616D02000000054265616D73000000000000052D4C69746502000000114C69676874696E67206669787475726573000000000000052D41636373020000000B41636365737320706C616E000000000000052D485641430200000004485641
310
43000000000000052D45766163020000000F45766163756174696F6E20706C616E000000000000052D436C6E6702000000074365696C696E67000000000000052D436F6C730200000007436F6C756D6E73000000000000052D53656374020000000753656374696F6E000000000000052D436F6E760200000011436F6E7665
310
79696E672073797374656D73000000000000052D456C6563020000000A456C656374726963616C000000000000052D526F6F660200000004526F6F66000000000000052D47726964020000000A47726964206C696E6573000000000000052D456C65760200000009456C65766174696F6E000000000000052D466972650200
310
000014466972652070726F74656374696F6E20706C616E000000000000052D50726F740200000016466972652070726F74656374696F6E2073797374656D0000000000000180074D696E6F722031040000000000000000F00E770400000000000000000000000000000000F00000006A00052D5461626C020000000B446174
310
61207461626C6573000000000000052D41626F76020000000E456C656D656E74732061626F7665000000000000052D5377636802000000085377697463686573000000000000052D42726E67020000001A42656172696E677320262064697374616E6365206C6162656C73000000000000052D576B7366020000001E537973
310
74656D20776F726B207375726661636520636F6D706F6E656E7473000000000000052D436E7472020000000A43656E7465726C696E65000000000000052D4571706D020000000945717569706D656E74000000000000052D426472790200000008426F756E64617279000000000000052D5265666C020000000E5265666C65
310
6374656420506C616E000000000000052D50726F66020000000850726F66696C6573000000000000052D4E706C7402000000204E6F6E2D706C6F7474696E67206772617068696320696E666F726D6174696F6E000000000000052D4F70656E02000000084F70656E696E6773000000000000052D5261697302000000065261
310
69736564000000000000052D5468696E02000000195468696E207765696768742067726170686963206C696E6573000000000000052D536C61620200000005536C616273000000000000052D506F77720200000005506F776572000000000000052D44696D73020000000A44696D656E73696F6E73000000000000052D4170
310
706C020000000A4170706C69616E636573000000000000052D46696E65020000001946696E65207765696768742067726170686963206C696E6573000000000000052D536C63650200000006536C69636573000000000000052D52646D65020000001B526561642D6D65206C6179657220286E6F7420706C6F747465642900
310
0000000000052D53796D62020000000753796D626F6C73000000000000052D46726565020000000C467265657374616E64696E67000000000000052D436F6D6D020000001A54656C6570686F6E652C20636F6D6D756E69636174696F6E7320000000000000052D5668636C020000000856656869636C657300000000000005
310
2D4173736D020000000A417373656D626C696573000000000000052D57616C6C020000000557616C6C73000000000000052D436F6E6E020000000B436F6E6E656374696F6E73000000000000052D46696C65020000000D46696C6520636162696E657473000000000000052D46617363020000000746617363696173000000
310
000000052D5363726E020000001453637265656E6564204261636B67726F756E6473000000000000052D54686C64020000000A5468726573686F6C6473000000000000052D47727073020000000647726F757073000000000000052D50726874020000000E5061727469616C20686569676874000000000000052D53636864
310
02000000095363686564756C6573000000000000052D466E7368020000000846696E6973686573000000000000052D5369676E02000000055369676E73000000000000052D4A616D620200000015446F6F7220616E642077696E646F77206A616D6273000000000000052D4D61736B0200000012414454204D61736B696E67
310
204F626A656374000000000000052D45767472020000001B456C657661746F72206361727320616E642065717569706D656E74000000000000052D46756C6C020000000B46756C6C2D686569676874000000000000052D4D61726B020000001D4D61726B6572732C20627265616B206D61726B732C206C6561646572730000
310
00000000052D54657874020000000454657874000000000000052D5469746C020000001844726177696E67206F722064657461696C207469746C6573000000000000052D436F6D700200000013496E7465726E616C20636F6D706F6E656E7473000000000000052D4C69746502000000084C69676874696E67000000000000
310
052D4C61626C02000000064C6162656C73000000000000052D5265667202000000195265666572656E63652C2065787465726E616C2066696C6573000000000000052D466978740200000011706C756D62696E67206669787475726573000000000000052D5465657302000000094D61696E2074656573000000000000052D
310
53757370020000001253757370656E64656420656C656D656E7473000000000000052D5370636502000000055370616365000000000000052D4C65766C02000000274C6576656C206368616E6765732C2072616D70732C20706974732C2064657072657373696F6E73000000000000052D46697864020000000F4669786564
310
2065717569706D656E74000000000000052D4B65796E02000000084B65796E6F746573000000000000052D4C65676E02000000144C6567656E64732C2053796D626F6C206B657973000000000000052D486561640200000017446F6F7220616E642077696E646F772068656164657273000000000000052D48657679020000
310
001A4865617679207765696768742067726170686963206C696E6573000000000000052D427263650200000006427261636573000000000000052D5265767302000000095265766973696F6E73000000000000052D43617365020000000843617365776F726B000000000000052D4F636370020000001A4F63637570616E74
310
206F7220656D706C6F796565206E616D6573000000000000052D416363730200000006416363657373000000000000052D426C6F77020000000E456C656D656E74732062656C6F77000000000000052D4D65646D020000001B4D656469756D207765696768742067726170686963206C696E6573000000000000052D506570
310
6C020000000650656F706C65000000000000052D4D6F766502000000124D6F766561626C652065717569706D656E74000000000000052D52657663020000000F5265766973696F6E20636C6F756473000000000000052D5374727302000000215374616972207472656164732C20657363616C61746F72732C206C61646465
310
7273000000000000052D506C6E740200000006506C616E7473000000000000052D436176690200000006436176697479000000000000052D50617474020000001954657874757265206F72206861746368207061747465726E73000000000000052D5574696C02000000095574696C6974696573000000000000052D436C6E
310
6702000000074365696C696E67000000000000052D48696465020000000E48696464656E206F626A65637473000000000000052D537562740200000014537562747261637469766520656C656D656E7473000000000000052D4F76686402000000084F76657268656164000000000000052D4E6F746502000000054E6F7465
310
73000000000000052D5764776B02000000164172636869746563747572616C20776F6F64776F726B000000000000052D43757274020000000C4375727461696E2057616C6C000000000000052D44656D6F020000000A44656D6F6C6974696F6E000000000000052D5769646502000000195769646520776569676874206772
310
6170686963206C696E6573000000000000052D4872616C020000001648616E647261696C732C206775617264207261696C73000000000000052D4964656E02000000134964656E74696669636174696F6E2054616773000000000000052D53746F72020000001953797374656D2073746F7261676520636F6D706F6E656E74
310
73000000000000052D534446460200000010537570706C7920646966667573657273000000000000052D416474760200000011416464697469766520656C656D656E7473000000000000052D4D617463020000000B4D61746368206C696E6573000000000000052D506E6C73020000000D53797374656D2070616E656C7300
310
0000000000052D53656174020000000753656174696E67000000000000052D52444646020000001452657475726E2061697220646966667573657273000000000000052D506B6E6702000000075061726B696E67000000000000052D56696577020000001356696577706F727420446566696E6974696F6E00000000000005
310
2D4C696E65020000000D446566696E696E67204C696E65000000000000052D4D61737302000000104D617373696E6720456C656D656E7473000000000000052D4D63757402000000164D61696E20637574206C696E6520656C656D656E7473000000000000052D4E69636E020000000F4E6F7420696E20636F6E7472616374
310
000000000000052D47726964020000000447726964000000000000052D5370636C020000000B5370656369616C74696573000000000000052D4368617302000000054368617365000000000000052D54746C620200000016426F7264657220616E64207469746C6520626C6F636B000000000000052D4F746C6E0200000007
310
4F75746C696E65000000000000052D52697372020000000C537461697220726973657273000000000000052D5470746E0200000011546F696C657420706172746974696F6E73000000000000052D53696C6C020000000C57696E646F772073696C6C73000000000000052D46697265020000000A466972652077616C6C7300
310
00000000000180074D696E6F72203205000000004164642062656C6F77207468652073656C6563746564206974656D001600052D41626F76020000000E456C656D656E74732061626F7665000000000000052D42647279020000000D4564676520626F756E64617279000000000000052D5265666C020000000F5265666C65
310
6374656420506C616E73000000000000052D4E706C7402000000154E6F6E2D706C6F7474696E6720656C656D656E7473000000000000052D5468696E020000000E4D696E6F72206C696E65776F726B000000000000052D44696D73020000000A44696D656E73696F6E73000000000000052D536C63650200000006536C6963
310
6573000000000000052D5363616C020000001047726170686963616C205363616C6573000000000000052D466173630200000006466173636961000000000000052D476C617A0200000007476C617A696E67000000000000052D47727073020000000647726F757073000000000000052D536669740200000006536F666669
310
74000000000000052D5469746C02000000065469746C6573000000000000052D48696465020000000F48696464656E20656C656D656E7473000000000000052D50617474020000000E4861746368207061747465726E73000000000000052D4E6F7465020000001647656E6572616C205465787420616E64204E6F74657300
310
0000000000052D4964656E020000000A4964656E746966696572000000000000052D556E69740200000004556E6974000000000000052D4C696E65020000001047656E6572616C206C696E65776F726B000000000000052D4F746C6E02000000074F75746C696E65000000000000052D526973720200000006526973657273
310
000000000000052D53696C6C020000000553696C6C73000000000000018006537461747573060000000000000000A434770470040000B10000005073770400000000050000000F00022D31020000000750686173652031000000000000022D54020000000E54656D706F7261727920776F726B000000000000022D32020000
310
000750686173652032000000000000022D4402000000144578697374696E6720746F2064656D6F6C697368000000000000022D33020000000750686173652033000000000000022D4502000000124578697374696E6720746F2072656D61696E000000000000022D34020000000750686173652034000000000000022D4602
310
0000000B46757475726520776F726B000000000000022D35020000000750686173652035000000000000022D36020000000750686173652036000000000000022D37020000000750686173652037000000000000022D38020000000750686173652038000000000000022D3902000000075068617365203900000000000002
310
2D4D02000000114974656D7320746F206265206D6F766564000000000000022D4E02000000084E657720776F726B0000000000000600FFFF04001A004163416563556B4C61796572436F6D706F6E656E744669656C64174469736369706C696E652044657369676E61746F7220310100000004402C40400000000001000000
310
000141000000000780174469736369706C696E652044657369676E61746F7220320100000004402C40400100000001000000000144000000000780054D616A6F7205000000052D4040404000000000010000002D052D57616C6C000000000780064D696E6F723105000000022D2A01000000010000002D052D4964656E0000
310
00000780064D696E6F723205000000022D2A01000000010000002D052D546578740000000007800653746174757302000000022D2A01000000010000002D022D4E000000000500000102030405000003202D20022C20012003202D2000
  0
XRECORD
  5
11E4A
102
{ACAD_REACTORS
330
11E49
102
}
330
11E49
100
AcDbXrecord
280
     1
102
SHADEPLOT
 70
     0
102
SHADEPLOTRESLEVEL
 70
     2
102
SHADEPLOTCUSTOMDPI
 70
   300
  0
XRECORD
  5
11E4D
102
{ACAD_REACTORS
330
11DB9
102
}
330
11DB9
100
AcDbXrecord
280
     1
102
SHADEPLOT
 70
     1
102
SHADEPLOTRESLEVEL
 70
     2
102
SHADEPLOTCUSTOMDPI
 70
   200
  0
XRECORD
  5
11DBA
102
{ACAD_REACTORS
330
11DB9
102
}
330
11DB9
100
AcDbXrecord
280
     1
310
28000000B40000007F00000001000800000000004C59000000000000000000000001000000000000FFFFFF0000000000FFFFFF000000000000000000000000000000000000000000000000000000000000000000330000006600000099000000CC000000FF00000000330000333300006633000099330000CC330000FF3300
310
0000660000336600006666000099660000CC660000FF66000000990000339900006699000099990000CC990000FF99000000CC000033CC000066CC000099CC0000CCCC0000FFCC000000FF000033FF000066FF000099FF0000CCFF0000FFFF000000003300330033006600330099003300CC003300FF003300003333003333
310
33006633330099333300CC333300FF33330000663300336633006666330099663300CC663300FF66330000993300339933006699330099993300CC993300FF99330000CC330033CC330066CC330099CC3300CCCC3300FFCC330000FF330033FF330066FF330099FF3300CCFF3300FFFF330000006600330066006600660099
310
006600CC006600FF00660000336600333366006633660099336600CC336600FF33660000666600336666006666660099666600CC666600FF66660000996600339966006699660099996600CC996600FF99660000CC660033CC660066CC660099CC6600CCCC6600FFCC660000FF660033FF660066FF660099FF6600CCFF6600
310
FFFF660000009900330099006600990099009900CC009900FF00990000339900333399006633990099339900CC339900FF33990000669900336699006666990099669900CC669900FF66990000999900339999006699990099999900CC999900FF99990000CC990033CC990066CC990099CC9900CCCC9900FFCC990000FF99
310
0033FF990066FF990099FF9900CCFF9900FFFF99000000CC003300CC006600CC009900CC00CC00CC00FF00CC000033CC003333CC006633CC009933CC00CC33CC00FF33CC000066CC003366CC006666CC009966CC00CC66CC00FF66CC000099CC003399CC006699CC009999CC00CC99CC00FF99CC0000CCCC0033CCCC0066CC
310
CC0099CCCC00CCCCCC00FFCCCC0000FFCC0033FFCC0066FFCC0099FFCC00CCFFCC00FFFFCC000000FF003300FF006600FF009900FF00CC00FF00FF00FF000033FF003333FF006633FF009933FF00CC33FF00FF33FF000066FF003366FF006666FF009966FF00CC66FF00FF66FF000099FF003399FF006699FF009999FF00CC
310
99FF00FF99FF0000CCFF0033CCFF0066CCFF0099CCFF00CCCCFF00FFCCFF0000FFFF0033FFFF0066FFFF0099FFFF00CCFFFF00FFFFFF00000000000D0D0D001A1A1A00282828003535350043434300505050005D5D5D006B6B6B00787878008686860093939300A1A1A100AEAEAE00BBBBBB00C9C9C900D6D6D600E4E4E400
310
F1F1F100FFFFFF0000000000000000000000000000000000000000000000000000000000000000000000000000000000E2E2E2E2E2E2E2E2E2E2E2E2E2E2E2E2E2E2E2E2E2E2E2E2E2E2E2E2E2E2E2E2E2E2E2E2E2E2E2E2E2E2E2E2E2E2E2E2E2E2E2E2E2E2E2E2E2E2E2E2E2E2E2E2E2E2E2E2E2E2E2E2E2E2E2E2E2E2E2
310
E2E2E2E2E2E2E2E2E2E2E2E2E2E2E2E2E2E2E2E2E2E2E2E2E2E2E2E2E2E2E2E2E2E2E2E2E2E2E2E2E2E2E2E2E2E2E2E2E2E2E2E2E2E2E2E2E2E2E2E2E2E2E2E2E2E2E2E2E2E2E2E2E2E2E2E2E2E2E2E2E2E2E2E2E2E2E2E2E2E2E2E2E2E2E2E2E2E2E2E2E2E2F5F5F5F5F5F5F5F5F5F5F5F5F5F5F5F5F5F5F5F5F5F5F5F5F5
310
F5F5F5F5F5F5F5F5F5F5F5F5F5F5F5F5F5F5F5F5F5F5F5F5F5F5F5F5F5F5F5F5F5F5F5F5F5F5F5F5F5F5F5F5F5F5F5F5F5F5F5F5F5F5F5F5F5F5F5F5F5F5F5F5F5F5F5F5F5F5F5F5F5F5F5F5F5F5F5F5F5F5F5F5F5F5F5F5F5F5F5F5F5F5F5F5F5F5F5F5F5F5F5F5F5F5F5F5F5F5F5F5F5F5F5F5F5F5F5F5F5F5F5F5F5F5F5
310
F5F5F5F5F5F5F5F5F5F5F5F5F5F5F5F5F5F5F5F5F5F5F5F5F5F5E2E2F5F5F5F5F5F5F5F5F5F5F5F5F5F5F5F5F5F5F5F5F5F5F5F5F5F5F5F5F5F5F5F5F5F5F5F5F5F5F5F5F5F5F5F5F5F5F5F5F5F5F5F5F5F5F5F5F5F5F5F5F5F5F5F5F5F5F5F5F5F5F5F5F5F5F5F5F5F5F5F5F5F5F5F5F5F5F5F5F5F5F5F5F5F5F5F5F5F5F5
310
F5F5F5F5F5F5F5F5F5F5F5F5F5F5F5F5F5F5F5F5F5F5F5F5F5F5F5F5F5F5F5F5F5F5F5F5F5F5F5F5F5F5F5F5F5F5F5F5F5F5F5F5F5F5F5F5F5F5F5F5F5F5F5F5F5F5F5F5F5F5F5F5F5F5F5F5F5F5F5E2E2F5F5F5F5F5F5F5F5F5F5F5F5F5F5F5F5F5F5F5F5F5F5F5F5F5F5F5F5F5F5F5F5F5F5F5F5F5F5F5F5F5F5F5F5F5F5
310
F5F5F5F5F5F5F5F5F5F5F5F5F5F5F5F5F5F5F5F5F5F5F5F5F5F5F5F5F5F5F5F5F5F5F5F5F5F5F5F5F5F5F5F5F5F5F5F5F5F5F5F5F5F5F5F5F5F5F5F5F5F5F5F5F5F5F5F5F5F5F5F5F5F5F5F5F5F5F5F5F5F5F5F5F5F5F5F5F5F5F5F5F5F5F5F5F5F5F5F5F5F5F5F5F5F5F5F5F5F5F5F5F5F5F5F5F5F5F5F5F5F5F5F5F5F5F5
310
F5F5F5F5F5E2E2696969696969696969696969696969696969696969696969696969696969696969696969696969696969696969696969696969696969696969696969696969696969696969696969696969696969696969696969696969696969696969696969696969696969696969696969696969696969696969696969
310
696969696969696969696969696969696969696969696969696969696969696969696969696969696969696969696969696969696969696969E2E2E269F5F5F5F5F5F5F5F5F5F5F5F5F5F5F5F5F5F5F5F5F5F5F5F5F5F5F5F5F5F5F5F5F5F5F5F5F5F5F5F5F5F5F5F5F5F5F5F5F5F5F5F5F5F5F5F5F5F5F5F5F5F5F5F5F5F5
310
F5F5F5F5F5F5F5F5F5F5F5F5F5F5F5F5F5F5F5F5F569F5F5F5F5F5F5F5F5F5F5F5F5F5F5F5F5F5F5F5F5F5F5F5F5F5F5F5F5F5F5F5F5F5F5F5F5F5F5F5F5F5F5F5F5F5F5F5F5F5F5F5F5F5F5F5F5F5F5F5F5F5F5F5F5F5F5F5F5F5F5F5F5F5F5F5F5F5F5F5F5F5F5F5F5F5F5F569E2E2E269F5F5F5F5F5F5F5F5F5F5F5F5F5
310
F5F5F5F5F5F5F5F5F5F5F5F5F5F5F5F5F5F5F5F5F5F5F5F5F5F5F5F5F5F5F5F5F5F5F5F5F5F5F5F5F5F5F5F5F5F5F5F5F5F5F5F5F5F5F5F5F5F5F5F5F5F5F5F5F5F5F5F5F5F5F5F5F5F569F5F5F5F5F5F5F5F5F5F5F5F5F5F5F5F5F5F5F5F5F5F5F5F5F5F5F5F5F5F5F5F5F5F5F5F5F5F5F5F5F5F5F5F5F5F5F5F5F5F5F5F5
310
F5F5F5F5F5F5F5F5F5F5F5F5F5F5F5F5F5F5F5F5F5F5F5F5F5F5F5F5F5F5F5F5F5F5F569E2E2E269F5F5F5F5F5F5F5F5F5F5F5F5F5F5F5F5F5F5F5F5F5F5F5F5F5F5F5F5F5F5F5F5F5F5F5F5F5F5F5F5F5F5F5F5F5F5F5F5F5F5F5F5F5F5F5F5F5F5F5F5F5F5F5F5F5F5F5F5F5F5F5F5F5F5F5F5F5F5F5F5F5F5F5F5F5F5F5
310
69F5F5F5F5F5F5F5F5F5F5F5F5F5F5F5F5F5F5F5F5F5F5F5F5F5F5F5F5F5F5F5F5F5F5F5F5F5F5F5F5F5F5F5F5F5F5F5F5F5F5F5F5F5F5F5F5F5F5F5F5F5F5F5F5F5F5F5F5F5F5F5F5F5F5F5F5F5F5F5F5F5F5F5F5F5F5F569E2E2E269F5F5F5F5F5F5F5F5F5F5F5F5F5F5F5F5F5F5F5F5F5F5F5F5F5F5F5F5F5F5F5F5F5F5
310
F5F5F5F5F5F5F5F5F5F5F5F5F5F5F5F5F5F5F5F5F5F5F5F5F5F5F5F5F5F5F5F5F5F5F5F5F5F5F5F5F5F5F5F5F5F5F5F5F5F5F5F5F569F5F5F5F5F5F5F5F5F5F5F5F5F5F5F5F5F5F5F5F5F5F5F5F5F5F5F5F5F5F5F5F5F5F5F5F5F5F5F5F5F5F5F5F5F5F5F5F5F5F5F5F5F5F5F5F5F5F5F5F5F5F5F5F5F5F5F5F5F5F5F5F5F5
310
F5F5F5F5F5F5F5F5F5F5F5F5F5F569E2E2E269F5F5F5F5F5F5F5F5F5F5F5F5F5F5F5F5F5F5F5F5F5F5F5F5F5F5F5F5F5F5F5F5F5F5F5F5F5F5F5F5F5F5F5F5F5F5F5F5F5F5F5F5F5F5F5F5F5F5F5F5F5F5F5F5F5F5F5F5F5F5F5F5F5F5F5F5F5F5F5F5F5F5F5F5F5F5F569F5F5F5F5F5F5F5F5F5F5F5F5F5F5F5F5F5F5F5F5
310
F5F5F5F5F5F5F5F5F5F5F5F5F5F5F5F5F5F5F5F5F5F5F5F5F5F5F5F5F5F5F5F5F5F5F5F5F5F5F5F5F5F5F5F5F5F5F5F5F5F5F5F5F5F5F5F5F5F5F5F5F5F5F5F5F5F5F569E2E2E269F5F5F5F5F5F5F5F5F5F5F5F5F5F5F5F5F5F5F5F5F5F5F5F5F5F5F5F5F5F5F5F5F5F5F5F5F5F5F5F5F5F5F5F5F5F5F5F5F5F5F5F5F5F5F5
310
F5F5F5F5F5F5F5F5F5F5F5F5F5F5F5F5F5F5F5F5F5F5F5F5F5F5F5F5F5F5F5F569F5F5F5F5F5F5F5F5F5F5F5F5F5F5F5F5F5F5F5F5F5F5F5F5F5F5F5F5F5F5F5F5F5F5F5F5F5F5F5F5F5F5F5F5F5F5F5F5F5F5F5F5F5F5F5F5F5F5F5F5F5F5F5F5F5F5F5F5F5F5F5F5F5F5F5F5F5F5F5F5F5F5F5F5F5F5F569E2E2E269F5F5
310
F5F5F5F5F5F5F5F5F5F5F5F5F5F5F5F5F5F5F5F5F5F5F5F5F5F5F5F5F5F5F5F5F5F5F5F5F5F5F5F5F5F5F5F5F5F5F5F5F5F5F5F5F5F5F5F5F5F5F5F5F5F5F5F5F5F5F5F5F5F5F5F5F5F5F5F5F5F5F5F5F5F5F5F5F569F5F5F5F5F5F5F5F5F5F5F5F5F5F5F5F5F5F5F5F5F5F5F5F5F5F5F5F5F5F5F5F5F5F5F5F5F5F5F5F5F5
310
F5F5F5F5F5F5F5F5F5F5F5F5F5F5F5F5F5F5F5F5F5F5F5F5F5F5F5F5F5F5F5F5F5F5F5F5F5F5F5F5F5F5F5F5F5F569E2E2E269F5F5F5F5F5F5F5F5F5F5F5F5F5F5F5F5F5F5F5F5F5F5F5F5F5F5F5F5F5F5F5F5F5F5F5F5F5F5F5F5F5F5F5F5F5F5F5F5F5F5F5F5F5F5F5F5F5F5F5F5F5F5F5F5F5F5F5F5F5F5F5F5F5F5F5F5
310
F5F5F5F5F5F5F5F5F5F5F569F5F5F5F5F5F5F5F5F5F5F5F5F5F5F5F5F5F5F5F5F5F5F5F5F5F5F5F5F5F5F5F5F5F5F5F5F5F5F5F5F5F5F5F5F5F5F5F5F5F5F5F5F5F5F5F5F5F5F5F5F5F5F5F5F5F5F5F5F5F5F5F5F5F5F5F5F5F5F5F5F5F5F5F5F5F5F569F5E2E269F5F5F5F5F5F5F5F5F5F5F5F5F5F5F5F5F5F5F5F5F5F5F5
310
F5F5F5F5F5F5F5F5F5F5F5F5F5F5F5F5F5F5F5F5F5F5F5F5F5F5F5F5F5F5F5F5F5F5F5F5F5F5F5F5F5F5F5F5F5F5F5F5F5F5F5F5F5F5F5F5F5F5F5F5F5F5F5F569F5F5F5F5F5F5F5F5F5F5F5F5F5F5F5F5F5F5F5F5F5F5F5F5F5F5F5F5F5F5F5F5F5F5F5F5F5F5F5F5F5F5F5F5F5F5F5F5F5F5F5F5F5F5F5F5F5F5F5F5F5F5
310
F5F5F5F5F5F5F5F5F5F5F5F5F5F5F5F5F5F5F5F5F5F5F5F5F569F5E2E269F5F5F5F5F5F5F5F5F5F5F5F5F5F5F5F5F5F5F5F5F5F5F5F5F5F5F5F5F5F5F5F5F5F5F5F5F5F5F5F5F5F5F5F5F5F5F5F5F5F5F5F5F5F5F5F5F5F5F5F5F5F5F5F5F5F5F5F5F5F5F5F5F5F5F5F5F5F5F5F5F5F5F5F5F5F5F569F5F5F5F5F5F5F5F5F5
310
F5F5F5F5F5F5F5F5F5F5F5F5F5F5F5F5F5F5F5F5F5F5F5F5F5F5F5F5F5F5F5F5F5F5F5F5F5F5F5F5F5F5F5F5F5F5F5F5F5F5F5F5F5F5F5F5F5F5F5F5F5F5F5F5F5F5F5F5F5F5F5F5F5F5F5F5F5F569F5E2E269F5F5F5F5F5F5F5F5F5F5F5F5F5F5F5F5F5F5F5F5F5F5F5F5F5F5F5F5F5F5F5F5F5F5F5F5F5F5F5F5F5F5F5F5
310
F5F5F5F5F5F5F5F5F5F5F5F5F5F5F5F5F5F5F5F5F5F5F5F5F5F5F5F5F5F5F5F5F5F5F5F5F5F5F5F5F5F5F569F5F5F5F5F5F5F5F5F5F5F5F5F5F5F5F5F5F5F5F5F5F5F5F5F5F5F5F5F5F5F5F5F5F5F5F5F5F5F5F5F5F5F5F5F5F5F5F5F5F5F5F5F5F5F5F5F5F5F5F5F5F5F5F5F5F5F5F5F5F5F5F5F5F5F5F5F5F5F5F5F5F5F5
310
F5F5F5F569F5E2E269F5F5F5F5F5F5F5F5F5F5F5F5F5F5F5F5F5F5F5F5F5F5F5F5F5F5F5F5F5F5F5F5F5F5F5F5F5F5F5F5F5F5F5F5F5F5F5F5F5F5F5F5F5F5F5F5F5F5F5F5F5F5F5F5F5F5F5F5F5F5F5F5F5F5F5F5F5F5F5F5F5F5F5F5F5F5F569F5F5F5F5F5F5F5F5F5F5F5F5F5F5F5F5F5F5F5F5F5F5F5F5F5F5F5F5F5F5
310
F5F5F5F5F5F5F5F5F5F5F5F5F5F5F5F5F5F5F5F5F5F5F5F5F5F5F5F5F5F5F5F5F5F5F5F5F5F5F5F5F5F5F5F5F5F5F5F5F5F5F5F5F5F5F5F5F569F5E2E269F5F5F5F5F5F5F5F5F5F5F5F5F5F5F5F5F5F5F5F5F5F5F5F5F5F5F5F5F5F5F5F5F5F5F5F5F5F5F5F5F5F5F5F5F5F5F5F5F5F5F5F5F5F5F5F5F5F5F5F5F5F5F5F5F5
310
F5F5F5F5F5F5F5F5F5F5F5F5F5F5F5F5F5F5F5F5F5F569F5F5F5F5F5F5F5F5F5F5F5F5F5F5F5F5F5F5F5F5F5F5F5F5F5F5F5F5F5F5F5F5F5F5F5F5F5F5F5F5F5F5F5F5F5F5F5F5F5F5F5F5F5F5F5F5F5F5F5F5F5F5F5F5F5F5F5F5F5F5F5F5F5F5F5F5F5F5F5F5F5F5F5F5F5F5F569F5E2E269F5F5F5F5F5F5F5F5F5F5F5F5
310
F5F5F5F5F5F5F5F5F5F5F5F5F5F5F5F5F5F5F5F5F5F5F5F5F5F5F5F5F5F5F5F5F5F5F5F5F5F5F5F5F5F5F5F5F5F5F5F5F5F5F5F5F5F5F5F5F5F5F5F5F5F5F5F5F5F5F5F5F5F5F5F5F5F5F569F5F5F5F5F5F5F5F5F5F5F5F5F5F5F5F5F5F5F5F5F5F5F5F5F5F5F5F5F5F5F5F5F5F5F5F5F5F5F5F5F5F5F5F5F5F5F5F5F5F5F5
310
F5F5F5F5F5F5F5F5F5F5F5F5F5F5F5F5F5F5F5F5F5F5F5F5F5F5F5F5F5F5F5F5F5F5F5F569F5E2E269F5F5F5F5F5F5F5F5F5F5F5F5F5F5F5F5F5F5F5F5F5F5F5F5F5F5F5F5F5F5F5F5F5F5F5F5F5F5F5F5F5F5F5F5F5F5F5F5F5F5F5F5F5F5F5F5F5F5F5F5F5F5F5F5F5F5F5F5F5F5F5F5F5F5F5F5F5F5F5F5F5F5F5F5F5F5
310
F569F5F5F5F5F5F5F5F5F5F5F5F5F5F5F5F5F5F5F5F5F5F5F5F5F5F5F5F5F5F5F5F5F5F5F5F5F5F5F5F5F5F5F5F5F5F5F5F5F5F5F5F5F5F5F5F5F5F5F5F5F5F5F5F5F5F5F5F5F5F5F5F5F5F5F5F5F5F5F5F5F5F5F5F5F5F5F569F5E2E269F5F5F5F5F5F5F5F5F5F5F5F5F5F5F5F5F5F5F5F5F5F5F5F5F5F5F5F5F5F5F5F5F5
310
F5F5F5F5F5F5F5F5F5F5F5F5F5F5F5F5F5F5F5F5F5F5F5F5F5F5F5F5F5F5F5F5F5F5F5F5F5F5F5F5F5F5F5F5F5F5F5F5F5F5F5F5F5F569F5F5F5F5F5F5F5F5F5F5F5F5F5F5F5F5F5F5F5F5F5F5F5F5F5F5F5F5F5F5F5F5F5F5F5F5F5F5F5F5F5F5F5F5F5F5F5F5F5F5F5F5F5F5F5F5F5F5F5F5F5F5F5F5F5F5F5F5F5F5F5F5
310
F5F5F5F5F5F5F5F5F5F5F5F5F5F5F569F5E2E269F5F5F5F5F5F5F5F5F5F5F5F5F5F5F5F5F5F5F5F5F5F5F5F5F5F5F5F5F5F5F5F5F5F5F5F5F5F5F5F5F5F5F5F5F5F5F5F5F5F5F5F5F5F5F5F5F5F5F5F5F5F5F5F5F5F5F5F5F5F5F5F5F5F5F5F5F5F5F5F5F5F5F5F5F5F5F569F5F5F5F5F5F5F5F5F5F5F5F5F5F5F5F5F5F5F5
310
F5F5F5F5F5F5F5F5F5F5F5F5F5F5F5F5F5F5F5F5F5F5F5F5F5F5F5F5F5F5F5F5F5F5F5F5F5F5F5F5F5F5F5F5F5F5F5F5F5F5F5F5F5F5F5F5F5F5F5F5F5F5F5F5F5F5F5F569E2E2E269F5F5F5F5F5F5F5F5F5F5F5F5F5F5F5F5F5F5F5F5F5F5F5F5F5F5F5F5F5F5F5F5F5F5F5F5F5F5F5F5F5F5F5F5F5F5F5F5F5F5F5F5F5F5
310
F5F5F5F5F5F5F5F5F5F5F5F5F5F5F5F5F5F5F5F5F5F5F5F5F5F5F5F5F5F5F5F5F569F5F5F5F5F5F5F5F5F5F5F5F5F5F5F5F5F5F5F5F5F5F5F5F5F5F5F5F5F5F5F5F5F5F5F5F5F5F5F5F5F5F5F5F5F5F5F5F5F5F5F5F5F5F5F5F5F5F5F5F5F5F5F5F5F5F5F5F5F5F5F5F5F5F5F5F5F5F5F5F5F5F5F5F5F5F5F569E2E2E269F5
310
F5F5F5F5F5F5F5F5F5F5F5F5F5F5F5F5F5F5F5F5F5F5F5F5F5F5F5F5F5F5F5F5F5F5F5F5F5F5F5F5F5F5F5F5F5F5F5F5F5F5F5F5F5F5F5F5F5F5F5F5F5F5F5F5F5F5F5F5F5F5F5F5F5F5F5F5F5F5F5F5F5F5F5F5F5F569F5F5F5F5F5F5F5F5F5F5F5F5F5F5F5F5F5F5F5F5F5F5F5F5F5F5F5F5F5F5F5F5F5F5F5F5F5F5F5F5
310
F5F5F5F5F5F5F5F5F5F5F5F5F5F5F5F5F5F5F5F5F5F5F5F5F5F5F5F5F5F5F5F5F5F5F5F5F5F5F5F5F5F5F5F5F5F5F569E2E2E269F5F5F5F5F5F5F5F5F5F5F5F5F5F5F5F5F5F5F5F5F5F5F5F5F5F5F5F5F5F5F5F5F5F5F5F5F5F5F5F5F5F5F5F5F5F5F5F5F5F5F5F5F5F5F5F5F5F5F5F5F5F5F5F5F5F5F5F5F5F5F5F5F5F5F5
310
F5F5F5F5F5F5F5F5F5F5F5F569F5F5F5F5F5F5F5F5F5F5F5F5F5F5F5F5F5F5F5F5F5F5F5F5F5F5F5F5F5F5F5F5F5F5F5F5F5F5F5F5F5F5F5F5F5F5F5F5F5F5F5F5F5F5F5F5F5F5F5F5F5F5F5F5F5F5F5F5F5F5F5F5F5F5F5F5F5F5F5F5F5F5F5F5F5F5F569E2E2E269F5F5F5F5F5F5F5F5F5F5F5F5F5F5F5F5F5F5F5F5F5F5
310
F5F5F5F5F5F5F5F5F5F5F5F5F5F5F5F5F5F5F5F5F5F5F5F5F5F5F5F5F5F5F5F5F5F5F5F5F5F5F5F5F5F5F5F5F5F5F5F5F5F5F5F5F5F5F5F5F5F5F5F5F5F5F5F5F569F5F5F5F5F5F5F5F5F5F5F5F5F5F5F5F5F5F5F5F5F5F5F5F5F5F5F5F5F5F5F5F5F5F5F5F5F5F5F5F5F5F5F5F5F5F5F5F5F5F5F5F5F5F5F5F5F5F5F5F5F5
310
F5F5F5F5F5F5F5F5F5F5F5F5F5F5F5F5F5F5F5F5F5F5F5F5F5F569E2E2E269F5F5F5F5F5F5F5F5F5F5F5F5F5F5F5F5F5F5F5F5F5F5F5F5F5F5F5F5F5F5F5F5F5F5F5F5F5F5F5F5F5F5F5F5F5F5F5F5F5F5F5F5F5F5F5F5F5F5F5F5F5F5F5F5F5F5F5F5F5F5F5F5F5F5F5F5F5F5F5F5F5F5F5F5F5F5F569F5F5F5F5F5F5F5F5
310
F5F5F5F5F5F5F5F5F5F5F5F5F5F5F5F5F5F5F5F5F5F5F5F5F5F5F5F5F5F5F5F5F5F5F5F5F5F5F5F5F5F5F5F5F5F5F5F5F5F5F5F5F5F5F5F5F5F5F5F5F5F5F5F5F5F5F5F5F5F5F5F5F5F5F5F5F5F5F569E2E2E269F5F5F5F5F5F5F5F5F5F5F5F5F5F5F5F5F5F5F5F5F5F5F5F5F5F5F5F5F5F5F5F5F5F5F5F5F5F5F5F5F5F5F5
310
F5F5F5F5F5F5F5F5F5F5F5F5F5F5F5F5F5F5F5F5F5F5F5F5F5F5F5F5F5F5F5F5F5F5F5F5F5F5F5F5F5F5F5F569F5F5F5F5F5F5F5F5DCDCDCDCDCDCDCDCDCDCDCDCDCDCDCDCDCF5F5F5F5F5F5F5F5F5F5F5F5F5F5F5F5F5F5F5F5F5F5F5F5F5F5F5F5F5F5F5F5F5F5F5F5F5F5F5F5F5F5F5F5F5F5F5F5F5F5F5F5F5F5F5F5F5
310
F5F5F5F5F569E2E2E269F5F5F5F5F5F5F5F5F5F5F5F5F5F5F5F5F5F5F5F5F5F5F5F5F5F5F5F5F5F5F5F5F5F5F5F5F5F5F5F5F5F5F5F5F5F5F5F5F5F5F5F5F5F5F5F5F5F5F5F5F5F5F5F5F5F5F5F5F5F5F5F5F5F5F5F5F5F5F5F5F5F5F5F5F5F5F569BEBEBEBEBEBEF5F5DCF5F5F5F5F5F5F5F5F5F5F5F5F5F5F5DCF5F5F5F5
310
F5F5F5F5F5F5F5F5F5F5F5F5F5F5F5F5F5F5F5F5F5F5F5F5F5F5F5F5F5F5F5F5F5F5F5F5F5F5F5F5F5F5F5F5F5F5F5F5F5F5F5F5F5F5F5F5F5F569E2E2E269F5F5F5F5F5F5F5F5F5F5F5F5F5F5F5F5F5F5F5F5F5F5F5F5F5F5F5F5F5F5F5F5F5F5F5F5F5F5F5F5F5F5F5F5F5F5F5F5F5F5F5F5F5F5F5F5F5F5F5F5F5F5F5F5
310
F5F5F5F5F5F5F5F5F5F5F5F5F5F5F5F5F5F5F5F5F5F5F569E2E2E2E2E2BEF5F5DCF5F5F5F5F5F5F5F5F5F5F5F5F5F5F5DCF5F5F5F5F5F5F5F5F5F5F5F5F5F5F5F5F5F5F5F5F5F5F5F5F5F5F5F5F5F5F5F5F5F5F5F5F5F5F5F5F5F5F5F5F5F5F5F5F5F5F5F5F5F5F5F5F5F5F5F5F5F569E2E2E269F5F5F5F5F5F5F5F5F5F5F5
310
F5F5F5F5F5F5F5F5F5F5F5F5F5F5F5F5F5F5F5F5F5F5F5F5F5F5F5F5F5F5F5F5F5F5F5F5F5F5F5F5F5F5F5F5F5F5F5F5F5F5F5F5F5F5F5F5F5F5F5F5F5F5F5F5F5F5F5F5F5F5F5F5F5F5F5F569E2E2E2E2E2BEF5F5DCF5F5F5F5F5F5F5F5F5F5F5F5F5F5F5DCF5F5F5F5F5F5F5F5F5F5F5F5F5F5F5F5F5F5F5F5F5F5F5F5F5
310
F5F5F5F5F5F5F5F5F5F5F5F5F5F5F5F5F5F5F5F5F5F5F5F5F5F5F5F5F5F5F5F5F5F5F5F5F569E2E2E269F5F5F5F5F5F5F5F5F5F5F5F5F5F5F5F5F5F5F5F5F5F5F5F5F5F5F5F5F5F5F5F5F5F5F5F5F5F5F5F5F5F5F5F5F5F5F5F5F5F5F5F5F5F5F5F5F5F5F5F5F5F5F5F5F5F5F5F5F5F5F5F5F5F5F5F5F5F5F5F5F5F5F5F5F5
310
F5F569BEBEBEBEBEBEF5F5DCF5F5F51B1BF5F5F5F5F51B1BF5F5F5DCF5F5F5F5F5F5F5F5F5F5F5F5F5F5F5F5F5F5F5F5F5F5F5F5F5F5F5F5F5F5F5F5F5F5F5F5F5F5F5F5F5F5F5F5F5F5F5F5F5F5F5F5F5F5F5F5F5F5F5F5F5F569E2E2E269F5F5F5F5F5F5F5F5F5F5F5F5F5F5F5F5F5F5F5F5F5F5F5F5F5F5F5F5F5F5E2F5
310
F5F5F5F5F5F5F5F5F5F5F5F5F5F5F5F5F5F5F5F5F5F5F5F5F5F5F5F5F5F5F5F5F5F5F5F5F5F5F5F5F5F5F5F5F5F5F5F5F5F5F5F5F5F5F569F5F5F5F5F5F5F5F5DCF5F51B1B1BF5F5F5F5F51B1B1BF5F5DCF5F5F5F5F5F5F5F5F5F5F5F5F5F5F5F5F5F5F5F5F5F5F5F5F5F5F5F5F5F5F5F5F5F5F5F5F5F5F5F5F5F5F5F5F5F5
310
F5F5F5F5F5F5F5F5F5F5F5F5F5F5F5F569E2E2E269F5F5F5F5F5F5F5F5F5F5F5F5F5F5F5F5F5F5F5F5F5F5F5F5F5F5F5F5E2E2E2E2E2F5F5F5F5F5F5F5F5F5F5F5F5F5F5F5F5F5F5F5F5F5F5F5F5F5F5F5F5F5F5F5F5F5F5F5F5F5F5F5F5F5F5F5F5F5F5F5F5F5F5F5F5F5F569F5F5F5F5F5F5F5F5DCF5F51B1BF5F5F5F5F5
310
F5F51B1BF5F5DCF5F5F5F5F5F5F5F5F5F5F5F5F5F5F5F5F5F5F5F5F5F5F5F5F5F5F5F5F5F5F5F5F5F5F5F5F5F5F5F5F5F5F5F5F5F5F5F5F5F5F5F5F5F5F5F5F5F5F5F5F5F569E2E2E269F5F5F5F5F5F5F5F5F5F5F5F5F5F5F5F5F5F5F5F5F5F5F5F5F5F5F5F5F5E2E2E2BEBEBEF5F5F5F5F5F5F5F5F5F5F5F5F5F5F5F5F5F5
310
F5F5F5F5F5F5F5F5F5F5F5F5F5F5F5F5F5F5F5F5F5F5F5F5F5F5F5F5F5F5F5F5F5F569F5F5F5F5F5F5F5F5DCF5F5F5F5F5F5F5F5F5F5F5F5F5F5F5DCF5F5F5F5F5F5F5F5F5F5F5F5F5F5F5F5F5F5F5F5F5F5F5F5F5F5F5F5F5F5F5F5F5F5F5F5F5F5F5F5F5F5F5F5F5F5F5F5F5F5F5F5F5F5F5F5F5F5F5F5F5F569E2E2E269
310
F5F5F5F5F5F5F5F5F5F5F5F5F5F5F5F5F5F5F5F5F5F5F5F5F5F5F5F5F5F5BEBEE2E2E2BEBEF5F5F5F5F5F5F5F5F5F5F5F5F5F5F5F5F5F5F5F5F5F5F5F5F5F5F5F5F5F5F5F5F5F5F5F5F5F5F5F5F5F5F5F5F5F5F5F5F5F569F5F5F5F5F5F5F5F5DCF5F5F5F5F5F5F5F5F5F5F5F5F5F5F5DCF5F5F5F5F5F5F5F5F5F5F5F5F5F5
310
F5F5F5F5F5F5F5F5F5F5F5F5F5F5F5F5F5F5F5F5F5F5F5F5F5F5F5F5F5F5F5F5F5F5F5F5F5F5F5F5F5F5F5F5F5F5F5F569E2E2E269F5F5F5F5F5F5F5F5F5F5F5F5F5F5F5F5F5F5F5F5F5F5F5F5F5F5F5F5F5F5F5BEBEE2E2E2E2BEBEF5F5F5F5F5F5F5F5F5F5F5F5F5F5F5F5F5F5F5F5F5F5F5F5F5F5F5F5F5F5F5F5F5F5F5
310
F5F5F5F5F5F5F5F5F5F5F5F5F569F5F5F5F5F5F5F5F5DCF5F5F5F5F5F5F5BEF5F5F5F5F5F5F5DCF5F5F5F5F5F5F5F5F5F5F5F5F5F5F5F5F5F5F5F5F5F5F5F5F5F5F5F5F5F5F5F5F5F5F5F5F5F5F5F5F5F5F5F5F5F5F5F5F5F5F5F5F5F5F5F5F5F5F5F5F5F569F5E2E269F5F5F5F5F5F5F5F5F5F5F5F5F5F5F5F5F5F5F5F5F5
310
F5F5F5F5F5F5F5F5F5F5F5F5BEBEE2BEBEBEF5F5F5F5F5F5F5F5F5F5F5F5F5F5F5F5F5F5F5F5F5F5F5F5F5F5F5F5F5F5F5F5F5F5F5F5F5F5F5F5F5F5F5F5F5F5F5F569F5F5F5F5F5F5F5F5DCF5F5F5F5F5F5F5BEF5F5F5F5F5F5F5DCF5F5F5F5F5F5F5F5F5F5F5F5F5F5F5F5F5F5F5F5F5F5F5F5F5F5F5F5F5F5F5F5F5F5F5
310
F5F5F5F5F5F5F5F5F5F5F5F5F5F5F5F5F5F5F5F5F5F5F5F5F5F5F569F5E2E269F5F5F5F5F5F5F5F5F5F5F5F5F5F5F5F5F5F5F5F5F5F5F5F5F5F5F5F5F5F5F5F5F5F5F5BEBEBEE2BEBEF5F5F5F5F5F5F5F5F5F5F5F5F5F5F5F5F5F5F5F5F5F5F5F5F5F5F5F5F5F5F5F5F5F5F5F5F5F5F5F5F5F5F5F5F5F569F5F5F5F5F5F5F5
310
F5DCF5F5F5F5F5F5F5BEF5F5F5F5F5F5F5DCF5F5F5F5F5F5F5F5F5F5F5F5F5F5F5F5F5F5F5F5F5F5F5F5F5F5F5F5F5F5F5F5F5F5F5F5F5F5F5F5F5F5F5F5F5F5F5F5F5F5F5F5F5F5F5F5F5F5F5F5F5F569F5E2E269F5F5F5F5F5F5F5F5F5F5F5F5F5F5F5F5F5F5F5F5F5F5F5F5F5F5F5F5F5F5F5F5F5F5F5F5F5BEBEE2E2BE
310
BEF5DCF5F5F5F5F5F5F5F5F5F5F5F5F5F5F5F5F5F5F5F5F5F5F5F5F5F5F5F5F5F5F5F5F5F5F5F5F5F5F5F5F5F569F5F5F5F5F5F5F5F5DCF5F5E2BEBEBEBEBEBEBEBEE2BEF5F5DCF5F5F5F5F5F5F5F5F5F5F5F5F5F5F5F5F5F5F5F5F5F5F5F5F5F5F5F5F5F5F5F5F5F5F5F5F5F5F5F5F5F5F5F5F5F5F5F5F5F5F5F5F5F5F5F5
310
F5F5F5F5F5F569F5E2E269F5F5F5F5F5F5F5F5F5F5F5F5F5F5F5F5F5F5F5F5F5F5F5F5F5F5F5F5F5F5F5F5F5F5F5F5F5F5F5BEBEBEDCDCF5DCDCF5F5F5F5F5F5F5F5F5F5F5F5F5F5F5F5F5F5F5F5F5F5F5F5F5F5F5F5F5F5F5F5F5F5F5F5F5F5F5F569F5F5F5F5F5F5F5F5DCF5F5E2BEBEBEBEBEBEBEBEBEBEF5F5DCF5F5F5
310
F5F5F5F5F5F5F5F5F5F5F5F5F5F5F5F5F5F5F5F5F5F5F5F5F5F5F5F5F5F5F5F5F5F5F5F5F5F5F5F5F5F5F5F5F5F5F5F5F5F5F5F5F5F5F5F5F5F5F569F5E2E269F5F5F5F5F5F5F5F5F5F5F5F5F5F5F5F5F5F5F5F5F5F5F5F5F5F5F5F5F5F5F5F5F5F5F5F5F5F5F5F5DCDCF5F5F5F5F5DCF5F5F5F5F5F5F5F5F5F5F5F5F5F5F5
310
F5F5F5F5F5F5F5F5F5F5F5F5F5F5F5F5F5F5F5F5F5F5F5F569F5F5F5F5F5F5F5F5DCF5F5E2BEBEBEBEBEF5BEBEBEBEF5F5DCF5F5F5F5F5F5F5F5F5F5F5F5F5F5F5F5F5F5F5F5F5F5F5F5F5F5F5F5F5F5F5F5F5F5F5F5F5F5F5F5F5F5F5F5F5F5F5F5F5F5F5F5F5F5F5F5F5F5F5F5F5F569F5E2E269F5F5F5F5F5F5F5F5F5F5
310
F5F5F5F5F5F5F5F5F5F5F5F5F5F5F5F5F5F5F5F5F5F5F5F5F5F5F5F5F5DCF5F5F51B1BF5F5F5DCDCF5F5F5F5F5F5F5F5F5F5F5F5F5F5F5F5F5F5F5F5F5F5F5F5F5F5F5F5F5F5F5F5F5F5F5F5F569F5F5F5F5F5F5F5F5DCF5F5F5BEBEBEF5BEF5BEBEBEBEF5F5DCF5F5F5F5F5F5F5F5F5F5F5F5F5F5F5F5F5F5F5F5F5F5F5F5
310
F5F5F5F5F5F5F5F5F5F5F5F5F5F5F5F5F5F5F5F5F5F5F5F5F5F5F5F5F5F5F5F5F5F5F5F5F5F569F5E2E269F5F5F5F5F5F5F5F5F5F5F5F5F5F5F5F5F5F5F5F5F5F5F5F5F5F5F5F5F5F5F5F5F5F5F5F5F5DCDCF5F5F5F51B1BF5F5F5F5F5DCF5F5F5F5F5F5F5F5F5F5F5F5F5F5F5F5F5F5F5F5F5F5F5F5F5F5F5F5F5F5F5F5F5
310
F5F5F569F5F5F5F5F5F5F5F5DCF5F5F5F5F5F5F5BEF5F5F5F5F5F5F5DCF5F5F5F5F5F5F5F5F5F5F5F5F5F5F5F5F5F5F5F5F5F5F5F5F5F5F5F5F5F5F5F5F5F5F5F5F5F5F5F5F5F5F5F5F5F5F5F5F5F5F5F5F5F5F5F5F5F5F5F5F5F569F5E2E269F5F5F5F5F5F5F5F5F5F5F5F5F5F5F5F5F5F5F5F5F5F5F5F5F5F5F5F5F5F5F5
310
F5F5F5F5F5DCF5F5F5F5F5F5F5F5F5F51B1BF5F5DCDCF5F5F5F5F5F5F5F5F5F5F5F5F5F5F5F5F5F5F5F5F5F5F5F5F5F5F5F5F5F5F5F5F5F569F5F5F5F5F5F5F5F5DCF5F5F5F5F5F5F5BEF5F5F5F5F5F5F5DCF5F5F5F5F5F5F5F5F5F5F5F5F5F5F5F5F5F5F5F5F5F5F5F5F5F5F5F5F5F5F5F5F5F5F5F5F5F5F5F5F5F5F5F5F5
310
F5F5F5F5F5F5F5F5F5F5F5F5F5F5F5F5F569E2E2E269F5F5F5F5F5F5F5F5F5F5F5F5F5F5F5F5F5F5F5F5F5F5F5F5F5F5F5F5F5F5F5F5F5F5DCDCF5F5BEBEBEE2F5BEF5F5F51B1BF5F5F5F5DCF5F5F5F5F5F5F5F5F5F5F5F5F5F5F5F5F5F5F5F5F5F5F5F5F5F5F5F5F5F5F5F5F569F5F5F5F5F5F5F5F5DCF5F5F5F5F5F5F5F5
310
F5F5F5F5F5F5F5DCF5F5F5F5F5F5F5F5F5F5F5F5F5F5F5F5F5F5F5F5F5F5F5F5F5F5F5F5F5F5F5F5F5F5F5F5F5F5F5F5F5F5F5F5F5F5F5F5F5F5F5F5F5F5F5F5F5F5F5F5F5F569E2E2E269F5F5F5F5F5F5F5F5F5F5F5F5F5F5F5F5F5F5F5F5F5F5F5F5F5F5F5F5F5F5F5F5DCDCF5F5F5F5BEBEBEBEBEBEF5F5F5F51BF5F5DC
310
DCF5F5F5F5F5F5F5F5F5F5F5F5F5F5F5F5F5F5F5F5F5F5F5F5F5F5F5F5F5F5F5F5F5F569F5F5F5F5F5F5F5F5DCF5F5F5F5F5F5F5F5F5F5F5F5F5F5F5DCF5F5F5F5F5F5F5F5F5F5F5F5F5F5F5F5F5F5F5F5F5F5F5F5F5F5F5F5F5F5F5F5F5F5F5F5F5F5F5F5F5F5F5F5F5F5F5F5F5F5F5F5F5F5F5F5F5F5F5F5F5F569E2E2E2
310
69F5F5F5F5F5F5F5F5F5F5F5F5F5F5F5F5F5F5F5F5F5F5F5F5F5F5F5F5F5F5F5DCF5F5F5F5F5F5F5F5BEBEBEBEBEF5F5F5F5DCDCF5F5F5F5F5F5F5F5F5F5F5F5F5F5F5F5F5F5F5F5F5F5F5F5F5F5F5F5F5F5F5F5F5F5F5F569F5F5F5F5F5F5F5F5DCF51B1B1B1B1B1B1B1B1B1BF5F5F5F5DCF5F5F5F5F5F5F5F5F5F5F5F5F5
310
F5F5F5F5F5F5F5F5F5F5F5F5F5F5F5F5F5F5F5F5F5F5F5F5F5F5F5F5F5F5F5F5F5F5F5F5F5F5F5F5F5F5F5F5F5F5F5F5F569E2E2E269F5F5F5F5F5F5F5F5F5F5F5F5F5F5F5F5F5F5F5F5F5F5F5F5F5F5F5F5F5F5F5F5DCDCF5F5F5F5F5BEF5F5BEBEBEF5F5DCDCF5F5F5F5F5F5F5F5F5F5F5F5F5F5F5F5F5F5F5F5F5F5F5F5
310
F5F5F5F5F5F5F5F5F5F5F5F5F5F569F5F5F5F5F5F5F5F5DCF51B1B1B1B1B1BF5F5F5F5F5F5F5F5DCF5F5F5F5F5F5F5F5F5F5F5F5F5F5F5F5F5F5F5F5F5F5F5F5F5F5F5F5F5F5F5F5F5F5F5F5F5F5F5F5F5F5F5F5F5F5F5F5F5F5F5F5F5F5F5F5F5F5F5F5F5F569E2E2E269F5F5F5F5F5F5F5F5F5F5F5F5F5F5F5F5F5F5F5F5
310
F5F5F5F5F5F5F5F5F5F5F5F5F5F5DCDCF5F5F5F5F5F5F5F5F5DCDCF5F5F5F5F5F5F5F5F5F5F5F5F5F5F5F5F5F5F5F5F5F5F5F5F5F5F5F5F5F5F5F5F5F5F5F5F5F5F5F569F5F5F5F5F5F5F5F5DCDCDCDCDCDCDCDCDCDCDCDCDCDCDCDCDCF5F5F5F5F5F5F5F5F5F5F5F5F5F5F5F5F5F5F5F5F5F5F5F5F5F5F5F5F5F5F5F5F5F5
310
F5F5F5F5F5F5F5F5F5F5F5F5F5F5F5F5F5F5F5F5F5F5F5F5F5F5F5F569E2E2E269F5F5F5F5F5F5F5F5F5F5F5F5F5F5F5F5F5F5F5F5F5F5F5F5F5F5F5F5F5F5F5F5F5F5F5F5DCDCF5F5F5F5F5DCDCF5F5F5F5F5F5F5F5F5F5F5F5F5F5F5F5F5F5F5F5F5F5F5F5F5F5F5F5F5F5F5F5F5F5F5F5F5F5F5F5F5F569F5F5F5F5F5F5
310
F5F5F5F5F5F5F5F5F5F5F5F5F5F5F5F5F5F5F5F5F5F5F5F5F5F5F5F5F5F5F5F5F5F5F5F5F5F5F5F5F5F5F5F5F5F5F5F5F5F5F5F5F5F5F5F5F5F5F5F5F5F5F5F5F5F5F5F5F5F5F5F5F5F5F5F5F5F5F5F5F569E2E2E269F5F5F5F5F5F5F5F5F5F5F5F5F5F5F5F5F5F5F5F5F5F5F5F5F5F5F5F5F5F5F5F5F5F5F5F5F5F5DCDCF5
310
DCDCF5F5F5F5F5F5F5F5F5F5F5F5F5F5F5F5F5F5F5F5F5F5F5F5F5F5F5F5F5F5F5F5F5F5F5F5F5F5F5F5F5F5F5F569F5F5F5F5F5F5F5F5F5F5F5F5F5F5F5F5F5F5F5F5F5F5F5F5F5F5F5F5F5F5F5F5F5F5F5F5F5F5F5F5F5F5F5F5F5F5F5F5F5F5F5F5F5F5F5F5F5F5F5F5F5F5F5F5F5F5F5F5F5F5F5F5F5F5F5F5F5F5F5F5
310
F5F5F5F5F5F5F569E2E2E269F5F5F5F5F5F5F5F5F5F5F5F5F5F5F5F5F5F5F5F5F5F5F5F5F5F5F5F5F5F5F5F5F5F5F5F5F5F5F5F5DCF5F5F5F5F5F5F5F5F5F5F5F5F5F5F5F5F5F5F5F5F5F5F5F5F5F5F5F5F5F5F5F5F5F5F5F5F5F5F5F5F5F5F5F5F5F569F5F5F5F5F5F5F5F5F5F5F5F5F5F5F5F5F5F5F5F5F5F5F5F5F5F5F5
310
F5F5F5F5F5F5F5F5F5F5F5F5F5F5F5F5F5F5F5F5F5F5F5F5F5F5F5F5F5F5F5F5F5F5F5F5F5F5F5F5F5F5F5F5F5F5F5F5F5F5F5F5F5F5F5F5F5F5F5F569E2E2E269F5F5F5F5F5F5F5F5F5F5F5F5F5F5F5F5F5F5F5F5F5F5F5F5F5F5F5F5F5F5F5F5F5F5F5F5F5F5F5F5F5F5F5F5F5F5F5F5F5F5F5F5F5F5F5F5F5F5F5F5F5F5
310
F5F5F5F5F5F5F5F5F5F5F5F5F5F5F5F5F5F5F5F5F5F5F5F5F569F5F5F5F5F5F5F5F5F5F5F5F5F5F5F5F5F5F5F5F5F5F5F5F5F5F5F5F5F5F5F5F5F5F5F5F5F5F5F5F5F5F5F5F5F5F5F5F5F5F5F5F5F5F5F5F5F5F5F5F5F5F5F5F5F5F5F5F5F5F5F5F5F5F5F5F5F5F5F5F5F5F5F5F5F5F5F569E2E2E269F5F5F5F5F5F5F5F5F5
310
F5F5F5F5F5F5F5F5F5F5F5F5F5F5F5F5F5F5F5F5F5F5F5F5F5F5F5F5F5F5F5F5F5F5F5F5F5F5F5F5F5F5F5F5F5F5F5F5F5F5F5F5F5F5F5F5F5F5F5F5F5F5F5F5F5F5F5F5F5F5F5F5F5F5F5F5F5F569F5F5F5F5F5F5F5F5F5F5F5F5F5F5F5F5F5F5F5F5F5F5F5F5F5F5F5F5F5F5F5F5F5F5F5F5F5F5F5F5F5F5F5F5F5F5F5F5
310
F5F5F5F5F5F5F5F5F5F5F5F5F5F5F5F5F5F5F5F5F5F5F5F5F5F5F5F5F5F5F5F5F5F5F5F5F5F5F569E2E2E269F5F5F5F5F5F5F5F5F5F5F5F5F5F5F5F5F5F5F5F5F5F5F5F5F5F5F5F5F5F5F5F5F5F5F5F5F5F5F5F5F5F5F5F5F5F5F5F5F5F5F5F5F5F5F5F5F5F5F5F5F5F5F5F5F5F5F5F5F5F5F5F5F5F5F5F5F5F5F5F5F5F5F5
310
F5F5F5F569F5F5F5F5F5F5F5F5F5F5F5F5F5F5F5F5F5F5F5F5F5F5F5F5F5F5F5F5F5F5F5F5F5F5F5F5F5F5F5F5F5F5F5F5F5F5F5F5F5F5F5F5F5F5F5F5F5F5F5F5F5F5F5F5F5F5F5F5F5F5F5F5F5F5F5F5F5F5F5F5F5F5F5F5F5F5F569E2E2E269F5F5F5F5F5F5F5F5F5F5F5F5F5F5F5F5F5F5F5F5F5F5F5F5F5F5F5F5F5F5
310
F5F5F5F5F5F5F5F5F5F5F5F5F5F5F5F5F5F5F5F5F5F5F5F5F5F5F5F5F5F5F5F5F5F5F5F5F5F5F5F5F5F5F5F5F5F5F5F5F5F5F5F5F5F5F5F5F569F5F5F5F5F5F5F5F5F5F5F5F5F5F5F5F5F5F5F5F5F5F5F5F5F5F5F5F5F5F5F5F5F5F5F5F5F5F5F5F5F5F5F5F5F5F5F5F5F5F5F5F5F5F5F5F5F5F5F5F5F5F5F5F5F5F5F5F5F5
310
F5F5F5F5F5F5F5F5F5F5F5F5F5F5F5F5F5F569E2E2E269F5F5F5F5F5F5F5F5F5F5F5F5F5F5F5F5F5F5F5F5F5F5F5F5F5F5F5F5F5F5F5F5F5F5F5F5F5F5F5F5F5F5F5F5F5F5F5F5F5F5F5F5F5F5F5F5F5F5F5F5F5F5F5F5F5F5F5F5F5F5F5F5F5F5F5F5F5F5F5F5F5F5F5F5F5F5F569F5F5F5F5F5F5F5F5F5F5F5F5F5F5F5F5
310
F5F5F5F5F5F5F5F5F5F5F5F5F5F5F5F5F5F5F5F5F5F5F5F5F5F5F5F5F5F5F5F5F5F5F5F5F5F5F5F5F5F5F5F5F5F5F5F5F5F5F5F5F5F5F5F5F5F5F5F5F5F5F5F5F5F5F5F5F5F5F569E2E2E269F5F5F5F5F5F5F5F5F5F5F5F5F5F5F5F5F5F5F5F5F5F5F5F5F5F5F5F5F5F5F5F5F5F5F5F5F5F5F5F5F5F5F5F5F5F5F5F5F5F5F5
310
F5F5F5F5F5F5F5F5F5F5F5F5F5F5F5F5F5F5F5F5F5F5F5F5F5F5F5F5F5F5F5F5F5F5F5F569F5F5F5F5F5F5F5F5F5F5F5F5F5F5F5F5F5F5F5F5F5F5F5F5F5F5F5F5F5F5F5F5F5F5F5F5F5F5F5F5F5F5F5F5F5F5F5F5F5F5F5F5F5F5F5F5F5F5F5F5F5F5F5F5F5F5F5F5F5F5F5F5F5F5F5F5F5F5F5F5F5F5F5F5F5F5F569E2E2
310
E269F5F5F5F5F5F5F5F5F5F5F5F5F5F5F5F5F5F5F5F5F5F5F5F5F5F5F5F5F5F5F5F5F5F5F5F5F5F5F5F5F5F5F5F5F5F5F5F5F5F5F5F5F5F5F5F5F5F5F5F5F5F5F5F5F5F5F5F5F5F5F5F5F5F5F5F5F5F5F5F5F5F5F5F5F5F5F569F5F5F5F5F5F5F5F5F5F5F5F5F5F5F5F5F5F5F5F5F5F5F5F5F5F5F5F5F5F5F5F5F5F5F5F5F5
310
F5F5F5F5F5F5F5F5F5F5F5F5F5F5F5F5F5F5F5F5F5F5F5F5F5F5F5F5F5F5F5F5F5F5F5F5F5F5F5F5F5F5F5F5F5F5F5F5F5F569F5E2E269F5F5F5F5F5F5F5F5F5F5F5F5F5F5F5F5F5F5F5F5F5F5F5F5F5F5F5F5F5F5F5F5F5F5F5F5F5F5F5F5F5F5F5F5F5F5F5F5F5F5F5F5F5F5F5F5F5F5F5F5F5F5F5F5F5F5F5F5F5F5F5F5
310
F5F5F5F5F5F5F5F5F5F5F5F5F5F5F569F5F5F5F5F5F5F5F5F5F5F5F5F5F5F5F5F5F5F5F5F5F5F5F5F5F5F5F5F5F5F5F5F5F5F5F5F5F5F5F5F5F5F5F5F5F5F5F5F5F5F5F5F5F5F5F5F5F5F5F5F5F5F5F5F5F5F5F5F5F5F5F5F5F5F5F5F5F5F5F5F5F5F5F5F5F5F569F5E2E269F5F5F5F5F5F5F5F5F5F5F5F5F5F5F5F5F5F5F5
310
F5F5F5F5F5F5F5F5F5F5F5F5F5F5F5F5F5F5F5F5F5F5F5F5F5F5F5F5F5F5F5F5F5F5F5F5F5F5F5F5F5F5F5F5F5F5F5F5F5F5F5F5F5F5F5F5F5F5F5F5F5F5F5F5F5F5F5F569F5F5F5F5F5F5F5F5F5F5F5F5F5F5F5F5F5F5F5F5F5F5F5F5F5F5F5F5F5F5F5F5F5F5F5F5F5F5F5F5F5F5F5F5F5F5F5F5F5F5F5F5F5F5F5F5F5F5
310
F5F5F5F5F5F5F5F5F5F5F5F5F5F5F5F5F5F5F5F5F5F5F5F5F5F5F5F5F569F5E2E269F5F5F5F5F5F5F5F5F5F5F5F5F5F5F5F5F5F5F5F5F5F5F5F5F5F5F5F5F5F5F5F5F5F5F5F5F5F5F5F5F5F5F5F5F5F5F5F5F5F5F5F5F5F5F5F5F5F5F5F5F5F5F5F5F5F5F5F5F5F5F5F5F5F5F5F5F5F5F5F5F5F5F5F5F5F5F569F5F5F5F5F5
310
F5F5F5F5F5F5F5F5F5F5F5F5F5F5F5F5F5F5F5F5F5F5F5F5F5F5F5F5F5F5F5F5F5F5F5F5F5F5F5F5F5F5F5F5F5F5F5F5F5F5F5F5F5F5F5F5F5F5F5F5F5F5F5F5F5F5F5F5F5F5F5F5F5F5F5F5F5F5F5F5F5F569F5E2E269F5F5F5F5F5F5F5F5F5F5F5F5F5F5F5F5F5F5F5F5F5F5F5F5F5F5F5F5F5F5F5F5F5F5F5F5F5F5F5F5
310
F5F5F5F5F5F5F5F5F5F5F5F5F5F5F5F5F5F5F5F5F5F5F5F5F5F5F5F5F5F5F5F5F5F5F5F5F5F5F5F5F5F5F5F5F5F5F569F5F5F5F5F5F5F5F5F5F5F5F5F5F5F5F5F5F5F5F5F5F5F5F5F5F5F5F5F5F5F5F5F5F5F5F5F5F5F5F5F5F5F5F5F5F5F5F5F5F5F5F5F5F5F5F5F5F5F5F5F5F5F5F5F5F5F5F5F5F5F5F5F5F5F5F5F5F5F5
310
F5F5F5F5F5F5F5F569F5E2E269F5F5F5F5F5F5F5F5F5F5F5F5F5F5F5F5F5F5F5F5F5F5F5F5F5F5F5F5F5F5F5F5F5F5F5F5F5F5F5F5F5F5F5F5F5F5F5F5F5F5F5F5F5F5F5F5F5F5F5F5F5F5F5F5F5F5F5F5F5F5F5F5F5F5F5F5F5F5F5F5F5F5F5F5F5F5F569F5F5F5F5F5F5F5F5F5F5F5F5F5F5F5F5F5F5F5F5F5F5F5F5F5F5
310
F5F5F5F5F5F5F5F5F5F5F5F5F5F5F5F5F5F5F5F5F5F5F5F5F5F5F5F5F5F5F5F5F5F5F5F5F5F5F5F5F5F5F5F5F5F5F5F5F5F5F5F5F5F5F5F5F5F5F5F5F569F5E2E269F5F5F5F5F5F5F5F5F5F5F5F5F5F5F5F5F5F5F5F5F5F5F5F5F5F5F5F5F5F5F5F5F5F5F5F5F5F5F5F5F5F5F5F5F5F5F5F5F5F5F5F5F5F5F5F5F5F5F5F5F5
310
F5F5F5F5F5F5F5F5F5F5F5F5F5F5F5F5F5F5F5F5F5F5F5F5F5F569F5F5F5F5F5F5F5F5F5F5F5F5F5F5F5F5F5F5F5F5F5F5F5F5F5F5F5F5F5F5F5F5F5F5F5F5F5F5F5F5F5F5F5F5F5F5F5F5F5F5F5F5F5F5F5F5F5F5F5F5F5F5F5F5F5F5F5F5F5F5F5F5F5F5F5F5F5F5F5F5F5F5F5F5F5F5F569F5E2E269F5F5F5F5F5F5F5F5
310
F5F5F5F5F5F5F5F5F5F5F5F5F5F5F5F5F5F5F5F5F5F5F5F5F5F5F5F5F5F5F5F5F5F5F5F5F5F5F5F5F5F5F5F5F5F5F5F5F5F5F5F5F5F5F5F5F5F5F5F5F5F5F5F5F5F5F5F5F5F5F5F5F5F5F5F5F5F5F569F5F5F5F5F5F5F5F5F5F5F5F5F5F5F5F5F5F5F5F5F5F5F5F5F5F5F5F5F5F5F5F5F5F5F5F5F5F5F5F5F5F5F5F5F5F5F5
310
F5F5F5F5F5F5F5F5F5F5F5F5F5F5F5F5F5F5F5F5F5F5F5F5F5F5F5F5F5F5F5F5F5F5F5F5F5F5F5F569F5E2E269F5F5F5F5F5F5F5F5F5F5F5F5F5F5F5F5F5F5F5F5F5F5F5F5F5F5F5F5F5F5F5F5F5F5F5F5F5F5F5F5F5F5F5F5F5F5F5F5F5F5F5F5F5F5F5F5F5F5F5F5F5F5F5F5F5F5F5F5F5F5F5F5F5F5F5F5F5F5F5F5F5F5
310
F5F5F5F5F569F5F5F5F5F5F5F5F5F5F5F5F5F5F5F5F5F5F5F5F5F5F5F5F5F5F5F5F5F5F5F5F5F5F5F5F5F5F5F5F5F5F5F5F5F5F5F5F5F5F5F5F5F5F5F5F5F5F5F5F5F5F5F5F5F5F5F5F5F5F5F5F5F5F5F5F5F5F5F5F5F5F5F5F5F5F5F569F5E2E269F5F5F5F5F5F5F5F5F5F5F5F5F5F5F5F5F5F5F5F5F5F5F5F5F5F5F5F5F5
310
F5F5F5F5F5F5F5F5F5F5F5F5F5F5F5F5F5F5F5F5F5F5F5F5F5F5F5F5F5F5F5F5F5F5F5F5F5F5F5F5F5F5F5F5F5F5F5F5F5F5F5F5F5F5F5F5F5F569F5F5F5F5F5F5F5F5F5F5F5F5F5F5F5F5F5F5F5F5F5F5F5F5F5F5F5F5F5F5F5F5F5F5F5F5F5F5F5F5F5F5F5F5F5F5F5F5F5F5F5F5F5F5F5F5F5F5F5F5F5F5F5F5F5F5F5F5
310
F5F5F5F5F5F5F5F5F5F5F5F5F5F5F5F5F5F5F569E2E2E269F5F5F5F5F5F5F5F5F5F5F5F5F5F5F5F5F5F5F5F5F5F5F5F5F5F5F5F5F5F5F5F5F5F5F5F5F5F5F5F5F5F5F5F5F5F5F5F5F5F5F5F5F5F5F5F5F5F5F5F5F5F5F5F5F5F5F5F5F5F5F5F5F5F5F5F5F5F5F5F5F5F5F5F5F5F5F569F5F5F5F5F5F5F5F5F5F5F5F5F5F5F5
310
F5F5F5F5F5F5F5F5F5F5F5F5F5F5F5F5F5F5F5F5F5F5F5F5F5F5F5F5F5F5F5F5F5F5F5F5F5F5F5F5F5F5F5F5F5F5F5F5F5F5F5F5F5F5F5F5F5F5F5F5F5F5F5F5F5F5F5F5F5F5F5F569E2E2E269F5F5F5F5F5F5F5F5F5F5F5F5F5F5F5F5F5F5F5F5F5F5F5F5F5F5F5F5F5F5F5F5F5F5F5F5F5F5F5F5F5F5F5F5F5F5F5F5F5F5
310
F5F5F5F5F5F5F5F5F5F5F5F5F5F5F5F5F5F5F5F5F5F5F5F5F5F5F5F5F5F5F5F5F5F5F5F5F569F5F5F5F5F5F5F5F5F5F5F5F5F5F5F5F5F5F5F5F5F5F5F5F5F5F5F5F5F5F5F5F5F5F5F5F5F5F5F5F5F5F5F5F5F5F5F5F5F5F5F5F5F5F5F5F5F5F5F5F5F5F5F5F5F5F5F5F5F5F5F5F5F5F5F5F5F5F5F5F5F5F5F5F5F5F5F569E2
310
E2E269F5F5F5F5F5F5F5F5F5F5F5F5F5F5F5F5F5F5F5F5F5F5F5F5F5F5F5F5F5F5F5F5F5F5F5F5F5F5F5F5F5F5F5F5F5F5F5F5F5F5F5F5F5F5F5F5F5F5F5F5F5F5F5F5F5F5F5F5F5F5F5F5F5F5F5F5F5F5F5F5F5F5F5F5F5F5F569F5F5F5F5F5F5F5F5F5F5F5F5F5F5F5F5F5F5F5F5F5F5F5F5F5F5F5F5F5F5F5F5F5F5F5F5
310
F5F5F5F5F5F5F5F5F5F5F5F5F5F5F5F5F5F5F5F5F5F5F5F5F5F5F5F5F5F5F5F5F5F5F5F5F5F5F5F5F5F5F5F5F5F5F5F5F5F5F569E2E2E269F5F5F5F5F5F5F5F5F5F5F5F5F5F5F5F5F5F5F5F5F5F5F5F5F5F5F5F5F5F5F5F5F5F5F5F5F5F5F5F5F5F5F5F5F5F5F5F5F5F5F5F5F5F5F5F5F5F5F5F5F5F5F5F5F5F5F5F5F5F5F5
310
F5F5F5F5F5F5F5F5F5F5F5F5F5F5F5F569F5F5F5F5F5F5F5F5F5F5F5F5F5F5F5F5F5F5F5F5F5F5F5F5F5F5F5F5F5F5F5F5F5F5F5F5F5F5F5F5F5F5F5F5F5F5F5F5F5F5F5F5F5F5F5F5F5F5F5F5F5F5F5F5F5F5F5F5F5F5F5F5F5F5F5F5F5F5F5F5F5F5F5F5F5F5F569E2E2E269F5F5F5F5F5F5F5F5F5F5F5F5F5F5F5F5F5F5
310
F5F5F5F5F5F5F5F5F5F5F5F5F5F5F5F5F5F5F5F5F5F5F5F5F5F5F5F5F5F5F5F5F5F5F5F5F5F5F5F5F5F5F5F5F5F5F5F5F5F5F5F5F5F5F5F5F5F5F5F5F5F5F5F5F5F5F5F5F569F5F5F5F5F5F5F5F5F5F5F5F5F5F5F5F5F5F5F5F5F5F5F5F5F5F5F5F5F5F5F5F5F5F5F5F5F5F5F5F5F5F5F5F5F5F5F5F5F5F5F5F5F5F5F5F5F5
310
F5F5F5F5F5F5F5F5F5F5F5F5F5F5F5F5F5F5F5F5F5F5F5F5F5F5F5F5F5F569E2E2E269F5F5F5F5F5F5F5F5F5F5F5F5F5F5F5F5F5F5F5F5F5F5F5F5F5F5F5F5F5F5F5F5F5F5F5F5F5F5F5F5F5F5F5F5F5F5F5F5F5F5F5F5F5F5F5F5F5F5F5F5F5F5F5F5F5F5F5F5F5F5F5F5F5F5F5F5F5F5F5F5F5F5F5F5F5F5F569F5F5F5F5
310
F5F5F5F5F5F5F5F5F5F5F5F5F5F5F5F5F5F5F5F5F5F5F5F5F5F5F5F5F5F5F5F5F5F5F5F5F5F5F5F5F5F5F5F5F5F5F5F5F5F5F5F5F5F5F5F5F5F5F5F5F5F5F5F5F5F5F5F5F5F5F5F5F5F5F5F5F5F5F5F5F5F5F569E2E2E269F5F5F5F5F5F5F5F5F5F5F5F5F5F5F5F5F5F5F5F5F5F5F5F5F5F5F5F5F5F5F5F5F5F5F5F5F5F5F5
310
F5F5F5F5F5F5F5F5F5F5F5F5F5F5F5F5F5F5F5F5F5F5F5F5F5F5F5F5F5F5F5F5F5F5F5F5F5F5F5F5F5F5F5F5F5F5F5F569F5F5F5F5F5F5F5F5F5F5F5F5F5F5F5F5F5F5F5F5F5F5F5F5F5F5F5F5F5F5F5F5F5F5F5F5F5F5F5F5F5F5F5F5F5F5F5F5F5F5F5F5F5F5F5F5F5F5F5F5F5F5F5F5F5F5F5F5F5F5F5F5F5F5F5F5F5F5
310
F5F5F5F5F5F5F5F5F569E2E2E269F5F5F5F5F5F5F5F5F5F5F5F5F5F5F5F5F5F5F5F5F5F5F5F5F5F5F5F5F5F5F5F5F5F5F5F5F5F5F5F5F5F5F5F5F5F5F5F5F5F5F5F5F5F5F5F5F5F5F5F5F5F5F5F5F5F5F5F5F5F5F5F5F5F5F5F5F5F5F5F5F5F5F5F5F5F5F569F5F5F5F5F5F5F5F5F5F5F5F5F5F5F5F5F5F5F5F5F5F5F5F5F5
310
F5F5F5F5F5F5F5F5F5F5F5F5F5F5F5F5F5F5F5F5F5F5F5F5F5F5F5F5F5F5F5F5F5F5F5F5F5F5F5F5F5F5F5F5F5F5F5F5F5F5F5F5F5F5F5F5F5F5F5F5F5F569E2E2E269F5F5F5F5F5F5F5F5F5F5F5F5F5F5F5F5F5F5F5F5F5F5F5F5F5F5F5F5F5F5F5F5F5F5F5F5F5F5F5F5F5F5F5F5F5F5F5F5F5F5F5F5F5F5F5F5F5F5F5F5
310
F5F5F5F5F5F5F5F5F5F5F5F5F5F5F5F5F5F5F5F5F5F5F5F5F5F5F569F5F5F5F5F5F5F5F5F5F5F5F5F5F5F5F5F5F5F5F5F5F5F5F5F5F5F5F5F5F5F5F5F5F5F5F5F5F5F5F5F5F5F5F5F5F5F5F5F5F5F5F5F5F5F5F5F5F5F5F5F5F5F5F5F5F5F5F5F5F5F5F5F5F5F5F5F5F5F5F5F5F5F5F5F5F5F569E2E2E269F5F5F5F5F5F5F5
310
F5F5F5F5F5F5F5F5F5F5F5F5F5F5F5F5F5F5F5F5F5F5F5F5F5F5F5F5F5F5F5F5F5F5F5F5F5F5F5F5F5F5F5F5F5F5F5F5F5F5F5F5F5F5F5F5F5F5F5F5F5F5F5F5F5F5F5F5F5F5F5F5F5F5F5F5F5F5F5F569F5F5F5F5F5F5F5F5F5F5F5F5F5F5F5F5F5F5F5F5F5F5F5F5F5F5F5F5F5F5F5F5F5F5F5F5F5F5F5F5F5F5F5F5F5F5
310
F5F5F5F5F5F5F5F5F5F5F5F5F5F5F5F5F5F5F5F5F5F5F5F5F5F5F5F5F5F5F5F5F5F5F5F5F5F5F5F5F569E2E2E269F5F5F5F5F5F5F5F5F5F5F5F5F5F5F5F5F5F5F5F5F5F5F5F5F5F5F5F5F5F5F5F5F5F5F5F5F5F5F5F5F5F5F5F5F5F5F5F5F5F5F5F5F5F5F5F5F5F5F5F5F5F5F5F5F5F5F5F5F5F5F5F5F5F5F5F5F5F5F5F5F5
310
F5F5F5F5F5F569F5F5F5F5F5F5F5F5F5F5F5F5F5F5F5F5F5F5F5F5F5F5F5F5F5F5F5F5F5F5F5F5F5F5F5F5F5F5F5F5F5F5F5F5F5F5F5F5F5F5F5F5F5F5F5F5F5F5F5F5F5F5F5F5F5F5F5F5F5F5F5F5F5F5F5F5F5F5F5F5F5F5F5F5F5F5F569E2E2E269F5F5F5F5F5F5F5F5F5F5F5F5F5F5F5F5F5F5F5F5F5F5F5F5F5F5F5F5
310
F5F5F5F5F5F5F5F5F5F5F5F5F5F5F5F5F5F5F5F5F5F5F5F5F5F5F5F5F5F5F5F5F5F5F5F5F5F5F5F5F5F5F5F5F5F5F5F5F5F5F5F5F5F5F5F5F5F5F569F5F5F5F5F5F5F5F5F5F5F5F5F5F5F5F5F5F5F5F5F5F5F5F5F5F5F5F5F5F5F5F5F5F5F5F5F5F5F5F5F5F5F5F5F5F5F5F5F5F5F5F5F5F5F5F5F5F5F5F5F5F5F5F5F5F5F5
310
F5F5F5F5F5F5F5F5F5F5F5F5F5F5F5F5F5F5F5F569E2E2E269F5F5F5F5F5F5F5F5F5F5F5F5F5F5F5F5F5F5F5F5F5F5F5F5F5F5F5F5F5F5F5F5F5F5F5F5F5F5F5F5F5F5F5F5F5F5F5F5F5F5F5F5F5F5F5F5F5F5F5F5F5F5F5F5F5F5F5F5F5F5F5F5F5F5F5F5F5F5F5F5F5F5F5F5F5F5F569F5F5F5F5F5F5F5F5F5F5F5F5F5F5
310
F5F5F5F5F5F5F5F5F5F5F5F5F5F5F5F5F5F5F5F5F5F5F5F5F5F5F5F5F5F5F5F5F5F5F5F5F5F5F5F5F5F5F5F5F5F5F5F5F5F5F5F5F5F5F5F5F5F5F5F5F5F5F5F5F5F5F5F5F5F5F5F5F569E2E2E269F5F5F5F5F5F5F5F5F5F5F5F5F5F5F5F5F5F5F5F5F5F5F5F5F5F5F5F5F5F5F5F5F5F5F5F5F5F5F5F5F5F5F5F5F5F5F5F5F5
310
F5F5F5F5F5F5F5F5F5F5F5F5F5F5F5F5F5F5F5F5F5F5F5F5F5F5F5F5F5F5F5F5F5F5F5F5F5F569F5F5F5F5F5F5F5F5F5F5F5F5F5F5F5F5F5F5F5F5F5F5F5F5F5F5F5F5F5F5F5F5F5F5F5F5F5F5F5F5F5F5F5F5F5F5F5F5F5F5F5F5F5F5F5F5F5F5F5F5F5F5F5F5F5F5F5F5F5F5F5F5F5F5F5F5F5F5F5F5F5F5F5F5F5F5F569
310
E2E2E269F5F5F5F5F5F5F5F5F5F5F5F5F5F5F5F5F5F5F5F5F5F5F5F5F5F5F5F5F5F5F5F5F5F5F5F5F5F5F5F5F5F5F5F5F5F5F5F5F5F5F5F5F5F5F5F5F5F5F5F5F5F5F5F5F5F5F5F5F5F5F5F5F5F5F5F5F5F5F5F5F5F5F5F5F5F5F569F5F5F5F5F5F5F5F5F5F5F5F5F5F5F5F5F5F5F5F5F5F5F5F5F5F5F5F5F5F5F5F5F5F5F5
310
F5F5F5F5F5F5F5F5F5F5F5F5F5F5F5F5F5F5F5F5F5F5F5F5F5F5F5F5F5F5F5F5F5F5F5F5F5F5F5F5F5F5F5F5F5F5F5F5F5F5F5F569F5E2E269F5F5F5F5F5F5F5F5F5F5F5F5F5F5F5F5F5F5F5F5F5F5F5F5F5F5F5F5F5F5F5F5F5F5F5F5F5F5F5F5F5F5F5F5F5F5F5F5F5F5F5F5F5F5F5F5F5F5F5F5F5F5F5F5F5F5F5F5F5F5
310
F5F5F5F5F5F5F5F5F5F5F5F5F5F5F5F5F569F5F5F5F5F5F5F5F5F5F5F5F5F5F5F5F5F5F5F5F5F5F5F5F5F5F5F5F5F5F5F5F5F5F5F5F5F5F5F5F5F5F5F5F5F5F5F5F5F5F5F5F5F5F5F5F5F5F5F5F5F5F5F5F5F5F5F5F5F5F5F5F5F5F5F5F5F5F5F5F5F5F5F5F5F5F5F569F5E2E269F5F5F5F5F5F5F5F5F5F5F5F5F5F5F5F5F5
310
F5F5F5F5F5F5F5F5F5F5F5F5F5F5F5F5F5F5F5F5F5F5F5F5F5F5F5F5F5F5F5F5F5F5F5F5F5F5F5F5F5F5F5F5F5F5F5F5F5F5F5F5F5F5F5F5F5F5F5F5F5F5F5F5F5F5F5F5F5F569F5F5F5F5F5F5F5F5F5F5F5F5F5F5F5F5F5F5F5F5F5F5F5F5F5F5F5F5F5F5F5F5F5F5F5F5F5F5F5F5F5F5F5F5F5F5F5F5F5F5F5F5F5F5F5F5
310
F5F5F5F5F5F5F5F5F5F5F5F5F5F5F5F5F5F5F5F5F5F5F5F5F5F5F5F5F5F5F569F5E2E269F5F5F5F5F5F5F5F5F5F5F5F5F5F5F5F5F5F5F5F5F5F5F5F5F5F5F5F5F5F5F5F5F5F5F5F5F5F5F5F5F5F5F5F5F5F5F5F5F5F5F5F5F5F5F5F5F5F5F5F5F5F5F5F5F5F5F5F5F5F5F5F5F5F5F5F5F5F5F5F5F5F5F5F5F5F5F569F5F5F5
310
F5F5F5F5F5F5F5F5F5F5F5F5F5F5F5F5F5F5F5F5F5F5F5F5F5F5F5F5F5F5F5F5F5F5F5F5F5F5F5F5F5F5F5F5F5F5F5F5F5F5F5F5F5F5F5F5F5F5F5F5F5F5F5F5F5F5F5F5F5F5F5F5F5F5F5F5F5F5F5F5F5F5F5F569F5E2E269F5F5F5F5F5F5F5F5F5F5F5F5F5F5F5F5F5F5F5F5F5F5F5F5F5F5F5F5F5F5F5F5F5F5F5F5F5F5
310
F5F5F5F5F5F5F5F5F5F5F5F5F5F5F5F5F5F5F5F5F5F5F5F5F5F5F5F5F5F5F5F5F5F5F5F5F5F5F5F5F5F5F5F5F5F5F5F5F569F5F5F5F5F5F5F5F5F5F5F5F5F5F5F5F5F5F5F5F5F5F5F5F5F5F5F5F5F5F5F5F5F5F5F5F5F5F5F5F5F5F5F5F5F5F5F5F5F5F5F5F5F5F5F5F5F5F5F5F5F5F5F5F5F5F5F5F5F5F5F5F5F5F5F5F5F5
310
F5F5F5F5F5F5F5F5F5F569F5E2E269F5F5F5F5F5F5F5F5F5F5F5F5F5F5F5F5F5F5F5F5F5F5F5F5F5F5F5F5F5F5F5F5F5F5F5F5F5F5F5F5F5F5F5F5F5F5F5F5F5F5F5F5F5F5F5F5F5F5F5F5F5F5F5F5F5F5F5F5F5F5F5F5F5F5F5F5F5F5F5F5F5F5F5F5F5F5F569F5F5F5F5F5F5F5F5F5F5F5F5F5F5F5F5F5F5F5F5F5F5F5F5
310
F5F5F5F5F5F5F5F5F5F5F5F5F5F5F5F5F5F5F5F5F5F5F5F5F5F5F5F5F5F5F5F5F5F5F5F5F5F5F5F5F5F5F5F5F5F5F5F5F5F5F5F5F5F5F5F5F5F5F5F5F5F5F569F5E2E269F5F5F5F5F5F5F5F5F5F5F5F5F5F5F5F5F5F5F5F5F5F5F5F5F5F5F5F5F5F5F5F5F5F5F5F5F5F5F5F5F5F5F5F5F5F5F5F5F5F5F5F5F5F5F5F5F5F5F5
310
F5F5F5F5F5F5F5F5F5F5F5F5F5F5F5F5F5F5F5F5F5F5F5F5F5F5F5F569F5F5F5F5F5F5F5F5F5F5F5F5F5F5F5F5F5F5F5F5F5F5F5F5F5F5F5F5F5F5F5F5F5F5F5F5F5F5F5F5F5F5F5F5F5F5F5F5F5F5F5F5F5F5F5F5F5F5F5F5F5F5F5F5F5F5F5F5F5F5F5F5F5F5F5F5F5F5F5F5F5F5F5F5F5F5F569F5E2E269F5F5F5F5F5F5
310
F5F5F5F5F5F5F5F5F5F5F5F5F5F5F5F5F5F5F5F5F5F5F5F5F5F5F5F5F5F5F5F5F5F5F5F5F5F5F5F5F5F5F5F5F5F5F5F5F5F5F5F5F5F5F5F5F5F5F5F5F5F5F5F5F5F5F5F5F5F5F5F5F5F5F5F5F5F5F5F5F569F5F5F5F5F5F5F5F5F5F5F5F5F5F5F5F5F5F5F5F5F5F5F5F5F5F5F5F5F5F5F5F5F5F5F5F5F5F5F5F5F5F5F5F5F5
310
F5F5F5F5F5F5F5F5F5F5F5F5F5F5F5F5F5F5F5F5F5F5F5F5F5F5F5F5F5F5F5F5F5F5F5F5F5F5F5F5F5F569F5E2E269F5F5F5F5F5F5F5F5F5F5F5F5F5F5F5F5F5F5F5F5F5F5F5F5F5F5F5F5F5F5F5F5F5F5F5F5F5F5F5F5F5F5F5F5F5F5F5F5F5F5F5F5F5F5F5F5F5F5F5F5F5F5F5F5F5F5F5F5F5F5F5F5F5F5F5F5F5F5F5F5
310
F5F5F5F5F5F5F569F5F5F5F5F5F5F5F5F5F5F5F5F5F5F5F5F5F5F5F5F5F5F5F5F5F5F5F5F5F5F5F5F5F5F5F5F5F5F5F5F5F5F5F5F5F5F5F5F5F5F5F5F5F5F5F5F5F5F5F5F5F5F5F5F5F5F5F5F5F5F5F5F5F5F5F5F5F5F5F5F5F5F5F5F5F5F569E2E2E269F5F5F5F5F5F5F5F5F5F5F5F5F5F5F5F5F5F5F5F5F5F5F5F5F5F5F5
310
F5F5F5F5F5F5F5F5F5F5F5F5F5F5F5F5F5F5F5F5F5F5F5F5F5F5F5F5F5F5F5F5F5F5F5F5F5F5F5F5F5F5F5F5F5F5F5F5F5F5F5F5F5F5F5F5F5F5F5F569F5F5F5F5F5F5F5F5F5F5F5F5F5F5F5F5F5F5F5F5F5F5F5F5F5F5F5F5F5F5F5F5F5F5F5F5F5F5F5F5F5F5F5F5F5F5F5F5F5F5F5F5F5F5F5F5F5F5F5F5F5F5F5F5F5F5
310
F5F5F5F5F5F5F5F5F5F5F5F5F5F5F5F5F5F5F5F5F569E2E2E269F5F5F5F5F5F5F5F5F5F5F5F5F5F5F5F5F5F5F5F5F5F5F5F5F5F5F5F5F5F5F5F5F5F5F5F5F5F5F5F5F5F5F5F5F5F5F5F5F5F5F5F5F5F5F5F5F5F5F5F5F5F5F5F5F5F5F5F5F5F5F5F5F5F5F5F5F5F5F5F5F5F5F5F5F5F5F569F5F5F5F5F5F5F5F5F5F5F5F5F5
310
F5F5F5F5F5F5F5F5F5F5F5F5F5F5F5F5F5F5F5F5F5F5F5F5F5F5F5F5F5F5F5F5F5F5F5F5F5F5F5F5F5F5F5F5F5F5F5F5F5F5F5F5F5F5F5F5F5F5F5F5F5F5F5F5F5F5F5F5F5F5F5F5F5F569E2E2E269F5F5F5F5F5F5F5F5F5F5F5F5F5F5F5F5F5F5F5F5F5F5F5F5F5F5F5F5F5F5F5F5F5F5F5F5F5F5F5F5F5F5F5F5F5F5F5F5
310
F5F5F5F5F5F5F5F5F5F5F5F5F5F5F5F5F5F5F5F5F5F5F5F5F5F5F5F5F5F5F5F5F5F5F5F5F5F5F569F5F5F5F5F5F5F5F5F5F5F5F5F5F5F5F5F5F5F5F5F5F5F5F5F5F5F5F5F5F5F5F5F5F5F5F5F5F5F5F5F5F5F5F5F5F5F5F5F5F5F5F5F5F5F5F5F5F5F5F5F5F5F5F5F5F5F5F5F5F5F5F5F5F5F5F5F5F5F5F5F5F5F5F5F5F5F5
310
69E2E2E269F5F5F5F5F5F5F5F5F5F5F5F5F5F5F5F5F5F5F5F5F5F5F5F5F5F5F5F5F5F5F5F5F5F5F5F5F5F5F5F5F5F5F5F5F5F5F5F5F5F5F5F5F5F5F5F5F5F5F5F5F5F5F5F5F5F5F5F5F5F5F5F5F5F5F5F5F5F5F5F5F5F5F5F5F5F5F569F5F5F5F5F5F5F5F5F5F5F5F5F5F5F5F5F5F5F5F5F5F5F5F5F5F5F5F5F5F5F5F5F5F5
310
F5F5F5F5F5F5F5F5F5F5F5F5F5F5F5F5F5F5F5F5F5F5F5F5F5F5F5F5F5F5F5F5F5F5F5F5F5F5F5F5F5F5F5F5F5F5F5F5F5F5F5F5F569E2E2E269F5F5F5F5F5F5F5F5F5F5F5F5F5F5F5F5F5F5F5F5F5F5F5F5F5F5F5F5F5F5F5F5F5F5F5F5F5F5F5F5F5F5F5F5F5F5F5F5F5F5F5F5F5F5F5F5F5F5F5F5F5F5F5F5F5F5F5F5F5
310
F5F5F5F5F5F5F5F5F5F5F5F5F5F5F5F5F5F569F5F5F5F5F5F5F5F5F5F5F5F5F5F5F5F5F5F5F5F5F5F5F5F5F5F5F5F5F5F5F5F5F5F5F5F5F5F5F5F5F5F5F5F5F5F5F5F5F5F5F5F5F5F5F5F5F5F5F5F5F5F5F5F5F5F5F5F5F5F5F5F5F5F5F5F5F5F5F5F5F5F5F5F5F5F5F569E2E2E269F5F5F5F5F5F5F5F5F5F5F5F5F5F5F5F5
310
F5F5F5F5F5F5F5F5F5F5F5F5F5F5F5F5F5F5F5F5F5F5F5F5F5F5F5F5F5F5F5F5F5F5F5F5F5F5F5F5F5F5F5F5F5F5F5F5F5F5F5F5F5F5F5F5F5F5F5F5F5F5F5F5F5F5F5F5F5F5F569F5F5F5F5F5F5F5F5F5F5F5F5F5F5F5F5F5F5F5F5F5F5F5F5F5F5F5F5F5F5F5F5F5F5F5F5F5F5F5F5F5F5F5F5F5F5F5F5F5F5F5F5F5F5F5
310
F5F5F5F5F5F5F5F5F5F5F5F5F5F5F5F5F5F5F5F5F5F5F5F5F5F5F5F5F5F5F5F569E2E2E269F5F5F5F5F5F5F5F5F5F5F5F5F5F5F5F5F5F5F5F5F5F5F5F5F5F5F5F5F5F5F5F5F5F5F5F5F5F5F5F5F5F5F5F5F5F5F5F5F5F5F5F5F5F5F5F5F5F5F5F5F5F5F5F5F5F5F5F5F5F5F5F5F5F5F5F5F5F5F5F5F5F5F5F5F5F5F569F5F5
310
F5F5F5F5F5F5F5F5F5F5F5F5F5F5F5F5F5F5F5F5F5F5F5F5F5F5F5F5F5F5F5F5F5F5F5F5F5F5F5F5F5F5F5F5F5F5F5F5F5F5F5F5F5F5F5F5F5F5F5F5F5F5F5F5F5F5F5F5F5F5F5F5F5F5F5F5F5F5F5F5F5F5F5F5F569E2E2E269F5F5F5F5F5F5F5F5F5F5F5F5F5F5F5F5F5F5F5F5F5F5F5F5F5F5F5F5F5F5F5F5F5F5F5F5F5
310
F5F5F5F5F5F5F5F5F5F5F5F5F5F5F5F5F5F5F5F5F5F5F5F5F5F5F5F5F5F5F5F5F5F5F5F5F5F5F5F5F5F5F5F5F5F5F5F5F5F569F5F5F5F5F5F5F5F5F5F5F5F5F5F5F5F5F5F5F5F5F5F5F5F5F5F5F5F5F5F5F5F5F5F5F5F5F5F5F5F5F5F5F5F5F5F5F5F5F5F5F5F5F5F5F5F5F5F5F5F5F5F5F5F5F5F5F5F5F5F5F5F5F5F5F5F5
310
F5F5F5F5F5F5F5F5F5F5F569E2E2E269F5F5F5F5F5F5F5F5F5F5F5F5F5F5F5F5F5F5F5F5F5F5F5F5F5F5F5F5F5F5F5F5F5F5F5F5F5F5F5F5F5F5F5F5F5F5F5F5F5F5F5F5F5F5F5F5F5F5F5F5F5F5F5F5F5F5F5F5F5F5F5F5F5F5F5F5F5F5F5F5F5F5F5F5F5F5F569F5F5F5F5F5F5F5F5F5F5F5F5F5F5F5F5F5F5F5F5F5F5F5
310
F5F5F5F5F5F5F5F5F5F5F5F5F5F5F5F5F5F5F5F5F5F5F5F5F5F5F5F5F5F5F5F5F5F5F5F5F5F5F5F5F5F5F5F5F5F5F5F5F5F5F5F5F5F5F5F5F5F5F5F5F5F5F5F569E2E2E269F5F5F5F5F5F5F5F5F5F5F5F5F5F5F5F5F5F5F5F5F5F5F5F5F5F5F5F5F5F5F5F5F5F5F5F5F5F5F5F5F5F5F5F5F5F5F5F5F5F5F5F5F5F5F5F5F5F5
310
F5F5F5F5F5F5F5F5F5F5F5F5F5F5F5F5F5F5F5F5F5F5F5F5F5F5F5F5F569F5F5F5F5F5F5F5F5F5F5F5F5F5F5F5F5F5F5F5F5F5F5F5F5F5F5F5F5F5F5F5F5F5F5F5F5F5F5F5F5F5F5F5F5F5F5F5F5F5F5F5F5F5F5F5F5F5F5F5F5F5F5F5F5F5F5F5F5F5F5F5F5F5F5F5F5F5F5F5F5F5F5F5F5F5F5F569E2E2E269F5F5F5F5F5
310
F5F5F5F5F5F5F5F5F5F5F5F5F5F5F5F5F5F5F5F5F5F5F5F5F5F5F5F5F5F5F5F5F5F5F5F5F5F5F5F5F5F5F5F5F5F5F5F5F5F5F5F5F5F5F5F5F5F5F5F5F5F5F5F5F5F5F5F5F5F5F5F5F5F5F5F5F5F5F5F5F5F569F5F5F5F5F5F5F5F5F5F5F5F5F5F5F5F5F5F5F5F5F5F5F5F5F5F5F5F5F5F5F5F5F5F5F5F5F5F5F5F5F5F5F5F5
310
F5F5F5F5F5F5F5F5F5F5F5F5F5F5F5F5F5F5F5F5F5F5F5F5F5F5F5F5F5F5F5F5F5F5F5F5F5F5F5F5F5F5F569E2E2E269F5F5F5F5F5F5F5F5F5F5F5F5F5F5F5F5F5F5F5F5F5F5F5F5F5F5F5F5F5F5F5F5F5F5F5F5F5F5F5F5F5F5F5F5F5F5F5F5F5F5F5F5F5F5F5F5F5F5F5F5F5F5F5F5F5F5F5F5F5F5F5F5F5F5F5F5F5F5F5
310
F5F5F5F5F5F5F5F569F5F5F5F5F5F5F5F5F5F5F5F5F5F5F5F5F5F5F5F5F5F5F5F5F5F5F5F5F5F5F5F5F5F5F5F5F5F5F5F5F5F5F5F5F5F5F5F5F5F5F5F5F5F5F5F5F5F5F5F5F5F5F5F5F5F5F5F5F5F5F5F5F5F5F5F5F5F5F5F5F5F5F5F5F5F5F569E2E2E269F5F5F5F5F5F5F5F5F5F5F5F5F5F5F5F5F5F5F5F5F5F5F5F5F5F5
310
F5F5F5F5F5F5F5F5F5F5F5F5F5F5F5F5F5F5F5F5F5F5F5F5F5F5F5F5F5F5F5F5F5F5F5F5F5F5F5F5F5F5F5F5F5F5F5F5F5F5F5F5F5F5F5F5F5F5F5F5F569F5F5F5F5F5F5F5F5F5F5F5F5F5F5F5F5F5F5F5F5F5F5F5F5F5F5F5F5F5F5F5F5F5F5F5F5F5F5F5F5F5F5F5F5F5F5F5F5F5F5F5F5F5F5F5F5F5F5F5F5F5F5F5F5F5
310
F5F5F5F5F5F5F5F5F5F5F5F5F5F5F5F5F5F5F5F5F5F569E2E2E269F5F5F5F5F5F5F5F5F5F5F5F5F5F5F5F5F5F5F5F5F5F5F5F5F5F5F5F5F5F5F5F5F5F5F5F5F5F5F5F5F5F5F5F5F5F5F5F5F5F5F5F5F5F5F5F5F5F5F5F5F5F5F5F5F5F5F5F5F5F5F5F5F5F5F5F5F5F5F5F5F5F5F5F5F5F5F569F5F5F5F5F5F5F5F5F5F5F5F5
310
F5F5F5F5F5F5F5F5F5F5F5F5F5F5F5F5F5F5F5F5F5F5F5F5F5F5F5F5F5F5F5F5F5F5F5F5F5F5F5F5F5F5F5F5F5F5F5F5F5F5F5F5F5F5F5F5F5F5F5F5F5F5F5F5F5F5F5F5F5F5F5F5F5F5F569E2E2E269F5F5F5F5F5F5F5F5F5F5F5F5F5F5F5F5F5F5F5F5F5F5F5F5F5F5F5F5F5F5F5F5F5F5F5F5F5F5F5F5F5F5F5F5F5F5F5
310
F5F5F5F5F5F5F5F5F5F5F5F5F5F5F5F5F5F5F5F5F5F5F5F5F5F5F5F5F5F5F5F5F5F5F5F5F5F5F5F569F5F5F5F5F5F5F5F5F5F5F5F5F5F5F5F5F5F5F5F5F5F5F5F5F5F5F5F5F5F5F5F5F5F5F5F5F5F5F5F5F5F5F5F5F5F5F5F5F5F5F5F5F5F5F5F5F5F5F5F5F5F5F5F5F5F5F5F5F5F5F5F5F5F5F5F5F5F5F5F5F5F5F5F5F5F5
310
F569F5E2E269F5F5F5F5F5F5F5F5F5F5F5F5F5F5F5F5F5F5F5F5F5F5F5F5F5F5F5F5F5F5F5F5F5F5F5F5F5F5F5F5F5F5F5F5F5F5F5F5F5F5F5F5F5F5F5F5F5F5F5F5F5F5F5F5F5F5F5F5F5F5F5F5F5F5F5F5F5F5F5F5F5F5F5F5F5F5F569F5F5F5F5F5F5F5F5F5F5F5F5F5F5F5F5F5F5F5F5F5F5F5F5F5F5F5F5F5F5F5F5F5
310
F5F5F5F5F5F5F5F5F5F5F5F5F5F5F5F5F5F5F5F5F5F5F5F5F5F5F5F5F5F5F5F5F5F5F5F5F5F5F5F5F5F5F5F5F5F5F5F5F5F5F5F5F5F569F5E2E269F5F5F5F5F5F5F5F5F5F5F5F5F5F5F5F5F5F5F5F5F5F5F5F5F5F5F5F5F5F5F5F5F5F5F5F5F5F5F5F5F5F5F5F5F5F5F5F5F5F5F5F5F5F5F5F5F5F5F5F5F5F5F5F5F5F5F5F5
310
F5F5F5F5F5F5F5F5F5F5F5F5F5F5F5F5F5F5F569F5F5F5F5F5F5F5F5F5F5F5F5F5F5F5F5F5F5F5F5F5F5F5F5F5F5F5F5F5F5F5F5F5F5F5F5F5F5F5F5F5F5F5F5F5F5F5F5F5F5F5F5F5F5F5F5F5F5F5F5F5F5F5F5F5F5F5F5F5F5F5F5F5F5F5F5F5F5F5F5F5F5F5F5F5F5F569F5E2E269F5F5F5F5F5F5F5F5F5F5F5F5F5F5F5
310
F5F5F5F5F5F5F5F5F5F5F5F5F5F5F5F5F5F5F5F5F5F5F5F5F5F5F5F5F5F5F5F5F5F5F5F5F5F5F5F5F5F5F5F5F5F5F5F5F5F5F5F5F5F5F5F5F5F5F5F5F5F5F5F5F5F5F5F5F5F5F5F569F5F5F5F5F5F5F5F5F5F5F5F5F5F5F5F5F5F5F5F5F5F5F5F5F5F5F5F5F5F5F5F5F5F5F5F5F5F5F5F5F5F5F5F5F5F5F5F5F5F5F5F5F5F5
310
F5F5F5F5F5F5F5F5F5F5F5F5F5F5F5F5F5F5F5F5F5F5F5F5F5F5F5F5F5F5F5F5F569F5E2E269F5F5F5F5F5F5F5F5F5F5F5F5F5F5F5F5F5F5F5F5F5F5F5F5F5F5F5F5F5F5F5F5F5F5F5F5F5F5F5F5F5F5F5F5F5F5F5F5F5F5F5F5F5F5F5F5F5F5F5F5F5F5F5F5F5F5F5F5F5F5F5F5F5F5F5F5F5F5F5F5F5F5F5F5F5F5F569F5
310
F5F5F5F5F5F5F5F5F5F5F5F5F5F5F5F5F5F5F5F5F5F5F5F5F5F5F5F5F5F5F5F5F5F5F5F5F5F5F5F5F5F5F5F5F5F5F5F5F5F5F5F5F5F5F5F5F5F5F5F5F5F5F5F5F5F5F5F5F5F5F5F5F5F5F5F5F5F5F5F5F5F5F5F5F5F569F5E2E269F5F5F5F5F5F5F5F5F5F5F5F5F5F5F5F5F5F5F5F5F5F5F5F5F5F5F5F5F5F5F5F5F5F5F5F5
310
F5F5F5F5F5F5F5F5F5F5F5F5F5F5F5F5F5F5F5F5F5F5F5F5F5F5F5F5F5F5F5F5F5F5F5F5F5F5F5F5F5F5F5F5F5F5F5F5F5F5F569F5F5F5F5F5F5F5F5F5F5F5F5F5F5F5F5F5F5F5F5F5F5F5F5F5F5F5F5F5F5F5F5F5F5F5F5F5F5F5F5F5F5F5F5F5F5F5F5F5F5F5F5F5F5F5F5F5F5F5F5F5F5F5F5F5F5F5F5F5F5F5F5F5F5F5
310
F5F5F5F5F5F5F5F5F5F5F5F569F5E2E269F5F5F5F5F5F5F5F5F5F5F5F5F5F5F5F5F5F5F5F5F5F5F5F5F5F5F5F5F5F5F5F5F5F5F5F5F5F5F5F5F5F5F5F5F5F5F5F5F5F5F5F5F5F5F5F5F5F5F5F5F5F5F5F5F5F5F5F5F5F5F5F5F5F5F5F5F5F5F5F5F5F5F5F5F5F5F569F5F5F5F5F5F5F5F5F5F5F5F5F5F5F5F5F5F5F5F5F5F5
310
F5F5F5F5F5F5F5F5F5F5F5F5F5F5F5F5F5F5F5F5F5F5F5F5F5F5F5F5F5F5F5F5F5F5F5F5F5F5F5F5F5F5F5F5F5F5F5F5F5F5F5F5F5F5F5F5F5F5F5F5F5F5F5F5F569F5E2E269F5F5F5F5F5F5F5F5F5F5F5F5F5F5F5F5F5F5F5F5F5F5F5F5F5F5F5F5F5F5F5F5F5F5F5F5F5F5F5F5F5F5F5F5F5F5F5F5F5F5F5F5F5F5F5F5F5
310
F5F5F5F5F5F5F5F5F5F5F5F5F5F5F5F5F5F5F5F5F5F5F5F5F5F5F5F5F5F569F5F5F5F5F5F5F5F5F5F5F5F5F5F5F5F5F5F5F5F5F5F5F5F5F5F5F5F5F5F5F5F5F5F5F5F5F5F5F5F5F5F5F5F5F5F5F5F5F5F5F5F5F5F5F5F5F5F5F5F5F5F5F5F5F5F5F5F5F5F5F5F5F5F5F5F5F5F5F5F5F5F5F5F5F5F5F569F5E2E269F5F5F5F5
310
F5F5F5F5F5F5F5F5F5F5F5F5F5F5F5F5F5F5F5F5F5F5F5F5F5F5F5F5F5F5F5F5F5F5F5F5F5F5F5F5F5F5F5F5F5F5F5F5F5F5F5F5F5F5F5F5F5F5F5F5F5F5F5F5F5F5F5F5F5F5F5F5F5F5F5F5F5F5F5F5F5F5F569F5F5F5F5F5F5F5F5F5F5F5F5F5F5F5F5F5F5F5F5F5F5F5F5F5F5F5F5F5F5F5F5F5F5F5F5F5F5F5F5F5F5F5
310
F5F5F5F5F5F5F5F5F5F5F5F5F5F5F5F5F5F5F5F5F5F5F5F5F5F5F5F5F5F5F5F5F5F5F5F5F5F5F5F5F5F5F5F569F5E2E269F5F5F5F5F5F5F5F5F5F5F5F5F5F5F5F5F5F5F5F5F5F5F5F5F5F5F5F5F5F5F5F5F5F5F5F5F5F5F5F5F5F5F5F5F5F5F5F5F5F5F5F5F5F5F5F5F5F5F5F5F5F5F5F5F5F5F5F5F5F5F5F5F5F5F5F5F5F5
310
F5F5F5F5F5F5F5F5F569F5F5F5F5F5F5F5F5F5F5F5F5F5F5F5F5F5F5F5F5F5F5F5F5F5F5F5F5F5F5F5F5F5F5F5F5F5F5F5F5F5F5F5F5F5F5F5F5F5F5F5F5F5F5F5F5F5F5F5F5F5F5F5F5F5F5F5F5F5F5F5F5F5F5F5F5F5F5F5F5F5F5F5F5F5F5F569E2E2E269F5F5F5F5F5F5F5F5F5F5F5F5F5F5F5F5F5F5F5F5F5F5F5F5F5
310
F5F5F5F5F5F5F5F5F5F5F5F5F5F5F5F5F5F5F5F5F5F5F5F5F5F5F5F5F5F5F5F5F5F5F5F5F5F5F5F5F5F5F5F5F5F5F5F5F5F5F5F5F5F5F5F5F5F5F5F5F5F569F5F5F5F5F5F5F5F5F5F5F5F5F5F5F5F5F5F5F5F5F5F5F5F5F5F5F5F5F5F5F5F5F5F5F5F5F5F5F5F5F5F5F5F5F5F5F5F5F5F5F5F5F5F5F5F5F5F5F5F5F5F5F5F5
310
F5F5F5F5F5F5F5F5F5F5F5F5F5F5F5F5F5F5F5F5F5F5F569E2E2E269F5F5F5F5F5F5F5F5F5F5F5F5F5F5F5F5F5F5F5F5F5F5F5F5F5F5F5F5F5F5F5F5F5F5F5F5F5F5F5F5F5F5F5F5F5F5F5F5F5F5F5F5F5F5F5F5F5F5F5F5F5F5F5F5F5F5F5F5F5F5F5F5F5F5F5F5F5F5F5F5F5F5F5F5F5F5F569F5F5F5F5F5F5F5F5F5F5F5
310
F5F5F5F5F5F5F5F5F5F5F5F5F5F5F5F5F5F5F5F5F5F5F5F5F5F5F5F5F5F5F5F5F5F5F5F5F5F5F5F5F5F5F5F5F5F5F5F5F5F5F5F5F5F5F5F5F5F5F5F5F5F5F5F5F5F5F5F5F5F5F5F5F5F5F5F569E2E2E269F5F5F5F5F5F5F5F5F5F5F5F5F5F5F5F5F5F5F5F5F5F5F5F5F5F5F5F5F5F5F5F5F5F5F5F5F5F5F5F5F5F5F5F5F5F5
310
F5F5F5F5F5F5F5F5F5F5F5F5F5F5F5F5F5F5F5F5F5F5F5F5F5F5F5F5F5F5F5F5F5F5F5F5F5F5F5F5F569F5F5F5F5F5F5F5F5F5F5F5F5F5F5F5F5F5F5F5F5F5F5F5F5F5F5F5F5F5F5F5F5F5F5F5F5F5F5F5F5F5F5F5F5F5F5F5F5F5F5F5F5F5F5F5F5F5F5F5F5F5F5F5F5F5F5F5F5F5F5F5F5F5F5F5F5F5F5F5F5F5F5F5F5F5
310
F5F569E2E2E269F5F5F5F5F5F5F5F5F5F5F5F5F5F5F5F5F5F5F5F5F5F5F5F5F5F5F5F5F5F5F5F5F5F5F5F5F5F5F5F5F5F5F5F5F5F5F5F5F5F5F5F5F5F5F5F5F5F5F5F5F5F5F5F5F5F5F5F5F5F5F5F5F5F5F5F5F5F5F5F5F5F5F5F5F5F5F569F5F5F5F5F5F5F5F5F5F5F5F5F5F5F5F5F5F5F5F5F5F5F5F5F5F5F5F5F5F5F5F5
310
F5F5F5F5F5F5F5F5F5F5F5F5F5F5F5F5F5F5F5F5F5F5F5F5F5F5F5F5F5F5F5F5F5F5F5F5F5F5F5F5F5F5F5F5F5F5F5F5F5F5F5F5F5F5F569E2E2E269F5F5F5F5F5F5F5F5F5F5F5F5F5F5F5F5F5F5F5F5F5F5F5F5F5F5F5F5F5F5F5F5F5F5F5F5F5F5F5F5F5F5F5F5F5F5F5F5F5F5F5F5F5F5F5F5F5F5F5F5F5F5F5F5F5F5F5
310
F5F5F5F5F5F5F5F5F5F5F5F5F5F5F5F5F5F5F5F569F5F5F5F5F5F5F5F5F5F5F5F5F5F5F5F5F5F5F5F5F5F5F5F5F5F5F5F5F5F5F5F5F5F5F5F5F5F5F5F5F5F5F5F5F5F5F5F5F5F5F5F5F5F5F5F5F5F5F5F5F5F5F5F5F5F5F5F5F5F5F5F5F5F5F5F5F5F5F5F5F5F5F5F5F5F5F569E2E2E2696969696969696969696969696969
310
69696969696969696969696969696969696969696969696969696969696969696969696969696969696969696969696969696969696969696969696969696969696969696969696969696969696969696969696969696969696969696969696969696969696969696969696969696969696969696969696969696969696969
310
6969696969696969696969696969696969696969696969696969696969696969696969E2E2E2E2E2E2E2E2E2E2E2E2F5F5F5F5F5F5F5F5F5E2E2E2E2E2E2E2E2E2E2E2E2E2E2E2E2F5F5F5F5F5F5F5F5F5E2E2E2E2E2E2E2E2E2E2E2E2E2E2E2E2F5F5F5F5F5F5F5F5F5E2E2E2E2E2E2E2E2E2E2E2E2E2E2E2E2F5F5F5F5F5
310
F5F5F5F5F5E2E2E2E2E2E2E2E2E2E2E2E2E2E2E2E2F5F5F5F5F5F5F5F5F5E2E2E2E2E2E2E2E2E2E2E2E2E2E2E2E2F5F5F5F5F5F5F5F5F5E2E2E2E2E2E2E2E2E2E2E2E2E2E2E2E2F5F5F5F5F5F5F5F5F5E2E2E2E2E2E2E2E2E2E2E2F5F5F5F5F5F5F5F5F5F5F5F5F5F5F5F5F5F5F5F5F5F5F5F5F5F5F5F5F5F5F5F5F5F5F5F5
310
F5F5F5F5F5F5F5F5F5F5F5F5F5F5F5F5F5F5F5F5F5F5F5F5F5F5F5F5F5F5F5F5F5F5F5F5F5F5F5F5F5F5F5F5F5F5F5F5F5F5F5F5F5F5F5F5F5F5F5F5F5F5F5F5F5F5F5F5F5F5F5F5F5F5F5F5F5F5F5F5F5F5F5F5F5F5F5F5F5F5F5F5F5F5F5F5F5F5F5F5F5F5F5F5F5F5F5F5F5F5F5F5F5F5F5F5F5F5F5F5F5F5F5F5F5F5F5
310
F5F5F5F5F5F5F5F5F5F5F5F5F5F5F5E2E2F5F5F5F5F5F5F5F5F5F5F5F5F5F5F5F5F5F5F5F5F5F5F5F5F5F5F5F5F5F5F5F5F5F5F5F5F5F5F5F5F5F5F5F5F5F5F5F5F5F5F5F5F5F5F5F5F5F5F5F5F5F5F5F5F5F5F5F5F5F5F5F5F5F5F5F5F5F5F5F5F5F5F5F5F5F5F5F5F5F5F5F5F5F5F5F5F5F5F5F5F5F5F5F5F5F5F5F5F5F5
310
F5F5F5F5F5F5F5F5F5F5F5F5F5F5F5F5F5F5F5F5F5F5F5F5F5F5F5F5F5F5F5F5F5F5F5F5F5F5F5F5F5F5F5F5F5F5F5F5F5F5F5F5F5F5F5F5F5F5F5F5F5F5F5F5F5F5F5F5E2E2F5F5F5F5F5F5F5F5F5F5F5F5F5F5F5F5F5F5F5F5F5F5F5F5F5F5F5F5F5F5F5F5F5F5F5F5F5F5F5F5F5F5F5F5F5F5F5F5F5F5F5F5F5F5F5F5F5
310
F5F5F5F5F5F5F5F5F5F5F5F5F5F5F5F5F5F5F5F5F5F5F5F5F5F5F5F5F5F5F5F5F5F5F5F5F5F5F5F5F5F5F5F5F5F5F5F5F5F5F5F5F5F5F5F5F5F5F5F5F5F5F5F5F5F5F5F5F5F5F5F5F5F5F5F5F5F5F5F5F5F5F5F5F5F5F5F5F5F5F5F5F5F5F5F5F5F5F5F5F5F5F5F5F5F5F5F5F5F5F5F5F5F5F5F5F5F5F5F5F5E2E2E2E2E2E2
310
E2E2E2E2E2E2E2E2E2E2E2E2E2E2E2E2E2E2E2E2E2E2E2E2E2E2E2E2E2E2E2E2E2E2E2E2E2E2E2E2E2E2E2E2E2E2E2E2E2E2E2E2E2E2E2E2E2E2E2E2E2E2E2E2E2E2E2E2E2E2E2E2E2E2E2E2E2E2E2E2E2E2E2E2E2E2E2E2E2E2E2E2E2E2E2E2E2E2E2E2E2E2E2E2E2E2E2E2E2E2E2E2E2E2E2E2E2E2E2E2E2E2E2E2E2E2E2
310
E2E2E2E2E2E2E2E2E2E2E2E2E2E2E2E2E2E2E2E2E2E2E2E2E2E2E2E2E2E2E2E2E2E2E2E2E2E2E2E2E2E2E2E2E2E2E2E2
  0
XRECORD
  5
11E56
102
{ACAD_REACTORS
330
11E55
102
}
330
11E55
100
AcDbXrecord
280
     1
102
MATERIAL
148
0.0
149
0.0
149
0.0
 93
        0
 94
       63
282
     0
 72
     1
 77
     1
171
     1
175
     1
179
     1
273
     0
  0
XRECORD
  5
11E54
102
{ACAD_REACTORS
330
11E53
102
}
330
11E53
100
AcDbXrecord
280
     1
102
MATERIAL
148
0.0
149
0.0
149
0.0
 93
        0
 94
       63
282
     0
 72
     1
 77
     1
171
     1
175
     1
179
     1
273
     0
  0
XRECORD
  5
11E58
102
{ACAD_REACTORS
330
11E57
102
}
330
11E57
100
AcDbXrecord
280
     1
102
MATERIAL
148
0.0
149
0.0
149
0.0
 93
        0
 94
       63
282
     0
 72
     1
 77
     1
171
     1
175
     1
179
     1
273
     0
  0
CELLSTYLEMAP
  5
11E46
102
{ACAD_REACTORS
330
11E45
102
}
330
11E45
100
AcDbCellStyleMap
 90
        3
300
CELLSTYLE
  1
TABLEFORMAT_BEGIN
 90
        5
170
     1
 91
        0
 92
    32768
 62
   257
 93
        1
300
CONTENTFORMAT
  1
CONTENTFORMAT_BEGIN
 90
        0
 91
        0
 92
        4
 93
        0
300

 40
0.0
140
1.0
 94
        5
 62
     0
340
11
144
6.0
309
CONTENTFORMAT_END
171
     1
301
MARGIN
  1
CELLMARGIN_BEGIN
 40
1.5
 40
1.5
 40
1.5
 40
1.5
 40
0.18
 40
0.18
309
CELLMARGIN_END
 94
        6
 95
        1
302
GRIDFORMAT
  1
GRIDFORMAT_BEGIN
 90
        0
 91
        1
 62
     0
 92
       -2
340
0
 93
        0
 40
0.045
309
GRIDFORMAT_END
 95
        2
302
GRIDFORMAT
  1
GRIDFORMAT_BEGIN
 90
        0
 91
        1
 62
     0
 92
       -2
340
0
 93
        0
 40
0.045
309
GRIDFORMAT_END
 95
        4
302
GRIDFORMAT
  1
GRIDFORMAT_BEGIN
 90
        0
 91
        1
 62
     0
 92
       -2
340
0
 93
        0
 40
0.045
309
GRIDFORMAT_END
 95
        8
302
GRIDFORMAT
  1
GRIDFORMAT_BEGIN
 90
        0
 91
        1
 62
     0
 92
       -2
340
0
 93
        0
 40
0.045
309
GRIDFORMAT_END
 95
       16
302
GRIDFORMAT
  1
GRIDFORMAT_BEGIN
 90
        0
 91
        1
 62
     0
 92
       -2
340
0
 93
        0
 40
0.045
309
GRIDFORMAT_END
 95
       32
302
GRIDFORMAT
  1
GRIDFORMAT_BEGIN
 90
        0
 91
        1
 62
     0
 92
       -2
340
0
 93
        0
 40
0.045
309
GRIDFORMAT_END
309
TABLEFORMAT_END
  1
CELLSTYLE_BEGIN
 90
        1
 91
        1
300
_TITLE
309
CELLSTYLE_END
300
CELLSTYLE
  1
TABLEFORMAT_BEGIN
 90
        5
170
     1
 91
        0
 92
        0
 62
   257
 93
        1
300
CONTENTFORMAT
  1
CONTENTFORMAT_BEGIN
 90
        0
 91
        0
 92
        4
 93
        0
300

 40
0.0
140
1.0
 94
        5
 62
     0
340
11
144
4.5
309
CONTENTFORMAT_END
171
     1
301
MARGIN
  1
CELLMARGIN_BEGIN
 40
1.5
 40
1.5
 40
1.5
 40
1.5
 40
0.18
 40
0.18
309
CELLMARGIN_END
 94
        6
 95
        1
302
GRIDFORMAT
  1
GRIDFORMAT_BEGIN
 90
        0
 91
        1
 62
     0
 92
       -2
340
0
 93
        0
 40
0.045
309
GRIDFORMAT_END
 95
        2
302
GRIDFORMAT
  1
GRIDFORMAT_BEGIN
 90
        0
 91
        1
 62
     0
 92
       -2
340
0
 93
        0
 40
0.045
309
GRIDFORMAT_END
 95
        4
302
GRIDFORMAT
  1
GRIDFORMAT_BEGIN
 90
        0
 91
        1
 62
     0
 92
       -2
340
0
 93
        0
 40
0.045
309
GRIDFORMAT_END
 95
        8
302
GRIDFORMAT
  1
GRIDFORMAT_BEGIN
 90
        0
 91
        1
 62
     0
 92
       -2
340
0
 93
        0
 40
0.045
309
GRIDFORMAT_END
 95
       16
302
GRIDFORMAT
  1
GRIDFORMAT_BEGIN
 90
        0
 91
        1
 62
     0
 92
       -2
340
0
 93
        0
 40
0.045
309
GRIDFORMAT_END
 95
       32
302
GRIDFORMAT
  1
GRIDFORMAT_BEGIN
 90
        0
 91
        1
 62
     0
 92
       -2
340
0
 93
        0
 40
0.045
309
GRIDFORMAT_END
309
TABLEFORMAT_END
  1
CELLSTYLE_BEGIN
 90
        2
 91
        1
300
_HEADER
309
CELLSTYLE_END
300
CELLSTYLE
  1
TABLEFORMAT_BEGIN
 90
        5
170
     1
 91
        0
 92
        0
 62
   257
 93
        1
300
CONTENTFORMAT
  1
CONTENTFORMAT_BEGIN
 90
        0
 91
        0
 92
        4
 93
        0
300

 40
0.0
140
1.0
 94
        2
 62
     0
340
11
144
4.5
309
CONTENTFORMAT_END
171
     1
301
MARGIN
  1
CELLMARGIN_BEGIN
 40
1.5
 40
1.5
 40
1.5
 40
1.5
 40
0.18
 40
0.18
309
CELLMARGIN_END
 94
        6
 95
        1
302
GRIDFORMAT
  1
GRIDFORMAT_BEGIN
 90
        0
 91
        1
 62
     0
 92
       -2
340
0
 93
        0
 40
0.045
309
GRIDFORMAT_END
 95
        2
302
GRIDFORMAT
  1
GRIDFORMAT_BEGIN
 90
        0
 91
        1
 62
     0
 92
       -2
340
0
 93
        0
 40
0.045
309
GRIDFORMAT_END
 95
        4
302
GRIDFORMAT
  1
GRIDFORMAT_BEGIN
 90
        0
 91
        1
 62
     0
 92
       -2
340
0
 93
        0
 40
0.045
309
GRIDFORMAT_END
 95
        8
302
GRIDFORMAT
  1
GRIDFORMAT_BEGIN
 90
        0
 91
        1
 62
     0
 92
       -2
340
0
 93
        0
 40
0.045
309
GRIDFORMAT_END
 95
       16
302
GRIDFORMAT
  1
GRIDFORMAT_BEGIN
 90
        0
 91
        1
 62
     0
 92
       -2
340
0
 93
        0
 40
0.045
309
GRIDFORMAT_END
 95
       32
302
GRIDFORMAT
  1
GRIDFORMAT_BEGIN
 90
        0
 91
        1
 62
     0
 92
       -2
340
0
 93
        0
 40
0.045
309
GRIDFORMAT_END
309
TABLEFORMAT_END
  1
CELLSTYLE_BEGIN
 90
        3
 91
        2
300
_DATA
309
CELLSTYLE_END
  0
XRECORD
  5
11E52
102
{ACAD_REACTORS
330
11E45
102
}
330
11E45
100
AcDbXrecord
280
     1
102
ACAD_ROUNDTRIP_PRE2007_TABLESTYLE
 90
        4
 91
        0
  1

 92
        4
 93
        0
  2

 94
        4
 95
        0
  3

  0
ENDSEC
  0
EOF
