  0
SECTION
  2
HEADER
  9
$ACADVER
  1
AC1015
  9
$ACADMAINTVER
 70
    20
  9
$DWGCODEPAGE
  3
ANSI_1250
  9
$INSBASE
 10
92787.20217807777
 20
113637.5164109582
 30
0.0
  9
$EXTMIN
 10
92787.20217807777
 20
99617.5164076939
 30
0.0
  9
$EXTMAX
 10
114558.9594786969
 20
113637.5164109582
 30
0.0
  9
$LIMMIN
 10
0.0
 20
0.0
  9
$LIMMAX
 10
420.0
 20
297.0
  9
$ORTHOMODE
 70
     1
  9
$REGENMODE
 70
     1
  9
$FILLMODE
 70
     1
  9
$QTEXTMODE
 70
     0
  9
$MIRRTEXT
 70
     0
  9
$LTSCALE
 40
75.0
  9
$ATTMODE
 70
     1
  9
$TEXTSIZE
 40
20.0
  9
$TRACEWID
 40
1.0
  9
$TEXTSTYLE
  7
ROMANS
  9
$CLAYER
  8
WYMIARY
  9
$CELTYPE
  6
ByLayer
  9
$CECOLOR
 62
    32
  9
$CELTSCALE
 40
1.0
  9
$DISPSILH
 70
     0
  9
$DIMSCALE
 40
1.0
  9
$DIMASZ
 40
30.0
  9
$DIMEXO
 40
43.0
  9
$DIMDLI
 40
0.0
  9
$DIMRND
 40
0.5
  9
$DIMDLE
 40
12.0
  9
$DIMEXE
 40
13.0
  9
$DIMTP
 40
0.0
  9
$DIMTM
 40
0.0
  9
$DIMTXT
 40
80.0
  9
$DIMCEN
 40
0.0
  9
$DIMTSZ
 40
0.0
  9
$DIMTOL
 70
     0
  9
$DIMLIM
 70
     0
  9
$DIMTIH
 70
     0
  9
$DIMTOH
 70
     0
  9
$DIMSE1
 70
     1
  9
$DIMSE2
 70
     1
  9
$DIMTAD
 70
     0
  9
$DIMZIN
 70
    12
  9
$DIMBLK
  1
B-DIM
  9
$DIMASO
 70
     1
  9
$DIMSHO
 70
     1
  9
$DIMPOST
  1

  9
$DIMAPOST
  1

  9
$DIMALT
 70
     0
  9
$DIMALTD
 70
     2
  9
$DIMALTF
 40
25.4
  9
$DIMLFAC
 40
1.0
  9
$DIMTOFL
 70
     1
  9
$DIMTVP
 40
1.0
  9
$DIMTIX
 70
     1
  9
$DIMSOXD
 70
     0
  9
$DIMSAH
 70
     0
  9
$DIMBLK1
  1

  9
$DIMBLK2
  1

  9
$DIMSTYLE
  2
500
  9
$DIMCLRD
 70
     1
  9
$DIMCLRE
 70
     1
  9
$DIMCLRT
 70
    10
  9
$DIMTFAC
 40
1.0
  9
$DIMGAP
 40
0.0
  9
$DIMJUST
 70
     0
  9
$DIMSD1
 70
     0
  9
$DIMSD2
 70
     0
  9
$DIMTOLJ
 70
     1
  9
$DIMTZIN
 70
     0
  9
$DIMALTZ
 70
     0
  9
$DIMALTTZ
 70
     0
  9
$DIMUPT
 70
     0
  9
$DIMDEC
 70
     1
  9
$DIMTDEC
 70
     1
  9
$DIMALTU
 70
     2
  9
$DIMALTTD
 70
     2
  9
$DIMTXSTY
  7
ROMANS
  9
$DIMAUNIT
 70
     0
  9
$DIMADEC
 70
     0
  9
$DIMALTRND
 40
0.0
  9
$DIMAZIN
 70
     0
  9
$DIMDSEP
 70
    46
  9
$DIMATFIT
 70
     3
  9
$DIMFRAC
 70
     0
  9
$DIMLDRBLK
  1
B-DIM
  9
$DIMLUNIT
 70
     2
  9
$DIMLWD
 70
    -2
  9
$DIMLWE
 70
    -2
  9
$DIMTMOVE
 70
     2
  9
$LUNITS
 70
     2
  9
$LUPREC
 70
     1
  9
$SKETCHINC
 40
1.0
  9
$FILLETRAD
 40
0.0
  9
$AUNITS
 70
     0
  9
$AUPREC
 70
     0
  9
$MENU
  1
.
  9
$ELEVATION
 40
0.0
  9
$PELEVATION
 40
0.0
  9
$THICKNESS
 40
0.0
  9
$LIMCHECK
 70
     0
  9
$CHAMFERA
 40
0.0
  9
$CHAMFERB
 40
0.0
  9
$CHAMFERC
 40
20.0
  9
$CHAMFERD
 40
0.0
  9
$SKPOLY
 70
     0
  9
$TDCREATE
 40
2452027.670547454
  9
$TDUCREATE
 40
2452027.587214121
  9
$TDUPDATE
 40
2454956.524534861
  9
$TDUUPDATE
 40
2454956.441201528
  9
$TDINDWG
 40
7.8938886806
  9
$TDUSRTIMER
 40
7.8938886806
  9
$USRTIMER
 70
     1
  9
$ANGBASE
 50
0.0
  9
$ANGDIR
 70
     0
  9
$PDMODE
 70
     0
  9
$PDSIZE
 40
0.0
  9
$PLINEWID
 40
85.0
  9
$SPLFRAME
 70
     0
  9
$SPLINETYPE
 70
     6
  9
$SPLINESEGS
 70
     8
  9
$HANDSEED
  5
8C3
  9
$SURFTAB1
 70
     6
  9
$SURFTAB2
 70
     6
  9
$SURFTYPE
 70
     6
  9
$SURFU
 70
     6
  9
$SURFV
 70
     6
  9
$UCSBASE
  2

  9
$UCSNAME
  2

  9
$UCSORG
 10
0.0
 20
0.0
 30
0.0
  9
$UCSXDIR
 10
1.0
 20
0.0
 30
0.0
  9
$UCSYDIR
 10
0.0
 20
1.0
 30
0.0
  9
$UCSORTHOREF
  2

  9
$UCSORTHOVIEW
 70
     0
  9
$UCSORGTOP
 10
0.0
 20
0.0
 30
0.0
  9
$UCSORGBOTTOM
 10
0.0
 20
0.0
 30
0.0
  9
$UCSORGLEFT
 10
0.0
 20
0.0
 30
0.0
  9
$UCSORGRIGHT
 10
0.0
 20
0.0
 30
0.0
  9
$UCSORGFRONT
 10
0.0
 20
0.0
 30
0.0
  9
$UCSORGBACK
 10
0.0
 20
0.0
 30
0.0
  9
$PUCSBASE
  2

  9
$PUCSNAME
  2

  9
$PUCSORG
 10
0.0
 20
0.0
 30
0.0
  9
$PUCSXDIR
 10
1.0
 20
0.0
 30
0.0
  9
$PUCSYDIR
 10
0.0
 20
1.0
 30
0.0
  9
$PUCSORTHOREF
  2

  9
$PUCSORTHOVIEW
 70
     0
  9
$PUCSORGTOP
 10
0.0
 20
0.0
 30
0.0
  9
$PUCSORGBOTTOM
 10
0.0
 20
0.0
 30
0.0
  9
$PUCSORGLEFT
 10
0.0
 20
0.0
 30
0.0
  9
$PUCSORGRIGHT
 10
0.0
 20
0.0
 30
0.0
  9
$PUCSORGFRONT
 10
0.0
 20
0.0
 30
0.0
  9
$PUCSORGBACK
 10
0.0
 20
0.0
 30
0.0
  9
$USERI1
 70
     0
  9
$USERI2
 70
     0
  9
$USERI3
 70
     0
  9
$USERI4
 70
     0
  9
$USERI5
 70
     0
  9
$USERR1
 40
0.0
  9
$USERR2
 40
0.0
  9
$USERR3
 40
0.0
  9
$USERR4
 40
0.0
  9
$USERR5
 40
0.0
  9
$WORLDVIEW
 70
     1
  9
$SHADEDGE
 70
     3
  9
$SHADEDIF
 70
    70
  9
$TILEMODE
 70
     1
  9
$MAXACTVP
 70
    64
  9
$PINSBASE
 10
0.0
 20
0.0
 30
0.0
  9
$PLIMCHECK
 70
     0
  9
$PEXTMIN
 10
1.000000000000000E+20
 20
1.000000000000000E+20
 30
1.000000000000000E+20
  9
$PEXTMAX
 10
-1.000000000000000E+20
 20
-1.000000000000000E+20
 30
-1.000000000000000E+20
  9
$PLIMMIN
 10
0.0
 20
0.0
  9
$PLIMMAX
 10
420.0
 20
297.0
  9
$UNITMODE
 70
     0
  9
$VISRETAIN
 70
     1
  9
$PLINEGEN
 70
     0
  9
$PSLTSCALE
 70
     1
  9
$TREEDEPTH
 70
  3020
  9
$CMLSTYLE
  2
Standard
  9
$CMLJUST
 70
     0
  9
$CMLSCALE
 40
20.0
  9
$PROXYGRAPHICS
 70
     1
  9
$MEASUREMENT
 70
     0
  9
$CELWEIGHT
370
    -1
  9
$ENDCAPS
280
     0
  9
$JOINSTYLE
280
     0
  9
$LWDISPLAY
290
     0
  9
$INSUNITS
 70
     1
  9
$HYPERLINKBASE
  1

  9
$STYLESHEET
  1
100.ctb
  9
$XEDIT
290
     1
  9
$CEPSNTYPE
380
     0
  9
$PSTYLEMODE
290
     1
  9
$FINGERPRINTGUID
  2
{1825B515-D926-4948-A149-0C44DCFC982E}
  9
$VERSIONGUID
  2
{CC59EAD2-FF86-457E-9C7D-444902A20C9A}
  9
$EXTNAMES
290
     1
  9
$PSVPSCALE
 40
0.0
  9
$OLESTARTUP
290
     0
  0
ENDSEC
  0
SECTION
  2
CLASSES
  0
CLASS
  1
ACDBDICTIONARYWDFLT
  2
AcDbDictionaryWithDefault
  3
ObjectDBX Classes
 90
        0
280
     0
281
     0
  0
CLASS
  1
ACDBPLACEHOLDER
  2
AcDbPlaceHolder
  3
ObjectDBX Classes
 90
        0
280
     0
281
     0
  0
CLASS
  1
LAYOUT
  2
AcDbLayout
  3
ObjectDBX Classes
 90
        0
280
     0
281
     0
  0
CLASS
  1
DICTIONARYVAR
  2
AcDbDictionaryVar
  3
ObjectDBX Classes
 90
        0
280
     0
281
     0
  0
CLASS
  1
SORTENTSTABLE
  2
AcDbSortentsTable
  3
ObjectDBX Classes
 90
        0
280
     0
281
     0
  0
CLASS
  1
AEC_VARS_DWG_SETUP
  2
AecDbVarsDwgSetup
  3
AecBase50|Product Desc: Autodesk Architectural Desktop 2007 |Company: Autodesk,Inc. |WEB Address: www.autodesk.com
 90
    32897
280
     0
281
     0
  0
CLASS
  1
AEC_DISP_REP_CONFIG
  2
AecDbDispRepConfig
  3
AecBase50|Product Desc: Autodesk Architectural Desktop 2007 |Company: Autodesk,Inc. |WEB Address: www.autodesk.com
 90
    32897
280
     0
281
     0
  0
CLASS
  1
AEC_DISP_REP_SET
  2
AecDbDispRepSet
  3
AecBase50|Product Desc: Autodesk Architectural Desktop 2007 |Company: Autodesk,Inc. |WEB Address: www.autodesk.com
 90
    32897
280
     0
281
     0
  0
CLASS
  1
AEC_DISP_REP_2D_SECTION
  2
AecDbDispRep2dSection
  3
AecBase50|Product Desc: Autodesk Architectural Desktop 2007 |Company: Autodesk,Inc. |WEB Address: www.autodesk.com
 90
    32897
280
     0
281
     0
  0
CLASS
  1
AEC_DISP_REP_ANCHOR_BUB_TO_GRID
  2
AecDbDispRepAnchorBubToGrid
  3
AecStructureBase50|Product Desc: Autodesk Architectural Desktop 2007 |Company: Autodesk,Inc. |WEB Address: www.autodesk.com
 90
    32897
280
     0
281
     0
  0
CLASS
  1
AEC_DISP_REP_ANCHOR_BUB_TO_GRID_MODEL
  2
AecDbDispRepAnchorBubToGridMdl
  3
AecStructureBase50|Product Desc: Autodesk Architectural Desktop 2007 |Company: Autodesk,Inc. |WEB Address: www.autodesk.com
 90
    32897
280
     0
281
     0
  0
CLASS
  1
AEC_DISP_REP_ANCHOR_ENT_TO_NODE
  2
AecDbDispRepAnchorEntToNode
  3
AecBase50|Product Desc: Autodesk Architectural Desktop 2007 |Company: Autodesk,Inc. |WEB Address: www.autodesk.com
 90
    32897
280
     0
281
     0
  0
CLASS
  1
AEC_DISP_REP_ANCHOR_TAG_TO_ENT
  2
AecDbDispRepAnchorTagToEnt
  3
AecScheduleData50|Product Desc: Autodesk Architectural Desktop 2007 |Company: Autodesk,Inc. |WEB Address: www.autodesk.com
 90
    32897
280
     0
281
     0
  0
CLASS
  1
AEC_DISP_REP_AREA
  2
AecDbDispRepArea
  3
AecAreaCalculationBase50|Product Desc: Autodesk Architectural Desktop 2007 |Company: Autodesk,Inc. |WEB Address: www.autodesk.com
 90
    32897
280
     0
281
     0
  0
CLASS
  1
AEC_DISP_REP_AREA_DECOMPOSED
  2
AecDbDispRepAreaDecomposed
  3
AecAreaCalculationBase50|Product Desc: Autodesk Architectural Desktop 2007 |Company: Autodesk,Inc. |WEB Address: www.autodesk.com
 90
    32897
280
     0
281
     0
  0
CLASS
  1
AEC_DISP_REP_AREAGROUP
  2
AecDbDispRepAreaGroup
  3
AecAreaCalculationBase50|Product Desc: Autodesk Architectural Desktop 2007 |Company: Autodesk,Inc. |WEB Address: www.autodesk.com
 90
    32897
280
     0
281
     0
  0
CLASS
  1
AEC_DISP_REP_BDG_ELEVLINE_MODEL
  2
AecDbDispRepBdgElevLineModel
  3
AecArchBase50|Product Desc: Autodesk Architectural Desktop 2007 |Company: Autodesk,Inc. |WEB Address: www.autodesk.com
 90
    32897
280
     0
281
     0
  0
CLASS
  1
AEC_DISP_REP_BDG_SECTIONLINE_PLAN
  2
AecDbDispRepBdgElevLinePlan
  3
AecArchBase50|Product Desc: Autodesk Architectural Desktop 2007 |Company: Autodesk,Inc. |WEB Address: www.autodesk.com
 90
    32897
280
     0
281
     0
  0
CLASS
  1
AEC_DISP_REP_BDG_SECTIONLINE_MODEL
  2
AecDbDispRepBdgSectionLineModel
  3
AecArchBase50|Product Desc: Autodesk Architectural Desktop 2007 |Company: Autodesk,Inc. |WEB Address: www.autodesk.com
 90
    32897
280
     0
281
     0
  0
CLASS
  1
AEC_DISP_REP_BDG_SECTIONLINE_PLAN
  2
AecDbDispRepBdgSectionLinePlan
  3
AecArchBase50|Product Desc: Autodesk Architectural Desktop 2007 |Company: Autodesk,Inc. |WEB Address: www.autodesk.com
 90
    32897
280
     0
281
     0
  0
CLASS
  1
AEC_DISP_REP_BDG_SECTION_SUBDIV
  2
AecDbDispRepBdgSectionSubDiv
  3
AecArchBase50|Product Desc: Autodesk Architectural Desktop 2007 |Company: Autodesk,Inc. |WEB Address: www.autodesk.com
 90
    32897
280
     0
281
     0
  0
CLASS
  1
AEC_DISP_REP_CAMERA
  2
AecDbDispRepCamera
  3
AecBase50|Product Desc: Autodesk Architectural Desktop 2007 |Company: Autodesk,Inc. |WEB Address: www.autodesk.com
 90
    32897
280
     0
281
     0
  0
CLASS
  1
AEC_DISP_REP_CEILING_GRID
  2
AecDbDispRepCeilingGrid
  3
AecArchBase50|Product Desc: Autodesk Architectural Desktop 2007 |Company: Autodesk,Inc. |WEB Address: www.autodesk.com
 90
    33661
280
     0
281
     0
  0
CLASS
  1
AEC_DISP_REP_CEILING_GRID_MODEL
  2
AecDbDispRepCeilingGridModel
  3
AecArchBase50|Product Desc: Autodesk Architectural Desktop 2007 |Company: Autodesk,Inc. |WEB Address: www.autodesk.com
 90
    32897
280
     0
281
     0
  0
CLASS
  1
AEC_DISP_REP_CEILING_GRID_RCP
  2
AecDbDispRepCeilingGridRcp
  3
AecArchBase50|Product Desc: Autodesk Architectural Desktop 2007 |Company: Autodesk,Inc. |WEB Address: www.autodesk.com
 90
    32897
280
     0
281
     0
  0
CLASS
  1
AEC_DISP_REP_CLIP_VOLUME_MODEL
  2
AecDbDispRepClipVolModel
  3
AecBase50|Product Desc: Autodesk Architectural Desktop 2007 |Company: Autodesk,Inc. |WEB Address: www.autodesk.com
 90
    32897
280
     0
281
     0
  0
CLASS
  1
AEC_DISP_REP_CLIP_VOLUME_PLAN
  2
AecDbDispRepClipVolPlan
  3
AecBase50|Product Desc: Autodesk Architectural Desktop 2007 |Company: Autodesk,Inc. |WEB Address: www.autodesk.com
 90
    32897
280
     0
281
     0
  0
CLASS
  1
AEC_DISP_REP_CLIP_VOLUME_RESULT_SUBDIV
  2
AecDbDispRepClipVolResSubDiv
  3
AecBase50|Product Desc: Autodesk Architectural Desktop 2007 |Company: Autodesk,Inc. |WEB Address: www.autodesk.com
 90
    32897
280
     0
281
     0
  0
CLASS
  1
AEC_DISP_REP_CLIP_VOLUME_RESULT
  2
AecDbDispRepClipVolResult
  3
AecBase50|Product Desc: Autodesk Architectural Desktop 2007 |Company: Autodesk,Inc. |WEB Address: www.autodesk.com
 90
    32897
280
     0
281
     0
  0
CLASS
  1
AEC_DISP_REP_COLUMN_GRID
  2
AecDbDispRepColumnGrid
  3
AecStructureBase50|Product Desc: Autodesk Architectural Desktop 2007 |Company: Autodesk,Inc. |WEB Address: www.autodesk.com
 90
    32897
280
     0
281
     0
  0
CLASS
  1
AEC_DISP_REP_COLUMN_GRID_MODEL
  2
AecDbDispRepColumnGridModel
  3
AecStructureBase50|Product Desc: Autodesk Architectural Desktop 2007 |Company: Autodesk,Inc. |WEB Address: www.autodesk.com
 90
    32897
280
     0
281
     0
  0
CLASS
  1
AEC_DISP_REP_CURTAIN_WALL_LAYOUT_MODEL
  2
AecDbDispRepCurtainWallLayoutModel
  3
AecArchBase50|Product Desc: Autodesk Architectural Desktop 2007 |Company: Autodesk,Inc. |WEB Address: www.autodesk.com
 90
    32897
280
     0
281
     0
  0
CLASS
  1
AEC_DISP_REP_CURTAIN_WALL_LAYOUT_PLAN
  2
AecDbDispRepCurtainWallLayoutPlan
  3
AecArchBase50|Product Desc: Autodesk Architectural Desktop 2007 |Company: Autodesk,Inc. |WEB Address: www.autodesk.com
 90
    32897
280
     0
281
     0
  0
CLASS
  1
AEC_DISP_REP_CURTAIN_WALL_UNIT_MODEL
  2
AecDbDispRepCurtainWallUnitModel
  3
AecArchBase50|Product Desc: Autodesk Architectural Desktop 2007 |Company: Autodesk,Inc. |WEB Address: www.autodesk.com
 90
    32897
280
     0
281
     0
  0
CLASS
  1
AEC_DISP_REP_CURTAIN_WALL_UNIT_PLAN
  2
AecDbDispRepCurtainWallUnitPlan
  3
AecArchBase50|Product Desc: Autodesk Architectural Desktop 2007 |Company: Autodesk,Inc. |WEB Address: www.autodesk.com
 90
    32897
280
     0
281
     0
  0
CLASS
  1
AEC_DB_DISP_REP_DIM_GROUP_PLAN
  2
AecDbDispRepDimGroupPlan
  3
AecArchDACHBase50|Product Desc: Autodesk Architectural Desktop 2007 |Company: Autodesk,Inc. |WEB Address: www.autodesk.com
 90
    32897
280
     0
281
     0
  0
CLASS
  1
AEC_DISP_REP_DOOR_MODEL
  2
AecDbDispRepDoorModel
  3
AecArchBase50|Product Desc: Autodesk Architectural Desktop 2007 |Company: Autodesk,Inc. |WEB Address: www.autodesk.com
 90
    32897
280
     0
281
     0
  0
CLASS
  1
AEC_DISP_REP_DOOR_NOMINAL
  2
AecDbDispRepDoorNominal
  3
AecArchBase50|Product Desc: Autodesk Architectural Desktop 2007 |Company: Autodesk,Inc. |WEB Address: www.autodesk.com
 90
    32897
280
     0
281
     0
  0
CLASS
  1
AEC_DISP_REP_DOOR_PLAN
  2
AecDbDispRepDoorPlan
  3
AecArchBase50|Product Desc: Autodesk Architectural Desktop 2007 |Company: Autodesk,Inc. |WEB Address: www.autodesk.com
 90
    32897
280
     0
281
     0
  0
CLASS
  1
AEC_DISP_REP_EDITINPLACEPROFILE
  2
AecDbDispRepEditInPlaceProfile
  3
AecBase50|Product Desc: Autodesk Architectural Desktop 2007 |Company: Autodesk,Inc. |WEB Address: www.autodesk.com
 90
    32897
280
     0
281
     0
  0
CLASS
  1
AEC_DISP_REP_ENT_REF
  2
AecDbDispRepEntRef
  3
AecBase50|Product Desc: Autodesk Architectural Desktop 2007 |Company: Autodesk,Inc. |WEB Address: www.autodesk.com
 90
    32897
280
     0
281
     0
  0
CLASS
  1
AEC_DISP_REP_LAYOUT_CURVE
  2
AecDbDispRepLayoutCurve
  3
AecBase50|Product Desc: Autodesk Architectural Desktop 2007 |Company: Autodesk,Inc. |WEB Address: www.autodesk.com
 90
    32897
280
     0
281
     0
  0
CLASS
  1
AEC_DISP_REP_LAYOUT_GRID2D
  2
AecDbDispRepLayoutGrid2d
  3
AecBase50|Product Desc: Autodesk Architectural Desktop 2007 |Company: Autodesk,Inc. |WEB Address: www.autodesk.com
 90
    32897
280
     0
281
     0
  0
CLASS
  1
AEC_DISP_REP_LAYOUT_GRID3D
  2
AecDbDispRepLayoutGrid3d
  3
AecBase50|Product Desc: Autodesk Architectural Desktop 2007 |Company: Autodesk,Inc. |WEB Address: www.autodesk.com
 90
    32897
280
     0
281
     0
  0
CLASS
  1
AEC_DISP_REP_MASKBLOCK_REF
  2
AecDbDispRepMaskBlockRef
  3
AecBase50|Product Desc: Autodesk Architectural Desktop 2007 |Company: Autodesk,Inc. |WEB Address: www.autodesk.com
 90
    32897
280
     0
281
     0
  0
CLASS
  1
AEC_DISP_REP_MASKBLOCK_REF_RCP
  2
AecDbDispRepMaskBlockRefRcp
  3
AecArchBase50|Product Desc: Autodesk Architectural Desktop 2007 |Company: Autodesk,Inc. |WEB Address: www.autodesk.com
 90
    32897
280
     0
281
     0
  0
CLASS
  1
AEC_DISP_REP_MASS_ELEM_MODEL
  2
AecDbDispRepMassElemModel
  3
AecBaseEx50|Product Desc: Autodesk Architectural Desktop 2007 |Company: Autodesk,Inc. |WEB Address: www.autodesk.com
 90
    32897
280
     0
281
     0
  0
CLASS
  1
AEC_DISP_REP_MASS_ELEM_SCHEM
  2
AecDbDispRepMassElemSchem
  3
AecBaseEx50|Product Desc: Autodesk Architectural Desktop 2007 |Company: Autodesk,Inc. |WEB Address: www.autodesk.com
 90
    32897
280
     0
281
     0
  0
CLASS
  1
AEC_DISP_REP_MASS_GROUP_MODEL
  2
AecDbDispRepMassGroupModel
  3
AecBaseEx50|Product Desc: Autodesk Architectural Desktop 2007 |Company: Autodesk,Inc. |WEB Address: www.autodesk.com
 90
    32897
280
     0
281
     0
  0
CLASS
  1
AEC_DISP_REP_MASS_GROUP_PLAN
  2
AecDbDispRepMassGroupPlan
  3
AecBaseEx50|Product Desc: Autodesk Architectural Desktop 2007 |Company: Autodesk,Inc. |WEB Address: www.autodesk.com
 90
    32897
280
     0
281
     0
  0
CLASS
  1
AEC_DISP_REP_MATERIAL
  2
AecDbDispRepMaterial
  3
AecBase50|Product Desc: Autodesk Architectural Desktop 2007 |Company: Autodesk,Inc. |WEB Address: www.autodesk.com
 90
    32897
280
     0
281
     0
  0
CLASS
  1
AEC_DISP_REP_MVBLOCK_REF
  2
AecDbDispRepMvBlockRef
  3
AecBase50|Product Desc: Autodesk Architectural Desktop 2007 |Company: Autodesk,Inc. |WEB Address: www.autodesk.com
 90
    32897
280
     0
281
     0
  0
CLASS
  1
AEC_DISP_REP_MVBLOCK_REF_MODEL
  2
AecDbDispRepMvBlockRefModel
  3
AecBase50|Product Desc: Autodesk Architectural Desktop 2007 |Company: Autodesk,Inc. |WEB Address: www.autodesk.com
 90
    32897
280
     0
281
     0
  0
CLASS
  1
AEC_DISP_REP_OPENING
  2
AecDbDispRepOpening
  3
AecArchBase50|Product Desc: Autodesk Architectural Desktop 2007 |Company: Autodesk,Inc. |WEB Address: www.autodesk.com
 90
    32897
280
     0
281
     0
  0
CLASS
  1
AEC_DISP_REP_OPENING_MODEL
  2
AecDbDispRepOpeningModel
  3
AecArchBase50|Product Desc: Autodesk Architectural Desktop 2007 |Company: Autodesk,Inc. |WEB Address: www.autodesk.com
 90
    32897
280
     0
281
     0
  0
CLASS
  1
AEC_DISP_REP_POLYGON_MODEL
  2
AecDbDispRepPolygonModel
  3
AecBase50|Product Desc: Autodesk Architectural Desktop 2007 |Company: Autodesk,Inc. |WEB Address: www.autodesk.com
 90
    32897
280
     0
281
     0
  0
CLASS
  1
AEC_DISP_REP_RAILING_MODEL
  2
AecDbDispRepRailingModel
  3
AecArchBase50|Product Desc: Autodesk Architectural Desktop 2007 |Company: Autodesk,Inc. |WEB Address: www.autodesk.com
 90
    32897
280
     0
281
     0
  0
CLASS
  1
AEC_DISP_REP_RAILING_PLAN
  2
AecDbDispRepRailingPlan
  3
AecArchBase50|Product Desc: Autodesk Architectural Desktop 2007 |Company: Autodesk,Inc. |WEB Address: www.autodesk.com
 90
    32897
280
     0
281
     0
  0
CLASS
  1
AEC_DISP_REP_ROOF_MODEL
  2
AecDbDispRepRoofModel
  3
AecArchBase50|Product Desc: Autodesk Architectural Desktop 2007 |Company: Autodesk,Inc. |WEB Address: www.autodesk.com
 90
    32897
280
     0
281
     0
  0
CLASS
  1
AEC_DISP_REP_ROOF_PLAN
  2
AecDbDispRepRoofPlan
  3
AecArchBase50|Product Desc: Autodesk Architectural Desktop 2007 |Company: Autodesk,Inc. |WEB Address: www.autodesk.com
 90
    32897
280
     0
281
     0
  0
CLASS
  1
AEC_DISP_REP_ROOFSLAB_MODEL
  2
AecDbDispRepRoofSlabModel
  3
AecArchBase50|Product Desc: Autodesk Architectural Desktop 2007 |Company: Autodesk,Inc. |WEB Address: www.autodesk.com
 90
    32897
280
     0
281
     0
  0
CLASS
  1
AEC_DISP_REP_ROOFSLAB_PLAN
  2
AecDbDispRepRoofSlabPlan
  3
AecArchBase50|Product Desc: Autodesk Architectural Desktop 2007 |Company: Autodesk,Inc. |WEB Address: www.autodesk.com
 90
    32897
280
     0
281
     0
  0
CLASS
  1
AEC_DISP_REP_SCHEDULE_TABLE
  2
AecDbDispRepScheduleTable
  3
AecSchedule50|Product Desc: Autodesk Architectural Desktop 2007 |Company: Autodesk,Inc. |WEB Address: www.autodesk.com
 90
    32897
280
     0
281
     0
  0
CLASS
  1
AEC_DISP_REP_SLAB_MODEL
  2
AecDbDispRepSlabModel
  3
AecArchBase50|Product Desc: Autodesk Architectural Desktop 2007 |Company: Autodesk,Inc. |WEB Address: www.autodesk.com
 90
    32897
280
     0
281
     0
  0
CLASS
  1
AEC_DISP_REP_SLAB_PLAN
  2
AecDbDispRepSlabPlan
  3
AecArchBase50|Product Desc: Autodesk Architectural Desktop 2007 |Company: Autodesk,Inc. |WEB Address: www.autodesk.com
 90
    32897
280
     0
281
     0
  0
CLASS
  1
AEC_DISP_REP_SLICE
  2
AecDbDispRepSlice
  3
AecBase50|Product Desc: Autodesk Architectural Desktop 2007 |Company: Autodesk,Inc. |WEB Address: www.autodesk.com
 90
    32897
280
     0
281
     0
  0
CLASS
  1
AEC_DISP_REP_SPACE_BOUNDARY_MODEL
  2
AecDbDispRepSpaceBoundaryModel
  3
AecArchBase50|Product Desc: Autodesk Architectural Desktop 2007 |Company: Autodesk,Inc. |WEB Address: www.autodesk.com
 90
    32897
280
     0
281
     0
  0
CLASS
  1
AEC_DISP_REP_SPACE_BOUNDARY_PLAN
  2
AecDbDispRepSpaceBoundaryPlan
  3
AecArchBase50|Product Desc: Autodesk Architectural Desktop 2007 |Company: Autodesk,Inc. |WEB Address: www.autodesk.com
 90
    32897
280
     0
281
     0
  0
CLASS
  1
AEC_DISP_REP_SPACE_BOUNDARY_SCHEM
  2
AecDbDispRepSpaceBoundarySketch
  3
AecArchBase50|Product Desc: Autodesk Architectural Desktop 2007 |Company: Autodesk,Inc. |WEB Address: www.autodesk.com
 90
    32897
280
     0
281
     0
  0
CLASS
  1
AEC_DISP_REP_SPACE_MODEL
  2
AecDbDispRepSpaceModel
  3
AecArchBase50|Product Desc: Autodesk Architectural Desktop 2007 |Company: Autodesk,Inc. |WEB Address: www.autodesk.com
 90
    32897
280
     0
281
     0
  0
CLASS
  1
AEC_DISP_REP_SPACE_PLAN
  2
AecDbDispRepSpacePlan
  3
AecArchBase50|Product Desc: Autodesk Architectural Desktop 2007 |Company: Autodesk,Inc. |WEB Address: www.autodesk.com
 90
    32897
280
     0
281
     0
  0
CLASS
  1
AEC_DISP_REP_STAIR_MODEL
  2
AecDbDispRepStairModel
  3
AecArchBase50|Product Desc: Autodesk Architectural Desktop 2007 |Company: Autodesk,Inc. |WEB Address: www.autodesk.com
 90
    32897
280
     0
281
     0
  0
CLASS
  1
AEC_DISP_REP_STAIR_PLAN
  2
AecDbDispRepStairPlan
  3
AecArchBase50|Product Desc: Autodesk Architectural Desktop 2007 |Company: Autodesk,Inc. |WEB Address: www.autodesk.com
 90
    32897
280
     0
281
     0
  0
CLASS
  1
AEC_DISP_REP_WALL_GRAPH
  2
AecDbDispRepWallGraph
  3
AecArchBase50|Product Desc: Autodesk Architectural Desktop 2007 |Company: Autodesk,Inc. |WEB Address: www.autodesk.com
 90
    32897
280
     0
281
     0
  0
CLASS
  1
AEC_DISP_REP_WALL_MODEL
  2
AecDbDispRepWallModel
  3
AecArchBase50|Product Desc: Autodesk Architectural Desktop 2007 |Company: Autodesk,Inc. |WEB Address: www.autodesk.com
 90
    32897
280
     0
281
     0
  0
CLASS
  1
AEC_DISP_REP_WALL_PLAN
  2
AecDbDispRepWallPlan
  3
AecArchBase50|Product Desc: Autodesk Architectural Desktop 2007 |Company: Autodesk,Inc. |WEB Address: www.autodesk.com
 90
    32897
280
     0
281
     0
  0
CLASS
  1
AEC_DISP_REP_WALL_SCHEM
  2
AecDbDispRepWallSchem
  3
AecArchBase50|Product Desc: Autodesk Architectural Desktop 2007 |Company: Autodesk,Inc. |WEB Address: www.autodesk.com
 90
    32897
280
     0
281
     0
  0
CLASS
  1
AEC_DISP_REP_WINDOW_ASSEMBLY_MODEL
  2
AecDbDispRepWindowAssemblyModel
  3
AecArchBase50|Product Desc: Autodesk Architectural Desktop 2007 |Company: Autodesk,Inc. |WEB Address: www.autodesk.com
 90
    32897
280
     0
281
     0
  0
CLASS
  1
AEC_DISP_REP_WINDOW_ASSEMBLY_PLAN
  2
AecDbDispRepWindowAssemblyPlan
  3
AecArchBase50|Product Desc: Autodesk Architectural Desktop 2007 |Company: Autodesk,Inc. |WEB Address: www.autodesk.com
 90
    32897
280
     0
281
     0
  0
CLASS
  1
AEC_AECDBDISPREPWINDOWASSEMBLYPLAN100
  2
AecDbDispRepWindowAssemblyPlan100
  3
AecArchDACHBase50|Product Desc: Autodesk Architectural Desktop 2007 |Company: Autodesk,Inc. |WEB Address: www.autodesk.com
 90
    32897
280
     0
281
     0
  0
CLASS
  1
AEC_DISP_REP_WINDOW_MODEL
  2
AecDbDispRepWindowModel
  3
AecArchBase50|Product Desc: Autodesk Architectural Desktop 2007 |Company: Autodesk,Inc. |WEB Address: www.autodesk.com
 90
    32897
280
     0
281
     0
  0
CLASS
  1
AEC_DISP_REP_WINDOW_NOMINAL
  2
AecDbDispRepWindowNominal
  3
AecArchBase50|Product Desc: Autodesk Architectural Desktop 2007 |Company: Autodesk,Inc. |WEB Address: www.autodesk.com
 90
    32897
280
     0
281
     0
  0
CLASS
  1
AEC_DISP_REP_WINDOW_PLAN
  2
AecDbDispRepWindowPlan
  3
AecArchBase50|Product Desc: Autodesk Architectural Desktop 2007 |Company: Autodesk,Inc. |WEB Address: www.autodesk.com
 90
    32897
280
     0
281
     0
  0
CLASS
  1
AECS_DISP_REP_MEMBER_LOGICAL
  2
AecsDbDispRepMemberLogical
  3
AecStructureBase50|Product Desc: Autodesk Architectural Desktop 2007 |Company: Autodesk,Inc. |WEB Address: www.autodesk.com
 90
    32897
280
     0
281
     0
  0
CLASS
  1
AECS_DISP_REP_MEMBER_MODEL_DESIGN
  2
AecsDbDispRepMemberModelDesign
  3
AecStructureBase50|Product Desc: Autodesk Architectural Desktop 2007 |Company: Autodesk,Inc. |WEB Address: www.autodesk.com
 90
    32897
280
     0
281
     0
  0
CLASS
  1
AECS_DISP_REP_MEMBER_PLAN_DESIGN
  2
AecsDbDispRepMemberPlanDesign
  3
AecStructureBase50|Product Desc: Autodesk Architectural Desktop 2007 |Company: Autodesk,Inc. |WEB Address: www.autodesk.com
 90
    32897
280
     0
281
     0
  0
CLASS
  1
AEC_DISP_PROPS_ENT
  2
AecDbDispPropsEnt
  3
AecBase50|Product Desc: Autodesk Architectural Desktop 2007 |Company: Autodesk,Inc. |WEB Address: www.autodesk.com
 90
    32897
280
     0
281
     0
  0
CLASS
  1
AEC_DISP_PROPS_CLIP_VOLUME
  2
AecDbDispPropsClipVol
  3
AecBase50|Product Desc: Autodesk Architectural Desktop 2007 |Company: Autodesk,Inc. |WEB Address: www.autodesk.com
 90
    32897
280
     0
281
     0
  0
CLASS
  1
AEC_DISP_PROPS_SLICE
  2
AecDbDispPropsSlice
  3
AecBase50|Product Desc: Autodesk Architectural Desktop 2007 |Company: Autodesk,Inc. |WEB Address: www.autodesk.com
 90
    32897
280
     0
281
     0
  0
CLASS
  1
AEC_DISP_PROPS_ROOFSLAB_PLAN
  2
AecDbDispPropsRoofSlabPlan
  3
AecArchBase50|Product Desc: Autodesk Architectural Desktop 2007 |Company: Autodesk,Inc. |WEB Address: www.autodesk.com
 90
    32897
280
     0
281
     0
  0
CLASS
  1
AEC_DISP_PROPS_GRID_ASSEMBLY_MODEL
  2
AecDbDispPropsGridAssemblyModel
  3
AecArchBase50|Product Desc: Autodesk Architectural Desktop 2007 |Company: Autodesk,Inc. |WEB Address: www.autodesk.com
 90
    32897
280
     0
281
     0
  0
CLASS
  1
AEC_DISP_PROPS_ROOF
  2
AecDbDispPropsRoof
  3
AecArchBase50|Product Desc: Autodesk Architectural Desktop 2007 |Company: Autodesk,Inc. |WEB Address: www.autodesk.com
 90
    32897
280
     0
281
     0
  0
CLASS
  1
AEC_DISP_PROPS_SPACE_MODEL
  2
AecDbDispPropsSpaceModel
  3
AecArchBase50|Product Desc: Autodesk Architectural Desktop 2007 |Company: Autodesk,Inc. |WEB Address: www.autodesk.com
 90
    32897
280
     0
281
     0
  0
CLASS
  1
AEC_DISP_PROPS_EDITINPLACEPROFILE_MODEL
  2
AecDbDispPropsEditInPlaceProfile
  3
AecBase50|Product Desc: Autodesk Architectural Desktop 2007 |Company: Autodesk,Inc. |WEB Address: www.autodesk.com
 90
    32897
280
     0
281
     0
  0
CLASS
  1
AEC_DISP_PROPS_DOOR
  2
AecDbDispPropsDoor
  3
AecArchBase50|Product Desc: Autodesk Architectural Desktop 2007 |Company: Autodesk,Inc. |WEB Address: www.autodesk.com
 90
    32897
280
     0
281
     0
  0
CLASS
  1
AEC_DISP_PROPS_MASKBLOCK
  2
AecDbDispPropsMaskBlock
  3
AecBase50|Product Desc: Autodesk Architectural Desktop 2007 |Company: Autodesk,Inc. |WEB Address: www.autodesk.com
 90
    32897
280
     0
281
     0
  0
CLASS
  1
AEC_DISP_PROPS_SPACE_PLAN
  2
AecDbDispPropsSpacePlan
  3
AecArchBase50|Product Desc: Autodesk Architectural Desktop 2007 |Company: Autodesk,Inc. |WEB Address: www.autodesk.com
 90
    32897
280
     0
281
     0
  0
CLASS
  1
AEC_DISP_PROPS_RAILING_PLAN
  2
AecDbDispPropsRailingPlan
  3
AecArchBase50|Product Desc: Autodesk Architectural Desktop 2007 |Company: Autodesk,Inc. |WEB Address: www.autodesk.com
 90
    32897
280
     0
281
     0
  0
CLASS
  1
AEC_DISP_PROPS_LAYOUT_GRID2D
  2
AecDbDispPropsLayoutGrid2d
  3
AecBase50|Product Desc: Autodesk Architectural Desktop 2007 |Company: Autodesk,Inc. |WEB Address: www.autodesk.com
 90
    32897
280
     0
281
     0
  0
CLASS
  1
AEC_DISP_PROPS_CLIP_VOLUME_RESULT
  2
AecDbDispPropsClipVolResSubDiv
  3
AecBase50|Product Desc: Autodesk Architectural Desktop 2007 |Company: Autodesk,Inc. |WEB Address: www.autodesk.com
 90
    32897
280
     0
281
     0
  0
CLASS
  1
AEC_DISP_PROPS_STAIR_MODEL
  2
AecDbDispPropsStairModel
  3
AecArchBase50|Product Desc: Autodesk Architectural Desktop 2007 |Company: Autodesk,Inc. |WEB Address: www.autodesk.com
 90
    32897
280
     0
281
     0
  0
CLASS
  1
AEC_DISP_PROPS_LAYOUT_CURVE
  2
AecDbDispPropsLayoutCurve
  3
AecBase50|Product Desc: Autodesk Architectural Desktop 2007 |Company: Autodesk,Inc. |WEB Address: www.autodesk.com
 90
    32897
280
     0
281
     0
  0
CLASS
  1
AEC_DISP_PROPS_POLYGON_MODEL
  2
AecDbDispPropsPolygonModel
  3
AecBase50|Product Desc: Autodesk Architectural Desktop 2007 |Company: Autodesk,Inc. |WEB Address: www.autodesk.com
 90
    32897
280
     0
281
     0
  0
CLASS
  1
AEC_DISP_PROPS_MASS_GROUP
  2
AecDbDispPropsMassGroup
  3
AecBaseEx50|Product Desc: Autodesk Architectural Desktop 2007 |Company: Autodesk,Inc. |WEB Address: www.autodesk.com
 90
    32897
280
     0
281
     0
  0
CLASS
  1
AEC_DISP_PROPS_STAIR_PLAN
  2
AecDbDispPropsStairPlan
  3
AecArchBase50|Product Desc: Autodesk Architectural Desktop 2007 |Company: Autodesk,Inc. |WEB Address: www.autodesk.com
 90
    32897
280
     0
281
     0
  0
CLASS
  1
AEC_DISP_PROPS_OPENING
  2
AecDbDispPropsOpening
  3
AecArchBase50|Product Desc: Autodesk Architectural Desktop 2007 |Company: Autodesk,Inc. |WEB Address: www.autodesk.com
 90
    32897
280
     0
281
     0
  0
CLASS
  1
AEC_DISP_PROPS_WALL_GRAPH
  2
AecDbDispPropsWallGraph
  3
AecArchBase50|Product Desc: Autodesk Architectural Desktop 2007 |Company: Autodesk,Inc. |WEB Address: www.autodesk.com
 90
    32897
280
     0
281
     0
  0
CLASS
  1
AEC_DISP_PROPS_DOOR_NOMINAL
  2
AecDbDispPropsDoorNominal
  3
AecArchBase50|Product Desc: Autodesk Architectural Desktop 2007 |Company: Autodesk,Inc. |WEB Address: www.autodesk.com
 90
    32897
280
     0
281
     0
  0
CLASS
  1
AEC_DISP_PROPS_SLAB
  2
AecDbDispPropsSlab
  3
AecArchBase50|Product Desc: Autodesk Architectural Desktop 2007 |Company: Autodesk,Inc. |WEB Address: www.autodesk.com
 90
    32897
280
     0
281
     0
  0
CLASS
  1
AEC_DISP_PROPS_WALL_MODEL
  2
AecDbDispPropsWallModel
  3
AecArchBase50|Product Desc: Autodesk Architectural Desktop 2007 |Company: Autodesk,Inc. |WEB Address: www.autodesk.com
 90
    32897
280
     0
281
     0
  0
CLASS
  1
AEC_DISP_PROPS_MATERIAL
  2
AecDbDispPropsMaterial
  3
AecBase50|Product Desc: Autodesk Architectural Desktop 2007 |Company: Autodesk,Inc. |WEB Address: www.autodesk.com
 90
    32897
280
     0
281
     0
  0
CLASS
  1
AEC_DISP_PROPS_WINDOW
  2
AecDbDispPropsWindow
  3
AecArchBase50|Product Desc: Autodesk Architectural Desktop 2007 |Company: Autodesk,Inc. |WEB Address: www.autodesk.com
 90
    32897
280
     0
281
     0
  0
CLASS
  1
AEC_DISP_PROPS_LAYOUT_GRID3D
  2
AecDbDispPropsLayoutGrid3d
  3
AecBase50|Product Desc: Autodesk Architectural Desktop 2007 |Company: Autodesk,Inc. |WEB Address: www.autodesk.com
 90
    32897
280
     0
281
     0
  0
CLASS
  1
AEC_DISP_PROPS_GRID_ASSEMBLY_PLAN
  2
AecDbDispPropsGridAssemblyPlan
  3
AecArchBase50|Product Desc: Autodesk Architectural Desktop 2007 |Company: Autodesk,Inc. |WEB Address: www.autodesk.com
 90
    32897
280
     0
281
     0
  0
CLASS
  1
AEC_DISP_PROPS_WALL_SCHEM
  2
AecDbDispPropsWallSchem
  3
AecArchBase50|Product Desc: Autodesk Architectural Desktop 2007 |Company: Autodesk,Inc. |WEB Address: www.autodesk.com
 90
    32897
280
     0
281
     0
  0
CLASS
  1
AEC_DISP_PROPS_WALL_PLAN
  2
AecDbDispPropsWallPlan
  3
AecArchBase50|Product Desc: Autodesk Architectural Desktop 2007 |Company: Autodesk,Inc. |WEB Address: www.autodesk.com
 90
    32897
280
     0
281
     0
  0
CLASS
  1
AEC_DISP_PROPS_SPACE_BOUNDARY
  2
AecDbDispPropsSpaceBoundary
  3
AecArchBase50|Product Desc: Autodesk Architectural Desktop 2007 |Company: Autodesk,Inc. |WEB Address: www.autodesk.com
 90
    32897
280
     0
281
     0
  0
CLASS
  1
AEC_DISP_PROPS_SLAB_PLAN
  2
AecDbDispPropsSlabPlan
  3
AecArchBase50|Product Desc: Autodesk Architectural Desktop 2007 |Company: Autodesk,Inc. |WEB Address: www.autodesk.com
 90
    32897
280
     0
281
     0
  0
CLASS
  1
AEC_DISP_PROPS_RAILING_MODEL
  2
AecDbDispPropsRailingModel
  3
AecArchBase50|Product Desc: Autodesk Architectural Desktop 2007 |Company: Autodesk,Inc. |WEB Address: www.autodesk.com
 90
    32897
280
     0
281
     0
  0
CLASS
  1
AEC_DISP_PROPS_MASS_ELEM_MODEL
  2
AecDbDispPropsMassElem
  3
AecBaseEx50|Product Desc: Autodesk Architectural Desktop 2007 |Company: Autodesk,Inc. |WEB Address: www.autodesk.com
 90
    32897
280
     0
281
     0
  0
CLASS
  1
AEC_DISP_PROPS_DIM
  2
AecDbDispPropsDimGroup
  3
AecArchDACHBase50|Product Desc: Autodesk Architectural Desktop 2007 |Company: Autodesk,Inc. |WEB Address: www.autodesk.com
 90
    32897
280
     0
281
     0
  0
CLASS
  1
AEC_DISP_PROPS_ROOFSLAB
  2
AecDbDispPropsRoofSlab
  3
AecArchBase50|Product Desc: Autodesk Architectural Desktop 2007 |Company: Autodesk,Inc. |WEB Address: www.autodesk.com
 90
    32897
280
     0
281
     0
  0
CLASS
  1
AEC_DISP_PROPS_ENT_REF
  2
AecDbDispPropsEntRef
  3
AecBase50|Product Desc: Autodesk Architectural Desktop 2007 |Company: Autodesk,Inc. |WEB Address: www.autodesk.com
 90
    32897
280
     0
281
     0
  0
CLASS
  1
AEC_DISP_PROPS_2D_SECTION
  2
AecDbDispProps2dSection
  3
AecBase50|Product Desc: Autodesk Architectural Desktop 2007 |Company: Autodesk,Inc. |WEB Address: www.autodesk.com
 90
    32897
280
     0
281
     0
  0
CLASS
  1
AECS_DISP_PROPS_MEMBER_LOGICAL
  2
AecsDbDispPropsMemberLogical
  3
AecStructureBase50|Product Desc: Autodesk Architectural Desktop 2007 |Company: Autodesk,Inc. |WEB Address: www.autodesk.com
 90
    32897
280
     0
281
     0
  0
CLASS
  1
AEC_DISP_PROPS_AREA_DECOMPOSED
  2
AecDbDispPropsAreaDecomposed
  3
AecAreaCalculationBase50|Product Desc: Autodesk Architectural Desktop 2007 |Company: Autodesk,Inc. |WEB Address: www.autodesk.com
 90
    32897
280
     0
281
     0
  0
CLASS
  1
AEC_DISP_PROPS_CAMERA
  2
AecDbDispPropsCamera
  3
AecBase50|Product Desc: Autodesk Architectural Desktop 2007 |Company: Autodesk,Inc. |WEB Address: www.autodesk.com
 90
    32897
280
     0
281
     0
  0
CLASS
  1
AECS_DISP_PROPS_MEMBER
  2
AecsDbDispPropsMember
  3
AecStructureBase50|Product Desc: Autodesk Architectural Desktop 2007 |Company: Autodesk,Inc. |WEB Address: www.autodesk.com
 90
    32897
280
     0
281
     0
  0
CLASS
  1
AECS_DISP_PROPS_MEMBER_PLAN
  2
AecsDbDispPropsMemberPlan
  3
AecStructureBase50|Product Desc: Autodesk Architectural Desktop 2007 |Company: Autodesk,Inc. |WEB Address: www.autodesk.com
 90
    32897
280
     0
281
     0
  0
CLASS
  1
AEC_DISP_PROPS_AREAGROUP
  2
AecDbDispPropsAreaGroup
  3
AecAreaCalculationBase50|Product Desc: Autodesk Architectural Desktop 2007 |Company: Autodesk,Inc. |WEB Address: www.autodesk.com
 90
    32897
280
     0
281
     0
  0
CLASS
  1
AEC_DISP_PROPS_WINDOW_NOMINAL
  2
AecDbDispPropsWindowNominal
  3
AecArchBase50|Product Desc: Autodesk Architectural Desktop 2007 |Company: Autodesk,Inc. |WEB Address: www.autodesk.com
 90
    32897
280
     0
281
     0
  0
CLASS
  1
AEC_DISP_PROPS_AREA
  2
AecDbDispPropsArea
  3
AecAreaCalculationBase50|Product Desc: Autodesk Architectural Desktop 2007 |Company: Autodesk,Inc. |WEB Address: www.autodesk.com
 90
    32897
280
     0
281
     0
  0
CLASS
  1
AEC_DISP_PROPS_SCHEDULE_TABLE
  2
AecDbDispPropsScheduleTable
  3
AecSchedule50|Product Desc: Autodesk Architectural Desktop 2007 |Company: Autodesk,Inc. |WEB Address: www.autodesk.com
 90
    32897
280
     0
281
     0
  0
CLASS
  1
AEC_LAYERKEY_STYLE
  2
AecDbLayerKeyStyle
  3
AecBase50|Product Desc: Autodesk Architectural Desktop 2007 |Company: Autodesk,Inc. |WEB Address: www.autodesk.com
 90
    32897
280
     0
281
     0
  0
CLASS
  1
AEC_VARS_ARCHBASE
  2
AecDbVarsArchBase
  3
AecArchBase50|Product Desc: Autodesk Architectural Desktop 2007 |Company: Autodesk,Inc. |WEB Address: www.autodesk.com
 90
    32897
280
     0
281
     0
  0
CLASS
  1
AEC_VARS_MUNICH
  2
AecDbVarsMunich
  3
AecArchDACHBase50|Product Desc: Autodesk Architectural Desktop 2007 |Company: Autodesk,Inc. |WEB Address: www.autodesk.com
 90
    32897
280
     0
281
     0
  0
CLASS
  1
AEC_NOTIFICATION_TRACKER
  2
AecDbNotificationTracker
  3
AecBase50|Product Desc: Autodesk Architectural Desktop 2007 |Company: Autodesk,Inc. |WEB Address: www.autodesk.com
 90
    32897
280
     0
281
     0
  0
CLASS
  1
AEC_DISP_REP_ANCHOR
  2
AecDbDispRepAnchor
  3
AecBase50|Product Desc: Autodesk Architectural Desktop 2007 |Company: Autodesk,Inc. |WEB Address: www.autodesk.com
 90
    32897
280
     0
281
     0
  0
CLASS
  1
AEC_DISP_REP_POLYGON_TRUECOLOUR
  2
AecDbDispRepPolygonTrueColour
  3
AecBase50|Product Desc: Autodesk Architectural Desktop 2007 |Company: Autodesk,Inc. |WEB Address: www.autodesk.com
 90
    32897
280
     0
281
     0
  0
CLASS
  1
AEC_DISP_PROPS_POLYGON_TRUECOLOUR
  2
AecDbDispPropsPolygonTrueColour
  3
AecBase50|Product Desc: Autodesk Architectural Desktop 2007 |Company: Autodesk,Inc. |WEB Address: www.autodesk.com
 90
    32897
280
     0
281
     0
  0
CLASS
  1
AEC_DISP_REP_BDG_ELEVLINE_RCP
  2
AecDbDispRepBdgElevLineRcp
  3
AecArchBase50|Product Desc: Autodesk Architectural Desktop 2007 |Company: Autodesk,Inc. |WEB Address: www.autodesk.com
 90
    32897
280
     0
281
     0
  0
CLASS
  1
AEC_DISP_REP_BDG_SECTIONLINE_RCP
  2
AecDbDispRepBdgSectionLineRcp
  3
AecArchBase50|Product Desc: Autodesk Architectural Desktop 2007 |Company: Autodesk,Inc. |WEB Address: www.autodesk.com
 90
    32897
280
     0
281
     0
  0
CLASS
  1
AEC_DISP_REP_BDG_SECTION_MODEL
  2
AecDbDispRepBdgSectionModel
  3
AecArchBase50|Product Desc: Autodesk Architectural Desktop 2007 |Company: Autodesk,Inc. |WEB Address: www.autodesk.com
 90
    32897
280
     0
281
     0
  0
CLASS
  1
AEC_DISP_REP_DOOR_ELEV
  2
AecDbDispRepDoorElev
  3
AecArchBase50|Product Desc: Autodesk Architectural Desktop 2007 |Company: Autodesk,Inc. |WEB Address: www.autodesk.com
 90
    32897
280
     0
281
     0
  0
CLASS
  1
AEC_DISP_REP_DOOR_RCP
  2
AecDbDispRepDoorRcp
  3
AecArchBase50|Product Desc: Autodesk Architectural Desktop 2007 |Company: Autodesk,Inc. |WEB Address: www.autodesk.com
 90
    32897
280
     0
281
     0
  0
CLASS
  1
AEC_DISP_REP_DOOR_THRESHOLD_PLAN
  2
AecDbDispRepDoorThresholdPlan
  3
AecArchBase50|Product Desc: Autodesk Architectural Desktop 2007 |Company: Autodesk,Inc. |WEB Address: www.autodesk.com
 90
    32897
280
     0
281
     0
  0
CLASS
  1
AEC_DISP_PROPS_DOOR_THRESHOLD_PLAN
  2
AecDbDispPropsDoorThresholdPlan
  3
AecArchBase50|Product Desc: Autodesk Architectural Desktop 2007 |Company: Autodesk,Inc. |WEB Address: www.autodesk.com
 90
    32897
280
     0
281
     0
  0
CLASS
  1
AEC_DISP_REP_MASS_ELEM_RCP
  2
AecDbDispRepMassElemRcp
  3
AecArchBase50|Product Desc: Autodesk Architectural Desktop 2007 |Company: Autodesk,Inc. |WEB Address: www.autodesk.com
 90
    32897
280
     0
281
     0
  0
CLASS
  1
AEC_DISP_REP_MASS_GROUP_RCP
  2
AecDbDispRepMassGroupRcp
  3
AecArchBase50|Product Desc: Autodesk Architectural Desktop 2007 |Company: Autodesk,Inc. |WEB Address: www.autodesk.com
 90
    32897
280
     0
281
     0
  0
CLASS
  1
AEC_DISP_REP_MVBLOCK_REF_RCP
  2
AecDbDispRepMvBlockRefRcp
  3
AecArchBase50|Product Desc: Autodesk Architectural Desktop 2007 |Company: Autodesk,Inc. |WEB Address: www.autodesk.com
 90
    32897
280
     0
281
     0
  0
CLASS
  1
AEC_DISP_REP_ROOF_RCP
  2
AecDbDispRepRoofRcp
  3
AecArchBase50|Product Desc: Autodesk Architectural Desktop 2007 |Company: Autodesk,Inc. |WEB Address: www.autodesk.com
 90
    32897
280
     0
281
     0
  0
CLASS
  1
AEC_DISP_REP_SPACE_BOUNDARY_DIAGRAM
  2
AecDbDispRepSpaceBoundaryDgrm
  3
AecArchBase50|Product Desc: Autodesk Architectural Desktop 2007 |Company: Autodesk,Inc. |WEB Address: www.autodesk.com
 90
    32897
280
     0
281
     0
  0
CLASS
  1
AEC_DISP_REP_SPACE_RCP
  2
AecDbDispRepSpaceRcp
  3
AecArchBase50|Product Desc: Autodesk Architectural Desktop 2007 |Company: Autodesk,Inc. |WEB Address: www.autodesk.com
 90
    32897
280
     0
281
     0
  0
CLASS
  1
AEC_DISP_REP_SPACE_VOLUME
  2
AecDbDispRepSpaceVolume
  3
AecArchBase50|Product Desc: Autodesk Architectural Desktop 2007 |Company: Autodesk,Inc. |WEB Address: www.autodesk.com
 90
    32897
280
     0
281
     0
  0
CLASS
  1
AEC_DISP_REP_STAIR_PLAN_OVERLAPPING
  2
AecDbDispRepStairPlanOverlapping
  3
AecArchBase50|Product Desc: Autodesk Architectural Desktop 2007 |Company: Autodesk,Inc. |WEB Address: www.autodesk.com
 90
    32897
280
     0
281
     0
  0
CLASS
  1
AEC_DISP_PROPS_STAIR_PLAN_OVERLAPPING
  2
AecDbDispPropsStairPlanOverlapping
  3
AecArchBase50|Product Desc: Autodesk Architectural Desktop 2007 |Company: Autodesk,Inc. |WEB Address: www.autodesk.com
 90
    32897
280
     0
281
     0
  0
CLASS
  1
AEC_DISP_REP_STAIR_RCP
  2
AecDbDispRepStairRcp
  3
AecArchBase50|Product Desc: Autodesk Architectural Desktop 2007 |Company: Autodesk,Inc. |WEB Address: www.autodesk.com
 90
    32897
280
     0
281
     0
  0
CLASS
  1
AEC_DISP_REP_WALL_RCP
  2
AecDbDispRepWallRcp
  3
AecArchBase50|Product Desc: Autodesk Architectural Desktop 2007 |Company: Autodesk,Inc. |WEB Address: www.autodesk.com
 90
    32897
280
     0
281
     0
  0
CLASS
  1
AEC_DISP_REP_WINDOWASSEMBLY_SILL_PLAN
  2
AecDbDispRepWindowAssemblySillPlan
  3
AecArchBase50|Product Desc: Autodesk Architectural Desktop 2007 |Company: Autodesk,Inc. |WEB Address: www.autodesk.com
 90
    32897
280
     0
281
     0
  0
CLASS
  1
AEC_DISP_PROPS_WINDOW_ASSEMBLY_SILL_PLAN
  2
AecDbDispPropsWindowAssemblySillPlan
  3
AecArchBase50|Product Desc: Autodesk Architectural Desktop 2007 |Company: Autodesk,Inc. |WEB Address: www.autodesk.com
 90
    32897
280
     0
281
     0
  0
CLASS
  1
AEC_DISP_REP_WINDOW_ELEV
  2
AecDbDispRepWindowElev
  3
AecArchBase50|Product Desc: Autodesk Architectural Desktop 2007 |Company: Autodesk,Inc. |WEB Address: www.autodesk.com
 90
    32897
280
     0
281
     0
  0
CLASS
  1
AEC_DISP_REP_WINDOW_RCP
  2
AecDbDispRepWindowRcp
  3
AecArchBase50|Product Desc: Autodesk Architectural Desktop 2007 |Company: Autodesk,Inc. |WEB Address: www.autodesk.com
 90
    32897
280
     0
281
     0
  0
CLASS
  1
AEC_DISP_REP_WINDOW_SILL_PLAN
  2
AecDbDispRepWindowSillPlan
  3
AecArchBase50|Product Desc: Autodesk Architectural Desktop 2007 |Company: Autodesk,Inc. |WEB Address: www.autodesk.com
 90
    32897
280
     0
281
     0
  0
CLASS
  1
AEC_DISP_PROPS_WINDOW_SILL_PLAN
  2
AecDbDispPropsWindowSillPlan
  3
AecArchBase50|Product Desc: Autodesk Architectural Desktop 2007 |Company: Autodesk,Inc. |WEB Address: www.autodesk.com
 90
    32897
280
     0
281
     0
  0
CLASS
  1
AEC_DISP_REP_ANCHOR_BUB_TO_GRID_RCP
  2
AecDbDispRepAnchorBubToGridRcp
  3
AecStructureBase50|Product Desc: Autodesk Architectural Desktop 2007 |Company: Autodesk,Inc. |WEB Address: www.autodesk.com
 90
    32897
280
     0
281
     0
  0
CLASS
  1
AEC_DISP_REP_COLUMN_GRID_RCP
  2
AecDbDispRepColumnGridRcp
  3
AecStructureBase50|Product Desc: Autodesk Architectural Desktop 2007 |Company: Autodesk,Inc. |WEB Address: www.autodesk.com
 90
    32897
280
     0
281
     0
  0
CLASS
  1
AECS_DISP_REP_MEMBER_ELEVATION_DESIGN
  2
AecsDbDispRepMemberElevationDesign
  3
AecStructureBase50|Product Desc: Autodesk Architectural Desktop 2007 |Company: Autodesk,Inc. |WEB Address: www.autodesk.com
 90
    32897
280
     0
281
     0
  0
CLASS
  1
AECS_DISP_PROPS_MEMBER_PROJECTED
  2
AecsDbDispPropsMemberProjected
  3
AecStructureBase50|Product Desc: Autodesk Architectural Desktop 2007 |Company: Autodesk,Inc. |WEB Address: www.autodesk.com
 90
    32897
280
     0
281
     0
  0
CLASS
  1
AECS_DISP_REP_MEMBER_ELEVATION_DETAIL
  2
AecsDbDispRepMemberElevationDetail
  3
AecStructureBase50|Product Desc: Autodesk Architectural Desktop 2007 |Company: Autodesk,Inc. |WEB Address: www.autodesk.com
 90
    32897
280
     0
281
     0
  0
CLASS
  1
AECS_DISP_REP_MEMBER_MODEL_DETAIL
  2
AecsDbDispRepMemberModelDetail
  3
AecStructureBase50|Product Desc: Autodesk Architectural Desktop 2007 |Company: Autodesk,Inc. |WEB Address: www.autodesk.com
 90
    32897
280
     0
281
     0
  0
CLASS
  1
AECS_DISP_REP_MEMBER_PLAN_DETAIL
  2
AecsDbDispRepMemberPlanDetail
  3
AecStructureBase50|Product Desc: Autodesk Architectural Desktop 2007 |Company: Autodesk,Inc. |WEB Address: www.autodesk.com
 90
    32897
280
     0
281
     0
  0
CLASS
  1
AECS_DISP_REP_MEMBER_PLAN_SKETCH
  2
AecsDbDispRepMemberPlanSketch
  3
AecStructureBase50|Product Desc: Autodesk Architectural Desktop 2007 |Company: Autodesk,Inc. |WEB Address: www.autodesk.com
 90
    32897
280
     0
281
     0
  0
CLASS
  1
AECS_DISP_PROPS_MEMBER_PLAN_SKETCH
  2
AecsDbDispPropsMemberPlanSketch
  3
AecStructureBase50|Product Desc: Autodesk Architectural Desktop 2007 |Company: Autodesk,Inc. |WEB Address: www.autodesk.com
 90
    32897
280
     0
281
     0
  0
CLASS
  1
AEC_AECDBDISPREPAREA100
  2
AecDbDispRepArea100
  3
AecArchDACHBase50|Product Desc: Autodesk Architectural Desktop 2007 |Company: Autodesk,Inc. |WEB Address: www.autodesk.com
 90
    32897
280
     0
281
     0
  0
CLASS
  1
AEC_AECDBDISPREPAREAGROUP100
  2
AecDbDispRepAreaGroup100
  3
AecArchDACHBase50|Product Desc: Autodesk Architectural Desktop 2007 |Company: Autodesk,Inc. |WEB Address: www.autodesk.com
 90
    32897
280
     0
281
     0
  0
CLASS
  1
AEC_AECDBDISPREPBDGELEVLINEPLAN100
  2
AecDbDispRepBdgElevLinePlan100
  3
AecArchDACHBase50|Product Desc: Autodesk Architectural Desktop 2007 |Company: Autodesk,Inc. |WEB Address: www.autodesk.com
 90
    32897
280
     0
281
     0
  0
CLASS
  1
AEC_AECDBDISPREPBDGSECTIONLINEPLAN100
  2
AecDbDispRepBdgSectionLinePlan100
  3
AecArchDACHBase50|Product Desc: Autodesk Architectural Desktop 2007 |Company: Autodesk,Inc. |WEB Address: www.autodesk.com
 90
    32897
280
     0
281
     0
  0
CLASS
  1
AEC_AECDBDISPREPCEILINGGRIDPLAN100
  2
AecDbDispRepCeilingGridPlan100
  3
AecArchDACHBase50|Product Desc: Autodesk Architectural Desktop 2007 |Company: Autodesk,Inc. |WEB Address: www.autodesk.com
 90
    32897
280
     0
281
     0
  0
CLASS
  1
AEC_AECDBDISPREPCOLUMNGRIDPLAN100
  2
AecDbDispRepColumnGridPlan100
  3
AecArchDACHBase50|Product Desc: Autodesk Architectural Desktop 2007 |Company: Autodesk,Inc. |WEB Address: www.autodesk.com
 90
    32897
280
     0
281
     0
  0
CLASS
  1
AEC_AECDBDISPREPCURTAINWALLLAYOUTPLAN100
  2
AecDbDispRepCurtainWallLayoutPlan100
  3
AecArchDACHBase50|Product Desc: Autodesk Architectural Desktop 2007 |Company: Autodesk,Inc. |WEB Address: www.autodesk.com
 90
    32897
280
     0
281
     0
  0
CLASS
  1
AEC_AECDBDISPREPCURTAINWALLUNITPLAN100
  2
AecDbDispRepCurtainWallUnitPlan100
  3
AecArchDACHBase50|Product Desc: Autodesk Architectural Desktop 2007 |Company: Autodesk,Inc. |WEB Address: www.autodesk.com
 90
    32897
280
     0
281
     0
  0
CLASS
  1
AEC_AECDBDISPREPMVBLOCKREFPLAN100
  2
AecDbDispRepMvBlockRefPlan100
  3
AecArchDACHBase50|Product Desc: Autodesk Architectural Desktop 2007 |Company: Autodesk,Inc. |WEB Address: www.autodesk.com
 90
    32897
280
     0
281
     0
  0
CLASS
  1
AEC_AECDBDISPREPROOFPLAN100
  2
AecDbDispRepRoofPlan100
  3
AecArchDACHBase50|Product Desc: Autodesk Architectural Desktop 2007 |Company: Autodesk,Inc. |WEB Address: www.autodesk.com
 90
    32897
280
     0
281
     0
  0
CLASS
  1
AEC_AECDBDISPREPROOFSLABPLAN100
  2
AecDbDispRepRoofSlabPlan100
  3
AecArchDACHBase50|Product Desc: Autodesk Architectural Desktop 2007 |Company: Autodesk,Inc. |WEB Address: www.autodesk.com
 90
    32897
280
     0
281
     0
  0
CLASS
  1
AEC_AECDBDISPREPSLABPLAN100
  2
AecDbDispRepSlabPlan100
  3
AecArchDACHBase50|Product Desc: Autodesk Architectural Desktop 2007 |Company: Autodesk,Inc. |WEB Address: www.autodesk.com
 90
    32897
280
     0
281
     0
  0
CLASS
  1
AEC_AECDBDISPREPSPACEBOUNDARYPLAN100
  2
AecDbDispRepSpaceBoundaryPlan100
  3
AecArchDACHBase50|Product Desc: Autodesk Architectural Desktop 2007 |Company: Autodesk,Inc. |WEB Address: www.autodesk.com
 90
    32897
280
     0
281
     0
  0
CLASS
  1
AEC_AECDBDISPREPSPACEPLAN100
  2
AecDbDispRepSpacePlan100
  3
AecArchDACHBase50|Product Desc: Autodesk Architectural Desktop 2007 |Company: Autodesk,Inc. |WEB Address: www.autodesk.com
 90
    32897
280
     0
281
     0
  0
CLASS
  1
AEC_AECDBDISPREPWALLPLAN100
  2
AecDbDispRepWallPlan100
  3
AecArchDACHBase50|Product Desc: Autodesk Architectural Desktop 2007 |Company: Autodesk,Inc. |WEB Address: www.autodesk.com
 90
    32897
280
     0
281
     0
  0
CLASS
  1
AEC_AECDBDISPREPAREA50
  2
AecDbDispRepArea50
  3
AecArchDACHBase50|Product Desc: Autodesk Architectural Desktop 2007 |Company: Autodesk,Inc. |WEB Address: www.autodesk.com
 90
    32897
280
     0
281
     0
  0
CLASS
  1
AEC_AECDBDISPREPAREAGROUP50
  2
AecDbDispRepAreaGroup50
  3
AecArchDACHBase50|Product Desc: Autodesk Architectural Desktop 2007 |Company: Autodesk,Inc. |WEB Address: www.autodesk.com
 90
    32897
280
     0
281
     0
  0
CLASS
  1
AEC_AECDBDISPREPBDGELEVLINEPLAN50
  2
AecDbDispRepBdgElevLinePlan50
  3
AecArchDACHBase50|Product Desc: Autodesk Architectural Desktop 2007 |Company: Autodesk,Inc. |WEB Address: www.autodesk.com
 90
    32897
280
     0
281
     0
  0
CLASS
  1
AEC_AECDBDISPREPBDGSECTIONLINEPLAN50
  2
AecDbDispRepBdgSectionLinePlan50
  3
AecArchDACHBase50|Product Desc: Autodesk Architectural Desktop 2007 |Company: Autodesk,Inc. |WEB Address: www.autodesk.com
 90
    32897
280
     0
281
     0
  0
CLASS
  1
AEC_AECDBDISPREPCEILINGGRIDPLAN50
  2
AecDbDispRepCeilingGridPlan50
  3
AecArchDACHBase50|Product Desc: Autodesk Architectural Desktop 2007 |Company: Autodesk,Inc. |WEB Address: www.autodesk.com
 90
    32897
280
     0
281
     0
  0
CLASS
  1
AEC_AECDBDISPREPCOLUMNGRIDPLAN50
  2
AecDbDispRepColumnGridPlan50
  3
AecArchDACHBase50|Product Desc: Autodesk Architectural Desktop 2007 |Company: Autodesk,Inc. |WEB Address: www.autodesk.com
 90
    32897
280
     0
281
     0
  0
CLASS
  1
AEC_AECDBDISPREPCURTAINWALLLAYOUTPLAN50
  2
AecDbDispRepCurtainWallLayoutPlan50
  3
AecArchDACHBase50|Product Desc: Autodesk Architectural Desktop 2007 |Company: Autodesk,Inc. |WEB Address: www.autodesk.com
 90
    32897
280
     0
281
     0
  0
CLASS
  1
AEC_AECDBDISPREPCURTAINWALLUNITPLAN50
  2
AecDbDispRepCurtainWallUnitPlan50
  3
AecArchDACHBase50|Product Desc: Autodesk Architectural Desktop 2007 |Company: Autodesk,Inc. |WEB Address: www.autodesk.com
 90
    32897
280
     0
281
     0
  0
CLASS
  1
AEC_AECDBDISPREPMVBLOCKREFPLAN50
  2
AecDbDispRepMvBlockRefPlan50
  3
AecArchDACHBase50|Product Desc: Autodesk Architectural Desktop 2007 |Company: Autodesk,Inc. |WEB Address: www.autodesk.com
 90
    32897
280
     0
281
     0
  0
CLASS
  1
AEC_AECDBDISPREPROOFPLAN50
  2
AecDbDispRepRoofPlan50
  3
AecArchDACHBase50|Product Desc: Autodesk Architectural Desktop 2007 |Company: Autodesk,Inc. |WEB Address: www.autodesk.com
 90
    32897
280
     0
281
     0
  0
CLASS
  1
AEC_AECDBDISPREPROOFSLABPLAN50
  2
AecDbDispRepRoofSlabPlan50
  3
AecArchDACHBase50|Product Desc: Autodesk Architectural Desktop 2007 |Company: Autodesk,Inc. |WEB Address: www.autodesk.com
 90
    32897
280
     0
281
     0
  0
CLASS
  1
AEC_AECDBDISPREPSLABPLAN50
  2
AecDbDispRepSlabPlan50
  3
AecArchDACHBase50|Product Desc: Autodesk Architectural Desktop 2007 |Company: Autodesk,Inc. |WEB Address: www.autodesk.com
 90
    32897
280
     0
281
     0
  0
CLASS
  1
AEC_AECDBDISPREPSPACEBOUNDARYPLAN50
  2
AecDbDispRepSpaceBoundaryPlan50
  3
AecArchDACHBase50|Product Desc: Autodesk Architectural Desktop 2007 |Company: Autodesk,Inc. |WEB Address: www.autodesk.com
 90
    32897
280
     0
281
     0
  0
CLASS
  1
AEC_AECDBDISPREPSPACEPLAN50
  2
AecDbDispRepSpacePlan50
  3
AecArchDACHBase50|Product Desc: Autodesk Architectural Desktop 2007 |Company: Autodesk,Inc. |WEB Address: www.autodesk.com
 90
    32897
280
     0
281
     0
  0
CLASS
  1
AEC_AECDBDISPREPWALLPLAN50
  2
AecDbDispRepWallPlan50
  3
AecArchDACHBase50|Product Desc: Autodesk Architectural Desktop 2007 |Company: Autodesk,Inc. |WEB Address: www.autodesk.com
 90
    32897
280
     0
281
     0
  0
CLASS
  1
AEC_AECDBDISPREPWINDOWASSEMBLYPLAN50
  2
AecDbDispRepWindowAssemblyPlan50
  3
AecArchDACHBase50|Product Desc: Autodesk Architectural Desktop 2007 |Company: Autodesk,Inc. |WEB Address: www.autodesk.com
 90
    32897
280
     0
281
     0
  0
CLASS
  1
AEC_DB_DISP_REP_DIM_GROUP_PLAN100
  2
AecDbDispRepDimGroupPlan100
  3
AecArchDACHBase50|Product Desc: Autodesk Architectural Desktop 2007 |Company: Autodesk,Inc. |WEB Address: www.autodesk.com
 90
    32897
280
     0
281
     0
  0
CLASS
  1
AEC_DB_DISP_REP_DIM_GROUP_PLAN50
  2
AecDbDispRepDimGroupPlan50
  3
AecArchDACHBase50|Product Desc: Autodesk Architectural Desktop 2007 |Company: Autodesk,Inc. |WEB Address: www.autodesk.com
 90
    32897
280
     0
281
     0
  0
CLASS
  1
AEC_DISP_REP_DOOR_PLAN_50
  2
AecDbDispRepDoorPlan50
  3
AecArchDACHBase50|Product Desc: Autodesk Architectural Desktop 2007 |Company: Autodesk,Inc. |WEB Address: www.autodesk.com
 90
    32897
280
     0
281
     0
  0
CLASS
  1
AEC_DISP_PROPS_DOOR_PLAN_50
  2
AecDbDispPropsDoorPlan50
  3
AecArchDACHBase50|Product Desc: Autodesk Architectural Desktop 2007 |Company: Autodesk,Inc. |WEB Address: www.autodesk.com
 90
    32897
280
     0
281
     0
  0
CLASS
  1
AEC_DISP_REP_DOOR_PLAN_HEKTO
  2
AecDbDispRepDoorPlanHekto
  3
AecArchDACHBase50|Product Desc: Autodesk Architectural Desktop 2007 |Company: Autodesk,Inc. |WEB Address: www.autodesk.com
 90
    32897
280
     0
281
     0
  0
CLASS
  1
AEC_DISP_PROPS_DOOR_PLAN_100
  2
AecDbDispPropsDoorPlan100
  3
AecArchDACHBase50|Product Desc: Autodesk Architectural Desktop 2007 |Company: Autodesk,Inc. |WEB Address: www.autodesk.com
 90
    32897
280
     0
281
     0
  0
CLASS
  1
AEC_DISP_REP_DOOR_THRESHOLD_SYMBOL_PLAN
  2
AecDbDispRepDoorThresholdSymbolPlan
  3
AecArchDACHBase50|Product Desc: Autodesk Architectural Desktop 2007 |Company: Autodesk,Inc. |WEB Address: www.autodesk.com
 90
    32897
280
     0
281
     0
  0
CLASS
  1
AEC_DISP_PROPS_DOOR_THRESHOLD_SYMBOL_PLAN
  2
AecDbDispPropsDoorThresholdSymbolPlan
  3
AecArchDACHBase50|Product Desc: Autodesk Architectural Desktop 2007 |Company: Autodesk,Inc. |WEB Address: www.autodesk.com
 90
    32897
280
     0
281
     0
  0
CLASS
  1
AEC_DISPREPAECDBDISPREPMASSELEMPLAN100
  2
AecDbDispRepMassElemPlan100
  3
AecArchDACHBase50|Product Desc: Autodesk Architectural Desktop 2007 |Company: Autodesk,Inc. |WEB Address: www.autodesk.com
 90
    32897
280
     0
281
     0
  0
CLASS
  1
AEC_DISPROPSMASSELEMPLANCOMMON
  2
AecDbDispPropsMassElemPlanCommon
  3
AecArchDACHBase50|Product Desc: Autodesk Architectural Desktop 2007 |Company: Autodesk,Inc. |WEB Address: www.autodesk.com
 90
    32897
280
     0
281
     0
  0
CLASS
  1
AEC_DISPREPAECDBDISPREPMASSELEMPLAN50
  2
AecDbDispRepMassElemPlan50
  3
AecArchDACHBase50|Product Desc: Autodesk Architectural Desktop 2007 |Company: Autodesk,Inc. |WEB Address: www.autodesk.com
 90
    32897
280
     0
281
     0
  0
CLASS
  1
AEC_DISPREPAECDBDISPREPMASSGROUPPLAN100
  2
AecDbDispRepMassGroupPlan100
  3
AecArchDACHBase50|Product Desc: Autodesk Architectural Desktop 2007 |Company: Autodesk,Inc. |WEB Address: www.autodesk.com
 90
    32897
280
     0
281
     0
  0
CLASS
  1
AEC_DISPROPSMASSGROUPPLANCOMMON
  2
AecDbDispPropsMassGroupPlanCommon
  3
AecArchDACHBase50|Product Desc: Autodesk Architectural Desktop 2007 |Company: Autodesk,Inc. |WEB Address: www.autodesk.com
 90
    32897
280
     0
281
     0
  0
CLASS
  1
AEC_DISPREPAECDBDISPREPMASSGROUPPLAN50
  2
AecDbDispRepMassGroupPlan50
  3
AecArchDACHBase50|Product Desc: Autodesk Architectural Desktop 2007 |Company: Autodesk,Inc. |WEB Address: www.autodesk.com
 90
    32897
280
     0
281
     0
  0
CLASS
  1
AEC_DISPREPAECDBDISPREPOPENINGPLAN100
  2
AecDbDispRepOpeningPlan100
  3
AecArchDACHBase50|Product Desc: Autodesk Architectural Desktop 2007 |Company: Autodesk,Inc. |WEB Address: www.autodesk.com
 90
    32897
280
     0
281
     0
  0
CLASS
  1
AEC_DISPROPSOPENINGPLANCOMMONHATCHED
  2
AecDbDispPropsOpeningPlanCommonHatched
  3
AecArchDACHBase50|Product Desc: Autodesk Architectural Desktop 2007 |Company: Autodesk,Inc. |WEB Address: www.autodesk.com
 90
    32897
280
     0
281
     0
  0
CLASS
  1
AEC_DISPREPAECDBDISPREPOPENINGPLAN50
  2
AecDbDispRepOpeningPlan50
  3
AecArchDACHBase50|Product Desc: Autodesk Architectural Desktop 2007 |Company: Autodesk,Inc. |WEB Address: www.autodesk.com
 90
    32897
280
     0
281
     0
  0
CLASS
  1
AEC_DISPREPAECDBDISPREPOPENINGPLANREFLECTED
  2
AecDbDispRepOpeningPlanReflected
  3
AecArchDACHBase50|Product Desc: Autodesk Architectural Desktop 2007 |Company: Autodesk,Inc. |WEB Address: www.autodesk.com
 90
    32897
280
     0
281
     0
  0
CLASS
  1
AEC_DISPROPSOPENINGPLANCOMMON
  2
AecDbDispPropsOpeningPlanCommon
  3
AecArchDACHBase50|Product Desc: Autodesk Architectural Desktop 2007 |Company: Autodesk,Inc. |WEB Address: www.autodesk.com
 90
    32897
280
     0
281
     0
  0
CLASS
  1
AEC_DISPREPAECDBDISPREPOPENINGSILLPLAN
  2
AecDbDispRepOpeningSillPlan
  3
AecArchDACHBase50|Product Desc: Autodesk Architectural Desktop 2007 |Company: Autodesk,Inc. |WEB Address: www.autodesk.com
 90
    32897
280
     0
281
     0
  0
CLASS
  1
AEC_DISPROPSOPENINGSILLPLAN
  2
AecDbDispPropsOpeningSillPlan
  3
AecArchDACHBase50|Product Desc: Autodesk Architectural Desktop 2007 |Company: Autodesk,Inc. |WEB Address: www.autodesk.com
 90
    32897
280
     0
281
     0
  0
CLASS
  1
AEC_DISP_REP_RAILING_PLAN_100
  2
AecDbDispRepRailingPlan100
  3
AecArchDACHBase50|Product Desc: Autodesk Architectural Desktop 2007 |Company: Autodesk,Inc. |WEB Address: www.autodesk.com
 90
    32897
280
     0
281
     0
  0
CLASS
  1
AEC_DISP_ROPS_RAILING_PLAN_100
  2
AecDbDispPropsRailingPlan100
  3
AecArchDACHBase50|Product Desc: Autodesk Architectural Desktop 2007 |Company: Autodesk,Inc. |WEB Address: www.autodesk.com
 90
    32897
280
     0
281
     0
  0
CLASS
  1
AEC_DISP_REP_RAILING_PLAN_50
  2
AecDbDispRepRailingPlan50
  3
AecArchDACHBase50|Product Desc: Autodesk Architectural Desktop 2007 |Company: Autodesk,Inc. |WEB Address: www.autodesk.com
 90
    32897
280
     0
281
     0
  0
CLASS
  1
AEC_DISP_ROPS_RAILING_PLAN_50
  2
AecDbDispPropsRailingPlan50
  3
AecArchDACHBase50|Product Desc: Autodesk Architectural Desktop 2007 |Company: Autodesk,Inc. |WEB Address: www.autodesk.com
 90
    32897
280
     0
281
     0
  0
CLASS
  1
AEC_DISP_REP_STAIR_PLAN_100
  2
AecDbDispRepStairPlan100
  3
AecArchDACHBase50|Product Desc: Autodesk Architectural Desktop 2007 |Company: Autodesk,Inc. |WEB Address: www.autodesk.com
 90
    32897
280
     0
281
     0
  0
CLASS
  1
AEC_DISP_ROPS_STAIR_PLAN_100
  2
AecDbDispPropsStairPlan100
  3
AecArchDACHBase50|Product Desc: Autodesk Architectural Desktop 2007 |Company: Autodesk,Inc. |WEB Address: www.autodesk.com
 90
    32897
280
     0
281
     0
  0
CLASS
  1
AEC_DISP_REP_STAIR_PLAN_50
  2
AecDbDispRepStairPlan50
  3
AecArchDACHBase50|Product Desc: Autodesk Architectural Desktop 2007 |Company: Autodesk,Inc. |WEB Address: www.autodesk.com
 90
    32897
280
     0
281
     0
  0
CLASS
  1
AEC_DISP_ROPS_STAIR_PLAN_50
  2
AecDbDispPropsStairPlan50
  3
AecArchDACHBase50|Product Desc: Autodesk Architectural Desktop 2007 |Company: Autodesk,Inc. |WEB Address: www.autodesk.com
 90
    32897
280
     0
281
     0
  0
CLASS
  1
AEC_DISP_REP_WINDOW_PLAN_100
  2
AecDbDispRepWindowPlan100
  3
AecArchDACHBase50|Product Desc: Autodesk Architectural Desktop 2007 |Company: Autodesk,Inc. |WEB Address: www.autodesk.com
 90
    32897
280
     0
281
     0
  0
CLASS
  1
AEC_DISP_PROPS_WINDOW_PLAN_100
  2
AecDbDispPropsWindowPlan100
  3
AecArchDACHBase50|Product Desc: Autodesk Architectural Desktop 2007 |Company: Autodesk,Inc. |WEB Address: www.autodesk.com
 90
    32897
280
     0
281
     0
  0
CLASS
  1
AEC_DISP_REP_WINDOW_PLAN_50
  2
AecDbDispRepWindowPlan50
  3
AecArchDACHBase50|Product Desc: Autodesk Architectural Desktop 2007 |Company: Autodesk,Inc. |WEB Address: www.autodesk.com
 90
    32897
280
     0
281
     0
  0
CLASS
  1
AEC_DISP_PROPS_WINDOW_PLAN_50
  2
AecDbDispPropsWindowPlan50
  3
AecArchDACHBase50|Product Desc: Autodesk Architectural Desktop 2007 |Company: Autodesk,Inc. |WEB Address: www.autodesk.com
 90
    32897
280
     0
281
     0
  0
CLASS
  1
BINRECORD
  2
AcAecBinRecord
  3
AecBase50|Product Desc: Autodesk Architectural Desktop 2007 |Company: Autodesk,Inc. |WEB Address: www.autodesk.com
 90
    32897
280
     0
281
     0
  0
CLASS
  1
SPATIAL_FILTER
  2
AcDbSpatialFilter
  3
ObjectDBX Classes
 90
    32768
280
     0
281
     0
  0
CLASS
  1
AEC_VARS_STRUCTUREBASE
  2
AecsDbVarsStructureBase
  3
AecStructureBase50|Product Desc: Autodesk Architectural Desktop 2007 |Company: Autodesk,Inc. |WEB Address: www.autodesk.com
 90
    32897
280
     0
281
     0
  0
CLASS
  1
DIMASSOC
  2
AcDbDimAssoc
  3
"AcDbDimAssoc|Product Desc:     AcDim ARX App For Dimension|Company:          Autodesk, Inc.|WEB Address:      www.autodesk.com"
 90
        0
280
     0
281
     0
  0
CLASS
  1
TABLESTYLE
  2
AcDbTableStyle
  3
ObjectDBX Classes
 90
     4095
280
     0
281
     0
  0
CLASS
  1
AEC_DISP_REP_DISPLAYTHEME
  2
AecDbDispRepDisplayTheme
  3
AecBase50|Product Desc: Autodesk Architectural Desktop 2007 |Company: Autodesk,Inc. |WEB Address: www.autodesk.com
 90
    32897
280
     0
281
     0
  0
CLASS
  1
AEC_DISP_PROPS_DISPLAYTHEME
  2
AecDbDispPropsDisplayTheme
  3
AecBase50|Product Desc: Autodesk Architectural Desktop 2007 |Company: Autodesk,Inc. |WEB Address: www.autodesk.com
 90
    32897
280
     0
281
     0
  0
CLASS
  1
AEC_DISP_REP_ANCHOR_EXT_TAG_TO_ENT
  2
AecDbDispRepAnchorExtendedTagToEnt
  3
AecScheduleData50|Product Desc: Autodesk Architectural Desktop 2007 |Company: Autodesk,Inc. |WEB Address: www.autodesk.com
 90
    32897
280
     0
281
     0
  0
CLASS
  1
MATERIAL
  2
AcDbMaterial
  3
ObjectDBX Classes
 90
     1153
280
     0
281
     0
  0
CLASS
  1
VISUALSTYLE
  2
AcDbVisualStyle
  3
ObjectDBX Classes
 90
     4095
280
     0
281
     0
  0
CLASS
  1
AEC_AECDBDISPREPZONE100
  2
AecDbDispRepZonePlan100
  3
AecArchDACHBase50|Product Desc: Autodesk Architectural Desktop 2007 |Company: Autodesk,Inc. |WEB Address: www.autodesk.com
 90
    32897
280
     0
281
     0
  0
CLASS
  1
AEC_DISP_PROPS_ZONE
  2
AecDbDispPropsZone
  3
AecArchBase50|Product Desc: Autodesk Architectural Desktop 2007 |Company: Autodesk,Inc. |WEB Address: www.autodesk.com
 90
    32897
280
     0
281
     0
  0
CLASS
  1
AEC_AECDBDISPREPZONE50
  2
AecDbDispRepZonePlan50
  3
AecArchDACHBase50|Product Desc: Autodesk Architectural Desktop 2007 |Company: Autodesk,Inc. |WEB Address: www.autodesk.com
 90
    32897
280
     0
281
     0
  0
CLASS
  1
AEC_DISP_REP_SPACE_DECOMPOSED
  2
AecDbDispRepSpaceDecomposed
  3
AecArchBase50|Product Desc: Autodesk Architectural Desktop 2007 |Company: Autodesk,Inc. |WEB Address: www.autodesk.com
 90
    32897
280
     0
281
     0
  0
CLASS
  1
AEC_DISP_PROPS_SPACE_DECOMPOSED
  2
AecDbDispPropsSpaceDecomposed
  3
AecArchBase50|Product Desc: Autodesk Architectural Desktop 2007 |Company: Autodesk,Inc. |WEB Address: www.autodesk.com
 90
    32897
280
     0
281
     0
  0
CLASS
  1
AEC_DISP_REP_ZONE
  2
AecDbDispRepZone
  3
AecArchBase50|Product Desc: Autodesk Architectural Desktop 2007 |Company: Autodesk,Inc. |WEB Address: www.autodesk.com
 90
    32897
280
     0
281
     0
  0
CLASS
  1
EXACXREFPANELOBJECT
  2
ExAcXREFPanelObject
  3
EXAC_ESW
 90
    33793
280
     1
281
     0
  0
CLASS
  1
NPOCOLLECTION
  2
AcDbImpNonPersistentObjectsCollection
  3
ObjectDBX Classes
 90
    33921
280
     0
281
     0
  0
CLASS
  1
SCALE
  2
AcDbScale
  3
ObjectDBX Classes
 90
     1153
280
     0
281
     0
  0
CLASS
  1
MLEADERSTYLE
  2
AcDbMLeaderStyle
  3
ACDB_MLEADERSTYLE_CLASS
 90
     4095
280
     0
281
     0
  0
CLASS
  1
CELLSTYLEMAP
  2
AcDbCellStyleMap
  3
ObjectDBX Classes
 90
     1152
280
     0
281
     0
  0
ENDSEC
  0
SECTION
  2
TABLES
  0
TABLE
  2
VPORT
  5
20
330
0
100
AcDbSymbolTable
 70
     1
  0
VPORT
  5
21
330
20
100
AcDbSymbolTableRecord
100
AcDbViewportTableRecord
  2
*Active
 70
     0
 10
0.0
 20
0.0
 11
1.0
 21
1.0
 12
102354.4323157442
 22
104850.0589870331
 13
0.0
 23
0.0
 14
10.0
 24
10.0
 15
10.0
 25
10.0
 16
0.0
 26
0.0
 36
1.0
 17
0.0
 27
0.0
 37
0.0
 40
22017.60139318259
 41
1.561333333333333
 42
50.0
 43
0.0
 44
0.0
 50
0.0
 51
0.0
 71
     0
 72
  1000
 73
     1
 74
     1
 75
     0
 76
     0
 77
     0
 78
     0
281
     0
 65
     1
110
0.0
120
0.0
130
0.0
111
1.0
121
0.0
131
0.0
112
0.0
122
1.0
132
0.0
 79
     0
146
0.0
  0
ENDTAB
  0
TABLE
  2
LTYPE
  5
1B
330
0
100
AcDbSymbolTable
 70
     3
  0
LTYPE
  5
1C
330
1B
100
AcDbSymbolTableRecord
100
AcDbLinetypeTableRecord
  2
ByBlock
 70
     0
  3

 72
    65
 73
     0
 40
0.0
  0
LTYPE
  5
1D
330
1B
100
AcDbSymbolTableRecord
100
AcDbLinetypeTableRecord
  2
ByLayer
 70
     0
  3

 72
    65
 73
     0
 40
0.0
  0
LTYPE
  5
A
330
1B
100
AcDbSymbolTableRecord
100
AcDbLinetypeTableRecord
  2
Continuous
 70
     0
  3
Solid line
 72
    65
 73
     0
 40
0.0
  0
LTYPE
  5
178
330
1B
100
AcDbSymbolTableRecord
100
AcDbLinetypeTableRecord
  2
HIDDEN
 70
     0
  3
Hidden __ __ __ __ __ __ __ __ __ __ __ __ __ _
 72
    65
 73
     2
 40
0.375
 49
0.25
 74
     0
 49
-0.125
 74
     0
  0
ENDTAB
  0
TABLE
  2
LAYER
  5
15
102
{ACAD_XDICTIONARY
360
16
102
}
330
0
100
AcDbSymbolTable
 70
    11
  0
LAYER
  5
4
102
{ACAD_XDICTIONARY
360
83C
102
}
330
15
100
AcDbSymbolTableRecord
100
AcDbLayerTableRecord
  2
0
 70
     0
 62
     7
  6
Continuous
370
    -3
390
5
  0
LAYER
  5
63
102
{ACAD_XDICTIONARY
360
83E
102
}
330
15
100
AcDbSymbolTableRecord
100
AcDbLayerTableRecord
  2
SCIANY
 70
     0
 62
   140
  6
Continuous
370
    -3
390
5
  0
LAYER
  5
39
102
{ACAD_XDICTIONARY
360
840
102
}
330
15
100
AcDbSymbolTableRecord
100
AcDbLayerTableRecord
  2
WYMIARY
 70
     0
 62
     1
  6
Continuous
370
    -3
390
5
  0
LAYER
  5
6C
330
15
100
AcDbSymbolTableRecord
100
AcDbLayerTableRecord
  2
DEFPOINTS
 70
     0
 62
     7
  6
Continuous
290
     0
370
    -3
390
5
  0
LAYER
  5
A4
102
{ACAD_XDICTIONARY
360
842
102
}
330
15
100
AcDbSymbolTableRecord
100
AcDbLayerTableRecord
  2
TABLICZKA
 70
     0
 62
     1
  6
Continuous
370
    -3
390
5
  0
LAYER
  5
B1
102
{ACAD_XDICTIONARY
360
844
102
}
330
15
100
AcDbSymbolTableRecord
100
AcDbLayerTableRecord
  2
RAMKI-A4
 70
     0
 62
     2
  6
Continuous
290
     0
370
    -3
390
5
  0
LAYER
  5
A9
102
{ACAD_XDICTIONARY
360
846
102
}
330
15
100
AcDbSymbolTableRecord
100
AcDbLayerTableRecord
  2
NAPISY
 70
     0
 62
   140
  6
Continuous
370
    -3
390
5
  0
LAYER
  5
359
102
{ACAD_XDICTIONARY
360
35A
102
}
330
15
100
AcDbSymbolTableRecord
100
AcDbLayerTableRecord
  2
0Wymiary-PL
 70
     0
 62
     1
  6
Continuous
370
    -3
390
5
1001
RAK
1000
{ACET-LAYISO
1070
     0
1070
     1
1000
Continuous
1071
       -3
1071
        1
1005
5
1000
ACET-LAYISO}
  0
LAYER
  5
35B
102
{ACAD_XDICTIONARY
360
35C
102
}
330
15
100
AcDbSymbolTableRecord
100
AcDbLayerTableRecord
  2
0Hatch
 70
     0
 62
   122
  6
Continuous
370
     5
390
5
  0
ENDTAB
  0
TABLE
  2
STYLE
  5
18
330
0
100
AcDbSymbolTable
 70
     6
  0
STYLE
  5
19
330
18
100
AcDbSymbolTableRecord
100
AcDbTextStyleTableRecord
  2
Standard
 70
     0
 40
0.0
 41
1.0
 50
0.0
 71
     0
 42
2.5
  3
txt
  4

  0
STYLE
  5
26
330
18
100
AcDbSymbolTableRecord
100
AcDbTextStyleTableRecord
  2
ROMANS
 70
     0
 40
0.0
 41
0.9
 50
0.0
 71
     0
 42
20.0
  3
romans.shx
  4

  0
STYLE
  5
A5
330
18
100
AcDbSymbolTableRecord
100
AcDbTextStyleTableRecord
  2
AVA
 70
     0
 40
0.0
 41
1.0
 50
0.0
 71
     0
 42
158.5644099714409
  3
ARIAL.TTF
  4

1001
ACAD
1000
Arial CE
1071
    60962
  0
STYLE
  5
35D
330
18
100
AcDbSymbolTableRecord
100
AcDbTextStyleTableRecord
  2
ARIAL
 70
     0
 40
0.0
 41
1.0
 50
0.0
 71
     0
 42
15.0
  3
ARIAL.TTF
  4

1001
ACAD
1000
Arial CE
1071
    60962
  0
ENDTAB
  0
TABLE
  2
VIEW
  5
1E
330
0
100
AcDbSymbolTable
 70
     1
  0
VIEW
  5
E
330
1E
100
AcDbSymbolTableRecord
100
AcDbViewTableRecord
  2
DALIE_aneks
 70
     0
 40
14020.0
 10
230487.1523167869
 20
176727.5135321109
 41
10200.00000000003
 11
0.0
 21
0.0
 31
1.0
 12
0.0
 22
0.0
 32
0.0
 42
50.0
 43
0.0
 44
0.0
 50
0.0
 71
     0
281
     0
 72
     1
110
0.0
120
0.0
130
0.0
111
1.0
121
0.0
131
0.0
112
0.0
122
1.0
132
0.0
 79
     0
146
0.0
  0
ENDTAB
  0
TABLE
  2
UCS
  5
1F
330
0
100
AcDbSymbolTable
 70
     0
  0
ENDTAB
  0
TABLE
  2
APPID
  5
22
330
0
100
AcDbSymbolTable
 70
     4
  0
APPID
  5
23
330
22
100
AcDbSymbolTableRecord
100
AcDbRegAppTableRecord
  2
ACAD
 70
     0
  0
APPID
  5
2A2
330
22
100
AcDbSymbolTableRecord
100
AcDbRegAppTableRecord
  2
ACAD_MLEADERVER
 70
     0
  0
APPID
  5
35F
330
22
100
AcDbSymbolTableRecord
100
AcDbRegAppTableRecord
  2
RAK
 70
     0
  0
APPID
  5
360
330
22
100
AcDbSymbolTableRecord
100
AcDbRegAppTableRecord
  2
ACAD_PSEXT
 70
     0
  0
ENDTAB
  0
TABLE
  2
DIMSTYLE
  5
24
330
0
100
AcDbSymbolTable
 70
     5
100
AcDbDimStyleTable
 71
     2
340
25
340
2F
  0
DIMSTYLE
105
25
102
{ACAD_REACTORS
330
1EE
330
18E
330
183
330
1F9
330
1E3
330
166
330
138
330
262
330
255
330
220
330
14E
330
143
330
22B
330
1CB
330
15B
330
12D
330
711
330
6F6
330
6F7
330
6F8
330
6F9
330
6FA
330
6FB
330
6FC
330
6FD
330
6FE
330
700
330
701
330
702
330
70E
330
70F
330
710
102
}
330
24
100
AcDbSymbolTableRecord
100
AcDbDimStyleTableRecord
  2
500
 70
     0
 41
30.0
 42
43.0
 43
0.0
 44
13.0
 45
0.5
 46
12.0
 73
     0
 74
     0
 75
     1
 76
     1
 78
    12
140
80.0
141
0.0
145
1.0
147
0.0
172
     1
174
     1
176
     1
177
     1
178
    10
271
     1
272
     1
279
     2
340
26
341
27
342
27
  0
DIMSTYLE
105
2F
330
24
100
AcDbSymbolTableRecord
100
AcDbDimStyleTableRecord
  2
Standard
 70
     0
340
19
  0
ENDTAB
  0
TABLE
  2
BLOCK_RECORD
  5
1
330
0
100
AcDbSymbolTable
 70
   102
  0
BLOCK_RECORD
  5
2
102
{ACAD_XDICTIONARY
360
5C3
102
}
330
1
100
AcDbSymbolTableRecord
100
AcDbBlockTableRecord
  2
*Model_Space
340
C
  0
BLOCK_RECORD
  5
11
330
1
100
AcDbSymbolTableRecord
100
AcDbBlockTableRecord
  2
*Paper_Space
340
14
  0
BLOCK_RECORD
  5
27
102
{ACAD_XDICTIONARY
360
28
102
}
330
1
100
AcDbSymbolTableRecord
100
AcDbBlockTableRecord
  2
B-DIM
340
0
102
{BLKREFS
331
68
331
69
331
76
331
77
331
83
331
84
331
8E
331
8F
331
99
331
9A
331
BA
331
BB
331
C7
331
C8
331
E5
331
E6
331
F4
331
F5
331
10D
331
10E
331
11A
331
11B
331
125
331
126
331
131
331
132
331
13C
331
13D
331
147
331
148
331
154
331
155
331
15F
331
160
331
16C
331
16D
331
187
331
188
331
192
331
193
331
19F
331
1A0
331
1AA
331
1AB
331
1CF
331
1D0
331
1E7
331
1E8
331
1F2
331
1F3
331
1FF
331
200
331
224
331
225
331
22F
331
230
331
24A
331
24B
331
25B
331
25C
331
266
331
267
331
2B7
331
2B8
331
2C1
331
2C2
331
2CB
331
2CC
331
2D5
331
2D6
331
2E1
331
2E2
331
2EB
331
2EC
331
2F5
331
2F6
331
2FF
331
300
331
309
331
30A
331
313
331
314
331
31D
331
31E
331
327
331
328
331
333
331
334
331
33D
331
33E
331
347
331
348
331
351
331
352
331
518
331
519
331
522
331
523
331
52E
331
52F
331
538
331
539
331
544
331
545
331
54E
331
54F
331
558
331
559
331
562
331
563
331
56E
331
56F
331
578
331
579
331
584
331
585
331
58E
331
58F
331
59A
331
59B
331
5A4
331
5A5
331
5AE
331
5AF
331
5B8
331
5B9
331
634
331
635
331
63E
331
63F
331
645
331
646
331
65E
331
65F
331
665
331
666
331
66C
331
66D
331
675
331
676
331
67F
331
680
331
68B
331
68C
331
695
331
696
331
6EA
331
6EB
331
6F1
331
6F2
331
7C8
331
7C9
331
7D6
331
7D7
331
7DD
331
7DE
331
7E6
331
7E7
331
7F6
331
7F7
331
7FD
331
7FE
331
804
331
805
331
813
331
814
331
819
331
81A
331
820
331
821
331
826
331
827
331
836
331
837
331
870
331
871
331
877
331
878
331
87E
331
87F
331
885
331
886
331
88C
331
88D
331
893
331
894
331
89A
331
89B
331
8A1
331
8A2
102
}
  0
BLOCK_RECORD
  5
B2
330
1
100
AcDbSymbolTableRecord
100
AcDbBlockTableRecord
  2
A4_100
340
0
102
{BLKREFS
331
B0
102
}
  0
BLOCK_RECORD
  5
5CC
330
1
100
AcDbSymbolTableRecord
100
AcDbBlockTableRecord
  2
*D68
340
0
  0
BLOCK_RECORD
  5
5D8
330
1
100
AcDbSymbolTableRecord
100
AcDbBlockTableRecord
  2
*D69
340
0
  0
BLOCK_RECORD
  5
5E2
330
1
100
AcDbSymbolTableRecord
100
AcDbBlockTableRecord
  2
*D70
340
0
  0
BLOCK_RECORD
  5
5EC
330
1
100
AcDbSymbolTableRecord
100
AcDbBlockTableRecord
  2
*D71
340
0
  0
BLOCK_RECORD
  5
5F8
330
1
100
AcDbSymbolTableRecord
100
AcDbBlockTableRecord
  2
*D72
340
0
  0
BLOCK_RECORD
  5
602
330
1
100
AcDbSymbolTableRecord
100
AcDbBlockTableRecord
  2
*D73
340
0
  0
BLOCK_RECORD
  5
60C
330
1
100
AcDbSymbolTableRecord
100
AcDbBlockTableRecord
  2
*D74
340
0
  0
BLOCK_RECORD
  5
61D
330
1
100
AcDbSymbolTableRecord
100
AcDbBlockTableRecord
  2
*D75
340
0
  0
BLOCK_RECORD
  5
627
330
1
100
AcDbSymbolTableRecord
100
AcDbBlockTableRecord
  2
*D76
340
0
  0
BLOCK_RECORD
  5
63A
330
1
100
AcDbSymbolTableRecord
100
AcDbBlockTableRecord
  2
*D77
340
0
  0
BLOCK_RECORD
  5
67B
330
1
100
AcDbSymbolTableRecord
100
AcDbBlockTableRecord
  2
*D78
340
0
  0
BLOCK_RECORD
  5
685
330
1
100
AcDbSymbolTableRecord
100
AcDbBlockTableRecord
  2
*D79
340
0
  0
BLOCK_RECORD
  5
691
330
1
100
AcDbSymbolTableRecord
100
AcDbBlockTableRecord
  2
*D80
340
0
  0
BLOCK_RECORD
  5
6A2
330
1
100
AcDbSymbolTableRecord
100
AcDbBlockTableRecord
  2
*D81
340
0
  0
BLOCK_RECORD
  5
6AC
330
1
100
AcDbSymbolTableRecord
100
AcDbBlockTableRecord
  2
*D82
340
0
  0
BLOCK_RECORD
  5
6B6
330
1
100
AcDbSymbolTableRecord
100
AcDbBlockTableRecord
  2
*D83
340
0
  0
BLOCK_RECORD
  5
722
330
1
100
AcDbSymbolTableRecord
100
AcDbBlockTableRecord
  2
*D84
340
0
  0
BLOCK_RECORD
  5
72C
330
1
100
AcDbSymbolTableRecord
100
AcDbBlockTableRecord
  2
*D85
340
0
  0
BLOCK_RECORD
  5
736
330
1
100
AcDbSymbolTableRecord
100
AcDbBlockTableRecord
  2
*D86
340
0
  0
BLOCK_RECORD
  5
740
330
1
100
AcDbSymbolTableRecord
100
AcDbBlockTableRecord
  2
*D87
340
0
  0
BLOCK_RECORD
  5
74A
330
1
100
AcDbSymbolTableRecord
100
AcDbBlockTableRecord
  2
*D88
340
0
  0
BLOCK_RECORD
  5
756
330
1
100
AcDbSymbolTableRecord
100
AcDbBlockTableRecord
  2
*D89
340
0
  0
BLOCK_RECORD
  5
760
330
1
100
AcDbSymbolTableRecord
100
AcDbBlockTableRecord
  2
*D90
340
0
  0
BLOCK_RECORD
  5
76C
330
1
100
AcDbSymbolTableRecord
100
AcDbBlockTableRecord
  2
*D91
340
0
  0
BLOCK_RECORD
  5
776
330
1
100
AcDbSymbolTableRecord
100
AcDbBlockTableRecord
  2
*D92
340
0
  0
BLOCK_RECORD
  5
780
330
1
100
AcDbSymbolTableRecord
100
AcDbBlockTableRecord
  2
*D93
340
0
  0
BLOCK_RECORD
  5
78A
330
1
100
AcDbSymbolTableRecord
100
AcDbBlockTableRecord
  2
*D94
340
0
  0
BLOCK_RECORD
  5
794
330
1
100
AcDbSymbolTableRecord
100
AcDbBlockTableRecord
  2
*D95
340
0
  0
BLOCK_RECORD
  5
79E
330
1
100
AcDbSymbolTableRecord
100
AcDbBlockTableRecord
  2
*D96
340
0
  0
BLOCK_RECORD
  5
7A7
330
1
100
AcDbSymbolTableRecord
100
AcDbBlockTableRecord
  2
*D97
340
0
  0
BLOCK_RECORD
  5
7B1
330
1
100
AcDbSymbolTableRecord
100
AcDbBlockTableRecord
  2
*D98
340
0
  0
BLOCK_RECORD
  5
7BB
330
1
100
AcDbSymbolTableRecord
100
AcDbBlockTableRecord
  2
*D99
340
0
  0
ENDTAB
  0
ENDSEC
  0
SECTION
  2
BLOCKS
  0
BLOCK
  5
3
330
2
100
AcDbEntity
  8
0
100
AcDbBlockBegin
  2
*Model_Space
 70
     0
 10
0.0
 20
0.0
 30
0.0
  3
*Model_Space
  1

  0
ENDBLK
  5
B
330
2
100
AcDbEntity
  8
0
100
AcDbBlockEnd
  0
BLOCK
  5
12
330
11
100
AcDbEntity
 67
     1
  8
0
100
AcDbBlockBegin
  2
*Paper_Space
 70
     0
 10
0.0
 20
0.0
 30
0.0
  3
*Paper_Space
  1

  0
ENDBLK
  5
13
330
11
100
AcDbEntity
 67
     1
  8
0
100
AcDbBlockEnd
  0
BLOCK
  5
2A
330
27
100
AcDbEntity
  8
0
100
AcDbBlockBegin
  2
B-DIM
 70
     0
 10
0.0
 20
0.0
 30
0.0
  3
B-DIM
  1

  0
LINE
  5
2B
330
27
100
AcDbEntity
  8
0
 62
     1
100
AcDbLine
 10
0.000000000000091
 20
-1.1
 30
0.0
 11
0.000000000000091
 21
1.1
 31
0.0
  0
LWPOLYLINE
  5
2C
330
27
100
AcDbEntity
  8
0
 62
     1
100
AcDbPolyline
 90
        2
 70
     0
 43
0.3
 10
-0.7071067811864851
 20
-0.7071067811864851
 10
0.707106781186576
 20
0.707106781186576
  0
LINE
  5
2D
330
27
100
AcDbEntity
  8
0
 62
     1
100
AcDbLine
 10
1.20000000000009
 20
0.0
 30
0.0
 11
-1.199999999999909
 21
0.0
 31
0.0
  0
ENDBLK
  5
2E
330
27
100
AcDbEntity
  8
0
100
AcDbBlockEnd
  0
BLOCK
  5
B3
330
B2
100
AcDbEntity
  8
0
100
AcDbBlockBegin
  2
A4_100
 70
     0
 10
0.0
 20
0.0
 30
0.0
  3
A4_100
  1

  0
LWPOLYLINE
  5
B4
330
B2
100
AcDbEntity
  8
RAMKI-A4
100
AcDbPolyline
 90
        4
 70
     1
 43
0.0
 10
0.0
 20
0.0
 10
0.0
 20
2804.0
 10
2040.0
 20
2804.0
 10
2040.0
 20
0.0
  0
ENDBLK
  5
B5
330
B2
100
AcDbEntity
  8
0
100
AcDbBlockEnd
  0
BLOCK
  5
5CD
330
5CC
100
AcDbEntity
  8
0
 62
    32
100
AcDbBlockBegin
  2
*D68
 70
     1
 10
0.0
 20
0.0
 30
0.0
  3
*D68
  1

  0
MTEXT
  5
6E9
330
5CC
100
AcDbEntity
  8
0Wymiary-PL
 62
    10
100
AcDbMText
 10
100958.5153038509
 20
107365.1140341468
 30
0.0
 40
80.0
 41
0.0
 71
     5
 72
     1
  1
\A1;60
  7
ROMANS
 11
0.0000000000000001
 21
1.0
 31
0.0
 73
     1
 44
1.0
1001
ACAD
1000
MTEXTBEGIN
1070
    73
1070
     1
1070
    44
1040
1.0
1070
    74
1070
     0
1000
MTEXTEND
  0
INSERT
  5
6EA
330
5CC
100
AcDbEntity
  8
0Wymiary-PL
 62
     1
370
    -2
100
AcDbBlockReference
  2
B-DIM
 10
101038.5153038509
 20
107365.7006154728
 30
0.0
 41
30.0
 42
30.0
 43
30.0
 50
90.0
  0
INSERT
  5
6EB
330
5CC
100
AcDbEntity
  8
0Wymiary-PL
 62
     1
370
    -2
100
AcDbBlockReference
  2
B-DIM
 10
101038.5153038509
 20
107305.7006154727
 30
0.0
 41
30.0
 42
30.0
 43
30.0
 50
270.0
  0
POINT
  5
6EC
330
5CC
100
AcDbEntity
  8
DEFPOINTS
 62
     0
100
AcDbPoint
 10
100824.4366156408
 20
107365.7006154728
 30
0.0
  0
POINT
  5
6ED
330
5CC
100
AcDbEntity
  8
DEFPOINTS
 62
     0
100
AcDbPoint
 10
100439.4366156408
 20
107305.7006154727
 30
0.0
  0
POINT
  5
6EE
330
5CC
100
AcDbEntity
  8
DEFPOINTS
 62
     0
100
AcDbPoint
 10
101038.5153038509
 20
107305.7006154727
 30
0.0
  0
ENDBLK
  5
5CE
330
5CC
100
AcDbEntity
  8
0
 62
    32
100
AcDbBlockEnd
  0
BLOCK
  5
5D9
330
5D8
100
AcDbEntity
  8
0
 62
    32
100
AcDbBlockBegin
  2
*D69
 70
     1
 10
0.0
 20
0.0
 30
0.0
  3
*D69
  1

  0
LINE
  5
6EF
330
5D8
100
AcDbEntity
  8
0Wymiary-PL
 62
     1
370
    -2
100
AcDbLine
 10
101038.5153038509
 20
107275.7006154728
 30
0.0
 11
101038.5153038509
 21
106946.2006154728
 31
0.0
  0
MTEXT
  5
6F0
330
5D8
100
AcDbEntity
  8
0Wymiary-PL
 62
    10
100
AcDbMText
 10
100958.5153038509
 20
107100.8670649096
 30
0.0
 40
80.0
 41
0.0
 71
     5
 72
     1
  1
\A1;389.5
  7
ROMANS
 11
0.0000000000000001
 21
1.0
 31
0.0
 73
     1
 44
1.0
1001
ACAD
1000
MTEXTBEGIN
1070
    73
1070
     1
1070
    44
1040
1.0
1070
    74
1070
     0
1000
MTEXTEND
  0
INSERT
  5
6F1
330
5D8
100
AcDbEntity
  8
0Wymiary-PL
 62
     1
370
    -2
100
AcDbBlockReference
  2
B-DIM
 10
101038.5153038509
 20
107305.7006154727
 30
0.0
 41
30.0
 42
30.0
 43
30.0
 50
90.0
  0
INSERT
  5
6F2
330
5D8
100
AcDbEntity
  8
0Wymiary-PL
 62
     1
370
    -2
100
AcDbBlockReference
  2
B-DIM
 10
101038.5153038509
 20
106916.2006154728
 30
0.0
 41
30.0
 42
30.0
 43
30.0
 50
270.0
  0
POINT
  5
6F3
330
5D8
100
AcDbEntity
  8
DEFPOINTS
 62
     0
100
AcDbPoint
 10
100439.4366156408
 20
107305.7006154727
 30
0.0
  0
POINT
  5
6F4
330
5D8
100
AcDbEntity
  8
DEFPOINTS
 62
     0
100
AcDbPoint
 10
100141.9366156408
 20
106916.2006154728
 30
0.0
  0
POINT
  5
6F5
330
5D8
100
AcDbEntity
  8
DEFPOINTS
 62
     0
100
AcDbPoint
 10
101038.5153038509
 20
106916.2006154728
 30
0.0
  0
ENDBLK
  5
5DA
330
5D8
100
AcDbEntity
  8
0
 62
    32
100
AcDbBlockEnd
  0
BLOCK
  5
5E3
330
5E2
100
AcDbEntity
  8
0
 62
    32
100
AcDbBlockBegin
  2
*D70
 70
     1
 10
0.0
 20
0.0
 30
0.0
  3
*D70
  1

  0
LINE
  5
66B
330
5E2
100
AcDbEntity
  8
0Wymiary-PL
 62
     1
370
    -2
100
AcDbLine
 10
100072.5593699818
 20
108889.931683259
 30
0.0
 11
100742.5593699818
 21
108889.931683259
 31
0.0
  0
INSERT
  5
66C
330
5E2
100
AcDbEntity
  8
0Wymiary-PL
 62
     1
370
    -2
100
AcDbBlockReference
  2
B-DIM
 10
100042.5593699818
 20
108889.931683259
 30
0.0
 41
30.0
 42
30.0
 43
30.0
 50
180.0
  0
INSERT
  5
66D
330
5E2
100
AcDbEntity
  8
0Wymiary-PL
 62
     1
370
    -2
100
AcDbBlockReference
  2
B-DIM
 10
100772.5593699818
 20
108889.931683259
 30
0.0
 41
30.0
 42
30.0
 43
30.0
  0
MTEXT
  5
66E
330
5E2
100
AcDbEntity
  8
0Wymiary-PL
 62
    10
100
AcDbMText
 10
100407.5593699818
 20
108969.931683259
 30
0.0
 40
80.0
 41
0.0
 71
     5
 72
     1
  1
\A1;730
  7
ROMANS
 73
     1
 44
1.0
1001
ACAD
1000
MTEXTBEGIN
1070
    73
1070
     1
1070
    44
1040
1.0
1070
    74
1070
     0
1000
MTEXTEND
  0
POINT
  5
66F
330
5E2
100
AcDbEntity
  8
DEFPOINTS
 62
     0
100
AcDbPoint
 10
100042.5593699818
 20
108091.7127828004
 30
0.0
  0
POINT
  5
670
330
5E2
100
AcDbEntity
  8
DEFPOINTS
 62
     0
100
AcDbPoint
 10
100772.5593699818
 20
108461.7127828004
 30
0.0
  0
POINT
  5
671
330
5E2
100
AcDbEntity
  8
DEFPOINTS
 62
     0
100
AcDbPoint
 10
100772.5593699818
 20
108889.931683259
 30
0.0
  0
ENDBLK
  5
5E4
330
5E2
100
AcDbEntity
  8
0
 62
    32
100
AcDbBlockEnd
  0
BLOCK
  5
5ED
330
5EC
100
AcDbEntity
  8
0
 62
    32
100
AcDbBlockBegin
  2
*D71
 70
     1
 10
0.0
 20
0.0
 30
0.0
  3
*D71
  1

  0
LINE
  5
672
330
5EC
100
AcDbEntity
  8
0Wymiary-PL
 62
     1
370
    -2
100
AcDbLine
 10
100742.5593699818
 20
108889.931683259
 30
0.0
 11
100712.5593699818
 21
108889.931683259
 31
0.0
  0
LINE
  5
673
330
5EC
100
AcDbEntity
  8
0Wymiary-PL
 62
     1
370
    -2
100
AcDbLine
 10
100902.5593699818
 20
108889.931683259
 30
0.0
 11
100932.5593699818
 21
108889.931683259
 31
0.0
  0
LINE
  5
674
330
5EC
100
AcDbEntity
  8
0Wymiary-PL
 62
     1
370
    -2
100
AcDbLine
 10
100772.5593699818
 20
108889.931683259
 30
0.0
 11
100872.5593699818
 21
108889.931683259
 31
0.0
  0
INSERT
  5
675
330
5EC
100
AcDbEntity
  8
0Wymiary-PL
 62
     1
370
    -2
100
AcDbBlockReference
  2
B-DIM
 10
100772.5593699818
 20
108889.931683259
 30
0.0
 41
30.0
 42
30.0
 43
30.0
  0
INSERT
  5
676
330
5EC
100
AcDbEntity
  8
0Wymiary-PL
 62
     1
370
    -2
100
AcDbBlockReference
  2
B-DIM
 10
100872.5593699818
 20
108889.931683259
 30
0.0
 41
30.0
 42
30.0
 43
30.0
 50
180.0
  0
MTEXT
  5
677
330
5EC
100
AcDbEntity
  8
0Wymiary-PL
 62
    10
100
AcDbMText
 10
100822.5593699818
 20
108969.931683259
 30
0.0
 40
80.0
 41
0.0
 71
     5
 72
     1
  1
\A1;100
  7
ROMANS
 73
     1
 44
1.0
1001
ACAD
1000
MTEXTBEGIN
1070
    73
1070
     1
1070
    44
1040
1.0
1070
    74
1070
     0
1000
MTEXTEND
  0
POINT
  5
678
330
5EC
100
AcDbEntity
  8
DEFPOINTS
 62
     0
100
AcDbPoint
 10
100772.5593699818
 20
108461.7127828004
 30
0.0
  0
POINT
  5
679
330
5EC
100
AcDbEntity
  8
DEFPOINTS
 62
     0
100
AcDbPoint
 10
100872.5593699818
 20
107981.7127828005
 30
0.0
  0
POINT
  5
67A
330
5EC
100
AcDbEntity
  8
DEFPOINTS
 62
     0
100
AcDbPoint
 10
100872.5593699818
 20
108889.931683259
 30
0.0
  0
ENDBLK
  5
5EE
330
5EC
100
AcDbEntity
  8
0
 62
    32
100
AcDbBlockEnd
  0
BLOCK
  5
5F9
330
5F8
100
AcDbEntity
  8
0
 62
    32
100
AcDbBlockBegin
  2
*D72
 70
     1
 10
0.0
 20
0.0
 30
0.0
  3
*D72
  1

  0
LINE
  5
884
330
5F8
100
AcDbEntity
  8
0Wymiary-PL
 62
     1
370
    -2
100
AcDbLine
 10
99267.70877274883
 20
108121.7127828004
 30
0.0
 11
99267.70877274883
 21
108431.7127828004
 31
0.0
  0
INSERT
  5
885
330
5F8
100
AcDbEntity
  8
0Wymiary-PL
 62
     1
370
    -2
100
AcDbBlockReference
  2
B-DIM
 10
99267.70877274883
 20
108091.7127828004
 30
0.0
 41
30.0
 42
30.0
 43
30.0
 50
270.0
  0
INSERT
  5
886
330
5F8
100
AcDbEntity
  8
0Wymiary-PL
 62
     1
370
    -2
100
AcDbBlockReference
  2
B-DIM
 10
99267.70877274883
 20
108461.7127828004
 30
0.0
 41
30.0
 42
30.0
 43
30.0
 50
90.0
  0
MTEXT
  5
887
330
5F8
100
AcDbEntity
  8
0Wymiary-PL
 62
    10
100
AcDbMText
 10
99187.7087727488
 20
108276.7127828005
 30
0.0
 40
80.0
 41
0.0
 71
     5
 72
     1
  1
\A1;370
  7
ROMANS
 11
0.0000000000000001
 21
1.0
 31
0.0
 73
     1
 44
1.0
1001
ACAD
1000
MTEXTBEGIN
1070
    73
1070
     1
1070
    44
1040
1.0
1070
    74
1070
     0
1000
MTEXTEND
  0
POINT
  5
888
330
5F8
100
AcDbEntity
  8
DEFPOINTS
 62
     0
100
AcDbPoint
 10
99492.55936998184
 20
108091.7127828004
 30
0.0
  0
POINT
  5
889
330
5F8
100
AcDbEntity
  8
DEFPOINTS
 62
     0
100
AcDbPoint
 10
99992.55936998185
 20
108461.7127828004
 30
0.0
  0
POINT
  5
88A
330
5F8
100
AcDbEntity
  8
DEFPOINTS
 62
     0
100
AcDbPoint
 10
99267.70877274883
 20
108461.7127828004
 30
0.0
  0
ENDBLK
  5
5FA
330
5F8
100
AcDbEntity
  8
0
 62
    32
100
AcDbBlockEnd
  0
BLOCK
  5
603
330
602
100
AcDbEntity
  8
0
 62
    32
100
AcDbBlockBegin
  2
*D73
 70
     1
 10
0.0
 20
0.0
 30
0.0
  3
*D73
  1

  0
LINE
  5
664
330
602
100
AcDbEntity
  8
0Wymiary-PL
 62
     1
370
    -2
100
AcDbLine
 10
101038.5153038509
 20
108435.7006154728
 30
0.0
 11
101038.5153038509
 21
107395.7006154728
 31
0.0
  0
INSERT
  5
665
330
602
100
AcDbEntity
  8
0Wymiary-PL
 62
     1
370
    -2
100
AcDbBlockReference
  2
B-DIM
 10
101038.5153038509
 20
108465.7006154728
 30
0.0
 41
30.0
 42
30.0
 43
30.0
 50
90.0
  0
INSERT
  5
666
330
602
100
AcDbEntity
  8
0Wymiary-PL
 62
     1
370
    -2
100
AcDbBlockReference
  2
B-DIM
 10
101038.5153038509
 20
107365.7006154728
 30
0.0
 41
30.0
 42
30.0
 43
30.0
 50
270.0
  0
MTEXT
  5
667
330
602
100
AcDbEntity
  8
0Wymiary-PL
 62
    10
100
AcDbMText
 10
100958.5153038509
 20
107915.7006154728
 30
0.0
 40
80.0
 41
0.0
 71
     5
 72
     1
  1
\A1;1100
  7
ROMANS
 11
0.0000000000000001
 21
1.0
 31
0.0
 73
     1
 44
1.0
1001
ACAD
1000
MTEXTBEGIN
1070
    73
1070
     1
1070
    44
1040
1.0
1070
    74
1070
     0
1000
MTEXTEND
  0
POINT
  5
668
330
602
100
AcDbEntity
  8
DEFPOINTS
 62
     0
100
AcDbPoint
 10
100824.4366156408
 20
108465.7006154728
 30
0.0
  0
POINT
  5
669
330
602
100
AcDbEntity
  8
DEFPOINTS
 62
     0
100
AcDbPoint
 10
100824.4366156408
 20
107365.7006154728
 30
0.0
  0
POINT
  5
66A
330
602
100
AcDbEntity
  8
DEFPOINTS
 62
     0
100
AcDbPoint
 10
101038.5153038509
 20
107365.7006154728
 30
0.0
  0
ENDBLK
  5
604
330
602
100
AcDbEntity
  8
0
 62
    32
100
AcDbBlockEnd
  0
BLOCK
  5
60D
330
60C
100
AcDbEntity
  8
0
 62
    32
100
AcDbBlockBegin
  2
*D74
 70
     1
 10
0.0
 20
0.0
 30
0.0
  3
*D74
  1

  0
LINE
  5
633
330
60C
100
AcDbEntity
  8
0Wymiary-PL
 62
     1
370
    -2
100
AcDbLine
 10
100120.0593699818
 20
106744.3956567828
 30
0.0
 11
100742.5593699818
 21
106744.3956567828
 31
0.0
  0
INSERT
  5
634
330
60C
100
AcDbEntity
  8
0Wymiary-PL
 62
     1
370
    -2
100
AcDbBlockReference
  2
B-DIM
 10
100090.0593699818
 20
106744.3956567828
 30
0.0
 41
30.0
 42
30.0
 43
30.0
 50
180.0
  0
INSERT
  5
635
330
60C
100
AcDbEntity
  8
0Wymiary-PL
 62
     1
370
    -2
100
AcDbBlockReference
  2
B-DIM
 10
100772.5593699818
 20
106744.3956567828
 30
0.0
 41
30.0
 42
30.0
 43
30.0
  0
MTEXT
  5
636
330
60C
100
AcDbEntity
  8
0Wymiary-PL
 62
    10
100
AcDbMText
 10
100431.3093699818
 20
106824.3956567828
 30
0.0
 40
80.0
 41
0.0
 71
     5
 72
     1
  1
\A1;682.5
  7
ROMANS
 73
     1
 44
1.0
1001
ACAD
1000
MTEXTBEGIN
1070
    73
1070
     1
1070
    44
1040
1.0
1070
    74
1070
     0
1000
MTEXTEND
  0
POINT
  5
637
330
60C
100
AcDbEntity
  8
DEFPOINTS
 62
     0
100
AcDbPoint
 10
100090.0593699818
 20
106868.3473088547
 30
0.0
  0
POINT
  5
638
330
60C
100
AcDbEntity
  8
DEFPOINTS
 62
     0
100
AcDbPoint
 10
100772.5593699818
 20
107317.8473088547
 30
0.0
  0
POINT
  5
639
330
60C
100
AcDbEntity
  8
DEFPOINTS
 62
     0
100
AcDbPoint
 10
100772.5593699818
 20
106744.3956567828
 30
0.0
  0
ENDBLK
  5
60E
330
60C
100
AcDbEntity
  8
0
 62
    32
100
AcDbBlockEnd
  0
BLOCK
  5
61E
330
61D
100
AcDbEntity
  8
0
 62
    32
100
AcDbBlockBegin
  2
*D75
 70
     1
 10
0.0
 20
0.0
 30
0.0
  3
*D75
  1

  0
LINE
  5
644
330
61D
100
AcDbEntity
  8
0Wymiary-PL
 62
     1
370
    -2
100
AcDbLine
 10
100742.5593699818
 20
106549.8685461284
 30
0.0
 11
99474.55936998185
 21
106549.8685461284
 31
0.0
  0
INSERT
  5
645
330
61D
100
AcDbEntity
  8
0Wymiary-PL
 62
     1
370
    -2
100
AcDbBlockReference
  2
B-DIM
 10
100772.5593699818
 20
106549.8685461284
 30
0.0
 41
30.0
 42
30.0
 43
30.0
  0
INSERT
  5
646
330
61D
100
AcDbEntity
  8
0Wymiary-PL
 62
     1
370
    -2
100
AcDbBlockReference
  2
B-DIM
 10
99444.55936998185
 20
106549.8685461284
 30
0.0
 41
30.0
 42
30.0
 43
30.0
 50
180.0
  0
MTEXT
  5
647
330
61D
100
AcDbEntity
  8
0Wymiary-PL
 62
    10
100
AcDbMText
 10
100108.5593699818
 20
106629.8685461283
 30
0.0
 40
80.0
 41
0.0
 71
     5
 72
     1
  1
\A1;1328
  7
ROMANS
 73
     1
 44
1.0
1001
ACAD
1000
MTEXTBEGIN
1070
    73
1070
     1
1070
    44
1040
1.0
1070
    74
1070
     0
1000
MTEXTEND
  0
POINT
  5
648
330
61D
100
AcDbEntity
  8
DEFPOINTS
 62
     0
100
AcDbPoint
 10
100772.5593699818
 20
107361.7127828004
 30
0.0
  0
POINT
  5
649
330
61D
100
AcDbEntity
  8
DEFPOINTS
 62
     0
100
AcDbPoint
 10
99444.55936998185
 20
107361.7127828004
 30
0.0
  0
POINT
  5
64A
330
61D
100
AcDbEntity
  8
DEFPOINTS
 62
     0
100
AcDbPoint
 10
99444.55936998185
 20
106549.8685461284
 30
0.0
  0
ENDBLK
  5
61F
330
61D
100
AcDbEntity
  8
0
 62
    32
100
AcDbBlockEnd
  0
BLOCK
  5
628
330
627
100
AcDbEntity
  8
0
 62
    32
100
AcDbBlockBegin
  2
*D76
 70
     1
 10
0.0
 20
0.0
 30
0.0
  3
*D76
  1

  0
LINE
  5
65B
330
627
100
AcDbEntity
  8
0Wymiary-PL
 62
     1
370
    -2
100
AcDbLine
 10
100742.5593699818
 20
106744.3956567828
 30
0.0
 11
100712.5593699818
 21
106744.3956567828
 31
0.0
  0
LINE
  5
65C
330
627
100
AcDbEntity
  8
0Wymiary-PL
 62
     1
370
    -2
100
AcDbLine
 10
100902.5593699818
 20
106744.3956567828
 30
0.0
 11
100932.5593699818
 21
106744.3956567828
 31
0.0
  0
LINE
  5
65D
330
627
100
AcDbEntity
  8
0Wymiary-PL
 62
     1
370
    -2
100
AcDbLine
 10
100772.5593699818
 20
106744.3956567828
 30
0.0
 11
100872.5593699818
 21
106744.3956567828
 31
0.0
  0
INSERT
  5
65E
330
627
100
AcDbEntity
  8
0Wymiary-PL
 62
     1
370
    -2
100
AcDbBlockReference
  2
B-DIM
 10
100772.5593699818
 20
106744.3956567828
 30
0.0
 41
30.0
 42
30.0
 43
30.0
  0
INSERT
  5
65F
330
627
100
AcDbEntity
  8
0Wymiary-PL
 62
     1
370
    -2
100
AcDbBlockReference
  2
B-DIM
 10
100872.5593699818
 20
106744.3956567828
 30
0.0
 41
30.0
 42
30.0
 43
30.0
 50
180.0
  0
MTEXT
  5
660
330
627
100
AcDbEntity
  8
0Wymiary-PL
 62
    10
100
AcDbMText
 10
100822.5593699818
 20
106824.3956567828
 30
0.0
 40
80.0
 41
0.0
 71
     5
 72
     1
  1
\A1;100
  7
ROMANS
 73
     1
 44
1.0
1001
ACAD
1000
MTEXTBEGIN
1070
    73
1070
     1
1070
    44
1040
1.0
1070
    74
1070
     0
1000
MTEXTEND
  0
POINT
  5
661
330
627
100
AcDbEntity
  8
DEFPOINTS
 62
     0
100
AcDbPoint
 10
100772.5593699818
 20
107317.8473088547
 30
0.0
  0
POINT
  5
662
330
627
100
AcDbEntity
  8
DEFPOINTS
 62
     0
100
AcDbPoint
 10
100872.5593699818
 20
107797.8473088547
 30
0.0
  0
POINT
  5
663
330
627
100
AcDbEntity
  8
DEFPOINTS
 62
     0
100
AcDbPoint
 10
100872.5593699818
 20
106744.3956567828
 30
0.0
  0
ENDBLK
  5
629
330
627
100
AcDbEntity
  8
0
 62
    32
100
AcDbBlockEnd
  0
BLOCK
  5
63B
330
63A
100
AcDbEntity
  8
0
 62
    32
100
AcDbBlockBegin
  2
*D77
 70
     1
 10
0.0
 20
0.0
 30
0.0
  3
*D77
  1

  0
LINE
  5
63D
330
63A
100
AcDbEntity
  8
0Wymiary-PL
 62
     1
370
    -2
100
AcDbLine
 10
99474.55936998185
 20
106744.3956567828
 30
0.0
 11
100060.0593699818
 21
106744.3956567828
 31
0.0
  0
INSERT
  5
63E
330
63A
100
AcDbEntity
  8
0Wymiary-PL
 62
     1
370
    -2
100
AcDbBlockReference
  2
B-DIM
 10
99444.55936998185
 20
106744.3956567828
 30
0.0
 41
30.0
 42
30.0
 43
30.0
 50
180.0
  0
INSERT
  5
63F
330
63A
100
AcDbEntity
  8
0Wymiary-PL
 62
     1
370
    -2
100
AcDbBlockReference
  2
B-DIM
 10
100090.0593699818
 20
106744.3956567828
 30
0.0
 41
30.0
 42
30.0
 43
30.0
  0
MTEXT
  5
640
330
63A
100
AcDbEntity
  8
0Wymiary-PL
 62
    10
100
AcDbMText
 10
99767.30936998183
 20
106824.3956567828
 30
0.0
 40
80.0
 41
0.0
 71
     5
 72
     1
  1
\A1;645.5
  7
ROMANS
 73
     1
 44
1.0
1001
ACAD
1000
MTEXTBEGIN
1070
    73
1070
     1
1070
    44
1040
1.0
1070
    74
1070
     0
1000
MTEXTEND
  0
POINT
  5
641
330
63A
100
AcDbEntity
  8
DEFPOINTS
 62
     0
100
AcDbPoint
 10
99444.55936998185
 20
106868.3473088547
 30
0.0
  0
POINT
  5
642
330
63A
100
AcDbEntity
  8
DEFPOINTS
 62
     0
100
AcDbPoint
 10
100090.0593699818
 20
106868.3473088547
 30
0.0
  0
POINT
  5
643
330
63A
100
AcDbEntity
  8
DEFPOINTS
 62
     0
100
AcDbPoint
 10
100090.0593699818
 20
106744.3956567828
 30
0.0
  0
ENDBLK
  5
63C
330
63A
100
AcDbEntity
  8
0
 62
    32
100
AcDbBlockEnd
  0
BLOCK
  5
67C
330
67B
100
AcDbEntity
  8
0
 62
    32
100
AcDbBlockBegin
  2
*D78
 70
     1
 10
0.0
 20
0.0
 30
0.0
  3
*D78
  1

  0
LINE
  5
67E
330
67B
100
AcDbEntity
  8
0Wymiary-PL
 62
     1
370
    -2
100
AcDbLine
 10
99474.55936998185
 20
109063.9406304471
 30
0.0
 11
100842.5593699818
 21
109063.9406304471
 31
0.0
  0
INSERT
  5
67F
330
67B
100
AcDbEntity
  8
0Wymiary-PL
 62
     1
370
    -2
100
AcDbBlockReference
  2
B-DIM
 10
99444.55936998185
 20
109063.9406304471
 30
0.0
 41
30.0
 42
30.0
 43
30.0
 50
180.0
  0
INSERT
  5
680
330
67B
100
AcDbEntity
  8
0Wymiary-PL
 62
     1
370
    -2
100
AcDbBlockReference
  2
B-DIM
 10
100872.5593699819
 20
109063.9406304471
 30
0.0
 41
30.0
 42
30.0
 43
30.0
  0
MTEXT
  5
681
330
67B
100
AcDbEntity
  8
0Wymiary-PL
 62
    10
100
AcDbMText
 10
100158.5593699819
 20
109143.9406304471
 30
0.0
 40
80.0
 41
0.0
 71
     5
 72
     1
  1
\A1;1428
  7
ROMANS
 73
     1
 44
1.0
1001
ACAD
1000
MTEXTBEGIN
1070
    73
1070
     1
1070
    44
1040
1.0
1070
    74
1070
     0
1000
MTEXTEND
  0
POINT
  5
682
330
67B
100
AcDbEntity
  8
DEFPOINTS
 62
     0
100
AcDbPoint
 10
99444.55936998185
 20
108845.9316832591
 30
0.0
  0
POINT
  5
683
330
67B
100
AcDbEntity
  8
DEFPOINTS
 62
     0
100
AcDbPoint
 10
100872.5593699819
 20
108845.9316832589
 30
0.0
  0
POINT
  5
684
330
67B
100
AcDbEntity
  8
DEFPOINTS
 62
     0
100
AcDbPoint
 10
100872.5593699819
 20
109063.9406304471
 30
0.0
  0
ENDBLK
  5
67D
330
67B
100
AcDbEntity
  8
0
 62
    32
100
AcDbBlockEnd
  0
BLOCK
  5
686
330
685
100
AcDbEntity
  8
0
 62
    32
100
AcDbBlockBegin
  2
*D79
 70
     1
 10
0.0
 20
0.0
 30
0.0
  3
*D79
  1

  0
LINE
  5
688
330
685
100
AcDbEntity
  8
0Wymiary-PL
 62
     1
370
    -2
100
AcDbLine
 10
99414.55936998185
 20
108889.9316832591
 30
0.0
 11
99384.55936998185
 21
108889.9316832591
 31
0.0
  0
LINE
  5
689
330
685
100
AcDbEntity
  8
0Wymiary-PL
 62
     1
370
    -2
100
AcDbLine
 10
99572.55936998183
 20
108889.9316832591
 30
0.0
 11
99602.55936998184
 21
108889.9316832591
 31
0.0
  0
LINE
  5
68A
330
685
100
AcDbEntity
  8
0Wymiary-PL
 62
     1
370
    -2
100
AcDbLine
 10
99444.55936998185
 20
108889.9316832591
 30
0.0
 11
99542.55936998183
 21
108889.9316832591
 31
0.0
  0
INSERT
  5
68B
330
685
100
AcDbEntity
  8
0Wymiary-PL
 62
     1
370
    -2
100
AcDbBlockReference
  2
B-DIM
 10
99444.55936998185
 20
108889.9316832591
 30
0.0
 41
30.0
 42
30.0
 43
30.0
  0
INSERT
  5
68C
330
685
100
AcDbEntity
  8
0Wymiary-PL
 62
     1
370
    -2
100
AcDbBlockReference
  2
B-DIM
 10
99542.55936998183
 20
108889.9316832591
 30
0.0
 41
30.0
 42
30.0
 43
30.0
 50
180.0
  0
MTEXT
  5
68D
330
685
100
AcDbEntity
  8
0Wymiary-PL
 62
    10
100
AcDbMText
 10
99493.55936998184
 20
108969.9316832591
 30
0.0
 40
80.0
 41
0.0
 71
     5
 72
     1
  1
\A1;98
  7
ROMANS
 73
     1
 44
1.0
1001
ACAD
1000
MTEXTBEGIN
1070
    73
1070
     1
1070
    44
1040
1.0
1070
    74
1070
     0
1000
MTEXTEND
  0
POINT
  5
68E
330
685
100
AcDbEntity
  8
DEFPOINTS
 62
     0
100
AcDbPoint
 10
99444.55936998185
 20
107584.7127828004
 30
0.0
  0
POINT
  5
68F
330
685
100
AcDbEntity
  8
DEFPOINTS
 62
     0
100
AcDbPoint
 10
99542.55936998183
 20
107584.7127828004
 30
0.0
  0
POINT
  5
690
330
685
100
AcDbEntity
  8
DEFPOINTS
 62
     0
100
AcDbPoint
 10
99542.55936998183
 20
108889.9316832591
 30
0.0
  0
ENDBLK
  5
687
330
685
100
AcDbEntity
  8
0
 62
    32
100
AcDbBlockEnd
  0
BLOCK
  5
692
330
691
100
AcDbEntity
  8
0
 62
    32
100
AcDbBlockBegin
  2
*D80
 70
     1
 10
0.0
 20
0.0
 30
0.0
  3
*D80
  1

  0
LINE
  5
694
330
691
100
AcDbEntity
  8
0Wymiary-PL
 62
     1
370
    -2
100
AcDbLine
 10
99572.55936998183
 20
108889.931683259
 30
0.0
 11
100012.5593699818
 21
108889.931683259
 31
0.0
  0
INSERT
  5
695
330
691
100
AcDbEntity
  8
0Wymiary-PL
 62
     1
370
    -2
100
AcDbBlockReference
  2
B-DIM
 10
99542.55936998183
 20
108889.931683259
 30
0.0
 41
30.0
 42
30.0
 43
30.0
 50
180.0
  0
INSERT
  5
696
330
691
100
AcDbEntity
  8
0Wymiary-PL
 62
     1
370
    -2
100
AcDbBlockReference
  2
B-DIM
 10
100042.5593699818
 20
108889.931683259
 30
0.0
 41
30.0
 42
30.0
 43
30.0
  0
MTEXT
  5
697
330
691
100
AcDbEntity
  8
0Wymiary-PL
 62
    10
100
AcDbMText
 10
99792.55936998184
 20
108969.9316832591
 30
0.0
 40
80.0
 41
0.0
 71
     5
 72
     1
  1
\A1;500
  7
ROMANS
 73
     1
 44
1.0
1001
ACAD
1000
MTEXTBEGIN
1070
    73
1070
     1
1070
    44
1040
1.0
1070
    74
1070
     0
1000
MTEXTEND
  0
POINT
  5
698
330
691
100
AcDbEntity
  8
DEFPOINTS
 62
     0
100
AcDbPoint
 10
99542.55936998183
 20
107584.7127828004
 30
0.0
  0
POINT
  5
699
330
691
100
AcDbEntity
  8
DEFPOINTS
 62
     0
100
AcDbPoint
 10
100042.5593699818
 20
108091.7127828004
 30
0.0
  0
POINT
  5
69A
330
691
100
AcDbEntity
  8
DEFPOINTS
 62
     0
100
AcDbPoint
 10
100042.5593699818
 20
108889.931683259
 30
0.0
  0
ENDBLK
  5
693
330
691
100
AcDbEntity
  8
0
 62
    32
100
AcDbBlockEnd
  0
BLOCK
  5
6A3
330
6A2
100
AcDbEntity
  8
0
 62
    32
100
AcDbBlockBegin
  2
*D81
 70
     1
 10
0.0
 20
0.0
 30
0.0
  3
*D81
  1

  0
LINE
  5
876
330
6A2
100
AcDbEntity
  8
0Wymiary-PL
 62
     1
370
    -2
100
AcDbLine
 10
99267.70877274883
 20
107614.7127828004
 30
0.0
 11
99267.70877274883
 21
108061.7127828005
 31
0.0
  0
INSERT
  5
877
330
6A2
100
AcDbEntity
  8
0Wymiary-PL
 62
     1
370
    -2
100
AcDbBlockReference
  2
B-DIM
 10
99267.70877274883
 20
107584.7127828004
 30
0.0
 41
30.0
 42
30.0
 43
30.0
 50
270.0
  0
INSERT
  5
878
330
6A2
100
AcDbEntity
  8
0Wymiary-PL
 62
     1
370
    -2
100
AcDbBlockReference
  2
B-DIM
 10
99267.70877274883
 20
108091.7127828004
 30
0.0
 41
30.0
 42
30.0
 43
30.0
 50
90.0
  0
MTEXT
  5
879
330
6A2
100
AcDbEntity
  8
0Wymiary-PL
 62
    10
100
AcDbMText
 10
99187.7087727488
 20
107838.2127828005
 30
0.0
 40
80.0
 41
0.0
 71
     5
 72
     1
  1
\A1;507
  7
ROMANS
 11
0.0000000000000001
 21
1.0
 31
0.0
 73
     1
 44
1.0
1001
ACAD
1000
MTEXTBEGIN
1070
    73
1070
     1
1070
    44
1040
1.0
1070
    74
1070
     0
1000
MTEXTEND
  0
POINT
  5
87A
330
6A2
100
AcDbEntity
  8
DEFPOINTS
 62
     0
100
AcDbPoint
 10
99394.55936998184
 20
107584.7127828004
 30
0.0
  0
POINT
  5
87B
330
6A2
100
AcDbEntity
  8
DEFPOINTS
 62
     0
100
AcDbPoint
 10
99492.55936998184
 20
108091.7127828004
 30
0.0
  0
POINT
  5
87C
330
6A2
100
AcDbEntity
  8
DEFPOINTS
 62
     0
100
AcDbPoint
 10
99267.70877274883
 20
108091.7127828004
 30
0.0
  0
ENDBLK
  5
6A4
330
6A2
100
AcDbEntity
  8
0
 62
    32
100
AcDbBlockEnd
  0
BLOCK
  5
6AD
330
6AC
100
AcDbEntity
  8
0
 62
    32
100
AcDbBlockBegin
  2
*D82
 70
     1
 10
0.0
 20
0.0
 30
0.0
  3
*D82
  1

  0
LINE
  5
86F
330
6AC
100
AcDbEntity
  8
0Wymiary-PL
 62
     1
370
    -2
100
AcDbLine
 10
99106.97205822426
 20
106942.2127828004
 30
0.0
 11
99106.97205822426
 21
108431.7127828004
 31
0.0
  0
INSERT
  5
870
330
6AC
100
AcDbEntity
  8
0Wymiary-PL
 62
     1
370
    -2
100
AcDbBlockReference
  2
B-DIM
 10
99106.97205822426
 20
106912.2127828004
 30
0.0
 41
30.0
 42
30.0
 43
30.0
 50
270.0
  0
INSERT
  5
871
330
6AC
100
AcDbEntity
  8
0Wymiary-PL
 62
     1
370
    -2
100
AcDbBlockReference
  2
B-DIM
 10
99106.97205822426
 20
108461.7127828004
 30
0.0
 41
30.0
 42
30.0
 43
30.0
 50
90.0
  0
MTEXT
  5
872
330
6AC
100
AcDbEntity
  8
0Wymiary-PL
 62
    10
100
AcDbMText
 10
99026.97205822423
 20
107686.9627828005
 30
0.0
 40
80.0
 41
0.0
 71
     5
 72
     1
  1
\A1;1549.5
  7
ROMANS
 11
0.0000000000000001
 21
1.0
 31
0.0
 73
     1
 44
1.0
1001
ACAD
1000
MTEXTBEGIN
1070
    73
1070
     1
1070
    44
1040
1.0
1070
    74
1070
     0
1000
MTEXTEND
  0
POINT
  5
873
330
6AC
100
AcDbEntity
  8
DEFPOINTS
 62
     0
100
AcDbPoint
 10
99311.70877274883
 20
106912.2127828004
 30
0.0
  0
POINT
  5
874
330
6AC
100
AcDbEntity
  8
DEFPOINTS
 62
     0
100
AcDbPoint
 10
99311.70877274883
 20
108461.7127828004
 30
0.0
  0
POINT
  5
875
330
6AC
100
AcDbEntity
  8
DEFPOINTS
 62
     0
100
AcDbPoint
 10
99106.97205822426
 20
108461.7127828004
 30
0.0
  0
ENDBLK
  5
6AE
330
6AC
100
AcDbEntity
  8
0
 62
    32
100
AcDbBlockEnd
  0
BLOCK
  5
6B7
330
6B6
100
AcDbEntity
  8
0
 62
    32
100
AcDbBlockBegin
  2
*D83
 70
     1
 10
0.0
 20
0.0
 30
0.0
  3
*D83
  1

  0
LINE
  5
87D
330
6B6
100
AcDbEntity
  8
0Wymiary-PL
 62
     1
370
    -2
100
AcDbLine
 10
99267.70877274883
 20
106942.2127828004
 30
0.0
 11
99267.70877274883
 21
107554.7127828004
 31
0.0
  0
INSERT
  5
87E
330
6B6
100
AcDbEntity
  8
0Wymiary-PL
 62
     1
370
    -2
100
AcDbBlockReference
  2
B-DIM
 10
99267.70877274883
 20
106912.2127828004
 30
0.0
 41
30.0
 42
30.0
 43
30.0
 50
270.0
  0
INSERT
  5
87F
330
6B6
100
AcDbEntity
  8
0Wymiary-PL
 62
     1
370
    -2
100
AcDbBlockReference
  2
B-DIM
 10
99267.70877274883
 20
107584.7127828004
 30
0.0
 41
30.0
 42
30.0
 43
30.0
 50
90.0
  0
MTEXT
  5
880
330
6B6
100
AcDbEntity
  8
0Wymiary-PL
 62
    10
100
AcDbMText
 10
99187.7087727488
 20
107248.4627828005
 30
0.0
 40
80.0
 41
0.0
 71
     5
 72
     1
  1
\A1;672.5
  7
ROMANS
 11
0.0000000000000001
 21
1.0
 31
0.0
 73
     1
 44
1.0
1001
ACAD
1000
MTEXTBEGIN
1070
    73
1070
     1
1070
    44
1040
1.0
1070
    74
1070
     0
1000
MTEXTEND
  0
POINT
  5
881
330
6B6
100
AcDbEntity
  8
DEFPOINTS
 62
     0
100
AcDbPoint
 10
99394.55936998184
 20
106912.2127828004
 30
0.0
  0
POINT
  5
882
330
6B6
100
AcDbEntity
  8
DEFPOINTS
 62
     0
100
AcDbPoint
 10
99394.55936998184
 20
107584.7127828004
 30
0.0
  0
POINT
  5
883
330
6B6
100
AcDbEntity
  8
DEFPOINTS
 62
     0
100
AcDbPoint
 10
99267.70877274883
 20
107584.7127828004
 30
0.0
  0
ENDBLK
  5
6B8
330
6B6
100
AcDbEntity
  8
0
 62
    32
100
AcDbBlockEnd
  0
BLOCK
  5
723
330
722
100
AcDbEntity
  8
0
 62
    32
100
AcDbBlockBegin
  2
*D84
 70
     1
 10
0.0
 20
0.0
 30
0.0
  3
*D84
  1

  0
LINE
  5
7C7
330
722
100
AcDbEntity
  8
0Wymiary-PL
 62
     1
370
    -2
100
AcDbLine
 10
95927.22336672908
 20
108889.931683259
 30
0.0
 11
95257.22336672906
 21
108889.931683259
 31
0.0
  0
INSERT
  5
7C8
330
722
100
AcDbEntity
  8
0Wymiary-PL
 62
     1
370
    -2
100
AcDbBlockReference
  2
B-DIM
 10
95957.22336672906
 20
108889.931683259
 30
0.0
 41
30.0
 42
30.0
 43
30.0
  0
INSERT
  5
7C9
330
722
100
AcDbEntity
  8
0Wymiary-PL
 62
     1
370
    -2
100
AcDbBlockReference
  2
B-DIM
 10
95227.22336672906
 20
108889.931683259
 30
0.0
 41
30.0
 42
30.0
 43
30.0
 50
180.0
  0
MTEXT
  5
7CA
330
722
100
AcDbEntity
  8
0Wymiary-PL
 62
    10
100
AcDbMText
 10
95592.22336672908
 20
108969.931683259
 30
0.0
 40
80.0
 41
0.0
 71
     5
 72
     1
  1
\A1;730
  7
ROMANS
 73
     1
 44
1.0
1001
ACAD
1000
MTEXTBEGIN
1070
    73
1070
     1
1070
    44
1040
1.0
1070
    74
1070
     0
1000
MTEXTEND
  0
POINT
  5
7CB
330
722
100
AcDbEntity
  8
DEFPOINTS
 62
     0
100
AcDbPoint
 10
95957.22336672906
 20
108091.7127828004
 30
0.0
  0
POINT
  5
7CC
330
722
100
AcDbEntity
  8
DEFPOINTS
 62
     0
100
AcDbPoint
 10
95227.22336672906
 20
108461.7127828004
 30
0.0
  0
POINT
  5
7CD
330
722
100
AcDbEntity
  8
DEFPOINTS
 62
     0
100
AcDbPoint
 10
95227.22336672906
 20
108889.931683259
 30
0.0
  0
ENDBLK
  5
724
330
722
100
AcDbEntity
  8
0
 62
    32
100
AcDbBlockEnd
  0
BLOCK
  5
72D
330
72C
100
AcDbEntity
  8
0
 62
    32
100
AcDbBlockBegin
  2
*D85
 70
     1
 10
0.0
 20
0.0
 30
0.0
  3
*D85
  1

  0
LINE
  5
88B
330
72C
100
AcDbEntity
  8
0Wymiary-PL
 62
     1
370
    -2
100
AcDbLine
 10
96902.81067848665
 20
106942.2127828004
 30
0.0
 11
96902.81067848665
 21
108431.7127828004
 31
0.0
  0
INSERT
  5
88C
330
72C
100
AcDbEntity
  8
0Wymiary-PL
 62
     1
370
    -2
100
AcDbBlockReference
  2
B-DIM
 10
96902.81067848665
 20
106912.2127828004
 30
0.0
 41
30.0
 42
30.0
 43
30.0
 50
270.0
  0
INSERT
  5
88D
330
72C
100
AcDbEntity
  8
0Wymiary-PL
 62
     1
370
    -2
100
AcDbBlockReference
  2
B-DIM
 10
96902.81067848665
 20
108461.7127828004
 30
0.0
 41
30.0
 42
30.0
 43
30.0
 50
90.0
  0
MTEXT
  5
88E
330
72C
100
AcDbEntity
  8
0Wymiary-PL
 62
    10
100
AcDbMText
 10
96822.81067848663
 20
107686.9627828004
 30
0.0
 40
80.0
 41
0.0
 71
     5
 72
     1
  1
\A1;1549.5
  7
ROMANS
 11
0.0000000000000001
 21
1.0
 31
0.0
 73
     1
 44
1.0
1001
ACAD
1000
MTEXTBEGIN
1070
    73
1070
     1
1070
    44
1040
1.0
1070
    74
1070
     0
1000
MTEXTEND
  0
POINT
  5
88F
330
72C
100
AcDbEntity
  8
DEFPOINTS
 62
     0
100
AcDbPoint
 10
96698.07396396208
 20
106912.2127828004
 30
0.0
  0
POINT
  5
890
330
72C
100
AcDbEntity
  8
DEFPOINTS
 62
     0
100
AcDbPoint
 10
96698.07396396208
 20
108461.7127828004
 30
0.0
  0
POINT
  5
891
330
72C
100
AcDbEntity
  8
DEFPOINTS
 62
     0
100
AcDbPoint
 10
96902.81067848665
 20
108461.7127828004
 30
0.0
  0
ENDBLK
  5
72E
330
72C
100
AcDbEntity
  8
0
 62
    32
100
AcDbBlockEnd
  0
BLOCK
  5
737
330
736
100
AcDbEntity
  8
0
 62
    32
100
AcDbBlockBegin
  2
*D86
 70
     1
 10
0.0
 20
0.0
 30
0.0
  3
*D86
  1

  0
LINE
  5
7D5
330
736
100
AcDbEntity
  8
0Wymiary-PL
 62
     1
370
    -2
100
AcDbLine
 10
94961.26743285998
 20
108435.7006154728
 30
0.0
 11
94961.26743285998
 21
107395.7006154728
 31
0.0
  0
INSERT
  5
7D6
330
736
100
AcDbEntity
  8
0Wymiary-PL
 62
     1
370
    -2
100
AcDbBlockReference
  2
B-DIM
 10
94961.26743285998
 20
108465.7006154728
 30
0.0
 41
30.0
 42
30.0
 43
30.0
 50
90.0
  0
INSERT
  5
7D7
330
736
100
AcDbEntity
  8
0Wymiary-PL
 62
     1
370
    -2
100
AcDbBlockReference
  2
B-DIM
 10
94961.26743285998
 20
107365.7006154728
 30
0.0
 41
30.0
 42
30.0
 43
30.0
 50
270.0
  0
MTEXT
  5
7D8
330
736
100
AcDbEntity
  8
0Wymiary-PL
 62
    10
100
AcDbMText
 10
94881.26743285995
 20
107915.7006154728
 30
0.0
 40
80.0
 41
0.0
 71
     5
 72
     1
  1
\A1;1100
  7
ROMANS
 11
0.0000000000000001
 21
1.0
 31
0.0
 73
     1
 44
1.0
1001
ACAD
1000
MTEXTBEGIN
1070
    73
1070
     1
1070
    44
1040
1.0
1070
    74
1070
     0
1000
MTEXTEND
  0
POINT
  5
7D9
330
736
100
AcDbEntity
  8
DEFPOINTS
 62
     0
100
AcDbPoint
 10
95175.34612107004
 20
108465.7006154728
 30
0.0
  0
POINT
  5
7DA
330
736
100
AcDbEntity
  8
DEFPOINTS
 62
     0
100
AcDbPoint
 10
95175.34612107004
 20
107365.7006154728
 30
0.0
  0
POINT
  5
7DB
330
736
100
AcDbEntity
  8
DEFPOINTS
 62
     0
100
AcDbPoint
 10
94961.26743285998
 20
107365.7006154728
 30
0.0
  0
ENDBLK
  5
738
330
736
100
AcDbEntity
  8
0
 62
    32
100
AcDbBlockEnd
  0
BLOCK
  5
741
330
740
100
AcDbEntity
  8
0
 62
    32
100
AcDbBlockBegin
  2
*D87
 70
     1
 10
0.0
 20
0.0
 30
0.0
  3
*D87
  1

  0
LINE
  5
7DC
330
740
100
AcDbEntity
  8
0Wymiary-PL
 62
     1
370
    -2
100
AcDbLine
 10
96427.22336672907
 20
108889.931683259
 30
0.0
 11
95987.22336672906
 21
108889.931683259
 31
0.0
  0
INSERT
  5
7DD
330
740
100
AcDbEntity
  8
0Wymiary-PL
 62
     1
370
    -2
100
AcDbBlockReference
  2
B-DIM
 10
96457.22336672907
 20
108889.931683259
 30
0.0
 41
30.0
 42
30.0
 43
30.0
  0
INSERT
  5
7DE
330
740
100
AcDbEntity
  8
0Wymiary-PL
 62
     1
370
    -2
100
AcDbBlockReference
  2
B-DIM
 10
95957.22336672906
 20
108889.931683259
 30
0.0
 41
30.0
 42
30.0
 43
30.0
 50
180.0
  0
MTEXT
  5
7DF
330
740
100
AcDbEntity
  8
0Wymiary-PL
 62
    10
100
AcDbMText
 10
96207.22336672907
 20
108969.9316832591
 30
0.0
 40
80.0
 41
0.0
 71
     5
 72
     1
  1
\A1;500
  7
ROMANS
 73
     1
 44
1.0
1001
ACAD
1000
MTEXTBEGIN
1070
    73
1070
     1
1070
    44
1040
1.0
1070
    74
1070
     0
1000
MTEXTEND
  0
POINT
  5
7E0
330
740
100
AcDbEntity
  8
DEFPOINTS
 62
     0
100
AcDbPoint
 10
96457.22336672907
 20
107584.7127828004
 30
0.0
  0
POINT
  5
7E1
330
740
100
AcDbEntity
  8
DEFPOINTS
 62
     0
100
AcDbPoint
 10
95957.22336672906
 20
108091.7127828004
 30
0.0
  0
POINT
  5
7E2
330
740
100
AcDbEntity
  8
DEFPOINTS
 62
     0
100
AcDbPoint
 10
95957.22336672906
 20
108889.931683259
 30
0.0
  0
ENDBLK
  5
742
330
740
100
AcDbEntity
  8
0
 62
    32
100
AcDbBlockEnd
  0
BLOCK
  5
74B
330
74A
100
AcDbEntity
  8
0
 62
    32
100
AcDbBlockBegin
  2
*D88
 70
     1
 10
0.0
 20
0.0
 30
0.0
  3
*D88
  1

  0
LINE
  5
7E3
330
74A
100
AcDbEntity
  8
0Wymiary-PL
 62
     1
370
    -2
100
AcDbLine
 10
96585.22336672907
 20
108889.9316832591
 30
0.0
 11
96615.22336672907
 21
108889.9316832591
 31
0.0
  0
LINE
  5
7E4
330
74A
100
AcDbEntity
  8
0Wymiary-PL
 62
     1
370
    -2
100
AcDbLine
 10
96427.22336672907
 20
108889.9316832591
 30
0.0
 11
96397.22336672907
 21
108889.9316832591
 31
0.0
  0
LINE
  5
7E5
330
74A
100
AcDbEntity
  8
0Wymiary-PL
 62
     1
370
    -2
100
AcDbLine
 10
96555.22336672907
 20
108889.9316832591
 30
0.0
 11
96457.22336672907
 21
108889.9316832591
 31
0.0
  0
INSERT
  5
7E6
330
74A
100
AcDbEntity
  8
0Wymiary-PL
 62
     1
370
    -2
100
AcDbBlockReference
  2
B-DIM
 10
96555.22336672907
 20
108889.9316832591
 30
0.0
 41
30.0
 42
30.0
 43
30.0
 50
180.0
  0
INSERT
  5
7E7
330
74A
100
AcDbEntity
  8
0Wymiary-PL
 62
     1
370
    -2
100
AcDbBlockReference
  2
B-DIM
 10
96457.22336672907
 20
108889.9316832591
 30
0.0
 41
30.0
 42
30.0
 43
30.0
  0
MTEXT
  5
7E8
330
74A
100
AcDbEntity
  8
0Wymiary-PL
 62
    10
100
AcDbMText
 10
96506.22336672906
 20
108969.9316832591
 30
0.0
 40
80.0
 41
0.0
 71
     5
 72
     1
  1
\A1;98
  7
ROMANS
 73
     1
 44
1.0
1001
ACAD
1000
MTEXTBEGIN
1070
    73
1070
     1
1070
    44
1040
1.0
1070
    74
1070
     0
1000
MTEXTEND
  0
POINT
  5
7E9
330
74A
100
AcDbEntity
  8
DEFPOINTS
 62
     0
100
AcDbPoint
 10
96555.22336672907
 20
107584.7127828004
 30
0.0
  0
POINT
  5
7EA
330
74A
100
AcDbEntity
  8
DEFPOINTS
 62
     0
100
AcDbPoint
 10
96457.22336672907
 20
107584.7127828004
 30
0.0
  0
POINT
  5
7EB
330
74A
100
AcDbEntity
  8
DEFPOINTS
 62
     0
100
AcDbPoint
 10
96457.22336672907
 20
108889.9316832591
 30
0.0
  0
ENDBLK
  5
74C
330
74A
100
AcDbEntity
  8
0
 62
    32
100
AcDbBlockEnd
  0
BLOCK
  5
757
330
756
100
AcDbEntity
  8
0
 62
    32
100
AcDbBlockBegin
  2
*D89
 70
     1
 10
0.0
 20
0.0
 30
0.0
  3
*D89
  1

  0
LINE
  5
892
330
756
100
AcDbEntity
  8
0Wymiary-PL
 62
     1
370
    -2
100
AcDbLine
 10
96742.07396396209
 20
107614.7127828004
 30
0.0
 11
96742.07396396209
 21
108061.7127828005
 31
0.0
  0
INSERT
  5
893
330
756
100
AcDbEntity
  8
0Wymiary-PL
 62
     1
370
    -2
100
AcDbBlockReference
  2
B-DIM
 10
96742.07396396209
 20
107584.7127828004
 30
0.0
 41
30.0
 42
30.0
 43
30.0
 50
270.0
  0
INSERT
  5
894
330
756
100
AcDbEntity
  8
0Wymiary-PL
 62
     1
370
    -2
100
AcDbBlockReference
  2
B-DIM
 10
96742.07396396209
 20
108091.7127828004
 30
0.0
 41
30.0
 42
30.0
 43
30.0
 50
90.0
  0
MTEXT
  5
895
330
756
100
AcDbEntity
  8
0Wymiary-PL
 62
    10
100
AcDbMText
 10
96662.07396396206
 20
107838.2127828005
 30
0.0
 40
80.0
 41
0.0
 71
     5
 72
     1
  1
\A1;507
  7
ROMANS
 11
0.0000000000000001
 21
1.0
 31
0.0
 73
     1
 44
1.0
1001
ACAD
1000
MTEXTBEGIN
1070
    73
1070
     1
1070
    44
1040
1.0
1070
    74
1070
     0
1000
MTEXTEND
  0
POINT
  5
896
330
756
100
AcDbEntity
  8
DEFPOINTS
 62
     0
100
AcDbPoint
 10
96615.22336672907
 20
107584.7127828004
 30
0.0
  0
POINT
  5
897
330
756
100
AcDbEntity
  8
DEFPOINTS
 62
     0
100
AcDbPoint
 10
96517.22336672907
 20
108091.7127828004
 30
0.0
  0
POINT
  5
898
330
756
100
AcDbEntity
  8
DEFPOINTS
 62
     0
100
AcDbPoint
 10
96742.07396396209
 20
108091.7127828004
 30
0.0
  0
ENDBLK
  5
758
330
756
100
AcDbEntity
  8
0
 62
    32
100
AcDbBlockEnd
  0
BLOCK
  5
761
330
760
100
AcDbEntity
  8
0
 62
    32
100
AcDbBlockBegin
  2
*D90
 70
     1
 10
0.0
 20
0.0
 30
0.0
  3
*D90
  1

  0
LINE
  5
7F3
330
760
100
AcDbEntity
  8
0Wymiary-PL
 62
     1
370
    -2
100
AcDbLine
 10
95257.22336672908
 20
106744.3956567828
 30
0.0
 11
95287.22336672908
 21
106744.3956567828
 31
0.0
  0
LINE
  5
7F4
330
760
100
AcDbEntity
  8
0Wymiary-PL
 62
     1
370
    -2
100
AcDbLine
 10
95097.22336672908
 20
106744.3956567828
 30
0.0
 11
95067.22336672908
 21
106744.3956567828
 31
0.0
  0
LINE
  5
7F5
330
760
100
AcDbEntity
  8
0Wymiary-PL
 62
     1
370
    -2
100
AcDbLine
 10
95227.22336672908
 20
106744.3956567828
 30
0.0
 11
95127.22336672908
 21
106744.3956567828
 31
0.0
  0
INSERT
  5
7F6
330
760
100
AcDbEntity
  8
0Wymiary-PL
 62
     1
370
    -2
100
AcDbBlockReference
  2
B-DIM
 10
95227.22336672908
 20
106744.3956567828
 30
0.0
 41
30.0
 42
30.0
 43
30.0
 50
180.0
  0
INSERT
  5
7F7
330
760
100
AcDbEntity
  8
0Wymiary-PL
 62
     1
370
    -2
100
AcDbBlockReference
  2
B-DIM
 10
95127.22336672908
 20
106744.3956567828
 30
0.0
 41
30.0
 42
30.0
 43
30.0
  0
MTEXT
  5
7F8
330
760
100
AcDbEntity
  8
0Wymiary-PL
 62
    10
100
AcDbMText
 10
95177.22336672907
 20
106824.3956567828
 30
0.0
 40
80.0
 41
0.0
 71
     5
 72
     1
  1
\A1;100
  7
ROMANS
 73
     1
 44
1.0
1001
ACAD
1000
MTEXTBEGIN
1070
    73
1070
     1
1070
    44
1040
1.0
1070
    74
1070
     0
1000
MTEXTEND
  0
POINT
  5
7F9
330
760
100
AcDbEntity
  8
DEFPOINTS
 62
     0
100
AcDbPoint
 10
95227.22336672908
 20
107317.8473088547
 30
0.0
  0
POINT
  5
7FA
330
760
100
AcDbEntity
  8
DEFPOINTS
 62
     0
100
AcDbPoint
 10
95127.22336672908
 20
107797.8473088547
 30
0.0
  0
POINT
  5
7FB
330
760
100
AcDbEntity
  8
DEFPOINTS
 62
     0
100
AcDbPoint
 10
95127.22336672908
 20
106744.3956567828
 30
0.0
  0
ENDBLK
  5
762
330
760
100
AcDbEntity
  8
0
 62
    32
100
AcDbBlockEnd
  0
BLOCK
  5
76D
330
76C
100
AcDbEntity
  8
0
 62
    32
100
AcDbBlockBegin
  2
*D91
 70
     1
 10
0.0
 20
0.0
 30
0.0
  3
*D91
  1

  0
LINE
  5
7FC
330
76C
100
AcDbEntity
  8
0Wymiary-PL
 62
     1
370
    -2
100
AcDbLine
 10
95257.22336672908
 20
106549.8685461284
 30
0.0
 11
96525.22336672907
 21
106549.8685461284
 31
0.0
  0
INSERT
  5
7FD
330
76C
100
AcDbEntity
  8
0Wymiary-PL
 62
     1
370
    -2
100
AcDbBlockReference
  2
B-DIM
 10
95227.22336672908
 20
106549.8685461284
 30
0.0
 41
30.0
 42
30.0
 43
30.0
 50
180.0
  0
INSERT
  5
7FE
330
76C
100
AcDbEntity
  8
0Wymiary-PL
 62
     1
370
    -2
100
AcDbBlockReference
  2
B-DIM
 10
96555.22336672907
 20
106549.8685461284
 30
0.0
 41
30.0
 42
30.0
 43
30.0
  0
MTEXT
  5
7FF
330
76C
100
AcDbEntity
  8
0Wymiary-PL
 62
    10
100
AcDbMText
 10
95891.22336672907
 20
106629.8685461283
 30
0.0
 40
80.0
 41
0.0
 71
     5
 72
     1
  1
\A1;1328
  7
ROMANS
 73
     1
 44
1.0
1001
ACAD
1000
MTEXTBEGIN
1070
    73
1070
     1
1070
    44
1040
1.0
1070
    74
1070
     0
1000
MTEXTEND
  0
POINT
  5
800
330
76C
100
AcDbEntity
  8
DEFPOINTS
 62
     0
100
AcDbPoint
 10
95227.22336672908
 20
107361.7127828004
 30
0.0
  0
POINT
  5
801
330
76C
100
AcDbEntity
  8
DEFPOINTS
 62
     0
100
AcDbPoint
 10
96555.22336672907
 20
107361.7127828004
 30
0.0
  0
POINT
  5
802
330
76C
100
AcDbEntity
  8
DEFPOINTS
 62
     0
100
AcDbPoint
 10
96555.22336672907
 20
106549.8685461284
 30
0.0
  0
ENDBLK
  5
76E
330
76C
100
AcDbEntity
  8
0
 62
    32
100
AcDbBlockEnd
  0
BLOCK
  5
777
330
776
100
AcDbEntity
  8
0
 62
    32
100
AcDbBlockBegin
  2
*D92
 70
     1
 10
0.0
 20
0.0
 30
0.0
  3
*D92
  1

  0
LINE
  5
803
330
776
100
AcDbEntity
  8
0Wymiary-PL
 62
     1
370
    -2
100
AcDbLine
 10
96525.22336672907
 20
106744.3956567828
 30
0.0
 11
95939.72336672907
 21
106744.3956567828
 31
0.0
  0
INSERT
  5
804
330
776
100
AcDbEntity
  8
0Wymiary-PL
 62
     1
370
    -2
100
AcDbBlockReference
  2
B-DIM
 10
96555.22336672907
 20
106744.3956567828
 30
0.0
 41
30.0
 42
30.0
 43
30.0
  0
INSERT
  5
805
330
776
100
AcDbEntity
  8
0Wymiary-PL
 62
     1
370
    -2
100
AcDbBlockReference
  2
B-DIM
 10
95909.72336672907
 20
106744.3956567828
 30
0.0
 41
30.0
 42
30.0
 43
30.0
 50
180.0
  0
MTEXT
  5
806
330
776
100
AcDbEntity
  8
0Wymiary-PL
 62
    10
100
AcDbMText
 10
96232.47336672907
 20
106824.3956567828
 30
0.0
 40
80.0
 41
0.0
 71
     5
 72
     1
  1
\A1;645.5
  7
ROMANS
 73
     1
 44
1.0
1001
ACAD
1000
MTEXTBEGIN
1070
    73
1070
     1
1070
    44
1040
1.0
1070
    74
1070
     0
1000
MTEXTEND
  0
POINT
  5
807
330
776
100
AcDbEntity
  8
DEFPOINTS
 62
     0
100
AcDbPoint
 10
96555.22336672907
 20
106868.3473088547
 30
0.0
  0
POINT
  5
808
330
776
100
AcDbEntity
  8
DEFPOINTS
 62
     0
100
AcDbPoint
 10
95909.72336672907
 20
106868.3473088547
 30
0.0
  0
POINT
  5
809
330
776
100
AcDbEntity
  8
DEFPOINTS
 62
     0
100
AcDbPoint
 10
95909.72336672907
 20
106744.3956567828
 30
0.0
  0
ENDBLK
  5
778
330
776
100
AcDbEntity
  8
0
 62
    32
100
AcDbBlockEnd
  0
BLOCK
  5
781
330
780
100
AcDbEntity
  8
0
 62
    32
100
AcDbBlockBegin
  2
*D93
 70
     1
 10
0.0
 20
0.0
 30
0.0
  3
*D93
  1

  0
LINE
  5
899
330
780
100
AcDbEntity
  8
0Wymiary-PL
 62
     1
370
    -2
100
AcDbLine
 10
96742.07396396209
 20
106942.2127828004
 30
0.0
 11
96742.07396396209
 21
107554.7127828004
 31
0.0
  0
INSERT
  5
89A
330
780
100
AcDbEntity
  8
0Wymiary-PL
 62
     1
370
    -2
100
AcDbBlockReference
  2
B-DIM
 10
96742.07396396209
 20
106912.2127828004
 30
0.0
 41
30.0
 42
30.0
 43
30.0
 50
270.0
  0
INSERT
  5
89B
330
780
100
AcDbEntity
  8
0Wymiary-PL
 62
     1
370
    -2
100
AcDbBlockReference
  2
B-DIM
 10
96742.07396396209
 20
107584.7127828004
 30
0.0
 41
30.0
 42
30.0
 43
30.0
 50
90.0
  0
MTEXT
  5
89C
330
780
100
AcDbEntity
  8
0Wymiary-PL
 62
    10
100
AcDbMText
 10
96662.07396396206
 20
107248.4627828004
 30
0.0
 40
80.0
 41
0.0
 71
     5
 72
     1
  1
\A1;672.5
  7
ROMANS
 11
0.0000000000000001
 21
1.0
 31
0.0
 73
     1
 44
1.0
1001
ACAD
1000
MTEXTBEGIN
1070
    73
1070
     1
1070
    44
1040
1.0
1070
    74
1070
     0
1000
MTEXTEND
  0
POINT
  5
89D
330
780
100
AcDbEntity
  8
DEFPOINTS
 62
     0
100
AcDbPoint
 10
96615.22336672907
 20
106912.2127828004
 30
0.0
  0
POINT
  5
89E
330
780
100
AcDbEntity
  8
DEFPOINTS
 62
     0
100
AcDbPoint
 10
96615.22336672907
 20
107584.7127828004
 30
0.0
  0
POINT
  5
89F
330
780
100
AcDbEntity
  8
DEFPOINTS
 62
     0
100
AcDbPoint
 10
96742.07396396209
 20
107584.7127828004
 30
0.0
  0
ENDBLK
  5
782
330
780
100
AcDbEntity
  8
0
 62
    32
100
AcDbBlockEnd
  0
BLOCK
  5
78B
330
78A
100
AcDbEntity
  8
0
 62
    32
100
AcDbBlockBegin
  2
*D94
 70
     1
 10
0.0
 20
0.0
 30
0.0
  3
*D94
  1

  0
LINE
  5
811
330
78A
100
AcDbEntity
  8
0Wymiary-PL
 62
     1
370
    -2
100
AcDbLine
 10
94961.26743285998
 20
107275.7006154728
 30
0.0
 11
94961.26743285998
 21
106946.2006154728
 31
0.0
  0
MTEXT
  5
812
330
78A
100
AcDbEntity
  8
0Wymiary-PL
 62
    10
100
AcDbMText
 10
95041.26743286001
 20
107100.8670649096
 30
0.0
 40
80.0
 41
0.0
 71
     5
 72
     1
  1
\A1;389.5
  7
ROMANS
 11
0.0000000000000001
 21
1.0
 31
0.0
 73
     1
 44
1.0
1001
ACAD
1000
MTEXTBEGIN
1070
    73
1070
     1
1070
    44
1040
1.0
1070
    74
1070
     0
1000
MTEXTEND
  0
INSERT
  5
813
330
78A
100
AcDbEntity
  8
0Wymiary-PL
 62
     1
370
    -2
100
AcDbBlockReference
  2
B-DIM
 10
94961.26743285998
 20
107305.7006154727
 30
0.0
 41
30.0
 42
30.0
 43
30.0
 50
90.0
  0
INSERT
  5
814
330
78A
100
AcDbEntity
  8
0Wymiary-PL
 62
     1
370
    -2
100
AcDbBlockReference
  2
B-DIM
 10
94961.26743285998
 20
106916.2006154728
 30
0.0
 41
30.0
 42
30.0
 43
30.0
 50
270.0
  0
POINT
  5
815
330
78A
100
AcDbEntity
  8
DEFPOINTS
 62
     0
100
AcDbPoint
 10
95560.34612107007
 20
107305.7006154727
 30
0.0
  0
POINT
  5
816
330
78A
100
AcDbEntity
  8
DEFPOINTS
 62
     0
100
AcDbPoint
 10
95857.84612107007
 20
106916.2006154728
 30
0.0
  0
POINT
  5
817
330
78A
100
AcDbEntity
  8
DEFPOINTS
 62
     0
100
AcDbPoint
 10
94961.26743285998
 20
106916.2006154728
 30
0.0
  0
ENDBLK
  5
78C
330
78A
100
AcDbEntity
  8
0
 62
    32
100
AcDbBlockEnd
  0
BLOCK
  5
795
330
794
100
AcDbEntity
  8
0
 62
    32
100
AcDbBlockBegin
  2
*D95
 70
     1
 10
0.0
 20
0.0
 30
0.0
  3
*D95
  1

  0
LINE
  5
818
330
794
100
AcDbEntity
  8
0Wymiary-PL
 62
     1
370
    -2
100
AcDbLine
 10
95879.72336672907
 20
106744.3956567828
 30
0.0
 11
95257.22336672908
 21
106744.3956567828
 31
0.0
  0
INSERT
  5
819
330
794
100
AcDbEntity
  8
0Wymiary-PL
 62
     1
370
    -2
100
AcDbBlockReference
  2
B-DIM
 10
95909.72336672907
 20
106744.3956567828
 30
0.0
 41
30.0
 42
30.0
 43
30.0
  0
INSERT
  5
81A
330
794
100
AcDbEntity
  8
0Wymiary-PL
 62
     1
370
    -2
100
AcDbBlockReference
  2
B-DIM
 10
95227.22336672908
 20
106744.3956567828
 30
0.0
 41
30.0
 42
30.0
 43
30.0
 50
180.0
  0
MTEXT
  5
81B
330
794
100
AcDbEntity
  8
0Wymiary-PL
 62
    10
100
AcDbMText
 10
95568.47336672907
 20
106824.3956567828
 30
0.0
 40
80.0
 41
0.0
 71
     5
 72
     1
  1
\A1;682.5
  7
ROMANS
 73
     1
 44
1.0
1001
ACAD
1000
MTEXTBEGIN
1070
    73
1070
     1
1070
    44
1040
1.0
1070
    74
1070
     0
1000
MTEXTEND
  0
POINT
  5
81C
330
794
100
AcDbEntity
  8
DEFPOINTS
 62
     0
100
AcDbPoint
 10
95909.72336672907
 20
106868.3473088547
 30
0.0
  0
POINT
  5
81D
330
794
100
AcDbEntity
  8
DEFPOINTS
 62
     0
100
AcDbPoint
 10
95227.22336672908
 20
107317.8473088547
 30
0.0
  0
POINT
  5
81E
330
794
100
AcDbEntity
  8
DEFPOINTS
 62
     0
100
AcDbPoint
 10
95227.22336672908
 20
106744.3956567828
 30
0.0
  0
ENDBLK
  5
796
330
794
100
AcDbEntity
  8
0
 62
    32
100
AcDbBlockEnd
  0
BLOCK
  5
79F
330
79E
100
AcDbEntity
  8
0
 62
    32
100
AcDbBlockBegin
  2
*D96
 70
     1
 10
0.0
 20
0.0
 30
0.0
  3
*D96
  1

  0
MTEXT
  5
81F
330
79E
100
AcDbEntity
  8
0Wymiary-PL
 62
    10
100
AcDbMText
 10
95041.26743286001
 20
107365.1140341468
 30
0.0
 40
80.0
 41
0.0
 71
     5
 72
     1
  1
\A1;60
  7
ROMANS
 11
0.0000000000000001
 21
1.0
 31
0.0
 73
     1
 44
1.0
1001
ACAD
1000
MTEXTBEGIN
1070
    73
1070
     1
1070
    44
1040
1.0
1070
    74
1070
     0
1000
MTEXTEND
  0
INSERT
  5
820
330
79E
100
AcDbEntity
  8
0Wymiary-PL
 62
     1
370
    -2
100
AcDbBlockReference
  2
B-DIM
 10
94961.26743285998
 20
107365.7006154728
 30
0.0
 41
30.0
 42
30.0
 43
30.0
 50
90.0
  0
INSERT
  5
821
330
79E
100
AcDbEntity
  8
0Wymiary-PL
 62
     1
370
    -2
100
AcDbBlockReference
  2
B-DIM
 10
94961.26743285998
 20
107305.7006154727
 30
0.0
 41
30.0
 42
30.0
 43
30.0
 50
270.0
  0
POINT
  5
822
330
79E
100
AcDbEntity
  8
DEFPOINTS
 62
     0
100
AcDbPoint
 10
95175.34612107004
 20
107365.7006154728
 30
0.0
  0
POINT
  5
823
330
79E
100
AcDbEntity
  8
DEFPOINTS
 62
     0
100
AcDbPoint
 10
95560.34612107007
 20
107305.7006154727
 30
0.0
  0
POINT
  5
824
330
79E
100
AcDbEntity
  8
DEFPOINTS
 62
     0
100
AcDbPoint
 10
94961.26743285998
 20
107305.7006154727
 30
0.0
  0
ENDBLK
  5
7A0
330
79E
100
AcDbEntity
  8
0
 62
    32
100
AcDbBlockEnd
  0
BLOCK
  5
7A8
330
7A7
100
AcDbEntity
  8
0
 62
    32
100
AcDbBlockBegin
  2
*D97
 70
     1
 10
0.0
 20
0.0
 30
0.0
  3
*D97
  1

  0
LINE
  5
825
330
7A7
100
AcDbEntity
  8
0Wymiary-PL
 62
     1
370
    -2
100
AcDbLine
 10
96525.22336672904
 20
109063.9406304473
 30
0.0
 11
95157.22336672903
 21
109063.9406304471
 31
0.0
  0
INSERT
  5
826
330
7A7
100
AcDbEntity
  8
0Wymiary-PL
 62
     1
370
    -2
100
AcDbBlockReference
  2
B-DIM
 10
96555.22336672904
 20
109063.9406304473
 30
0.0
 41
30.0
 42
30.0
 43
30.0
 50
0.0000000000047162
  0
INSERT
  5
827
330
7A7
100
AcDbEntity
  8
0Wymiary-PL
 62
     1
370
    -2
100
AcDbBlockReference
  2
B-DIM
 10
95127.22336672903
 20
109063.9406304471
 30
0.0
 41
30.0
 42
30.0
 43
30.0
 50
180.0000000000047
  0
MTEXT
  5
828
330
7A7
100
AcDbEntity
  8
0Wymiary-PL
 62
    10
100
AcDbMText
 10
95841.22336672903
 20
109143.9406304472
 30
0.0
 40
80.0
 41
0.0
 71
     5
 72
     1
  1
\A1;1428
  7
ROMANS
 73
     1
 44
1.0
1001
ACAD
1000
MTEXTBEGIN
1070
    73
1070
     1
1070
    44
1040
1.0
1070
    74
1070
     0
1000
MTEXTEND
  0
POINT
  5
829
330
7A7
100
AcDbEntity
  8
DEFPOINTS
 62
     0
100
AcDbPoint
 10
96555.22336672905
 20
108845.9316832591
 30
0.0
  0
POINT
  5
82A
330
7A7
100
AcDbEntity
  8
DEFPOINTS
 62
     0
100
AcDbPoint
 10
95127.22336672904
 20
108845.9316832589
 30
0.0
  0
POINT
  5
82B
330
7A7
100
AcDbEntity
  8
DEFPOINTS
 62
     0
100
AcDbPoint
 10
95127.22336672903
 20
109063.9406304471
 30
0.0
  0
ENDBLK
  5
7A9
330
7A7
100
AcDbEntity
  8
0
 62
    32
100
AcDbBlockEnd
  0
BLOCK
  5
7B2
330
7B1
100
AcDbEntity
  8
0
 62
    32
100
AcDbBlockBegin
  2
*D98
 70
     1
 10
0.0
 20
0.0
 30
0.0
  3
*D98
  1

  0
LINE
  5
8A0
330
7B1
100
AcDbEntity
  8
0Wymiary-PL
 62
     1
370
    -2
100
AcDbLine
 10
96742.07396396209
 20
108121.7127828004
 30
0.0
 11
96742.07396396209
 21
108431.7127828004
 31
0.0
  0
INSERT
  5
8A1
330
7B1
100
AcDbEntity
  8
0Wymiary-PL
 62
     1
370
    -2
100
AcDbBlockReference
  2
B-DIM
 10
96742.07396396209
 20
108091.7127828004
 30
0.0
 41
30.0
 42
30.0
 43
30.0
 50
270.0
  0
INSERT
  5
8A2
330
7B1
100
AcDbEntity
  8
0Wymiary-PL
 62
     1
370
    -2
100
AcDbBlockReference
  2
B-DIM
 10
96742.07396396209
 20
108461.7127828004
 30
0.0
 41
30.0
 42
30.0
 43
30.0
 50
90.0
  0
MTEXT
  5
8A3
330
7B1
100
AcDbEntity
  8
0Wymiary-PL
 62
    10
100
AcDbMText
 10
96662.07396396206
 20
108276.7127828005
 30
0.0
 40
80.0
 41
0.0
 71
     5
 72
     1
  1
\A1;370
  7
ROMANS
 11
0.0000000000000001
 21
1.0
 31
0.0
 73
     1
 44
1.0
1001
ACAD
1000
MTEXTBEGIN
1070
    73
1070
     1
1070
    44
1040
1.0
1070
    74
1070
     0
1000
MTEXTEND
  0
POINT
  5
8A4
330
7B1
100
AcDbEntity
  8
DEFPOINTS
 62
     0
100
AcDbPoint
 10
96517.22336672907
 20
108091.7127828004
 30
0.0
  0
POINT
  5
8A5
330
7B1
100
AcDbEntity
  8
DEFPOINTS
 62
     0
100
AcDbPoint
 10
96017.22336672906
 20
108461.7127828004
 30
0.0
  0
POINT
  5
8A6
330
7B1
100
AcDbEntity
  8
DEFPOINTS
 62
     0
100
AcDbPoint
 10
96742.07396396209
 20
108461.7127828004
 30
0.0
  0
ENDBLK
  5
7B3
330
7B1
100
AcDbEntity
  8
0
 62
    32
100
AcDbBlockEnd
  0
BLOCK
  5
7BC
330
7BB
100
AcDbEntity
  8
0
 62
    32
100
AcDbBlockBegin
  2
*D99
 70
     1
 10
0.0
 20
0.0
 30
0.0
  3
*D99
  1

  0
LINE
  5
833
330
7BB
100
AcDbEntity
  8
0Wymiary-PL
 62
     1
370
    -2
100
AcDbLine
 10
95257.22336672906
 20
108889.931683259
 30
0.0
 11
95287.22336672906
 21
108889.931683259
 31
0.0
  0
LINE
  5
834
330
7BB
100
AcDbEntity
  8
0Wymiary-PL
 62
     1
370
    -2
100
AcDbLine
 10
95097.22336672906
 20
108889.931683259
 30
0.0
 11
95067.22336672906
 21
108889.931683259
 31
0.0
  0
LINE
  5
835
330
7BB
100
AcDbEntity
  8
0Wymiary-PL
 62
     1
370
    -2
100
AcDbLine
 10
95227.22336672906
 20
108889.931683259
 30
0.0
 11
95127.22336672906
 21
108889.931683259
 31
0.0
  0
INSERT
  5
836
330
7BB
100
AcDbEntity
  8
0Wymiary-PL
 62
     1
370
    -2
100
AcDbBlockReference
  2
B-DIM
 10
95227.22336672906
 20
108889.931683259
 30
0.0
 41
30.0
 42
30.0
 43
30.0
 50
180.0
  0
INSERT
  5
837
330
7BB
100
AcDbEntity
  8
0Wymiary-PL
 62
     1
370
    -2
100
AcDbBlockReference
  2
B-DIM
 10
95127.22336672906
 20
108889.931683259
 30
0.0
 41
30.0
 42
30.0
 43
30.0
  0
MTEXT
  5
838
330
7BB
100
AcDbEntity
  8
0Wymiary-PL
 62
    10
100
AcDbMText
 10
95177.22336672905
 20
108969.931683259
 30
0.0
 40
80.0
 41
0.0
 71
     5
 72
     1
  1
\A1;100
  7
ROMANS
 73
     1
 44
1.0
1001
ACAD
1000
MTEXTBEGIN
1070
    73
1070
     1
1070
    44
1040
1.0
1070
    74
1070
     0
1000
MTEXTEND
  0
POINT
  5
839
330
7BB
100
AcDbEntity
  8
DEFPOINTS
 62
     0
100
AcDbPoint
 10
95227.22336672906
 20
108461.7127828004
 30
0.0
  0
POINT
  5
83A
330
7BB
100
AcDbEntity
  8
DEFPOINTS
 62
     0
100
AcDbPoint
 10
95127.22336672906
 20
107981.7127828005
 30
0.0
  0
POINT
  5
83B
330
7BB
100
AcDbEntity
  8
DEFPOINTS
 62
     0
100
AcDbPoint
 10
95127.22336672906
 20
108889.931683259
 30
0.0
  0
ENDBLK
  5
7BD
330
7BB
100
AcDbEntity
  8
0
 62
    32
100
AcDbBlockEnd
  0
ENDSEC
  0
SECTION
  2
ENTITIES
  0
TEXT
  5
A3
330
2
100
AcDbEntity
  8
NAPISY
100
AcDbText
 10
94335.94461039927
 20
113027.6263572934
 30
0.0
 40
150.0
  1
DOM  " W  MACIERZANKACH "
  7
ARIAL
100
AcDbText
  0
TEXT
  5
A7
330
2
100
AcDbEntity
  8
NAPISY
100
AcDbText
 10
94342.76717587062
 20
112746.4377547426
 30
0.0
 40
150.0
  1
MOŻNA WKLEIĆ DO PROJEKTU ZAGOSPODAROWANIA TERENU
  7
ARIAL
100
AcDbText
  0
TEXT
  5
AF
330
2
100
AcDbEntity
  8
NAPISY
100
AcDbText
 10
94246.55412993946
 20
100283.0724938607
 30
0.0
 40
150.0
  1
   O B R Y S   B U D Y N K U           S K A L A   1 : 5 0 0 
  7
ARIAL
100
AcDbText
  0
INSERT
  5
B0
330
2
100
AcDbEntity
  8
RAMKI-A4
100
AcDbBlockReference
  2
A4_100
 10
92787.20217807777
 20
99617.51641095817
 30
0.0
 41
5.0
 42
5.0
 43
5.0
  0
DIMENSION
  5
12D
330
2
100
AcDbEntity
  8
0Wymiary-PL
100
AcDbDimension
  2
*D82
 10
99106.97205822426
 20
108461.7127828004
 30
0.0
 11
99026.97205822423
 21
107686.9627828005
 31
0.0
 70
    33
 71
     5
 42
1549.5
  3
500
100
AcDbAlignedDimension
 13
99311.70877274883
 23
106912.2127828004
 33
0.0
 14
99311.70877274883
 24
108461.7127828004
 34
0.0
  0
DIMENSION
  5
138
330
2
100
AcDbEntity
  8
0Wymiary-PL
100
AcDbDimension
  2
*D73
 10
101038.5153038509
 20
107365.7006154728
 30
0.0
 11
100958.5153038509
 21
107915.7006154728
 31
0.0
 70
    33
 71
     5
 42
1100.0
  3
500
100
AcDbAlignedDimension
 13
100824.4366156408
 23
108465.7006154728
 33
0.0
 14
100824.4366156408
 24
107365.7006154728
 34
0.0
  0
DIMENSION
  5
143
330
2
100
AcDbEntity
  8
0Wymiary-PL
100
AcDbDimension
  2
*D80
 10
100042.5593699818
 20
108889.931683259
 30
0.0
 11
99792.55936998184
 21
108969.9316832591
 31
0.0
 70
    32
 71
     5
 42
500.0
  3
500
100
AcDbAlignedDimension
 13
99542.55936998183
 23
107584.7127828004
 33
0.0
 14
100042.5593699818
 24
108091.7127828004
 34
0.0
 50
180.0
100
AcDbRotatedDimension
  0
DIMENSION
  5
14E
330
2
100
AcDbEntity
  8
0Wymiary-PL
100
AcDbDimension
  2
*D79
 10
99542.55936998183
 20
108889.9316832591
 30
0.0
 11
99493.55936998184
 21
108969.9316832591
 31
0.0
 70
    33
 71
     5
 42
98.0
  3
500
100
AcDbAlignedDimension
 13
99444.55936998185
 23
107584.7127828004
 33
0.0
 14
99542.55936998183
 24
107584.7127828004
 34
0.0
  0
DIMENSION
  5
15B
330
2
100
AcDbEntity
  8
0Wymiary-PL
100
AcDbDimension
  2
*D81
 10
99267.70877274883
 20
108091.7127828004
 30
0.0
 11
99187.7087727488
 21
107838.2127828005
 31
0.0
 70
    32
 71
     5
 42
507.0
  3
500
100
AcDbAlignedDimension
 13
99394.55936998184
 23
107584.7127828004
 33
0.0
 14
99492.55936998184
 24
108091.7127828004
 34
0.0
 50
270.0
100
AcDbRotatedDimension
  0
DIMENSION
  5
166
330
2
100
AcDbEntity
  8
0Wymiary-PL
100
AcDbDimension
  2
*D76
 10
100872.5593699818
 20
106744.3956567828
 30
0.0
 11
100822.5593699818
 21
106824.3956567828
 31
0.0
 70
    32
 71
     5
 42
100.0
  3
500
100
AcDbAlignedDimension
 13
100772.5593699818
 23
107317.8473088547
 33
0.0
 14
100872.5593699818
 24
107797.8473088547
 34
0.0
 50
180.0
100
AcDbRotatedDimension
  0
LWPOLYLINE
  5
177
330
2
100
AcDbEntity
  8
TABLICZKA
  6
HIDDEN
 48
0.05
100
AcDbPolyline
 90
        2
 70
     0
 43
0.0
 10
97999.89136835545
 20
105287.5145255938
 10
97999.89136835545
 20
110089.9715830712
  0
TEXT
  5
179
330
2
100
AcDbEntity
  8
NAPISY
100
AcDbText
 10
97940.37019136217
 20
106369.1616884144
 30
0.0
 40
100.0
  1
OŚ ODBICIA LUSTRZANEGO
 50
90.0
  7
AVA
100
AcDbText
  0
DIMENSION
  5
183
330
2
100
AcDbEntity
  8
0Wymiary-PL
100
AcDbDimension
  2
*D75
 10
99444.55936998185
 20
106549.8685461284
 30
0.0
 11
100108.5593699818
 21
106629.8685461283
 31
0.0
 70
    33
 71
     5
 42
1328.0
  3
500
100
AcDbAlignedDimension
 13
100772.5593699818
 23
107361.7127828004
 33
0.0
 14
99444.55936998185
 24
107361.7127828004
 34
0.0
  0
DIMENSION
  5
18E
330
2
100
AcDbEntity
  8
0Wymiary-PL
100
AcDbDimension
  2
*D77
 10
100090.0593699818
 20
106744.3956567828
 30
0.0
 11
99767.30936998183
 21
106824.3956567828
 31
0.0
 70
    33
 71
     5
 42
645.5
  3
500
100
AcDbAlignedDimension
 13
99444.55936998185
 23
106868.3473088547
 33
0.0
 14
100090.0593699818
 24
106868.3473088547
 34
0.0
  0
DIMENSION
  5
1CB
330
2
100
AcDbEntity
  8
0Wymiary-PL
100
AcDbDimension
  2
*D83
 10
99267.70877274883
 20
107584.7127828004
 30
0.0
 11
99187.7087727488
 21
107248.4627828005
 31
0.0
 70
    33
 71
     5
 42
672.5
  3
500
100
AcDbAlignedDimension
 13
99394.55936998184
 23
106912.2127828004
 33
0.0
 14
99394.55936998184
 24
107584.7127828004
 34
0.0
  0
LINE
  5
1E1
330
2
100
AcDbEntity
  8
0Hatch
100
AcDbLine
 10
99557.55936998183
 20
106912.2127828004
 30
0.0
 11
99557.55936998185
 21
106972.2127828004
 31
0.0
  0
DIMENSION
  5
1E3
330
2
100
AcDbEntity
  8
0Wymiary-PL
100
AcDbDimension
  2
*D69
 10
101038.5153038509
 20
106916.2006154728
 30
0.0
 11
100958.5153038509
 21
107100.8670649096
 31
0.0
 70
   160
 71
     5
 42
389.4999999999854
  3
500
100
AcDbAlignedDimension
 13
100439.4366156408
 23
107305.7006154727
 33
0.0
 14
100141.9366156408
 24
106916.2006154728
 34
0.0
 50
90.0
100
AcDbRotatedDimension
  0
DIMENSION
  5
1EE
330
2
100
AcDbEntity
  8
0Wymiary-PL
100
AcDbDimension
  2
*D74
 10
100772.5593699818
 20
106744.3956567828
 30
0.0
 11
100431.3093699818
 21
106824.3956567828
 31
0.0
 70
    32
 71
     5
 42
682.5
  3
500
100
AcDbAlignedDimension
 13
100090.0593699818
 23
106868.3473088547
 33
0.0
 14
100772.5593699818
 24
107317.8473088547
 34
0.0
 50
180.0
100
AcDbRotatedDimension
  0
DIMENSION
  5
1F9
330
2
100
AcDbEntity
  8
0Wymiary-PL
100
AcDbDimension
  2
*D68
 10
101038.5153038509
 20
107305.7006154727
 30
0.0
 11
100958.5153038509
 21
107365.1140341468
 31
0.0
 70
   160
 71
     5
 42
60.00000000001455
  3
500
100
AcDbAlignedDimension
 13
100824.4366156408
 23
107365.7006154728
 33
0.0
 14
100439.4366156408
 24
107305.7006154727
 34
0.0
 50
90.0
100
AcDbRotatedDimension
  0
LINE
  5
211
330
2
100
AcDbEntity
  8
0Hatch
100
AcDbLine
 10
100473.5593699818
 20
107211.7127828004
 30
0.0
 11
100473.5593699818
 21
107361.7127828004
 31
0.0
  0
LINE
  5
212
330
2
100
AcDbEntity
  8
0Hatch
100
AcDbLine
 10
100503.5593699818
 20
107181.7127828004
 30
0.0
 11
100503.5593699818
 21
107361.7127828004
 31
0.0
  0
LINE
  5
213
330
2
100
AcDbEntity
  8
0Hatch
100
AcDbLine
 10
100430.0593699818
 20
107361.7127828004
 30
0.0
 11
100430.0593699818
 21
107301.7127828004
 31
0.0
  0
LINE
  5
214
330
2
100
AcDbEntity
  8
0Hatch
100
AcDbLine
 10
100772.5593699818
 20
107361.7127828004
 30
0.0
 11
100430.0593699818
 21
107361.7127828004
 31
0.0
  0
LINE
  5
216
330
2
100
AcDbEntity
  8
0Hatch
100
AcDbLine
 10
100345.0593699818
 20
107398.2127828005
 30
0.0
 11
100345.0593699818
 21
107398.2127828005
 31
0.0
  0
LINE
  5
218
330
2
100
AcDbEntity
  8
0Hatch
100
AcDbLine
 10
100175.0593699819
 20
107421.7127828005
 30
0.0
 11
100175.0593699818
 21
107301.7127828004
 31
0.0
  0
LINE
  5
219
330
2
100
AcDbEntity
  8
0Hatch
100
AcDbLine
 10
100345.0593699819
 20
107421.7127828005
 30
0.0
 11
100345.0593699818
 21
107301.7127828004
 31
0.0
  0
LINE
  5
21A
330
2
100
AcDbEntity
  8
0Hatch
100
AcDbLine
 10
100090.0593699818
 20
107181.7127828004
 30
0.0
 11
100503.5593699818
 21
107181.7127828004
 31
0.0
  0
LINE
  5
21B
330
2
100
AcDbEntity
  8
0Hatch
100
AcDbLine
 10
100090.0593699818
 20
107211.7127828004
 30
0.0
 11
100473.5593699818
 21
107211.7127828004
 31
0.0
  0
LINE
  5
21C
330
2
100
AcDbEntity
  8
0Hatch
100
AcDbLine
 10
100430.0593699818
 20
107301.7127828004
 30
0.0
 11
100345.0593699818
 21
107301.7127828004
 31
0.0
  0
LINE
  5
21E
330
2
100
AcDbEntity
  8
0Hatch
100
AcDbLine
 10
99977.55936998185
 20
106972.2127828004
 30
0.0
 11
99977.55936998185
 21
106912.2127828004
 31
0.0
  0
DIMENSION
  5
220
330
2
100
AcDbEntity
  8
0Wymiary-PL
100
AcDbDimension
  2
*D78
 10
100872.5593699819
 20
109063.9406304471
 30
0.0
 11
100158.5593699819
 21
109143.9406304471
 31
0.0
 70
    33
 71
     5
 42
1428.000000000014
  3
500
100
AcDbAlignedDimension
 13
99444.55936998185
 23
108845.9316832591
 33
0.0
 14
100872.5593699819
 24
108845.9316832589
 34
0.0
  0
DIMENSION
  5
22B
330
2
100
AcDbEntity
  8
0Wymiary-PL
100
AcDbDimension
  2
*D72
 10
99267.70877274883
 20
108461.7127828004
 30
0.0
 11
99187.7087727488
 21
108276.7127828005
 31
0.0
 70
    32
 71
     5
 42
370.0
  3
500
100
AcDbAlignedDimension
 13
99492.55936998184
 23
108091.7127828004
 33
0.0
 14
99992.55936998185
 24
108461.7127828004
 34
0.0
 50
270.0
100
AcDbRotatedDimension
  0
DIMENSION
  5
255
330
2
100
AcDbEntity
  8
0Wymiary-PL
100
AcDbDimension
  2
*D71
 10
100872.5593699818
 20
108889.931683259
 30
0.0
 11
100822.5593699818
 21
108969.931683259
 31
0.0
 70
    32
 71
     5
 42
100.0
  3
500
100
AcDbAlignedDimension
 13
100772.5593699818
 23
108461.7127828004
 33
0.0
 14
100872.5593699818
 24
107981.7127828005
 34
0.0
 50
180.0
100
AcDbRotatedDimension
  0
DIMENSION
  5
262
330
2
100
AcDbEntity
  8
0Wymiary-PL
100
AcDbDimension
  2
*D70
 10
100772.5593699818
 20
108889.931683259
 30
0.0
 11
100407.5593699818
 21
108969.931683259
 31
0.0
 70
    32
 71
     5
 42
730.0000000000145
  3
500
100
AcDbAlignedDimension
 13
100042.5593699818
 23
108091.7127828004
 33
0.0
 14
100772.5593699818
 24
108461.7127828004
 34
0.0
 50
180.0
100
AcDbRotatedDimension
  0
LINE
  5
26D
330
2
100
AcDbEntity
  8
0Hatch
100
AcDbLine
 10
100742.5593699818
 20
108461.7127828004
 30
0.0
 11
100742.5593699818
 21
108579.2863759293
 31
0.0
  0
LINE
  5
26E
330
2
100
AcDbEntity
  8
0Hatch
100
AcDbLine
 10
100772.5593699818
 20
108461.7127828004
 30
0.0
 11
100772.5593699818
 21
108591.7127828004
 31
0.0
  0
LINE
  5
26F
330
2
100
AcDbEntity
  8
0Hatch
100
AcDbLine
 10
100072.5593699818
 20
108461.7127828004
 30
0.0
 11
100072.5593699818
 21
108579.2863759293
 31
0.0
  0
LINE
  5
270
330
2
100
AcDbEntity
  8
0Hatch
100
AcDbLine
 10
100042.5593699818
 20
108461.7127828004
 30
0.0
 11
100042.5593699818
 21
108591.7127828004
 31
0.0
  0
LINE
  5
278
330
2
100
AcDbEntity
  8
SCIANY
 62
   140
100
AcDbLine
 10
100102.5593699818
 20
108401.7127828004
 30
0.0
 11
100257.5593699818
 21
108401.7127828004
 31
0.0
  0
LINE
  5
282
330
2
100
AcDbEntity
  8
0Hatch
100
AcDbLine
 10
100772.5593699818
 20
108591.7127828004
 30
0.0
 11
100602.5593699818
 21
108761.7127828004
 31
0.0
  0
LINE
  5
283
330
2
100
AcDbEntity
  8
0Hatch
100
AcDbLine
 10
100042.5593699818
 20
108591.7127828004
 30
0.0
 11
100212.5593699818
 21
108761.7127828004
 31
0.0
  0
LINE
  5
284
330
2
100
AcDbEntity
  8
0Hatch
100
AcDbLine
 10
100212.5593699818
 20
108761.7127828004
 30
0.0
 11
100602.5593699818
 21
108761.7127828004
 31
0.0
  0
LINE
  5
285
330
2
100
AcDbEntity
  8
0Hatch
100
AcDbLine
 10
100742.5593699818
 20
108579.2863759293
 30
0.0
 11
100590.1329631107
 21
108731.7127828004
 31
0.0
  0
LINE
  5
286
330
2
100
AcDbEntity
  8
0Hatch
100
AcDbLine
 10
100072.5593699818
 20
108579.2863759293
 30
0.0
 11
100224.985776853
 21
108731.7127828004
 31
0.0
  0
LINE
  5
287
330
2
100
AcDbEntity
  8
0Hatch
100
AcDbLine
 10
100224.985776853
 20
108731.7127828004
 30
0.0
 11
100590.1329631107
 21
108731.7127828004
 31
0.0
  0
LWPOLYLINE
  5
5C1
330
2
100
AcDbEntity
  8
0Hatch
100
AcDbPolyline
 90
       25
 70
     0
 43
0.0
 10
100175.0593699818
 20
107361.7127828005
 10
100345.0593699818
 20
107361.7127828004
 10
100345.0593699818
 20
107301.7127828004
 10
100430.0593699818
 20
107301.7127828004
 10
100430.0593699818
 20
107361.7127828004
 10
100772.5593699818
 20
107361.7127828004
 10
100772.5593699818
 20
107741.7127828004
 10
100872.5593699818
 20
107841.7127828005
 10
100872.5593699818
 20
107981.7127828005
 10
100772.5593699818
 20
108081.7127828004
 10
100772.5593699818
 20
108461.7127828004
 10
100042.5593699818
 20
108461.7127828004
 10
100042.5593699818
 20
108091.7127828004
 10
99952.55936998178
 20
108091.7127828004
 10
99892.55936998187
 20
108151.7127828004
 10
99762.55936998184
 20
108151.7127828004
 10
99702.55936998187
 20
108091.7127828004
 10
99542.55936998183
 20
108091.7127828004
 10
99542.55936998183
 20
107584.7127828004
 10
99444.55936998185
 20
107584.7127828004
 10
99444.55936998185
 20
106912.2127828004
 10
100090.0593699818
 20
106912.2127828004
 10
100090.0593699818
 20
107301.7127828004
 10
100175.0593699818
 20
107301.7127828004
 10
100175.0593699819
 20
107361.7127828005
  0
LWPOLYLINE
  5
5C2
330
2
100
AcDbEntity
  8
0Hatch
100
AcDbPolyline
 90
       21
 70
     1
 43
0.0
 10
100115.0593699819
 20
107421.7127828005
 10
100405.0593699818
 20
107421.7127828004
 10
100712.5593699818
 20
107421.7127828005
 10
100712.5593699818
 20
107766.5655965428
 10
100812.5593699818
 20
107866.5655965428
 10
100812.5593699818
 20
107956.8599690581
 10
100712.5593699818
 20
108056.859969058
 10
100712.5593699818
 20
108401.7127828004
 10
100102.5593699818
 20
108401.7127828004
 10
100102.5593699818
 20
108031.7127828005
 10
99927.70655623937
 20
108031.7127828005
 10
99867.70655623946
 20
108091.7127828004
 10
99787.41218372425
 20
108091.7127828004
 10
99727.41218372426
 20
108031.7127828005
 10
99602.55936998184
 20
108031.7127828005
 10
99602.55936998184
 20
107524.7127828004
 10
99504.55936998185
 20
107524.7127828004
 10
99504.55936998185
 20
106972.2127828004
 10
100030.0593699818
 20
106972.2127828004
 10
100030.0593699818
 20
107361.7127828004
 10
100115.0593699819
 20
107361.7127828004
  0
LWPOLYLINE
  5
6DE
330
2
100
AcDbEntity
  8
0Hatch
100
AcDbPolyline
 90
        6
 70
     0
 43
60.0
 10
100175.0593699819
 20
107391.7127828005
 10
100145.0593699819
 20
107391.7127828005
 10
100145.0593699818
 20
107331.7127828004
 10
100060.0593699818
 20
107331.7127828004
 10
100060.0593699818
 20
106942.2127828004
 10
99977.55936998185
 20
106942.2127828004
  0
LWPOLYLINE
  5
6DF
330
2
100
AcDbEntity
  8
0Hatch
100
AcDbPolyline
 90
       18
 70
     0
 43
60.0
 10
99557.55936998185
 20
106942.2127828004
 10
99474.55936998185
 20
106942.2127828004
 10
99474.55936998185
 20
107554.7127828004
 10
99572.55936998183
 20
107554.7127828004
 10
99572.55936998183
 20
108061.7127828005
 10
99714.98577685308
 20
108061.7127828005
 10
99774.98577685304
 20
108121.7127828004
 10
99880.13296311066
 20
108121.7127828004
 10
99940.13296311058
 20
108061.7127828005
 10
100072.5593699818
 20
108061.7127828005
 10
100072.5593699818
 20
108431.7127828004
 10
100742.5593699818
 20
108431.7127828004
 10
100742.5593699818
 20
108069.2863759292
 10
100842.5593699818
 20
107969.2863759293
 10
100842.5593699818
 20
107854.1391896717
 10
100742.5593699818
 20
107754.1391896716
 10
100742.5593699818
 20
107391.7127828004
 10
100345.0593699819
 20
107391.7127828004
  0
LWPOLYLINE
  5
6E1
330
2
100
AcDbEntity
  8
0Hatch
100
AcDbPolyline
 90
        2
 70
     0
 43
85.0
 10
100387.5593699818
 20
107301.7127828004
 10
100387.5593699819
 20
107421.7127828004
  0
DIMENSION
  5
6F6
330
2
100
AcDbEntity
  8
0Wymiary-PL
100
AcDbDimension
  2
*D85
 10
96902.81067848665
 20
108461.7127828004
 30
0.0
 11
96822.81067848663
 21
107686.9627828004
 31
0.0
 70
    33
 71
     5
 42
1549.5
  3
500
100
AcDbAlignedDimension
 13
96698.07396396208
 23
106912.2127828004
 33
0.0
 14
96698.07396396208
 24
108461.7127828004
 34
0.0
  0
DIMENSION
  5
6F7
330
2
100
AcDbEntity
  8
0Wymiary-PL
100
AcDbDimension
  2
*D86
 10
94961.26743285998
 20
107365.7006154728
 30
0.0
 11
94881.26743285995
 21
107915.7006154728
 31
0.0
 70
    33
 71
     5
 42
1100.0
  3
500
100
AcDbAlignedDimension
 13
95175.34612107004
 23
108465.7006154728
 33
0.0
 14
95175.34612107004
 24
107365.7006154728
 34
0.0
  0
DIMENSION
  5
6F8
330
2
100
AcDbEntity
  8
0Wymiary-PL
100
AcDbDimension
  2
*D87
 10
95957.22336672906
 20
108889.931683259
 30
0.0
 11
96207.22336672907
 21
108969.9316832591
 31
0.0
 70
    32
 71
     5
 42
500.0
  3
500
100
AcDbAlignedDimension
 13
96457.22336672907
 23
107584.7127828004
 33
0.0
 14
95957.22336672906
 24
108091.7127828004
 34
0.0
 50
0.000000000000007
100
AcDbRotatedDimension
  0
DIMENSION
  5
6F9
330
2
100
AcDbEntity
  8
0Wymiary-PL
100
AcDbDimension
  2
*D88
 10
96457.22336672907
 20
108889.9316832591
 30
0.0
 11
96506.22336672906
 21
108969.9316832591
 31
0.0
 70
    33
 71
     5
 42
98.0
  3
500
100
AcDbAlignedDimension
 13
96555.22336672907
 23
107584.7127828004
 33
0.0
 14
96457.22336672907
 24
107584.7127828004
 34
0.0
  0
DIMENSION
  5
6FA
330
2
100
AcDbEntity
  8
0Wymiary-PL
100
AcDbDimension
  2
*D89
 10
96742.07396396209
 20
108091.7127828004
 30
0.0
 11
96662.07396396206
 21
107838.2127828005
 31
0.0
 70
    32
 71
     5
 42
507.0
  3
500
100
AcDbAlignedDimension
 13
96615.22336672907
 23
107584.7127828004
 33
0.0
 14
96517.22336672907
 24
108091.7127828004
 34
0.0
 50
270.0
100
AcDbRotatedDimension
  0
DIMENSION
  5
6FB
330
2
100
AcDbEntity
  8
0Wymiary-PL
100
AcDbDimension
  2
*D90
 10
95127.22336672908
 20
106744.3956567828
 30
0.0
 11
95177.22336672907
 21
106824.3956567828
 31
0.0
 70
    32
 71
     5
 42
100.0
  3
500
100
AcDbAlignedDimension
 13
95227.22336672908
 23
107317.8473088547
 33
0.0
 14
95127.22336672908
 24
107797.8473088547
 34
0.0
 50
0.000000000000007
100
AcDbRotatedDimension
  0
DIMENSION
  5
6FC
330
2
100
AcDbEntity
  8
0Wymiary-PL
100
AcDbDimension
  2
*D91
 10
96555.22336672907
 20
106549.8685461284
 30
0.0
 11
95891.22336672907
 21
106629.8685461283
 31
0.0
 70
    33
 71
     5
 42
1328.0
  3
500
100
AcDbAlignedDimension
 13
95227.22336672908
 23
107361.7127828004
 33
0.0
 14
96555.22336672907
 24
107361.7127828004
 34
0.0
  0
DIMENSION
  5
6FD
330
2
100
AcDbEntity
  8
0Wymiary-PL
100
AcDbDimension
  2
*D92
 10
95909.72336672907
 20
106744.3956567828
 30
0.0
 11
96232.47336672907
 21
106824.3956567828
 31
0.0
 70
    33
 71
     5
 42
645.5
  3
500
100
AcDbAlignedDimension
 13
96555.22336672907
 23
106868.3473088547
 33
0.0
 14
95909.72336672907
 24
106868.3473088547
 34
0.0
  0
DIMENSION
  5
6FE
330
2
100
AcDbEntity
  8
0Wymiary-PL
100
AcDbDimension
  2
*D93
 10
96742.07396396209
 20
107584.7127828004
 30
0.0
 11
96662.07396396206
 21
107248.4627828004
 31
0.0
 70
    33
 71
     5
 42
672.5
  3
500
100
AcDbAlignedDimension
 13
96615.22336672907
 23
106912.2127828004
 33
0.0
 14
96615.22336672907
 24
107584.7127828004
 34
0.0
  0
LINE
  5
6FF
330
2
100
AcDbEntity
  8
0Hatch
100
AcDbLine
 10
96442.22336672907
 20
106912.2127828004
 30
0.0
 11
96442.22336672905
 21
106972.2127828004
 31
0.0
  0
DIMENSION
  5
700
330
2
100
AcDbEntity
  8
0Wymiary-PL
100
AcDbDimension
  2
*D94
 10
94961.26743285998
 20
106916.2006154728
 30
0.0
 11
95041.26743286001
 21
107100.8670649096
 31
0.0
 70
   160
 71
     5
 42
389.4999999999854
  3
500
100
AcDbAlignedDimension
 13
95560.34612107007
 23
107305.7006154727
 33
0.0
 14
95857.84612107007
 24
106916.2006154728
 34
0.0
 50
90.0
100
AcDbRotatedDimension
  0
DIMENSION
  5
701
330
2
100
AcDbEntity
  8
0Wymiary-PL
100
AcDbDimension
  2
*D95
 10
95227.22336672908
 20
106744.3956567828
 30
0.0
 11
95568.47336672907
 21
106824.3956567828
 31
0.0
 70
    32
 71
     5
 42
682.5
  3
500
100
AcDbAlignedDimension
 13
95909.72336672907
 23
106868.3473088547
 33
0.0
 14
95227.22336672908
 24
107317.8473088547
 34
0.0
 50
0.000000000000007
100
AcDbRotatedDimension
  0
DIMENSION
  5
702
330
2
100
AcDbEntity
  8
0Wymiary-PL
100
AcDbDimension
  2
*D96
 10
94961.26743285998
 20
107305.7006154727
 30
0.0
 11
95041.26743286001
 21
107365.1140341468
 31
0.0
 70
   160
 71
     5
 42
60.00000000001455
  3
500
100
AcDbAlignedDimension
 13
95175.34612107004
 23
107365.7006154728
 33
0.0
 14
95560.34612107007
 24
107305.7006154727
 34
0.0
 50
90.0
100
AcDbRotatedDimension
  0
LINE
  5
703
330
2
100
AcDbEntity
  8
0Hatch
100
AcDbLine
 10
95526.22336672907
 20
107211.7127828004
 30
0.0
 11
95526.22336672907
 21
107361.7127828004
 31
0.0
  0
LINE
  5
704
330
2
100
AcDbEntity
  8
0Hatch
100
AcDbLine
 10
95496.22336672907
 20
107181.7127828004
 30
0.0
 11
95496.22336672907
 21
107361.7127828004
 31
0.0
  0
LINE
  5
705
330
2
100
AcDbEntity
  8
0Hatch
100
AcDbLine
 10
95569.72336672908
 20
107361.7127828004
 30
0.0
 11
95569.72336672908
 21
107301.7127828004
 31
0.0
  0
LINE
  5
706
330
2
100
AcDbEntity
  8
0Hatch
100
AcDbLine
 10
95227.22336672908
 20
107361.7127828004
 30
0.0
 11
95569.72336672908
 21
107361.7127828004
 31
0.0
  0
LINE
  5
707
330
2
100
AcDbEntity
  8
0Hatch
100
AcDbLine
 10
95654.72336672907
 20
107398.2127828005
 30
0.0
 11
95654.72336672907
 21
107398.2127828005
 31
0.0
  0
LINE
  5
708
330
2
100
AcDbEntity
  8
0Hatch
100
AcDbLine
 10
95824.72336672903
 20
107421.7127828005
 30
0.0
 11
95824.72336672907
 21
107301.7127828004
 31
0.0
  0
LINE
  5
709
330
2
100
AcDbEntity
  8
0Hatch
100
AcDbLine
 10
95654.72336672906
 20
107421.7127828005
 30
0.0
 11
95654.72336672907
 21
107301.7127828004
 31
0.0
  0
LINE
  5
70A
330
2
100
AcDbEntity
  8
0Hatch
100
AcDbLine
 10
95909.72336672907
 20
107181.7127828004
 30
0.0
 11
95496.22336672907
 21
107181.7127828004
 31
0.0
  0
LINE
  5
70B
330
2
100
AcDbEntity
  8
0Hatch
100
AcDbLine
 10
95909.72336672907
 20
107211.7127828004
 30
0.0
 11
95526.22336672907
 21
107211.7127828004
 31
0.0
  0
LINE
  5
70C
330
2
100
AcDbEntity
  8
0Hatch
100
AcDbLine
 10
95569.72336672908
 20
107301.7127828004
 30
0.0
 11
95654.72336672907
 21
107301.7127828004
 31
0.0
  0
LINE
  5
70D
330
2
100
AcDbEntity
  8
0Hatch
100
AcDbLine
 10
96022.22336672907
 20
106972.2127828004
 30
0.0
 11
96022.22336672907
 21
106912.2127828004
 31
0.0
  0
DIMENSION
  5
70E
330
2
100
AcDbEntity
  8
0Wymiary-PL
100
AcDbDimension
  2
*D97
 10
95127.22336672903
 20
109063.9406304471
 30
0.0
 11
95841.22336672903
 21
109143.9406304472
 31
0.0
 70
    33
 71
     5
 42
1428.000000000014
  3
500
100
AcDbAlignedDimension
 13
96555.22336672905
 23
108845.9316832591
 33
0.0
 14
95127.22336672904
 24
108845.9316832589
 34
0.0
  0
DIMENSION
  5
70F
330
2
100
AcDbEntity
  8
0Wymiary-PL
100
AcDbDimension
  2
*D98
 10
96742.07396396209
 20
108461.7127828004
 30
0.0
 11
96662.07396396206
 21
108276.7127828005
 31
0.0
 70
    32
 71
     5
 42
370.0
  3
500
100
AcDbAlignedDimension
 13
96517.22336672907
 23
108091.7127828004
 33
0.0
 14
96017.22336672906
 24
108461.7127828004
 34
0.0
 50
270.0
100
AcDbRotatedDimension
  0
DIMENSION
  5
710
330
2
100
AcDbEntity
  8
0Wymiary-PL
100
AcDbDimension
  2
*D99
 10
95127.22336672906
 20
108889.931683259
 30
0.0
 11
95177.22336672905
 21
108969.931683259
 31
0.0
 70
    32
 71
     5
 42
100.0
  3
500
100
AcDbAlignedDimension
 13
95227.22336672906
 23
108461.7127828004
 33
0.0
 14
95127.22336672906
 24
107981.7127828005
 34
0.0
 50
0.000000000000007
100
AcDbRotatedDimension
  0
DIMENSION
  5
711
330
2
100
AcDbEntity
  8
0Wymiary-PL
100
AcDbDimension
  2
*D84
 10
95227.22336672906
 20
108889.931683259
 30
0.0
 11
95592.22336672908
 21
108969.931683259
 31
0.0
 70
    32
 71
     5
 42
730.0000000000145
  3
500
100
AcDbAlignedDimension
 13
95957.22336672906
 23
108091.7127828004
 33
0.0
 14
95227.22336672906
 24
108461.7127828004
 34
0.0
 50
0.000000000000007
100
AcDbRotatedDimension
  0
LINE
  5
712
330
2
100
AcDbEntity
  8
0Hatch
100
AcDbLine
 10
95257.22336672908
 20
108461.7127828004
 30
0.0
 11
95257.22336672908
 21
108579.2863759293
 31
0.0
  0
LINE
  5
713
330
2
100
AcDbEntity
  8
0Hatch
100
AcDbLine
 10
95227.22336672908
 20
108461.7127828004
 30
0.0
 11
95227.22336672908
 21
108591.7127828004
 31
0.0
  0
LINE
  5
714
330
2
100
AcDbEntity
  8
0Hatch
100
AcDbLine
 10
95927.22336672908
 20
108461.7127828004
 30
0.0
 11
95927.22336672908
 21
108579.2863759293
 31
0.0
  0
LINE
  5
715
330
2
100
AcDbEntity
  8
0Hatch
100
AcDbLine
 10
95957.22336672906
 20
108461.7127828004
 30
0.0
 11
95957.22336672906
 21
108591.7127828004
 31
0.0
  0
LINE
  5
716
330
2
100
AcDbEntity
  8
SCIANY
 62
   140
100
AcDbLine
 10
95897.22336672908
 20
108401.7127828004
 30
0.0
 11
95742.22336672907
 21
108401.7127828004
 31
0.0
  0
LINE
  5
717
330
2
100
AcDbEntity
  8
0Hatch
100
AcDbLine
 10
95227.22336672908
 20
108591.7127828004
 30
0.0
 11
95397.22336672907
 21
108761.7127828004
 31
0.0
  0
LINE
  5
718
330
2
100
AcDbEntity
  8
0Hatch
100
AcDbLine
 10
95957.22336672906
 20
108591.7127828004
 30
0.0
 11
95787.22336672907
 21
108761.7127828004
 31
0.0
  0
LINE
  5
719
330
2
100
AcDbEntity
  8
0Hatch
100
AcDbLine
 10
95787.22336672907
 20
108761.7127828004
 30
0.0
 11
95397.22336672907
 21
108761.7127828004
 31
0.0
  0
LINE
  5
71A
330
2
100
AcDbEntity
  8
0Hatch
100
AcDbLine
 10
95257.22336672908
 20
108579.2863759293
 30
0.0
 11
95409.64977360024
 21
108731.7127828004
 31
0.0
  0
LINE
  5
71B
330
2
100
AcDbEntity
  8
0Hatch
100
AcDbLine
 10
95927.22336672908
 20
108579.2863759293
 30
0.0
 11
95774.79695985786
 21
108731.7127828004
 31
0.0
  0
LINE
  5
71C
330
2
100
AcDbEntity
  8
0Hatch
100
AcDbLine
 10
95774.79695985786
 20
108731.7127828004
 30
0.0
 11
95409.64977360024
 21
108731.7127828004
 31
0.0
  0
LWPOLYLINE
  5
71D
330
2
100
AcDbEntity
  8
0Hatch
100
AcDbPolyline
 90
       25
 70
     0
 43
0.0
 10
95824.72336672905
 20
107361.7127828005
 10
95654.72336672907
 20
107361.7127828004
 10
95654.72336672907
 20
107301.7127828004
 10
95569.72336672908
 20
107301.7127828004
 10
95569.72336672908
 20
107361.7127828004
 10
95227.22336672908
 20
107361.7127828004
 10
95227.22336672908
 20
107741.7127828004
 10
95127.22336672908
 20
107841.7127828005
 10
95127.22336672906
 20
107981.7127828005
 10
95227.22336672908
 20
108081.7127828004
 10
95227.22336672906
 20
108461.7127828004
 10
95957.22336672906
 20
108461.7127828004
 10
95957.22336672906
 20
108091.7127828004
 10
96047.22336672914
 20
108091.7127828004
 10
96107.22336672905
 20
108151.7127828004
 10
96237.22336672907
 20
108151.7127828004
 10
96297.22336672903
 20
108091.7127828004
 10
96457.22336672907
 20
108091.7127828004
 10
96457.22336672907
 20
107584.7127828004
 10
96555.22336672907
 20
107584.7127828004
 10
96555.22336672907
 20
106912.2127828004
 10
95909.72336672907
 20
106912.2127828004
 10
95909.72336672907
 20
107301.7127828004
 10
95824.72336672907
 20
107301.7127828004
 10
95824.72336672903
 20
107361.7127828005
  0
LWPOLYLINE
  5
71E
330
2
100
AcDbEntity
  8
0Hatch
100
AcDbPolyline
 90
       21
 70
     1
 43
0.0
 10
95884.72336672902
 20
107421.7127828005
 10
95594.72336672907
 20
107421.7127828004
 10
95287.22336672908
 20
107421.7127828005
 10
95287.22336672908
 20
107766.5655965428
 10
95187.22336672906
 20
107866.5655965428
 10
95187.22336672906
 20
107956.8599690581
 10
95287.22336672908
 20
108056.859969058
 10
95287.22336672906
 20
108401.7127828004
 10
95897.22336672908
 20
108401.7127828004
 10
95897.22336672908
 20
108031.7127828005
 10
96072.07618047155
 20
108031.7127828005
 10
96132.07618047146
 20
108091.7127828004
 10
96212.37055298667
 20
108091.7127828004
 10
96272.37055298664
 20
108031.7127828005
 10
96397.22336672907
 20
108031.7127828005
 10
96397.22336672907
 20
107524.7127828004
 10
96495.22336672907
 20
107524.7127828004
 10
96495.22336672907
 20
106972.2127828004
 10
95969.72336672907
 20
106972.2127828004
 10
95969.72336672907
 20
107361.7127828004
 10
95884.72336672904
 20
107361.7127828004
  0
LWPOLYLINE
  5
71F
330
2
100
AcDbEntity
  8
0Hatch
100
AcDbPolyline
 90
        6
 70
     0
 43
60.0
 10
95824.72336672903
 20
107391.7127828005
 10
95854.72336672903
 20
107391.7127828005
 10
95854.72336672905
 20
107331.7127828004
 10
95939.72336672907
 20
107331.7127828004
 10
95939.72336672907
 20
106942.2127828004
 10
96022.22336672907
 20
106942.2127828004
  0
LWPOLYLINE
  5
720
330
2
100
AcDbEntity
  8
0Hatch
100
AcDbPolyline
 90
       18
 70
     0
 43
60.0
 10
96442.22336672905
 20
106942.2127828004
 10
96525.22336672907
 20
106942.2127828004
 10
96525.22336672907
 20
107554.7127828004
 10
96427.22336672907
 20
107554.7127828004
 10
96427.22336672907
 20
108061.7127828005
 10
96284.79695985783
 20
108061.7127828005
 10
96224.79695985786
 20
108121.7127828004
 10
96119.64977360026
 20
108121.7127828004
 10
96059.64977360034
 20
108061.7127828005
 10
95927.22336672908
 20
108061.7127828005
 10
95927.22336672908
 20
108431.7127828004
 10
95257.22336672906
 20
108431.7127828004
 10
95257.22336672908
 20
108069.2863759292
 10
95157.22336672906
 20
107969.2863759293
 10
95157.22336672908
 20
107854.1391896717
 10
95257.22336672908
 20
107754.1391896716
 10
95257.22336672908
 20
107391.7127828004
 10
95654.72336672906
 20
107391.7127828004
  0
LWPOLYLINE
  5
721
330
2
100
AcDbEntity
  8
0Hatch
100
AcDbPolyline
 90
        2
 70
     0
 43
85.0
 10
95612.22336672907
 20
107301.7127828004
 10
95612.22336672901
 20
107421.7127828004
  0
ENDSEC
  0
SECTION
  2
OBJECTS
  0
DICTIONARY
  5
7
330
0
100
AcDbDictionary
281
     1
  3
ACAD_COLOR
350
36
  3
ACAD_GROUP
350
31
  3
ACAD_LAYOUT
350
D
  3
ACAD_MATERIAL
350
9
  3
ACAD_MLEADERSTYLE
350
2A0
  3
ACAD_MLINESTYLE
350
32
  3
ACAD_PLOTSETTINGS
350
33
  3
ACAD_PLOTSTYLENAME
350
6
  3
ACAD_SCALELIST
350
37
  3
ACAD_TABLESTYLE
350
38
  3
ACAD_VISUALSTYLE
350
10
  3
ACDB_RECOMPOSE_DATA
350
28C
  3
AcDbVariableDictionary
350
28D
  3
AEC_PROPERTY_SET_DEFS
350
446
  3
DWGPROPS
350
8B7
  0
DICTIONARY
  5
16
330
15
100
AcDbDictionary
280
     1
281
     1
  3
ACAD_LAYERSTATES
360
17
  0
DICTIONARY
  5
83C
330
4
100
AcDbDictionary
280
     1
281
     1
  3
ADSK_XREC_LAYER_RECONCILED
360
83D
  0
DICTIONARY
  5
83E
330
63
100
AcDbDictionary
280
     1
281
     1
  3
ADSK_XREC_LAYER_RECONCILED
360
83F
  0
DICTIONARY
  5
840
330
39
100
AcDbDictionary
280
     1
281
     1
  3
ADSK_XREC_LAYER_RECONCILED
360
841
  0
DICTIONARY
  5
842
330
A4
100
AcDbDictionary
280
     1
281
     1
  3
ADSK_XREC_LAYER_RECONCILED
360
843
  0
DICTIONARY
  5
844
330
B1
100
AcDbDictionary
280
     1
281
     1
  3
ADSK_XREC_LAYER_RECONCILED
360
845
  0
DICTIONARY
  5
846
330
A9
100
AcDbDictionary
280
     1
281
     1
  3
ADSK_XREC_LAYER_RECONCILED
360
847
  0
DICTIONARY
  5
35A
330
359
100
AcDbDictionary
280
     1
281
     1
  3
ADSK_XREC_LAYER_RECONCILED
360
848
  0
DICTIONARY
  5
35C
330
35B
100
AcDbDictionary
280
     1
281
     1
  3
ADSK_XREC_LAYER_RECONCILED
360
849
  0
DICTIONARY
  5
5C3
330
2
100
AcDbDictionary
280
     1
281
     1
  3
ACAD_SORTENTS
360
5C4
  0
DICTIONARY
  5
28
330
27
100
AcDbDictionary
280
     1
281
     1
  3
ACAD_SORTENTS
360
29
  0
DICTIONARY
  5
36
102
{ACAD_REACTORS
330
7
102
}
330
7
100
AcDbDictionary
281
     1
  0
DICTIONARY
  5
31
102
{ACAD_REACTORS
330
7
102
}
330
7
100
AcDbDictionary
281
     1
  0
DICTIONARY
  5
D
102
{ACAD_REACTORS
330
7
102
}
330
7
100
AcDbDictionary
281
     1
  3
Layout1
350
14
  3
Model
350
C
  0
DICTIONARY
  5
9
102
{ACAD_REACTORS
330
7
102
}
330
7
100
AcDbDictionary
281
     1
  3
ByBlock
350
35
  3
ByLayer
350
34
  3
Global
350
8
  0
DICTIONARY
  5
2A0
102
{ACAD_REACTORS
330
7
102
}
330
7
100
AcDbDictionary
281
     1
  3
Standard
350
2A1
  0
DICTIONARY
  5
32
102
{ACAD_REACTORS
330
7
102
}
330
7
100
AcDbDictionary
281
     1
  3
Standard
350
3A
  0
DICTIONARY
  5
33
102
{ACAD_REACTORS
330
7
102
}
330
7
100
AcDbDictionary
281
     1
  0
ACDBDICTIONARYWDFLT
  5
6
102
{ACAD_REACTORS
330
7
102
}
330
7
100
AcDbDictionary
281
     1
  3
Normal
350
5
100
AcDbDictionaryWithDefault
340
5
  0
DICTIONARY
  5
37
102
{ACAD_REACTORS
330
7
102
}
330
7
100
AcDbDictionary
281
     1
  3
*A1
350
362
  3
*A10
350
36B
  3
*A11
350
36C
  3
*A12
350
36D
  3
*A13
350
36E
  3
*A14
350
36F
  3
*A15
350
370
  3
*A16
350
371
  3
*A17
350
372
  3
*A18
350
373
  3
*A19
350
374
  3
*A2
350
363
  3
*A20
350
375
  3
*A21
350
376
  3
*A3
350
364
  3
*A4
350
365
  3
*A5
350
366
  3
*A6
350
367
  3
*A7
350
368
  3
*A8
350
369
  3
*A9
350
36A
  3
A0
350
3E
  3
A1
350
3F
  3
A2
350
40
  3
A3
350
41
  3
A4
350
42
  3
A5
350
43
  3
A6
350
44
  3
A7
350
45
  3
A8
350
46
  3
A9
350
47
  3
B0
350
48
  3
B1
350
49
  3
B2
350
4A
  3
B3
350
4B
  3
B4
350
4C
  3
B5
350
4D
  3
B6
350
4E
  3
B7
350
4F
  3
B8
350
50
  3
B9
350
51
  3
C0
350
52
  3
C1
350
53
  3
C2
350
54
  3
C3
350
55
  3
C4
350
56
  3
C5
350
57
  3
C6
350
58
  3
C7
350
59
  3
C8
350
5A
  3
C9
350
5B
  3
D0
350
5C
  3
D1
350
5D
  3
D2
350
5E
  0
DICTIONARY
  5
38
102
{ACAD_REACTORS
330
7
102
}
330
7
100
AcDbDictionary
281
     1
  3
Standard
350
3B
  0
DICTIONARY
  5
10
102
{ACAD_REACTORS
330
7
102
}
330
7
100
AcDbDictionary
281
     1
  3
2dWireframe
350
F
  3
3D Hidden
350
298
  3
3dWireframe
350
3D
  3
Basic
350
297
  3
Brighten
350
29B
  3
ColorChange
350
29F
  3
Conceptual
350
299
  3
Dim
350
29A
  3
Facepattern
350
29E
  3
Flat
350
293
  3
FlatWithEdges
350
294
  3
Gouraud
350
295
  3
GouraudWithEdges
350
296
  3
Linepattern
350
29D
  3
Phong
350
2A9
  3
PhongWithEdges
350
2AA
  3
Realistic
350
3C
  3
Thicken
350
29C
  0
XRECORD
  5
28C
102
{ACAD_REACTORS
330
7
102
}
330
7
100
AcDbXrecord
280
     1
 90
        1
330
3B
  0
DICTIONARY
  5
28D
102
{ACAD_REACTORS
330
7
102
}
330
7
100
AcDbDictionary
281
     1
  3
CANNOSCALE
350
290
  3
CMLEADERSTYLE
350
28F
  3
CTABLESTYLE
350
28E
  3
DIMASSOC
350
8B5
  3
HIDETEXT
350
8B4
  3
INDEXCTL
350
8B3
  3
LIGHTINGUNITS
350
291
  3
MSLTSCALE
350
8B1
  3
SORTENTS
350
8B2
  0
DICTIONARY
  5
446
102
{ACAD_REACTORS
330
7
102
}
330
7
100
AcDbDictionary
281
     1
  0
XRECORD
  5
8B7
102
{ACAD_REACTORS
330
7
102
}
330
7
100
AcDbXrecord
280
     1
  1
DWGPROPS COOKIE
  2

  3

  4

  6

  7

  8
beata.rzonca
  9

300
=
301
=
302
=
303
=
304
=
305
=
306
=
307
=
308
=
309
=
 40
7.893888506944444
 41
2452027.670547454
 42
2454956.524534861
  1

 90
        0
  0
DICTIONARY
  5
17
102
{ACAD_REACTORS
330
16
102
}
330
16
100
AcDbDictionary
281
     1
  0
XRECORD
  5
83D
102
{ACAD_REACTORS
330
83C
102
}
330
83C
100
AcDbXrecord
280
     1
290
     1
  0
XRECORD
  5
83F
102
{ACAD_REACTORS
330
83E
102
}
330
83E
100
AcDbXrecord
280
     1
290
     1
  0
XRECORD
  5
841
102
{ACAD_REACTORS
330
840
102
}
330
840
100
AcDbXrecord
280
     1
290
     1
  0
XRECORD
  5
843
102
{ACAD_REACTORS
330
842
102
}
330
842
100
AcDbXrecord
280
     1
290
     1
  0
XRECORD
  5
845
102
{ACAD_REACTORS
330
844
102
}
330
844
100
AcDbXrecord
280
     1
290
     1
  0
XRECORD
  5
847
102
{ACAD_REACTORS
330
846
102
}
330
846
100
AcDbXrecord
280
     1
290
     1
  0
XRECORD
  5
848
102
{ACAD_REACTORS
330
35A
102
}
330
35A
100
AcDbXrecord
280
     1
290
     1
  0
XRECORD
  5
849
102
{ACAD_REACTORS
330
35C
102
}
330
35C
100
AcDbXrecord
280
     1
290
     1
  0
SORTENTSTABLE
  5
5C4
102
{ACAD_REACTORS
330
5C3
102
}
330
5C3
100
AcDbSortentsTable
330
2
331
278
  5
278
331
22B
  5
22B
331
21A
  5
21A
331
1CB
  5
1CB
331
287
  5
287
331
218
  5
218
331
1E3
  5
1E3
331
285
  5
285
331
138
  5
138
331
216
  5
216
331
A7
  5
A7
331
1E1
  5
1E1
331
283
  5
283
331
214
  5
214
331
183
  5
183
331
212
  5
212
331
A3
  5
A3
331
270
  5
270
331
1EE
  5
1EE
331
26E
  5
26E
331
143
  5
143
331
18E
  5
18E
331
B0
  5
B0
331
5C1
  5
5C1
331
179
  5
179
331
21B
  5
21B
331
1F9
  5
1F9
331
14E
  5
14E
331
177
  5
177
331
219
  5
219
331
286
  5
286
331
15B
  5
15B
331
262
  5
262
331
284
  5
284
331
282
  5
282
331
213
  5
213
331
211
  5
211
331
255
  5
255
331
26F
  5
26F
331
166
  5
166
331
220
  5
220
331
26D
  5
26D
331
21E
  5
21E
331
AF
  5
AF
331
5C2
  5
6DC
331
21C
  5
21C
331
12D
  5
12D
  0
SORTENTSTABLE
  5
29
102
{ACAD_REACTORS
330
28
102
}
330
28
100
AcDbSortentsTable
330
27
  0
LAYOUT
  5
14
102
{ACAD_XDICTIONARY
360
8BC
102
}
102
{ACAD_REACTORS
330
D
102
}
330
D
100
AcDbPlotSettings
  1

  2
C:\PROGRAM FILES\AUTOCAD LT 2000\plotters\DWF ePlot.pc3
  4

  6

 40
0.0
 41
0.0
 42
0.0
 43
0.0
 44
0.0
 45
0.0
 46
0.0
 47
0.0
 48
0.0
 49
0.0
140
0.0
141
0.0
142
1.0
143
1.0
 70
   688
 72
     0
 73
     0
 74
     5
  7
100.ctb
 75
    16
147
1.0
148
0.0
149
0.0
100
AcDbLayout
  1
Layout1
 70
     1
 71
     1
 10
0.0
 20
0.0
 11
420.0
 21
297.0
 12
0.0
 22
0.0
 32
0.0
 14
1.000000000000000E+20
 24
1.000000000000000E+20
 34
1.000000000000000E+20
 15
-1.000000000000000E+20
 25
-1.000000000000000E+20
 35
-1.000000000000000E+20
146
0.0
 13
0.0
 23
0.0
 33
0.0
 16
1.0
 26
0.0
 36
0.0
 17
0.0
 27
1.0
 37
0.0
 76
     0
330
11
  0
LAYOUT
  5
C
102
{ACAD_XDICTIONARY
360
8BA
102
}
102
{ACAD_REACTORS
330
D
102
}
330
D
100
AcDbPlotSettings
  1

  2
CutePDF Writer
  4
A4
  6
DALIE_aneks
 40
3.174999952316284
 41
3.174999952316284
 42
3.175003051757812
 43
3.17498779296875
 44
209.8886566162109
 45
297.0530090332031
 46
0.0
 47
4.0
 48
153987.1987714436
 49
-40582.48303453432
140
164187.2021885476
141
-26562.48354589837
142
1.0
143
50.0
 70
 11952
 72
     1
 73
     0
 74
     3
  7
100.ctb
 75
    25
147
0.02
148
-225387.1523167869
149
-169717.5135321109
100
AcDbLayout
  1
Model
 70
     1
 71
     0
 10
0.0
 20
0.0
 11
12.0
 21
9.0
 12
0.0
 22
0.0
 32
0.0
 14
0.0
 24
0.0
 34
0.0
 15
0.0
 25
0.0
 35
0.0
146
0.0
 13
0.0
 23
0.0
 33
0.0
 16
1.0
 26
0.0
 36
0.0
 17
0.0
 27
1.0
 37
0.0
 76
     0
330
2
331
21
  0
MATERIAL
  5
35
102
{ACAD_XDICTIONARY
360
8C0
102
}
102
{ACAD_REACTORS
330
9
102
}
330
9
100
AcDbMaterial
  1
ByBlock
 73
     1
 78
     1
172
     1
176
     1
270
     1
274
     1
  0
MATERIAL
  5
34
102
{ACAD_XDICTIONARY
360
8BE
102
}
102
{ACAD_REACTORS
330
9
102
}
330
9
100
AcDbMaterial
  1
ByLayer
 73
     1
 78
     1
172
     1
176
     1
270
     1
274
     1
  0
MATERIAL
  5
8
102
{ACAD_XDICTIONARY
360
8B8
102
}
102
{ACAD_REACTORS
330
9
102
}
330
9
100
AcDbMaterial
  1
Global
 73
     1
 78
     1
172
     1
176
     1
270
     1
274
     1
  0
MLEADERSTYLE
  5
2A1
102
{ACAD_REACTORS
330
2A0
102
}
330
2A0
100
AcDbMLeaderStyle
170
     2
171
     1
172
     0
 90
        2
 40
0.0
 41
0.0
173
     1
 91
-1056964608
340
1C
 92
       -2
290
     1
 42
0.09
291
     1
 43
0.36
  3
Standard
 44
0.18
300

342
19
174
     1
178
     6
175
     1
176
     0
 93
-1056964608
 45
0.18
292
     0
297
     0
 46
0.18
 94
-1056964608
 47
1.0
 49
1.0
140
1.0
293
     1
141
0.0
294
     1
177
     0
142
1.0
295
     0
296
     0
143
0.125
1001
ACAD_MLEADERVER
1070
     2
  0
MLINESTYLE
  5
3A
102
{ACAD_REACTORS
330
32
102
}
330
32
100
AcDbMlineStyle
  2
STANDARD
 70
     0
  3

 62
   256
 51
90.0
 52
90.0
 71
     2
 49
0.5
 62
   256
  6
BYLAYER
 49
-0.5
 62
   256
  6
BYLAYER
  0
ACDBPLACEHOLDER
  5
5
102
{ACAD_REACTORS
330
6
102
}
330
6
  0
SCALE
  5
362
102
{ACAD_REACTORS
330
37
102
}
330
37
100
AcDbScale
 70
     0
300
1:10_1
140
1.0
141
1.0
290
     0
  0
SCALE
  5
36B
102
{ACAD_REACTORS
330
37
102
}
330
37
100
AcDbScale
 70
     0
300
1:10_2
140
1.0
141
10.0
290
     0
  0
SCALE
  5
36C
102
{ACAD_REACTORS
330
37
102
}
330
37
100
AcDbScale
 70
     0
300
1:20_2
140
1.0
141
20.0
290
     0
  0
SCALE
  5
36D
102
{ACAD_REACTORS
330
37
102
}
330
37
100
AcDbScale
 70
     0
300
1:50_2
140
1.0
141
50.0
290
     0
  0
SCALE
  5
36E
102
{ACAD_REACTORS
330
37
102
}
330
37
100
AcDbScale
 70
     0
300
1:100_2
140
1.0
141
100.0
290
     0
  0
SCALE
  5
36F
102
{ACAD_REACTORS
330
37
102
}
330
37
100
AcDbScale
 70
     0
300
1:1_1
140
1.0
141
0.1
290
     0
  0
SCALE
  5
370
102
{ACAD_REACTORS
330
37
102
}
330
37
100
AcDbScale
 70
     0
300
1:1_1_1
140
1.0
141
1.0
290
     0
  0
SCALE
  5
371
102
{ACAD_REACTORS
330
37
102
}
330
37
100
AcDbScale
 70
     0
300
1:2_1_1
140
1.0
141
2.0
290
     0
  0
SCALE
  5
372
102
{ACAD_REACTORS
330
37
102
}
330
37
100
AcDbScale
 70
     0
300
1:5_1_1
140
1.0
141
5.0
290
     0
  0
SCALE
  5
373
102
{ACAD_REACTORS
330
37
102
}
330
37
100
AcDbScale
 70
     0
300
1:10_1_1
140
1.0
141
10.0
290
     0
  0
SCALE
  5
374
102
{ACAD_REACTORS
330
37
102
}
330
37
100
AcDbScale
 70
     0
300
1:20_1_1
140
1.0
141
20.0
290
     0
  0
SCALE
  5
363
102
{ACAD_REACTORS
330
37
102
}
330
37
100
AcDbScale
 70
     0
300
1:2_1
140
1.0
141
0.2
290
     0
  0
SCALE
  5
375
102
{ACAD_REACTORS
330
37
102
}
330
37
100
AcDbScale
 70
     0
300
1:50_1_1
140
1.0
141
50.0
290
     0
  0
SCALE
  5
376
102
{ACAD_REACTORS
330
37
102
}
330
37
100
AcDbScale
 70
     0
300
1:100_1_1
140
1.0
141
100.0
290
     0
  0
SCALE
  5
364
102
{ACAD_REACTORS
330
37
102
}
330
37
100
AcDbScale
 70
     0
300
1:5_1
140
1.0
141
0.5
290
     0
  0
SCALE
  5
365
102
{ACAD_REACTORS
330
37
102
}
330
37
100
AcDbScale
 70
     0
300
1:20_1
140
1.0
141
2.0
290
     0
  0
SCALE
  5
366
102
{ACAD_REACTORS
330
37
102
}
330
37
100
AcDbScale
 70
     0
300
1:50_1
140
1.0
141
5.0
290
     0
  0
SCALE
  5
367
102
{ACAD_REACTORS
330
37
102
}
330
37
100
AcDbScale
 70
     0
300
1:100_1
140
1.0
141
10.0
290
     0
  0
SCALE
  5
368
102
{ACAD_REACTORS
330
37
102
}
330
37
100
AcDbScale
 70
     0
300
1:1_2
140
1.0
141
1.0
290
     0
  0
SCALE
  5
369
102
{ACAD_REACTORS
330
37
102
}
330
37
100
AcDbScale
 70
     0
300
1:2_2
140
1.0
141
2.0
290
     0
  0
SCALE
  5
36A
102
{ACAD_REACTORS
330
37
102
}
330
37
100
AcDbScale
 70
     0
300
1:5_2
140
1.0
141
5.0
290
     0
  0
SCALE
  5
3E
102
{ACAD_REACTORS
330
37
102
}
330
37
100
AcDbScale
 70
     0
300
1:1
140
1.0
141
1.0
290
     0
  0
SCALE
  5
3F
102
{ACAD_REACTORS
330
37
102
}
330
37
100
AcDbScale
 70
     0
300
1:2
140
1.0
141
2.0
290
     0
  0
SCALE
  5
40
102
{ACAD_REACTORS
330
37
102
}
330
37
100
AcDbScale
 70
     0
300
1:4
140
1.0
141
4.0
290
     0
  0
SCALE
  5
41
102
{ACAD_REACTORS
330
37
102
}
330
37
100
AcDbScale
 70
     0
300
1:5
140
1.0
141
5.0
290
     0
  0
SCALE
  5
42
102
{ACAD_REACTORS
330
37
102
}
330
37
100
AcDbScale
 70
     0
300
1:8
140
1.0
141
8.0
290
     0
  0
SCALE
  5
43
102
{ACAD_REACTORS
330
37
102
}
330
37
100
AcDbScale
 70
     0
300
1:10
140
1.0
141
10.0
290
     0
  0
SCALE
  5
44
102
{ACAD_REACTORS
330
37
102
}
330
37
100
AcDbScale
 70
     0
300
1:16
140
1.0
141
16.0
290
     0
  0
SCALE
  5
45
102
{ACAD_REACTORS
330
37
102
}
330
37
100
AcDbScale
 70
     0
300
1:20
140
1.0
141
20.0
290
     0
  0
SCALE
  5
46
102
{ACAD_REACTORS
330
37
102
}
330
37
100
AcDbScale
 70
     0
300
1:30
140
1.0
141
30.0
290
     0
  0
SCALE
  5
47
102
{ACAD_REACTORS
330
37
102
}
330
37
100
AcDbScale
 70
     0
300
1:40
140
1.0
141
40.0
290
     0
  0
SCALE
  5
48
102
{ACAD_REACTORS
330
37
102
}
330
37
100
AcDbScale
 70
     0
300
1:50
140
1.0
141
50.0
290
     0
  0
SCALE
  5
49
102
{ACAD_REACTORS
330
37
102
}
330
37
100
AcDbScale
 70
     0
300
1:100
140
1.0
141
100.0
290
     0
  0
SCALE
  5
4A
102
{ACAD_REACTORS
330
37
102
}
330
37
100
AcDbScale
 70
     0
300
2:1
140
2.0
141
1.0
290
     0
  0
SCALE
  5
4B
102
{ACAD_REACTORS
330
37
102
}
330
37
100
AcDbScale
 70
     0
300
4:1
140
4.0
141
1.0
290
     0
  0
SCALE
  5
4C
102
{ACAD_REACTORS
330
37
102
}
330
37
100
AcDbScale
 70
     0
300
8:1
140
8.0
141
1.0
290
     0
  0
SCALE
  5
4D
102
{ACAD_REACTORS
330
37
102
}
330
37
100
AcDbScale
 70
     0
300
10:1
140
10.0
141
1.0
290
     0
  0
SCALE
  5
4E
102
{ACAD_REACTORS
330
37
102
}
330
37
100
AcDbScale
 70
     0
300
100:1
140
100.0
141
1.0
290
     0
  0
SCALE
  5
4F
102
{ACAD_REACTORS
330
37
102
}
330
37
100
AcDbScale
 70
     0
300
1/128" = 1'-0"
140
0.0078125
141
12.0
290
     0
  0
SCALE
  5
50
102
{ACAD_REACTORS
330
37
102
}
330
37
100
AcDbScale
 70
     0
300
1/64" = 1'-0"
140
0.015625
141
12.0
290
     0
  0
SCALE
  5
51
102
{ACAD_REACTORS
330
37
102
}
330
37
100
AcDbScale
 70
     0
300
1/32" = 1'-0"
140
0.03125
141
12.0
290
     0
  0
SCALE
  5
52
102
{ACAD_REACTORS
330
37
102
}
330
37
100
AcDbScale
 70
     0
300
1/16" = 1'-0"
140
0.0625
141
12.0
290
     0
  0
SCALE
  5
53
102
{ACAD_REACTORS
330
37
102
}
330
37
100
AcDbScale
 70
     0
300
3/32" = 1'-0"
140
0.09375
141
12.0
290
     0
  0
SCALE
  5
54
102
{ACAD_REACTORS
330
37
102
}
330
37
100
AcDbScale
 70
     0
300
1/8" = 1'-0"
140
0.125
141
12.0
290
     0
  0
SCALE
  5
55
102
{ACAD_REACTORS
330
37
102
}
330
37
100
AcDbScale
 70
     0
300
3/16" = 1'-0"
140
0.1875
141
12.0
290
     0
  0
SCALE
  5
56
102
{ACAD_REACTORS
330
37
102
}
330
37
100
AcDbScale
 70
     0
300
1/4" = 1'-0"
140
0.25
141
12.0
290
     0
  0
SCALE
  5
57
102
{ACAD_REACTORS
330
37
102
}
330
37
100
AcDbScale
 70
     0
300
3/8" = 1'-0"
140
0.375
141
12.0
290
     0
  0
SCALE
  5
58
102
{ACAD_REACTORS
330
37
102
}
330
37
100
AcDbScale
 70
     0
300
1/2" = 1'-0"
140
0.5
141
12.0
290
     0
  0
SCALE
  5
59
102
{ACAD_REACTORS
330
37
102
}
330
37
100
AcDbScale
 70
     0
300
3/4" = 1'-0"
140
0.75
141
12.0
290
     0
  0
SCALE
  5
5A
102
{ACAD_REACTORS
330
37
102
}
330
37
100
AcDbScale
 70
     0
300
1" = 1'-0"
140
1.0
141
12.0
290
     0
  0
SCALE
  5
5B
102
{ACAD_REACTORS
330
37
102
}
330
37
100
AcDbScale
 70
     0
300
1-1/2" = 1'-0"
140
1.5
141
12.0
290
     0
  0
SCALE
  5
5C
102
{ACAD_REACTORS
330
37
102
}
330
37
100
AcDbScale
 70
     0
300
3" = 1'-0"
140
3.0
141
12.0
290
     0
  0
SCALE
  5
5D
102
{ACAD_REACTORS
330
37
102
}
330
37
100
AcDbScale
 70
     0
300
6" = 1'-0"
140
6.0
141
12.0
290
     0
  0
SCALE
  5
5E
102
{ACAD_REACTORS
330
37
102
}
330
37
100
AcDbScale
 70
     0
300
1'-0" = 1'-0"
140
12.0
141
12.0
290
     1
  0
TABLESTYLE
  5
3B
102
{ACAD_XDICTIONARY
360
28A
102
}
102
{ACAD_REACTORS
330
38
102
}
330
38
100
AcDbTableStyle
  3
Standard
 70
     0
 71
     0
 40
0.06
 41
0.06
280
     0
281
     0
  7
Standard
140
0.18
170
     2
 62
     0
 63
     7
283
     0
274
    -2
284
     1
 64
     0
275
    -2
285
     1
 65
     0
276
    -2
286
     1
 66
     0
277
    -2
287
     1
 67
     0
278
    -2
288
     1
 68
     0
279
    -2
289
     1
 69
     0
  7
Standard
140
0.25
170
     5
 62
     0
 63
     7
283
     0
274
    -2
284
     1
 64
     0
275
    -2
285
     1
 65
     0
276
    -2
286
     1
 66
     0
277
    -2
287
     1
 67
     0
278
    -2
288
     1
 68
     0
279
    -2
289
     1
 69
     0
  7
Standard
140
0.18
170
     5
 62
     0
 63
     7
283
     0
274
    -2
284
     1
 64
     0
275
    -2
285
     1
 65
     0
276
    -2
286
     1
 66
     0
277
    -2
287
     1
 67
     0
278
    -2
288
     1
 68
     0
279
    -2
289
     1
 69
     0
  0
VISUALSTYLE
  5
F
102
{ACAD_REACTORS
330
10
102
}
330
10
100
AcDbVisualStyle
  2
2dWireframe
 70
     4
 71
     0
 72
     2
 73
     0
 90
        0
 40
-0.6
 41
-30.0
 62
     5
 63
     7
 74
     1
 91
        4
 64
     7
 65
   257
 75
     1
175
     1
 42
1.0
 92
        0
 66
   257
 43
1.0
 76
     1
 77
     6
 78
     2
 67
     7
 79
     5
170
     0
171
     0
290
     0
174
     0
 93
        1
 44
0.0
173
     0
291
     0
 45
0.0
1001
ACAD
1000
AcDbSavedByObjectVersion
1070
     0
  0
VISUALSTYLE
  5
298
102
{ACAD_REACTORS
330
10
102
}
330
10
100
AcDbVisualStyle
  2
3D Hidden
 70
     6
 71
     1
 72
     2
 73
     2
 90
        0
 40
-0.6
 41
-30.0
 62
     5
 63
     7
 74
     2
 91
        2
 64
     7
 65
   257
 75
     2
175
     1
 42
40.0
 92
        0
 66
   257
 43
1.0
 76
     1
 77
     6
 78
     2
 67
     7
 79
     3
170
     0
171
     0
290
     0
174
     0
 93
        1
 44
0.0
173
     0
291
     0
 45
0.0
1001
ACAD
1000
AcDbSavedByObjectVersion
1070
     0
  0
VISUALSTYLE
  5
3D
102
{ACAD_REACTORS
330
10
102
}
330
10
100
AcDbVisualStyle
  2
3dWireframe
 70
     5
 71
     0
 72
     2
 73
     0
 90
        0
 40
-0.6
 41
-30.0
 62
     5
 63
     7
 74
     1
 91
        4
 64
     7
 65
   257
 75
     1
175
     1
 42
1.0
 92
        0
 66
   257
 43
1.0
 76
     1
 77
     6
 78
     2
 67
     7
 79
     5
170
     0
171
     0
290
     0
174
     0
 93
        1
 44
0.0
173
     0
291
     0
 45
0.0
1001
ACAD
1000
AcDbSavedByObjectVersion
1070
     0
  0
VISUALSTYLE
  5
297
102
{ACAD_REACTORS
330
10
102
}
330
10
100
AcDbVisualStyle
  2
Basic
 70
     7
 71
     1
 72
     0
 73
     1
 90
        0
 40
-0.6
 41
-30.0
 62
     5
 63
     7
 74
     0
 91
        4
 64
     7
 65
   257
 75
     1
175
     1
 42
1.0
 92
        8
 66
     7
 43
1.0
 76
     1
 77
     6
 78
     2
 67
     7
 79
     5
170
     0
171
     0
290
     0
174
     0
 93
        1
 44
0.0
173
     0
291
     1
 45
0.0
1001
ACAD
1000
AcDbSavedByObjectVersion
1070
     0
  0
VISUALSTYLE
  5
29B
102
{ACAD_REACTORS
330
10
102
}
330
10
100
AcDbVisualStyle
  2
Brighten
 70
    12
 71
     2
 72
     2
 73
     0
 90
        0
 40
-0.6
 41
-30.0
 62
     5
 63
     7
 74
     1
 91
        4
 64
     7
 65
   257
 75
     1
175
     1
 42
1.0
 92
        8
 66
     7
 43
1.0
 76
     1
 77
     6
 78
     2
 67
     7
 79
     5
170
     0
171
     0
290
     0
174
     0
 93
        1
 44
50.0
173
     0
291
     1
 45
0.0
1001
ACAD
1000
AcDbSavedByObjectVersion
1070
     0
  0
VISUALSTYLE
  5
29F
102
{ACAD_REACTORS
330
10
102
}
330
10
100
AcDbVisualStyle
  2
ColorChange
 70
    16
 71
     2
 72
     2
 73
     3
 90
        0
 40
-0.6
 41
-30.0
 62
     5
 63
     8
 74
     1
 91
        4
 64
     7
 65
   257
 75
     1
175
     1
 42
1.0
 92
        8
 66
     8
 43
1.0
 76
     1
 77
     6
 78
     2
 67
     7
 79
     5
170
     0
171
     0
290
     0
174
     0
 93
        1
 44
0.0
173
     0
291
     1
 45
0.0
1001
ACAD
1000
AcDbSavedByObjectVersion
1070
     0
  0
VISUALSTYLE
  5
299
102
{ACAD_REACTORS
330
10
102
}
330
10
100
AcDbVisualStyle
  2
Conceptual
 70
     9
 71
     3
 72
     2
 73
     0
 90
        0
 40
-0.6
 41
-30.0
 62
     5
 63
     7
 74
     2
 91
        2
 64
     7
 65
   257
 75
     1
175
     1
 42
40.0
 92
        8
 66
     7
 43
1.0
 76
     1
 77
     6
 78
     2
 67
     7
 79
     3
170
     0
171
     0
290
     0
174
     0
 93
        1
 44
0.0
173
     0
291
     0
 45
0.0
1001
ACAD
1000
AcDbSavedByObjectVersion
1070
     0
  0
VISUALSTYLE
  5
29A
102
{ACAD_REACTORS
330
10
102
}
330
10
100
AcDbVisualStyle
  2
Dim
 70
    11
 71
     2
 72
     2
 73
     0
 90
        0
 40
-0.6
 41
-30.0
 62
     5
 63
     7
 74
     1
 91
        4
 64
     7
 65
   257
 75
     1
175
     1
 42
1.0
 92
        8
 66
     7
 43
1.0
 76
     1
 77
     6
 78
     2
 67
     7
 79
     5
170
     0
171
     0
290
     0
174
     0
 93
        1
 44
-50.0
173
     0
291
     1
 45
0.0
1001
ACAD
1000
AcDbSavedByObjectVersion
1070
     0
  0
VISUALSTYLE
  5
29E
102
{ACAD_REACTORS
330
10
102
}
330
10
100
AcDbVisualStyle
  2
Facepattern
 70
    15
 71
     2
 72
     2
 73
     0
 90
        0
 40
-0.6
 41
-30.0
 62
     5
 63
     7
 74
     1
 91
        4
 64
     7
 65
   257
 75
     1
175
     1
 42
1.0
 92
        8
 66
     7
 43
1.0
 76
     1
 77
     6
 78
     2
 67
     7
 79
     5
170
     0
171
     0
290
     0
174
     0
 93
        1
 44
0.0
173
     0
291
     1
 45
0.0
1001
ACAD
1000
AcDbSavedByObjectVersion
1070
     0
  0
VISUALSTYLE
  5
293
102
{ACAD_REACTORS
330
10
102
}
330
10
100
AcDbVisualStyle
  2
Flat
 70
     0
 71
     2
 72
     1
 73
     1
 90
        2
 40
-0.6
 41
30.0
 62
     5
 63
     7
 74
     0
 91
        4
 64
     7
 65
   257
 75
     1
175
     1
 42
1.0
 92
        8
 66
     7
 43
1.0
 76
     1
 77
     6
 78
     2
 67
     7
 79
     5
170
     0
171
     0
290
     0
174
     0
 93
       13
 44
0.0
173
     0
291
     0
 45
0.0
1001
ACAD
1000
AcDbSavedByObjectVersion
1070
     0
  0
VISUALSTYLE
  5
294
102
{ACAD_REACTORS
330
10
102
}
330
10
100
AcDbVisualStyle
  2
FlatWithEdges
 70
     1
 71
     2
 72
     1
 73
     1
 90
        2
 40
-0.6
 41
30.0
 62
     5
 63
     7
 74
     1
 91
        4
 64
     7
 65
   257
 75
     1
175
     1
 42
1.0
 92
        0
 66
   257
 43
1.0
 76
     1
 77
     6
 78
     2
 67
     7
 79
     5
170
     0
171
     0
290
     0
174
     0
 93
       13
 44
0.0
173
     0
291
     0
 45
0.0
1001
ACAD
1000
AcDbSavedByObjectVersion
1070
     0
  0
VISUALSTYLE
  5
295
102
{ACAD_REACTORS
330
10
102
}
330
10
100
AcDbVisualStyle
  2
Gouraud
 70
     2
 71
     2
 72
     2
 73
     1
 90
        2
 40
-0.6
 41
30.0
 62
     5
 63
     7
 74
     0
 91
        4
 64
     7
 65
   257
 75
     1
175
     1
 42
1.0
 92
        0
 66
     7
 43
1.0
 76
     1
 77
     6
 78
     2
 67
     7
 79
     5
170
     0
171
     0
290
     0
174
     0
 93
       13
 44
0.0
173
     0
291
     0
 45
0.0
1001
ACAD
1000
AcDbSavedByObjectVersion
1070
     0
  0
VISUALSTYLE
  5
296
102
{ACAD_REACTORS
330
10
102
}
330
10
100
AcDbVisualStyle
  2
GouraudWithEdges
 70
     3
 71
     2
 72
     2
 73
     1
 90
        2
 40
-0.6
 41
30.0
 62
     5
 63
     7
 74
     1
 91
        4
 64
     7
 65
   257
 75
     1
175
     1
 42
1.0
 92
        0
 66
   257
 43
1.0
 76
     1
 77
     6
 78
     2
 67
     7
 79
     5
170
     0
171
     0
290
     0
174
     0
 93
       13
 44
0.0
173
     0
291
     0
 45
0.0
1001
ACAD
1000
AcDbSavedByObjectVersion
1070
     0
  0
VISUALSTYLE
  5
29D
102
{ACAD_REACTORS
330
10
102
}
330
10
100
AcDbVisualStyle
  2
Linepattern
 70
    14
 71
     2
 72
     2
 73
     0
 90
        0
 40
-0.6
 41
-30.0
 62
     5
 63
     7
 74
     1
 91
        4
 64
     7
 65
   257
 75
     7
175
     7
 42
1.0
 92
        8
 66
     7
 43
1.0
 76
     1
 77
     6
 78
     2
 67
     7
 79
     5
170
     0
171
     0
290
     0
174
     0
 93
        1
 44
0.0
173
     0
291
     1
 45
0.0
1001
ACAD
1000
AcDbSavedByObjectVersion
1070
     0
  0
VISUALSTYLE
  5
2A9
102
{ACAD_REACTORS
330
10
102
}
330
10
100
AcDbVisualStyle
  2

 70
     8
 71
     2
 72
     2
 73
     0
 90
        0
 40
-0.6
 41
-30.0
 62
     5
 63
     7
 74
     0
 91
        0
 64
     7
 65
   257
 75
     1
175
     1
 42
1.0
 92
        8
 66
     8
 43
1.0
 76
     1
 77
     6
 78
     2
 67
     7
 79
     5
170
     0
171
     0
290
     0
174
     0
 93
       13
 44
0.0
173
     0
291
     0
 45
0.0
1001
ACAD
1000
AcDbSavedByObjectVersion
1070
     0
  0
VISUALSTYLE
  5
2AA
102
{ACAD_REACTORS
330
10
102
}
330
10
100
AcDbVisualStyle
  2

 70
     8
 71
     2
 72
     2
 73
     0
 90
        0
 40
-0.6
 41
-30.0
 62
     5
 63
     7
 74
     1
 91
        0
 64
     7
 65
   257
 75
     1
175
     1
 42
1.0
 92
        8
 66
     8
 43
1.0
 76
     1
 77
     6
 78
     2
 67
     7
 79
     5
170
     0
171
     0
290
     0
174
     0
 93
       13
 44
0.0
173
     0
291
     0
 45
0.0
1001
ACAD
1000
AcDbSavedByObjectVersion
1070
     0
  0
VISUALSTYLE
  5
3C
102
{ACAD_REACTORS
330
10
102
}
330
10
100
AcDbVisualStyle
  2
Realistic
 70
     8
 71
     2
 72
     2
 73
     0
 90
        0
 40
-0.6
 41
-30.0
 62
     5
 63
     7
 74
     1
 91
        0
 64
     7
 65
   257
 75
     1
175
     1
 42
1.0
 92
        8
 66
     8
 43
1.0
 76
     1
 77
     6
 78
     2
 67
     7
 79
     5
170
     0
171
     0
290
     0
174
     0
 93
       13
 44
0.0
173
     0
291
     0
 45
0.0
1001
ACAD
1000
AcDbSavedByObjectVersion
1070
     0
  0
VISUALSTYLE
  5
29C
102
{ACAD_REACTORS
330
10
102
}
330
10
100
AcDbVisualStyle
  2
Thicken
 70
    13
 71
     2
 72
     2
 73
     0
 90
        0
 40
-0.6
 41
-30.0
 62
     5
 63
     7
 74
     1
 91
        4
 64
     7
 65
   257
 75
     1
175
     1
 42
1.0
 92
       12
 66
     7
 43
1.0
 76
     1
 77
     6
 78
     2
 67
     7
 79
     5
170
     0
171
     0
290
     0
174
     0
 93
        1
 44
0.0
173
     0
291
     1
 45
0.0
1001
ACAD
1000
AcDbSavedByObjectVersion
1070
     0
  0
DICTIONARYVAR
  5
290
102
{ACAD_REACTORS
330
28D
102
}
330
28D
100
DictionaryVariables
280
     0
  1
1/8" = 1'-0"
  0
DICTIONARYVAR
  5
28F
102
{ACAD_REACTORS
330
28D
102
}
330
28D
100
DictionaryVariables
280
     0
  1
STANDARD
  0
DICTIONARYVAR
  5
28E
102
{ACAD_REACTORS
330
28D
102
}
330
28D
100
DictionaryVariables
280
     0
  1
STANDARD
  0
DICTIONARYVAR
  5
8B5
102
{ACAD_REACTORS
330
28D
102
}
330
28D
100
DictionaryVariables
280
     0
  1
1
  0
DICTIONARYVAR
  5
8B4
102
{ACAD_REACTORS
330
28D
102
}
330
28D
100
DictionaryVariables
280
     0
  1
1
  0
DICTIONARYVAR
  5
8B3
102
{ACAD_REACTORS
330
28D
102
}
330
28D
100
DictionaryVariables
280
     0
  1
0
  0
DICTIONARYVAR
  5
291
102
{ACAD_REACTORS
330
28D
102
}
330
28D
100
DictionaryVariables
280
     0
  1
0
  0
DICTIONARYVAR
  5
8B1
102
{ACAD_REACTORS
330
28D
102
}
330
28D
100
DictionaryVariables
280
     0
  1
1
  0
DICTIONARYVAR
  5
8B2
102
{ACAD_REACTORS
330
28D
102
}
330
28D
100
DictionaryVariables
280
     0
  1
127
  0
DICTIONARY
  5
8BC
330
14
100
AcDbDictionary
280
     1
281
     1
  3
ACAD_XREC_ROUNDTRIP
360
8BD
  0
DICTIONARY
  5
8BA
330
C
100
AcDbDictionary
280
     1
281
     1
  3
ACAD_XREC_ROUNDTRIP
360
8BB
  0
DICTIONARY
  5
8C0
330
35
100
AcDbDictionary
280
     1
281
     1
  3
ACAD_XREC_ROUNDTRIP
360
8C1
  0
DICTIONARY
  5
8BE
330
34
100
AcDbDictionary
280
     1
281
     1
  3
ACAD_XREC_ROUNDTRIP
360
8BF
  0
DICTIONARY
  5
8B8
330
8
100
AcDbDictionary
280
     1
281
     1
  3
ACAD_XREC_ROUNDTRIP
360
8B9
  0
DICTIONARY
  5
28A
330
3B
100
AcDbDictionary
280
     1
281
     1
  3
ACAD_ROUNDTRIP_2008_TABLESTYLE_CELLSTYLEMAP
360
8B6
  3
ACAD_XREC_ROUNDTRIP
360
8C2
  0
XRECORD
  5
8BD
102
{ACAD_REACTORS
330
8BC
102
}
330
8BC
100
AcDbXrecord
280
     1
102
SHADEPLOT
 70
     0
102
SHADEPLOTRESLEVEL
 70
     2
102
SHADEPLOTCUSTOMDPI
 70
   300
  0
XRECORD
  5
8BB
102
{ACAD_REACTORS
330
8BA
102
}
330
8BA
100
AcDbXrecord
280
     1
102
SHADEPLOT
 70
     1
102
SHADEPLOTRESLEVEL
 70
     2
102
SHADEPLOTCUSTOMDPI
 70
   300
  0
XRECORD
  5
8C1
102
{ACAD_REACTORS
330
8C0
102
}
330
8C0
100
AcDbXrecord
280
     1
102
MATERIAL
148
0.0
149
0.0
149
0.0
 93
        0
 94
       63
282
     0
 72
     1
 77
     1
171
     1
175
     1
179
     1
273
     0
  0
XRECORD
  5
8BF
102
{ACAD_REACTORS
330
8BE
102
}
330
8BE
100
AcDbXrecord
280
     1
102
MATERIAL
148
0.0
149
0.0
149
0.0
 93
        0
 94
       63
282
     0
 72
     1
 77
     1
171
     1
175
     1
179
     1
273
     0
  0
XRECORD
  5
8B9
102
{ACAD_REACTORS
330
8B8
102
}
330
8B8
100
AcDbXrecord
280
     1
102
MATERIAL
148
0.0
149
0.0
149
0.0
 93
        0
 94
       63
282
     0
 72
     1
 77
     1
171
     1
175
     1
179
     1
273
     0
  0
CELLSTYLEMAP
  5
8B6
102
{ACAD_REACTORS
330
28A
102
}
330
28A
100
AcDbCellStyleMap
 90
        3
300
CELLSTYLE
  1
TABLEFORMAT_BEGIN
 90
        5
170
     1
 91
        0
 92
    32768
 62
   257
 93
        1
300
CONTENTFORMAT
  1
CONTENTFORMAT_BEGIN
 90
        0
 91
        0
 92
        4
 93
        0
300

 40
0.0
140
1.0
 94
        5
 62
     0
340
19
144
0.25
309
CONTENTFORMAT_END
171
     0
 94
        6
 95
        1
302
GRIDFORMAT
  1
GRIDFORMAT_BEGIN
 90
        0
 91
        1
 62
     0
 92
       -2
340
0
 93
        0
 40
0.045
309
GRIDFORMAT_END
 95
        2
302
GRIDFORMAT
  1
GRIDFORMAT_BEGIN
 90
        0
 91
        1
 62
     0
 92
       -2
340
0
 93
        0
 40
0.045
309
GRIDFORMAT_END
 95
        4
302
GRIDFORMAT
  1
GRIDFORMAT_BEGIN
 90
        0
 91
        1
 62
     0
 92
       -2
340
0
 93
        0
 40
0.045
309
GRIDFORMAT_END
 95
        8
302
GRIDFORMAT
  1
GRIDFORMAT_BEGIN
 90
        0
 91
        1
 62
     0
 92
       -2
340
0
 93
        0
 40
0.045
309
GRIDFORMAT_END
 95
       16
302
GRIDFORMAT
  1
GRIDFORMAT_BEGIN
 90
        0
 91
        1
 62
     0
 92
       -2
340
0
 93
        0
 40
0.045
309
GRIDFORMAT_END
 95
       32
302
GRIDFORMAT
  1
GRIDFORMAT_BEGIN
 90
        0
 91
        1
 62
     0
 92
       -2
340
0
 93
        0
 40
0.045
309
GRIDFORMAT_END
309
TABLEFORMAT_END
  1
CELLSTYLE_BEGIN
 90
        1
 91
        1
300
_TITLE
309
CELLSTYLE_END
300
CELLSTYLE
  1
TABLEFORMAT_BEGIN
 90
        5
170
     1
 91
        0
 92
        0
 62
   257
 93
        1
300
CONTENTFORMAT
  1
CONTENTFORMAT_BEGIN
 90
        0
 91
        0
 92
        4
 93
        0
300

 40
0.0
140
1.0
 94
        5
 62
     0
340
19
144
0.18
309
CONTENTFORMAT_END
171
     0
 94
        6
 95
        1
302
GRIDFORMAT
  1
GRIDFORMAT_BEGIN
 90
        0
 91
        1
 62
     0
 92
       -2
340
0
 93
        0
 40
0.045
309
GRIDFORMAT_END
 95
        2
302
GRIDFORMAT
  1
GRIDFORMAT_BEGIN
 90
        0
 91
        1
 62
     0
 92
       -2
340
0
 93
        0
 40
0.045
309
GRIDFORMAT_END
 95
        4
302
GRIDFORMAT
  1
GRIDFORMAT_BEGIN
 90
        0
 91
        1
 62
     0
 92
       -2
340
0
 93
        0
 40
0.045
309
GRIDFORMAT_END
 95
        8
302
GRIDFORMAT
  1
GRIDFORMAT_BEGIN
 90
        0
 91
        1
 62
     0
 92
       -2
340
0
 93
        0
 40
0.045
309
GRIDFORMAT_END
 95
       16
302
GRIDFORMAT
  1
GRIDFORMAT_BEGIN
 90
        0
 91
        1
 62
     0
 92
       -2
340
0
 93
        0
 40
0.045
309
GRIDFORMAT_END
 95
       32
302
GRIDFORMAT
  1
GRIDFORMAT_BEGIN
 90
        0
 91
        1
 62
     0
 92
       -2
340
0
 93
        0
 40
0.045
309
GRIDFORMAT_END
309
TABLEFORMAT_END
  1
CELLSTYLE_BEGIN
 90
        2
 91
        1
300
_HEADER
309
CELLSTYLE_END
300
CELLSTYLE
  1
TABLEFORMAT_BEGIN
 90
        5
170
     1
 91
        0
 92
        0
 62
   257
 93
        1
300
CONTENTFORMAT
  1
CONTENTFORMAT_BEGIN
 90
        0
 91
        0
 92
        4
 93
        0
300

 40
0.0
140
1.0
 94
        2
 62
     0
340
19
144
0.18
309
CONTENTFORMAT_END
171
     0
 94
        6
 95
        1
302
GRIDFORMAT
  1
GRIDFORMAT_BEGIN
 90
        0
 91
        1
 62
     0
 92
       -2
340
0
 93
        0
 40
0.045
309
GRIDFORMAT_END
 95
        2
302
GRIDFORMAT
  1
GRIDFORMAT_BEGIN
 90
        0
 91
        1
 62
     0
 92
       -2
340
0
 93
        0
 40
0.045
309
GRIDFORMAT_END
 95
        4
302
GRIDFORMAT
  1
GRIDFORMAT_BEGIN
 90
        0
 91
        1
 62
     0
 92
       -2
340
0
 93
        0
 40
0.045
309
GRIDFORMAT_END
 95
        8
302
GRIDFORMAT
  1
GRIDFORMAT_BEGIN
 90
        0
 91
        1
 62
     0
 92
       -2
340
0
 93
        0
 40
0.045
309
GRIDFORMAT_END
 95
       16
302
GRIDFORMAT
  1
GRIDFORMAT_BEGIN
 90
        0
 91
        1
 62
     0
 92
       -2
340
0
 93
        0
 40
0.045
309
GRIDFORMAT_END
 95
       32
302
GRIDFORMAT
  1
GRIDFORMAT_BEGIN
 90
        0
 91
        1
 62
     0
 92
       -2
340
0
 93
        0
 40
0.045
309
GRIDFORMAT_END
309
TABLEFORMAT_END
  1
CELLSTYLE_BEGIN
 90
        3
 91
        2
300
_DATA
309
CELLSTYLE_END
  0
XRECORD
  5
8C2
102
{ACAD_REACTORS
330
28A
102
}
330
28A
100
AcDbXrecord
280
     1
102
ACAD_ROUNDTRIP_PRE2007_TABLESTYLE
 90
        4
 91
        0
  1

 92
        4
 93
        0
  2

 94
        4
 95
        0
  3

  0
ENDSEC
  0
EOF
