  0
SECTION
  2
HEADER
  9
$ACADVER
  1
AC1015
  9
$ACADMAINTVER
 70
    20
  9
$DWGCODEPAGE
  3
ANSI_1250
  9
$INSBASE
 10
9677.351579171606
 20
1189.596440029025
 30
0.0000000000031697
  9
$EXTMIN
 10
55955.29776981013
 20
-12830.40384687605
 30
-0.0000000000000302
  9
$EXTMAX
 10
66155.29776981015
 20
1189.596153123944
 30
0.0
  9
$LIMMIN
 10
0.0
 20
0.0
  9
$LIMMAX
 10
12.0
 20
9.0
  9
$ORTHOMODE
 70
     1
  9
$REGENMODE
 70
     1
  9
$FILLMODE
 70
     1
  9
$QTEXTMODE
 70
     0
  9
$MIRRTEXT
 70
     0
  9
$LTSCALE
 40
75.0
  9
$ATTMODE
 70
     1
  9
$TEXTSIZE
 40
0.2
  9
$TRACEWID
 40
40.0
  9
$TEXTSTYLE
  7
STANDARD
  9
$CLAYER
  8
0Wymiary-PL
  9
$CELTYPE
  6
BYLAYER
  9
$CECOLOR
 62
    54
  9
$CELTSCALE
 40
4.0
  9
$DISPSILH
 70
     0
  9
$DIMSCALE
 40
1.0
  9
$DIMASZ
 40
30.0
  9
$DIMEXO
 40
43.0
  9
$DIMDLI
 40
0.0
  9
$DIMRND
 40
0.5
  9
$DIMDLE
 40
12.0
  9
$DIMEXE
 40
13.0
  9
$DIMTP
 40
0.0
  9
$DIMTM
 40
0.0
  9
$DIMTXT
 40
80.0
  9
$DIMCEN
 40
0.0
  9
$DIMTSZ
 40
0.0
  9
$DIMTOL
 70
     0
  9
$DIMLIM
 70
     0
  9
$DIMTIH
 70
     0
  9
$DIMTOH
 70
     0
  9
$DIMSE1
 70
     1
  9
$DIMSE2
 70
     1
  9
$DIMTAD
 70
     0
  9
$DIMZIN
 70
    12
  9
$DIMBLK
  1
B-DIM
  9
$DIMASO
 70
     1
  9
$DIMSHO
 70
     1
  9
$DIMPOST
  1

  9
$DIMAPOST
  1

  9
$DIMALT
 70
     0
  9
$DIMALTD
 70
     2
  9
$DIMALTF
 40
25.4
  9
$DIMLFAC
 40
1.0
  9
$DIMTOFL
 70
     1
  9
$DIMTVP
 40
1.0
  9
$DIMTIX
 70
     1
  9
$DIMSOXD
 70
     0
  9
$DIMSAH
 70
     0
  9
$DIMBLK1
  1

  9
$DIMBLK2
  1

  9
$DIMSTYLE
  2
500
  9
$DIMCLRD
 70
     1
  9
$DIMCLRE
 70
     1
  9
$DIMCLRT
 70
   140
  9
$DIMTFAC
 40
1.0
  9
$DIMGAP
 40
0.0
  9
$DIMJUST
 70
     0
  9
$DIMSD1
 70
     0
  9
$DIMSD2
 70
     0
  9
$DIMTOLJ
 70
     1
  9
$DIMTZIN
 70
     0
  9
$DIMALTZ
 70
     0
  9
$DIMALTTZ
 70
     0
  9
$DIMUPT
 70
     0
  9
$DIMDEC
 70
     1
  9
$DIMTDEC
 70
     1
  9
$DIMALTU
 70
     2
  9
$DIMALTTD
 70
     2
  9
$DIMTXSTY
  7
ROMANS
  9
$DIMAUNIT
 70
     0
  9
$DIMADEC
 70
     0
  9
$DIMALTRND
 40
0.0
  9
$DIMAZIN
 70
     0
  9
$DIMDSEP
 70
    46
  9
$DIMATFIT
 70
     3
  9
$DIMFRAC
 70
     0
  9
$DIMLDRBLK
  1
B-DIM
  9
$DIMLUNIT
 70
     2
  9
$DIMLWD
 70
    -2
  9
$DIMLWE
 70
    -2
  9
$DIMTMOVE
 70
     2
  9
$LUNITS
 70
     2
  9
$LUPREC
 70
     2
  9
$SKETCHINC
 40
0.1
  9
$FILLETRAD
 40
0.0
  9
$AUNITS
 70
     0
  9
$AUPREC
 70
     1
  9
$MENU
  1
acad
  9
$ELEVATION
 40
0.0
  9
$PELEVATION
 40
0.0
  9
$THICKNESS
 40
0.0
  9
$LIMCHECK
 70
     0
  9
$CHAMFERA
 40
30.0
  9
$CHAMFERB
 40
30.0
  9
$CHAMFERC
 40
0.0
  9
$CHAMFERD
 40
0.0
  9
$SKPOLY
 70
     0
  9
$TDCREATE
 40
2450817.525937848
  9
$TDUCREATE
 40
2450817.442604514
  9
$TDUPDATE
 40
2454980.682148438
  9
$TDUUPDATE
 40
2454980.598815104
  9
$TDINDWG
 40
21.7541681944
  9
$TDUSRTIMER
 40
21.7541681944
  9
$USRTIMER
 70
     1
  9
$ANGBASE
 50
0.0
  9
$ANGDIR
 70
     0
  9
$PDMODE
 70
     3
  9
$PDSIZE
 40
10.0
  9
$PLINEWID
 40
60.0
  9
$SPLFRAME
 70
     0
  9
$SPLINETYPE
 70
     6
  9
$SPLINESEGS
 70
     8
  9
$HANDSEED
  5
2816
  9
$SURFTAB1
 70
     6
  9
$SURFTAB2
 70
     6
  9
$SURFTYPE
 70
     6
  9
$SURFU
 70
     6
  9
$SURFV
 70
     6
  9
$UCSBASE
  2

  9
$UCSNAME
  2

  9
$UCSORG
 10
0.0
 20
0.0
 30
0.0
  9
$UCSXDIR
 10
1.0
 20
0.0
 30
0.0
  9
$UCSYDIR
 10
0.0
 20
1.0
 30
0.0
  9
$UCSORTHOREF
  2

  9
$UCSORTHOVIEW
 70
     0
  9
$UCSORGTOP
 10
0.0
 20
0.0
 30
0.0
  9
$UCSORGBOTTOM
 10
0.0
 20
0.0
 30
0.0
  9
$UCSORGLEFT
 10
0.0
 20
0.0
 30
0.0
  9
$UCSORGRIGHT
 10
0.0
 20
0.0
 30
0.0
  9
$UCSORGFRONT
 10
0.0
 20
0.0
 30
0.0
  9
$UCSORGBACK
 10
0.0
 20
0.0
 30
0.0
  9
$PUCSBASE
  2

  9
$PUCSNAME
  2

  9
$PUCSORG
 10
0.0
 20
0.0
 30
0.0
  9
$PUCSXDIR
 10
1.0
 20
0.0
 30
0.0
  9
$PUCSYDIR
 10
0.0
 20
1.0
 30
0.0
  9
$PUCSORTHOREF
  2

  9
$PUCSORTHOVIEW
 70
     0
  9
$PUCSORGTOP
 10
0.0
 20
0.0
 30
0.0
  9
$PUCSORGBOTTOM
 10
0.0
 20
0.0
 30
0.0
  9
$PUCSORGLEFT
 10
0.0
 20
0.0
 30
0.0
  9
$PUCSORGRIGHT
 10
0.0
 20
0.0
 30
0.0
  9
$PUCSORGFRONT
 10
0.0
 20
0.0
 30
0.0
  9
$PUCSORGBACK
 10
0.0
 20
0.0
 30
0.0
  9
$USERI1
 70
     0
  9
$USERI2
 70
     0
  9
$USERI3
 70
     0
  9
$USERI4
 70
     0
  9
$USERI5
 70
     0
  9
$USERR1
 40
0.0
  9
$USERR2
 40
0.0
  9
$USERR3
 40
0.0
  9
$USERR4
 40
0.0
  9
$USERR5
 40
0.0
  9
$WORLDVIEW
 70
     1
  9
$SHADEDGE
 70
     3
  9
$SHADEDIF
 70
    70
  9
$TILEMODE
 70
     1
  9
$MAXACTVP
 70
    16
  9
$PINSBASE
 10
0.0
 20
0.0
 30
0.0
  9
$PLIMCHECK
 70
     0
  9
$PEXTMIN
 10
0.0
 20
0.0
 30
0.0
  9
$PEXTMAX
 10
0.0
 20
0.0
 30
0.0
  9
$PLIMMIN
 10
0.0
 20
0.0
  9
$PLIMMAX
 10
12.0
 20
9.0
  9
$UNITMODE
 70
     0
  9
$VISRETAIN
 70
     0
  9
$PLINEGEN
 70
     0
  9
$PSLTSCALE
 70
     1
  9
$TREEDEPTH
 70
  3020
  9
$CMLSTYLE
  2
STANDARD
  9
$CMLJUST
 70
     0
  9
$CMLSCALE
 40
1.0
  9
$PROXYGRAPHICS
 70
     1
  9
$MEASUREMENT
 70
     0
  9
$CELWEIGHT
370
    -1
  9
$ENDCAPS
280
     0
  9
$JOINSTYLE
280
     0
  9
$LWDISPLAY
290
     0
  9
$INSUNITS
 70
     0
  9
$HYPERLINKBASE
  1

  9
$STYLESHEET
  1
monochrome_140.ctb
  9
$XEDIT
290
     1
  9
$CEPSNTYPE
380
     0
  9
$PSTYLEMODE
290
     1
  9
$FINGERPRINTGUID
  2
{2D5E65A9-1F91-4A53-BA94-481E1C74241D}
  9
$VERSIONGUID
  2
{35DF6DCE-604A-46DA-9AFD-5C70B841B36A}
  9
$EXTNAMES
290
     1
  9
$PSVPSCALE
 40
0.0
  9
$OLESTARTUP
290
     0
  0
ENDSEC
  0
SECTION
  2
CLASSES
  0
CLASS
  1
DICTIONARYVAR
  2
AcDbDictionaryVar
  3
ObjectDBX Classes
 90
        0
280
     0
281
     0
  0
CLASS
  1
ACDBDICTIONARYWDFLT
  2
AcDbDictionaryWithDefault
  3
ObjectDBX Classes
 90
        0
280
     0
281
     0
  0
CLASS
  1
ACDBPLACEHOLDER
  2
AcDbPlaceHolder
  3
ObjectDBX Classes
 90
        0
280
     0
281
     0
  0
CLASS
  1
LAYOUT
  2
AcDbLayout
  3
ObjectDBX Classes
 90
        0
280
     0
281
     0
  0
CLASS
  1
AEC_VARS_DWG_SETUP
  2
AecDbVarsDwgSetup
  3
AecBase50|Product Desc: Autodesk Architectural Desktop 2007 |Company: Autodesk,Inc. |WEB Address: www.autodesk.com
 90
    32897
280
     0
281
     0
  0
CLASS
  1
AEC_DISP_REP_CONFIG
  2
AecDbDispRepConfig
  3
AecBase50|Product Desc: Autodesk Architectural Desktop 2007 |Company: Autodesk,Inc. |WEB Address: www.autodesk.com
 90
    32897
280
     0
281
     0
  0
CLASS
  1
AEC_DISP_REP_SET
  2
AecDbDispRepSet
  3
AecBase50|Product Desc: Autodesk Architectural Desktop 2007 |Company: Autodesk,Inc. |WEB Address: www.autodesk.com
 90
    32897
280
     0
281
     0
  0
CLASS
  1
AEC_DISP_REP_2D_SECTION
  2
AecDbDispRep2dSection
  3
AecBase50|Product Desc: Autodesk Architectural Desktop 2007 |Company: Autodesk,Inc. |WEB Address: www.autodesk.com
 90
    32897
280
     0
281
     0
  0
CLASS
  1
AEC_DISP_REP_ANCHOR_BUB_TO_GRID
  2
AecDbDispRepAnchorBubToGrid
  3
AecStructureBase50|Product Desc: Autodesk Architectural Desktop 2007 |Company: Autodesk,Inc. |WEB Address: www.autodesk.com
 90
    32897
280
     0
281
     0
  0
CLASS
  1
AEC_DISP_REP_ANCHOR_BUB_TO_GRID_MODEL
  2
AecDbDispRepAnchorBubToGridMdl
  3
AecStructureBase50|Product Desc: Autodesk Architectural Desktop 2007 |Company: Autodesk,Inc. |WEB Address: www.autodesk.com
 90
    32897
280
     0
281
     0
  0
CLASS
  1
AEC_DISP_REP_ANCHOR_ENT_TO_NODE
  2
AecDbDispRepAnchorEntToNode
  3
AecBase50|Product Desc: Autodesk Architectural Desktop 2007 |Company: Autodesk,Inc. |WEB Address: www.autodesk.com
 90
    32897
280
     0
281
     0
  0
CLASS
  1
AEC_DISP_REP_ANCHOR_TAG_TO_ENT
  2
AecDbDispRepAnchorTagToEnt
  3
AecScheduleData50|Product Desc: Autodesk Architectural Desktop 2007 |Company: Autodesk,Inc. |WEB Address: www.autodesk.com
 90
    32897
280
     0
281
     0
  0
CLASS
  1
AEC_DISP_REP_AREA
  2
AecDbDispRepArea
  3
AecAreaCalculationBase50|Product Desc: Autodesk Architectural Desktop 2007 |Company: Autodesk,Inc. |WEB Address: www.autodesk.com
 90
    32897
280
     0
281
     0
  0
CLASS
  1
AEC_DISP_REP_AREA_DECOMPOSED
  2
AecDbDispRepAreaDecomposed
  3
AecAreaCalculationBase50|Product Desc: Autodesk Architectural Desktop 2007 |Company: Autodesk,Inc. |WEB Address: www.autodesk.com
 90
    32897
280
     0
281
     0
  0
CLASS
  1
AEC_DISP_REP_AREAGROUP
  2
AecDbDispRepAreaGroup
  3
AecAreaCalculationBase50|Product Desc: Autodesk Architectural Desktop 2007 |Company: Autodesk,Inc. |WEB Address: www.autodesk.com
 90
    32897
280
     0
281
     0
  0
CLASS
  1
AEC_DISP_REP_BDG_ELEVLINE_MODEL
  2
AecDbDispRepBdgElevLineModel
  3
AecArchBase50|Product Desc: Autodesk Architectural Desktop 2007 |Company: Autodesk,Inc. |WEB Address: www.autodesk.com
 90
    32897
280
     0
281
     0
  0
CLASS
  1
AEC_DISP_REP_BDG_SECTIONLINE_PLAN
  2
AecDbDispRepBdgElevLinePlan
  3
AecArchBase50|Product Desc: Autodesk Architectural Desktop 2007 |Company: Autodesk,Inc. |WEB Address: www.autodesk.com
 90
    32897
280
     0
281
     0
  0
CLASS
  1
AEC_DISP_REP_BDG_SECTIONLINE_MODEL
  2
AecDbDispRepBdgSectionLineModel
  3
AecArchBase50|Product Desc: Autodesk Architectural Desktop 2007 |Company: Autodesk,Inc. |WEB Address: www.autodesk.com
 90
    32897
280
     0
281
     0
  0
CLASS
  1
AEC_DISP_REP_BDG_SECTIONLINE_PLAN
  2
AecDbDispRepBdgSectionLinePlan
  3
AecArchBase50|Product Desc: Autodesk Architectural Desktop 2007 |Company: Autodesk,Inc. |WEB Address: www.autodesk.com
 90
    32897
280
     0
281
     0
  0
CLASS
  1
AEC_DISP_REP_BDG_SECTION_SUBDIV
  2
AecDbDispRepBdgSectionSubDiv
  3
AecArchBase50|Product Desc: Autodesk Architectural Desktop 2007 |Company: Autodesk,Inc. |WEB Address: www.autodesk.com
 90
    32897
280
     0
281
     0
  0
CLASS
  1
AEC_DISP_REP_CAMERA
  2
AecDbDispRepCamera
  3
AecBase50|Product Desc: Autodesk Architectural Desktop 2007 |Company: Autodesk,Inc. |WEB Address: www.autodesk.com
 90
    32897
280
     0
281
     0
  0
CLASS
  1
AEC_DISP_REP_CEILING_GRID
  2
AecDbDispRepCeilingGrid
  3
AecArchBase50|Product Desc: Autodesk Architectural Desktop 2007 |Company: Autodesk,Inc. |WEB Address: www.autodesk.com
 90
    33661
280
     0
281
     0
  0
CLASS
  1
AEC_DISP_REP_CEILING_GRID_MODEL
  2
AecDbDispRepCeilingGridModel
  3
AecArchBase50|Product Desc: Autodesk Architectural Desktop 2007 |Company: Autodesk,Inc. |WEB Address: www.autodesk.com
 90
    32897
280
     0
281
     0
  0
CLASS
  1
AEC_DISP_REP_CEILING_GRID_RCP
  2
AecDbDispRepCeilingGridRcp
  3
AecArchBase50|Product Desc: Autodesk Architectural Desktop 2007 |Company: Autodesk,Inc. |WEB Address: www.autodesk.com
 90
    32897
280
     0
281
     0
  0
CLASS
  1
AEC_DISP_REP_CLIP_VOLUME_MODEL
  2
AecDbDispRepClipVolModel
  3
AecBase50|Product Desc: Autodesk Architectural Desktop 2007 |Company: Autodesk,Inc. |WEB Address: www.autodesk.com
 90
    32897
280
     0
281
     0
  0
CLASS
  1
AEC_DISP_REP_CLIP_VOLUME_PLAN
  2
AecDbDispRepClipVolPlan
  3
AecBase50|Product Desc: Autodesk Architectural Desktop 2007 |Company: Autodesk,Inc. |WEB Address: www.autodesk.com
 90
    32897
280
     0
281
     0
  0
CLASS
  1
AEC_DISP_REP_CLIP_VOLUME_RESULT_SUBDIV
  2
AecDbDispRepClipVolResSubDiv
  3
AecBase50|Product Desc: Autodesk Architectural Desktop 2007 |Company: Autodesk,Inc. |WEB Address: www.autodesk.com
 90
    32897
280
     0
281
     0
  0
CLASS
  1
AEC_DISP_REP_CLIP_VOLUME_RESULT
  2
AecDbDispRepClipVolResult
  3
AecBase50|Product Desc: Autodesk Architectural Desktop 2007 |Company: Autodesk,Inc. |WEB Address: www.autodesk.com
 90
    32897
280
     0
281
     0
  0
CLASS
  1
AEC_DISP_REP_COLUMN_GRID
  2
AecDbDispRepColumnGrid
  3
AecStructureBase50|Product Desc: Autodesk Architectural Desktop 2007 |Company: Autodesk,Inc. |WEB Address: www.autodesk.com
 90
    32897
280
     0
281
     0
  0
CLASS
  1
AEC_DISP_REP_COLUMN_GRID_MODEL
  2
AecDbDispRepColumnGridModel
  3
AecStructureBase50|Product Desc: Autodesk Architectural Desktop 2007 |Company: Autodesk,Inc. |WEB Address: www.autodesk.com
 90
    32897
280
     0
281
     0
  0
CLASS
  1
AEC_DISP_REP_CURTAIN_WALL_LAYOUT_MODEL
  2
AecDbDispRepCurtainWallLayoutModel
  3
AecArchBase50|Product Desc: Autodesk Architectural Desktop 2007 |Company: Autodesk,Inc. |WEB Address: www.autodesk.com
 90
    32897
280
     0
281
     0
  0
CLASS
  1
AEC_DISP_REP_CURTAIN_WALL_LAYOUT_PLAN
  2
AecDbDispRepCurtainWallLayoutPlan
  3
AecArchBase50|Product Desc: Autodesk Architectural Desktop 2007 |Company: Autodesk,Inc. |WEB Address: www.autodesk.com
 90
    32897
280
     0
281
     0
  0
CLASS
  1
AEC_DISP_REP_CURTAIN_WALL_UNIT_MODEL
  2
AecDbDispRepCurtainWallUnitModel
  3
AecArchBase50|Product Desc: Autodesk Architectural Desktop 2007 |Company: Autodesk,Inc. |WEB Address: www.autodesk.com
 90
    32897
280
     0
281
     0
  0
CLASS
  1
AEC_DISP_REP_CURTAIN_WALL_UNIT_PLAN
  2
AecDbDispRepCurtainWallUnitPlan
  3
AecArchBase50|Product Desc: Autodesk Architectural Desktop 2007 |Company: Autodesk,Inc. |WEB Address: www.autodesk.com
 90
    32897
280
     0
281
     0
  0
CLASS
  1
AEC_DB_DISP_REP_DIM_GROUP_PLAN
  2
AecDbDispRepDimGroupPlan
  3
AecArchDACHBase50|Product Desc: Autodesk Architectural Desktop 2007 |Company: Autodesk,Inc. |WEB Address: www.autodesk.com
 90
    32897
280
     0
281
     0
  0
CLASS
  1
AEC_DISP_REP_DOOR_MODEL
  2
AecDbDispRepDoorModel
  3
AecArchBase50|Product Desc: Autodesk Architectural Desktop 2007 |Company: Autodesk,Inc. |WEB Address: www.autodesk.com
 90
    32897
280
     0
281
     0
  0
CLASS
  1
AEC_DISP_REP_DOOR_NOMINAL
  2
AecDbDispRepDoorNominal
  3
AecArchBase50|Product Desc: Autodesk Architectural Desktop 2007 |Company: Autodesk,Inc. |WEB Address: www.autodesk.com
 90
    32897
280
     0
281
     0
  0
CLASS
  1
AEC_DISP_REP_DOOR_PLAN
  2
AecDbDispRepDoorPlan
  3
AecArchBase50|Product Desc: Autodesk Architectural Desktop 2007 |Company: Autodesk,Inc. |WEB Address: www.autodesk.com
 90
    32897
280
     0
281
     0
  0
CLASS
  1
AEC_DISP_REP_EDITINPLACEPROFILE
  2
AecDbDispRepEditInPlaceProfile
  3
AecBase50|Product Desc: Autodesk Architectural Desktop 2007 |Company: Autodesk,Inc. |WEB Address: www.autodesk.com
 90
    32897
280
     0
281
     0
  0
CLASS
  1
AEC_DISP_REP_ENT_REF
  2
AecDbDispRepEntRef
  3
AecBase50|Product Desc: Autodesk Architectural Desktop 2007 |Company: Autodesk,Inc. |WEB Address: www.autodesk.com
 90
    32897
280
     0
281
     0
  0
CLASS
  1
AEC_DISP_REP_LAYOUT_CURVE
  2
AecDbDispRepLayoutCurve
  3
AecBase50|Product Desc: Autodesk Architectural Desktop 2007 |Company: Autodesk,Inc. |WEB Address: www.autodesk.com
 90
    32897
280
     0
281
     0
  0
CLASS
  1
AEC_DISP_REP_LAYOUT_GRID2D
  2
AecDbDispRepLayoutGrid2d
  3
AecBase50|Product Desc: Autodesk Architectural Desktop 2007 |Company: Autodesk,Inc. |WEB Address: www.autodesk.com
 90
    32897
280
     0
281
     0
  0
CLASS
  1
AEC_DISP_REP_LAYOUT_GRID3D
  2
AecDbDispRepLayoutGrid3d
  3
AecBase50|Product Desc: Autodesk Architectural Desktop 2007 |Company: Autodesk,Inc. |WEB Address: www.autodesk.com
 90
    32897
280
     0
281
     0
  0
CLASS
  1
AEC_DISP_REP_MASKBLOCK_REF
  2
AecDbDispRepMaskBlockRef
  3
AecBase50|Product Desc: Autodesk Architectural Desktop 2007 |Company: Autodesk,Inc. |WEB Address: www.autodesk.com
 90
    32897
280
     0
281
     0
  0
CLASS
  1
AEC_DISP_REP_MASKBLOCK_REF_RCP
  2
AecDbDispRepMaskBlockRefRcp
  3
AecArchBase50|Product Desc: Autodesk Architectural Desktop 2007 |Company: Autodesk,Inc. |WEB Address: www.autodesk.com
 90
    32897
280
     0
281
     0
  0
CLASS
  1
AEC_DISP_REP_MASS_ELEM_MODEL
  2
AecDbDispRepMassElemModel
  3
AecBaseEx50|Product Desc: Autodesk Architectural Desktop 2007 |Company: Autodesk,Inc. |WEB Address: www.autodesk.com
 90
    32897
280
     0
281
     0
  0
CLASS
  1
AEC_DISP_REP_MASS_ELEM_SCHEM
  2
AecDbDispRepMassElemSchem
  3
AecBaseEx50|Product Desc: Autodesk Architectural Desktop 2007 |Company: Autodesk,Inc. |WEB Address: www.autodesk.com
 90
    32897
280
     0
281
     0
  0
CLASS
  1
AEC_DISP_REP_MASS_GROUP_MODEL
  2
AecDbDispRepMassGroupModel
  3
AecBaseEx50|Product Desc: Autodesk Architectural Desktop 2007 |Company: Autodesk,Inc. |WEB Address: www.autodesk.com
 90
    32897
280
     0
281
     0
  0
CLASS
  1
AEC_DISP_REP_MASS_GROUP_PLAN
  2
AecDbDispRepMassGroupPlan
  3
AecBaseEx50|Product Desc: Autodesk Architectural Desktop 2007 |Company: Autodesk,Inc. |WEB Address: www.autodesk.com
 90
    32897
280
     0
281
     0
  0
CLASS
  1
AEC_DISP_REP_MATERIAL
  2
AecDbDispRepMaterial
  3
AecBase50|Product Desc: Autodesk Architectural Desktop 2007 |Company: Autodesk,Inc. |WEB Address: www.autodesk.com
 90
    32897
280
     0
281
     0
  0
CLASS
  1
AEC_DISP_REP_MVBLOCK_REF
  2
AecDbDispRepMvBlockRef
  3
AecBase50|Product Desc: Autodesk Architectural Desktop 2007 |Company: Autodesk,Inc. |WEB Address: www.autodesk.com
 90
    32897
280
     0
281
     0
  0
CLASS
  1
AEC_DISP_REP_MVBLOCK_REF_MODEL
  2
AecDbDispRepMvBlockRefModel
  3
AecBase50|Product Desc: Autodesk Architectural Desktop 2007 |Company: Autodesk,Inc. |WEB Address: www.autodesk.com
 90
    32897
280
     0
281
     0
  0
CLASS
  1
AEC_DISP_REP_OPENING
  2
AecDbDispRepOpening
  3
AecArchBase50|Product Desc: Autodesk Architectural Desktop 2007 |Company: Autodesk,Inc. |WEB Address: www.autodesk.com
 90
    32897
280
     0
281
     0
  0
CLASS
  1
AEC_DISP_REP_OPENING_MODEL
  2
AecDbDispRepOpeningModel
  3
AecArchBase50|Product Desc: Autodesk Architectural Desktop 2007 |Company: Autodesk,Inc. |WEB Address: www.autodesk.com
 90
    32897
280
     0
281
     0
  0
CLASS
  1
AEC_DISP_REP_POLYGON_MODEL
  2
AecDbDispRepPolygonModel
  3
AecBase50|Product Desc: Autodesk Architectural Desktop 2007 |Company: Autodesk,Inc. |WEB Address: www.autodesk.com
 90
    32897
280
     0
281
     0
  0
CLASS
  1
AEC_DISP_REP_RAILING_MODEL
  2
AecDbDispRepRailingModel
  3
AecArchBase50|Product Desc: Autodesk Architectural Desktop 2007 |Company: Autodesk,Inc. |WEB Address: www.autodesk.com
 90
    32897
280
     0
281
     0
  0
CLASS
  1
AEC_DISP_REP_RAILING_PLAN
  2
AecDbDispRepRailingPlan
  3
AecArchBase50|Product Desc: Autodesk Architectural Desktop 2007 |Company: Autodesk,Inc. |WEB Address: www.autodesk.com
 90
    32897
280
     0
281
     0
  0
CLASS
  1
AEC_DISP_REP_ROOF_MODEL
  2
AecDbDispRepRoofModel
  3
AecArchBase50|Product Desc: Autodesk Architectural Desktop 2007 |Company: Autodesk,Inc. |WEB Address: www.autodesk.com
 90
    32897
280
     0
281
     0
  0
CLASS
  1
AEC_DISP_REP_ROOF_PLAN
  2
AecDbDispRepRoofPlan
  3
AecArchBase50|Product Desc: Autodesk Architectural Desktop 2007 |Company: Autodesk,Inc. |WEB Address: www.autodesk.com
 90
    32897
280
     0
281
     0
  0
CLASS
  1
AEC_DISP_REP_ROOFSLAB_MODEL
  2
AecDbDispRepRoofSlabModel
  3
AecArchBase50|Product Desc: Autodesk Architectural Desktop 2007 |Company: Autodesk,Inc. |WEB Address: www.autodesk.com
 90
    32897
280
     0
281
     0
  0
CLASS
  1
AEC_DISP_REP_ROOFSLAB_PLAN
  2
AecDbDispRepRoofSlabPlan
  3
AecArchBase50|Product Desc: Autodesk Architectural Desktop 2007 |Company: Autodesk,Inc. |WEB Address: www.autodesk.com
 90
    32897
280
     0
281
     0
  0
CLASS
  1
AEC_DISP_REP_SCHEDULE_TABLE
  2
AecDbDispRepScheduleTable
  3
AecSchedule50|Product Desc: Autodesk Architectural Desktop 2007 |Company: Autodesk,Inc. |WEB Address: www.autodesk.com
 90
    32897
280
     0
281
     0
  0
CLASS
  1
AEC_DISP_REP_SLAB_MODEL
  2
AecDbDispRepSlabModel
  3
AecArchBase50|Product Desc: Autodesk Architectural Desktop 2007 |Company: Autodesk,Inc. |WEB Address: www.autodesk.com
 90
    32897
280
     0
281
     0
  0
CLASS
  1
AEC_DISP_REP_SLAB_PLAN
  2
AecDbDispRepSlabPlan
  3
AecArchBase50|Product Desc: Autodesk Architectural Desktop 2007 |Company: Autodesk,Inc. |WEB Address: www.autodesk.com
 90
    32897
280
     0
281
     0
  0
CLASS
  1
AEC_DISP_REP_SLICE
  2
AecDbDispRepSlice
  3
AecBase50|Product Desc: Autodesk Architectural Desktop 2007 |Company: Autodesk,Inc. |WEB Address: www.autodesk.com
 90
    32897
280
     0
281
     0
  0
CLASS
  1
AEC_DISP_REP_SPACE_BOUNDARY_MODEL
  2
AecDbDispRepSpaceBoundaryModel
  3
AecArchBase50|Product Desc: Autodesk Architectural Desktop 2007 |Company: Autodesk,Inc. |WEB Address: www.autodesk.com
 90
    32897
280
     0
281
     0
  0
CLASS
  1
AEC_DISP_REP_SPACE_BOUNDARY_PLAN
  2
AecDbDispRepSpaceBoundaryPlan
  3
AecArchBase50|Product Desc: Autodesk Architectural Desktop 2007 |Company: Autodesk,Inc. |WEB Address: www.autodesk.com
 90
    32897
280
     0
281
     0
  0
CLASS
  1
AEC_DISP_REP_SPACE_BOUNDARY_SCHEM
  2
AecDbDispRepSpaceBoundarySketch
  3
AecArchBase50|Product Desc: Autodesk Architectural Desktop 2007 |Company: Autodesk,Inc. |WEB Address: www.autodesk.com
 90
    32897
280
     0
281
     0
  0
CLASS
  1
AEC_DISP_REP_SPACE_MODEL
  2
AecDbDispRepSpaceModel
  3
AecArchBase50|Product Desc: Autodesk Architectural Desktop 2007 |Company: Autodesk,Inc. |WEB Address: www.autodesk.com
 90
    32897
280
     0
281
     0
  0
CLASS
  1
AEC_DISP_REP_SPACE_PLAN
  2
AecDbDispRepSpacePlan
  3
AecArchBase50|Product Desc: Autodesk Architectural Desktop 2007 |Company: Autodesk,Inc. |WEB Address: www.autodesk.com
 90
    32897
280
     0
281
     0
  0
CLASS
  1
AEC_DISP_REP_STAIR_MODEL
  2
AecDbDispRepStairModel
  3
AecArchBase50|Product Desc: Autodesk Architectural Desktop 2007 |Company: Autodesk,Inc. |WEB Address: www.autodesk.com
 90
    32897
280
     0
281
     0
  0
CLASS
  1
AEC_DISP_REP_STAIR_PLAN
  2
AecDbDispRepStairPlan
  3
AecArchBase50|Product Desc: Autodesk Architectural Desktop 2007 |Company: Autodesk,Inc. |WEB Address: www.autodesk.com
 90
    32897
280
     0
281
     0
  0
CLASS
  1
AEC_DISP_REP_WALL_GRAPH
  2
AecDbDispRepWallGraph
  3
AecArchBase50|Product Desc: Autodesk Architectural Desktop 2007 |Company: Autodesk,Inc. |WEB Address: www.autodesk.com
 90
    32897
280
     0
281
     0
  0
CLASS
  1
AEC_DISP_REP_WALL_MODEL
  2
AecDbDispRepWallModel
  3
AecArchBase50|Product Desc: Autodesk Architectural Desktop 2007 |Company: Autodesk,Inc. |WEB Address: www.autodesk.com
 90
    32897
280
     0
281
     0
  0
CLASS
  1
AEC_DISP_REP_WALL_PLAN
  2
AecDbDispRepWallPlan
  3
AecArchBase50|Product Desc: Autodesk Architectural Desktop 2007 |Company: Autodesk,Inc. |WEB Address: www.autodesk.com
 90
    32897
280
     0
281
     0
  0
CLASS
  1
AEC_DISP_REP_WALL_SCHEM
  2
AecDbDispRepWallSchem
  3
AecArchBase50|Product Desc: Autodesk Architectural Desktop 2007 |Company: Autodesk,Inc. |WEB Address: www.autodesk.com
 90
    32897
280
     0
281
     0
  0
CLASS
  1
AEC_DISP_REP_WINDOW_ASSEMBLY_MODEL
  2
AecDbDispRepWindowAssemblyModel
  3
AecArchBase50|Product Desc: Autodesk Architectural Desktop 2007 |Company: Autodesk,Inc. |WEB Address: www.autodesk.com
 90
    32897
280
     0
281
     0
  0
CLASS
  1
AEC_DISP_REP_WINDOW_ASSEMBLY_PLAN
  2
AecDbDispRepWindowAssemblyPlan
  3
AecArchBase50|Product Desc: Autodesk Architectural Desktop 2007 |Company: Autodesk,Inc. |WEB Address: www.autodesk.com
 90
    32897
280
     0
281
     0
  0
CLASS
  1
AEC_AECDBDISPREPWINDOWASSEMBLYPLAN100
  2
AecDbDispRepWindowAssemblyPlan100
  3
AecArchDACHBase50|Product Desc: Autodesk Architectural Desktop 2007 |Company: Autodesk,Inc. |WEB Address: www.autodesk.com
 90
    32897
280
     0
281
     0
  0
CLASS
  1
AEC_DISP_REP_WINDOW_MODEL
  2
AecDbDispRepWindowModel
  3
AecArchBase50|Product Desc: Autodesk Architectural Desktop 2007 |Company: Autodesk,Inc. |WEB Address: www.autodesk.com
 90
    32897
280
     0
281
     0
  0
CLASS
  1
AEC_DISP_REP_WINDOW_NOMINAL
  2
AecDbDispRepWindowNominal
  3
AecArchBase50|Product Desc: Autodesk Architectural Desktop 2007 |Company: Autodesk,Inc. |WEB Address: www.autodesk.com
 90
    32897
280
     0
281
     0
  0
CLASS
  1
AEC_DISP_REP_WINDOW_PLAN
  2
AecDbDispRepWindowPlan
  3
AecArchBase50|Product Desc: Autodesk Architectural Desktop 2007 |Company: Autodesk,Inc. |WEB Address: www.autodesk.com
 90
    32897
280
     0
281
     0
  0
CLASS
  1
AECS_DISP_REP_MEMBER_LOGICAL
  2
AecsDbDispRepMemberLogical
  3
AecStructureBase50|Product Desc: Autodesk Architectural Desktop 2007 |Company: Autodesk,Inc. |WEB Address: www.autodesk.com
 90
    32897
280
     0
281
     0
  0
CLASS
  1
AECS_DISP_REP_MEMBER_MODEL_DESIGN
  2
AecsDbDispRepMemberModelDesign
  3
AecStructureBase50|Product Desc: Autodesk Architectural Desktop 2007 |Company: Autodesk,Inc. |WEB Address: www.autodesk.com
 90
    32897
280
     0
281
     0
  0
CLASS
  1
AECS_DISP_REP_MEMBER_PLAN_DESIGN
  2
AecsDbDispRepMemberPlanDesign
  3
AecStructureBase50|Product Desc: Autodesk Architectural Desktop 2007 |Company: Autodesk,Inc. |WEB Address: www.autodesk.com
 90
    32897
280
     0
281
     0
  0
CLASS
  1
AEC_DISP_PROPS_ENT
  2
AecDbDispPropsEnt
  3
AecBase50|Product Desc: Autodesk Architectural Desktop 2007 |Company: Autodesk,Inc. |WEB Address: www.autodesk.com
 90
    32897
280
     0
281
     0
  0
CLASS
  1
AEC_DISP_PROPS_CLIP_VOLUME
  2
AecDbDispPropsClipVol
  3
AecBase50|Product Desc: Autodesk Architectural Desktop 2007 |Company: Autodesk,Inc. |WEB Address: www.autodesk.com
 90
    32897
280
     0
281
     0
  0
CLASS
  1
AEC_DISP_PROPS_SLICE
  2
AecDbDispPropsSlice
  3
AecBase50|Product Desc: Autodesk Architectural Desktop 2007 |Company: Autodesk,Inc. |WEB Address: www.autodesk.com
 90
    32897
280
     0
281
     0
  0
CLASS
  1
AEC_DISP_PROPS_ROOFSLAB_PLAN
  2
AecDbDispPropsRoofSlabPlan
  3
AecArchBase50|Product Desc: Autodesk Architectural Desktop 2007 |Company: Autodesk,Inc. |WEB Address: www.autodesk.com
 90
    32897
280
     0
281
     0
  0
CLASS
  1
AEC_DISP_PROPS_GRID_ASSEMBLY_MODEL
  2
AecDbDispPropsGridAssemblyModel
  3
AecArchBase50|Product Desc: Autodesk Architectural Desktop 2007 |Company: Autodesk,Inc. |WEB Address: www.autodesk.com
 90
    32897
280
     0
281
     0
  0
CLASS
  1
AEC_DISP_PROPS_ROOF
  2
AecDbDispPropsRoof
  3
AecArchBase50|Product Desc: Autodesk Architectural Desktop 2007 |Company: Autodesk,Inc. |WEB Address: www.autodesk.com
 90
    32897
280
     0
281
     0
  0
CLASS
  1
AEC_DISP_PROPS_SPACE_MODEL
  2
AecDbDispPropsSpaceModel
  3
AecArchBase50|Product Desc: Autodesk Architectural Desktop 2007 |Company: Autodesk,Inc. |WEB Address: www.autodesk.com
 90
    32897
280
     0
281
     0
  0
CLASS
  1
AEC_DISP_PROPS_EDITINPLACEPROFILE_MODEL
  2
AecDbDispPropsEditInPlaceProfile
  3
AecBase50|Product Desc: Autodesk Architectural Desktop 2007 |Company: Autodesk,Inc. |WEB Address: www.autodesk.com
 90
    32897
280
     0
281
     0
  0
CLASS
  1
AEC_DISP_PROPS_DOOR
  2
AecDbDispPropsDoor
  3
AecArchBase50|Product Desc: Autodesk Architectural Desktop 2007 |Company: Autodesk,Inc. |WEB Address: www.autodesk.com
 90
    32897
280
     0
281
     0
  0
CLASS
  1
AEC_DISP_PROPS_MASKBLOCK
  2
AecDbDispPropsMaskBlock
  3
AecBase50|Product Desc: Autodesk Architectural Desktop 2007 |Company: Autodesk,Inc. |WEB Address: www.autodesk.com
 90
    32897
280
     0
281
     0
  0
CLASS
  1
AEC_DISP_PROPS_SPACE_PLAN
  2
AecDbDispPropsSpacePlan
  3
AecArchBase50|Product Desc: Autodesk Architectural Desktop 2007 |Company: Autodesk,Inc. |WEB Address: www.autodesk.com
 90
    32897
280
     0
281
     0
  0
CLASS
  1
AEC_DISP_PROPS_RAILING_PLAN
  2
AecDbDispPropsRailingPlan
  3
AecArchBase50|Product Desc: Autodesk Architectural Desktop 2007 |Company: Autodesk,Inc. |WEB Address: www.autodesk.com
 90
    32897
280
     0
281
     0
  0
CLASS
  1
AEC_DISP_PROPS_LAYOUT_GRID2D
  2
AecDbDispPropsLayoutGrid2d
  3
AecBase50|Product Desc: Autodesk Architectural Desktop 2007 |Company: Autodesk,Inc. |WEB Address: www.autodesk.com
 90
    32897
280
     0
281
     0
  0
CLASS
  1
AEC_DISP_PROPS_CLIP_VOLUME_RESULT
  2
AecDbDispPropsClipVolResSubDiv
  3
AecBase50|Product Desc: Autodesk Architectural Desktop 2007 |Company: Autodesk,Inc. |WEB Address: www.autodesk.com
 90
    32897
280
     0
281
     0
  0
CLASS
  1
AEC_DISP_PROPS_STAIR_MODEL
  2
AecDbDispPropsStairModel
  3
AecArchBase50|Product Desc: Autodesk Architectural Desktop 2007 |Company: Autodesk,Inc. |WEB Address: www.autodesk.com
 90
    32897
280
     0
281
     0
  0
CLASS
  1
AEC_DISP_PROPS_LAYOUT_CURVE
  2
AecDbDispPropsLayoutCurve
  3
AecBase50|Product Desc: Autodesk Architectural Desktop 2007 |Company: Autodesk,Inc. |WEB Address: www.autodesk.com
 90
    32897
280
     0
281
     0
  0
CLASS
  1
AEC_DISP_PROPS_POLYGON_MODEL
  2
AecDbDispPropsPolygonModel
  3
AecBase50|Product Desc: Autodesk Architectural Desktop 2007 |Company: Autodesk,Inc. |WEB Address: www.autodesk.com
 90
    32897
280
     0
281
     0
  0
CLASS
  1
AEC_DISP_PROPS_MASS_GROUP
  2
AecDbDispPropsMassGroup
  3
AecBaseEx50|Product Desc: Autodesk Architectural Desktop 2007 |Company: Autodesk,Inc. |WEB Address: www.autodesk.com
 90
    32897
280
     0
281
     0
  0
CLASS
  1
AEC_DISP_PROPS_STAIR_PLAN
  2
AecDbDispPropsStairPlan
  3
AecArchBase50|Product Desc: Autodesk Architectural Desktop 2007 |Company: Autodesk,Inc. |WEB Address: www.autodesk.com
 90
    32897
280
     0
281
     0
  0
CLASS
  1
AEC_DISP_PROPS_OPENING
  2
AecDbDispPropsOpening
  3
AecArchBase50|Product Desc: Autodesk Architectural Desktop 2007 |Company: Autodesk,Inc. |WEB Address: www.autodesk.com
 90
    32897
280
     0
281
     0
  0
CLASS
  1
AEC_DISP_PROPS_WALL_GRAPH
  2
AecDbDispPropsWallGraph
  3
AecArchBase50|Product Desc: Autodesk Architectural Desktop 2007 |Company: Autodesk,Inc. |WEB Address: www.autodesk.com
 90
    32897
280
     0
281
     0
  0
CLASS
  1
AEC_DISP_PROPS_DOOR_NOMINAL
  2
AecDbDispPropsDoorNominal
  3
AecArchBase50|Product Desc: Autodesk Architectural Desktop 2007 |Company: Autodesk,Inc. |WEB Address: www.autodesk.com
 90
    32897
280
     0
281
     0
  0
CLASS
  1
AEC_DISP_PROPS_SLAB
  2
AecDbDispPropsSlab
  3
AecArchBase50|Product Desc: Autodesk Architectural Desktop 2007 |Company: Autodesk,Inc. |WEB Address: www.autodesk.com
 90
    32897
280
     0
281
     0
  0
CLASS
  1
AEC_DISP_PROPS_WALL_MODEL
  2
AecDbDispPropsWallModel
  3
AecArchBase50|Product Desc: Autodesk Architectural Desktop 2007 |Company: Autodesk,Inc. |WEB Address: www.autodesk.com
 90
    32897
280
     0
281
     0
  0
CLASS
  1
AEC_DISP_PROPS_MATERIAL
  2
AecDbDispPropsMaterial
  3
AecBase50|Product Desc: Autodesk Architectural Desktop 2007 |Company: Autodesk,Inc. |WEB Address: www.autodesk.com
 90
    32897
280
     0
281
     0
  0
CLASS
  1
AEC_DISP_PROPS_WINDOW
  2
AecDbDispPropsWindow
  3
AecArchBase50|Product Desc: Autodesk Architectural Desktop 2007 |Company: Autodesk,Inc. |WEB Address: www.autodesk.com
 90
    32897
280
     0
281
     0
  0
CLASS
  1
AEC_DISP_PROPS_LAYOUT_GRID3D
  2
AecDbDispPropsLayoutGrid3d
  3
AecBase50|Product Desc: Autodesk Architectural Desktop 2007 |Company: Autodesk,Inc. |WEB Address: www.autodesk.com
 90
    32897
280
     0
281
     0
  0
CLASS
  1
AEC_DISP_PROPS_GRID_ASSEMBLY_PLAN
  2
AecDbDispPropsGridAssemblyPlan
  3
AecArchBase50|Product Desc: Autodesk Architectural Desktop 2007 |Company: Autodesk,Inc. |WEB Address: www.autodesk.com
 90
    32897
280
     0
281
     0
  0
CLASS
  1
AEC_DISP_PROPS_WALL_SCHEM
  2
AecDbDispPropsWallSchem
  3
AecArchBase50|Product Desc: Autodesk Architectural Desktop 2007 |Company: Autodesk,Inc. |WEB Address: www.autodesk.com
 90
    32897
280
     0
281
     0
  0
CLASS
  1
AEC_DISP_PROPS_WALL_PLAN
  2
AecDbDispPropsWallPlan
  3
AecArchBase50|Product Desc: Autodesk Architectural Desktop 2007 |Company: Autodesk,Inc. |WEB Address: www.autodesk.com
 90
    32897
280
     0
281
     0
  0
CLASS
  1
AEC_DISP_PROPS_SPACE_BOUNDARY
  2
AecDbDispPropsSpaceBoundary
  3
AecArchBase50|Product Desc: Autodesk Architectural Desktop 2007 |Company: Autodesk,Inc. |WEB Address: www.autodesk.com
 90
    32897
280
     0
281
     0
  0
CLASS
  1
AEC_DISP_PROPS_SLAB_PLAN
  2
AecDbDispPropsSlabPlan
  3
AecArchBase50|Product Desc: Autodesk Architectural Desktop 2007 |Company: Autodesk,Inc. |WEB Address: www.autodesk.com
 90
    32897
280
     0
281
     0
  0
CLASS
  1
AEC_DISP_PROPS_RAILING_MODEL
  2
AecDbDispPropsRailingModel
  3
AecArchBase50|Product Desc: Autodesk Architectural Desktop 2007 |Company: Autodesk,Inc. |WEB Address: www.autodesk.com
 90
    32897
280
     0
281
     0
  0
CLASS
  1
AEC_DISP_PROPS_MASS_ELEM_MODEL
  2
AecDbDispPropsMassElem
  3
AecBaseEx50|Product Desc: Autodesk Architectural Desktop 2007 |Company: Autodesk,Inc. |WEB Address: www.autodesk.com
 90
    32897
280
     0
281
     0
  0
CLASS
  1
AEC_DISP_PROPS_DIM
  2
AecDbDispPropsDimGroup
  3
AecArchDACHBase50|Product Desc: Autodesk Architectural Desktop 2007 |Company: Autodesk,Inc. |WEB Address: www.autodesk.com
 90
    32897
280
     0
281
     0
  0
CLASS
  1
AEC_DISP_PROPS_ROOFSLAB
  2
AecDbDispPropsRoofSlab
  3
AecArchBase50|Product Desc: Autodesk Architectural Desktop 2007 |Company: Autodesk,Inc. |WEB Address: www.autodesk.com
 90
    32897
280
     0
281
     0
  0
CLASS
  1
AEC_DISP_PROPS_ENT_REF
  2
AecDbDispPropsEntRef
  3
AecBase50|Product Desc: Autodesk Architectural Desktop 2007 |Company: Autodesk,Inc. |WEB Address: www.autodesk.com
 90
    32897
280
     0
281
     0
  0
CLASS
  1
AEC_DISP_PROPS_2D_SECTION
  2
AecDbDispProps2dSection
  3
AecBase50|Product Desc: Autodesk Architectural Desktop 2007 |Company: Autodesk,Inc. |WEB Address: www.autodesk.com
 90
    32897
280
     0
281
     0
  0
CLASS
  1
AECS_DISP_PROPS_MEMBER_LOGICAL
  2
AecsDbDispPropsMemberLogical
  3
AecStructureBase50|Product Desc: Autodesk Architectural Desktop 2007 |Company: Autodesk,Inc. |WEB Address: www.autodesk.com
 90
    32897
280
     0
281
     0
  0
CLASS
  1
AEC_DISP_PROPS_AREA_DECOMPOSED
  2
AecDbDispPropsAreaDecomposed
  3
AecAreaCalculationBase50|Product Desc: Autodesk Architectural Desktop 2007 |Company: Autodesk,Inc. |WEB Address: www.autodesk.com
 90
    32897
280
     0
281
     0
  0
CLASS
  1
AEC_DISP_PROPS_CAMERA
  2
AecDbDispPropsCamera
  3
AecBase50|Product Desc: Autodesk Architectural Desktop 2007 |Company: Autodesk,Inc. |WEB Address: www.autodesk.com
 90
    32897
280
     0
281
     0
  0
CLASS
  1
AECS_DISP_PROPS_MEMBER
  2
AecsDbDispPropsMember
  3
AecStructureBase50|Product Desc: Autodesk Architectural Desktop 2007 |Company: Autodesk,Inc. |WEB Address: www.autodesk.com
 90
    32897
280
     0
281
     0
  0
CLASS
  1
AECS_DISP_PROPS_MEMBER_PLAN
  2
AecsDbDispPropsMemberPlan
  3
AecStructureBase50|Product Desc: Autodesk Architectural Desktop 2007 |Company: Autodesk,Inc. |WEB Address: www.autodesk.com
 90
    32897
280
     0
281
     0
  0
CLASS
  1
AEC_DISP_PROPS_AREAGROUP
  2
AecDbDispPropsAreaGroup
  3
AecAreaCalculationBase50|Product Desc: Autodesk Architectural Desktop 2007 |Company: Autodesk,Inc. |WEB Address: www.autodesk.com
 90
    32897
280
     0
281
     0
  0
CLASS
  1
AEC_DISP_PROPS_WINDOW_NOMINAL
  2
AecDbDispPropsWindowNominal
  3
AecArchBase50|Product Desc: Autodesk Architectural Desktop 2007 |Company: Autodesk,Inc. |WEB Address: www.autodesk.com
 90
    32897
280
     0
281
     0
  0
CLASS
  1
AEC_DISP_PROPS_AREA
  2
AecDbDispPropsArea
  3
AecAreaCalculationBase50|Product Desc: Autodesk Architectural Desktop 2007 |Company: Autodesk,Inc. |WEB Address: www.autodesk.com
 90
    32897
280
     0
281
     0
  0
CLASS
  1
AEC_DISP_PROPS_SCHEDULE_TABLE
  2
AecDbDispPropsScheduleTable
  3
AecSchedule50|Product Desc: Autodesk Architectural Desktop 2007 |Company: Autodesk,Inc. |WEB Address: www.autodesk.com
 90
    32897
280
     0
281
     0
  0
CLASS
  1
AEC_LAYERKEY_STYLE
  2
AecDbLayerKeyStyle
  3
AecBase50|Product Desc: Autodesk Architectural Desktop 2007 |Company: Autodesk,Inc. |WEB Address: www.autodesk.com
 90
    32897
280
     0
281
     0
  0
CLASS
  1
AEC_VARS_ARCHBASE
  2
AecDbVarsArchBase
  3
AecArchBase50|Product Desc: Autodesk Architectural Desktop 2007 |Company: Autodesk,Inc. |WEB Address: www.autodesk.com
 90
    32897
280
     0
281
     0
  0
CLASS
  1
AEC_VARS_MUNICH
  2
AecDbVarsMunich
  3
AecArchDACHBase50|Product Desc: Autodesk Architectural Desktop 2007 |Company: Autodesk,Inc. |WEB Address: www.autodesk.com
 90
    32897
280
     0
281
     0
  0
CLASS
  1
AEC_NOTIFICATION_TRACKER
  2
AecDbNotificationTracker
  3
AecBase50|Product Desc: Autodesk Architectural Desktop 2007 |Company: Autodesk,Inc. |WEB Address: www.autodesk.com
 90
    32897
280
     0
281
     0
  0
CLASS
  1
AEC_DISP_REP_ANCHOR
  2
AecDbDispRepAnchor
  3
AecBase50|Product Desc: Autodesk Architectural Desktop 2007 |Company: Autodesk,Inc. |WEB Address: www.autodesk.com
 90
    32897
280
     0
281
     0
  0
CLASS
  1
AEC_DISP_REP_POLYGON_TRUECOLOUR
  2
AecDbDispRepPolygonTrueColour
  3
AecBase50|Product Desc: Autodesk Architectural Desktop 2007 |Company: Autodesk,Inc. |WEB Address: www.autodesk.com
 90
    32897
280
     0
281
     0
  0
CLASS
  1
AEC_DISP_PROPS_POLYGON_TRUECOLOUR
  2
AecDbDispPropsPolygonTrueColour
  3
AecBase50|Product Desc: Autodesk Architectural Desktop 2007 |Company: Autodesk,Inc. |WEB Address: www.autodesk.com
 90
    32897
280
     0
281
     0
  0
CLASS
  1
AEC_DISP_REP_BDG_ELEVLINE_RCP
  2
AecDbDispRepBdgElevLineRcp
  3
AecArchBase50|Product Desc: Autodesk Architectural Desktop 2007 |Company: Autodesk,Inc. |WEB Address: www.autodesk.com
 90
    32897
280
     0
281
     0
  0
CLASS
  1
AEC_DISP_REP_BDG_SECTIONLINE_RCP
  2
AecDbDispRepBdgSectionLineRcp
  3
AecArchBase50|Product Desc: Autodesk Architectural Desktop 2007 |Company: Autodesk,Inc. |WEB Address: www.autodesk.com
 90
    32897
280
     0
281
     0
  0
CLASS
  1
AEC_DISP_REP_BDG_SECTION_MODEL
  2
AecDbDispRepBdgSectionModel
  3
AecArchBase50|Product Desc: Autodesk Architectural Desktop 2007 |Company: Autodesk,Inc. |WEB Address: www.autodesk.com
 90
    32897
280
     0
281
     0
  0
CLASS
  1
AEC_DISP_REP_DOOR_ELEV
  2
AecDbDispRepDoorElev
  3
AecArchBase50|Product Desc: Autodesk Architectural Desktop 2007 |Company: Autodesk,Inc. |WEB Address: www.autodesk.com
 90
    32897
280
     0
281
     0
  0
CLASS
  1
AEC_DISP_REP_DOOR_RCP
  2
AecDbDispRepDoorRcp
  3
AecArchBase50|Product Desc: Autodesk Architectural Desktop 2007 |Company: Autodesk,Inc. |WEB Address: www.autodesk.com
 90
    32897
280
     0
281
     0
  0
CLASS
  1
AEC_DISP_REP_DOOR_THRESHOLD_PLAN
  2
AecDbDispRepDoorThresholdPlan
  3
AecArchBase50|Product Desc: Autodesk Architectural Desktop 2007 |Company: Autodesk,Inc. |WEB Address: www.autodesk.com
 90
    32897
280
     0
281
     0
  0
CLASS
  1
AEC_DISP_PROPS_DOOR_THRESHOLD_PLAN
  2
AecDbDispPropsDoorThresholdPlan
  3
AecArchBase50|Product Desc: Autodesk Architectural Desktop 2007 |Company: Autodesk,Inc. |WEB Address: www.autodesk.com
 90
    32897
280
     0
281
     0
  0
CLASS
  1
AEC_DISP_REP_MASS_ELEM_RCP
  2
AecDbDispRepMassElemRcp
  3
AecArchBase50|Product Desc: Autodesk Architectural Desktop 2007 |Company: Autodesk,Inc. |WEB Address: www.autodesk.com
 90
    32897
280
     0
281
     0
  0
CLASS
  1
AEC_DISP_REP_MASS_GROUP_RCP
  2
AecDbDispRepMassGroupRcp
  3
AecArchBase50|Product Desc: Autodesk Architectural Desktop 2007 |Company: Autodesk,Inc. |WEB Address: www.autodesk.com
 90
    32897
280
     0
281
     0
  0
CLASS
  1
AEC_DISP_REP_MVBLOCK_REF_RCP
  2
AecDbDispRepMvBlockRefRcp
  3
AecArchBase50|Product Desc: Autodesk Architectural Desktop 2007 |Company: Autodesk,Inc. |WEB Address: www.autodesk.com
 90
    32897
280
     0
281
     0
  0
CLASS
  1
AEC_DISP_REP_ROOF_RCP
  2
AecDbDispRepRoofRcp
  3
AecArchBase50|Product Desc: Autodesk Architectural Desktop 2007 |Company: Autodesk,Inc. |WEB Address: www.autodesk.com
 90
    32897
280
     0
281
     0
  0
CLASS
  1
AEC_DISP_REP_SPACE_BOUNDARY_DIAGRAM
  2
AecDbDispRepSpaceBoundaryDgrm
  3
AecArchBase50|Product Desc: Autodesk Architectural Desktop 2007 |Company: Autodesk,Inc. |WEB Address: www.autodesk.com
 90
    32897
280
     0
281
     0
  0
CLASS
  1
AEC_DISP_REP_SPACE_RCP
  2
AecDbDispRepSpaceRcp
  3
AecArchBase50|Product Desc: Autodesk Architectural Desktop 2007 |Company: Autodesk,Inc. |WEB Address: www.autodesk.com
 90
    32897
280
     0
281
     0
  0
CLASS
  1
AEC_DISP_REP_SPACE_VOLUME
  2
AecDbDispRepSpaceVolume
  3
AecArchBase50|Product Desc: Autodesk Architectural Desktop 2007 |Company: Autodesk,Inc. |WEB Address: www.autodesk.com
 90
    32897
280
     0
281
     0
  0
CLASS
  1
AEC_DISP_REP_STAIR_PLAN_OVERLAPPING
  2
AecDbDispRepStairPlanOverlapping
  3
AecArchBase50|Product Desc: Autodesk Architectural Desktop 2007 |Company: Autodesk,Inc. |WEB Address: www.autodesk.com
 90
    32897
280
     0
281
     0
  0
CLASS
  1
AEC_DISP_PROPS_STAIR_PLAN_OVERLAPPING
  2
AecDbDispPropsStairPlanOverlapping
  3
AecArchBase50|Product Desc: Autodesk Architectural Desktop 2007 |Company: Autodesk,Inc. |WEB Address: www.autodesk.com
 90
    32897
280
     0
281
     0
  0
CLASS
  1
AEC_DISP_REP_STAIR_RCP
  2
AecDbDispRepStairRcp
  3
AecArchBase50|Product Desc: Autodesk Architectural Desktop 2007 |Company: Autodesk,Inc. |WEB Address: www.autodesk.com
 90
    32897
280
     0
281
     0
  0
CLASS
  1
AEC_DISP_REP_WALL_RCP
  2
AecDbDispRepWallRcp
  3
AecArchBase50|Product Desc: Autodesk Architectural Desktop 2007 |Company: Autodesk,Inc. |WEB Address: www.autodesk.com
 90
    32897
280
     0
281
     0
  0
CLASS
  1
AEC_DISP_REP_WINDOWASSEMBLY_SILL_PLAN
  2
AecDbDispRepWindowAssemblySillPlan
  3
AecArchBase50|Product Desc: Autodesk Architectural Desktop 2007 |Company: Autodesk,Inc. |WEB Address: www.autodesk.com
 90
    32897
280
     0
281
     0
  0
CLASS
  1
AEC_DISP_PROPS_WINDOW_ASSEMBLY_SILL_PLAN
  2
AecDbDispPropsWindowAssemblySillPlan
  3
AecArchBase50|Product Desc: Autodesk Architectural Desktop 2007 |Company: Autodesk,Inc. |WEB Address: www.autodesk.com
 90
    32897
280
     0
281
     0
  0
CLASS
  1
AEC_DISP_REP_WINDOW_ELEV
  2
AecDbDispRepWindowElev
  3
AecArchBase50|Product Desc: Autodesk Architectural Desktop 2007 |Company: Autodesk,Inc. |WEB Address: www.autodesk.com
 90
    32897
280
     0
281
     0
  0
CLASS
  1
AEC_DISP_REP_WINDOW_RCP
  2
AecDbDispRepWindowRcp
  3
AecArchBase50|Product Desc: Autodesk Architectural Desktop 2007 |Company: Autodesk,Inc. |WEB Address: www.autodesk.com
 90
    32897
280
     0
281
     0
  0
CLASS
  1
AEC_DISP_REP_WINDOW_SILL_PLAN
  2
AecDbDispRepWindowSillPlan
  3
AecArchBase50|Product Desc: Autodesk Architectural Desktop 2007 |Company: Autodesk,Inc. |WEB Address: www.autodesk.com
 90
    32897
280
     0
281
     0
  0
CLASS
  1
AEC_DISP_PROPS_WINDOW_SILL_PLAN
  2
AecDbDispPropsWindowSillPlan
  3
AecArchBase50|Product Desc: Autodesk Architectural Desktop 2007 |Company: Autodesk,Inc. |WEB Address: www.autodesk.com
 90
    32897
280
     0
281
     0
  0
CLASS
  1
AEC_DISP_REP_ANCHOR_BUB_TO_GRID_RCP
  2
AecDbDispRepAnchorBubToGridRcp
  3
AecStructureBase50|Product Desc: Autodesk Architectural Desktop 2007 |Company: Autodesk,Inc. |WEB Address: www.autodesk.com
 90
    32897
280
     0
281
     0
  0
CLASS
  1
AEC_DISP_REP_COLUMN_GRID_RCP
  2
AecDbDispRepColumnGridRcp
  3
AecStructureBase50|Product Desc: Autodesk Architectural Desktop 2007 |Company: Autodesk,Inc. |WEB Address: www.autodesk.com
 90
    32897
280
     0
281
     0
  0
CLASS
  1
AECS_DISP_REP_MEMBER_ELEVATION_DESIGN
  2
AecsDbDispRepMemberElevationDesign
  3
AecStructureBase50|Product Desc: Autodesk Architectural Desktop 2007 |Company: Autodesk,Inc. |WEB Address: www.autodesk.com
 90
    32897
280
     0
281
     0
  0
CLASS
  1
AECS_DISP_PROPS_MEMBER_PROJECTED
  2
AecsDbDispPropsMemberProjected
  3
AecStructureBase50|Product Desc: Autodesk Architectural Desktop 2007 |Company: Autodesk,Inc. |WEB Address: www.autodesk.com
 90
    32897
280
     0
281
     0
  0
CLASS
  1
AECS_DISP_REP_MEMBER_ELEVATION_DETAIL
  2
AecsDbDispRepMemberElevationDetail
  3
AecStructureBase50|Product Desc: Autodesk Architectural Desktop 2007 |Company: Autodesk,Inc. |WEB Address: www.autodesk.com
 90
    32897
280
     0
281
     0
  0
CLASS
  1
AECS_DISP_REP_MEMBER_MODEL_DETAIL
  2
AecsDbDispRepMemberModelDetail
  3
AecStructureBase50|Product Desc: Autodesk Architectural Desktop 2007 |Company: Autodesk,Inc. |WEB Address: www.autodesk.com
 90
    32897
280
     0
281
     0
  0
CLASS
  1
AECS_DISP_REP_MEMBER_PLAN_DETAIL
  2
AecsDbDispRepMemberPlanDetail
  3
AecStructureBase50|Product Desc: Autodesk Architectural Desktop 2007 |Company: Autodesk,Inc. |WEB Address: www.autodesk.com
 90
    32897
280
     0
281
     0
  0
CLASS
  1
AECS_DISP_REP_MEMBER_PLAN_SKETCH
  2
AecsDbDispRepMemberPlanSketch
  3
AecStructureBase50|Product Desc: Autodesk Architectural Desktop 2007 |Company: Autodesk,Inc. |WEB Address: www.autodesk.com
 90
    32897
280
     0
281
     0
  0
CLASS
  1
AECS_DISP_PROPS_MEMBER_PLAN_SKETCH
  2
AecsDbDispPropsMemberPlanSketch
  3
AecStructureBase50|Product Desc: Autodesk Architectural Desktop 2007 |Company: Autodesk,Inc. |WEB Address: www.autodesk.com
 90
    32897
280
     0
281
     0
  0
CLASS
  1
AEC_AECDBDISPREPAREA100
  2
AecDbDispRepArea100
  3
AecArchDACHBase50|Product Desc: Autodesk Architectural Desktop 2007 |Company: Autodesk,Inc. |WEB Address: www.autodesk.com
 90
    32897
280
     0
281
     0
  0
CLASS
  1
AEC_AECDBDISPREPAREAGROUP100
  2
AecDbDispRepAreaGroup100
  3
AecArchDACHBase50|Product Desc: Autodesk Architectural Desktop 2007 |Company: Autodesk,Inc. |WEB Address: www.autodesk.com
 90
    32897
280
     0
281
     0
  0
CLASS
  1
AEC_AECDBDISPREPBDGELEVLINEPLAN100
  2
AecDbDispRepBdgElevLinePlan100
  3
AecArchDACHBase50|Product Desc: Autodesk Architectural Desktop 2007 |Company: Autodesk,Inc. |WEB Address: www.autodesk.com
 90
    32897
280
     0
281
     0
  0
CLASS
  1
AEC_AECDBDISPREPBDGSECTIONLINEPLAN100
  2
AecDbDispRepBdgSectionLinePlan100
  3
AecArchDACHBase50|Product Desc: Autodesk Architectural Desktop 2007 |Company: Autodesk,Inc. |WEB Address: www.autodesk.com
 90
    32897
280
     0
281
     0
  0
CLASS
  1
AEC_AECDBDISPREPCEILINGGRIDPLAN100
  2
AecDbDispRepCeilingGridPlan100
  3
AecArchDACHBase50|Product Desc: Autodesk Architectural Desktop 2007 |Company: Autodesk,Inc. |WEB Address: www.autodesk.com
 90
    32897
280
     0
281
     0
  0
CLASS
  1
AEC_AECDBDISPREPCOLUMNGRIDPLAN100
  2
AecDbDispRepColumnGridPlan100
  3
AecArchDACHBase50|Product Desc: Autodesk Architectural Desktop 2007 |Company: Autodesk,Inc. |WEB Address: www.autodesk.com
 90
    32897
280
     0
281
     0
  0
CLASS
  1
AEC_AECDBDISPREPCURTAINWALLLAYOUTPLAN100
  2
AecDbDispRepCurtainWallLayoutPlan100
  3
AecArchDACHBase50|Product Desc: Autodesk Architectural Desktop 2007 |Company: Autodesk,Inc. |WEB Address: www.autodesk.com
 90
    32897
280
     0
281
     0
  0
CLASS
  1
AEC_AECDBDISPREPCURTAINWALLUNITPLAN100
  2
AecDbDispRepCurtainWallUnitPlan100
  3
AecArchDACHBase50|Product Desc: Autodesk Architectural Desktop 2007 |Company: Autodesk,Inc. |WEB Address: www.autodesk.com
 90
    32897
280
     0
281
     0
  0
CLASS
  1
AEC_AECDBDISPREPMVBLOCKREFPLAN100
  2
AecDbDispRepMvBlockRefPlan100
  3
AecArchDACHBase50|Product Desc: Autodesk Architectural Desktop 2007 |Company: Autodesk,Inc. |WEB Address: www.autodesk.com
 90
    32897
280
     0
281
     0
  0
CLASS
  1
AEC_AECDBDISPREPROOFPLAN100
  2
AecDbDispRepRoofPlan100
  3
AecArchDACHBase50|Product Desc: Autodesk Architectural Desktop 2007 |Company: Autodesk,Inc. |WEB Address: www.autodesk.com
 90
    32897
280
     0
281
     0
  0
CLASS
  1
AEC_AECDBDISPREPROOFSLABPLAN100
  2
AecDbDispRepRoofSlabPlan100
  3
AecArchDACHBase50|Product Desc: Autodesk Architectural Desktop 2007 |Company: Autodesk,Inc. |WEB Address: www.autodesk.com
 90
    32897
280
     0
281
     0
  0
CLASS
  1
AEC_AECDBDISPREPSLABPLAN100
  2
AecDbDispRepSlabPlan100
  3
AecArchDACHBase50|Product Desc: Autodesk Architectural Desktop 2007 |Company: Autodesk,Inc. |WEB Address: www.autodesk.com
 90
    32897
280
     0
281
     0
  0
CLASS
  1
AEC_AECDBDISPREPSPACEBOUNDARYPLAN100
  2
AecDbDispRepSpaceBoundaryPlan100
  3
AecArchDACHBase50|Product Desc: Autodesk Architectural Desktop 2007 |Company: Autodesk,Inc. |WEB Address: www.autodesk.com
 90
    32897
280
     0
281
     0
  0
CLASS
  1
AEC_AECDBDISPREPSPACEPLAN100
  2
AecDbDispRepSpacePlan100
  3
AecArchDACHBase50|Product Desc: Autodesk Architectural Desktop 2007 |Company: Autodesk,Inc. |WEB Address: www.autodesk.com
 90
    32897
280
     0
281
     0
  0
CLASS
  1
AEC_AECDBDISPREPWALLPLAN100
  2
AecDbDispRepWallPlan100
  3
AecArchDACHBase50|Product Desc: Autodesk Architectural Desktop 2007 |Company: Autodesk,Inc. |WEB Address: www.autodesk.com
 90
    32897
280
     0
281
     0
  0
CLASS
  1
AEC_AECDBDISPREPAREA50
  2
AecDbDispRepArea50
  3
AecArchDACHBase50|Product Desc: Autodesk Architectural Desktop 2007 |Company: Autodesk,Inc. |WEB Address: www.autodesk.com
 90
    32897
280
     0
281
     0
  0
CLASS
  1
AEC_AECDBDISPREPAREAGROUP50
  2
AecDbDispRepAreaGroup50
  3
AecArchDACHBase50|Product Desc: Autodesk Architectural Desktop 2007 |Company: Autodesk,Inc. |WEB Address: www.autodesk.com
 90
    32897
280
     0
281
     0
  0
CLASS
  1
AEC_AECDBDISPREPBDGELEVLINEPLAN50
  2
AecDbDispRepBdgElevLinePlan50
  3
AecArchDACHBase50|Product Desc: Autodesk Architectural Desktop 2007 |Company: Autodesk,Inc. |WEB Address: www.autodesk.com
 90
    32897
280
     0
281
     0
  0
CLASS
  1
AEC_AECDBDISPREPBDGSECTIONLINEPLAN50
  2
AecDbDispRepBdgSectionLinePlan50
  3
AecArchDACHBase50|Product Desc: Autodesk Architectural Desktop 2007 |Company: Autodesk,Inc. |WEB Address: www.autodesk.com
 90
    32897
280
     0
281
     0
  0
CLASS
  1
AEC_AECDBDISPREPCEILINGGRIDPLAN50
  2
AecDbDispRepCeilingGridPlan50
  3
AecArchDACHBase50|Product Desc: Autodesk Architectural Desktop 2007 |Company: Autodesk,Inc. |WEB Address: www.autodesk.com
 90
    32897
280
     0
281
     0
  0
CLASS
  1
AEC_AECDBDISPREPCOLUMNGRIDPLAN50
  2
AecDbDispRepColumnGridPlan50
  3
AecArchDACHBase50|Product Desc: Autodesk Architectural Desktop 2007 |Company: Autodesk,Inc. |WEB Address: www.autodesk.com
 90
    32897
280
     0
281
     0
  0
CLASS
  1
AEC_AECDBDISPREPCURTAINWALLLAYOUTPLAN50
  2
AecDbDispRepCurtainWallLayoutPlan50
  3
AecArchDACHBase50|Product Desc: Autodesk Architectural Desktop 2007 |Company: Autodesk,Inc. |WEB Address: www.autodesk.com
 90
    32897
280
     0
281
     0
  0
CLASS
  1
AEC_AECDBDISPREPCURTAINWALLUNITPLAN50
  2
AecDbDispRepCurtainWallUnitPlan50
  3
AecArchDACHBase50|Product Desc: Autodesk Architectural Desktop 2007 |Company: Autodesk,Inc. |WEB Address: www.autodesk.com
 90
    32897
280
     0
281
     0
  0
CLASS
  1
AEC_AECDBDISPREPMVBLOCKREFPLAN50
  2
AecDbDispRepMvBlockRefPlan50
  3
AecArchDACHBase50|Product Desc: Autodesk Architectural Desktop 2007 |Company: Autodesk,Inc. |WEB Address: www.autodesk.com
 90
    32897
280
     0
281
     0
  0
CLASS
  1
AEC_AECDBDISPREPROOFPLAN50
  2
AecDbDispRepRoofPlan50
  3
AecArchDACHBase50|Product Desc: Autodesk Architectural Desktop 2007 |Company: Autodesk,Inc. |WEB Address: www.autodesk.com
 90
    32897
280
     0
281
     0
  0
CLASS
  1
AEC_AECDBDISPREPROOFSLABPLAN50
  2
AecDbDispRepRoofSlabPlan50
  3
AecArchDACHBase50|Product Desc: Autodesk Architectural Desktop 2007 |Company: Autodesk,Inc. |WEB Address: www.autodesk.com
 90
    32897
280
     0
281
     0
  0
CLASS
  1
AEC_AECDBDISPREPSLABPLAN50
  2
AecDbDispRepSlabPlan50
  3
AecArchDACHBase50|Product Desc: Autodesk Architectural Desktop 2007 |Company: Autodesk,Inc. |WEB Address: www.autodesk.com
 90
    32897
280
     0
281
     0
  0
CLASS
  1
AEC_AECDBDISPREPSPACEBOUNDARYPLAN50
  2
AecDbDispRepSpaceBoundaryPlan50
  3
AecArchDACHBase50|Product Desc: Autodesk Architectural Desktop 2007 |Company: Autodesk,Inc. |WEB Address: www.autodesk.com
 90
    32897
280
     0
281
     0
  0
CLASS
  1
AEC_AECDBDISPREPSPACEPLAN50
  2
AecDbDispRepSpacePlan50
  3
AecArchDACHBase50|Product Desc: Autodesk Architectural Desktop 2007 |Company: Autodesk,Inc. |WEB Address: www.autodesk.com
 90
    32897
280
     0
281
     0
  0
CLASS
  1
AEC_AECDBDISPREPWALLPLAN50
  2
AecDbDispRepWallPlan50
  3
AecArchDACHBase50|Product Desc: Autodesk Architectural Desktop 2007 |Company: Autodesk,Inc. |WEB Address: www.autodesk.com
 90
    32897
280
     0
281
     0
  0
CLASS
  1
AEC_AECDBDISPREPWINDOWASSEMBLYPLAN50
  2
AecDbDispRepWindowAssemblyPlan50
  3
AecArchDACHBase50|Product Desc: Autodesk Architectural Desktop 2007 |Company: Autodesk,Inc. |WEB Address: www.autodesk.com
 90
    32897
280
     0
281
     0
  0
CLASS
  1
AEC_DB_DISP_REP_DIM_GROUP_PLAN100
  2
AecDbDispRepDimGroupPlan100
  3
AecArchDACHBase50|Product Desc: Autodesk Architectural Desktop 2007 |Company: Autodesk,Inc. |WEB Address: www.autodesk.com
 90
    32897
280
     0
281
     0
  0
CLASS
  1
AEC_DB_DISP_REP_DIM_GROUP_PLAN50
  2
AecDbDispRepDimGroupPlan50
  3
AecArchDACHBase50|Product Desc: Autodesk Architectural Desktop 2007 |Company: Autodesk,Inc. |WEB Address: www.autodesk.com
 90
    32897
280
     0
281
     0
  0
CLASS
  1
AEC_DISP_REP_DOOR_PLAN_50
  2
AecDbDispRepDoorPlan50
  3
AecArchDACHBase50|Product Desc: Autodesk Architectural Desktop 2007 |Company: Autodesk,Inc. |WEB Address: www.autodesk.com
 90
    32897
280
     0
281
     0
  0
CLASS
  1
AEC_DISP_PROPS_DOOR_PLAN_50
  2
AecDbDispPropsDoorPlan50
  3
AecArchDACHBase50|Product Desc: Autodesk Architectural Desktop 2007 |Company: Autodesk,Inc. |WEB Address: www.autodesk.com
 90
    32897
280
     0
281
     0
  0
CLASS
  1
AEC_DISP_REP_DOOR_PLAN_HEKTO
  2
AecDbDispRepDoorPlanHekto
  3
AecArchDACHBase50|Product Desc: Autodesk Architectural Desktop 2007 |Company: Autodesk,Inc. |WEB Address: www.autodesk.com
 90
    32897
280
     0
281
     0
  0
CLASS
  1
AEC_DISP_PROPS_DOOR_PLAN_100
  2
AecDbDispPropsDoorPlan100
  3
AecArchDACHBase50|Product Desc: Autodesk Architectural Desktop 2007 |Company: Autodesk,Inc. |WEB Address: www.autodesk.com
 90
    32897
280
     0
281
     0
  0
CLASS
  1
AEC_DISP_REP_DOOR_THRESHOLD_SYMBOL_PLAN
  2
AecDbDispRepDoorThresholdSymbolPlan
  3
AecArchDACHBase50|Product Desc: Autodesk Architectural Desktop 2007 |Company: Autodesk,Inc. |WEB Address: www.autodesk.com
 90
    32897
280
     0
281
     0
  0
CLASS
  1
AEC_DISP_PROPS_DOOR_THRESHOLD_SYMBOL_PLAN
  2
AecDbDispPropsDoorThresholdSymbolPlan
  3
AecArchDACHBase50|Product Desc: Autodesk Architectural Desktop 2007 |Company: Autodesk,Inc. |WEB Address: www.autodesk.com
 90
    32897
280
     0
281
     0
  0
CLASS
  1
AEC_DISPREPAECDBDISPREPMASSELEMPLAN100
  2
AecDbDispRepMassElemPlan100
  3
AecArchDACHBase50|Product Desc: Autodesk Architectural Desktop 2007 |Company: Autodesk,Inc. |WEB Address: www.autodesk.com
 90
    32897
280
     0
281
     0
  0
CLASS
  1
AEC_DISPROPSMASSELEMPLANCOMMON
  2
AecDbDispPropsMassElemPlanCommon
  3
AecArchDACHBase50|Product Desc: Autodesk Architectural Desktop 2007 |Company: Autodesk,Inc. |WEB Address: www.autodesk.com
 90
    32897
280
     0
281
     0
  0
CLASS
  1
AEC_DISPREPAECDBDISPREPMASSELEMPLAN50
  2
AecDbDispRepMassElemPlan50
  3
AecArchDACHBase50|Product Desc: Autodesk Architectural Desktop 2007 |Company: Autodesk,Inc. |WEB Address: www.autodesk.com
 90
    32897
280
     0
281
     0
  0
CLASS
  1
AEC_DISPREPAECDBDISPREPMASSGROUPPLAN100
  2
AecDbDispRepMassGroupPlan100
  3
AecArchDACHBase50|Product Desc: Autodesk Architectural Desktop 2007 |Company: Autodesk,Inc. |WEB Address: www.autodesk.com
 90
    32897
280
     0
281
     0
  0
CLASS
  1
AEC_DISPROPSMASSGROUPPLANCOMMON
  2
AecDbDispPropsMassGroupPlanCommon
  3
AecArchDACHBase50|Product Desc: Autodesk Architectural Desktop 2007 |Company: Autodesk,Inc. |WEB Address: www.autodesk.com
 90
    32897
280
     0
281
     0
  0
CLASS
  1
AEC_DISPREPAECDBDISPREPMASSGROUPPLAN50
  2
AecDbDispRepMassGroupPlan50
  3
AecArchDACHBase50|Product Desc: Autodesk Architectural Desktop 2007 |Company: Autodesk,Inc. |WEB Address: www.autodesk.com
 90
    32897
280
     0
281
     0
  0
CLASS
  1
AEC_DISPREPAECDBDISPREPOPENINGPLAN100
  2
AecDbDispRepOpeningPlan100
  3
AecArchDACHBase50|Product Desc: Autodesk Architectural Desktop 2007 |Company: Autodesk,Inc. |WEB Address: www.autodesk.com
 90
    32897
280
     0
281
     0
  0
CLASS
  1
AEC_DISPROPSOPENINGPLANCOMMONHATCHED
  2
AecDbDispPropsOpeningPlanCommonHatched
  3
AecArchDACHBase50|Product Desc: Autodesk Architectural Desktop 2007 |Company: Autodesk,Inc. |WEB Address: www.autodesk.com
 90
    32897
280
     0
281
     0
  0
CLASS
  1
AEC_DISPREPAECDBDISPREPOPENINGPLAN50
  2
AecDbDispRepOpeningPlan50
  3
AecArchDACHBase50|Product Desc: Autodesk Architectural Desktop 2007 |Company: Autodesk,Inc. |WEB Address: www.autodesk.com
 90
    32897
280
     0
281
     0
  0
CLASS
  1
AEC_DISPREPAECDBDISPREPOPENINGPLANREFLECTED
  2
AecDbDispRepOpeningPlanReflected
  3
AecArchDACHBase50|Product Desc: Autodesk Architectural Desktop 2007 |Company: Autodesk,Inc. |WEB Address: www.autodesk.com
 90
    32897
280
     0
281
     0
  0
CLASS
  1
AEC_DISPROPSOPENINGPLANCOMMON
  2
AecDbDispPropsOpeningPlanCommon
  3
AecArchDACHBase50|Product Desc: Autodesk Architectural Desktop 2007 |Company: Autodesk,Inc. |WEB Address: www.autodesk.com
 90
    32897
280
     0
281
     0
  0
CLASS
  1
AEC_DISPREPAECDBDISPREPOPENINGSILLPLAN
  2
AecDbDispRepOpeningSillPlan
  3
AecArchDACHBase50|Product Desc: Autodesk Architectural Desktop 2007 |Company: Autodesk,Inc. |WEB Address: www.autodesk.com
 90
    32897
280
     0
281
     0
  0
CLASS
  1
AEC_DISPROPSOPENINGSILLPLAN
  2
AecDbDispPropsOpeningSillPlan
  3
AecArchDACHBase50|Product Desc: Autodesk Architectural Desktop 2007 |Company: Autodesk,Inc. |WEB Address: www.autodesk.com
 90
    32897
280
     0
281
     0
  0
CLASS
  1
AEC_DISP_REP_RAILING_PLAN_100
  2
AecDbDispRepRailingPlan100
  3
AecArchDACHBase50|Product Desc: Autodesk Architectural Desktop 2007 |Company: Autodesk,Inc. |WEB Address: www.autodesk.com
 90
    32897
280
     0
281
     0
  0
CLASS
  1
AEC_DISP_ROPS_RAILING_PLAN_100
  2
AecDbDispPropsRailingPlan100
  3
AecArchDACHBase50|Product Desc: Autodesk Architectural Desktop 2007 |Company: Autodesk,Inc. |WEB Address: www.autodesk.com
 90
    32897
280
     0
281
     0
  0
CLASS
  1
AEC_DISP_REP_RAILING_PLAN_50
  2
AecDbDispRepRailingPlan50
  3
AecArchDACHBase50|Product Desc: Autodesk Architectural Desktop 2007 |Company: Autodesk,Inc. |WEB Address: www.autodesk.com
 90
    32897
280
     0
281
     0
  0
CLASS
  1
AEC_DISP_ROPS_RAILING_PLAN_50
  2
AecDbDispPropsRailingPlan50
  3
AecArchDACHBase50|Product Desc: Autodesk Architectural Desktop 2007 |Company: Autodesk,Inc. |WEB Address: www.autodesk.com
 90
    32897
280
     0
281
     0
  0
CLASS
  1
AEC_DISP_REP_STAIR_PLAN_100
  2
AecDbDispRepStairPlan100
  3
AecArchDACHBase50|Product Desc: Autodesk Architectural Desktop 2007 |Company: Autodesk,Inc. |WEB Address: www.autodesk.com
 90
    32897
280
     0
281
     0
  0
CLASS
  1
AEC_DISP_ROPS_STAIR_PLAN_100
  2
AecDbDispPropsStairPlan100
  3
AecArchDACHBase50|Product Desc: Autodesk Architectural Desktop 2007 |Company: Autodesk,Inc. |WEB Address: www.autodesk.com
 90
    32897
280
     0
281
     0
  0
CLASS
  1
AEC_DISP_REP_STAIR_PLAN_50
  2
AecDbDispRepStairPlan50
  3
AecArchDACHBase50|Product Desc: Autodesk Architectural Desktop 2007 |Company: Autodesk,Inc. |WEB Address: www.autodesk.com
 90
    32897
280
     0
281
     0
  0
CLASS
  1
AEC_DISP_ROPS_STAIR_PLAN_50
  2
AecDbDispPropsStairPlan50
  3
AecArchDACHBase50|Product Desc: Autodesk Architectural Desktop 2007 |Company: Autodesk,Inc. |WEB Address: www.autodesk.com
 90
    32897
280
     0
281
     0
  0
CLASS
  1
AEC_DISP_REP_WINDOW_PLAN_100
  2
AecDbDispRepWindowPlan100
  3
AecArchDACHBase50|Product Desc: Autodesk Architectural Desktop 2007 |Company: Autodesk,Inc. |WEB Address: www.autodesk.com
 90
    32897
280
     0
281
     0
  0
CLASS
  1
AEC_DISP_PROPS_WINDOW_PLAN_100
  2
AecDbDispPropsWindowPlan100
  3
AecArchDACHBase50|Product Desc: Autodesk Architectural Desktop 2007 |Company: Autodesk,Inc. |WEB Address: www.autodesk.com
 90
    32897
280
     0
281
     0
  0
CLASS
  1
AEC_DISP_REP_WINDOW_PLAN_50
  2
AecDbDispRepWindowPlan50
  3
AecArchDACHBase50|Product Desc: Autodesk Architectural Desktop 2007 |Company: Autodesk,Inc. |WEB Address: www.autodesk.com
 90
    32897
280
     0
281
     0
  0
CLASS
  1
AEC_DISP_PROPS_WINDOW_PLAN_50
  2
AecDbDispPropsWindowPlan50
  3
AecArchDACHBase50|Product Desc: Autodesk Architectural Desktop 2007 |Company: Autodesk,Inc. |WEB Address: www.autodesk.com
 90
    32897
280
     0
281
     0
  0
CLASS
  1
BINRECORD
  2
AcAecBinRecord
  3
AecBase50|Product Desc: Autodesk Architectural Desktop 2007 |Company: Autodesk,Inc. |WEB Address: www.autodesk.com
 90
    32897
280
     0
281
     0
  0
CLASS
  1
SORTENTSTABLE
  2
AcDbSortentsTable
  3
ObjectDBX Classes
 90
        0
280
     0
281
     0
  0
CLASS
  1
AEC_MASS_ELEM
  2
AecDbMassElem
  3
AecBaseEx50|Product Desc: Autodesk Architectural Desktop 2007 |Company: Autodesk,Inc. |WEB Address: www.autodesk.com
 90
    33661
280
     0
281
     1
  0
CLASS
  1
MATERIAL
  2
AcDbMaterial
  3
ObjectDBX Classes
 90
     1153
280
     0
281
     0
  0
CLASS
  1
AECS_MEMBER
  2
AecsDbMember
  3
AecStructureBase50|Product Desc: Autodesk Architectural Desktop 2007 |Company: Autodesk,Inc. |WEB Address: www.autodesk.com
 90
    33661
280
     0
281
     1
  0
CLASS
  1
AEC_WALL
  2
AecDbWall
  3
AecArchBase50|Product Desc: Autodesk Architectural Desktop 2007 |Company: Autodesk,Inc. |WEB Address: www.autodesk.com
 90
    33661
280
     0
281
     1
  0
CLASS
  1
AEC_DOOR
  2
AecDbDoor
  3
AecArchBase50|Product Desc: Autodesk Architectural Desktop 2007 |Company: Autodesk,Inc. |WEB Address: www.autodesk.com
 90
    33661
280
     0
281
     1
  0
CLASS
  1
AEC_ANCHOR_OPENINGBASE_TO_WALL
  2
AecDbAnchorOpeningBaseToWall
  3
AecArchBase50|Product Desc: Autodesk Architectural Desktop 2007 |Company: Autodesk,Inc. |WEB Address: www.autodesk.com
 90
    32897
280
     0
281
     0
  0
CLASS
  1
AEC_SPACE_BOUNDARY
  2
AecDbSpaceBoundary
  3
AecArchBase50|Product Desc: Autodesk Architectural Desktop 2007 |Company: Autodesk,Inc. |WEB Address: www.autodesk.com
 90
    33661
280
     0
281
     1
  0
CLASS
  1
AEC_SPACE
  2
AecDbSpace
  3
AecArchBase50|Product Desc: Autodesk Architectural Desktop 2007 |Company: Autodesk,Inc. |WEB Address: www.autodesk.com
 90
    33661
280
     0
281
     1
  0
CLASS
  1
AecDbPropertySet
  2
AecDbPropertySet
  3
AecScheduleData50|Product Desc: Autodesk Architectural Desktop 2007 |Company: Autodesk,Inc. |WEB Address: www.autodesk.com
 90
    32897
280
     0
281
     0
  0
CLASS
  1
AEC_MVBLOCK_REF
  2
AecDbMvBlockRef
  3
AecBase50|Product Desc: Autodesk Architectural Desktop 2007 |Company: Autodesk,Inc. |WEB Address: www.autodesk.com
 90
    33661
280
     0
281
     1
  0
CLASS
  1
AEC_ANCHOR_TAG_TO_ENT
  2
AecDbAnchorTagToEnt
  3
AecScheduleData50|Product Desc: Autodesk Architectural Desktop 2007 |Company: Autodesk,Inc. |WEB Address: www.autodesk.com
 90
    32897
280
     0
281
     0
  0
CLASS
  1
AEC_WINDOW
  2
AecDbWindow
  3
AecArchBase50|Product Desc: Autodesk Architectural Desktop 2007 |Company: Autodesk,Inc. |WEB Address: www.autodesk.com
 90
    33661
280
     0
281
     1
  0
CLASS
  1
AEC_OPENING
  2
AecDbOpening
  3
AecArchBase50|Product Desc: Autodesk Architectural Desktop 2007 |Company: Autodesk,Inc. |WEB Address: www.autodesk.com
 90
    33661
280
     0
281
     1
  0
CLASS
  1
AEC_CLASSIFICATION_SYSTEM_DEF
  2
AecDbClassificationSystemDef
  3
AecBase50|Product Desc: Autodesk Architectural Desktop 2007 |Company: Autodesk,Inc. |WEB Address: www.autodesk.com
 90
    32897
280
     0
281
     0
  0
CLASS
  1
AEC_CLASSIFICATION_DEF
  2
AecDbClassificationDef
  3
AecBase50|Product Desc: Autodesk Architectural Desktop 2007 |Company: Autodesk,Inc. |WEB Address: www.autodesk.com
 90
    32897
280
     0
281
     0
  0
CLASS
  1
AEC_CLEANUP_GROUP_DEF
  2
AecDbCleanupGroupDef
  3
AecArchBase50|Product Desc: Autodesk Architectural Desktop 2007 |Company: Autodesk,Inc. |WEB Address: www.autodesk.com
 90
    32897
280
     0
281
     0
  0
CLASS
  1
AEC_DOOR_STYLE
  2
AecDbDoorStyle
  3
AecArchBase50|Product Desc: Autodesk Architectural Desktop 2007 |Company: Autodesk,Inc. |WEB Address: www.autodesk.com
 90
    32897
280
     0
281
     0
  0
CLASS
  1
AEC_STDSIZE_OPENINGS
  2
AecDbStdSizeOpeningList
  3
AecArchBase50|Product Desc: Autodesk Architectural Desktop 2007 |Company: Autodesk,Inc. |WEB Address: www.autodesk.com
 90
    32897
280
     0
281
     0
  0
CLASS
  1
AEC_ENDCAP_STYLE
  2
AecDbEndcapStyle
  3
AecArchBase50|Product Desc: Autodesk Architectural Desktop 2007 |Company: Autodesk,Inc. |WEB Address: www.autodesk.com
 90
    32897
280
     0
281
     0
  0
CLASS
  1
AEC_MASS_ELEM_STYLE
  2
AecDbMassElemStyle
  3
AecBaseEx50|Product Desc: Autodesk Architectural Desktop 2007 |Company: Autodesk,Inc. |WEB Address: www.autodesk.com
 90
    32897
280
     0
281
     0
  0
CLASS
  1
AEC_MATERIAL_DEF
  2
AecDbMaterialDef
  3
AecBase50|Product Desc: Autodesk Architectural Desktop 2007 |Company: Autodesk,Inc. |WEB Address: www.autodesk.com
 90
    32897
280
     0
281
     0
  0
CLASS
  1
AEC_MVBLOCK_DEF
  2
AecDbMvBlockDef
  3
AecBase50|Product Desc: Autodesk Architectural Desktop 2007 |Company: Autodesk,Inc. |WEB Address: www.autodesk.com
 90
    32897
280
     0
281
     0
  0
CLASS
  1
AEC_FRAME_DEF
  2
AecDbOpeningEndcapStyle
  3
AecArchBase50|Product Desc: Autodesk Architectural Desktop 2007 |Company: Autodesk,Inc. |WEB Address: www.autodesk.com
 90
    32897
280
     0
281
     0
  0
CLASS
  1
AEC_PROFILE_DEF
  2
AecDbProfileDef
  3
AecBase50|Product Desc: Autodesk Architectural Desktop 2007 |Company: Autodesk,Inc. |WEB Address: www.autodesk.com
 90
    32897
280
     0
281
     0
  0
CLASS
  1
AEC_SCHEDULE_DATA_FORMAT
  2
AecDbScheduleDataFormat
  3
AecScheduleData50|Product Desc: Autodesk Architectural Desktop 2007 |Company: Autodesk,Inc. |WEB Address: www.autodesk.com
 90
    32897
280
     0
281
     0
  0
CLASS
  1
AEC_PROPERTY_SET_DEF
  2
AecDbPropertySetDef
  3
AecScheduleData50|Product Desc: Autodesk Architectural Desktop 2007 |Company: Autodesk,Inc. |WEB Address: www.autodesk.com
 90
    32897
280
     0
281
     0
  0
CLASS
  1
AEC_SPACE_STYLES
  2
AecDbSpaceStyle
  3
AecArchBase50|Product Desc: Autodesk Architectural Desktop 2007 |Company: Autodesk,Inc. |WEB Address: www.autodesk.com
 90
    32897
280
     0
281
     0
  0
CLASS
  1
AEC_TEXT_NOTE
  2
AecDbTextNote
  3
AecBase50|Product Desc: Autodesk Architectural Desktop 2007 |Company: Autodesk,Inc. |WEB Address: www.autodesk.com
 90
    32897
280
     0
281
     0
  0
CLASS
  1
AECS_MEMBER_STYLE
  2
AecsDbMemberStyle
  3
AecStructureBase50|Product Desc: Autodesk Architectural Desktop 2007 |Company: Autodesk,Inc. |WEB Address: www.autodesk.com
 90
    32897
280
     0
281
     0
  0
CLASS
  1
AEC_VARS_STRUCTUREBASE
  2
AecsDbVarsStructureBase
  3
AecStructureBase50|Product Desc: Autodesk Architectural Desktop 2007 |Company: Autodesk,Inc. |WEB Address: www.autodesk.com
 90
    32897
280
     0
281
     0
  0
CLASS
  1
AEC_WALL_STYLE
  2
AecDbWallStyle
  3
AecArchBase50|Product Desc: Autodesk Architectural Desktop 2007 |Company: Autodesk,Inc. |WEB Address: www.autodesk.com
 90
    32897
280
     0
281
     0
  0
CLASS
  1
AEC_WINDOW_STYLE
  2
AecDbWindowStyle
  3
AecArchBase50|Product Desc: Autodesk Architectural Desktop 2007 |Company: Autodesk,Inc. |WEB Address: www.autodesk.com
 90
    32897
280
     0
281
     0
  0
CLASS
  1
AECS_MEMBER_NODE_SHAPE
  2
AecsDbMemberNodeShape
  3
AecStructureBase50|Product Desc: Autodesk Architectural Desktop 2007 |Company: Autodesk,Inc. |WEB Address: www.autodesk.com
 90
    32897
280
     0
281
     0
  0
CLASS
  1
AEC_SCHEDULE_TABLE
  2
AecDbScheduleTable
  3
AecSchedule50|Product Desc: Autodesk Architectural Desktop 2007 |Company: Autodesk,Inc. |WEB Address: www.autodesk.com
 90
    33661
280
     0
281
     1
  0
CLASS
  1
AEC_SCHEDULE_TABLE_STYLE
  2
AecDbScheduleTableStyle
  3
AecSchedule50|Product Desc: Autodesk Architectural Desktop 2007 |Company: Autodesk,Inc. |WEB Address: www.autodesk.com
 90
    32897
280
     0
281
     0
  0
CLASS
  1
AEC_ANCHOR_MVB_TO_UCS
  2
AecDbAnchorMVBToUCS
  3
AecBase50|Product Desc: Autodesk Architectural Desktop 2007 |Company: Autodesk,Inc. |WEB Address: www.autodesk.com
 90
    32897
280
     0
281
     0
  0
CLASS
  1
IMAGEDEF
  2
AcDbRasterImageDef
  3
ISM
 90
    32768
280
     0
281
     0
  0
CLASS
  1
AEC_ANCHOR_ENT_TO_GRID_ASSEMBLY
  2
AecDbAnchorEntToGridAssembly
  3
AecBase50|Product Desc: Autodesk Architectural Desktop 2007 |Company: Autodesk,Inc. |WEB Address: www.autodesk.com
 90
    32897
280
     0
281
     0
  0
CLASS
  1
AEC_WINDOW_ASSEMBLY
  2
AecDbWindowAssembly
  3
AecArchBase50|Product Desc: Autodesk Architectural Desktop 2007 |Company: Autodesk,Inc. |WEB Address: www.autodesk.com
 90
    33661
280
     0
281
     1
  0
CLASS
  1
AEC_ANCHOR_WINASSEMBLY_TO_WALL
  2
AecDbAnchorWinAssemblyToWall
  3
AecArchBase50|Product Desc: Autodesk Architectural Desktop 2007 |Company: Autodesk,Inc. |WEB Address: www.autodesk.com
 90
    32897
280
     0
281
     0
  0
CLASS
  1
AEC_STAIR
  2
AecDbStair
  3
AecArchBase50|Product Desc: Autodesk Architectural Desktop 2007 |Company: Autodesk,Inc. |WEB Address: www.autodesk.com
 90
    33661
280
     0
281
     1
  0
CLASS
  1
AEC_RAILING
  2
AecDbRailing
  3
AecArchBase50|Product Desc: Autodesk Architectural Desktop 2007 |Company: Autodesk,Inc. |WEB Address: www.autodesk.com
 90
    33661
280
     0
281
     1
  0
CLASS
  1
AEC_ANCHOR_RAILING_TO_STAIR
  2
AecDbAnchorRailingToStair
  3
AecArchBase50|Product Desc: Autodesk Architectural Desktop 2007 |Company: Autodesk,Inc. |WEB Address: www.autodesk.com
 90
    32897
280
     0
281
     0
  0
CLASS
  1
AEC_RAILING_STYLE
  2
AecDbRailingStyle
  3
AecArchBase50|Product Desc: Autodesk Architectural Desktop 2007 |Company: Autodesk,Inc. |WEB Address: www.autodesk.com
 90
    32897
280
     0
281
     0
  0
CLASS
  1
AEC_STAIR_STYLE
  2
AecDbStairStyle
  3
AecArchBase50|Product Desc: Autodesk Architectural Desktop 2007 |Company: Autodesk,Inc. |WEB Address: www.autodesk.com
 90
    32897
280
     0
281
     0
  0
CLASS
  1
AEC_STAIR_WINDER_STYLE
  2
AecDbStairWinderStyle
  3
AecArchBase50|Product Desc: Autodesk Architectural Desktop 2007 |Company: Autodesk,Inc. |WEB Address: www.autodesk.com
 90
    32897
280
     0
281
     0
  0
CLASS
  1
AEC_STAIR_WINDER_TYPE_SINGLE_POINT
  2
AecDbStairWinderTypeSinglePoint
  3
AecArchBase50|Product Desc: Autodesk Architectural Desktop 2007 |Company: Autodesk,Inc. |WEB Address: www.autodesk.com
 90
    32897
280
     0
281
     0
  0
CLASS
  1
AEC_WINDOW_ASSEMBLY_STYLE
  2
AecDbWindowAssemblyStyle
  3
AecArchBase50|Product Desc: Autodesk Architectural Desktop 2007 |Company: Autodesk,Inc. |WEB Address: www.autodesk.com
 90
    32897
280
     0
281
     0
  0
CLASS
  1
AEC_AECDBAREASTYLE
  2
AecDbAreaStyle
  3
AecAreaCalculationBase50|Product Desc: Autodesk Architectural Desktop 2007 |Company: Autodesk,Inc. |WEB Address: www.autodesk.com
 90
    32897
280
     0
281
     0
  0
CLASS
  1
AEC_AECDBAREAPROPOSALNAMES
  2
AecDbAreaProposalNames
  3
AecAreaCalculationBase50|Product Desc: Autodesk Architectural Desktop 2007 |Company: Autodesk,Inc. |WEB Address: www.autodesk.com
 90
    32897
280
     0
281
     0
  0
CLASS
  1
AEC_AREA
  2
AecDbArea
  3
AecAreaCalculationBase50|Product Desc: Autodesk Architectural Desktop 2007 |Company: Autodesk,Inc. |WEB Address: www.autodesk.com
 90
    33661
280
     0
281
     1
  0
CLASS
  1
OBJECT_PTR
  2
CAseDLPNTableRecord
  3
ASE-LPNTableRecord
 90
    32769
280
     1
281
     0
  0
CLASS
  1
TABLESTYLE
  2
AcDbTableStyle
  3
ObjectDBX Classes
 90
     4095
280
     0
281
     0
  0
CLASS
  1
AEC_DISP_REP_DISPLAYTHEME
  2
AecDbDispRepDisplayTheme
  3
AecBase50|Product Desc: Autodesk Architectural Desktop 2007 |Company: Autodesk,Inc. |WEB Address: www.autodesk.com
 90
    32897
280
     0
281
     0
  0
CLASS
  1
AEC_DISP_PROPS_DISPLAYTHEME
  2
AecDbDispPropsDisplayTheme
  3
AecBase50|Product Desc: Autodesk Architectural Desktop 2007 |Company: Autodesk,Inc. |WEB Address: www.autodesk.com
 90
    32897
280
     0
281
     0
  0
CLASS
  1
AEC_DISP_REP_ANCHOR_EXT_TAG_TO_ENT
  2
AecDbDispRepAnchorExtendedTagToEnt
  3
AecScheduleData50|Product Desc: Autodesk Architectural Desktop 2007 |Company: Autodesk,Inc. |WEB Address: www.autodesk.com
 90
    32897
280
     0
281
     0
  0
CLASS
  1
VISUALSTYLE
  2
AcDbVisualStyle
  3
ObjectDBX Classes
 90
     4095
280
     0
281
     0
  0
CLASS
  1
AEC_AECDBDISPREPZONE100
  2
AecDbDispRepZonePlan100
  3
AecArchDACHBase50|Product Desc: Autodesk Architectural Desktop 2007 |Company: Autodesk,Inc. |WEB Address: www.autodesk.com
 90
    32897
280
     0
281
     0
  0
CLASS
  1
AEC_DISP_PROPS_ZONE
  2
AecDbDispPropsZone
  3
AecArchBase50|Product Desc: Autodesk Architectural Desktop 2007 |Company: Autodesk,Inc. |WEB Address: www.autodesk.com
 90
    32897
280
     0
281
     0
  0
CLASS
  1
AEC_AECDBDISPREPZONE50
  2
AecDbDispRepZonePlan50
  3
AecArchDACHBase50|Product Desc: Autodesk Architectural Desktop 2007 |Company: Autodesk,Inc. |WEB Address: www.autodesk.com
 90
    32897
280
     0
281
     0
  0
CLASS
  1
AEC_DISP_REP_SPACE_DECOMPOSED
  2
AecDbDispRepSpaceDecomposed
  3
AecArchBase50|Product Desc: Autodesk Architectural Desktop 2007 |Company: Autodesk,Inc. |WEB Address: www.autodesk.com
 90
    32897
280
     0
281
     0
  0
CLASS
  1
AEC_DISP_PROPS_SPACE_DECOMPOSED
  2
AecDbDispPropsSpaceDecomposed
  3
AecArchBase50|Product Desc: Autodesk Architectural Desktop 2007 |Company: Autodesk,Inc. |WEB Address: www.autodesk.com
 90
    32897
280
     0
281
     0
  0
CLASS
  1
AEC_DISP_REP_ZONE
  2
AecDbDispRepZone
  3
AecArchBase50|Product Desc: Autodesk Architectural Desktop 2007 |Company: Autodesk,Inc. |WEB Address: www.autodesk.com
 90
    32897
280
     0
281
     0
  0
CLASS
  1
AEC_LIST_DEF
  2
AecDbListDefinition
  3
AecBase50|Product Desc: Autodesk Architectural Desktop 2007 |Company: Autodesk,Inc. |WEB Address: www.autodesk.com
 90
    32897
280
     0
281
     0
  0
CLASS
  1
EXACXREFPANELOBJECT
  2
ExAcXREFPanelObject
  3
EXAC_ESW
 90
    33793
280
     1
281
     0
  0
CLASS
  1
NPOCOLLECTION
  2
AcDbImpNonPersistentObjectsCollection
  3
ObjectDBX Classes
 90
    33921
280
     0
281
     0
  0
CLASS
  1
ACAD_EVALUATION_GRAPH
  2
AcDbEvalGraph
  3
ObjectDBX Classes
 90
    33921
280
     0
281
     0
  0
CLASS
  1
BLOCKLINEARPARAMETER
  2
AcDbBlockLinearParameter
  3
ObjectDBX Classes
 90
    33921
280
     0
281
     0
  0
CLASS
  1
BLOCKLINEARGRIP
  2
AcDbBlockLinearGrip
  3
ObjectDBX Classes
 90
    33921
280
     0
281
     0
  0
CLASS
  1
BLOCKGRIPLOCATIONCOMPONENT
  2
AcDbBlockGripExpr
  3
ObjectDBX Classes
 90
    33921
280
     0
281
     0
  0
CLASS
  1
BLOCKSTRETCHACTION
  2
AcDbBlockStretchAction
  3
ObjectDBX Classes
 90
    33921
280
     0
281
     0
  0
CLASS
  1
BLOCKFLIPPARAMETER
  2
AcDbBlockFlipParameter
  3
ObjectDBX Classes
 90
    33921
280
     0
281
     0
  0
CLASS
  1
BLOCKFLIPGRIP
  2
AcDbBlockFlipGrip
  3
ObjectDBX Classes
 90
    33921
280
     0
281
     0
  0
CLASS
  1
BLOCKFLIPACTION
  2
AcDbBlockFlipAction
  3
ObjectDBX Classes
 90
    33921
280
     0
281
     0
  0
CLASS
  1
ACDB_DYNAMICBLOCKPURGEPREVENTER_VERSION
  2
AcDbDynamicBlockPurgePreventer
  3
ObjectDBX Classes
 90
    33921
280
     0
281
     0
  0
CLASS
  1
ACDB_BLOCKREPRESENTATION_DATA
  2
AcDbBlockRepresentationData
  3
ObjectDBX Classes
 90
    33921
280
     0
281
     0
  0
CLASS
  1
AEC_SLAB
  2
AecDbSlab
  3
AecArchBase50|Product Desc: Autodesk Architectural Desktop 2007 |Company: Autodesk,Inc. |WEB Address: www.autodesk.com
 90
    33661
280
     0
281
     1
  0
CLASS
  1
AEC_LIST_DEF
  2
AecDbListItem
  3
AecBase50|Product Desc: Autodesk Architectural Desktop 2007 |Company: Autodesk,Inc. |WEB Address: www.autodesk.com
 90
    32897
280
     0
281
     0
  0
CLASS
  1
AEC_ROOFSLAB_STYLE
  2
AecDbRoofSlabStyle
  3
AecArchBase50|Product Desc: Autodesk Architectural Desktop 2007 |Company: Autodesk,Inc. |WEB Address: www.autodesk.com
 90
    32897
280
     0
281
     0
  0
CLASS
  1
AEC_ROOFSLABEDGE_STYLE
  2
AecDbRoofSlabEdgeStyle
  3
AecArchBase50|Product Desc: Autodesk Architectural Desktop 2007 |Company: Autodesk,Inc. |WEB Address: www.autodesk.com
 90
    32897
280
     0
281
     0
  0
CLASS
  1
AEC_SLAB_STYLE
  2
AecDbSlabStyle
  3
AecArchBase50|Product Desc: Autodesk Architectural Desktop 2007 |Company: Autodesk,Inc. |WEB Address: www.autodesk.com
 90
    32897
280
     0
281
     0
  0
CLASS
  1
AEC_SLABEDGE_STYLE
  2
AecDbSlabEdgeStyle
  3
AecArchBase50|Product Desc: Autodesk Architectural Desktop 2007 |Company: Autodesk,Inc. |WEB Address: www.autodesk.com
 90
    32897
280
     0
281
     0
  0
CLASS
  1
EXACTERMXREFMAP
  2
ExAcTermXrefMap
  3
EXAC_SERVICE
 90
    33793
280
     1
281
     0
  0
CLASS
  1
AEC_AECDBZONESTYLE
  2
AecDbZoneStyle
  3
AecArchBase50|Product Desc: Autodesk Architectural Desktop 2007 |Company: Autodesk,Inc. |WEB Address: www.autodesk.com
 90
    32897
280
     0
281
     0
  0
CLASS
  1
AEC_ZONE
  2
AecDbZone
  3
AecArchBase50|Product Desc: Autodesk Architectural Desktop 2007 |Company: Autodesk,Inc. |WEB Address: www.autodesk.com
 90
    33661
280
     0
281
     1
  0
CLASS
  1
ACAD_TABLE
  2
AcDbTable
  3
ObjectDBX Classes
 90
    33793
280
     0
281
     1
  0
CLASS
  1
AEC_DISPLAYTHEME_STYLE
  2
AecDbDisplayThemeStyle
  3
AecBase50|Product Desc: Autodesk Architectural Desktop 2007 |Company: Autodesk,Inc. |WEB Address: www.autodesk.com
 90
    32897
280
     0
281
     0
  0
CLASS
  1
DIMASSOC
  2
AcDbDimAssoc
  3
"AcDbDimAssoc|Product Desc:     AcDim ARX App For Dimension|Company:          Autodesk, Inc.|WEB Address:      www.autodesk.com"
 90
    32768
280
     0
281
     0
  0
CLASS
  1
AEC_MASS_GROUP
  2
AecDbMassGroup
  3
AecBaseEx50|Product Desc: Autodesk Architectural Desktop 2007 |Company: Autodesk,Inc. |WEB Address: www.autodesk.com
 90
    33661
280
     0
281
     1
  0
CLASS
  1
AEC_ANCHOR_ENT_TO_ENT
  2
AecDbAnchorEntToEnt
  3
AecBase50|Product Desc: Autodesk Architectural Desktop 2007 |Company: Autodesk,Inc. |WEB Address: www.autodesk.com
 90
    32897
280
     0
281
     0
  0
CLASS
  1
AEC_2D_SECTION
  2
AecDb2dSection
  3
AecBase50|Product Desc: Autodesk Architectural Desktop 2007 |Company: Autodesk,Inc. |WEB Address: www.autodesk.com
 90
    33661
280
     0
281
     1
  0
CLASS
  1
AEC_2DSECTION_STYLE
  2
AecDb2dSectionStyle
  3
AecBase50|Product Desc: Autodesk Architectural Desktop 2007 |Company: Autodesk,Inc. |WEB Address: www.autodesk.com
 90
    32897
280
     0
281
     0
  0
CLASS
  1
SCALE
  2
AcDbScale
  3
ObjectDBX Classes
 90
     1153
280
     0
281
     0
  0
CLASS
  1
MLEADERSTYLE
  2
AcDbMLeaderStyle
  3
ACDB_MLEADERSTYLE_CLASS
 90
     4095
280
     0
281
     0
  0
CLASS
  1
AEC_REFEDIT_STATUS_TRACKER
  2
AecDbRefEditStatusTracker
  3
AecArchBase50|Product Desc: Autodesk Architectural Desktop 2007 |Company: Autodesk,Inc. |WEB Address: www.autodesk.com
 90
    32897
280
     0
281
     0
  0
CLASS
  1
CELLSTYLEMAP
  2
AcDbCellStyleMap
  3
ObjectDBX Classes
 90
     1152
280
     0
281
     0
  0
CLASS
  1
BLOCKARRAYACTION
  2
AcDbBlockArrayAction
  3
ObjectDBX Classes
 90
    33921
280
     0
281
     0
  0
CLASS
  1
BLOCKBASEPOINTPARAMETER
  2
AcDbBlockBasepointParameter
  3
ObjectDBX Classes
 90
    33921
280
     0
281
     0
  0
CLASS
  1
SOLID_BACKGROUND
  2
AcDbSolidBackground
  3
SCENEOE
 90
    36863
280
     0
281
     0
  0
ENDSEC
  0
SECTION
  2
TABLES
  0
TABLE
  2
VPORT
  5
28
330
0
100
AcDbSymbolTable
 70
     1
  0
VPORT
  5
29
330
28
100
AcDbSymbolTableRecord
100
AcDbViewportTableRecord
  2
*Active
 70
     0
 10
0.0
 20
0.0
 11
1.0
 21
1.0
 12
60129.64250347635
 22
756.3183560402213
 13
-3534.953416816247
 23
4038.000000000049
 14
1.0
 24
1.0
 15
1.0
 25
1.0
 16
0.0
 26
0.0
 36
1.0
 17
0.0
 27
0.0
 37
0.0
 40
37530.87558901361
 41
1.574498567335243
 42
50.0
 43
0.0
 44
0.0
 50
0.0
 51
0.0
 71
     0
 72
  2000
 73
     1
 74
     1
 75
     0
 76
     0
 77
     0
 78
     0
281
     0
 65
     1
110
0.0
120
0.0
130
0.0
111
1.0
121
0.0
131
0.0
112
0.0
122
1.0
132
0.0
 79
     0
146
0.0
  0
ENDTAB
  0
TABLE
  2
LTYPE
  5
23
330
0
100
AcDbSymbolTable
 70
     5
  0
LTYPE
  5
24
330
23
100
AcDbSymbolTableRecord
100
AcDbLinetypeTableRecord
  2
BYBLOCK
 70
     0
  3

 72
    65
 73
     0
 40
0.0
  0
LTYPE
  5
25
330
23
100
AcDbSymbolTableRecord
100
AcDbLinetypeTableRecord
  2
BYLAYER
 70
     0
  3

 72
    65
 73
     0
 40
0.0
  0
LTYPE
  5
E
330
23
100
AcDbSymbolTableRecord
100
AcDbLinetypeTableRecord
  2
CONTINUOUS
 70
     0
  3
Solid line
 72
    65
 73
     0
 40
0.0
  0
LTYPE
  5
77
330
23
100
AcDbSymbolTableRecord
100
AcDbLinetypeTableRecord
  2
DASHED
 70
     0
  3
Dashed __ __ __ __ __ __ __ __ __ __ __ __ __ _
 72
    65
 73
     2
 40
0.75
 49
0.5
 74
     0
 49
-0.25
 74
     0
  0
LTYPE
  5
1CFB
330
23
100
AcDbSymbolTableRecord
100
AcDbLinetypeTableRecord
  2
HIDDEN
 70
     0
  3
Hidden __ __ __ __ __ __ __ __ __ __ __ __ __ _
 72
    65
 73
     2
 40
0.375
 49
0.25
 74
     0
 49
-0.125
 74
     0
  0
LTYPE
  5
234B
330
23
100
AcDbSymbolTableRecord
100
AcDbLinetypeTableRecord
  2
HIDDEN2
 70
     0
  3
Hidden (.5x) _ _ _ _ _ _ _ _ _ _ _ _ _ _ _ _ _
 72
    65
 73
     2
 40
0.1875
 49
0.125
 74
     0
 49
-0.0625
 74
     0
  0
ENDTAB
  0
TABLE
  2
LAYER
  5
1D
102
{ACAD_XDICTIONARY
360
1E
102
}
330
0
100
AcDbSymbolTable
 70
    19
  0
LAYER
  5
6
102
{ACAD_XDICTIONARY
360
7
102
}
330
1D
100
AcDbSymbolTableRecord
100
AcDbLayerTableRecord
  2
0
 70
     0
 62
     7
  6
CONTINUOUS
370
    -3
390
9
1001
RAK
1000
{ACET-LAYISO
1070
     0
1070
     7
1000
CONTINUOUS
1070
     1
1071
       -3
1071
        1
1005
9
1000
ACET-LAYISO}
  0
LAYER
  5
74
102
{ACAD_XDICTIONARY
360
75
102
}
330
1D
100
AcDbSymbolTableRecord
100
AcDbLayerTableRecord
  2
NAPISY
 70
     0
 62
   140
  6
CONTINUOUS
370
    -3
390
9
1001
RAK
1000
{ACET-LAYISO
1070
     0
1070
   140
1000
CONTINUOUS
1071
       -3
1071
        1
1005
9
1000
ACET-LAYISO}
  0
LAYER
  5
3B5
330
1D
100
AcDbSymbolTableRecord
100
AcDbLayerTableRecord
  2
Defpoints
 70
     0
 62
     7
  6
CONTINUOUS
290
     0
370
    -3
390
9
1001
RAK
1000
{ACET-LAYISO
1070
     0
1070
     7
1000
CONTINUOUS
1071
       -3
1071
        0
1005
9
1000
ACET-LAYISO}
  0
LAYER
  5
56
102
{ACAD_XDICTIONARY
360
57
102
}
330
1D
100
AcDbSymbolTableRecord
100
AcDbLayerTableRecord
  2
0Wymiary-PL
 70
     0
 62
     1
  6
CONTINUOUS
370
     5
390
9
  0
LAYER
  5
3A3
102
{ACAD_XDICTIONARY
360
3A4
102
}
330
1D
100
AcDbSymbolTableRecord
100
AcDbLayerTableRecord
  2
0Hatch
 70
     0
 62
   122
  6
CONTINUOUS
370
     5
390
9
  0
LAYER
  5
7E
102
{ACAD_XDICTIONARY
360
7F
102
}
330
1D
100
AcDbSymbolTableRecord
100
AcDbLayerTableRecord
  2
RAMKI-A4
 70
     0
 62
     2
  6
CONTINUOUS
290
     0
370
    -3
390
9
1001
RAK
1000
{ACET-LAYISO
1070
     0
1070
     2
1000
Continuous
1071
       -3
1071
        0
1005
9
1000
ACET-LAYISO}
  0
LAYER
  5
1326
330
1D
100
AcDbSymbolTableRecord
100
AcDbLayerTableRecord
  2
TEREN$0$A-MassElement-G
 70
     0
 62
   210
  6
CONTINUOUS
370
     9
390
9
1001
AcAecLayerStandard
1000
BS1192 - Descriptive
1001
RAK
1000
{ACET-LAYISO
1070
     0
1070
   210
1000
Continuous
1071
        9
1071
        1
1005
9
1000
ACET-LAYISO}
  0
LAYER
  5
1A16
102
{ACAD_XDICTIONARY
360
1A17
102
}
330
1D
100
AcDbSymbolTableRecord
100
AcDbLayerTableRecord
  2
SCIANY
 70
     0
 62
   140
  6
CONTINUOUS
370
    -3
390
9
  0
LAYER
  5
1A18
102
{ACAD_XDICTIONARY
360
1A19
102
}
330
1D
100
AcDbSymbolTableRecord
100
AcDbLayerTableRecord
  2
WYMIARY
 70
     0
 62
     1
  6
CONTINUOUS
370
    -3
390
9
  0
LAYER
  5
1CFC
102
{ACAD_XDICTIONARY
360
1CFD
102
}
330
1D
100
AcDbSymbolTableRecord
100
AcDbLayerTableRecord
  2
WIDOK
 70
     0
 62
   114
  6
CONTINUOUS
370
    -3
390
9
  0
LAYER
  5
1CFE
102
{ACAD_XDICTIONARY
360
1CFF
102
}
330
1D
100
AcDbSymbolTableRecord
100
AcDbLayerTableRecord
  2
SZRAF
 70
     0
 62
   100
  6
CONTINUOUS
370
    -3
390
9
  0
LAYER
  5
2019
330
1D
100
AcDbSymbolTableRecord
100
AcDbLayerTableRecord
  2
-widok
 70
     0
 62
   114
  6
CONTINUOUS
370
     9
390
9
  0
LAYER
  5
201A
330
1D
100
AcDbSymbolTableRecord
100
AcDbLayerTableRecord
  2
-przekrój
 70
     0
 62
     7
  6
CONTINUOUS
370
    50
390
9
1001
RAK
1000
{ACET-LAYISO
1070
     0
1070
     7
1000
Continuous
1071
       50
1071
        1
1005
9
1000
ACET-LAYISO}
  0
LAYER
  5
234C
102
{ACAD_XDICTIONARY
360
234D
102
}
330
1D
100
AcDbSymbolTableRecord
100
AcDbLayerTableRecord
  2
0Napisy
 70
     0
 62
   150
  6
CONTINUOUS
370
    15
390
9
1001
RAK
1000
{ACET-LAYISO
1070
     0
1070
   150
1000
Continuous
1071
       15
1071
        1
1005
9
1000
ACET-LAYISO}
  0
LAYER
  5
234E
102
{ACAD_XDICTIONARY
360
234F
102
}
330
1D
100
AcDbSymbolTableRecord
100
AcDbLayerTableRecord
  2
A-Wall-G
 70
     0
 62
     7
  6
CONTINUOUS
370
    50
390
9
1001
AcAecLayerStandard
1000
BS1192 - Descriptive
1001
RAK
1000
{DRUK
1070
     0
1070
    50
1000
Continuous
1071
       35
1071
        1
1005
9
1000
DRUK}
1000
{ACET-LAYISO
1070
     0
1070
     7
1000
Continuous
1071
       50
1071
        1
1005
9
1000
ACET-LAYISO}
  0
LAYER
  5
2350
102
{ACAD_XDICTIONARY
360
2351
102
}
330
1D
100
AcDbSymbolTableRecord
100
AcDbLayerTableRecord
  2
A-WallAbove-G
 70
     0
 62
     1
  6
DASHED
370
     5
390
235D
1001
RAK
1000
{KONDYGNACJA POWTARZALNA
1070
     0
1070
    32
1000
HIDDEN2
1071
       -3
1071
        1
1005
9
1000
KONDYGNACJA POWTARZALNA}
1000
{ACET-LAYISO
1070
     0
1070
     1
1000
DASHED
1071
        5
1071
        1
1005
235D
1000
ACET-LAYISO}
1001
AcAecLayerStandard
1000

1000
Architects, Wall (above cut plane), Graphics
  0
LAYER
  5
2352
102
{ACAD_XDICTIONARY
360
2353
102
}
330
1D
100
AcDbSymbolTableRecord
100
AcDbLayerTableRecord
  2
A-MassElement-G
 70
     0
 62
   210
  6
CONTINUOUS
370
     5
390
9
1001
AcAecLayerStandard
1000
BS1192 - Descriptive
1001
RAK
1000
{ACET-LAYISO
1070
     0
1070
   210
1000
Continuous
1071
        5
1071
        1
1005
9
1000
ACET-LAYISO}
  0
LAYER
  5
2354
102
{ACAD_XDICTIONARY
360
2355
102
}
330
1D
100
AcDbSymbolTableRecord
100
AcDbLayerTableRecord
  2
A-PlantOutdoor-G
 70
     0
 62
   100
  6
CONTINUOUS
370
     5
390
9
1001
AcAecLayerStandard
1000
BS1192 - Descriptive
1001
RAK
1000
{ACET-LAYISO
1070
     0
1070
   100
1000
Continuous
1071
        5
1071
        1
1005
9
1000
ACET-LAYISO}
  0
LAYER
  5
2356
102
{ACAD_XDICTIONARY
360
2357
102
}
330
1D
100
AcDbSymbolTableRecord
100
AcDbLayerTableRecord
  2
-hatch
 70
     0
 62
   134
  6
CONTINUOUS
370
     5
390
9
1001
RAK
1000
{ACET-LAYISO
1070
     0
1070
   134
1000
Continuous
1071
        5
1071
        1
1005
9
1000
ACET-LAYISO}
  0
ENDTAB
  0
TABLE
  2
STYLE
  5
20
330
0
100
AcDbSymbolTable
 70
     5
  0
STYLE
  5
21
330
20
100
AcDbSymbolTableRecord
100
AcDbTextStyleTableRecord
  2
STANDARD
 70
     0
 40
0.0
 41
1.0
 50
0.0
 71
     0
 42
0.2
  3
txt
  4

  0
STYLE
  5
2E
330
20
100
AcDbSymbolTableRecord
100
AcDbTextStyleTableRecord
  2
ROMANS
 70
     0
 40
0.0
 41
0.9
 50
0.0
 71
     0
 42
5.0
  3
romans.shx
  4

  0
STYLE
  5
79
330
20
100
AcDbSymbolTableRecord
100
AcDbTextStyleTableRecord
  2
AVA
 70
     0
 40
0.0
 41
1.0
 50
0.0
 71
     0
 42
20.0
  3
ARIAL.TTF
  4

1001
ACAD
1000
Arial CE
1071
    60962
  0
STYLE
  5
201B
330
20
100
AcDbSymbolTableRecord
100
AcDbTextStyleTableRecord
  2
romansDIM
 70
     0
 40
0.0
 41
0.8
 50
0.0
 71
     0
 42
18.0
  3
romans.shx
  4

  0
STYLE
  5
2358
330
20
100
AcDbSymbolTableRecord
100
AcDbTextStyleTableRecord
  2
Romans16
 70
     0
 40
16.0
 41
0.7
 50
0.0
 71
     0
 42
13.63819987613533
  3
romans.shx
  4

  0
ENDTAB
  0
TABLE
  2
VIEW
  5
26
330
0
100
AcDbSymbolTable
 70
     1
  0
VIEW
  5
13
330
26
100
AcDbSymbolTableRecord
100
AcDbViewTableRecord
  2
10-ele
 70
     0
 40
2040.000000000001
 10
597.6361962217097
 20
4133.999999999996
 41
2803.999999999998
 11
0.0
 21
0.0
 31
1.0
 12
0.0
 22
0.0
 32
0.0
 42
50.0
 43
0.0
 44
0.0
 50
0.0
 71
     0
281
     0
 72
     1
110
0.0
120
0.0
130
0.0
111
1.0
121
0.0
131
0.0
112
0.0
122
1.0
132
0.0
 79
     0
146
0.0
  0
ENDTAB
  0
TABLE
  2
UCS
  5
27
330
0
100
AcDbSymbolTable
 70
     0
  0
ENDTAB
  0
TABLE
  2
APPID
  5
2A
330
0
100
AcDbSymbolTable
 70
     8
  0
APPID
  5
2B
330
2A
100
AcDbSymbolTableRecord
100
AcDbRegAppTableRecord
  2
ACAD
 70
     0
  0
APPID
  5
F
330
2A
100
AcDbSymbolTableRecord
100
AcDbRegAppTableRecord
  2
RAK
 70
     0
  0
APPID
  5
16
330
2A
100
AcDbSymbolTableRecord
100
AcDbRegAppTableRecord
  2
ACAD_PSEXT
 70
     0
  0
APPID
  5
7AA
330
2A
100
AcDbSymbolTableRecord
100
AcDbRegAppTableRecord
  2
ACAD_MLEADERVER
 70
     0
  0
APPID
  5
B8E
330
2A
100
AcDbSymbolTableRecord
100
AcDbRegAppTableRecord
  2
ACAD_EXEMPT_FROM_CAD_STANDARDS
 70
     0
  0
APPID
  5
132A
330
2A
100
AcDbSymbolTableRecord
100
AcDbRegAppTableRecord
  2
AcAecLayerStandard
 70
     0
  0
APPID
  5
2020
330
2A
100
AcDbSymbolTableRecord
100
AcDbRegAppTableRecord
  2
AcLayerTools
 70
     0
  0
APPID
  5
235C
330
2A
100
AcDbSymbolTableRecord
100
AcDbRegAppTableRecord
  2
DCO15
 70
     0
  0
ENDTAB
  0
TABLE
  2
DIMSTYLE
  5
2C
330
0
100
AcDbSymbolTable
 70
    10
100
AcDbDimStyleTable
 71
     2
340
2D
340
4C
  0
DIMSTYLE
105
4C
330
2C
100
AcDbSymbolTableRecord
100
AcDbDimStyleTableRecord
  2
Standard
 70
     0
340
21
  0
DIMSTYLE
105
2D
102
{ACAD_REACTORS
330
25EA
330
2600
330
2616
330
2628
330
263A
330
2647
330
2659
330
2664
330
266F
330
267A
330
2747
330
2748
330
2749
330
274A
330
274B
330
274C
330
274D
330
274E
330
274F
330
2750
102
}
330
2C
100
AcDbSymbolTableRecord
100
AcDbDimStyleTableRecord
  2
500
 70
     0
 41
30.0
 42
43.0
 43
0.0
 44
13.0
 45
0.5
 46
12.0
 73
     0
 74
     0
 75
     1
 76
     1
 78
    12
140
80.0
141
0.0
145
1.0
147
0.0
172
     1
174
     1
176
     1
177
     1
178
   140
271
     1
272
     1
279
     2
340
2E
341
2F
342
2F
  0
DIMSTYLE
105
201C
330
2C
100
AcDbSymbolTableRecord
100
AcDbDimStyleTableRecord
  2
100-archon
 70
     0
 41
8.0
 42
43.0
 43
40.0
 44
13.0
 45
0.5
 46
12.0
 73
     0
 74
     0
 75
     1
 76
     1
 78
     8
140
16.0
141
15.0
145
1.0
147
4.0
172
     1
174
     1
176
     1
177
     1
178
   140
271
     1
272
     1
279
     2
340
201B
341
2000
342
2F
371
     5
  0
DIMSTYLE
105
201D
330
2C
100
AcDbSymbolTableRecord
100
AcDbDimStyleTableRecord
  2
50-CZ_okna
 70
     0
 41
8.0
 42
43.0
 43
24.0
 44
13.0
 45
5.0
 46
12.0
 73
     0
 74
     0
 75
     1
 76
     1
 77
     2
 78
     8
140
16.0
141
0.0
144
10.0
145
1.0
147
1.0
172
     1
174
     1
176
     1
177
     1
178
   140
271
     1
272
     1
279
     1
340
201B
341
2000
342
2F
371
     5
  0
DIMSTYLE
105
201E
330
2C
100
AcDbSymbolTableRecord
100
AcDbDimStyleTableRecord
  2
50-CZ(drzwi)
 70
     0
 41
8.0
 42
43.0
 43
24.0
 44
13.0
 45
1.0
 46
12.0
 73
     0
 74
     0
 75
     1
 76
     1
 77
     2
 78
     8
140
16.0
141
0.0
144
10.0
145
1.0
147
1.0
172
     1
174
     1
176
     1
177
     1
178
   140
271
     1
272
     1
279
     1
340
201B
341
2000
342
2F
371
     5
  0
DIMSTYLE
105
201F
330
2C
100
AcDbSymbolTableRecord
100
AcDbDimStyleTableRecord
  2
100-CZ
 70
     0
 41
8.0
 42
43.0
 43
24.0
 44
13.0
 45
5.0
 46
12.0
 73
     0
 74
     0
 75
     1
 76
     1
 78
     8
140
16.0
141
0.0
144
10.0
145
1.0
147
4.0
172
     1
174
     1
176
     1
177
     1
178
   140
271
     1
272
     1
279
     2
340
201B
341
2000
342
2F
371
     5
  0
DIMSTYLE
105
2359
330
2C
100
AcDbSymbolTableRecord
100
AcDbDimStyleTableRecord
  2
100-RU
 70
     0
 41
8.0
 42
43.0
 43
0.0
 44
13.0
 46
12.0
 73
     0
 74
     0
 75
     1
 76
     1
140
15.0
141
0.0
144
10.0
145
1.0
147
0.0
172
     1
174
     1
176
     1
177
     1
178
   140
271
     0
272
     0
279
     2
340
201B
341
2000
342
2F
  0
DIMSTYLE
105
235A
330
2C
100
AcDbSymbolTableRecord
100
AcDbDimStyleTableRecord
  2
200-RU
 70
     0
 41
8.0
 42
43.0
 43
0.0
 44
13.0
 46
12.0
 73
     0
 74
     0
 75
     1
 76
     1
140
14.0
141
0.0
144
20.0
145
1.0
147
0.0
172
     1
173
     1
174
     1
176
     1
177
     1
178
   140
271
     0
272
     0
279
     2
340
201B
341
2F
343
2F
344
2F
  0
DIMSTYLE
105
235B
330
2C
100
AcDbSymbolTableRecord
100
AcDbDimStyleTableRecord
  2
200-sytuacja
 70
     0
 41
8.0
 42
43.0
 43
24.0
 44
13.0
 45
0.5
 46
12.0
 73
     0
 74
     0
 75
     1
 76
     1
 78
     8
140
16.0
141
0.0
144
2.0
145
1.0
147
4.0
172
     1
174
     1
176
     1
177
     1
178
   140
271
     1
272
     1
279
     2
340
2E
341
225B
342
2F
371
     5
  0
ENDTAB
  0
TABLE
  2
BLOCK_RECORD
  5
1
330
0
100
AcDbSymbolTable
 70
    72
  0
BLOCK_RECORD
  5
2
102
{ACAD_XDICTIONARY
360
3
102
}
330
1
100
AcDbSymbolTableRecord
100
AcDbBlockTableRecord
  2
*MODEL_SPACE
340
11
  0
BLOCK_RECORD
  5
1942
330
1
100
AcDbSymbolTableRecord
100
AcDbBlockTableRecord
  2
*Paper_Space
340
1943
  0
BLOCK_RECORD
  5
2F
102
{ACAD_XDICTIONARY
360
30
102
}
330
1
100
AcDbSymbolTableRecord
100
AcDbBlockTableRecord
  2
B-DIM
340
0
102
{BLKREFS
331
1BB3
331
1BB4
331
1BBA
331
1BBB
331
1BC1
331
1BC2
331
1BCF
331
1BD0
331
1BD6
331
1BD7
331
1BDD
331
1BDE
331
1BE6
331
1BE7
331
1BF6
331
1BF7
331
1BFD
331
1BFE
331
1C04
331
1C05
331
1C0B
331
1C0C
331
1C14
331
1C15
331
1C22
331
1C23
331
1C29
331
1C2A
331
1C34
331
1C35
331
1C3D
331
1C3E
331
1C46
331
1C47
331
1C4D
331
1C4E
331
2008
331
2009
331
2012
331
2013
331
20A3
331
20A4
331
20AA
331
20AB
331
2112
331
2113
331
211D
331
211E
331
212A
331
212B
331
2149
331
214A
331
2150
331
2151
331
2157
331
2158
331
215E
331
215F
331
2165
331
2166
331
216C
331
216D
331
2175
331
2176
331
217C
331
217D
331
220D
331
220E
331
2214
331
2215
331
221B
331
221C
331
2222
331
2223
331
2229
331
222A
331
2230
331
2231
331
2239
331
223A
331
2240
331
2241
331
2694
331
2695
331
269C
331
269D
331
26A3
331
26A4
331
26AA
331
26AB
331
26B3
331
26B4
331
26BA
331
26BB
331
26C1
331
26C2
331
26C8
331
26C9
331
26CF
331
26D0
331
26D6
331
26D7
331
27BB
331
27BC
331
27C3
331
27C4
331
27CA
331
27CB
331
27D1
331
27D2
331
27DA
331
27DB
331
27E1
331
27E2
331
27E8
331
27E9
331
27EF
331
27F0
331
27F6
331
27F7
331
27FD
331
27FE
102
}
  0
BLOCK_RECORD
  5
2000
330
1
100
AcDbSymbolTableRecord
100
AcDbBlockTableRecord
  2
_Dot
340
0
  0
BLOCK_RECORD
  5
20CC
330
1
100
AcDbSymbolTableRecord
100
AcDbBlockTableRecord
  2
*D24
340
0
  0
BLOCK_RECORD
  5
20D7
330
1
100
AcDbSymbolTableRecord
100
AcDbBlockTableRecord
  2
*D25
340
0
  0
BLOCK_RECORD
  5
20E2
330
1
100
AcDbSymbolTableRecord
100
AcDbBlockTableRecord
  2
*D26
340
0
  0
BLOCK_RECORD
  5
20ED
330
1
100
AcDbSymbolTableRecord
100
AcDbBlockTableRecord
  2
*D27
340
0
  0
BLOCK_RECORD
  5
20F8
330
1
100
AcDbSymbolTableRecord
100
AcDbBlockTableRecord
  2
*D28
340
0
  0
BLOCK_RECORD
  5
2103
330
1
100
AcDbSymbolTableRecord
100
AcDbBlockTableRecord
  2
*D29
340
0
  0
BLOCK_RECORD
  5
2131
330
1
100
AcDbSymbolTableRecord
100
AcDbBlockTableRecord
  2
*D33
340
0
  0
BLOCK_RECORD
  5
213E
330
1
100
AcDbSymbolTableRecord
100
AcDbBlockTableRecord
  2
*D34
340
0
  0
BLOCK_RECORD
  5
21BA
330
1
100
AcDbSymbolTableRecord
100
AcDbBlockTableRecord
  2
*D35
340
0
  0
BLOCK_RECORD
  5
21C4
330
1
100
AcDbSymbolTableRecord
100
AcDbBlockTableRecord
  2
*D36
340
0
  0
BLOCK_RECORD
  5
21CE
330
1
100
AcDbSymbolTableRecord
100
AcDbBlockTableRecord
  2
*D37
340
0
  0
BLOCK_RECORD
  5
21D8
330
1
100
AcDbSymbolTableRecord
100
AcDbBlockTableRecord
  2
*D38
340
0
  0
BLOCK_RECORD
  5
21E2
330
1
100
AcDbSymbolTableRecord
100
AcDbBlockTableRecord
  2
*D39
340
0
  0
BLOCK_RECORD
  5
21EC
330
1
100
AcDbSymbolTableRecord
100
AcDbBlockTableRecord
  2
*D40
340
0
  0
BLOCK_RECORD
  5
21F6
330
1
100
AcDbSymbolTableRecord
100
AcDbBlockTableRecord
  2
*D41
340
0
  0
BLOCK_RECORD
  5
2202
330
1
100
AcDbSymbolTableRecord
100
AcDbBlockTableRecord
  2
*D42
340
0
  0
BLOCK_RECORD
  5
224F
102
{ACAD_XDICTIONARY
360
2250
102
}
330
1
100
AcDbSymbolTableRecord
100
AcDbBlockTableRecord
  2
styropian x cm
340
0
310
2800000020000000200000000100080000000000000400000000000000000000000000000000000000000000000080000080000000808000800000008000800080800000C0C0C000C0DCC000F0CAA6000020400000206000002080000020A0000020C0000020E00000400000004020000040400000406000004080000040A0
310
000040C0000040E00000600000006020000060400000606000006080000060A0000060C0000060E00000800000008020000080400000806000008080000080A0000080C0000080E00000A0000000A0200000A0400000A0600000A0800000A0A00000A0C00000A0E00000C0000000C0200000C0400000C0600000C0800000C0
310
A00000C0C00000C0E00000E0000000E0200000E0400000E0600000E0800000E0A00000E0C00000E0E00040000000400020004000400040006000400080004000A0004000C0004000E00040200000402020004020400040206000402080004020A0004020C0004020E000404000004040200040404000404060004040800040
310
40A0004040C0004040E00040600000406020004060400040606000406080004060A0004060C0004060E00040800000408020004080400040806000408080004080A0004080C0004080E00040A0000040A0200040A0400040A0600040A0800040A0A00040A0C00040A0E00040C0000040C0200040C0400040C0600040C08000
310
40C0A00040C0C00040C0E00040E0000040E0200040E0400040E0600040E0800040E0A00040E0C00040E0E00080000000800020008000400080006000800080008000A0008000C0008000E00080200000802020008020400080206000802080008020A0008020C0008020E00080400000804020008040400080406000804080
310
008040A0008040C0008040E00080600000806020008060400080606000806080008060A0008060C0008060E00080800000808020008080400080806000808080008080A0008080C0008080E00080A0000080A0200080A0400080A0600080A0800080A0A00080A0C00080A0E00080C0000080C0200080C0400080C0600080C0
310
800080C0A00080C0C00080C0E00080E0000080E0200080E0400080E0600080E0800080E0A00080E0C00080E0E000C0000000C0002000C0004000C0006000C0008000C000A000C000C000C000E000C0200000C0202000C0204000C0206000C0208000C020A000C020C000C020E000C0400000C0402000C0404000C0406000C0
310
408000C040A000C040C000C040E000C0600000C0602000C0604000C0606000C0608000C060A000C060C000C060E000C0800000C0802000C0804000C0806000C0808000C080A000C080C000C080E000C0A00000C0A02000C0A04000C0A06000C0A08000C0A0A000C0A0C000C0A0E000C0C00000C0C02000C0C04000C0C06000
310
C0C08000C0C0A000F0FBFF00A4A0A000808080000000FF0000FF000000FFFF00FF000000FF00FF00FFFF0000FFFFFF0000000000000000000000000000000000000000000000000000000000000000000000000000000000000000000000000000000000000000000000000000000000000000000000000000000000000000
310
00000000000000000000000000000000000000000000000000000000000000000000000000000000000000000000000000000000000000000000000000000000000000000000000000000000000000000000000000000000000000000000000000000000000000000000000000000000000000000000000000000000000000
310
00000000000000000000000000000000000000000000000000000000000000000000000000000000000000000000000000000000000000000000000000000000000000000000000000000000000000000000000000000000000000000000000000000000000000000000000000000000000000000000000000000000000000
310
0000000000000000000000000000000000000000000000000000000000000000000000000000000000000000000000000000000000000000000000000000000000000000000000000000000000000000000000000000000000000000000000000000000000000000000000000000000000000000F0F0F000F00000F0F0F000
310
00F000000000FF00FFFF0000000000000000000000F0F0F0F0F0F0F000F000F0F000F000F00000FFFF00FF00F000F000F0F0000000F0F0F0F0F0F000F0F000F0F0F0F0F0F000FFFFFF00FF00F0F0F0F0F0F00000000000F000000000000000F0F000000000FFFFFFFFFF000000000000000000000000000000000000000000
310
00000000000000000000000000000000000000000000000000000000000000000000000000000000000000000000000000000000000000000000000000000000000000000000000000000000000000000000000000000000000000000000000000000000000000000000000000000000000000000000000000000000000000
310
00000000000000000000000000000000000000000000000000000000000000000000000000000000000000000000000000000000000000000000000000000000000000000000000000000000000000000000000000000000000000000000000000000000000000000000000000000000000000000000000000000000000000
310
00000000000000000000000000000000000000000000000000000000000000000000000000000000000000000000000000000000000000000000000000000000000000000000000000000000000000000000000000000000000000000000000000000000000000000000000000000000000000000000000000000000000000
310
0000000000000000000000000000000000000000000000000000000000000000000000000000000000000000000000000000000000000000
102
{BLKREFS
331
2467
102
}
1001
ACAD
1000
DesignCenter Data
1002
{
1070
     1
1070
     5
1002
}
  0
BLOCK_RECORD
  5
2257
330
1
100
AcDbSymbolTableRecord
100
AcDbBlockTableRecord
  2
strop ocieplony od spodu
340
0
310
2800000020000000200000000100080000000000000400000000000000000000000000000000000000000000000080000080000000808000800000008000800080800000C0C0C000C0DCC000F0CAA6000020400000206000002080000020A0000020C0000020E00000400000004020000040400000406000004080000040A0
310
000040C0000040E00000600000006020000060400000606000006080000060A0000060C0000060E00000800000008020000080400000806000008080000080A0000080C0000080E00000A0000000A0200000A0400000A0600000A0800000A0A00000A0C00000A0E00000C0000000C0200000C0400000C0600000C0800000C0
310
A00000C0C00000C0E00000E0000000E0200000E0400000E0600000E0800000E0A00000E0C00000E0E00040000000400020004000400040006000400080004000A0004000C0004000E00040200000402020004020400040206000402080004020A0004020C0004020E000404000004040200040404000404060004040800040
310
40A0004040C0004040E00040600000406020004060400040606000406080004060A0004060C0004060E00040800000408020004080400040806000408080004080A0004080C0004080E00040A0000040A0200040A0400040A0600040A0800040A0A00040A0C00040A0E00040C0000040C0200040C0400040C0600040C08000
310
40C0A00040C0C00040C0E00040E0000040E0200040E0400040E0600040E0800040E0A00040E0C00040E0E00080000000800020008000400080006000800080008000A0008000C0008000E00080200000802020008020400080206000802080008020A0008020C0008020E00080400000804020008040400080406000804080
310
008040A0008040C0008040E00080600000806020008060400080606000806080008060A0008060C0008060E00080800000808020008080400080806000808080008080A0008080C0008080E00080A0000080A0200080A0400080A0600080A0800080A0A00080A0C00080A0E00080C0000080C0200080C0400080C0600080C0
310
800080C0A00080C0C00080C0E00080E0000080E0200080E0400080E0600080E0800080E0A00080E0C00080E0E000C0000000C0002000C0004000C0006000C0008000C000A000C000C000C000E000C0200000C0202000C0204000C0206000C0208000C020A000C020C000C020E000C0400000C0402000C0404000C0406000C0
310
408000C040A000C040C000C040E000C0600000C0602000C0604000C0606000C0608000C060A000C060C000C060E000C0800000C0802000C0804000C0806000C0808000C080A000C080C000C080E000C0A00000C0A02000C0A04000C0A06000C0A08000C0A0A000C0A0C000C0A0E000C0C00000C0C02000C0C04000C0C06000
310
C0C08000C0C0A000F0FBFF00A4A0A000808080000000FF0000FF000000FFFF00FF000000FF00FF00FFFF0000FFFFFF0000000000000000000000000000000000000000000000000000000000000000000000000000000000000000000000000000000000000000000000000000000000000000000000000000000000000000
310
00000000000000000000000000000000000000000000000000000000000000000000000000000000000000000000000000000000000000000000000000000000000000000000000000000000000000000000000000000000000000000000000000000000000000000000000000000000000000000000000000000000000000
310
00000000000000000000000000000000000000000000000000000000000000000000000000000000000000000000000000000000000000000000000000000000000000000000000000000000000000000000000000000000000000000000000000000000000000000000000000000000000000000000000000000000000000
310
00000000000000000000000000000000000000000000000000000000000000000000000000000000000000000000000000000000000000000000000000000000000000000000000000000000000000000000000000000000000000000000000000000000000000000000000000000000000000000000000000000000000000
310
0000000000000000000000000000000000000000000000000000000000000000000000000000000000000000000000000000000000000000000000000000FF0000000000000000000000000000000000000000000000FFFFFFFF0000FFFFFFFFFFFFFFFFFFFFFF0000000000000000000000000000FF00FFFFFF0000FFFFFF
310
00FFFFFFFFFFFFFF000000000000000000000000000000FFFFFFFF0000FFFFFFFFFFFFFFFFFFFFFF000000000000000000000000000000000000FF00000000000000000000FF000000000000000000000000000000000000000000000000FF0000000000000000000000FF000000000000FF000000000000000000000000FF
310
0000000000000000000000FF000000000000FFFF000000FFFFFFFFFFFFFFFFFFFF0000FFFFFFFFFFFFFFFFFFFFFFFFFFFFFF00FF000000FFFFFFFFFFFF00FFFFFF0000FF00FFFFFFFFFFFFFFFFFFFFFFFFFF00FFFF000000FFFFFFFFFFFFFFFFFF000000FF00FFFFFFFFFFFFFFFFFFFFFFFFFF00FF0000000000FF00000000
310
000000000000000000FF00000000FF00000000000000000000000000000000000000000000000000000000000000000000000000000000000000000000000000000000000000000000000000000000000000000000000000000000000000000000000000000000000000000000000000000000000000000000000000000000
310
0000000000000000000000000000000000000000000000000000000000000000000000000000000000000000000000000000000000000000
102
{BLKREFS
331
246A
102
}
1001
ACAD
1000
DesignCenter Data
1002
{
1070
     1
1070
     5
1002
}
  0
BLOCK_RECORD
  5
225B
330
1
100
AcDbSymbolTableRecord
100
AcDbBlockTableRecord
  2
_None
340
0
  0
BLOCK_RECORD
  5
225E
102
{ACAD_XDICTIONARY
360
225F
102
}
330
1
100
AcDbSymbolTableRecord
100
AcDbBlockTableRecord
  2
teren$0$KW1
340
0
310
2800000020000000200000000100080000000000000400000000000000000000000000000000000000000000000080000080000000808000800000008000800080800000C0C0C000C0DCC000F0CAA6000020400000206000002080000020A0000020C0000020E00000400000004020000040400000406000004080000040A0
310
000040C0000040E00000600000006020000060400000606000006080000060A0000060C0000060E00000800000008020000080400000806000008080000080A0000080C0000080E00000A0000000A0200000A0400000A0600000A0800000A0A00000A0C00000A0E00000C0000000C0200000C0400000C0600000C0800000C0
310
A00000C0C00000C0E00000E0000000E0200000E0400000E0600000E0800000E0A00000E0C00000E0E00040000000400020004000400040006000400080004000A0004000C0004000E00040200000402020004020400040206000402080004020A0004020C0004020E000404000004040200040404000404060004040800040
310
40A0004040C0004040E00040600000406020004060400040606000406080004060A0004060C0004060E00040800000408020004080400040806000408080004080A0004080C0004080E00040A0000040A0200040A0400040A0600040A0800040A0A00040A0C00040A0E00040C0000040C0200040C0400040C0600040C08000
310
40C0A00040C0C00040C0E00040E0000040E0200040E0400040E0600040E0800040E0A00040E0C00040E0E00080000000800020008000400080006000800080008000A0008000C0008000E00080200000802020008020400080206000802080008020A0008020C0008020E00080400000804020008040400080406000804080
310
008040A0008040C0008040E00080600000806020008060400080606000806080008060A0008060C0008060E00080800000808020008080400080806000808080008080A0008080C0008080E00080A0000080A0200080A0400080A0600080A0800080A0A00080A0C00080A0E00080C0000080C0200080C0400080C0600080C0
310
800080C0A00080C0C00080C0E00080E0000080E0200080E0400080E0600080E0800080E0A00080E0C00080E0E000C0000000C0002000C0004000C0006000C0008000C000A000C000C000C000E000C0200000C0202000C0204000C0206000C0208000C020A000C020C000C020E000C0400000C0402000C0404000C0406000C0
310
408000C040A000C040C000C040E000C0600000C0602000C0604000C0606000C0608000C060A000C060C000C060E000C0800000C0802000C0804000C0806000C0808000C080A000C080C000C080E000C0A00000C0A02000C0A04000C0A06000C0A08000C0A0A000C0A0C000C0A0E000C0C00000C0C02000C0C04000C0C06000
310
C0C08000C0C0A000F0FBFF00A4A0A000808080000000FF0000FF000000FFFF00FF000000FF00FF00FFFF0000FFFFFF0000000000000000000000000000000000000000000000000000000000000000000000000000000000000000000000000000000000000000000000000000000000000000000000000000000000000000
310
00000000000000000000000000000000000000000000000000000000000000000000000000000000000000000000000000000000000000000000000000000000000000000000000000000000000000000000000000000000000000000000000000000000000000000000000000000000000000000000000000000000000000
310
00000000000000000063000063630000000000000000000063000000000000000000000000000000636300006363630000000000006300006300000000000000000000000000000063636363630063630000000000006363630000000000000000000000000000000063636363630063000000006363636363000000000000
310
63000000000063636363636363000063630000000000006363630000630000630063000000630063006300006363630000000000000000636363636363000063006300000063006363006300636363636300000063636363630063636363630063006300630063006363006300006363630000000063006300636363006363
310
00630063006300636363000063630000000000000000006300006363630000630063630063000063636300000063636300000000000000006363006363636363636363636300006363000063636363636300000000000000000000006363636363636363000000636363636300000000000000000000000000000000000000
310
00000063006300006363000000000000000000000000000000000000000000000000636363636363006300000000000000000000000000000000000000000000006363006363630063006363000000000000000000000000000000000000000063630000636363006363630063630000000000000000000000000000000000
310
63000000636300630063000063636300000000000000000000000000000000000000000063630063006300000000000000000000000000000000000000000000000000636300006363000000000000000000000000000000000000000000000000000000000000636300000000000000000000000000000000000000000000
310
00000000000000000000000000000000000000000000000000000000000000000000000000000000000000000000000000000000000000000000000000000000000000000000000000000000000000000000000000000000000000000000000000000000000000000000000000000000000000000000000000000000000000
310
0000000000000000000000000000000000000000000000000000000000000000000000000000000000000000000000000000000000000000
102
{BLKREFS
331
2459
102
}
  0
BLOCK_RECORD
  5
2268
102
{ACAD_XDICTIONARY
360
2269
102
}
330
1
100
AcDbSymbolTableRecord
100
AcDbBlockTableRecord
  2
teren$0$KW2
340
0
310
2800000020000000200000000100080000000000000400000000000000000000000000000000000000000000000080000080000000808000800000008000800080800000C0C0C000C0DCC000F0CAA6000020400000206000002080000020A0000020C0000020E00000400000004020000040400000406000004080000040A0
310
000040C0000040E00000600000006020000060400000606000006080000060A0000060C0000060E00000800000008020000080400000806000008080000080A0000080C0000080E00000A0000000A0200000A0400000A0600000A0800000A0A00000A0C00000A0E00000C0000000C0200000C0400000C0600000C0800000C0
310
A00000C0C00000C0E00000E0000000E0200000E0400000E0600000E0800000E0A00000E0C00000E0E00040000000400020004000400040006000400080004000A0004000C0004000E00040200000402020004020400040206000402080004020A0004020C0004020E000404000004040200040404000404060004040800040
310
40A0004040C0004040E00040600000406020004060400040606000406080004060A0004060C0004060E00040800000408020004080400040806000408080004080A0004080C0004080E00040A0000040A0200040A0400040A0600040A0800040A0A00040A0C00040A0E00040C0000040C0200040C0400040C0600040C08000
310
40C0A00040C0C00040C0E00040E0000040E0200040E0400040E0600040E0800040E0A00040E0C00040E0E00080000000800020008000400080006000800080008000A0008000C0008000E00080200000802020008020400080206000802080008020A0008020C0008020E00080400000804020008040400080406000804080
310
008040A0008040C0008040E00080600000806020008060400080606000806080008060A0008060C0008060E00080800000808020008080400080806000808080008080A0008080C0008080E00080A0000080A0200080A0400080A0600080A0800080A0A00080A0C00080A0E00080C0000080C0200080C0400080C0600080C0
310
800080C0A00080C0C00080C0E00080E0000080E0200080E0400080E0600080E0800080E0A00080E0C00080E0E000C0000000C0002000C0004000C0006000C0008000C000A000C000C000C000E000C0200000C0202000C0204000C0206000C0208000C020A000C020C000C020E000C0400000C0402000C0404000C0406000C0
310
408000C040A000C040C000C040E000C0600000C0602000C0604000C0606000C0608000C060A000C060C000C060E000C0800000C0802000C0804000C0806000C0808000C080A000C080C000C080E000C0A00000C0A02000C0A04000C0A06000C0A08000C0A0A000C0A0C000C0A0E000C0C00000C0C02000C0C04000C0C06000
310
C0C08000C0C0A000F0FBFF00A4A0A000808080000000FF0000FF000000FFFF00FF000000FF00FF00FFFF0000FFFFFF0000000000000000000000000000000000000000000000000000000000000000000000000000000000000000000000000000000000000000000000000000000000000000000000000000000000000000
310
63630000000000000000000000000000000000000000000000006363000000006363000000000000000000000000000000000000000000000000630063000000636300000000000000630000000000000000000000000000000063006300000063006300000000006363000000000000000000000000000000000063006300
310
00630063000000000063000000000000000000000000000000000000630000630063006300000000636300000000000000000000000000000000000000630063000063630000006363000000000000000000000000000000000000000063000063006363000000636300000000000000000000000000000000000000006300
310
00006363630000636300000000000000000000000000000000000000000000630000636300636300630000000000000000000000006363630000000000000063000000630063636300000000000000000000000000630000636363636363000063000000006300630000000000006363630000000063000000000000000063
310
63630000000000636363636363636363630000000000630000000000000000000000000000000000000000000000630000000000000000636300000000000000636300000000006363636363636300000000000000000000006363000000636363000000000000006363000000000000000000000000000000000063636300
310
63006300630000630000006300000000000000000000000000000000000000630063630063000063630000006300000000000000000000000000000000636300630063630063006300630000630000000000000000000000000000006300636300006363006300006300630000630000000000000000000000000063006300
310
00000063630063000063000063000063000000000000000000000063006300000000006363000063006300000063006300000000000000000000000063000000000063630000006300630000000063006300000000000000000000000000000000006363000000006363000000000063000000000000000000000000000000
310
00000063630000000063006300000000000000000000000000000000000000000000006363000000006300630000000000000000000000000000000000000000000000630000000000006363000000000000000000000000000000000000000000000063000000000000636300000000000000000000000000000000000000
310
0000000000000000000000000000000000000000000000000000000000000000000000000000000000000000000000000000000000000000
102
{BLKREFS
331
2440
102
}
  0
BLOCK_RECORD
  5
226E
102
{ACAD_XDICTIONARY
360
226F
102
}
330
1
100
AcDbSymbolTableRecord
100
AcDbBlockTableRecord
  2
teren$0$KW5
340
0
310
2800000020000000200000000100080000000000000400000000000000000000000000000000000000000000000080000080000000808000800000008000800080800000C0C0C000C0DCC000F0CAA6000020400000206000002080000020A0000020C0000020E00000400000004020000040400000406000004080000040A0
310
000040C0000040E00000600000006020000060400000606000006080000060A0000060C0000060E00000800000008020000080400000806000008080000080A0000080C0000080E00000A0000000A0200000A0400000A0600000A0800000A0A00000A0C00000A0E00000C0000000C0200000C0400000C0600000C0800000C0
310
A00000C0C00000C0E00000E0000000E0200000E0400000E0600000E0800000E0A00000E0C00000E0E00040000000400020004000400040006000400080004000A0004000C0004000E00040200000402020004020400040206000402080004020A0004020C0004020E000404000004040200040404000404060004040800040
310
40A0004040C0004040E00040600000406020004060400040606000406080004060A0004060C0004060E00040800000408020004080400040806000408080004080A0004080C0004080E00040A0000040A0200040A0400040A0600040A0800040A0A00040A0C00040A0E00040C0000040C0200040C0400040C0600040C08000
310
40C0A00040C0C00040C0E00040E0000040E0200040E0400040E0600040E0800040E0A00040E0C00040E0E00080000000800020008000400080006000800080008000A0008000C0008000E00080200000802020008020400080206000802080008020A0008020C0008020E00080400000804020008040400080406000804080
310
008040A0008040C0008040E00080600000806020008060400080606000806080008060A0008060C0008060E00080800000808020008080400080806000808080008080A0008080C0008080E00080A0000080A0200080A0400080A0600080A0800080A0A00080A0C00080A0E00080C0000080C0200080C0400080C0600080C0
310
800080C0A00080C0C00080C0E00080E0000080E0200080E0400080E0600080E0800080E0A00080E0C00080E0E000C0000000C0002000C0004000C0006000C0008000C000A000C000C000C000E000C0200000C0202000C0204000C0206000C0208000C020A000C020C000C020E000C0400000C0402000C0404000C0406000C0
310
408000C040A000C040C000C040E000C0600000C0602000C0604000C0606000C0608000C060A000C060C000C060E000C0800000C0802000C0804000C0806000C0808000C080A000C080C000C080E000C0A00000C0A02000C0A04000C0A06000C0A08000C0A0A000C0A0C000C0A0E000C0C00000C0C02000C0C04000C0C06000
310
C0C08000C0C0A000F0FBFF00A4A0A000808080000000FF0000FF000000FFFF00FF000000FF00FF00FFFF0000FFFFFF0000000000000000000000000000000000000000000000000000000000000000000000000000000000000000000000000000000000000000000000000000000000000000000000000000000000000000
310
00000000000000000000000000000000000000000000000000000000000000000000000000000000000000000000000000000000000000000000000000000000000000000000000000000000000000000000000000000000000000000000000000000000000000000000000000000000000000000000000000000000000000
310
00000000000000000000000000000000000000000000000000000000000000000000000000000000000000000000000000000000000000000000000000000000000000000000000000000000000000000000000000000000000000000000000000000000000000000000000000000000000000000000000000000000000000
310
00000000000000000000000000000000000000000000686868006868000000000000000000000000000068000068006800000000006868680000686868000000686868000000680000006868686868686868000000686868680068006868006868680000686800686868686800686868680000000000686868006868680068
310
68686868686800680000006868686868680000000000000068686868006868686868686868686868686800686868686868000000000000686868680068686868686868686868006868686868680000680000000000000000680068686868686868006868686868686800006868680000000000000000000068686868686868
310
68686800686868686868686868680000000000000000000000000068686868686868686868686868686800680000000000000000000000000000000000686800006800680068000068686800000000000000000000000000000000000000000000000000000000000000000000000000000000000000000000000000000000
310
00000000000000000000000000000000000000000000000000000000000000000000000000000000000000000000000000000000000000000000000000000000000000000000000000000000000000000000000000000000000000000000000000000000000000000000000000000000000000000000000000000000000000
310
00000000000000000000000000000000000000000000000000000000000000000000000000000000000000000000000000000000000000000000000000000000000000000000000000000000000000000000000000000000000000000000000000000000000000000000000000000000000000000000000000000000000000
310
0000000000000000000000000000000000000000000000000000000000000000000000000000000000000000000000000000000000000000
102
{BLKREFS
331
241A
331
241B
102
}
  0
BLOCK_RECORD
  5
25EB
330
1
100
AcDbSymbolTableRecord
100
AcDbBlockTableRecord
  2
*D52
340
0
  0
BLOCK_RECORD
  5
2601
330
1
100
AcDbSymbolTableRecord
100
AcDbBlockTableRecord
  2
*D53
340
0
  0
BLOCK_RECORD
  5
2617
330
1
100
AcDbSymbolTableRecord
100
AcDbBlockTableRecord
  2
*D54
340
0
  0
BLOCK_RECORD
  5
2629
330
1
100
AcDbSymbolTableRecord
100
AcDbBlockTableRecord
  2
*D55
340
0
  0
BLOCK_RECORD
  5
263B
330
1
100
AcDbSymbolTableRecord
100
AcDbBlockTableRecord
  2
*D56
340
0
  0
BLOCK_RECORD
  5
2648
330
1
100
AcDbSymbolTableRecord
100
AcDbBlockTableRecord
  2
*D57
340
0
  0
BLOCK_RECORD
  5
265A
330
1
100
AcDbSymbolTableRecord
100
AcDbBlockTableRecord
  2
*D58
340
0
  0
BLOCK_RECORD
  5
2665
330
1
100
AcDbSymbolTableRecord
100
AcDbBlockTableRecord
  2
*D59
340
0
  0
BLOCK_RECORD
  5
2670
330
1
100
AcDbSymbolTableRecord
100
AcDbBlockTableRecord
  2
*D60
340
0
  0
BLOCK_RECORD
  5
267B
330
1
100
AcDbSymbolTableRecord
100
AcDbBlockTableRecord
  2
*D61
340
0
  0
BLOCK_RECORD
  5
2751
330
1
100
AcDbSymbolTableRecord
100
AcDbBlockTableRecord
  2
*D62
340
0
  0
BLOCK_RECORD
  5
275B
330
1
100
AcDbSymbolTableRecord
100
AcDbBlockTableRecord
  2
*D63
340
0
  0
BLOCK_RECORD
  5
2767
330
1
100
AcDbSymbolTableRecord
100
AcDbBlockTableRecord
  2
*D64
340
0
  0
BLOCK_RECORD
  5
2771
330
1
100
AcDbSymbolTableRecord
100
AcDbBlockTableRecord
  2
*D65
340
0
  0
BLOCK_RECORD
  5
277B
330
1
100
AcDbSymbolTableRecord
100
AcDbBlockTableRecord
  2
*D66
340
0
  0
BLOCK_RECORD
  5
2787
330
1
100
AcDbSymbolTableRecord
100
AcDbBlockTableRecord
  2
*D67
340
0
  0
BLOCK_RECORD
  5
2791
330
1
100
AcDbSymbolTableRecord
100
AcDbBlockTableRecord
  2
*D68
340
0
  0
BLOCK_RECORD
  5
279B
330
1
100
AcDbSymbolTableRecord
100
AcDbBlockTableRecord
  2
*D69
340
0
  0
BLOCK_RECORD
  5
27A5
330
1
100
AcDbSymbolTableRecord
100
AcDbBlockTableRecord
  2
*D70
340
0
  0
BLOCK_RECORD
  5
27AF
330
1
100
AcDbSymbolTableRecord
100
AcDbBlockTableRecord
  2
*D71
340
0
  0
ENDTAB
  0
ENDSEC
  0
SECTION
  2
BLOCKS
  0
BLOCK
  5
5
330
2
100
AcDbEntity
  8
0
100
AcDbBlockBegin
  2
*MODEL_SPACE
 70
     0
 10
0.0
 20
0.0
 30
0.0
  3
*MODEL_SPACE
  1

  0
ENDBLK
  5
10
330
2
100
AcDbEntity
  8
0
100
AcDbBlockEnd
  0
BLOCK
  5
1944
330
1942
100
AcDbEntity
 67
     1
  8
0
 48
4.0
100
AcDbBlockBegin
  2
*Paper_Space
 70
     0
 10
0.0
 20
0.0
 30
0.0
  3
*Paper_Space
  1

  0
ENDBLK
  5
1945
330
1942
100
AcDbEntity
 67
     1
  8
0
 48
4.0
100
AcDbBlockEnd
  0
BLOCK
  5
32
330
2F
100
AcDbEntity
  8
0
100
AcDbBlockBegin
  2
B-DIM
 70
     0
 10
0.0
 20
0.0
 30
0.0
  3
B-DIM
  1

  0
LINE
  5
33
330
2F
100
AcDbEntity
  8
0
 62
     1
100
AcDbLine
 10
0.000000000000091
 20
-1.1
 30
0.0
 11
0.000000000000091
 21
1.1
 31
0.0
  0
LWPOLYLINE
  5
34
330
2F
100
AcDbEntity
  8
0
 62
     1
100
AcDbPolyline
 90
        2
 70
     0
 43
0.3
 10
-0.7071067811864851
 20
-0.7071067811864851
 10
0.707106781186576
 20
0.707106781186576
  0
LINE
  5
35
330
2F
100
AcDbEntity
  8
0
 62
     1
100
AcDbLine
 10
1.20000000000009
 20
0.0
 30
0.0
 11
-1.199999999999909
 21
0.0
 31
0.0
  0
ENDBLK
  5
36
330
2F
100
AcDbEntity
  8
0
100
AcDbBlockEnd
  0
BLOCK
  5
2001
330
2000
100
AcDbEntity
  8
0
100
AcDbBlockBegin
  2
_Dot
 70
     0
 10
0.0
 20
0.0
 30
0.0
  3
_Dot
  1

  0
LWPOLYLINE
  5
2002
330
2000
100
AcDbEntity
  8
0
  6
ByBlock
 62
     0
100
AcDbPolyline
 90
        2
 70
     1
 43
0.5
 10
-0.25
 20
0.0
 42
1.0
 10
0.25
 20
0.0
 42
1.0
  0
LINE
  5
2003
330
2000
100
AcDbEntity
  8
0
  6
ByBlock
 62
     0
370
    -2
100
AcDbLine
 10
-0.5
 20
0.0
 30
0.0
 11
-1.0
 21
0.0
 31
0.0
  0
ENDBLK
  5
2004
330
2000
100
AcDbEntity
  8
0
100
AcDbBlockEnd
  0
BLOCK
  5
20CD
330
20CC
100
AcDbEntity
  8
0
 62
    54
 48
4.0
100
AcDbBlockBegin
  2
*D24
 70
     1
 10
0.0
 20
0.0
 30
0.0
  3
*D24
  1

  0
LINE
  5
2148
330
20CC
100
AcDbEntity
  8
0Wymiary-PL
 62
     1
 48
4.0
370
    -2
100
AcDbLine
 10
57743.55628409456
 20
-3264.536184202182
 30
0.0
 11
58283.55628409457
 21
-3264.536184202182
 31
0.0
  0
INSERT
  5
2149
330
20CC
100
AcDbEntity
  8
0Wymiary-PL
 62
     1
 48
4.0
370
    -2
100
AcDbBlockReference
  2
B-DIM
 10
57713.55628409456
 20
-3264.536184202182
 30
0.0
 41
30.0
 42
30.0
 43
30.0
 50
180.0
  0
INSERT
  5
214A
330
20CC
100
AcDbEntity
  8
0Wymiary-PL
 62
     1
 48
4.0
370
    -2
100
AcDbBlockReference
  2
B-DIM
 10
58313.55628409456
 20
-3264.536184202182
 30
0.0
 41
30.0
 42
30.0
 43
30.0
  0
MTEXT
  5
214B
330
20CC
100
AcDbEntity
  8
0Wymiary-PL
 62
   140
 48
4.0
100
AcDbMText
 10
58013.55628409456
 20
-3184.536184202181
 30
0.0
 40
80.0
 41
0.0
 71
     5
 72
     1
  1
\A1;600
  7
ROMANS
 73
     1
 44
1.0
1001
ACAD
1000
MTEXTBEGIN
1070
    73
1070
     1
1070
    44
1040
1.0
1070
    74
1070
     0
1000
MTEXTEND
  0
POINT
  5
214C
330
20CC
100
AcDbEntity
  8
Defpoints
 62
     0
 48
4.0
100
AcDbPoint
 10
57713.55628409456
 20
-3862.464144346303
 30
0.0
  0
POINT
  5
214D
330
20CC
100
AcDbEntity
  8
Defpoints
 62
     0
 48
4.0
100
AcDbPoint
 10
58313.55628409456
 20
-3862.464144346303
 30
0.0
  0
POINT
  5
214E
330
20CC
100
AcDbEntity
  8
Defpoints
 62
     0
 48
4.0
100
AcDbPoint
 10
58313.55628409456
 20
-3264.536184202182
 30
0.0
  0
ENDBLK
  5
20CE
330
20CC
100
AcDbEntity
  8
0
 62
    54
 48
4.0
100
AcDbBlockEnd
  0
BLOCK
  5
20D8
330
20D7
100
AcDbEntity
  8
0
 62
    54
 48
4.0
100
AcDbBlockBegin
  2
*D25
 70
     1
 10
0.0
 20
0.0
 30
0.0
  3
*D25
  1

  0
LINE
  5
214F
330
20D7
100
AcDbEntity
  8
0Wymiary-PL
 62
     1
 48
4.0
370
    -2
100
AcDbLine
 10
58343.55628409456
 20
-3264.536184202182
 30
0.0
 11
59483.55628409456
 21
-3264.536184202182
 31
0.0
  0
INSERT
  5
2150
330
20D7
100
AcDbEntity
  8
0Wymiary-PL
 62
     1
 48
4.0
370
    -2
100
AcDbBlockReference
  2
B-DIM
 10
58313.55628409456
 20
-3264.536184202182
 30
0.0
 41
30.0
 42
30.0
 43
30.0
 50
180.0
  0
INSERT
  5
2151
330
20D7
100
AcDbEntity
  8
0Wymiary-PL
 62
     1
 48
4.0
370
    -2
100
AcDbBlockReference
  2
B-DIM
 10
59513.55628409456
 20
-3264.536184202182
 30
0.0
 41
30.0
 42
30.0
 43
30.0
  0
MTEXT
  5
2152
330
20D7
100
AcDbEntity
  8
0Wymiary-PL
 62
   140
 48
4.0
100
AcDbMText
 10
58913.55628409456
 20
-3184.536184202181
 30
0.0
 40
80.0
 41
0.0
 71
     5
 72
     1
  1
\A1;1200
  7
ROMANS
 73
     1
 44
1.0
1001
ACAD
1000
MTEXTBEGIN
1070
    73
1070
     1
1070
    44
1040
1.0
1070
    74
1070
     0
1000
MTEXTEND
  0
POINT
  5
2153
330
20D7
100
AcDbEntity
  8
Defpoints
 62
     0
 48
4.0
100
AcDbPoint
 10
58313.55628409456
 20
-3862.464144346303
 30
0.0
  0
POINT
  5
2154
330
20D7
100
AcDbEntity
  8
Defpoints
 62
     0
 48
4.0
100
AcDbPoint
 10
59513.55628409456
 20
-3824.464144346305
 30
0.0
  0
POINT
  5
2155
330
20D7
100
AcDbEntity
  8
Defpoints
 62
     0
 48
4.0
100
AcDbPoint
 10
59513.55628409456
 20
-3264.536184202182
 30
0.0
  0
ENDBLK
  5
20D9
330
20D7
100
AcDbEntity
  8
0
 62
    54
 48
4.0
100
AcDbBlockEnd
  0
BLOCK
  5
20E3
330
20E2
100
AcDbEntity
  8
0
 62
    54
 48
4.0
100
AcDbBlockBegin
  2
*D26
 70
     1
 10
0.0
 20
0.0
 30
0.0
  3
*D26
  1

  0
LINE
  5
2156
330
20E2
100
AcDbEntity
  8
0Wymiary-PL
 62
     1
 48
4.0
370
    -2
100
AcDbLine
 10
59963.55628409456
 20
-3854.464144346305
 30
0.0
 11
59963.55628409456
 21
-4074.464144346297
 31
0.0
  0
INSERT
  5
2157
330
20E2
100
AcDbEntity
  8
0Wymiary-PL
 62
     1
 48
4.0
370
    -2
100
AcDbBlockReference
  2
B-DIM
 10
59963.55628409456
 20
-3824.464144346305
 30
0.0
 41
30.0
 42
30.0
 43
30.0
 50
90.0
  0
INSERT
  5
2158
330
20E2
100
AcDbEntity
  8
0Wymiary-PL
 62
     1
 48
4.0
370
    -2
100
AcDbBlockReference
  2
B-DIM
 10
59963.55628409456
 20
-4104.464144346297
 30
0.0
 41
30.0
 42
30.0
 43
30.0
 50
270.0
  0
MTEXT
  5
2159
330
20E2
100
AcDbEntity
  8
0Wymiary-PL
 62
   140
 48
4.0
100
AcDbMText
 10
59883.55628409456
 20
-3964.464144346292
 30
0.0
 40
80.0
 41
0.0
 71
     5
 72
     1
  1
\A1;280
  7
ROMANS
 11
0.0000000000000001
 21
1.0
 31
0.0
 73
     1
 44
1.0
1001
ACAD
1000
MTEXTBEGIN
1070
    73
1070
     1
1070
    44
1040
1.0
1070
    74
1070
     0
1000
MTEXTEND
  0
POINT
  5
215A
330
20E2
100
AcDbEntity
  8
Defpoints
 62
     0
 48
4.0
100
AcDbPoint
 10
59513.55628409456
 20
-3824.464144346305
 30
0.0
  0
POINT
  5
215B
330
20E2
100
AcDbEntity
  8
Defpoints
 62
     0
 48
4.0
100
AcDbPoint
 10
59513.55628409456
 20
-4104.464144346297
 30
0.0
  0
POINT
  5
215C
330
20E2
100
AcDbEntity
  8
Defpoints
 62
     0
 48
4.0
100
AcDbPoint
 10
59963.55628409456
 20
-4104.464144346297
 30
0.0
  0
ENDBLK
  5
20E4
330
20E2
100
AcDbEntity
  8
0
 62
    54
 48
4.0
100
AcDbBlockEnd
  0
BLOCK
  5
20EE
330
20ED
100
AcDbEntity
  8
0
 62
    54
 48
4.0
100
AcDbBlockBegin
  2
*D27
 70
     1
 10
0.0
 20
0.0
 30
0.0
  3
*D27
  1

  0
LINE
  5
215D
330
20ED
100
AcDbEntity
  8
0Wymiary-PL
 62
     1
 48
4.0
370
    -2
100
AcDbLine
 10
59963.55628409456
 20
-4134.464144346298
 30
0.0
 11
59963.55628409456
 21
-4434.464144346298
 31
0.0
  0
INSERT
  5
215E
330
20ED
100
AcDbEntity
  8
0Wymiary-PL
 62
     1
 48
4.0
370
    -2
100
AcDbBlockReference
  2
B-DIM
 10
59963.55628409456
 20
-4104.464144346297
 30
0.0
 41
30.0
 42
30.0
 43
30.0
 50
90.0
  0
INSERT
  5
215F
330
20ED
100
AcDbEntity
  8
0Wymiary-PL
 62
     1
 48
4.0
370
    -2
100
AcDbBlockReference
  2
B-DIM
 10
59963.55628409456
 20
-4464.464144346298
 30
0.0
 41
30.0
 42
30.0
 43
30.0
 50
270.0
  0
MTEXT
  5
2160
330
20ED
100
AcDbEntity
  8
0Wymiary-PL
 62
   140
 48
4.0
100
AcDbMText
 10
59883.55628409456
 20
-4284.464144346287
 30
0.0
 40
80.0
 41
0.0
 71
     5
 72
     1
  1
\A1;360
  7
ROMANS
 11
0.0000000000000001
 21
1.0
 31
0.0
 73
     1
 44
1.0
1001
ACAD
1000
MTEXTBEGIN
1070
    73
1070
     1
1070
    44
1040
1.0
1070
    74
1070
     0
1000
MTEXTEND
  0
POINT
  5
2161
330
20ED
100
AcDbEntity
  8
Defpoints
 62
     0
 48
4.0
100
AcDbPoint
 10
59513.55628409456
 20
-4104.464144346297
 30
0.0
  0
POINT
  5
2162
330
20ED
100
AcDbEntity
  8
Defpoints
 62
     0
 48
4.0
100
AcDbPoint
 10
59563.55628409456
 20
-4464.464144346298
 30
0.0
  0
POINT
  5
2163
330
20ED
100
AcDbEntity
  8
Defpoints
 62
     0
 48
4.0
100
AcDbPoint
 10
59963.55628409456
 20
-4464.464144346298
 30
0.0
  0
ENDBLK
  5
20EF
330
20ED
100
AcDbEntity
  8
0
 62
    54
 48
4.0
100
AcDbBlockEnd
  0
BLOCK
  5
20F9
330
20F8
100
AcDbEntity
  8
0
 62
    54
 48
4.0
100
AcDbBlockBegin
  2
*D28
 70
     1
 10
0.0
 20
0.0
 30
0.0
  3
*D28
  1

  0
LINE
  5
2164
330
20F8
100
AcDbEntity
  8
0Wymiary-PL
 62
     1
 48
4.0
370
    -2
100
AcDbLine
 10
59963.55628409456
 20
-4494.464144346298
 30
0.0
 11
59963.55628409456
 21
-4714.464144346305
 31
0.0
  0
INSERT
  5
2165
330
20F8
100
AcDbEntity
  8
0Wymiary-PL
 62
     1
 48
4.0
370
    -2
100
AcDbBlockReference
  2
B-DIM
 10
59963.55628409456
 20
-4464.464144346298
 30
0.0
 41
30.0
 42
30.0
 43
30.0
 50
90.0
  0
INSERT
  5
2166
330
20F8
100
AcDbEntity
  8
0Wymiary-PL
 62
     1
 48
4.0
370
    -2
100
AcDbBlockReference
  2
B-DIM
 10
59963.55628409456
 20
-4744.464144346305
 30
0.0
 41
30.0
 42
30.0
 43
30.0
 50
270.0
  0
MTEXT
  5
2167
330
20F8
100
AcDbEntity
  8
0Wymiary-PL
 62
   140
 48
4.0
100
AcDbMText
 10
59883.55628409456
 20
-4604.464144346291
 30
0.0
 40
80.0
 41
0.0
 71
     5
 72
     1
  1
\A1;280
  7
ROMANS
 11
0.0000000000000001
 21
1.0
 31
0.0
 73
     1
 44
1.0
1001
ACAD
1000
MTEXTBEGIN
1070
    73
1070
     1
1070
    44
1040
1.0
1070
    74
1070
     0
1000
MTEXTEND
  0
POINT
  5
2168
330
20F8
100
AcDbEntity
  8
Defpoints
 62
     0
 48
4.0
100
AcDbPoint
 10
59563.55628409456
 20
-4464.464144346298
 30
0.0
  0
POINT
  5
2169
330
20F8
100
AcDbEntity
  8
Defpoints
 62
     0
 48
4.0
100
AcDbPoint
 10
59513.55628409456
 20
-4744.464144346305
 30
0.0
  0
POINT
  5
216A
330
20F8
100
AcDbEntity
  8
Defpoints
 62
     0
 48
4.0
100
AcDbPoint
 10
59963.55628409456
 20
-4744.464144346305
 30
0.0
  0
ENDBLK
  5
20FA
330
20F8
100
AcDbEntity
  8
0
 62
    54
 48
4.0
100
AcDbBlockEnd
  0
BLOCK
  5
2104
330
2103
100
AcDbEntity
  8
0
 62
    54
 48
4.0
100
AcDbBlockBegin
  2
*D29
 70
     1
 10
0.0
 20
0.0
 30
0.0
  3
*D29
  1

  0
LINE
  5
216B
330
2103
100
AcDbEntity
  8
0Wymiary-PL
 62
     1
 48
4.0
370
    -2
100
AcDbLine
 10
60163.55628409456
 20
-3854.464144346305
 30
0.0
 11
60163.55628409456
 21
-4714.464144346305
 31
0.0
  0
INSERT
  5
216C
330
2103
100
AcDbEntity
  8
0Wymiary-PL
 62
     1
 48
4.0
370
    -2
100
AcDbBlockReference
  2
B-DIM
 10
60163.55628409456
 20
-3824.464144346305
 30
0.0
 41
30.0
 42
30.0
 43
30.0
 50
90.0
  0
INSERT
  5
216D
330
2103
100
AcDbEntity
  8
0Wymiary-PL
 62
     1
 48
4.0
370
    -2
100
AcDbBlockReference
  2
B-DIM
 10
60163.55628409456
 20
-4744.464144346305
 30
0.0
 41
30.0
 42
30.0
 43
30.0
 50
270.0
  0
MTEXT
  5
216E
330
2103
100
AcDbEntity
  8
0Wymiary-PL
 62
   140
 48
4.0
100
AcDbMText
 10
60083.55628409456
 20
-4284.464144346295
 30
0.0
 40
80.0
 41
0.0
 71
     5
 72
     1
  1
\A1;920
  7
ROMANS
 11
0.0000000000000001
 21
1.0
 31
0.0
 73
     1
 44
1.0
1001
ACAD
1000
MTEXTBEGIN
1070
    73
1070
     1
1070
    44
1040
1.0
1070
    74
1070
     0
1000
MTEXTEND
  0
POINT
  5
216F
330
2103
100
AcDbEntity
  8
Defpoints
 62
     0
 48
4.0
100
AcDbPoint
 10
59513.55628409289
 20
-3824.464144346305
 30
0.0
  0
POINT
  5
2170
330
2103
100
AcDbEntity
  8
Defpoints
 62
     0
 48
4.0
100
AcDbPoint
 10
59513.55628409289
 20
-4744.464144346305
 30
0.0
  0
POINT
  5
2171
330
2103
100
AcDbEntity
  8
Defpoints
 62
     0
 48
4.0
100
AcDbPoint
 10
60163.55628409456
 20
-4744.464144346305
 30
0.0
  0
ENDBLK
  5
2105
330
2103
100
AcDbEntity
  8
0
 62
    54
 48
4.0
100
AcDbBlockEnd
  0
BLOCK
  5
2132
330
2131
100
AcDbEntity
  8
0
 62
    54
 48
4.0
100
AcDbBlockBegin
  2
*D33
 70
     1
 10
0.0
 20
0.0
 30
0.0
  3
*D33
  1

  0
LINE
  5
2172
330
2131
100
AcDbEntity
  8
0Wymiary-PL
 62
     1
 48
4.0
370
    -2
100
AcDbLine
 10
59483.55628409456
 20
-3264.536184202182
 30
0.0
 11
59453.55628409457
 21
-3264.536184202182
 31
0.0
  0
LINE
  5
2173
330
2131
100
AcDbEntity
  8
0Wymiary-PL
 62
     1
 48
4.0
370
    -2
100
AcDbLine
 10
59593.55628409456
 20
-3264.536184202182
 30
0.0
 11
59623.55628409456
 21
-3264.536184202182
 31
0.0
  0
LINE
  5
2174
330
2131
100
AcDbEntity
  8
0Wymiary-PL
 62
     1
 48
4.0
370
    -2
100
AcDbLine
 10
59513.55628409456
 20
-3264.536184202182
 30
0.0
 11
59563.55628409456
 21
-3264.536184202182
 31
0.0
  0
INSERT
  5
2175
330
2131
100
AcDbEntity
  8
0Wymiary-PL
 62
     1
 48
4.0
370
    -2
100
AcDbBlockReference
  2
B-DIM
 10
59513.55628409456
 20
-3264.536184202182
 30
0.0
 41
30.0
 42
30.0
 43
30.0
  0
INSERT
  5
2176
330
2131
100
AcDbEntity
  8
0Wymiary-PL
 62
     1
 48
4.0
370
    -2
100
AcDbBlockReference
  2
B-DIM
 10
59563.55628409456
 20
-3264.536184202182
 30
0.0
 41
30.0
 42
30.0
 43
30.0
 50
180.0
  0
MTEXT
  5
2177
330
2131
100
AcDbEntity
  8
0Wymiary-PL
 62
   140
 48
4.0
100
AcDbMText
 10
59538.55628409456
 20
-3184.536184202181
 30
0.0
 40
80.0
 41
0.0
 71
     5
 72
     1
  1
\A1;50
  7
ROMANS
 73
     1
 44
1.0
1001
ACAD
1000
MTEXTBEGIN
1070
    73
1070
     1
1070
    44
1040
1.0
1070
    74
1070
     0
1000
MTEXTEND
  0
POINT
  5
2178
330
2131
100
AcDbEntity
  8
Defpoints
 62
     0
 48
4.0
100
AcDbPoint
 10
59513.55628409456
 20
-4104.464144346297
 30
0.0
  0
POINT
  5
2179
330
2131
100
AcDbEntity
  8
Defpoints
 62
     0
 48
4.0
100
AcDbPoint
 10
59563.55628409456
 20
-4104.464144346297
 30
0.0
  0
POINT
  5
217A
330
2131
100
AcDbEntity
  8
Defpoints
 62
     0
 48
4.0
100
AcDbPoint
 10
59563.55628409456
 20
-3264.536184202182
 30
0.0
  0
ENDBLK
  5
2133
330
2131
100
AcDbEntity
  8
0
 62
    54
 48
4.0
100
AcDbBlockEnd
  0
BLOCK
  5
213F
330
213E
100
AcDbEntity
  8
0
 62
    54
 48
4.0
100
AcDbBlockBegin
  2
*D34
 70
     1
 10
0.0
 20
0.0
 30
0.0
  3
*D34
  1

  0
LINE
  5
217B
330
213E
100
AcDbEntity
  8
0Wymiary-PL
 62
     1
 48
4.0
370
    -2
100
AcDbLine
 10
57743.55628409456
 20
-3064.536184202181
 30
0.0
 11
59533.55628409457
 21
-3064.536184202181
 31
0.0
  0
INSERT
  5
217C
330
213E
100
AcDbEntity
  8
0Wymiary-PL
 62
     1
 48
4.0
370
    -2
100
AcDbBlockReference
  2
B-DIM
 10
57713.55628409456
 20
-3064.536184202181
 30
0.0
 41
30.0
 42
30.0
 43
30.0
 50
180.0
  0
INSERT
  5
217D
330
213E
100
AcDbEntity
  8
0Wymiary-PL
 62
     1
 48
4.0
370
    -2
100
AcDbBlockReference
  2
B-DIM
 10
59563.55628409456
 20
-3064.536184202181
 30
0.0
 41
30.0
 42
30.0
 43
30.0
  0
MTEXT
  5
217E
330
213E
100
AcDbEntity
  8
0Wymiary-PL
 62
   140
 48
4.0
100
AcDbMText
 10
58638.55628409456
 20
-2984.536184202181
 30
0.0
 40
80.0
 41
0.0
 71
     5
 72
     1
  1
\A1;1850
  7
ROMANS
 73
     1
 44
1.0
1001
ACAD
1000
MTEXTBEGIN
1070
    73
1070
     1
1070
    44
1040
1.0
1070
    74
1070
     0
1000
MTEXTEND
  0
POINT
  5
217F
330
213E
100
AcDbEntity
  8
Defpoints
 62
     0
 48
4.0
100
AcDbPoint
 10
57713.55628409456
 20
-3862.464144346303
 30
0.0
  0
POINT
  5
2180
330
213E
100
AcDbEntity
  8
Defpoints
 62
     0
 48
4.0
100
AcDbPoint
 10
59563.55628409456
 20
-4104.464144346297
 30
0.0
  0
POINT
  5
2181
330
213E
100
AcDbEntity
  8
Defpoints
 62
     0
 48
4.0
100
AcDbPoint
 10
59563.55628409456
 20
-3064.536184202181
 30
0.0
  0
ENDBLK
  5
2140
330
213E
100
AcDbEntity
  8
0
 62
    54
 48
4.0
100
AcDbBlockEnd
  0
BLOCK
  5
21BB
330
21BA
100
AcDbEntity
  8
0
 62
    54
 48
4.0
100
AcDbBlockBegin
  2
*D35
 70
     1
 10
0.0
 20
0.0
 30
0.0
  3
*D35
  1

  0
LINE
  5
220C
330
21BA
100
AcDbEntity
  8
0Wymiary-PL
 62
     1
 48
4.0
370
    -2
100
AcDbLine
 10
64592.41763608113
 20
-3264.536184202182
 30
0.0
 11
64052.41763608112
 21
-3264.536184202182
 31
0.0
  0
INSERT
  5
220D
330
21BA
100
AcDbEntity
  8
0Wymiary-PL
 62
     1
 48
4.0
370
    -2
100
AcDbBlockReference
  2
B-DIM
 10
64622.41763608112
 20
-3264.536184202182
 30
0.0
 41
30.0
 42
30.0
 43
30.0
  0
INSERT
  5
220E
330
21BA
100
AcDbEntity
  8
0Wymiary-PL
 62
     1
 48
4.0
370
    -2
100
AcDbBlockReference
  2
B-DIM
 10
64022.41763608112
 20
-3264.536184202182
 30
0.0
 41
30.0
 42
30.0
 43
30.0
 50
180.0
  0
MTEXT
  5
220F
330
21BA
100
AcDbEntity
  8
0Wymiary-PL
 62
   140
 48
4.0
100
AcDbMText
 10
64322.41763608113
 20
-3184.536184202181
 30
0.0
 40
80.0
 41
0.0
 71
     5
 72
     1
  1
\A1;600
  7
ROMANS
 73
     1
 44
1.0
1001
ACAD
1000
MTEXTBEGIN
1070
    73
1070
     1
1070
    44
1040
1.0
1070
    74
1070
     0
1000
MTEXTEND
  0
POINT
  5
2210
330
21BA
100
AcDbEntity
  8
Defpoints
 62
     0
 48
4.0
100
AcDbPoint
 10
64622.41763608112
 20
-3862.464144346303
 30
0.0
  0
POINT
  5
2211
330
21BA
100
AcDbEntity
  8
Defpoints
 62
     0
 48
4.0
100
AcDbPoint
 10
64022.41763608112
 20
-3862.464144346303
 30
0.0
  0
POINT
  5
2212
330
21BA
100
AcDbEntity
  8
Defpoints
 62
     0
 48
4.0
100
AcDbPoint
 10
64022.41763608112
 20
-3264.536184202182
 30
0.0
  0
ENDBLK
  5
21BC
330
21BA
100
AcDbEntity
  8
0
 62
    54
 48
4.0
100
AcDbBlockEnd
  0
BLOCK
  5
21C5
330
21C4
100
AcDbEntity
  8
0
 62
    54
 48
4.0
100
AcDbBlockBegin
  2
*D36
 70
     1
 10
0.0
 20
0.0
 30
0.0
  3
*D36
  1

  0
LINE
  5
2213
330
21C4
100
AcDbEntity
  8
0Wymiary-PL
 62
     1
 48
4.0
370
    -2
100
AcDbLine
 10
63992.41763608112
 20
-3264.536184202182
 30
0.0
 11
62852.41763608112
 21
-3264.536184202182
 31
0.0
  0
INSERT
  5
2214
330
21C4
100
AcDbEntity
  8
0Wymiary-PL
 62
     1
 48
4.0
370
    -2
100
AcDbBlockReference
  2
B-DIM
 10
64022.41763608112
 20
-3264.536184202182
 30
0.0
 41
30.0
 42
30.0
 43
30.0
  0
INSERT
  5
2215
330
21C4
100
AcDbEntity
  8
0Wymiary-PL
 62
     1
 48
4.0
370
    -2
100
AcDbBlockReference
  2
B-DIM
 10
62822.41763608112
 20
-3264.536184202182
 30
0.0
 41
30.0
 42
30.0
 43
30.0
 50
180.0
  0
MTEXT
  5
2216
330
21C4
100
AcDbEntity
  8
0Wymiary-PL
 62
   140
 48
4.0
100
AcDbMText
 10
63422.41763608113
 20
-3184.536184202181
 30
0.0
 40
80.0
 41
0.0
 71
     5
 72
     1
  1
\A1;1200
  7
ROMANS
 73
     1
 44
1.0
1001
ACAD
1000
MTEXTBEGIN
1070
    73
1070
     1
1070
    44
1040
1.0
1070
    74
1070
     0
1000
MTEXTEND
  0
POINT
  5
2217
330
21C4
100
AcDbEntity
  8
Defpoints
 62
     0
 48
4.0
100
AcDbPoint
 10
64022.41763608112
 20
-3862.464144346303
 30
0.0
  0
POINT
  5
2218
330
21C4
100
AcDbEntity
  8
Defpoints
 62
     0
 48
4.0
100
AcDbPoint
 10
62822.41763608112
 20
-3824.464144346305
 30
0.0
  0
POINT
  5
2219
330
21C4
100
AcDbEntity
  8
Defpoints
 62
     0
 48
4.0
100
AcDbPoint
 10
62822.41763608112
 20
-3264.536184202182
 30
0.0
  0
ENDBLK
  5
21C6
330
21C4
100
AcDbEntity
  8
0
 62
    54
 48
4.0
100
AcDbBlockEnd
  0
BLOCK
  5
21CF
330
21CE
100
AcDbEntity
  8
0
 62
    54
 48
4.0
100
AcDbBlockBegin
  2
*D37
 70
     1
 10
0.0
 20
0.0
 30
0.0
  3
*D37
  1

  0
LINE
  5
221A
330
21CE
100
AcDbEntity
  8
0Wymiary-PL
 62
     1
 48
4.0
370
    -2
100
AcDbLine
 10
62372.41763608112
 20
-3854.464144346305
 30
0.0
 11
62372.41763608112
 21
-4074.464144346298
 31
0.0
  0
INSERT
  5
221B
330
21CE
100
AcDbEntity
  8
0Wymiary-PL
 62
     1
 48
4.0
370
    -2
100
AcDbBlockReference
  2
B-DIM
 10
62372.41763608112
 20
-3824.464144346304
 30
0.0
 41
30.0
 42
30.0
 43
30.0
 50
90.0
  0
INSERT
  5
221C
330
21CE
100
AcDbEntity
  8
0Wymiary-PL
 62
     1
 48
4.0
370
    -2
100
AcDbBlockReference
  2
B-DIM
 10
62372.41763608112
 20
-4104.464144346297
 30
0.0
 41
30.0
 42
30.0
 43
30.0
 50
270.0
  0
MTEXT
  5
221D
330
21CE
100
AcDbEntity
  8
0Wymiary-PL
 62
   140
 48
4.0
100
AcDbMText
 10
62292.41763608112
 20
-3964.464144346292
 30
0.0
 40
80.0
 41
0.0
 71
     5
 72
     1
  1
\A1;280
  7
ROMANS
 11
0.0000000000000001
 21
1.0
 31
0.0
 73
     1
 44
1.0
1001
ACAD
1000
MTEXTBEGIN
1070
    73
1070
     1
1070
    44
1040
1.0
1070
    74
1070
     0
1000
MTEXTEND
  0
POINT
  5
221E
330
21CE
100
AcDbEntity
  8
Defpoints
 62
     0
 48
4.0
100
AcDbPoint
 10
62822.41763608112
 20
-3824.464144346305
 30
0.0
  0
POINT
  5
221F
330
21CE
100
AcDbEntity
  8
Defpoints
 62
     0
 48
4.0
100
AcDbPoint
 10
62822.41763608112
 20
-4104.464144346297
 30
0.0
  0
POINT
  5
2220
330
21CE
100
AcDbEntity
  8
Defpoints
 62
     0
 48
4.0
100
AcDbPoint
 10
62372.41763608112
 20
-4104.464144346297
 30
0.0
  0
ENDBLK
  5
21D0
330
21CE
100
AcDbEntity
  8
0
 62
    54
 48
4.0
100
AcDbBlockEnd
  0
BLOCK
  5
21D9
330
21D8
100
AcDbEntity
  8
0
 62
    54
 48
4.0
100
AcDbBlockBegin
  2
*D38
 70
     1
 10
0.0
 20
0.0
 30
0.0
  3
*D38
  1

  0
LINE
  5
2221
330
21D8
100
AcDbEntity
  8
0Wymiary-PL
 62
     1
 48
4.0
370
    -2
100
AcDbLine
 10
62372.41763608112
 20
-4134.464144346298
 30
0.0
 11
62372.41763608112
 21
-4434.464144346298
 31
0.0
  0
INSERT
  5
2222
330
21D8
100
AcDbEntity
  8
0Wymiary-PL
 62
     1
 48
4.0
370
    -2
100
AcDbBlockReference
  2
B-DIM
 10
62372.41763608112
 20
-4104.464144346297
 30
0.0
 41
30.0
 42
30.0
 43
30.0
 50
90.0
  0
INSERT
  5
2223
330
21D8
100
AcDbEntity
  8
0Wymiary-PL
 62
     1
 48
4.0
370
    -2
100
AcDbBlockReference
  2
B-DIM
 10
62372.41763608112
 20
-4464.464144346298
 30
0.0
 41
30.0
 42
30.0
 43
30.0
 50
270.0
  0
MTEXT
  5
2224
330
21D8
100
AcDbEntity
  8
0Wymiary-PL
 62
   140
 48
4.0
100
AcDbMText
 10
62292.41763608112
 20
-4284.464144346287
 30
0.0
 40
80.0
 41
0.0
 71
     5
 72
     1
  1
\A1;360
  7
ROMANS
 11
0.0000000000000001
 21
1.0
 31
0.0
 73
     1
 44
1.0
1001
ACAD
1000
MTEXTBEGIN
1070
    73
1070
     1
1070
    44
1040
1.0
1070
    74
1070
     0
1000
MTEXTEND
  0
POINT
  5
2225
330
21D8
100
AcDbEntity
  8
Defpoints
 62
     0
 48
4.0
100
AcDbPoint
 10
62822.41763608112
 20
-4104.464144346297
 30
0.0
  0
POINT
  5
2226
330
21D8
100
AcDbEntity
  8
Defpoints
 62
     0
 48
4.0
100
AcDbPoint
 10
62772.41763608112
 20
-4464.464144346298
 30
0.0
  0
POINT
  5
2227
330
21D8
100
AcDbEntity
  8
Defpoints
 62
     0
 48
4.0
100
AcDbPoint
 10
62372.41763608112
 20
-4464.464144346298
 30
0.0
  0
ENDBLK
  5
21DA
330
21D8
100
AcDbEntity
  8
0
 62
    54
 48
4.0
100
AcDbBlockEnd
  0
BLOCK
  5
21E3
330
21E2
100
AcDbEntity
  8
0
 62
    54
 48
4.0
100
AcDbBlockBegin
  2
*D39
 70
     1
 10
0.0
 20
0.0
 30
0.0
  3
*D39
  1

  0
LINE
  5
2228
330
21E2
100
AcDbEntity
  8
0Wymiary-PL
 62
     1
 48
4.0
370
    -2
100
AcDbLine
 10
62372.41763608112
 20
-4494.464144346298
 30
0.0
 11
62372.41763608112
 21
-4714.464144346305
 31
0.0
  0
INSERT
  5
2229
330
21E2
100
AcDbEntity
  8
0Wymiary-PL
 62
     1
 48
4.0
370
    -2
100
AcDbBlockReference
  2
B-DIM
 10
62372.41763608112
 20
-4464.464144346298
 30
0.0
 41
30.0
 42
30.0
 43
30.0
 50
90.0
  0
INSERT
  5
222A
330
21E2
100
AcDbEntity
  8
0Wymiary-PL
 62
     1
 48
4.0
370
    -2
100
AcDbBlockReference
  2
B-DIM
 10
62372.41763608112
 20
-4744.464144346305
 30
0.0
 41
30.0
 42
30.0
 43
30.0
 50
270.0
  0
MTEXT
  5
222B
330
21E2
100
AcDbEntity
  8
0Wymiary-PL
 62
   140
 48
4.0
100
AcDbMText
 10
62292.41763608112
 20
-4604.464144346291
 30
0.0
 40
80.0
 41
0.0
 71
     5
 72
     1
  1
\A1;280
  7
ROMANS
 11
0.0000000000000001
 21
1.0
 31
0.0
 73
     1
 44
1.0
1001
ACAD
1000
MTEXTBEGIN
1070
    73
1070
     1
1070
    44
1040
1.0
1070
    74
1070
     0
1000
MTEXTEND
  0
POINT
  5
222C
330
21E2
100
AcDbEntity
  8
Defpoints
 62
     0
 48
4.0
100
AcDbPoint
 10
62772.41763608112
 20
-4464.464144346298
 30
0.0
  0
POINT
  5
222D
330
21E2
100
AcDbEntity
  8
Defpoints
 62
     0
 48
4.0
100
AcDbPoint
 10
62822.41763608112
 20
-4744.464144346305
 30
0.0
  0
POINT
  5
222E
330
21E2
100
AcDbEntity
  8
Defpoints
 62
     0
 48
4.0
100
AcDbPoint
 10
62372.41763608112
 20
-4744.464144346305
 30
0.0
  0
ENDBLK
  5
21E4
330
21E2
100
AcDbEntity
  8
0
 62
    54
 48
4.0
100
AcDbBlockEnd
  0
BLOCK
  5
21ED
330
21EC
100
AcDbEntity
  8
0
 62
    54
 48
4.0
100
AcDbBlockBegin
  2
*D40
 70
     1
 10
0.0
 20
0.0
 30
0.0
  3
*D40
  1

  0
LINE
  5
222F
330
21EC
100
AcDbEntity
  8
0Wymiary-PL
 62
     1
 48
4.0
370
    -2
100
AcDbLine
 10
62172.41763608113
 20
-3854.464144346305
 30
0.0
 11
62172.41763608113
 21
-4714.464144346305
 31
0.0
  0
INSERT
  5
2230
330
21EC
100
AcDbEntity
  8
0Wymiary-PL
 62
     1
 48
4.0
370
    -2
100
AcDbBlockReference
  2
B-DIM
 10
62172.41763608113
 20
-3824.464144346304
 30
0.0
 41
30.0
 42
30.0
 43
30.0
 50
90.0
  0
INSERT
  5
2231
330
21EC
100
AcDbEntity
  8
0Wymiary-PL
 62
     1
 48
4.0
370
    -2
100
AcDbBlockReference
  2
B-DIM
 10
62172.41763608113
 20
-4744.464144346305
 30
0.0
 41
30.0
 42
30.0
 43
30.0
 50
270.0
  0
MTEXT
  5
2232
330
21EC
100
AcDbEntity
  8
0Wymiary-PL
 62
   140
 48
4.0
100
AcDbMText
 10
62092.41763608113
 20
-4284.464144346295
 30
0.0
 40
80.0
 41
0.0
 71
     5
 72
     1
  1
\A1;920
  7
ROMANS
 11
0.0000000000000001
 21
1.0
 31
0.0
 73
     1
 44
1.0
1001
ACAD
1000
MTEXTBEGIN
1070
    73
1070
     1
1070
    44
1040
1.0
1070
    74
1070
     0
1000
MTEXTEND
  0
POINT
  5
2233
330
21EC
100
AcDbEntity
  8
Defpoints
 62
     0
 48
4.0
100
AcDbPoint
 10
62822.4176360828
 20
-3824.464144346305
 30
0.0
  0
POINT
  5
2234
330
21EC
100
AcDbEntity
  8
Defpoints
 62
     0
 48
4.0
100
AcDbPoint
 10
62822.4176360828
 20
-4744.464144346305
 30
0.0
  0
POINT
  5
2235
330
21EC
100
AcDbEntity
  8
Defpoints
 62
     0
 48
4.0
100
AcDbPoint
 10
62172.41763608113
 20
-4744.464144346305
 30
0.0
  0
ENDBLK
  5
21EE
330
21EC
100
AcDbEntity
  8
0
 62
    54
 48
4.0
100
AcDbBlockEnd
  0
BLOCK
  5
21F7
330
21F6
100
AcDbEntity
  8
0
 62
    54
 48
4.0
100
AcDbBlockBegin
  2
*D41
 70
     1
 10
0.0
 20
0.0
 30
0.0
  3
*D41
  1

  0
LINE
  5
2236
330
21F6
100
AcDbEntity
  8
0Wymiary-PL
 62
     1
 48
4.0
370
    -2
100
AcDbLine
 10
62852.41763608112
 20
-3264.536184202182
 30
0.0
 11
62882.41763608112
 21
-3264.536184202182
 31
0.0
  0
LINE
  5
2237
330
21F6
100
AcDbEntity
  8
0Wymiary-PL
 62
     1
 48
4.0
370
    -2
100
AcDbLine
 10
62742.41763608112
 20
-3264.536184202182
 30
0.0
 11
62712.41763608112
 21
-3264.536184202182
 31
0.0
  0
LINE
  5
2238
330
21F6
100
AcDbEntity
  8
0Wymiary-PL
 62
     1
 48
4.0
370
    -2
100
AcDbLine
 10
62822.41763608112
 20
-3264.536184202182
 30
0.0
 11
62772.41763608112
 21
-3264.536184202182
 31
0.0
  0
INSERT
  5
2239
330
21F6
100
AcDbEntity
  8
0Wymiary-PL
 62
     1
 48
4.0
370
    -2
100
AcDbBlockReference
  2
B-DIM
 10
62822.41763608112
 20
-3264.536184202182
 30
0.0
 41
30.0
 42
30.0
 43
30.0
 50
180.0
  0
INSERT
  5
223A
330
21F6
100
AcDbEntity
  8
0Wymiary-PL
 62
     1
 48
4.0
370
    -2
100
AcDbBlockReference
  2
B-DIM
 10
62772.41763608112
 20
-3264.536184202182
 30
0.0
 41
30.0
 42
30.0
 43
30.0
  0
MTEXT
  5
223B
330
21F6
100
AcDbEntity
  8
0Wymiary-PL
 62
   140
 48
4.0
100
AcDbMText
 10
62797.41763608113
 20
-3184.536184202181
 30
0.0
 40
80.0
 41
0.0
 71
     5
 72
     1
  1
\A1;50
  7
ROMANS
 73
     1
 44
1.0
1001
ACAD
1000
MTEXTBEGIN
1070
    73
1070
     1
1070
    44
1040
1.0
1070
    74
1070
     0
1000
MTEXTEND
  0
POINT
  5
223C
330
21F6
100
AcDbEntity
  8
Defpoints
 62
     0
 48
4.0
100
AcDbPoint
 10
62822.41763608112
 20
-4104.464144346297
 30
0.0
  0
POINT
  5
223D
330
21F6
100
AcDbEntity
  8
Defpoints
 62
     0
 48
4.0
100
AcDbPoint
 10
62772.41763608112
 20
-4104.464144346297
 30
0.0
  0
POINT
  5
223E
330
21F6
100
AcDbEntity
  8
Defpoints
 62
     0
 48
4.0
100
AcDbPoint
 10
62772.41763608112
 20
-3264.536184202182
 30
0.0
  0
ENDBLK
  5
21F8
330
21F6
100
AcDbEntity
  8
0
 62
    54
 48
4.0
100
AcDbBlockEnd
  0
BLOCK
  5
2203
330
2202
100
AcDbEntity
  8
0
 62
    54
 48
4.0
100
AcDbBlockBegin
  2
*D42
 70
     1
 10
0.0
 20
0.0
 30
0.0
  3
*D42
  1

  0
LINE
  5
223F
330
2202
100
AcDbEntity
  8
0Wymiary-PL
 62
     1
 48
4.0
370
    -2
100
AcDbLine
 10
64592.41763608113
 20
-3064.536184202181
 30
0.0
 11
62802.41763608112
 21
-3064.536184202181
 31
0.0
  0
INSERT
  5
2240
330
2202
100
AcDbEntity
  8
0Wymiary-PL
 62
     1
 48
4.0
370
    -2
100
AcDbBlockReference
  2
B-DIM
 10
64622.41763608112
 20
-3064.536184202181
 30
0.0
 41
30.0
 42
30.0
 43
30.0
  0
INSERT
  5
2241
330
2202
100
AcDbEntity
  8
0Wymiary-PL
 62
     1
 48
4.0
370
    -2
100
AcDbBlockReference
  2
B-DIM
 10
62772.41763608112
 20
-3064.536184202181
 30
0.0
 41
30.0
 42
30.0
 43
30.0
 50
180.0
  0
MTEXT
  5
2242
330
2202
100
AcDbEntity
  8
0Wymiary-PL
 62
   140
 48
4.0
100
AcDbMText
 10
63697.41763608113
 20
-2984.536184202181
 30
0.0
 40
80.0
 41
0.0
 71
     5
 72
     1
  1
\A1;1850
  7
ROMANS
 73
     1
 44
1.0
1001
ACAD
1000
MTEXTBEGIN
1070
    73
1070
     1
1070
    44
1040
1.0
1070
    74
1070
     0
1000
MTEXTEND
  0
POINT
  5
2243
330
2202
100
AcDbEntity
  8
Defpoints
 62
     0
 48
4.0
100
AcDbPoint
 10
64622.41763608112
 20
-3862.464144346303
 30
0.0
  0
POINT
  5
2244
330
2202
100
AcDbEntity
  8
Defpoints
 62
     0
 48
4.0
100
AcDbPoint
 10
62772.41763608112
 20
-4104.464144346297
 30
0.0
  0
POINT
  5
2245
330
2202
100
AcDbEntity
  8
Defpoints
 62
     0
 48
4.0
100
AcDbPoint
 10
62772.41763608112
 20
-3064.536184202181
 30
0.0
  0
ENDBLK
  5
2204
330
2202
100
AcDbEntity
  8
0
 62
    54
 48
4.0
100
AcDbBlockEnd
  0
BLOCK
  5
2252
330
224F
100
AcDbEntity
  8
0
100
AcDbBlockBegin
  2
styropian x cm
 70
     2
 10
0.0
 20
0.0
 30
0.0
  3
styropian x cm
  1

  0
ATTDEF
  5
2253
330
224F
100
AcDbEntity
  8
0
100
AcDbText
 10
101.7689311838248
 20
0.0
 30
0.0
 40
15.0
  1
30
 41
0.9
  7
ROMANS
100
AcDbAttributeDefinition
  3
wys nad podloga
  2
30
 70
     0
  0
MTEXT
  5
2254
330
224F
100
AcDbEntity
  8
0
100
AcDbMText
 10
93.75554824488062
 20
16.78842303831652
 30
0.0
 40
16.0
 41
0.0
 71
     3
 72
     5
  1
styropian\P\P\P\P
  7
Romans16
 73
     1
 44
1.0
1001
DCO15
1071
        1
1071
        1
1000
_rozne_opisy_rys_Link1
1004
3E000000
1000
_rozne_opisy_rys_R16_right
1001
ACAD
1000
MTEXTBEGIN
1070
    73
1070
     1
1070
    44
1040
1.0
1070
    74
1070
     0
1000
MTEXTEND
  0
MTEXT
  5
2255
330
224F
100
AcDbEntity
  8
0
100
AcDbMText
 10
133.8804568585447
 20
-0.4164767562615453
 30
0.0
 40
16.0
 41
0.0
 71
     7
 72
     5
  1
cm
  7
Romans16
 73
     1
 44
1.0
1001
DCO15
1071
        1
1071
        1
1000
jednostkiLink1
1004
02000000
1000
jednostki-Romans16
1001
ACAD
1000
MTEXTBEGIN
1070
    73
1070
     1
1070
    44
1040
1.0
1070
    74
1070
     0
1000
MTEXTEND
  0
ENDBLK
  5
2256
330
224F
100
AcDbEntity
  8
0
100
AcDbBlockEnd
  0
BLOCK
  5
2258
330
2257
100
AcDbEntity
  8
0
100
AcDbBlockBegin
  2
strop ocieplony od spodu
 70
     0
 10
0.0
 20
0.0
 30
0.0
  3
strop ocieplony od spodu
  1

  0
MTEXT
  5
2259
330
2257
100
AcDbEntity
  8
0
  6
ByBlock
 62
     0
370
    -2
100
AcDbMText
 10
4.320555990416323
 20
18.42879390001326
 30
0.0
 40
16.0
 41
0.0
 71
     1
 72
     5
  1
strop ocieplony\Pod spodu\P\P\P
  7
Romans16
 73
     1
 44
1.0
1001
DCO15
1071
        1
1071
        1
1000
_rozne_opisy_rys_Link1
1004
44000000
1000
_rozne_opisy_rys_Romans16
1001
ACAD
1000
MTEXTBEGIN
1070
    73
1070
     1
1070
    44
1040
1.0
1070
    74
1070
     0
1000
MTEXTEND
  0
ENDBLK
  5
225A
330
2257
100
AcDbEntity
  8
0
100
AcDbBlockEnd
  0
BLOCK
  5
225C
330
225B
100
AcDbEntity
  8
0
100
AcDbBlockBegin
  2
_None
 70
     0
 10
0.0
 20
0.0
 30
0.0
  3
_None
  1

  0
ENDBLK
  5
225D
330
225B
100
AcDbEntity
  8
0
100
AcDbBlockEnd
  0
BLOCK
  5
2261
330
225E
100
AcDbEntity
  8
0
100
AcDbBlockBegin
  2
teren$0$KW1
 70
     0
 10
0.0
 20
0.0
 30
0.0
  3
teren$0$KW1
  1

  0
LWPOLYLINE
  5
2262
330
225E
100
AcDbEntity
  8
0
100
AcDbPolyline
 90
        4
 70
     0
 43
0.0
 10
44.50508800764692
 20
23.44140422539658
 42
-0.1964116320992855
 10
60.72440612546689
 20
36.91982906875637
 42
0.6333360272222676
 10
43.13857654888579
 20
27.65409438392271
 42
-0.0386016450011369
 10
43.04579894362905
 20
24.91785591563257
 42
-0.1268656609053354
  0
LWPOLYLINE
  5
2263
330
225E
100
AcDbEntity
  8
0
100
AcDbPolyline
 90
       17
 70
     0
 43
0.0
 10
23.39934893854661
 20
8.611193698957322
 42
-0.1604549626804939
 10
36.1340786055971
 20
11.21187026975713
 42
0.2388223472644387
 10
30.49905845432614
 20
-6.495815702232903
 42
-0.1286224077845944
 10
39.14280793413036
 20
8.369738822824729
 42
-0.0268781585376912
 10
40.16634621327148
 20
-10.10269707166481
 42
0.1080256688727423
 10
43.58131600442857
 20
9.222889613049119
 42
0.0008346186357285
 10
54.33244466455699
 20
-7.895693604099506
 42
1.450278761088278
 10
57.87753808831894
 20
-3.182342837248143
 42
-0.1406665048605588
 10
48.08171459937103
 20
10.94782257139104
 42
-0.0872436902823261
 10
62.83337320838564
 20
0.8467394479021095
 42
0.5134661336594767
 10
66.3800545347417
 20
1.47113833610183
 42
-0.0817754603403608
 10
69.30309258538364
 20
5.644529638144376
 42
0.5928275592888938
 10
68.11927757400553
 20
9.525348554063384
 42
0.1005387157571425
 10
49.63527248432956
 20
16.3866758997683
 42
-0.0975967139670463
 10
66.04046262093243
 20
21.35532244998012
 42
1.248300822142489
 10
64.35836686609537
 20
26.43975662256162
 42
0.149766991243045
 10
46.11832099044341
 20
21.33937468778094
 42
-0.2453825697750163
  0
LWPOLYLINE
  5
2264
330
225E
100
AcDbEntity
  8
0
100
AcDbPolyline
 90
       29
 70
     1
 43
0.0
 10
14.4139158977996
 20
54.15317654697355
 10
25.42868728593794
 20
64.52691842427339
 42
-0.231701397709412
 10
41.03447551154522
 20
68.15185621772162
 42
-0.8166871395220759
 10
40.95255892322211
 20
65.00239345302452
 42
0.2161675443235995
 10
28.6964687477639
 20
56.60118327767122
 42
-0.1913914698304467
 10
17.98271092822688
 20
48.48214231532529
 42
-0.2322192389254565
 10
47.92696009053725
 20
38.06807921630298
 42
-0.121856466670975
 10
18.58538410698566
 20
43.69822110692439
 42
-0.2067727538037302
 10
36.5112740890063
 20
18.49251550765621
 42
-0.6428605286761488
 10
33.4632336349946
 20
16.23016449877741
 42
-0.0686793735785313
 10
16.16732093330029
 20
37.70176761236235
 42
-0.0139688098533868
 10
21.50815702814043
 20
10.08365523838074
 42
-0.8865556507110529
 10
17.43789300864319
 20
8.899076875981336
 42
-0.1783308476513718
 10
5.708634537868874
 20
36.28327678254846
 42
0.1206991517644028
 10
-10.99999999999954
 20
11.99999999999909
 42
-0.442169102588291
 10
-17.43436452043988
 20
16.21193675016911
 42
-0.2680745823678917
 10
-10.67297968825414
 20
33.89117409708888
 42
-0.0902239862558298
 10
2.112533391852139
 20
40.90449102405273
 42
-0.0539607162003741
 10
-28.22331224159734
 20
39.36889971872097
 42
-0.8287208051728741
 10
-28.76205504693007
 20
43.50462833439178
 42
-0.1257662522746308
 10
-0.0324701288072902
 20
45.40624428687897
 42
-0.1673198666808299
 10
-25.75193620917753
 20
66.05164638556288
 42
-0.1037330647630549
 10
3.873312914045527
 20
49.58522295246257
 42
-0.2142716477219166
 10
-10.42050147813597
 20
77.76502629250626
 42
-0.841952064838442
 10
-6.195070596204459
 20
78.70303945958767
 42
0.0598210709155198
 10
7.313599653214623
 20
54.50390380054978
 42
-0.1796415944803386
 10
9.812283559665502
 20
82.23646766326238
 42
-0.6897193739024459
 10
14.16557116039939
 20
81.87809311003366
 42
0.1037406904679844
 10
16.17469541999344
 20
62.83390847537794
 42
-0.2617289436543958
  0
LWPOLYLINE
  5
2265
330
225E
100
AcDbEntity
  8
0
100
AcDbPolyline
 90
       17
 70
     0
 43
0.0
 10
-44.1009449024491
 20
-5.450198772659859
 42
0.1604549626804939
 10
-43.74637892135251
 20
7.542535400090855
 42
-0.2388223472644387
 10
-60.2096942605749
 20
-1.07574996472158
 42
0.1286224077845944
 10
-47.06688702823385
 20
10.01324162426954
 42
0.0268781585376912
 10
-65.43722567900204
 20
7.820258190444292
 42
-0.1080256688727423
 10
-46.99577996821244
 20
14.53244110503692
 42
-0.0008346186357285
 10
-65.7184149597756
 20
22.15448792997631
 42
-1.450278761088278
 10
-61.6906902703513
 20
26.46271223481017
 42
0.1406665048605588
 10
-46.07680447915663
 20
19.26366349197451
 42
0.0872436902823261
 10
-58.58134548982298
 20
32.04176061545968
 42
-0.5134661336594767
 10
-58.58098744898552
 20
35.6429857228477
 42
0.0817754603403608
 10
-54.97725911492626
 20
39.24499745239064
 42
-0.5928275592888938
 10
-50.95001181327962
 20
38.75158828069834
 42
-0.1005387157571425
 10
-40.98944547110386
 20
21.73620185419986
 42
0.0975967139670463
 10
-38.93877760802297
 20
38.75420623997434
 42
-1.248300822142489
 10
-33.63977846312219
 20
37.97862578245077
 42
-0.149766991243045
 10
-35.50223169175388
 20
19.13069652225113
 42
0.2453825697750163
  0
LWPOLYLINE
  5
2266
330
225E
100
AcDbEntity
  8
0
100
AcDbPolyline
 90
        4
 70
     0
 43
0.0
 10
-33.15245041171011
 20
17.90612444606722
 42
0.1964116320992855
 10
-22.68853661732646
 20
36.21570457694088
 42
-0.6333360272222676
 10
-28.76669367884824
 20
17.29029182366867
 42
0.0386016450011369
 10
-31.44545933253721
 20
16.72476268031187
 42
0.1268656609053354
  0
ENDBLK
  5
2267
330
225E
100
AcDbEntity
  8
0
100
AcDbBlockEnd
  0
BLOCK
  5
226B
330
2268
100
AcDbEntity
  8
0
100
AcDbBlockBegin
  2
teren$0$KW2
 70
     0
 10
0.0
 20
0.0
 30
0.0
  3
teren$0$KW2
  1

  0
LWPOLYLINE
  5
226C
330
2268
100
AcDbEntity
  8
0
100
AcDbPolyline
 90
       29
 70
     1
 43
0.0
 10
8.927241818921174
 20
40.99122269825602
 10
24.05656589947466
 20
40.78322718056006
 42
-0.231701397709412
 10
37.79031661797126
 20
32.53308225146611
 42
-0.8166871395220759
 10
35.54085642492282
 20
30.32723663729849
 42
0.2161675443235995
 10
20.8916629034029
 20
32.81585231039571
 42
-0.1913914698304467
 10
7.546865101405273
 20
34.43443329005822
 42
-0.2322192389254565
 10
21.81768833981187
 20
6.124463805390405
 42
-0.121856466670975
 10
4.652422714381827
 20
30.5780981961143
 42
-0.2067727538037302
 10
0.0
 20
0.0
 42
-0.6428605286761488
 10
-3.76352819114254
 20
0.4946091903148045
 42
-0.0686793735785313
 10
-1.25573035474008
 20
27.95165357720544
 42
-0.0139688098533868
 10
-16.62819543411024
 20
4.393810325382219
 42
-0.8865556507110529
 10
-20.37652630055891
 20
6.37378274960065
 42
-0.1783308476513718
 10
-9.756705527623125
 20
34.20702394691762
 42
0.1206991517644028
 10
-38.65170968289749
 20
28.38167122929008
 42
-0.442169102588291
 10
-40.3450576387695
 20
35.88327310286331
 42
-0.2680745823678917
 10
-23.19037396657586
 20
43.88255970384489
 42
-0.0902239862558298
 10
-9.126148647741501
 20
40.02853256062735
 42
-0.0539607162003741
 10
-31.98989273513144
 20
60.02530173116247
 42
-0.8287208051728741
 10
-29.50036726256803
 20
63.37145742303619
 42
-0.1257662522746308
 10
-7.536099651653785
 20
44.75490185777744
 42
-0.1673198666808299
 10
-11.65511039061311
 20
77.47733015715493
 42
-0.1037330647630549
 10
-1.823193547006667
 20
45.04074745380058
 42
-0.2142716477219166
 10
7.50742883109342
 20
75.22938657845952
 42
-0.841952064838442
 10
11.19574570625627
 20
72.96433614458146
 42
0.0598210709155198
 10
4.069762197425006
 20
46.18182883880217
 42
-0.1796415944803386
 10
25.15436369942472
 20
64.36913482857562
 42
-0.6897193739024459
 10
28.03284208848709
 20
61.08372657101426
 42
0.1037406904679844
 10
16.23019691965237
 20
46.00343759142925
 42
-0.2617289436543958
  0
ENDBLK
  5
226D
330
2268
100
AcDbEntity
  8
0
100
AcDbBlockEnd
  0
BLOCK
  5
2271
330
226E
100
AcDbEntity
  8
0
100
AcDbBlockBegin
  2
teren$0$KW5
 70
     0
 10
0.0
 20
0.0
 30
0.0
  3
teren$0$KW5
  1

  0
ARC
  5
2272
330
226E
100
AcDbEntity
  8
A-PlantOutdoor-G
100
AcDbCircle
 10
4.31408130149839
 20
36.7318839232421
 30
0.0
 40
4.37032117844855
100
AcDbArc
 50
312.294861389939
 51
62.64623993592513
  0
ARC
  5
2273
330
226E
100
AcDbEntity
  8
A-PlantOutdoor-G
100
AcDbCircle
 10
4.850720261512378
 20
52.91780321166516
 30
0.0
 40
4.39716705987939
100
AcDbArc
 50
263.3335996861863
 51
32.26563905439974
  0
ARC
  5
2274
330
226E
100
AcDbEntity
  8
A-PlantOutdoor-G
100
AcDbCircle
 10
7.739913997879739
 20
48.94972877508826
 30
0.0
 40
6.369654816804057
100
AcDbArc
 50
82.52208791285964
 51
168.1992281313933
  0
ARC
  5
2275
330
226E
100
AcDbEntity
  8
A-PlantOutdoor-G
100
AcDbCircle
 10
7.300087503425402
 20
27.1301984628708
 30
0.0
 40
5.843975248514754
100
AcDbArc
 50
345.2817611993063
 51
101.9304478356243
  0
ARC
  5
2276
330
226E
100
AcDbEntity
  8
A-PlantOutdoor-G
100
AcDbCircle
 10
10.24379265478637
 20
29.22119125753488
 30
0.0
 40
4.485755457599425
100
AcDbArc
 50
185.4494675239515
 51
307.142734953131
  0
ARC
  5
2277
330
226E
100
AcDbEntity
  8
A-PlantOutdoor-G
100
AcDbCircle
 10
12.23474822611479
 20
55.87950851890855
 30
0.0
 40
23.83666430355985
100
AcDbArc
 50
255.0662607171252
 51
280.1699864930092
  0
ARC
  5
2278
330
226E
100
AcDbEntity
  8
A-PlantOutdoor-G
100
AcDbCircle
 10
14.57960327195405
 20
24.51091772248128
 30
0.0
 40
11.59473493250276
100
AcDbArc
 50
73.84203523341504
 51
129.1765303294212
  0
ARC
  5
2279
330
226E
100
AcDbEntity
  8
A-PlantOutdoor-G
100
AcDbCircle
 10
9.678719554192412
 20
60.02040670905808
 30
0.0
 40
17.05739000273627
100
AcDbArc
 50
253.0536664164884
 51
278.0945245290955
  0
ARC
  5
227A
330
226E
100
AcDbEntity
  8
A-PlantOutdoor-G
100
AcDbCircle
 10
5.832054409221655
 20
42.44356212140792
 30
0.0
 40
6.286374190404141
100
AcDbArc
 50
6.296005718514025
 51
103.7275876836993
  0
ARC
  5
227B
330
226E
100
AcDbEntity
  8
A-PlantOutdoor-G
100
AcDbCircle
 10
7.929043370158979
 20
10.03700933721484
 30
0.0
 40
5.727115702793028
100
AcDbArc
 50
42.43715386537838
 51
122.9900793864574
  0
ARC
  5
227C
330
226E
100
AcDbEntity
  8
A-PlantOutdoor-G
100
AcDbCircle
 10
7.335912618486418
 20
16.31749584612862
 30
0.0
 40
5.391442848921787
100
AcDbArc
 50
243.4100773626216
 51
333.3777781875812
  0
ARC
  5
227D
330
226E
100
AcDbEntity
  8
A-PlantOutdoor-G
100
AcDbCircle
 10
18.43380970150792
 20
33.48034193633248
 30
0.0
 40
2.256322663264453
100
AcDbArc
 50
208.1065317456985
 51
106.1485524228015
  0
ARC
  5
227E
330
226E
100
AcDbEntity
  8
A-PlantOutdoor-G
100
AcDbCircle
 10
28.3619455484436
 20
46.3926578935434
 30
0.0
 40
2.256322663264453
100
AcDbArc
 50
292.392111968979
 51
190.4341326460821
  0
ARC
  5
227F
330
226E
100
AcDbEntity
  8
A-PlantOutdoor-G
100
AcDbCircle
 10
33.57194558761739
 20
34.68197936029719
 30
0.0
 40
5.843975248514754
100
AcDbArc
 50
69.56734142258941
 51
186.21602805891
  0
ARC
  5
2280
330
226E
100
AcDbEntity
  8
A-PlantOutdoor-G
100
AcDbCircle
 10
31.78444912954274
 20
37.81925641177168
 30
0.0
 40
4.485755457599425
100
AcDbArc
 50
269.7350477472335
 51
31.42831517641117
  0
ARC
  5
2281
330
226E
100
AcDbEntity
  8
A-PlantOutdoor-G
100
AcDbCircle
 10
32.05371154265731
 20
29.52517015675312
 30
0.0
 40
3.81940468124179
100
AcDbArc
 50
314.345675587456
 51
94.35463527009297
  0
ARC
  5
2282
330
226E
100
AcDbEntity
  8
A-PlantOutdoor-G
100
AcDbCircle
 10
33.33498472431802
 20
31.14045801565954
 30
0.0
 40
4.56304572918377
100
AcDbArc
 50
203.913926666197
 51
287.7147488903574
  0
ARC
  5
2283
330
226E
100
AcDbEntity
  8
A-PlantOutdoor-G
100
AcDbCircle
 10
5.456849039991539
 20
42.45469132335347
 30
0.0
 40
23.83666430355985
100
AcDbArc
 50
339.3518409404098
 51
4.455566716290594
  0
ARC
  5
2284
330
226E
100
AcDbEntity
  8
A-PlantOutdoor-G
100
AcDbCircle
 10
36.90303258101949
 20
41.66451764263547
 30
0.0
 40
11.59473493250276
100
AcDbArc
 50
158.1276154566934
 51
213.4621105527002
  0
ARC
  5
2285
330
226E
100
AcDbEntity
  8
A-PlantOutdoor-G
100
AcDbCircle
 10
23.72065813666905
 20
32.66685348927604
 30
0.0
 40
4.37032117844855
100
AcDbArc
 50
36.58044161321851
 51
146.9318201592048
  0
ARC
  5
2286
330
226E
100
AcDbEntity
  8
A-PlantOutdoor-G
100
AcDbCircle
 10
26.24986361167885
 20
42.38406138081427
 30
0.0
 40
9.597047230562793
100
AcDbArc
 50
229.822333249456
 51
270.9598372102767
  0
ARC
  5
2287
330
226E
100
AcDbEntity
  8
A-PlantOutdoor-G
100
AcDbCircle
 10
26.37815137008829
 20
29.93052143801015
 30
0.0
 40
2.858023876576127
100
AcDbArc
 50
89.34889797985716
 51
347.0649768073936
  0
ARC
  5
2288
330
226E
100
AcDbEntity
  8
A-PlantOutdoor-G
100
AcDbCircle
 10
23.07678364179537
 20
10.22381097780544
 30
0.0
 40
8.764620397091107
100
AcDbArc
 50
300.2468309220691
 51
337.1244561776546
  0
ARC
  5
2289
330
226E
100
AcDbEntity
  8
A-PlantOutdoor-G
100
AcDbCircle
 10
31.20817028988904
 20
6.450701500712057
 30
0.0
 40
5.314041196194446
100
AcDbArc
 50
136.9525580736469
 51
225.6244731445137
  0
ARC
  5
228A
330
226E
100
AcDbEntity
  8
A-PlantOutdoor-G
100
AcDbCircle
 10
36.12389627352059
 20
23.13346104408447
 30
0.0
 40
17.05739000273627
100
AcDbArc
 50
253.0536664164884
 51
278.0945245290955
  0
ARC
  5
228B
330
226E
100
AcDbEntity
  8
A-PlantOutdoor-G
100
AcDbCircle
 10
32.27723112863578
 20
5.556616456427036
 30
0.0
 40
6.286374190404141
100
AcDbArc
 50
6.296005718514025
 51
103.7275876836993
  0
ARC
  5
228C
330
226E
100
AcDbEntity
  8
A-PlantOutdoor-G
100
AcDbCircle
 10
31.29589698084056
 20
16.03085754669246
 30
0.0
 40
4.39716705987939
100
AcDbArc
 50
263.3335996861863
 51
32.26563905439974
  0
ARC
  5
228D
330
226E
100
AcDbEntity
  8
A-PlantOutdoor-G
100
AcDbCircle
 10
34.1850907172925
 20
12.06278311010737
 30
0.0
 40
6.369654816804057
100
AcDbArc
 50
82.52208791285964
 51
168.1992281313933
  0
ARC
  5
228E
330
226E
100
AcDbEntity
  8
A-PlantOutdoor-G
100
AcDbCircle
 10
23.43879315050799
 20
19.18166071306586
 30
0.0
 40
9.898261168875411
100
AcDbArc
 50
229.866837339104
 51
293.1156101564048
  0
ARC
  5
228F
330
226E
100
AcDbEntity
  8
A-PlantOutdoor-G
100
AcDbCircle
 10
20.13279421392645
 20
5.670663299669286
 30
0.0
 40
10.49373420520269
100
AcDbArc
 50
63.920643089467
 51
116.3692439086021
  0
ARC
  5
2290
330
226E
100
AcDbEntity
  8
A-PlantOutdoor-G
100
AcDbCircle
 10
30.66739859116661
 20
15.85078353720473
 30
0.0
 40
3.682509300193316
100
AcDbArc
 50
114.4418023261437
 51
222.4468414490568
  0
ARC
  5
2291
330
226E
100
AcDbEntity
  8
A-PlantOutdoor-G
100
AcDbCircle
 10
28.78358359308959
 20
21.5800154505414
 30
0.0
 40
2.403867396490275
100
AcDbArc
 50
278.6155392952891
 51
129.7860739183328
  0
ARC
  5
2292
330
226E
100
AcDbEntity
  8
A-PlantOutdoor-G
100
AcDbCircle
 10
32.31469965436872
 20
17.36596434941657
 30
0.0
 40
7.901768965895903
100
AcDbArc
 50
129.9077429997379
 51
196.6948463484714
  0
ARC
  5
2293
330
226E
100
AcDbEntity
  8
A-PlantOutdoor-G
100
AcDbCircle
 10
16.61095606653498
 20
13.50181218281432
 30
0.0
 40
1.940223198970487
100
AcDbArc
 50
125.9476175752423
 51
283.3426102691066
  0
ARC
  5
2294
330
226E
100
AcDbEntity
  8
A-PlantOutdoor-G
100
AcDbCircle
 10
44.97559552112853
 20
20.01864054148973
 30
0.0
 40
8.764620397091107
100
AcDbArc
 50
300.2468309220691
 51
337.1244561776546
  0
ARC
  5
2295
330
226E
100
AcDbEntity
  8
A-PlantOutdoor-G
100
AcDbCircle
 10
53.10698216923538
 20
16.24553106456642
 30
0.0
 40
5.314041196194446
100
AcDbArc
 50
136.9525580736469
 51
225.6244731445137
  0
ARC
  5
2296
330
226E
100
AcDbEntity
  8
A-PlantOutdoor-G
100
AcDbCircle
 10
58.02270815278188
 20
32.9282906079452
 30
0.0
 40
17.05739000273627
100
AcDbArc
 50
253.0536664164884
 51
278.0945245290955
  0
ARC
  5
2297
330
226E
100
AcDbEntity
  8
A-PlantOutdoor-G
100
AcDbCircle
 10
54.17604300788344
 20
15.3514460201186
 30
0.0
 40
6.286374190404141
100
AcDbArc
 50
6.296005718514025
 51
103.7275876836993
  0
ARC
  5
2298
330
226E
100
AcDbEntity
  8
A-PlantOutdoor-G
100
AcDbCircle
 10
53.1947088601737
 20
25.82568711037675
 30
0.0
 40
4.39716705987939
100
AcDbArc
 50
263.3335996861863
 51
32.26563905439974
  0
ARC
  5
2299
330
226E
100
AcDbEntity
  8
A-PlantOutdoor-G
100
AcDbCircle
 10
56.08390259654107
 20
21.85761267379894
 30
0.0
 40
6.369654816804057
100
AcDbArc
 50
82.52208791285964
 51
168.1992281313933
  0
ARC
  5
229A
330
226E
100
AcDbEntity
  8
A-PlantOutdoor-G
100
AcDbCircle
 10
45.33760502984114
 20
28.97649027675015
 30
0.0
 40
9.898261168875411
100
AcDbArc
 50
229.866837339104
 51
293.1156101564048
  0
ARC
  5
229B
330
226E
100
AcDbEntity
  8
A-PlantOutdoor-G
100
AcDbCircle
 10
42.03160609318774
 20
15.46549286352911
 30
0.0
 40
10.49373420520269
100
AcDbArc
 50
63.920643089467
 51
116.3692439086021
  0
ARC
  5
229C
330
226E
100
AcDbEntity
  8
A-PlantOutdoor-G
100
AcDbCircle
 10
52.56621047041472
 20
25.64561310089539
 30
0.0
 40
3.682509300193316
100
AcDbArc
 50
114.4418023261437
 51
222.4468414490568
  0
ARC
  5
229D
330
226E
100
AcDbEntity
  8
A-PlantOutdoor-G
100
AcDbCircle
 10
50.68239547242228
 20
31.37484501422659
 30
0.0
 40
2.403867396490275
100
AcDbArc
 50
278.6155392952891
 51
129.7860739183328
  0
ARC
  5
229E
330
226E
100
AcDbEntity
  8
A-PlantOutdoor-G
100
AcDbCircle
 10
54.21351153370142
 20
27.16079391310086
 30
0.0
 40
7.901768965895903
100
AcDbArc
 50
129.9077429997379
 51
196.6948463484714
  0
ARC
  5
229F
330
226E
100
AcDbEntity
  8
A-PlantOutdoor-G
100
AcDbCircle
 10
38.50976794586768
 20
23.29664174649861
 30
0.0
 40
1.940223198970487
100
AcDbArc
 50
125.9476175752423
 51
283.3426102691066
  0
ARC
  5
22A0
330
226E
100
AcDbEntity
  8
A-PlantOutdoor-G
100
AcDbCircle
 10
15.15965460445022
 20
44.24267012356267
 30
0.0
 40
3.109442608595028
100
AcDbArc
 50
79.22749652171599
 51
159.2651514341446
  0
ARC
  5
22A1
330
226E
100
AcDbEntity
  8
A-PlantOutdoor-G
100
AcDbCircle
 10
14.69038635567176
 20
49.20815747142751
 30
0.0
 40
4.56977135026166
100
AcDbArc
 50
237.7459095035038
 51
321.4565814236525
  0
ARC
  5
22A2
330
226E
100
AcDbEntity
  8
A-PlantOutdoor-G
100
AcDbCircle
 10
13.6558887044107
 20
51.78796355561463
 30
0.0
 40
4.955614480990533
100
AcDbArc
 50
335.1465048810175
 51
78.89522225716799
  0
ARC
  5
22A3
330
226E
100
AcDbEntity
  8
A-PlantOutdoor-G
100
AcDbCircle
 10
19.72594577378095
 20
52.5240182998441
 30
0.0
 40
6.572632022616842
100
AcDbArc
 50
141.1066788346369
 51
232.6762506578678
  0
ARC
  5
22A4
330
226E
100
AcDbEntity
  8
A-PlantOutdoor-G
100
AcDbCircle
 10
21.27092027190656
 20
44.90141807292366
 30
0.0
 40
5.727115702793028
100
AcDbArc
 50
42.43715386537838
 51
122.9900793864574
  0
ARC
  5
22A5
330
226E
100
AcDbEntity
  8
A-PlantOutdoor-G
100
AcDbCircle
 10
20.67778952031813
 20
51.18190458183107
 30
0.0
 40
5.391442848921787
100
AcDbArc
 50
243.4100773626216
 51
333.3777781875812
  0
ARC
  5
22A6
330
226E
100
AcDbEntity
  8
A-PlantOutdoor-G
100
AcDbCircle
 10
56.66166060236491
 20
0.6307301124161313
 30
0.0
 40
3.109442608595028
100
AcDbArc
 50
79.22749652171599
 51
159.2651514341446
  0
ARC
  5
22A7
330
226E
100
AcDbEntity
  8
A-PlantOutdoor-G
100
AcDbCircle
 10
56.19239235358509
 20
5.596217460281877
 30
0.0
 40
4.56977135026166
100
AcDbArc
 50
237.7459095035038
 51
321.4565814236525
  0
ARC
  5
22A8
330
226E
100
AcDbEntity
  8
A-PlantOutdoor-G
100
AcDbCircle
 10
55.15789470232494
 20
8.17602354446808
 30
0.0
 40
4.955614480990533
100
AcDbArc
 50
335.1465048810175
 51
78.89522225716799
  0
ARC
  5
22A9
330
226E
100
AcDbEntity
  8
A-PlantOutdoor-G
100
AcDbCircle
 10
61.22795177169519
 20
8.912078288698467
 30
0.0
 40
6.572632022616842
100
AcDbArc
 50
141.1066788346369
 51
232.6762506578678
  0
ARC
  5
22AA
330
226E
100
AcDbEntity
  8
A-PlantOutdoor-G
100
AcDbCircle
 10
62.77292626982035
 20
1.289478061778027
 30
0.0
 40
5.727115702793028
100
AcDbArc
 50
42.43715386537838
 51
122.9900793864574
  0
ARC
  5
22AB
330
226E
100
AcDbEntity
  8
A-PlantOutdoor-G
100
AcDbCircle
 10
62.17979551814733
 20
7.56996457068999
 30
0.0
 40
5.391442848921787
100
AcDbArc
 50
243.4100773626216
 51
333.3777781875812
  0
ARC
  5
22AC
330
226E
100
AcDbEntity
  8
A-PlantOutdoor-G
100
AcDbCircle
 10
43.7293251055662
 20
1.261061687793699
 30
0.0
 40
3.109442608595028
100
AcDbArc
 50
79.22749652171599
 51
159.2651514341446
  0
ARC
  5
22AD
330
226E
100
AcDbEntity
  8
A-PlantOutdoor-G
100
AcDbCircle
 10
43.26005685678729
 20
6.226549035659445
 30
0.0
 40
4.56977135026166
100
AcDbArc
 50
237.7459095035038
 51
321.4565814236525
  0
ARC
  5
22AE
330
226E
100
AcDbEntity
  8
A-PlantOutdoor-G
100
AcDbCircle
 10
42.22555920544164
 20
8.806355119852014
 30
0.0
 40
4.955614480990533
100
AcDbArc
 50
335.1465048810175
 51
78.89522225716799
  0
ARC
  5
22AF
330
226E
100
AcDbEntity
  8
A-PlantOutdoor-G
100
AcDbCircle
 10
48.2956162748842
 20
9.542409863905049
 30
0.0
 40
6.572632022616842
100
AcDbArc
 50
141.1066788346369
 51
232.6762506578678
  0
ARC
  5
22B0
330
226E
100
AcDbEntity
  8
A-PlantOutdoor-G
100
AcDbCircle
 10
49.8405907730089
 20
1.919809636985519
 30
0.0
 40
5.727115702793028
100
AcDbArc
 50
42.43715386537838
 51
122.9900793864574
  0
ARC
  5
22B1
330
226E
100
AcDbEntity
  8
A-PlantOutdoor-G
100
AcDbCircle
 10
49.24746002133588
 20
8.200296145897482
 30
0.0
 40
5.391442848921787
100
AcDbArc
 50
243.4100773626216
 51
333.3777781875812
  0
ARC
  5
22B2
330
226E
100
AcDbEntity
  8
A-PlantOutdoor-G
100
AcDbCircle
 10
-30.11500492687901
 20
9.670018576166512
 30
0.0
 40
4.56304572918377
100
AcDbArc
 50
209.6283464429176
 51
293.4291686670759
  0
ARC
  5
22B3
330
226E
100
AcDbEntity
  8
A-PlantOutdoor-G
100
AcDbCircle
 10
-31.22907638132938
 20
7.935181227173416
 30
0.0
 40
3.81940468124179
100
AcDbArc
 50
320.0600953641702
 51
100.0690550468114
  0
ARC
  5
22B4
330
226E
100
AcDbEntity
  8
A-PlantOutdoor-G
100
AcDbCircle
 10
-36.91679299614498
 20
7.773401613917485
 30
0.0
 40
2.858023876576127
100
AcDbArc
 50
95.06331775657415
 51
352.7793965841103
  0
ARC
  5
22B5
330
226E
100
AcDbEntity
  8
A-PlantOutdoor-G
100
AcDbCircle
 10
-38.28444438291899
 20
20.15228058323646
 30
0.0
 40
9.597047230562793
100
AcDbArc
 50
235.5367530261765
 51
276.6742569869947
  0
ARC
  5
22B6
330
226E
100
AcDbEntity
  8
A-PlantOutdoor-G
100
AcDbCircle
 10
-39.83353699024247
 20
10.23152851319537
 30
0.0
 40
4.37032117844855
100
AcDbArc
 50
42.29486138994007
 51
152.6462399359243
  0
ARC
  5
22B7
330
226E
100
AcDbEntity
  8
A-PlantOutdoor-G
100
AcDbCircle
 10
-27.6125707893907
 20
20.49705048373017
 30
0.0
 40
11.59473493250276
100
AcDbArc
 50
163.8420352334114
 51
219.1765303294201
  0
ARC
  5
22B8
330
226E
100
AcDbEntity
  8
A-PlantOutdoor-G
100
AcDbCircle
 10
-36.5819950033333
 20
24.35125691320445
 30
0.0
 40
2.256322663264453
100
AcDbArc
 50
298.1065317456985
 51
196.1485524228011
  0
ARC
  5
22B9
330
226E
100
AcDbEntity
  8
A-PlantOutdoor-G
100
AcDbCircle
 10
-58.98116158590983
 20
18.15219543781131
 30
0.0
 40
23.83666430355985
100
AcDbArc
 50
345.0662607171273
 51
10.1699864930057
  0
ARC
  5
22BA
330
226E
100
AcDbEntity
  8
A-PlantOutdoor-G
100
AcDbCircle
 10
-32.32284432452298
 20
16.16123986665298
 30
0.0
 40
4.485755457599425
100
AcDbArc
 50
275.4494675239516
 51
37.14273495313455
  0
ARC
  5
22BB
330
226E
100
AcDbEntity
  8
A-PlantOutdoor-G
100
AcDbCircle
 10
-30.23185152986525
 20
13.21753471520696
 30
0.0
 40
5.843975248514754
100
AcDbArc
 50
75.28176119930551
 51
191.9304478356243
  0
ARC
  5
22BC
330
226E
100
AcDbEntity
  8
A-PlantOutdoor-G
100
AcDbCircle
 10
2.017734015476889
 20
28.12742331432764
 30
0.0
 40
3.81940468124179
100
AcDbArc
 50
230.0600953641692
 51
10.06905504680787
  0
ARC
  5
22BD
330
226E
100
AcDbEntity
  8
A-PlantOutdoor-G
100
AcDbCircle
 10
3.752571364463165
 20
27.01335185979133
 30
0.0
 40
4.56304572918377
100
AcDbArc
 50
119.6283464429153
 51
203.4291686670729
  0
ARC
  5
22BE
330
226E
100
AcDbEntity
  8
A-PlantOutdoor-G
100
AcDbCircle
 10
14.23483337154039
 20
35.18279131591771
 30
0.0
 40
9.597047230562793
100
AcDbArc
 50
145.5367530261733
 51
186.6742569869982
  0
ARC
  5
22BF
330
226E
100
AcDbEntity
  8
A-PlantOutdoor-G
100
AcDbCircle
 10
1.855954402135466
 20
33.81513992915007
 30
0.0
 40
2.858023876576127
100
AcDbArc
 50
5.063317756577682
 51
262.7793965841121
  0
ARC
  5
22C0
330
226E
100
AcDbEntity
  8
A-PlantOutdoor-G
100
AcDbCircle
 10
-48.66763173706203
 20
52.28098258436148
 30
0.0
 40
2.256322663264453
100
AcDbArc
 50
292.392111968979
 51
190.4341326460821
  0
ARC
  5
22C1
330
226E
100
AcDbEntity
  8
A-PlantOutdoor-G
100
AcDbCircle
 10
-43.45763169780275
 20
40.570304051108
 30
0.0
 40
5.843975248514754
100
AcDbArc
 50
69.56734142258941
 51
186.21602805891
  0
ARC
  5
22C2
330
226E
100
AcDbEntity
  8
A-PlantOutdoor-G
100
AcDbCircle
 10
-45.24512815596245
 20
43.70758110258975
 30
0.0
 40
4.485755457599425
100
AcDbArc
 50
269.7350477472335
 51
31.42831517641117
  0
ARC
  5
22C3
330
226E
100
AcDbEntity
  8
A-PlantOutdoor-G
100
AcDbCircle
 10
-44.97586574283559
 20
35.41349484774037
 30
0.0
 40
3.81940468124179
100
AcDbArc
 50
314.345675587456
 51
94.35463527009297
  0
ARC
  5
22C4
330
226E
100
AcDbEntity
  8
A-PlantOutdoor-G
100
AcDbCircle
 10
-43.69459256117352
 20
37.02878270664769
 30
0.0
 40
4.56304572918377
100
AcDbArc
 50
203.913926666197
 51
287.7147488903574
  0
ARC
  5
22C5
330
226E
100
AcDbEntity
  8
A-PlantOutdoor-G
100
AcDbCircle
 10
-71.57272824551455
 20
48.34301601417064
 30
0.0
 40
23.83666430355985
100
AcDbArc
 50
339.3518409404098
 51
4.455566716290594
  0
ARC
  5
22C6
330
226E
100
AcDbEntity
  8
A-PlantOutdoor-G
100
AcDbCircle
 10
-40.12654470448615
 20
47.55284233345264
 30
0.0
 40
11.59473493250276
100
AcDbArc
 50
158.1276154566934
 51
213.4621105527002
  0
ARC
  5
22C7
330
226E
100
AcDbEntity
  8
A-PlantOutdoor-G
100
AcDbCircle
 10
-53.30891914883705
 20
38.55517818009503
 30
0.0
 40
4.37032117844855
100
AcDbArc
 50
36.58044161321851
 51
146.9318201592048
  0
ARC
  5
22C8
330
226E
100
AcDbEntity
  8
A-PlantOutdoor-G
100
AcDbCircle
 10
-50.77971367374175
 20
48.27238607162508
 30
0.0
 40
9.597047230562793
100
AcDbArc
 50
229.822333249456
 51
270.9598372102767
  0
ARC
  5
22C9
330
226E
100
AcDbEntity
  8
A-PlantOutdoor-G
100
AcDbCircle
 10
-50.65142591533185
 20
35.81884612882095
 30
0.0
 40
2.858023876576127
100
AcDbArc
 50
89.34889797985716
 51
347.0649768073936
  0
ARC
  5
22CA
330
226E
100
AcDbEntity
  8
A-PlantOutdoor-G
100
AcDbCircle
 10
-55.75040909104427
 20
52.56525298121141
 30
0.0
 40
2.256322663264453
100
AcDbArc
 50
208.1065317456985
 51
106.1485524228015
  0
ARC
  5
22CB
330
226E
100
AcDbEntity
  8
A-PlantOutdoor-G
100
AcDbCircle
 10
-66.88413128912725
 20
46.21510950774973
 30
0.0
 40
5.843975248514754
100
AcDbArc
 50
345.2817611993063
 51
101.9304478356243
  0
ARC
  5
22CC
330
226E
100
AcDbEntity
  8
A-PlantOutdoor-G
100
AcDbCircle
 10
-63.94042613768124
 20
48.30610230240745
 30
0.0
 40
4.485755457599425
100
AcDbArc
 50
185.4494675239515
 51
307.142734953131
  0
ARC
  5
22CD
330
226E
100
AcDbEntity
  8
A-PlantOutdoor-G
100
AcDbCircle
 10
-72.16648477707531
 20
47.21233435920839
 30
0.0
 40
3.81940468124179
100
AcDbArc
 50
230.0600953641692
 51
10.06905504680787
  0
ARC
  5
22CE
330
226E
100
AcDbEntity
  8
A-PlantOutdoor-G
100
AcDbCircle
 10
-70.43164742807585
 20
46.09826290484216
 30
0.0
 40
4.56304572918377
100
AcDbArc
 50
119.6283464429153
 51
203.4291686670729
  0
ARC
  5
22CF
330
226E
100
AcDbEntity
  8
A-PlantOutdoor-G
100
AcDbCircle
 10
-61.94947056643741
 20
74.9644195637884
 30
0.0
 40
23.83666430355985
100
AcDbArc
 50
255.0662607171252
 51
280.1699864930092
  0
ARC
  5
22D0
330
226E
100
AcDbEntity
  8
A-PlantOutdoor-G
100
AcDbCircle
 10
-59.6046155205986
 20
43.59582876736112
 30
0.0
 40
11.59473493250276
100
AcDbArc
 50
73.84203523341504
 51
129.1765303294212
  0
ARC
  5
22D1
330
226E
100
AcDbEntity
  8
A-PlantOutdoor-G
100
AcDbCircle
 10
-69.87013749105336
 20
55.81679496812194
 30
0.0
 40
4.37032117844855
100
AcDbArc
 50
312.294861389939
 51
62.64623993592513
  0
ARC
  5
22D2
330
226E
100
AcDbEntity
  8
A-PlantOutdoor-G
100
AcDbCircle
 10
-59.94938542101227
 20
54.26770236079756
 30
0.0
 40
9.597047230562793
100
AcDbArc
 50
145.5367530261733
 51
186.6742569869982
  0
ARC
  5
22D3
330
226E
100
AcDbEntity
  8
A-PlantOutdoor-G
100
AcDbCircle
 10
-72.32826439033124
 20
52.90005097402354
 30
0.0
 40
2.858023876576127
100
AcDbArc
 50
5.063317756577682
 51
262.7793965841121
  0
ARC
  5
22D4
330
226E
100
AcDbEntity
  8
A-PlantOutdoor-G
100
AcDbCircle
 10
-81.93691891611342
 20
30.50056517201665
 30
0.0
 40
2.256322663264453
100
AcDbArc
 50
208.1065317456985
 51
106.1485524228015
  0
ARC
  5
22D5
330
226E
100
AcDbEntity
  8
A-PlantOutdoor-G
100
AcDbCircle
 10
-93.07064111419458
 20
24.15042169855496
 30
0.0
 40
5.843975248514754
100
AcDbArc
 50
345.2817611993063
 51
101.9304478356243
  0
ARC
  5
22D6
330
226E
100
AcDbEntity
  8
A-PlantOutdoor-G
100
AcDbCircle
 10
-90.12693596283497
 20
26.24141449321815
 30
0.0
 40
4.485755457599425
100
AcDbArc
 50
185.4494675239515
 51
307.142734953131
  0
ARC
  5
22D7
330
226E
100
AcDbEntity
  8
A-PlantOutdoor-G
100
AcDbCircle
 10
-98.35299460214447
 20
25.14764655001272
 30
0.0
 40
3.81940468124179
100
AcDbArc
 50
230.0600953641692
 51
10.06905504680787
  0
ARC
  5
22D8
330
226E
100
AcDbEntity
  8
A-PlantOutdoor-G
100
AcDbCircle
 10
-96.618157253145
 20
24.03357509564557
 30
0.0
 40
4.56304572918377
100
AcDbArc
 50
119.6283464429153
 51
203.4291686670729
  0
ARC
  5
22D9
330
226E
100
AcDbEntity
  8
A-PlantOutdoor-G
100
AcDbCircle
 10
-88.13598039150656
 20
52.89973175459272
 30
0.0
 40
23.83666430355985
100
AcDbArc
 50
255.0662607171252
 51
280.1699864930092
  0
ARC
  5
22DA
330
226E
100
AcDbEntity
  8
A-PlantOutdoor-G
100
AcDbCircle
 10
-85.79112534566684
 20
21.53114095816454
 30
0.0
 40
11.59473493250276
100
AcDbArc
 50
73.84203523341504
 51
129.1765303294212
  0
ARC
  5
22DB
330
226E
100
AcDbEntity
  8
A-PlantOutdoor-G
100
AcDbCircle
 10
-96.0566473161225
 20
33.75210715892445
 30
0.0
 40
4.37032117844855
100
AcDbArc
 50
312.294861389939
 51
62.64623993592513
  0
ARC
  5
22DC
330
226E
100
AcDbEntity
  8
A-PlantOutdoor-G
100
AcDbCircle
 10
-86.13589524608142
 20
32.20301455160097
 30
0.0
 40
9.597047230562793
100
AcDbArc
 50
145.5367530261733
 51
186.6742569869982
  0
ARC
  5
22DD
330
226E
100
AcDbEntity
  8
A-PlantOutdoor-G
100
AcDbCircle
 10
-98.51477421540039
 20
30.83536316482696
 30
0.0
 40
2.858023876576127
100
AcDbArc
 50
5.063317756577682
 51
262.7793965841121
  0
ARC
  5
22DE
330
226E
100
AcDbEntity
  8
A-PlantOutdoor-G
100
AcDbCircle
 10
-71.44801356490006
 20
15.68689325987543
 30
0.0
 40
8.764620397091107
100
AcDbArc
 50
300.2468309220691
 51
337.1244561776546
  0
ARC
  5
22DF
330
226E
100
AcDbEntity
  8
A-PlantOutdoor-G
100
AcDbCircle
 10
-63.31662691680595
 20
11.91378378278386
 30
0.0
 40
5.314041196194446
100
AcDbArc
 50
136.9525580736469
 51
225.6244731445137
  0
ARC
  5
22E0
330
226E
100
AcDbEntity
  8
A-PlantOutdoor-G
100
AcDbCircle
 10
-58.40090093317394
 20
28.59654332615446
 30
0.0
 40
17.05739000273627
100
AcDbArc
 50
253.0536664164884
 51
278.0945245290955
  0
ARC
  5
22E1
330
226E
100
AcDbEntity
  8
A-PlantOutdoor-G
100
AcDbCircle
 10
-62.24756607806011
 20
11.01969873849884
 30
0.0
 40
6.286374190404141
100
AcDbArc
 50
6.296005718514025
 51
103.7275876836993
  0
ARC
  5
22E2
330
226E
100
AcDbEntity
  8
A-PlantOutdoor-G
100
AcDbCircle
 10
-63.22890022585489
 20
21.49393982876245
 30
0.0
 40
4.39716705987939
100
AcDbArc
 50
263.3335996861863
 51
32.26563905439974
  0
ARC
  5
22E3
330
226E
100
AcDbEntity
  8
A-PlantOutdoor-G
100
AcDbCircle
 10
-60.33970648940249
 20
17.52586539217918
 30
0.0
 40
6.369654816804057
100
AcDbArc
 50
82.52208791285964
 51
168.1992281313933
  0
ARC
  5
22E4
330
226E
100
AcDbEntity
  8
A-PlantOutdoor-G
100
AcDbCircle
 10
-71.08600405610196
 20
24.6447429951304
 30
0.0
 40
9.898261168875411
100
AcDbArc
 50
229.866837339104
 51
293.1156101564048
  0
ARC
  5
22E5
330
226E
100
AcDbEntity
  8
A-PlantOutdoor-G
100
AcDbCircle
 10
-74.39200299276854
 20
11.13374558173927
 30
0.0
 40
10.49373420520269
100
AcDbArc
 50
63.920643089467
 51
116.3692439086021
  0
ARC
  5
22E6
330
226E
100
AcDbEntity
  8
A-PlantOutdoor-G
100
AcDbCircle
 10
-63.85739861552884
 20
21.31386581927381
 30
0.0
 40
3.682509300193316
100
AcDbArc
 50
114.4418023261437
 51
222.4468414490568
  0
ARC
  5
22E7
330
226E
100
AcDbEntity
  8
A-PlantOutdoor-G
100
AcDbCircle
 10
-65.74121361352081
 20
27.04309773260593
 30
0.0
 40
2.403867396490275
100
AcDbArc
 50
278.6155392952891
 51
129.7860739183328
  0
ARC
  5
22E8
330
226E
100
AcDbEntity
  8
A-PlantOutdoor-G
100
AcDbCircle
 10
-62.21009755232626
 20
22.82904663148747
 30
0.0
 40
7.901768965895903
100
AcDbArc
 50
129.9077429997379
 51
196.6948463484714
  0
ARC
  5
22E9
330
226E
100
AcDbEntity
  8
A-PlantOutdoor-G
100
AcDbCircle
 10
-77.91384114016091
 20
18.9648944648834
 30
0.0
 40
1.940223198970487
100
AcDbArc
 50
125.9476175752423
 51
283.3426102691066
  0
ARC
  5
22EA
330
226E
100
AcDbEntity
  8
A-PlantOutdoor-G
100
AcDbCircle
 10
-29.91066145106106
 20
50.28577305083491
 30
0.0
 40
8.764620397091107
100
AcDbArc
 50
255.266159126847
 51
292.1437843824271
  0
ARC
  5
22EB
330
226E
100
AcDbEntity
  8
A-PlantOutdoor-G
100
AcDbCircle
 10
-26.82605463385062
 20
41.86906319901299
 30
0.0
 40
5.314041196194446
100
AcDbArc
 50
91.97188627842637
 51
180.6438013492946
  0
ARC
  5
22EC
330
226E
100
AcDbEntity
  8
A-PlantOutdoor-G
100
AcDbCircle
 10
-11.55642678410095
 20
50.19476396599657
 30
0.0
 40
17.05739000273627
100
AcDbArc
 50
208.0729946212627
 51
233.1138527338731
  0
ARC
  5
22ED
330
226E
100
AcDbEntity
  8
A-PlantOutdoor-G
100
AcDbCircle
 10
-26.70185978918971
 20
40.48095124978226
 30
0.0
 40
6.286374190404141
100
AcDbArc
 50
321.3153339232917
 51
58.74691588847523
  0
ARC
  5
22EE
330
226E
100
AcDbEntity
  8
A-PlantOutdoor-G
100
AcDbCircle
 10
-19.9920938657342
 20
48.58353012182305
 30
0.0
 40
4.39716705987939
100
AcDbArc
 50
218.3529278909578
 51
347.2849672591735
  0
ARC
  5
22EF
330
226E
100
AcDbEntity
  8
A-PlantOutdoor-G
100
AcDbCircle
 10
-20.75334197636676
 20
43.73445222025293
 30
0.0
 40
6.369654816804057
100
AcDbArc
 50
37.54141611763724
 51
123.2185563361641
  0
ARC
  5
22F0
330
226E
100
AcDbEntity
  8
A-PlantOutdoor-G
100
AcDbCircle
 10
-23.32257657194168
 20
56.3661727408753
 30
0.0
 40
9.898261168875411
100
AcDbArc
 50
184.8861655438794
 51
248.1349383611771
  0
ARC
  5
22F1
330
226E
100
AcDbEntity
  8
A-PlantOutdoor-G
100
AcDbCircle
 10
-35.21155379431139
 20
49.14613806812849
 30
0.0
 40
10.49373420520269
100
AcDbArc
 50
18.9399712942412
 51
71.38857211337775
  0
ARC
  5
22F2
330
226E
100
AcDbEntity
  8
A-PlantOutdoor-G
100
AcDbCircle
 10
-20.56394782504503
 20
48.90042115025881
 30
0.0
 40
3.682509300193316
100
AcDbArc
 50
69.46113053091986
 51
177.4661696538296
  0
ARC
  5
22F3
330
226E
100
AcDbEntity
  8
A-PlantOutdoor-G
100
AcDbCircle
 10
-17.84664358797272
 20
54.28457521082783
 30
0.0
 40
2.403867396490275
100
AcDbArc
 50
233.6348675000618
 51
84.80540212310769
  0
ARC
  5
22F4
330
226E
100
AcDbEntity
  8
A-PlantOutdoor-G
100
AcDbCircle
 10
-18.32770405731844
 20
48.80775239590548
 30
0.0
 40
7.901768965895903
100
AcDbArc
 50
84.92707120451537
 51
151.7141745532488
  0
ARC
  5
22F5
330
226E
100
AcDbEntity
  8
A-PlantOutdoor-G
100
AcDbCircle
 10
-32.16711922007699
 20
57.17493965288941
 30
0.0
 40
1.940223198970487
100
AcDbArc
 50
80.96694578001748
 51
238.3619384738794
  0
ARC
  5
22F6
330
226E
100
AcDbEntity
  8
A-PlantOutdoor-G
100
AcDbCircle
 10
-105.1731184371729
 20
6.436786897543242
 30
0.0
 40
8.764620397091107
100
AcDbArc
 50
300.2468309220691
 51
337.1244561776546
  0
ARC
  5
22F7
330
226E
100
AcDbEntity
  8
A-PlantOutdoor-G
100
AcDbCircle
 10
-97.04173178906513
 20
2.663677420621752
 30
0.0
 40
5.314041196194446
100
AcDbArc
 50
136.9525580736469
 51
225.6244731445137
  0
ARC
  5
22F8
330
226E
100
AcDbEntity
  8
A-PlantOutdoor-G
100
AcDbCircle
 10
-92.12600580543403
 20
19.34643696399325
 30
0.0
 40
17.05739000273627
100
AcDbArc
 50
253.0536664164884
 51
278.0945245290955
  0
ARC
  5
22F9
330
226E
100
AcDbEntity
  8
A-PlantOutdoor-G
100
AcDbCircle
 10
-95.97267095033203
 20
1.769592376167565
 30
0.0
 40
6.286374190404141
100
AcDbArc
 50
6.296005718514025
 51
103.7275876836993
  0
ARC
  5
22FA
330
226E
100
AcDbEntity
  8
A-PlantOutdoor-G
100
AcDbCircle
 10
-96.9540050981268
 20
12.24383346642935
 30
0.0
 40
4.39716705987939
100
AcDbArc
 50
263.3335996861863
 51
32.26563905439974
  0
ARC
  5
22FB
330
226E
100
AcDbEntity
  8
A-PlantOutdoor-G
100
AcDbCircle
 10
-94.06481136167441
 20
8.275759029847904
 30
0.0
 40
6.369654816804057
100
AcDbArc
 50
82.52208791285964
 51
168.1992281313933
  0
ARC
  5
22FC
330
226E
100
AcDbEntity
  8
A-PlantOutdoor-G
100
AcDbCircle
 10
-104.8111089283747
 20
15.3946366327973
 30
0.0
 40
9.898261168875411
100
AcDbArc
 50
229.866837339104
 51
293.1156101564048
  0
ARC
  5
22FD
330
226E
100
AcDbEntity
  8
A-PlantOutdoor-G
100
AcDbCircle
 10
-108.1171078650277
 20
1.883639219577162
 30
0.0
 40
10.49373420520269
100
AcDbArc
 50
63.920643089467
 51
116.3692439086021
  0
ARC
  5
22FE
330
226E
100
AcDbEntity
  8
A-PlantOutdoor-G
100
AcDbCircle
 10
-97.58250348778711
 20
12.06375945711261
 30
0.0
 40
3.682509300193316
100
AcDbArc
 50
114.4418023261437
 51
222.4468414490568
  0
ARC
  5
22FF
330
226E
100
AcDbEntity
  8
A-PlantOutdoor-G
100
AcDbCircle
 10
-99.46631848586457
 20
17.79299137045018
 30
0.0
 40
2.403867396490275
100
AcDbArc
 50
278.6155392952891
 51
129.7860739183328
  0
ARC
  5
2300
330
226E
100
AcDbEntity
  8
A-PlantOutdoor-G
100
AcDbCircle
 10
-95.93520242459907
 20
13.57894026915528
 30
0.0
 40
7.901768965895903
100
AcDbArc
 50
129.9077429997379
 51
196.6948463484714
  0
ARC
  5
2301
330
226E
100
AcDbEntity
  8
A-PlantOutdoor-G
100
AcDbCircle
 10
-111.6389460124328
 20
9.71478810255121
 30
0.0
 40
1.940223198970487
100
AcDbArc
 50
125.9476175752423
 51
283.3426102691066
  0
ARC
  5
2302
330
226E
100
AcDbEntity
  8
A-PlantOutdoor-G
100
AcDbCircle
 10
-3.368393077533255
 20
47.11075664277723
 30
0.0
 40
8.764620397091107
100
AcDbArc
 50
300.2468309220691
 51
337.1244561776546
  0
ARC
  5
2303
330
226E
100
AcDbEntity
  8
A-PlantOutdoor-G
100
AcDbCircle
 10
4.762993570560411
 20
43.33764716568566
 30
0.0
 40
5.314041196194446
100
AcDbArc
 50
136.9525580736469
 51
225.6244731445137
  0
ARC
  5
2304
330
226E
100
AcDbEntity
  8
A-PlantOutdoor-G
100
AcDbCircle
 10
-3.006383568821092
 20
56.06860637803947
 30
0.0
 40
9.898261168875411
100
AcDbArc
 50
229.866837339104
 51
293.1156101564048
  0
ARC
  5
2305
330
226E
100
AcDbEntity
  8
A-PlantOutdoor-G
100
AcDbCircle
 10
-6.312382505486766
 20
42.55760896464835
 30
0.0
 40
10.49373420520269
100
AcDbArc
 50
63.920643089467
 51
116.3692439086021
  0
ARC
  5
2306
330
226E
100
AcDbEntity
  8
A-PlantOutdoor-G
100
AcDbCircle
 10
4.222221871752935
 20
52.73772920218471
 30
0.0
 40
3.682509300193316
100
AcDbArc
 50
114.4418023261437
 51
222.4468414490568
  0
ARC
  5
2307
330
226E
100
AcDbEntity
  8
A-PlantOutdoor-G
100
AcDbCircle
 10
2.338406873760504
 20
58.46696111551501
 30
0.0
 40
2.403867396490275
100
AcDbArc
 50
278.6155392952891
 51
129.7860739183328
  0
ARC
  5
2308
330
226E
100
AcDbEntity
  8
A-PlantOutdoor-G
100
AcDbCircle
 10
5.86952293503964
 20
54.25291001438927
 30
0.0
 40
7.901768965895903
100
AcDbArc
 50
129.9077429997379
 51
196.6948463484714
  0
ARC
  5
2309
330
226E
100
AcDbEntity
  8
A-PlantOutdoor-G
100
AcDbCircle
 10
-9.834220652794101
 20
50.3887578477861
 30
0.0
 40
1.940223198970487
100
AcDbArc
 50
125.9476175752423
 51
283.3426102691066
  0
ARC
  5
230A
330
226E
100
AcDbEntity
  8
A-PlantOutdoor-G
100
AcDbCircle
 10
-20.6230581053569
 20
20.64834802649512
 30
0.0
 40
8.764620397091107
100
AcDbArc
 50
300.2468309220691
 51
337.1244561776546
  0
ARC
  5
230B
330
226E
100
AcDbEntity
  8
A-PlantOutdoor-G
100
AcDbCircle
 10
-12.49167145725005
 20
16.87523854957271
 30
0.0
 40
5.314041196194446
100
AcDbArc
 50
136.9525580736469
 51
225.6244731445137
  0
ARC
  5
230C
330
226E
100
AcDbEntity
  8
A-PlantOutdoor-G
100
AcDbCircle
 10
-7.575945473618048
 20
33.55799809294422
 30
0.0
 40
17.05739000273627
100
AcDbArc
 50
253.0536664164884
 51
278.0945245290955
  0
ARC
  5
230D
330
226E
100
AcDbEntity
  8
A-PlantOutdoor-G
100
AcDbCircle
 10
-11.42261061860154
 20
15.98115350512489
 30
0.0
 40
6.286374190404141
100
AcDbArc
 50
6.296005718514025
 51
103.7275876836993
  0
ARC
  5
230E
330
226E
100
AcDbEntity
  8
A-PlantOutdoor-G
100
AcDbCircle
 10
-12.40394476631172
 20
26.45539459538122
 30
0.0
 40
4.39716705987939
100
AcDbArc
 50
263.3335996861863
 51
32.26563905439974
  0
ARC
  5
230F
330
226E
100
AcDbEntity
  8
A-PlantOutdoor-G
100
AcDbCircle
 10
-9.514751029931176
 20
22.48732015897531
 30
0.0
 40
6.369654816804057
100
AcDbArc
 50
82.52208791285964
 51
168.1992281313933
  0
ARC
  5
2310
330
226E
100
AcDbEntity
  8
A-PlantOutdoor-G
100
AcDbCircle
 10
-20.26104859664429
 20
29.60619776175554
 30
0.0
 40
9.898261168875411
100
AcDbArc
 50
229.866837339104
 51
293.1156101564048
  0
ARC
  5
2311
330
226E
100
AcDbEntity
  8
A-PlantOutdoor-G
100
AcDbCircle
 10
-23.56704753329723
 20
16.0952003485354
 30
0.0
 40
10.49373420520269
100
AcDbArc
 50
63.920643089467
 51
116.3692439086021
  0
ARC
  5
2312
330
226E
100
AcDbEntity
  8
A-PlantOutdoor-G
100
AcDbCircle
 10
-13.03244315605752
 20
26.27532058607085
 30
0.0
 40
3.682509300193316
100
AcDbArc
 50
114.4418023261437
 51
222.4468414490568
  0
ARC
  5
2313
330
226E
100
AcDbEntity
  8
A-PlantOutdoor-G
100
AcDbCircle
 10
-14.9162581540495
 20
32.00455249940205
 30
0.0
 40
2.403867396490275
100
AcDbArc
 50
278.6155392952891
 51
129.7860739183328
  0
ARC
  5
2314
330
226E
100
AcDbEntity
  8
A-PlantOutdoor-G
100
AcDbCircle
 10
-11.38514209278355
 20
27.79050139810716
 30
0.0
 40
7.901768965895903
100
AcDbArc
 50
129.9077429997379
 51
196.6948463484714
  0
ARC
  5
2315
330
226E
100
AcDbEntity
  8
A-PlantOutdoor-G
100
AcDbCircle
 10
-27.08888568061775
 20
23.92634923150308
 30
0.0
 40
1.940223198970487
100
AcDbArc
 50
125.9476175752423
 51
283.3426102691066
  0
ARC
  5
2316
330
226E
100
AcDbEntity
  8
A-PlantOutdoor-G
100
AcDbCircle
 10
-88.3400907904952
 20
41.82716826086107
 30
0.0
 40
8.764620397091107
100
AcDbArc
 50
300.2468309220691
 51
337.1244561776546
  0
ARC
  5
2317
330
226E
100
AcDbEntity
  8
A-PlantOutdoor-G
100
AcDbCircle
 10
-80.20870414238833
 20
38.05405878393776
 30
0.0
 40
5.314041196194446
100
AcDbArc
 50
136.9525580736469
 51
225.6244731445137
  0
ARC
  5
2318
330
226E
100
AcDbEntity
  8
A-PlantOutdoor-G
100
AcDbCircle
 10
-75.29297815875634
 20
54.73681832731017
 30
0.0
 40
17.05739000273627
100
AcDbArc
 50
253.0536664164884
 51
278.0945245290955
  0
ARC
  5
2319
330
226E
100
AcDbEntity
  8
A-PlantOutdoor-G
100
AcDbCircle
 10
-79.13964330374074
 20
37.15997373948994
 30
0.0
 40
6.286374190404141
100
AcDbArc
 50
6.296005718514025
 51
103.7275876836993
  0
ARC
  5
231A
330
226E
100
AcDbEntity
  8
A-PlantOutdoor-G
100
AcDbCircle
 10
-80.12097745145002
 20
47.63421482974718
 30
0.0
 40
4.39716705987939
100
AcDbArc
 50
263.3335996861863
 51
32.26563905439974
  0
ARC
  5
231B
330
226E
100
AcDbEntity
  8
A-PlantOutdoor-G
100
AcDbCircle
 10
-77.23178371506946
 20
43.66614039334035
 30
0.0
 40
6.369654816804057
100
AcDbArc
 50
82.52208791285964
 51
168.1992281313933
  0
ARC
  5
231C
330
226E
100
AcDbEntity
  8
A-PlantOutdoor-G
100
AcDbCircle
 10
-87.97808128178349
 20
50.78501799612149
 30
0.0
 40
9.898261168875411
100
AcDbArc
 50
229.866837339104
 51
293.1156101564048
  0
ARC
  5
231D
330
226E
100
AcDbEntity
  8
A-PlantOutdoor-G
100
AcDbCircle
 10
-91.28408021843553
 20
37.27402058290136
 30
0.0
 40
10.49373420520269
100
AcDbArc
 50
63.920643089467
 51
116.3692439086021
  0
ARC
  5
231E
330
226E
100
AcDbEntity
  8
A-PlantOutdoor-G
100
AcDbCircle
 10
-80.74947584119582
 20
47.4541408204368
 30
0.0
 40
3.682509300193316
100
AcDbArc
 50
114.4418023261437
 51
222.4468414490568
  0
ARC
  5
231F
330
226E
100
AcDbEntity
  8
A-PlantOutdoor-G
100
AcDbCircle
 10
-82.6332908391887
 20
53.1833727337671
 30
0.0
 40
2.403867396490275
100
AcDbArc
 50
278.6155392952891
 51
129.7860739183328
  0
ARC
  5
2320
330
226E
100
AcDbEntity
  8
A-PlantOutdoor-G
100
AcDbCircle
 10
-79.1021747779223
 20
48.9693216324722
 30
0.0
 40
7.901768965895903
100
AcDbArc
 50
129.9077429997379
 51
196.6948463484714
  0
ARC
  5
2321
330
226E
100
AcDbEntity
  8
A-PlantOutdoor-G
100
AcDbCircle
 10
-94.80591836575603
 20
45.10516946586903
 30
0.0
 40
1.940223198970487
100
AcDbArc
 50
125.9476175752423
 51
283.3426102691066
  0
ARC
  5
2322
330
226E
100
AcDbEntity
  8
A-PlantOutdoor-G
100
AcDbCircle
 10
-38.55409287934526
 20
56.66429014560254
 30
0.0
 40
6.572632022616842
100
AcDbArc
 50
141.1066788346369
 51
232.6762506578678
  0
ARC
  5
2323
330
226E
100
AcDbEntity
  8
A-PlantOutdoor-G
100
AcDbCircle
 10
-44.62414994878691
 20
55.9282354015495
 30
0.0
 40
4.955614480990533
100
AcDbArc
 50
335.1465048810175
 51
78.89522225716799
  0
ARC
  5
2324
330
226E
100
AcDbEntity
  8
A-PlantOutdoor-G
100
AcDbCircle
 10
-37.00911838120601
 20
49.04168991885217
 30
0.0
 40
5.727115702793028
100
AcDbArc
 50
42.43715386537838
 51
122.9900793864574
  0
ARC
  5
2325
330
226E
100
AcDbEntity
  8
A-PlantOutdoor-G
100
AcDbCircle
 10
-37.60224913287948
 20
55.32217642776505
 30
0.0
 40
5.391442848921787
100
AcDbArc
 50
243.4100773626216
 51
333.3777781875812
  0
ARC
  5
2326
330
226E
100
AcDbEntity
  8
A-PlantOutdoor-G
100
AcDbCircle
 10
-43.58965229744171
 20
53.34842931735511
 30
0.0
 40
4.56977135026166
100
AcDbArc
 50
237.7459095035038
 51
321.4565814236525
  0
ARC
  5
2327
330
226E
100
AcDbEntity
  8
A-PlantOutdoor-G
100
AcDbCircle
 10
-43.12038404866235
 20
48.38294196949028
 30
0.0
 40
3.109442608595028
100
AcDbArc
 50
79.22749652171599
 51
159.2651514341446
  0
ARC
  5
2328
330
226E
100
AcDbEntity
  8
A-PlantOutdoor-G
100
AcDbCircle
 10
-28.7059055168611
 20
36.99461301218799
 30
0.0
 40
6.572632022616842
100
AcDbArc
 50
141.1066788346369
 51
232.6762506578678
  0
ARC
  5
2329
330
226E
100
AcDbEntity
  8
A-PlantOutdoor-G
100
AcDbCircle
 10
-34.77596258621816
 20
36.25855826812767
 30
0.0
 40
4.955614480990533
100
AcDbArc
 50
335.1465048810175
 51
78.89522225716799
  0
ARC
  5
232A
330
226E
100
AcDbEntity
  8
A-PlantOutdoor-G
100
AcDbCircle
 10
-27.16093101872275
 20
29.3720127854358
 30
0.0
 40
5.727115702793028
100
AcDbArc
 50
42.43715386537838
 51
122.9900793864574
  0
ARC
  5
232B
330
226E
100
AcDbEntity
  8
A-PlantOutdoor-G
100
AcDbCircle
 10
-27.75406177039531
 20
35.65249929434958
 30
0.0
 40
5.391442848921787
100
AcDbArc
 50
243.4100773626216
 51
333.3777781875812
  0
ARC
  5
232C
330
226E
100
AcDbEntity
  8
A-PlantOutdoor-G
100
AcDbCircle
 10
-33.74146493495755
 20
33.67875218393965
 30
0.0
 40
4.56977135026166
100
AcDbArc
 50
237.7459095035038
 51
321.4565814236525
  0
ARC
  5
232D
330
226E
100
AcDbEntity
  8
A-PlantOutdoor-G
100
AcDbCircle
 10
-33.27219668617909
 20
28.71326483607481
 30
0.0
 40
3.109442608595028
100
AcDbArc
 50
79.22749652171599
 51
159.2651514341446
  0
ARC
  5
232E
330
226E
100
AcDbEntity
  8
A-PlantOutdoor-G
100
AcDbCircle
 10
-46.1577410302516
 20
26.37970284066251
 30
0.0
 40
6.572632022616842
100
AcDbArc
 50
141.1066788346369
 51
232.6762506578678
  0
ARC
  5
232F
330
226E
100
AcDbEntity
  8
A-PlantOutdoor-G
100
AcDbCircle
 10
-52.2277980996223
 20
25.64364809643212
 30
0.0
 40
4.955614480990533
100
AcDbArc
 50
335.1465048810175
 51
78.89522225716799
  0
ARC
  5
2330
330
226E
100
AcDbEntity
  8
A-PlantOutdoor-G
100
AcDbCircle
 10
-44.61276653204095
 20
18.75710261373388
 30
0.0
 40
5.727115702793028
100
AcDbArc
 50
42.43715386537838
 51
122.9900793864574
  0
ARC
  5
2331
330
226E
100
AcDbEntity
  8
A-PlantOutdoor-G
100
AcDbCircle
 10
-45.20589728371397
 20
25.03758912264766
 30
0.0
 40
5.391442848921787
100
AcDbArc
 50
243.4100773626216
 51
333.3777781875812
  0
ARC
  5
2332
330
226E
100
AcDbEntity
  8
A-PlantOutdoor-G
100
AcDbCircle
 10
-51.19330044827711
 20
23.06384201223864
 30
0.0
 40
4.56977135026166
100
AcDbArc
 50
237.7459095035038
 51
321.4565814236525
  0
ARC
  5
2333
330
226E
100
AcDbEntity
  8
A-PlantOutdoor-G
100
AcDbCircle
 10
-50.72403219958232
 20
18.09835466437926
 30
0.0
 40
3.109442608595028
100
AcDbArc
 50
79.22749652171599
 51
159.2651514341446
  0
ARC
  5
2334
330
226E
100
AcDbEntity
  8
A-PlantOutdoor-G
100
AcDbCircle
 10
6.384068872033822
 20
17.65960956413619
 30
0.0
 40
6.572632022616842
100
AcDbArc
 50
141.1066788346369
 51
232.6762506578678
  0
ARC
  5
2335
330
226E
100
AcDbEntity
  8
A-PlantOutdoor-G
100
AcDbCircle
 10
0.3140118026635719
 20
16.92355481990489
 30
0.0
 40
4.955614480990533
100
AcDbArc
 50
335.1465048810175
 51
78.89522225716799
  0
ARC
  5
2336
330
226E
100
AcDbEntity
  8
A-PlantOutdoor-G
100
AcDbCircle
 10
1.348509453923725
 20
14.3437487357196
 30
0.0
 40
4.56977135026166
100
AcDbArc
 50
237.7459095035038
 51
321.4565814236525
  0
ARC
  5
2337
330
226E
100
AcDbEntity
  8
A-PlantOutdoor-G
100
AcDbCircle
 10
1.817777702702642
 20
9.378261387853854
 30
0.0
 40
3.109442608595028
100
AcDbArc
 50
79.22749652171599
 51
159.2651514341446
  0
ARC
  5
2338
330
226E
100
AcDbEntity
  8
A-PlantOutdoor-G
100
AcDbCircle
 10
-64.46444064866682
 20
39.09758483591577
 30
0.0
 40
6.572632022616842
100
AcDbArc
 50
141.1066788346369
 51
232.6762506578678
  0
ARC
  5
2339
330
226E
100
AcDbEntity
  8
A-PlantOutdoor-G
100
AcDbCircle
 10
-70.53449771803752
 20
38.36153009168538
 30
0.0
 40
4.955614480990533
100
AcDbArc
 50
335.1465048810175
 51
78.89522225716799
  0
ARC
  5
233A
330
226E
100
AcDbEntity
  8
A-PlantOutdoor-G
100
AcDbCircle
 10
-62.91946615045708
 20
31.47498460898805
 30
0.0
 40
5.727115702793028
100
AcDbArc
 50
42.43715386537838
 51
122.9900793864574
  0
ARC
  5
233B
330
226E
100
AcDbEntity
  8
A-PlantOutdoor-G
100
AcDbCircle
 10
-63.5125969021301
 20
37.75547111790184
 30
0.0
 40
5.391442848921787
100
AcDbArc
 50
243.4100773626216
 51
333.3777781875812
  0
ARC
  5
233C
330
226E
100
AcDbEntity
  8
A-PlantOutdoor-G
100
AcDbCircle
 10
-69.50000006669234
 20
35.78172400749281
 30
0.0
 40
4.56977135026166
100
AcDbArc
 50
237.7459095035038
 51
321.4565814236525
  0
ARC
  5
233D
330
226E
100
AcDbEntity
  8
A-PlantOutdoor-G
100
AcDbCircle
 10
-69.03073181799754
 20
30.81623665963344
 30
0.0
 40
3.109442608595028
100
AcDbArc
 50
79.22749652171599
 51
159.2651514341446
  0
ARC
  5
233E
330
226E
100
AcDbEntity
  8
A-PlantOutdoor-G
100
AcDbCircle
 10
-6.219819468059085
 20
43.89606536492374
 30
0.0
 40
6.572632022616842
100
AcDbArc
 50
141.1066788346369
 51
232.6762506578678
  0
ARC
  5
233F
330
226E
100
AcDbEntity
  8
A-PlantOutdoor-G
100
AcDbCircle
 10
-12.28987653742888
 20
43.16001062069244
 30
0.0
 40
4.955614480990533
100
AcDbArc
 50
335.1465048810175
 51
78.89522225716799
  0
ARC
  5
2340
330
226E
100
AcDbEntity
  8
A-PlantOutdoor-G
100
AcDbCircle
 10
-4.674844969933474
 20
36.27346513800239
 30
0.0
 40
5.727115702793028
100
AcDbArc
 50
42.43715386537838
 51
122.9900793864574
  0
ARC
  5
2341
330
226E
100
AcDbEntity
  8
A-PlantOutdoor-G
100
AcDbCircle
 10
-5.267975721606035
 20
42.55395164691617
 30
0.0
 40
5.391442848921787
100
AcDbArc
 50
243.4100773626216
 51
333.3777781875812
  0
ARC
  5
2342
330
226E
100
AcDbEntity
  8
A-PlantOutdoor-G
100
AcDbCircle
 10
-11.25537888616872
 20
40.58020453650715
 30
0.0
 40
4.56977135026166
100
AcDbArc
 50
237.7459095035038
 51
321.4565814236525
  0
ARC
  5
2343
330
226E
100
AcDbEntity
  8
A-PlantOutdoor-G
100
AcDbCircle
 10
-10.78611063738981
 20
35.61471718864141
 30
0.0
 40
3.109442608595028
100
AcDbArc
 50
79.22749652171599
 51
159.2651514341446
  0
ARC
  5
2344
330
226E
100
AcDbEntity
  8
A-PlantOutdoor-G
100
AcDbCircle
 10
-70.73351968104635
 20
9.668583687656791
 30
0.0
 40
6.572632022616842
100
AcDbArc
 50
141.1066788346369
 51
232.6762506578678
  0
ARC
  5
2345
330
226E
100
AcDbEntity
  8
A-PlantOutdoor-G
100
AcDbCircle
 10
-76.8035767504034
 20
8.932528943595571
 30
0.0
 40
4.955614480990533
100
AcDbArc
 50
335.1465048810175
 51
78.89522225716799
  0
ARC
  5
2346
330
226E
100
AcDbEntity
  8
A-PlantOutdoor-G
100
AcDbCircle
 10
-69.18854518292119
 20
2.045983460735442
 30
0.0
 40
5.727115702793028
100
AcDbArc
 50
42.43715386537838
 51
122.9900793864574
  0
ARC
  5
2347
330
226E
100
AcDbEntity
  8
A-PlantOutdoor-G
100
AcDbCircle
 10
-69.78167593459511
 20
8.326469969647405
 30
0.0
 40
5.391442848921787
100
AcDbArc
 50
243.4100773626216
 51
333.3777781875812
  0
ARC
  5
2348
330
226E
100
AcDbEntity
  8
A-PlantOutdoor-G
100
AcDbCircle
 10
-75.76907909914371
 20
6.352722859409368
 30
0.0
 40
4.56977135026166
100
AcDbArc
 50
237.7459095035038
 51
321.4565814236525
  0
ARC
  5
2349
330
226E
100
AcDbEntity
  8
A-PlantOutdoor-G
100
AcDbCircle
 10
-75.29981085036434
 20
1.387235511544531
 30
0.0
 40
3.109442608595028
100
AcDbArc
 50
79.22749652171599
 51
159.2651514341446
  0
ENDBLK
  5
234A
330
226E
100
AcDbEntity
  8
0
100
AcDbBlockEnd
  0
BLOCK
  5
25EC
330
25EB
100
AcDbEntity
  8
0
 62
    54
 48
4.0
100
AcDbBlockBegin
  2
*D52
 70
     1
 10
0.0
 20
0.0
 30
0.0
  3
*D52
  1

  0
LINE
  5
2692
330
25EB
100
AcDbEntity
  8
0Wymiary-PL
 62
     1
 48
4.0
370
    -2
100
AcDbLine
 10
58915.83226366648
 20
-2822.77402063155
 30
0.0
 11
58950.83226366648
 21
-2822.77402063155
 31
0.0
  0
MTEXT
  5
2693
330
25EB
100
AcDbEntity
  8
0Wymiary-PL
 62
   140
 48
4.0
100
AcDbMText
 10
58843.31560467093
 20
-2742.77402063155
 30
0.0
 40
80.0
 41
0.0
 71
     5
 72
     1
  1
\A1;95
  7
ROMANS
 73
     1
 44
1.0
1001
ACAD
1000
MTEXTBEGIN
1070
    73
1070
     1
1070
    44
1040
1.0
1070
    74
1070
     0
1000
MTEXTEND
  0
INSERT
  5
2694
330
25EB
100
AcDbEntity
  8
0Wymiary-PL
 62
     1
 48
4.0
370
    -2
100
AcDbBlockReference
  2
B-DIM
 10
58885.83226366648
 20
-2822.77402063155
 30
0.0
 41
30.0
 42
30.0
 43
30.0
 50
180.0
  0
INSERT
  5
2695
330
25EB
100
AcDbEntity
  8
0Wymiary-PL
 62
     1
 48
4.0
370
    -2
100
AcDbBlockReference
  2
B-DIM
 10
58980.83226366648
 20
-2822.77402063155
 30
0.0
 41
30.0
 42
30.0
 43
30.0
  0
POINT
  5
2696
330
25EB
100
AcDbEntity
  8
Defpoints
 62
     0
 48
4.0
100
AcDbPoint
 10
58885.83226366648
 20
-3773.77402063155
 30
0.0
  0
POINT
  5
2697
330
25EB
100
AcDbEntity
  8
Defpoints
 62
     0
 48
4.0
100
AcDbPoint
 10
58980.83226366648
 20
-3773.77402063155
 30
0.0
  0
POINT
  5
2698
330
25EB
100
AcDbEntity
  8
Defpoints
 62
     0
 48
4.0
100
AcDbPoint
 10
58980.83226366648
 20
-2822.77402063155
 30
0.0
  0
ENDBLK
  5
25ED
330
25EB
100
AcDbEntity
  8
0
 62
    54
 48
4.0
100
AcDbBlockEnd
  0
BLOCK
  5
2602
330
2601
100
AcDbEntity
  8
0
 62
    54
 48
4.0
100
AcDbBlockBegin
  2
*D53
 70
     1
 10
0.0
 20
0.0
 30
0.0
  3
*D53
  1

  0
LINE
  5
2699
330
2601
100
AcDbEntity
  8
0Wymiary-PL
 62
     1
 48
4.0
370
    -2
100
AcDbLine
 10
58950.83226366648
 20
-2822.77402063155
 30
0.0
 11
58920.83226366648
 21
-2822.77402063155
 31
0.0
  0
LINE
  5
269A
330
2601
100
AcDbEntity
  8
0Wymiary-PL
 62
     1
 48
4.0
370
    -2
100
AcDbLine
 10
59070.83226366648
 20
-2822.77402063155
 30
0.0
 11
59100.83226366648
 21
-2822.77402063155
 31
0.0
  0
LINE
  5
269B
330
2601
100
AcDbEntity
  8
0Wymiary-PL
 62
     1
 48
4.0
370
    -2
100
AcDbLine
 10
58980.83226366648
 20
-2822.77402063155
 30
0.0
 11
59040.83226366648
 21
-2822.77402063155
 31
0.0
  0
INSERT
  5
269C
330
2601
100
AcDbEntity
  8
0Wymiary-PL
 62
     1
 48
4.0
370
    -2
100
AcDbBlockReference
  2
B-DIM
 10
58980.83226366648
 20
-2822.77402063155
 30
0.0
 41
30.0
 42
30.0
 43
30.0
  0
INSERT
  5
269D
330
2601
100
AcDbEntity
  8
0Wymiary-PL
 62
     1
 48
4.0
370
    -2
100
AcDbBlockReference
  2
B-DIM
 10
59040.83226366648
 20
-2822.77402063155
 30
0.0
 41
30.0
 42
30.0
 43
30.0
 50
180.0
  0
MTEXT
  5
269E
330
2601
100
AcDbEntity
  8
0Wymiary-PL
 62
   140
 48
4.0
100
AcDbMText
 10
59010.83226366648
 20
-2742.77402063155
 30
0.0
 40
80.0
 41
0.0
 71
     5
 72
     1
  1
\A1;60
  7
ROMANS
 73
     1
 44
1.0
1001
ACAD
1000
MTEXTBEGIN
1070
    73
1070
     1
1070
    44
1040
1.0
1070
    74
1070
     0
1000
MTEXTEND
  0
POINT
  5
269F
330
2601
100
AcDbEntity
  8
Defpoints
 62
     0
 48
4.0
100
AcDbPoint
 10
58980.83226366648
 20
-3773.77402063155
 30
0.0
  0
POINT
  5
26A0
330
2601
100
AcDbEntity
  8
Defpoints
 62
     0
 48
4.0
100
AcDbPoint
 10
59040.83226366648
 20
-3362.77402063155
 30
0.0
  0
POINT
  5
26A1
330
2601
100
AcDbEntity
  8
Defpoints
 62
     0
 48
4.0
100
AcDbPoint
 10
59040.83226366648
 20
-2822.77402063155
 30
0.0
  0
ENDBLK
  5
2603
330
2601
100
AcDbEntity
  8
0
 62
    54
 48
4.0
100
AcDbBlockEnd
  0
BLOCK
  5
2618
330
2617
100
AcDbEntity
  8
0
 62
    54
 48
4.0
100
AcDbBlockBegin
  2
*D54
 70
     1
 10
0.0
 20
0.0
 30
0.0
  3
*D54
  1

  0
LINE
  5
26A2
330
2617
100
AcDbEntity
  8
0Wymiary-PL
 62
     1
 48
4.0
370
    -2
100
AcDbLine
 10
59070.83226366648
 20
-2822.77402063155
 30
0.0
 11
59845.83226366648
 21
-2822.77402063155
 31
0.0
  0
INSERT
  5
26A3
330
2617
100
AcDbEntity
  8
0Wymiary-PL
 62
     1
 48
4.0
370
    -2
100
AcDbBlockReference
  2
B-DIM
 10
59040.83226366648
 20
-2822.77402063155
 30
0.0
 41
30.0
 42
30.0
 43
30.0
 50
180.0
  0
INSERT
  5
26A4
330
2617
100
AcDbEntity
  8
0Wymiary-PL
 62
     1
 48
4.0
370
    -2
100
AcDbBlockReference
  2
B-DIM
 10
59875.83226366648
 20
-2822.77402063155
 30
0.0
 41
30.0
 42
30.0
 43
30.0
  0
MTEXT
  5
26A5
330
2617
100
AcDbEntity
  8
0Wymiary-PL
 62
   140
 48
4.0
100
AcDbMText
 10
59458.33226366648
 20
-2742.77402063155
 30
0.0
 40
80.0
 41
0.0
 71
     5
 72
     1
  1
\A1;835
  7
ROMANS
 73
     1
 44
1.0
1001
ACAD
1000
MTEXTBEGIN
1070
    73
1070
     1
1070
    44
1040
1.0
1070
    74
1070
     0
1000
MTEXTEND
  0
POINT
  5
26A6
330
2617
100
AcDbEntity
  8
Defpoints
 62
     0
 48
4.0
100
AcDbPoint
 10
59040.83226366648
 20
-3362.77402063155
 30
0.0
  0
POINT
  5
26A7
330
2617
100
AcDbEntity
  8
Defpoints
 62
     0
 48
4.0
100
AcDbPoint
 10
59875.83226366648
 20
-3028.77402063155
 30
0.0
  0
POINT
  5
26A8
330
2617
100
AcDbEntity
  8
Defpoints
 62
     0
 48
4.0
100
AcDbPoint
 10
59875.83226366648
 20
-2822.77402063155
 30
0.0
  0
ENDBLK
  5
2619
330
2617
100
AcDbEntity
  8
0
 62
    54
 48
4.0
100
AcDbBlockEnd
  0
BLOCK
  5
262A
330
2629
100
AcDbEntity
  8
0
 62
    54
 48
4.0
100
AcDbBlockBegin
  2
*D55
 70
     1
 10
0.0
 20
0.0
 30
0.0
  3
*D55
  1

  0
LINE
  5
26A9
330
2629
100
AcDbEntity
  8
0Wymiary-PL
 62
     1
 48
4.0
370
    -2
100
AcDbLine
 10
58915.83226366648
 20
-2622.774020631549
 30
0.0
 11
59865.83226366648
 21
-2622.774020631549
 31
0.0
  0
INSERT
  5
26AA
330
2629
100
AcDbEntity
  8
0Wymiary-PL
 62
     1
 48
4.0
370
    -2
100
AcDbBlockReference
  2
B-DIM
 10
58885.83226366648
 20
-2622.774020631549
 30
0.0
 41
30.0
 42
30.0
 43
30.0
 50
180.0
  0
INSERT
  5
26AB
330
2629
100
AcDbEntity
  8
0Wymiary-PL
 62
     1
 48
4.0
370
    -2
100
AcDbBlockReference
  2
B-DIM
 10
59895.83226366648
 20
-2622.774020631549
 30
0.0
 41
30.0
 42
30.0
 43
30.0
  0
MTEXT
  5
26AC
330
2629
100
AcDbEntity
  8
0Wymiary-PL
 62
   140
 48
4.0
100
AcDbMText
 10
59390.83226366648
 20
-2542.774020631549
 30
0.0
 40
80.0
 41
0.0
 71
     5
 72
     1
  1
\A1;1010
  7
ROMANS
 73
     1
 44
1.0
1001
ACAD
1000
MTEXTBEGIN
1070
    73
1070
     1
1070
    44
1040
1.0
1070
    74
1070
     0
1000
MTEXTEND
  0
POINT
  5
26AD
330
2629
100
AcDbEntity
  8
Defpoints
 62
     0
 48
4.0
100
AcDbPoint
 10
58885.83226366648
 20
-3773.77402063155
 30
0.0
  0
POINT
  5
26AE
330
2629
100
AcDbEntity
  8
Defpoints
 62
     0
 48
4.0
100
AcDbPoint
 10
59895.83226366648
 20
-3709.76635870499
 30
0.0
  0
POINT
  5
26AF
330
2629
100
AcDbEntity
  8
Defpoints
 62
     0
 48
4.0
100
AcDbPoint
 10
59895.83226366648
 20
-2622.774020631549
 30
0.0
  0
ENDBLK
  5
262B
330
2629
100
AcDbEntity
  8
0
 62
    54
 48
4.0
100
AcDbBlockEnd
  0
BLOCK
  5
263C
330
263B
100
AcDbEntity
  8
0
 62
    54
 48
4.0
100
AcDbBlockBegin
  2
*D56
 70
     1
 10
0.0
 20
0.0
 30
0.0
  3
*D56
  1

  0
LINE
  5
26B0
330
263B
100
AcDbEntity
  8
0Wymiary-PL
 62
     1
 48
4.0
370
    -2
100
AcDbLine
 10
59845.83226366648
 20
-2822.774020631549
 30
0.0
 11
59815.83226366649
 21
-2822.774020631549
 31
0.0
  0
LINE
  5
26B1
330
263B
100
AcDbEntity
  8
0Wymiary-PL
 62
     1
 48
4.0
370
    -2
100
AcDbLine
 10
59925.83226366648
 20
-2822.774020631549
 30
0.0
 11
59955.83226366648
 21
-2822.774020631549
 31
0.0
  0
LINE
  5
26B2
330
263B
100
AcDbEntity
  8
0Wymiary-PL
 62
     1
 48
4.0
370
    -2
100
AcDbLine
 10
59875.83226366648
 20
-2822.774020631549
 30
0.0
 11
59895.83226366648
 21
-2822.774020631549
 31
0.0
  0
INSERT
  5
26B3
330
263B
100
AcDbEntity
  8
0Wymiary-PL
 62
     1
 48
4.0
370
    -2
100
AcDbBlockReference
  2
B-DIM
 10
59875.83226366648
 20
-2822.774020631549
 30
0.0
 41
30.0
 42
30.0
 43
30.0
  0
INSERT
  5
26B4
330
263B
100
AcDbEntity
  8
0Wymiary-PL
 62
     1
 48
4.0
370
    -2
100
AcDbBlockReference
  2
B-DIM
 10
59895.83226366648
 20
-2822.774020631549
 30
0.0
 41
30.0
 42
30.0
 43
30.0
 50
180.0
  0
MTEXT
  5
26B5
330
263B
100
AcDbEntity
  8
0Wymiary-PL
 62
   140
 48
4.0
100
AcDbMText
 10
59885.83226366648
 20
-2742.774020631549
 30
0.0
 40
80.0
 41
0.0
 71
     5
 72
     1
  1
\A1;20
  7
ROMANS
 73
     1
 44
1.0
1001
ACAD
1000
MTEXTBEGIN
1070
    73
1070
     1
1070
    44
1040
1.0
1070
    74
1070
     0
1000
MTEXTEND
  0
POINT
  5
26B6
330
263B
100
AcDbEntity
  8
Defpoints
 62
     0
 48
4.0
100
AcDbPoint
 10
59875.83226366648
 20
-3362.77402063155
 30
0.0
  0
POINT
  5
26B7
330
263B
100
AcDbEntity
  8
Defpoints
 62
     0
 48
4.0
100
AcDbPoint
 10
59895.83226366648
 20
-3362.77402063155
 30
0.0
  0
POINT
  5
26B8
330
263B
100
AcDbEntity
  8
Defpoints
 62
     0
 48
4.0
100
AcDbPoint
 10
59895.83226366648
 20
-2822.774020631549
 30
0.0
  0
ENDBLK
  5
263D
330
263B
100
AcDbEntity
  8
0
 62
    54
 48
4.0
100
AcDbBlockEnd
  0
BLOCK
  5
2649
330
2648
100
AcDbEntity
  8
0
 62
    54
 48
4.0
100
AcDbBlockBegin
  2
*D57
 70
     1
 10
0.0
 20
0.0
 30
0.0
  3
*D57
  1

  0
LINE
  5
26B9
330
2648
100
AcDbEntity
  8
0Wymiary-PL
 62
     1
 48
4.0
370
    -2
100
AcDbLine
 10
58425.83226366648
 20
-3058.77402063155
 30
0.0
 11
58425.83226366648
 21
-3332.77402063155
 31
0.0
  0
INSERT
  5
26BA
330
2648
100
AcDbEntity
  8
0Wymiary-PL
 62
     1
 48
4.0
370
    -2
100
AcDbBlockReference
  2
B-DIM
 10
58425.83226366648
 20
-3028.77402063155
 30
0.0
 41
30.0
 42
30.0
 43
30.0
 50
90.0
  0
INSERT
  5
26BB
330
2648
100
AcDbEntity
  8
0Wymiary-PL
 62
     1
 48
4.0
370
    -2
100
AcDbBlockReference
  2
B-DIM
 10
58425.83226366648
 20
-3362.77402063155
 30
0.0
 41
30.0
 42
30.0
 43
30.0
 50
270.0
  0
MTEXT
  5
26BC
330
2648
100
AcDbEntity
  8
0Wymiary-PL
 62
   140
 48
4.0
100
AcDbMText
 10
58345.83226366648
 20
-3195.774020631541
 30
0.0
 40
80.0
 41
0.0
 71
     5
 72
     1
  1
\A1;334
  7
ROMANS
 11
0.0000000000000001
 21
1.0
 31
0.0
 73
     1
 44
1.0
1001
ACAD
1000
MTEXTBEGIN
1070
    73
1070
     1
1070
    44
1040
1.0
1070
    74
1070
     0
1000
MTEXTEND
  0
POINT
  5
26BD
330
2648
100
AcDbEntity
  8
Defpoints
 62
     0
 48
4.0
100
AcDbPoint
 10
59040.83226366648
 20
-3028.77402063155
 30
0.0
  0
POINT
  5
26BE
330
2648
100
AcDbEntity
  8
Defpoints
 62
     0
 48
4.0
100
AcDbPoint
 10
59040.83226366648
 20
-3362.77402063155
 30
0.0
  0
POINT
  5
26BF
330
2648
100
AcDbEntity
  8
Defpoints
 62
     0
 48
4.0
100
AcDbPoint
 10
58425.83226366648
 20
-3362.77402063155
 30
0.0
  0
ENDBLK
  5
264A
330
2648
100
AcDbEntity
  8
0
 62
    54
 48
4.0
100
AcDbBlockEnd
  0
BLOCK
  5
265B
330
265A
100
AcDbEntity
  8
0
 62
    54
 48
4.0
100
AcDbBlockBegin
  2
*D58
 70
     1
 10
0.0
 20
0.0
 30
0.0
  3
*D58
  1

  0
LINE
  5
26C0
330
265A
100
AcDbEntity
  8
0Wymiary-PL
 62
     1
 48
4.0
370
    -2
100
AcDbLine
 10
58425.83226366648
 20
-3392.774020631551
 30
0.0
 11
58425.83226366648
 21
-3743.77402063155
 31
0.0
  0
INSERT
  5
26C1
330
265A
100
AcDbEntity
  8
0Wymiary-PL
 62
     1
 48
4.0
370
    -2
100
AcDbBlockReference
  2
B-DIM
 10
58425.83226366648
 20
-3362.77402063155
 30
0.0
 41
30.0
 42
30.0
 43
30.0
 50
90.0
  0
INSERT
  5
26C2
330
265A
100
AcDbEntity
  8
0Wymiary-PL
 62
     1
 48
4.0
370
    -2
100
AcDbBlockReference
  2
B-DIM
 10
58425.83226366648
 20
-3773.77402063155
 30
0.0
 41
30.0
 42
30.0
 43
30.0
 50
270.0
  0
MTEXT
  5
26C3
330
265A
100
AcDbEntity
  8
0Wymiary-PL
 62
   140
 48
4.0
100
AcDbMText
 10
58345.83226366648
 20
-3568.274020631541
 30
0.0
 40
80.0
 41
0.0
 71
     5
 72
     1
  1
\A1;411
  7
ROMANS
 11
0.0000000000000001
 21
1.0
 31
0.0
 73
     1
 44
1.0
1001
ACAD
1000
MTEXTBEGIN
1070
    73
1070
     1
1070
    44
1040
1.0
1070
    74
1070
     0
1000
MTEXTEND
  0
POINT
  5
26C4
330
265A
100
AcDbEntity
  8
Defpoints
 62
     0
 48
4.0
100
AcDbPoint
 10
59040.83226366648
 20
-3362.77402063155
 30
0.0
  0
POINT
  5
26C5
330
265A
100
AcDbEntity
  8
Defpoints
 62
     0
 48
4.0
100
AcDbPoint
 10
58980.83226366648
 20
-3773.77402063155
 30
0.0
  0
POINT
  5
26C6
330
265A
100
AcDbEntity
  8
Defpoints
 62
     0
 48
4.0
100
AcDbPoint
 10
58425.83226366648
 20
-3773.77402063155
 30
0.0
  0
ENDBLK
  5
265C
330
265A
100
AcDbEntity
  8
0
 62
    54
 48
4.0
100
AcDbBlockEnd
  0
BLOCK
  5
2666
330
2665
100
AcDbEntity
  8
0
 62
    54
 48
4.0
100
AcDbBlockBegin
  2
*D59
 70
     1
 10
0.0
 20
0.0
 30
0.0
  3
*D59
  1

  0
LINE
  5
26C7
330
2665
100
AcDbEntity
  8
0Wymiary-PL
 62
     1
 48
4.0
370
    -2
100
AcDbLine
 10
58425.83226366648
 20
-3803.77402063155
 30
0.0
 11
58425.83226366648
 21
-4121.77402063155
 31
0.0
  0
INSERT
  5
26C8
330
2665
100
AcDbEntity
  8
0Wymiary-PL
 62
     1
 48
4.0
370
    -2
100
AcDbBlockReference
  2
B-DIM
 10
58425.83226366648
 20
-3773.77402063155
 30
0.0
 41
30.0
 42
30.0
 43
30.0
 50
90.0
  0
INSERT
  5
26C9
330
2665
100
AcDbEntity
  8
0Wymiary-PL
 62
     1
 48
4.0
370
    -2
100
AcDbBlockReference
  2
B-DIM
 10
58425.83226366648
 20
-4151.77402063155
 30
0.0
 41
30.0
 42
30.0
 43
30.0
 50
270.0
  0
MTEXT
  5
26CA
330
2665
100
AcDbEntity
  8
0Wymiary-PL
 62
   140
 48
4.0
100
AcDbMText
 10
58345.83226366648
 20
-3962.774020631542
 30
0.0
 40
80.0
 41
0.0
 71
     5
 72
     1
  1
\A1;378
  7
ROMANS
 11
0.0000000000000001
 21
1.0
 31
0.0
 73
     1
 44
1.0
1001
ACAD
1000
MTEXTBEGIN
1070
    73
1070
     1
1070
    44
1040
1.0
1070
    74
1070
     0
1000
MTEXTEND
  0
POINT
  5
26CB
330
2665
100
AcDbEntity
  8
Defpoints
 62
     0
 48
4.0
100
AcDbPoint
 10
58980.83226366648
 20
-3773.77402063155
 30
0.0
  0
POINT
  5
26CC
330
2665
100
AcDbEntity
  8
Defpoints
 62
     0
 48
4.0
100
AcDbPoint
 10
58885.83226366648
 20
-4151.77402063155
 30
0.0
  0
POINT
  5
26CD
330
2665
100
AcDbEntity
  8
Defpoints
 62
     0
 48
4.0
100
AcDbPoint
 10
58425.83226366648
 20
-4151.77402063155
 30
0.0
  0
ENDBLK
  5
2667
330
2665
100
AcDbEntity
  8
0
 62
    54
 48
4.0
100
AcDbBlockEnd
  0
BLOCK
  5
2671
330
2670
100
AcDbEntity
  8
0
 62
    54
 48
4.0
100
AcDbBlockBegin
  2
*D60
 70
     1
 10
0.0
 20
0.0
 30
0.0
  3
*D60
  1

  0
LINE
  5
26CE
330
2670
100
AcDbEntity
  8
0Wymiary-PL
 62
     1
 48
4.0
370
    -2
100
AcDbLine
 10
58425.83226366648
 20
-4181.77402063155
 30
0.0
 11
58425.83226366648
 21
-4532.77402063155
 31
0.0
  0
INSERT
  5
26CF
330
2670
100
AcDbEntity
  8
0Wymiary-PL
 62
     1
 48
4.0
370
    -2
100
AcDbBlockReference
  2
B-DIM
 10
58425.83226366648
 20
-4151.77402063155
 30
0.0
 41
30.0
 42
30.0
 43
30.0
 50
90.0
  0
INSERT
  5
26D0
330
2670
100
AcDbEntity
  8
0Wymiary-PL
 62
     1
 48
4.0
370
    -2
100
AcDbBlockReference
  2
B-DIM
 10
58425.83226366648
 20
-4562.774020631549
 30
0.0
 41
30.0
 42
30.0
 43
30.0
 50
270.0
  0
MTEXT
  5
26D1
330
2670
100
AcDbEntity
  8
0Wymiary-PL
 62
   140
 48
4.0
100
AcDbMText
 10
58345.83226366648
 20
-4357.274020631541
 30
0.0
 40
80.0
 41
0.0
 71
     5
 72
     1
  1
\A1;411
  7
ROMANS
 11
0.0000000000000001
 21
1.0
 31
0.0
 73
     1
 44
1.0
1001
ACAD
1000
MTEXTBEGIN
1070
    73
1070
     1
1070
    44
1040
1.0
1070
    74
1070
     0
1000
MTEXTEND
  0
POINT
  5
26D2
330
2670
100
AcDbEntity
  8
Defpoints
 62
     0
 48
4.0
100
AcDbPoint
 10
58885.83226366648
 20
-4151.77402063155
 30
0.0
  0
POINT
  5
26D3
330
2670
100
AcDbEntity
  8
Defpoints
 62
     0
 48
4.0
100
AcDbPoint
 10
59105.33226366648
 20
-4562.774020631549
 30
0.0
  0
POINT
  5
26D4
330
2670
100
AcDbEntity
  8
Defpoints
 62
     0
 48
4.0
100
AcDbPoint
 10
58425.83226366648
 20
-4562.774020631549
 30
0.0
  0
ENDBLK
  5
2672
330
2670
100
AcDbEntity
  8
0
 62
    54
 48
4.0
100
AcDbBlockEnd
  0
BLOCK
  5
267C
330
267B
100
AcDbEntity
  8
0
 62
    54
 48
4.0
100
AcDbBlockBegin
  2
*D61
 70
     1
 10
0.0
 20
0.0
 30
0.0
  3
*D61
  1

  0
LINE
  5
26D5
330
267B
100
AcDbEntity
  8
0Wymiary-PL
 62
     1
 48
4.0
370
    -2
100
AcDbLine
 10
58225.83226366648
 20
-3058.77402063155
 30
0.0
 11
58225.83226366648
 21
-4532.77402063155
 31
0.0
  0
INSERT
  5
26D6
330
267B
100
AcDbEntity
  8
0Wymiary-PL
 62
     1
 48
4.0
370
    -2
100
AcDbBlockReference
  2
B-DIM
 10
58225.83226366648
 20
-3028.77402063155
 30
0.0
 41
30.0
 42
30.0
 43
30.0
 50
90.0
  0
INSERT
  5
26D7
330
267B
100
AcDbEntity
  8
0Wymiary-PL
 62
     1
 48
4.0
370
    -2
100
AcDbBlockReference
  2
B-DIM
 10
58225.83226366648
 20
-4562.774020631549
 30
0.0
 41
30.0
 42
30.0
 43
30.0
 50
270.0
  0
MTEXT
  5
26D8
330
267B
100
AcDbEntity
  8
0Wymiary-PL
 62
   140
 48
4.0
100
AcDbMText
 10
58145.83226366648
 20
-3795.774020631542
 30
0.0
 40
80.0
 41
0.0
 71
     5
 72
     1
  1
\A1;1534
  7
ROMANS
 11
0.0000000000000001
 21
1.0
 31
0.0
 73
     1
 44
1.0
1001
ACAD
1000
MTEXTBEGIN
1070
    73
1070
     1
1070
    44
1040
1.0
1070
    74
1070
     0
1000
MTEXTEND
  0
POINT
  5
26D9
330
267B
100
AcDbEntity
  8
Defpoints
 62
     0
 48
4.0
100
AcDbPoint
 10
59301.58830283571
 20
-3028.77402063155
 30
0.0
  0
POINT
  5
26DA
330
267B
100
AcDbEntity
  8
Defpoints
 62
     0
 48
4.0
100
AcDbPoint
 10
59301.58830283571
 20
-4562.774020631549
 30
0.0
  0
POINT
  5
26DB
330
267B
100
AcDbEntity
  8
Defpoints
 62
     0
 48
4.0
100
AcDbPoint
 10
58225.83226366648
 20
-4562.774020631549
 30
0.0
  0
ENDBLK
  5
267D
330
267B
100
AcDbEntity
  8
0
 62
    54
 48
4.0
100
AcDbBlockEnd
  0
BLOCK
  5
2752
330
2751
100
AcDbEntity
  8
0
 62
    54
 48
4.0
100
AcDbBlockBegin
  2
*D62
 70
     1
 10
0.0
 20
0.0
 30
0.0
  3
*D62
  1

  0
LINE
  5
27B9
330
2751
100
AcDbEntity
  8
0Wymiary-PL
 62
     1
 48
4.0
370
    -2
100
AcDbLine
 10
63420.14165650921
 20
-2822.77402063155
 30
0.0
 11
63385.14165650921
 21
-2822.77402063155
 31
0.0
  0
MTEXT
  5
27BA
330
2751
100
AcDbEntity
  8
0Wymiary-PL
 62
   140
 48
4.0
100
AcDbMText
 10
63492.65831550475
 20
-2742.77402063155
 30
0.0
 40
80.0
 41
0.0
 71
     5
 72
     1
  1
\A1;95
  7
ROMANS
 73
     1
 44
1.0
1001
ACAD
1000
MTEXTBEGIN
1070
    73
1070
     1
1070
    44
1040
1.0
1070
    74
1070
     0
1000
MTEXTEND
  0
INSERT
  5
27BB
330
2751
100
AcDbEntity
  8
0Wymiary-PL
 62
     1
 48
4.0
370
    -2
100
AcDbBlockReference
  2
B-DIM
 10
63450.14165650921
 20
-2822.77402063155
 30
0.0
 41
30.0
 42
30.0
 43
30.0
  0
INSERT
  5
27BC
330
2751
100
AcDbEntity
  8
0Wymiary-PL
 62
     1
 48
4.0
370
    -2
100
AcDbBlockReference
  2
B-DIM
 10
63355.14165650921
 20
-2822.77402063155
 30
0.0
 41
30.0
 42
30.0
 43
30.0
 50
180.0
  0
POINT
  5
27BD
330
2751
100
AcDbEntity
  8
Defpoints
 62
     0
 48
4.0
100
AcDbPoint
 10
63450.14165650921
 20
-3773.77402063155
 30
0.0
  0
POINT
  5
27BE
330
2751
100
AcDbEntity
  8
Defpoints
 62
     0
 48
4.0
100
AcDbPoint
 10
63355.14165650921
 20
-3773.77402063155
 30
0.0
  0
POINT
  5
27BF
330
2751
100
AcDbEntity
  8
Defpoints
 62
     0
 48
4.0
100
AcDbPoint
 10
63355.14165650921
 20
-2822.77402063155
 30
0.0
  0
ENDBLK
  5
2753
330
2751
100
AcDbEntity
  8
0
 62
    54
 48
4.0
100
AcDbBlockEnd
  0
BLOCK
  5
275C
330
275B
100
AcDbEntity
  8
0
 62
    54
 48
4.0
100
AcDbBlockBegin
  2
*D63
 70
     1
 10
0.0
 20
0.0
 30
0.0
  3
*D63
  1

  0
LINE
  5
27C0
330
275B
100
AcDbEntity
  8
0Wymiary-PL
 62
     1
 48
4.0
370
    -2
100
AcDbLine
 10
63385.14165650921
 20
-2822.77402063155
 30
0.0
 11
63415.1416565092
 21
-2822.77402063155
 31
0.0
  0
LINE
  5
27C1
330
275B
100
AcDbEntity
  8
0Wymiary-PL
 62
     1
 48
4.0
370
    -2
100
AcDbLine
 10
63265.1416565092
 20
-2822.77402063155
 30
0.0
 11
63235.1416565092
 21
-2822.77402063155
 31
0.0
  0
LINE
  5
27C2
330
275B
100
AcDbEntity
  8
0Wymiary-PL
 62
     1
 48
4.0
370
    -2
100
AcDbLine
 10
63355.14165650921
 20
-2822.77402063155
 30
0.0
 11
63295.14165650921
 21
-2822.77402063155
 31
0.0
  0
INSERT
  5
27C3
330
275B
100
AcDbEntity
  8
0Wymiary-PL
 62
     1
 48
4.0
370
    -2
100
AcDbBlockReference
  2
B-DIM
 10
63355.14165650921
 20
-2822.77402063155
 30
0.0
 41
30.0
 42
30.0
 43
30.0
 50
180.0
  0
INSERT
  5
27C4
330
275B
100
AcDbEntity
  8
0Wymiary-PL
 62
     1
 48
4.0
370
    -2
100
AcDbBlockReference
  2
B-DIM
 10
63295.14165650921
 20
-2822.77402063155
 30
0.0
 41
30.0
 42
30.0
 43
30.0
  0
MTEXT
  5
27C5
330
275B
100
AcDbEntity
  8
0Wymiary-PL
 62
   140
 48
4.0
100
AcDbMText
 10
63325.14165650921
 20
-2742.77402063155
 30
0.0
 40
80.0
 41
0.0
 71
     5
 72
     1
  1
\A1;60
  7
ROMANS
 73
     1
 44
1.0
1001
ACAD
1000
MTEXTBEGIN
1070
    73
1070
     1
1070
    44
1040
1.0
1070
    74
1070
     0
1000
MTEXTEND
  0
POINT
  5
27C6
330
275B
100
AcDbEntity
  8
Defpoints
 62
     0
 48
4.0
100
AcDbPoint
 10
63355.14165650921
 20
-3773.77402063155
 30
0.0
  0
POINT
  5
27C7
330
275B
100
AcDbEntity
  8
Defpoints
 62
     0
 48
4.0
100
AcDbPoint
 10
63295.14165650921
 20
-3362.77402063155
 30
0.0
  0
POINT
  5
27C8
330
275B
100
AcDbEntity
  8
Defpoints
 62
     0
 48
4.0
100
AcDbPoint
 10
63295.14165650921
 20
-2822.77402063155
 30
0.0
  0
ENDBLK
  5
275D
330
275B
100
AcDbEntity
  8
0
 62
    54
 48
4.0
100
AcDbBlockEnd
  0
BLOCK
  5
2768
330
2767
100
AcDbEntity
  8
0
 62
    54
 48
4.0
100
AcDbBlockBegin
  2
*D64
 70
     1
 10
0.0
 20
0.0
 30
0.0
  3
*D64
  1

  0
LINE
  5
27C9
330
2767
100
AcDbEntity
  8
0Wymiary-PL
 62
     1
 48
4.0
370
    -2
100
AcDbLine
 10
63265.1416565092
 20
-2822.77402063155
 30
0.0
 11
62490.14165650921
 21
-2822.77402063155
 31
0.0
  0
INSERT
  5
27CA
330
2767
100
AcDbEntity
  8
0Wymiary-PL
 62
     1
 48
4.0
370
    -2
100
AcDbBlockReference
  2
B-DIM
 10
63295.14165650921
 20
-2822.77402063155
 30
0.0
 41
30.0
 42
30.0
 43
30.0
  0
INSERT
  5
27CB
330
2767
100
AcDbEntity
  8
0Wymiary-PL
 62
     1
 48
4.0
370
    -2
100
AcDbBlockReference
  2
B-DIM
 10
62460.14165650921
 20
-2822.77402063155
 30
0.0
 41
30.0
 42
30.0
 43
30.0
 50
180.0
  0
MTEXT
  5
27CC
330
2767
100
AcDbEntity
  8
0Wymiary-PL
 62
   140
 48
4.0
100
AcDbMText
 10
62877.6416565092
 20
-2742.77402063155
 30
0.0
 40
80.0
 41
0.0
 71
     5
 72
     1
  1
\A1;835
  7
ROMANS
 73
     1
 44
1.0
1001
ACAD
1000
MTEXTBEGIN
1070
    73
1070
     1
1070
    44
1040
1.0
1070
    74
1070
     0
1000
MTEXTEND
  0
POINT
  5
27CD
330
2767
100
AcDbEntity
  8
Defpoints
 62
     0
 48
4.0
100
AcDbPoint
 10
63295.14165650921
 20
-3362.77402063155
 30
0.0
  0
POINT
  5
27CE
330
2767
100
AcDbEntity
  8
Defpoints
 62
     0
 48
4.0
100
AcDbPoint
 10
62460.14165650921
 20
-3028.77402063155
 30
0.0
  0
POINT
  5
27CF
330
2767
100
AcDbEntity
  8
Defpoints
 62
     0
 48
4.0
100
AcDbPoint
 10
62460.14165650921
 20
-2822.77402063155
 30
0.0
  0
ENDBLK
  5
2769
330
2767
100
AcDbEntity
  8
0
 62
    54
 48
4.0
100
AcDbBlockEnd
  0
BLOCK
  5
2772
330
2771
100
AcDbEntity
  8
0
 62
    54
 48
4.0
100
AcDbBlockBegin
  2
*D65
 70
     1
 10
0.0
 20
0.0
 30
0.0
  3
*D65
  1

  0
LINE
  5
27D0
330
2771
100
AcDbEntity
  8
0Wymiary-PL
 62
     1
 48
4.0
370
    -2
100
AcDbLine
 10
63420.14165650921
 20
-2622.774020631549
 30
0.0
 11
62470.14165650921
 21
-2622.774020631549
 31
0.0
  0
INSERT
  5
27D1
330
2771
100
AcDbEntity
  8
0Wymiary-PL
 62
     1
 48
4.0
370
    -2
100
AcDbBlockReference
  2
B-DIM
 10
63450.14165650921
 20
-2622.774020631549
 30
0.0
 41
30.0
 42
30.0
 43
30.0
  0
INSERT
  5
27D2
330
2771
100
AcDbEntity
  8
0Wymiary-PL
 62
     1
 48
4.0
370
    -2
100
AcDbBlockReference
  2
B-DIM
 10
62440.14165650921
 20
-2622.774020631549
 30
0.0
 41
30.0
 42
30.0
 43
30.0
 50
180.0
  0
MTEXT
  5
27D3
330
2771
100
AcDbEntity
  8
0Wymiary-PL
 62
   140
 48
4.0
100
AcDbMText
 10
62945.1416565092
 20
-2542.774020631549
 30
0.0
 40
80.0
 41
0.0
 71
     5
 72
     1
  1
\A1;1010
  7
ROMANS
 73
     1
 44
1.0
1001
ACAD
1000
MTEXTBEGIN
1070
    73
1070
     1
1070
    44
1040
1.0
1070
    74
1070
     0
1000
MTEXTEND
  0
POINT
  5
27D4
330
2771
100
AcDbEntity
  8
Defpoints
 62
     0
 48
4.0
100
AcDbPoint
 10
63450.14165650921
 20
-3773.77402063155
 30
0.0
  0
POINT
  5
27D5
330
2771
100
AcDbEntity
  8
Defpoints
 62
     0
 48
4.0
100
AcDbPoint
 10
62440.14165650921
 20
-3709.76635870499
 30
0.0
  0
POINT
  5
27D6
330
2771
100
AcDbEntity
  8
Defpoints
 62
     0
 48
4.0
100
AcDbPoint
 10
62440.14165650921
 20
-2622.774020631549
 30
0.0
  0
ENDBLK
  5
2773
330
2771
100
AcDbEntity
  8
0
 62
    54
 48
4.0
100
AcDbBlockEnd
  0
BLOCK
  5
277C
330
277B
100
AcDbEntity
  8
0
 62
    54
 48
4.0
100
AcDbBlockBegin
  2
*D66
 70
     1
 10
0.0
 20
0.0
 30
0.0
  3
*D66
  1

  0
LINE
  5
27D7
330
277B
100
AcDbEntity
  8
0Wymiary-PL
 62
     1
 48
4.0
370
    -2
100
AcDbLine
 10
62490.1416565092
 20
-2822.774020631549
 30
0.0
 11
62520.1416565092
 21
-2822.774020631549
 31
0.0
  0
LINE
  5
27D8
330
277B
100
AcDbEntity
  8
0Wymiary-PL
 62
     1
 48
4.0
370
    -2
100
AcDbLine
 10
62410.14165650921
 20
-2822.774020631549
 30
0.0
 11
62380.14165650921
 21
-2822.774020631549
 31
0.0
  0
LINE
  5
27D9
330
277B
100
AcDbEntity
  8
0Wymiary-PL
 62
     1
 48
4.0
370
    -2
100
AcDbLine
 10
62460.1416565092
 20
-2822.774020631549
 30
0.0
 11
62440.14165650921
 21
-2822.774020631549
 31
0.0
  0
INSERT
  5
27DA
330
277B
100
AcDbEntity
  8
0Wymiary-PL
 62
     1
 48
4.0
370
    -2
100
AcDbBlockReference
  2
B-DIM
 10
62460.1416565092
 20
-2822.774020631549
 30
0.0
 41
30.0
 42
30.0
 43
30.0
 50
180.0
  0
INSERT
  5
27DB
330
277B
100
AcDbEntity
  8
0Wymiary-PL
 62
     1
 48
4.0
370
    -2
100
AcDbBlockReference
  2
B-DIM
 10
62440.14165650921
 20
-2822.774020631549
 30
0.0
 41
30.0
 42
30.0
 43
30.0
  0
MTEXT
  5
27DC
330
277B
100
AcDbEntity
  8
0Wymiary-PL
 62
   140
 48
4.0
100
AcDbMText
 10
62450.1416565092
 20
-2742.774020631549
 30
0.0
 40
80.0
 41
0.0
 71
     5
 72
     1
  1
\A1;20
  7
ROMANS
 73
     1
 44
1.0
1001
ACAD
1000
MTEXTBEGIN
1070
    73
1070
     1
1070
    44
1040
1.0
1070
    74
1070
     0
1000
MTEXTEND
  0
POINT
  5
27DD
330
277B
100
AcDbEntity
  8
Defpoints
 62
     0
 48
4.0
100
AcDbPoint
 10
62460.1416565092
 20
-3362.77402063155
 30
0.0
  0
POINT
  5
27DE
330
277B
100
AcDbEntity
  8
Defpoints
 62
     0
 48
4.0
100
AcDbPoint
 10
62440.14165650921
 20
-3362.77402063155
 30
0.0
  0
POINT
  5
27DF
330
277B
100
AcDbEntity
  8
Defpoints
 62
     0
 48
4.0
100
AcDbPoint
 10
62440.14165650921
 20
-2822.774020631549
 30
0.0
  0
ENDBLK
  5
277D
330
277B
100
AcDbEntity
  8
0
 62
    54
 48
4.0
100
AcDbBlockEnd
  0
BLOCK
  5
2788
330
2787
100
AcDbEntity
  8
0
 62
    54
 48
4.0
100
AcDbBlockBegin
  2
*D67
 70
     1
 10
0.0
 20
0.0
 30
0.0
  3
*D67
  1

  0
LINE
  5
27E0
330
2787
100
AcDbEntity
  8
0Wymiary-PL
 62
     1
 48
4.0
370
    -2
100
AcDbLine
 10
63910.1416565092
 20
-3058.77402063155
 30
0.0
 11
63910.1416565092
 21
-3332.77402063155
 31
0.0
  0
INSERT
  5
27E1
330
2787
100
AcDbEntity
  8
0Wymiary-PL
 62
     1
 48
4.0
370
    -2
100
AcDbBlockReference
  2
B-DIM
 10
63910.1416565092
 20
-3028.77402063155
 30
0.0
 41
30.0
 42
30.0
 43
30.0
 50
90.0
  0
INSERT
  5
27E2
330
2787
100
AcDbEntity
  8
0Wymiary-PL
 62
     1
 48
4.0
370
    -2
100
AcDbBlockReference
  2
B-DIM
 10
63910.1416565092
 20
-3362.77402063155
 30
0.0
 41
30.0
 42
30.0
 43
30.0
 50
270.0
  0
MTEXT
  5
27E3
330
2787
100
AcDbEntity
  8
0Wymiary-PL
 62
   140
 48
4.0
100
AcDbMText
 10
63830.1416565092
 20
-3195.774020631541
 30
0.0
 40
80.0
 41
0.0
 71
     5
 72
     1
  1
\A1;334
  7
ROMANS
 11
0.0000000000000001
 21
1.0
 31
0.0
 73
     1
 44
1.0
1001
ACAD
1000
MTEXTBEGIN
1070
    73
1070
     1
1070
    44
1040
1.0
1070
    74
1070
     0
1000
MTEXTEND
  0
POINT
  5
27E4
330
2787
100
AcDbEntity
  8
Defpoints
 62
     0
 48
4.0
100
AcDbPoint
 10
63295.14165650921
 20
-3028.77402063155
 30
0.0
  0
POINT
  5
27E5
330
2787
100
AcDbEntity
  8
Defpoints
 62
     0
 48
4.0
100
AcDbPoint
 10
63295.14165650921
 20
-3362.77402063155
 30
0.0
  0
POINT
  5
27E6
330
2787
100
AcDbEntity
  8
Defpoints
 62
     0
 48
4.0
100
AcDbPoint
 10
63910.1416565092
 20
-3362.77402063155
 30
0.0
  0
ENDBLK
  5
2789
330
2787
100
AcDbEntity
  8
0
 62
    54
 48
4.0
100
AcDbBlockEnd
  0
BLOCK
  5
2792
330
2791
100
AcDbEntity
  8
0
 62
    54
 48
4.0
100
AcDbBlockBegin
  2
*D68
 70
     1
 10
0.0
 20
0.0
 30
0.0
  3
*D68
  1

  0
LINE
  5
27E7
330
2791
100
AcDbEntity
  8
0Wymiary-PL
 62
     1
 48
4.0
370
    -2
100
AcDbLine
 10
63910.1416565092
 20
-3392.774020631551
 30
0.0
 11
63910.1416565092
 21
-3743.77402063155
 31
0.0
  0
INSERT
  5
27E8
330
2791
100
AcDbEntity
  8
0Wymiary-PL
 62
     1
 48
4.0
370
    -2
100
AcDbBlockReference
  2
B-DIM
 10
63910.1416565092
 20
-3362.77402063155
 30
0.0
 41
30.0
 42
30.0
 43
30.0
 50
90.0
  0
INSERT
  5
27E9
330
2791
100
AcDbEntity
  8
0Wymiary-PL
 62
     1
 48
4.0
370
    -2
100
AcDbBlockReference
  2
B-DIM
 10
63910.1416565092
 20
-3773.77402063155
 30
0.0
 41
30.0
 42
30.0
 43
30.0
 50
270.0
  0
MTEXT
  5
27EA
330
2791
100
AcDbEntity
  8
0Wymiary-PL
 62
   140
 48
4.0
100
AcDbMText
 10
63830.1416565092
 20
-3568.27402063154
 30
0.0
 40
80.0
 41
0.0
 71
     5
 72
     1
  1
\A1;411
  7
ROMANS
 11
0.0000000000000001
 21
1.0
 31
0.0
 73
     1
 44
1.0
1001
ACAD
1000
MTEXTBEGIN
1070
    73
1070
     1
1070
    44
1040
1.0
1070
    74
1070
     0
1000
MTEXTEND
  0
POINT
  5
27EB
330
2791
100
AcDbEntity
  8
Defpoints
 62
     0
 48
4.0
100
AcDbPoint
 10
63295.14165650921
 20
-3362.77402063155
 30
0.0
  0
POINT
  5
27EC
330
2791
100
AcDbEntity
  8
Defpoints
 62
     0
 48
4.0
100
AcDbPoint
 10
63355.14165650921
 20
-3773.77402063155
 30
0.0
  0
POINT
  5
27ED
330
2791
100
AcDbEntity
  8
Defpoints
 62
     0
 48
4.0
100
AcDbPoint
 10
63910.1416565092
 20
-3773.77402063155
 30
0.0
  0
ENDBLK
  5
2793
330
2791
100
AcDbEntity
  8
0
 62
    54
 48
4.0
100
AcDbBlockEnd
  0
BLOCK
  5
279C
330
279B
100
AcDbEntity
  8
0
 62
    54
 48
4.0
100
AcDbBlockBegin
  2
*D69
 70
     1
 10
0.0
 20
0.0
 30
0.0
  3
*D69
  1

  0
LINE
  5
27EE
330
279B
100
AcDbEntity
  8
0Wymiary-PL
 62
     1
 48
4.0
370
    -2
100
AcDbLine
 10
63910.1416565092
 20
-3803.77402063155
 30
0.0
 11
63910.1416565092
 21
-4121.77402063155
 31
0.0
  0
INSERT
  5
27EF
330
279B
100
AcDbEntity
  8
0Wymiary-PL
 62
     1
 48
4.0
370
    -2
100
AcDbBlockReference
  2
B-DIM
 10
63910.1416565092
 20
-3773.77402063155
 30
0.0
 41
30.0
 42
30.0
 43
30.0
 50
90.0
  0
INSERT
  5
27F0
330
279B
100
AcDbEntity
  8
0Wymiary-PL
 62
     1
 48
4.0
370
    -2
100
AcDbBlockReference
  2
B-DIM
 10
63910.1416565092
 20
-4151.774020631552
 30
0.0
 41
30.0
 42
30.0
 43
30.0
 50
270.0
  0
MTEXT
  5
27F1
330
279B
100
AcDbEntity
  8
0Wymiary-PL
 62
   140
 48
4.0
100
AcDbMText
 10
63830.1416565092
 20
-3962.774020631541
 30
0.0
 40
80.0
 41
0.0
 71
     5
 72
     1
  1
\A1;378
  7
ROMANS
 11
0.0000000000000001
 21
1.0
 31
0.0
 73
     1
 44
1.0
1001
ACAD
1000
MTEXTBEGIN
1070
    73
1070
     1
1070
    44
1040
1.0
1070
    74
1070
     0
1000
MTEXTEND
  0
POINT
  5
27F2
330
279B
100
AcDbEntity
  8
Defpoints
 62
     0
 48
4.0
100
AcDbPoint
 10
63355.14165650921
 20
-3773.77402063155
 30
0.0
  0
POINT
  5
27F3
330
279B
100
AcDbEntity
  8
Defpoints
 62
     0
 48
4.0
100
AcDbPoint
 10
63450.14165650921
 20
-4151.77402063155
 30
0.0
  0
POINT
  5
27F4
330
279B
100
AcDbEntity
  8
Defpoints
 62
     0
 48
4.0
100
AcDbPoint
 10
63910.1416565092
 20
-4151.774020631552
 30
0.0
  0
ENDBLK
  5
279D
330
279B
100
AcDbEntity
  8
0
 62
    54
 48
4.0
100
AcDbBlockEnd
  0
BLOCK
  5
27A6
330
27A5
100
AcDbEntity
  8
0
 62
    54
 48
4.0
100
AcDbBlockBegin
  2
*D70
 70
     1
 10
0.0
 20
0.0
 30
0.0
  3
*D70
  1

  0
LINE
  5
27F5
330
27A5
100
AcDbEntity
  8
0Wymiary-PL
 62
     1
 48
4.0
370
    -2
100
AcDbLine
 10
63910.1416565092
 20
-4181.774020631551
 30
0.0
 11
63910.1416565092
 21
-4532.774020631551
 31
0.0
  0
INSERT
  5
27F6
330
27A5
100
AcDbEntity
  8
0Wymiary-PL
 62
     1
 48
4.0
370
    -2
100
AcDbBlockReference
  2
B-DIM
 10
63910.1416565092
 20
-4151.774020631552
 30
0.0
 41
30.0
 42
30.0
 43
30.0
 50
90.0
  0
INSERT
  5
27F7
330
27A5
100
AcDbEntity
  8
0Wymiary-PL
 62
     1
 48
4.0
370
    -2
100
AcDbBlockReference
  2
B-DIM
 10
63910.1416565092
 20
-4562.774020631551
 30
0.0
 41
30.0
 42
30.0
 43
30.0
 50
270.0
  0
MTEXT
  5
27F8
330
27A5
100
AcDbEntity
  8
0Wymiary-PL
 62
   140
 48
4.0
100
AcDbMText
 10
63830.1416565092
 20
-4357.27402063154
 30
0.0
 40
80.0
 41
0.0
 71
     5
 72
     1
  1
\A1;411
  7
ROMANS
 11
0.0000000000000001
 21
1.0
 31
0.0
 73
     1
 44
1.0
1001
ACAD
1000
MTEXTBEGIN
1070
    73
1070
     1
1070
    44
1040
1.0
1070
    74
1070
     0
1000
MTEXTEND
  0
POINT
  5
27F9
330
27A5
100
AcDbEntity
  8
Defpoints
 62
     0
 48
4.0
100
AcDbPoint
 10
63450.14165650921
 20
-4151.77402063155
 30
0.0
  0
POINT
  5
27FA
330
27A5
100
AcDbEntity
  8
Defpoints
 62
     0
 48
4.0
100
AcDbPoint
 10
63230.6416565092
 20
-4562.774020631549
 30
0.0
  0
POINT
  5
27FB
330
27A5
100
AcDbEntity
  8
Defpoints
 62
     0
 48
4.0
100
AcDbPoint
 10
63910.1416565092
 20
-4562.774020631551
 30
0.0
  0
ENDBLK
  5
27A7
330
27A5
100
AcDbEntity
  8
0
 62
    54
 48
4.0
100
AcDbBlockEnd
  0
BLOCK
  5
27B0
330
27AF
100
AcDbEntity
  8
0
 62
    54
 48
4.0
100
AcDbBlockBegin
  2
*D71
 70
     1
 10
0.0
 20
0.0
 30
0.0
  3
*D71
  1

  0
LINE
  5
27FC
330
27AF
100
AcDbEntity
  8
0Wymiary-PL
 62
     1
 48
4.0
370
    -2
100
AcDbLine
 10
64110.14165650921
 20
-3058.77402063155
 30
0.0
 11
64110.14165650921
 21
-4532.774020631551
 31
0.0
  0
INSERT
  5
27FD
330
27AF
100
AcDbEntity
  8
0Wymiary-PL
 62
     1
 48
4.0
370
    -2
100
AcDbBlockReference
  2
B-DIM
 10
64110.14165650921
 20
-3028.77402063155
 30
0.0
 41
30.0
 42
30.0
 43
30.0
 50
90.0
  0
INSERT
  5
27FE
330
27AF
100
AcDbEntity
  8
0Wymiary-PL
 62
     1
 48
4.0
370
    -2
100
AcDbBlockReference
  2
B-DIM
 10
64110.14165650921
 20
-4562.774020631551
 30
0.0
 41
30.0
 42
30.0
 43
30.0
 50
270.0
  0
MTEXT
  5
27FF
330
27AF
100
AcDbEntity
  8
0Wymiary-PL
 62
   140
 48
4.0
100
AcDbMText
 10
64030.14165650921
 20
-3795.774020631541
 30
0.0
 40
80.0
 41
0.0
 71
     5
 72
     1
  1
\A1;1534
  7
ROMANS
 11
0.0000000000000001
 21
1.0
 31
0.0
 73
     1
 44
1.0
1001
ACAD
1000
MTEXTBEGIN
1070
    73
1070
     1
1070
    44
1040
1.0
1070
    74
1070
     0
1000
MTEXTEND
  0
POINT
  5
2800
330
27AF
100
AcDbEntity
  8
Defpoints
 62
     0
 48
4.0
100
AcDbPoint
 10
63034.38561733998
 20
-3028.77402063155
 30
0.0
  0
POINT
  5
2801
330
27AF
100
AcDbEntity
  8
Defpoints
 62
     0
 48
4.0
100
AcDbPoint
 10
63034.38561733998
 20
-4562.774020631549
 30
0.0
  0
POINT
  5
2802
330
27AF
100
AcDbEntity
  8
Defpoints
 62
     0
 48
4.0
100
AcDbPoint
 10
64110.14165650921
 20
-4562.774020631551
 30
0.0
  0
ENDBLK
  5
27B1
330
27AF
100
AcDbEntity
  8
0
 62
    54
 48
4.0
100
AcDbBlockEnd
  0
ENDSEC
  0
SECTION
  2
ENTITIES
  0
LWPOLYLINE
  5
1A8A
330
2
100
AcDbEntity
  8
RAMKI-A4
100
AcDbPolyline
 90
        4
 70
     1
 43
0.0
 10
55955.29776981013
 20
-12830.40384687605
 10
55955.29776981013
 20
1189.596153123944
 10
66155.29776981015
 20
1189.596153123944
 10
66155.29776981015
 20
-12830.40384687605
  0
TEXT
  5
1A8B
330
2
100
AcDbEntity
  8
NAPISY
100
AcDbText
 10
57414.64971648511
 20
-12164.84776397352
 30
0.0
 40
100.0
  1
   O B R Y S   B U D Y N K U           S K A L A   1 : 5 0 0 
  7
AVA
100
AcDbText
  0
TEXT
  5
1A9E
330
2
100
AcDbEntity
  8
NAPISY
100
AcDbText
 10
57510.86276760301
 20
298.5174969083455
 30
0.0
 40
150.0
  1
MOŻNA WKLEIĆ DO PROJEKTU ZAGOSPODAROWANIA TERENU
  7
AVA
100
AcDbText
  0
TEXT
  5
1AA0
330
2
100
AcDbEntity
  8
NAPISY
100
AcDbText
 10
61108.46578309452
 20
-5735.609631506609
 30
0.0
 40
100.0
  1
OŚ ODBICIA LUSTRZANEGO
 50
90.0
  7
AVA
100
AcDbText
  0
LINE
  5
1AA1
330
2
100
AcDbEntity
  8
NAPISY
  6
DASHED
 62
     1
 48
25.0
370
     5
100
AcDbLine
 10
61167.98696008785
 20
-6817.256794327143
 30
0.0
 11
61167.98696008785
 21
-2014.79973684976
 31
0.0
  0
TEXT
  5
1AA2
330
2
100
AcDbEntity
  8
NAPISY
100
AcDbText
 10
57434.52749696787
 20
628.3859742711065
 30
0.0
 40
150.0
  1
"DOM W KRZEWUSZKA"
  7
AVA
100
AcDbText
  0
LINE
  5
2478
330
2
100
AcDbEntity
  8
A-MassElement-G
  6
Continuous
 62
   210
370
    -3
100
AcDbLine
 10
60030.83226366648
 20
-3362.77402063155
 30
0.0
 11
60030.83226366648
 21
-3028.77402063155
 31
0.0
  0
LINE
  5
2479
330
2
100
AcDbEntity
  8
A-MassElement-G
  6
Continuous
 62
   210
370
    -3
100
AcDbLine
 10
59895.83226366648
 20
-3412.77402063155
 30
0.0
 11
59895.83226366648
 21
-3028.77402063155
 31
0.0
  0
LINE
  5
247A
330
2
100
AcDbEntity
  8
A-MassElement-G
  6
Continuous
 62
   210
370
    -3
100
AcDbLine
 10
60005.83226366648
 20
-3797.774020631547
 30
0.0
 11
59895.83226366648
 21
-3797.774020631547
 31
0.0
  0
LINE
  5
247B
330
2
100
AcDbEntity
  8
A-MassElement-G
  6
Continuous
 62
   210
370
    -3
100
AcDbLine
 10
60035.83226366648
 20
-3767.774020631547
 30
0.0
 11
59895.83226366648
 21
-3767.774020631547
 31
0.0
  0
LINE
  5
247C
330
2
100
AcDbEntity
  8
A-MassElement-G
  6
Continuous
 62
   210
370
    -3
100
AcDbLine
 10
59975.83226366648
 20
-3827.774020631546
 30
0.0
 11
59852.83226366648
 21
-3827.774020631546
 31
0.0
  0
LINE
  5
247D
330
2
100
AcDbEntity
  8
A-MassElement-G
  6
Continuous
 62
   210
370
    -3
100
AcDbLine
 10
59895.83226366648
 20
-4127.774020631551
 30
0.0
 11
60005.83226366648
 21
-4127.774020631551
 31
0.0
  0
LINE
  5
247E
330
2
100
AcDbEntity
  8
A-MassElement-G
  6
Continuous
 62
   210
370
    -3
100
AcDbLine
 10
59895.83226366648
 20
-4157.77402063155
 30
0.0
 11
60035.83226366648
 21
-4157.77402063155
 31
0.0
  0
LINE
  5
247F
102
{ACAD_REACTORS
330
25E1
102
}
330
2
100
AcDbEntity
  8
0Hatch
100
AcDbLine
 10
59855.83226366648
 20
-4042.77402063155
 30
0.0
 11
59795.83226366648
 21
-4042.77402063155
 31
0.0
  0
LINE
  5
2480
102
{ACAD_REACTORS
330
25E1
102
}
330
2
100
AcDbEntity
  8
0Hatch
100
AcDbLine
 10
59795.83226366648
 20
-3882.774020631551
 30
0.0
 11
59855.83226366648
 21
-3882.774020631551
 31
0.0
  0
LINE
  5
2481
330
2
100
AcDbEntity
  8
A-MassElement-G
  6
Continuous
 62
   210
370
    -3
100
AcDbLine
 10
59975.83226366648
 20
-4097.77402063155
 30
0.0
 11
59852.83226366648
 21
-4097.77402063155
 31
0.0
  0
LINE
  5
2482
330
2
100
AcDbEntity
  8
A-MassElement-G
  6
Continuous
 62
   210
370
    -3
100
AcDbLine
 10
59975.83226366648
 20
-4097.77402063155
 30
0.0
 11
59975.83226366648
 21
-3827.774020631546
 31
0.0
  0
LINE
  5
2483
330
2
100
AcDbEntity
  8
A-MassElement-G
  6
Continuous
 62
   210
370
    -3
100
AcDbLine
 10
60005.83226366648
 20
-4127.774020631551
 30
0.0
 11
60005.83226366648
 21
-3797.774020631547
 31
0.0
  0
LINE
  5
2484
330
2
100
AcDbEntity
  8
A-MassElement-G
  6
Continuous
 62
   210
370
    -3
100
AcDbLine
 10
60035.83226366648
 20
-4157.77402063155
 30
0.0
 11
60035.83226366648
 21
-3767.774020631547
 31
0.0
  0
LINE
  5
2485
330
2
100
AcDbEntity
  8
A-MassElement-G
  6
Continuous
 62
   210
370
    -3
100
AcDbLine
 10
59901.83226366648
 20
-3356.774020631551
 30
0.0
 11
59875.83226366648
 21
-3356.774020631551
 31
0.0
  0
LINE
  5
2486
330
2
100
AcDbEntity
  8
A-MassElement-G
  6
Continuous
 62
   210
370
    -3
100
AcDbLine
 10
59895.83226366648
 20
-3412.77402063155
 30
0.0
 11
59901.83226366648
 21
-3412.77402063155
 31
0.0
  0
LINE
  5
2487
330
2
100
AcDbEntity
  8
A-MassElement-G
  6
Continuous
 62
   210
370
    -3
100
AcDbLine
 10
59901.83226366648
 20
-3412.77402063155
 30
0.0
 11
59901.83226366648
 21
-3356.774020631551
 31
0.0
  0
LINE
  5
2488
330
2
100
AcDbEntity
  8
A-MassElement-G
  6
Continuous
 62
   210
370
    -3
390
235E
100
AcDbLine
 10
59901.83226366648
 20
-3412.77402063155
 30
0.0
 11
59895.83226366648
 21
-3412.77402063155
 31
0.0
  0
LINE
  5
2489
102
{ACAD_REACTORS
330
25E1
102
}
330
2
100
AcDbEntity
  8
0Hatch
100
AcDbLine
 10
59875.83226366648
 20
-3337.77402063155
 30
0.0
 11
59815.83226366649
 21
-3337.77402063155
 31
0.0
  0
LINE
  5
248A
330
2
100
AcDbEntity
  8
A-MassElement-G
  6
Continuous
 62
   210
370
    -3
100
AcDbLine
 10
60030.83226366648
 20
-3362.77402063155
 30
0.0
 11
59875.83226366648
 21
-3362.77402063155
 31
0.0
  0
LINE
  5
248B
330
2
100
AcDbEntity
  8
A-MassElement-G
  6
Continuous
 62
   210
370
    -3
390
235E
100
AcDbLine
 10
59881.83226366648
 20
-3078.774020631551
 30
0.0
 11
59875.83226366648
 21
-3078.774020631551
 31
0.0
  0
LINE
  5
248C
330
2
100
AcDbEntity
  8
A-MassElement-G
  6
Continuous
 62
   210
370
    -3
390
235E
100
AcDbLine
 10
59825.83226366648
 20
-3028.77402063155
 30
0.0
 11
59825.83226366648
 21
-3022.77402063155
 31
0.0
  0
LINE
  5
248D
330
2
100
AcDbEntity
  8
A-MassElement-G
  6
Continuous
 62
   210
370
    -3
390
235E
100
AcDbLine
 10
59825.83226366648
 20
-3022.77402063155
 30
0.0
 11
59881.83226366648
 21
-3022.77402063155
 31
0.0
  0
LINE
  5
248E
330
2
100
AcDbEntity
  8
A-MassElement-G
  6
Continuous
 62
   210
370
    -3
390
235E
100
AcDbLine
 10
59881.83226366648
 20
-3022.77402063155
 30
0.0
 11
59881.83226366648
 21
-3078.774020631551
 31
0.0
  0
LINE
  5
248F
330
2
100
AcDbEntity
  8
A-MassElement-G
  6
Continuous
 62
   210
370
    -3
100
AcDbLine
 10
59825.83226366648
 20
-3022.77402063155
 30
0.0
 11
59825.83226366648
 21
-3028.77402063155
 31
0.0
  0
LINE
  5
2490
330
2
100
AcDbEntity
  8
A-MassElement-G
  6
Continuous
 62
   210
370
    -3
100
AcDbLine
 10
59875.83226366648
 20
-3078.774020631551
 30
0.0
 11
59881.83226366648
 21
-3078.774020631551
 31
0.0
  0
LINE
  5
2491
102
{ACAD_REACTORS
330
25E1
102
}
330
2
100
AcDbEntity
  8
0Hatch
100
AcDbLine
 10
59815.83226366648
 20
-3097.77402063155
 30
0.0
 11
59875.83226366648
 21
-3097.77402063155
 31
0.0
  0
LINE
  5
2492
330
2
100
AcDbEntity
  8
A-MassElement-G
  6
Continuous
 62
   210
370
    -3
100
AcDbLine
 10
60030.83226366648
 20
-3028.77402063155
 30
0.0
 11
59825.83226366648
 21
-3028.77402063155
 31
0.0
  0
LINE
  5
2493
330
2
100
AcDbEntity
  8
A-MassElement-G
  6
Continuous
 62
   210
370
    -3
100
AcDbLine
 10
58655.83226366648
 20
-4259.813989060098
 30
0.0
 11
58655.83226366648
 21
-4051.774020631547
 31
0.0
  0
LINE
  5
2494
330
2
100
AcDbEntity
  8
A-MassElement-G
  6
Continuous
 62
   210
370
    -3
100
AcDbLine
 10
58625.83226366648
 20
-4051.77402063155
 30
0.0
 11
58625.83226366648
 21
-4289.813989060098
 31
0.0
  0
LINE
  5
2495
330
2
100
AcDbEntity
  8
A-MassElement-G
  6
Continuous
 62
   210
370
    -3
100
AcDbLine
 10
58685.83226366648
 20
-3472.77402063155
 30
0.0
 11
58685.83226366648
 21
-4454.813989060105
 31
0.0
  0
LINE
  5
2496
330
2
100
AcDbEntity
  8
A-MassElement-G
  6
Continuous
 62
   210
370
    -3
390
1D00
100
AcDbLine
 10
58980.83226366648
 20
-4151.77402063155
 30
0.0
 11
58980.83226366648
 21
-4562.774020631549
 31
0.0
  0
LINE
  5
2497
330
2
100
AcDbEntity
  8
A-MassElement-G
  6
Continuous
 62
   210
370
    -3
100
AcDbLine
 10
58655.83226366648
 20
-4265.813989060098
 30
0.0
 11
58685.83226366648
 21
-4265.813989060098
 31
0.0
  0
LINE
  5
2498
330
2
100
AcDbEntity
  8
A-MassElement-G
  6
Continuous
 62
   210
370
    -3
100
AcDbLine
 10
58655.83226366648
 20
-4265.813989060098
 30
0.0
 11
58655.83226366648
 21
-4467.240395931294
 31
0.0
  0
LINE
  5
2499
330
2
100
AcDbEntity
  8
A-MassElement-G
  6
Continuous
 62
   210
370
    -3
100
AcDbLine
 10
58655.83226366648
 20
-4467.240395931294
 30
0.0
 11
58903.40585679529
 21
-4714.813989060101
 31
0.0
  0
LINE
  5
249A
330
2
100
AcDbEntity
  8
A-MassElement-G
  6
Continuous
 62
   210
370
    -3
100
AcDbLine
 10
59098.83226366648
 20
-4714.813989060101
 30
0.0
 11
58903.40585679529
 21
-4714.813989060101
 31
0.0
  0
LINE
  5
249B
330
2
100
AcDbEntity
  8
A-MassElement-G
  6
Continuous
 62
   210
370
    -3
100
AcDbLine
 10
59098.83226366648
 20
-4714.813989060105
 30
0.0
 11
59098.83226366648
 21
-4684.813989060105
 31
0.0
  0
LINE
  5
249C
330
2
100
AcDbEntity
  8
A-MassElement-G
  6
Continuous
 62
   210
370
    -3
100
AcDbLine
 10
59104.83226366648
 20
-4720.813989060105
 30
0.0
 11
59104.83226366648
 21
-4684.813989060105
 31
0.0
  0
LINE
  5
249D
330
2
100
AcDbEntity
  8
A-MassElement-G
  6
Continuous
 62
   210
370
    -3
100
AcDbLine
 10
58625.83226366648
 20
-4289.813989060098
 30
0.0
 11
58649.83226366647
 21
-4289.813989060098
 31
0.0
  0
LINE
  5
24AA
330
2
100
AcDbEntity
  8
A-MassElement-G
  6
Continuous
 62
   210
370
    -3
100
AcDbLine
 10
58685.83226366648
 20
-4259.813989060098
 30
0.0
 11
58649.83226366647
 21
-4259.813989060098
 31
0.0
  0
LINE
  5
24AB
330
2
100
AcDbEntity
  8
A-MassElement-G
  6
Continuous
 62
   210
370
    -3
100
AcDbLine
 10
59104.83226366648
 20
-4512.77402063155
 30
0.0
 11
59098.83226366648
 21
-4512.77402063155
 31
0.0
  0
LINE
  5
24AC
330
2
100
AcDbEntity
  8
A-MassElement-G
  6
Continuous
 62
   210
370
    -3
100
AcDbLine
 10
59098.83226366648
 20
-4512.77402063155
 30
0.0
 11
59098.83226366648
 21
-4568.77402063155
 31
0.0
  0
LINE
  5
24AD
330
2
100
AcDbEntity
  8
A-MassElement-G
  6
Continuous
 62
   210
370
    -3
100
AcDbLine
 10
59098.83226366648
 20
-4568.77402063155
 30
0.0
 11
59154.83226366648
 21
-4568.77402063155
 31
0.0
  0
LINE
  5
24AE
330
2
100
AcDbEntity
  8
A-MassElement-G
  6
Continuous
 62
   210
370
    -3
100
AcDbLine
 10
59154.83226366648
 20
-4568.77402063155
 30
0.0
 11
59154.83226366648
 21
-4562.774020631549
 31
0.0
  0
LINE
  5
24AF
330
2
100
AcDbEntity
  8
A-MassElement-G
  6
Continuous
 62
   210
370
    -3
390
235E
100
AcDbLine
 10
59154.83226366648
 20
-4562.774020631549
 30
0.0
 11
59154.83226366648
 21
-4568.77402063155
 31
0.0
  0
LINE
  5
24B0
330
2
100
AcDbEntity
  8
A-MassElement-G
  6
Continuous
 62
   210
370
    -3
390
235E
100
AcDbLine
 10
59098.83226366648
 20
-4512.77402063155
 30
0.0
 11
59104.83226366648
 21
-4512.77402063155
 31
0.0
  0
LINE
  5
24B1
330
2
100
AcDbEntity
  8
A-MassElement-G
  6
Continuous
 62
   210
370
    -3
100
AcDbLine
 10
59134.83226366648
 20
-4562.774020631549
 30
0.0
 11
59134.83226366648
 21
-4714.813989060105
 31
0.0
  0
LINE
  5
24B2
330
2
100
AcDbEntity
  8
A-MassElement-G
  6
Continuous
 62
   210
370
    -3
100
AcDbLine
 10
59134.83226366648
 20
-4714.813989060105
 30
0.0
 11
59104.83226366648
 21
-4714.813989060094
 31
0.0
  0
LINE
  5
24B3
330
2
100
AcDbEntity
  8
A-MassElement-G
  6
Continuous
 62
   210
370
    -3
100
AcDbLine
 10
59164.83226366648
 20
-4744.813989060104
 30
0.0
 11
59164.83226366648
 21
-4562.774020631549
 31
0.0
  0
LINE
  5
24B4
330
2
100
AcDbEntity
  8
A-MassElement-G
  6
Continuous
 62
   210
370
    -3
100
AcDbLine
 10
59074.83226366648
 20
-4720.813989060101
 30
0.0
 11
59074.83226366648
 21
-4744.813989060104
 31
0.0
  0
LINE
  5
24B5
330
2
100
AcDbEntity
  8
A-MassElement-G
  6
Continuous
 62
   210
370
    -3
100
AcDbLine
 10
59074.83226366648
 20
-4744.813989060104
 30
0.0
 11
59164.83226366648
 21
-4744.813989060104
 31
0.0
  0
LINE
  5
24B6
330
2
100
AcDbEntity
  8
A-MassElement-G
  6
Continuous
 62
   210
370
    -3
100
AcDbLine
 10
59104.83226366648
 20
-4684.813989060105
 30
0.0
 11
58915.83226366648
 21
-4684.813989060105
 31
0.0
  0
LINE
  5
24B7
330
2
100
AcDbEntity
  8
A-MassElement-G
  6
Continuous
 62
   210
370
    -3
100
AcDbLine
 10
58915.83226366648
 20
-4684.813989060105
 30
0.0
 11
58685.83226366648
 21
-4454.813989060105
 31
0.0
  0
LINE
  5
24B8
330
2
100
AcDbEntity
  8
A-MassElement-G
  6
Continuous
 62
   210
370
    -3
100
AcDbLine
 10
58649.83226366648
 20
-4469.725677305534
 30
0.0
 11
58900.92057542105
 21
-4720.813989060105
 31
0.0
  0
LINE
  5
24B9
330
2
100
AcDbEntity
  8
A-MassElement-G
  6
Continuous
 62
   210
370
    -3
100
AcDbLine
 10
58900.92057542105
 20
-4720.813989060105
 30
0.0
 11
59104.83226366648
 21
-4720.813989060109
 31
0.0
  0
LINE
  5
2546
330
2
100
AcDbEntity
  8
A-MassElement-G
  6
Continuous
 62
   210
370
    -3
100
AcDbLine
 10
59074.83226366648
 20
-4720.813989060105
 30
0.0
 11
59074.83226366648
 21
-4744.813989060104
 31
0.0
  0
LINE
  5
2547
330
2
100
AcDbEntity
  8
A-MassElement-G
  6
Continuous
 62
   210
370
    -3
100
AcDbLine
 10
59104.83226366648
 20
-4714.813989060105
 30
0.0
 11
59134.83226366648
 21
-4714.813989060105
 31
0.0
  0
LINE
  5
2548
330
2
100
AcDbEntity
  8
A-MassElement-G
  6
Continuous
 62
   210
370
    -3
100
AcDbLine
 10
59074.83226366648
 20
-4744.813989060104
 30
0.0
 11
59164.83226366648
 21
-4744.813989060104
 31
0.0
  0
LINE
  5
2549
330
2
100
AcDbEntity
  8
A-MassElement-G
  6
Continuous
 62
   210
370
    -3
100
AcDbLine
 10
58900.92057542105
 20
-4720.813989060101
 30
0.0
 11
59104.83226366648
 21
-4720.813989060105
 31
0.0
  0
LINE
  5
254A
330
2
100
AcDbEntity
  8
A-MassElement-G
  6
Continuous
 62
   210
370
    -3
100
AcDbLine
 10
58649.83226366648
 20
-4469.725677305534
 30
0.0
 11
58900.92057542105
 21
-4720.813989060101
 31
0.0
  0
LINE
  5
254B
330
2
100
AcDbEntity
  8
A-MassElement-G
  6
Continuous
 62
   210
370
    -3
100
AcDbLine
 10
58915.83226366648
 20
-4684.813989060102
 30
0.0
 11
59104.83226366648
 21
-4684.813989060105
 31
0.0
  0
LINE
  5
254C
330
2
100
AcDbEntity
  8
A-MassElement-G
  6
Continuous
 62
   210
370
    -3
100
AcDbLine
 10
58685.83226366648
 20
-4454.813989060101
 30
0.0
 11
58915.83226366648
 21
-4684.813989060102
 31
0.0
  0
LINE
  5
254D
330
2
100
AcDbEntity
  8
A-MassElement-G
  6
Continuous
 62
   210
370
    -3
390
1D00
100
AcDbLine
 10
58980.83226366648
 20
-4562.774020631549
 30
0.0
 11
59105.33226366648
 21
-4562.774020631549
 31
0.0
  0
CIRCLE
  5
254E
102
{ACAD_REACTORS
330
2691
102
}
330
2
100
AcDbEntity
  8
0Hatch
390
1D00
100
AcDbCircle
 10
59007.33226366648
 20
-4536.274020631549
 30
0.0
 40
17.5
  0
LINE
  5
254F
330
2
100
AcDbEntity
  8
A-MassElement-G
  6
Continuous
 62
   210
370
    -3
100
AcDbLine
 10
58649.83226366648
 20
-4259.813989060098
 30
0.0
 11
58649.83226366648
 21
-4469.725677305534
 31
0.0
  0
LINE
  5
2550
330
2
100
AcDbEntity
  8
A-MassElement-G
  6
Continuous
 62
   210
370
    -3
100
AcDbLine
 10
58649.83226366647
 20
-4259.813989060094
 30
0.0
 11
58649.83226366648
 21
-4469.725677305534
 31
0.0
  0
LINE
  5
2551
330
2
100
AcDbEntity
  8
A-MassElement-G
  6
Continuous
 62
   210
370
    -3
100
AcDbLine
 10
58950.83226366648
 20
-3126.762350332996
 30
0.0
 11
58950.83226366648
 21
-3306.762350332996
 31
0.0
  0
LINE
  5
2552
330
2
100
AcDbEntity
  8
A-MassElement-G
  6
Continuous
 62
   210
370
    -3
100
AcDbLine
 10
58625.83226366648
 20
-3412.77402063155
 30
0.0
 11
58625.83226366648
 21
-3871.774020631543
 31
0.0
  0
LINE
  5
2553
330
2
100
AcDbEntity
  8
A-MassElement-G
  6
Continuous
 62
   210
370
    -3
100
AcDbLine
 10
58655.83226366648
 20
-3442.774020631551
 30
0.0
 11
58655.83226366648
 21
-3871.774020631547
 31
0.0
  0
LINE
  5
2554
330
2
100
AcDbEntity
  8
A-MassElement-G
  6
Continuous
 62
   210
370
    -3
100
AcDbLine
 10
58630.14659855227
 20
-4045.774020631546
 30
0.0
 11
58679.83226366648
 21
-4045.774020631546
 31
0.0
  0
LINE
  5
2555
330
2
100
AcDbEntity
  8
A-MassElement-G
  6
Continuous
 62
   210
370
    -3
100
AcDbLine
 10
58679.83226366648
 20
-3877.774020631547
 30
0.0
 11
58630.14659855227
 21
-3877.774020631547
 31
0.0
  0
LINE
  5
2556
330
2
100
AcDbEntity
  8
A-MassElement-G
  6
Continuous
 62
   210
370
    -3
100
AcDbLine
 10
58679.83226366648
 20
-4045.774020631546
 30
0.0
 11
58679.83226366648
 21
-3877.774020631547
 31
0.0
  0
ARC
  5
2557
330
2
100
AcDbEntity
  8
A-MassElement-G
  6
Continuous
 62
   210
370
    -3
100
AcDbCircle
 10
58887.01310609427
 20
-3961.774020631546
 30
0.0
 40
270.2524795387211
100
AcDbArc
 50
161.8913178339731
 51
198.1086821660269
  0
LINE
  5
2558
330
2
100
AcDbEntity
  8
A-MassElement-G
  6
Continuous
 62
   210
370
    -3
100
AcDbLine
 10
58685.83226366648
 20
-3871.774020631547
 30
0.0
 11
58625.83226366647
 21
-3871.774020631547
 31
0.0
  0
LINE
  5
2559
330
2
100
AcDbEntity
  8
A-MassElement-G
  6
Continuous
 62
   210
370
    -3
100
AcDbLine
 10
58625.83226366647
 20
-3871.774020631547
 30
0.0
 11
58614.95752245569
 21
-3913.803280983677
 31
0.0
  0
LINE
  5
255A
330
2
100
AcDbEntity
  8
A-MassElement-G
  6
Continuous
 62
   210
370
    -3
100
AcDbLine
 10
58614.95752245569
 20
-3913.803280983677
 30
0.0
 11
58610.76062655555
 21
-3961.774020631547
 31
0.0
  0
LINE
  5
255B
330
2
100
AcDbEntity
  8
A-MassElement-G
  6
Continuous
 62
   210
370
    -3
100
AcDbLine
 10
58610.76062655555
 20
-3961.774020631547
 30
0.0
 11
58614.95752245569
 21
-4009.744760279416
 31
0.0
  0
LINE
  5
255C
330
2
100
AcDbEntity
  8
A-MassElement-G
  6
Continuous
 62
   210
370
    -3
100
AcDbLine
 10
58614.95752245569
 20
-4009.744760279416
 30
0.0
 11
58625.83226366647
 21
-4051.774020631547
 31
0.0
  0
LINE
  5
255D
330
2
100
AcDbEntity
  8
A-MassElement-G
  6
Continuous
 62
   210
370
    -3
100
AcDbLine
 10
58625.83226366647
 20
-4051.774020631547
 30
0.0
 11
58685.83226366648
 21
-4051.774020631547
 31
0.0
  0
LINE
  5
255F
330
2
100
AcDbEntity
  8
A-MassElement-G
  6
Continuous
 62
   210
370
    -3
100
AcDbLine
 10
58980.83226366648
 20
-3412.77402063155
 30
0.0
 11
58625.83226366648
 21
-3412.77402063155
 31
0.0
  0
LINE
  5
2560
330
2
100
AcDbEntity
  8
A-MassElement-G
  6
Continuous
 62
   210
370
    -3
390
235E
100
AcDbLine
 10
58974.83226366648
 20
-3412.77402063155
 30
0.0
 11
58974.83226366648
 21
-3356.774020631551
 31
0.0
  0
LINE
  5
2561
330
2
100
AcDbEntity
  8
A-MassElement-G
  6
Continuous
 62
   210
370
    -3
390
235E
100
AcDbLine
 10
58974.83226366648
 20
-3356.774020631551
 30
0.0
 11
59030.83226366648
 21
-3356.774020631551
 31
0.0
  0
LINE
  5
2562
330
2
100
AcDbEntity
  8
A-MassElement-G
  6
HIDDEN2
 62
    11
370
    25
390
235E
100
AcDbLine
 10
59030.83226366648
 20
-3356.774020631551
 30
0.0
 11
59030.83226366648
 21
-3362.77402063155
 31
0.0
  0
LINE
  5
2563
330
2
100
AcDbEntity
  8
A-MassElement-G
  6
Continuous
 62
   210
370
    -3
100
AcDbLine
 10
59030.83226366648
 20
-3362.77402063155
 30
0.0
 11
59030.83226366648
 21
-3356.774020631551
 31
0.0
  0
LINE
  5
2564
330
2
100
AcDbEntity
  8
A-MassElement-G
  6
Continuous
 62
   210
370
    -3
100
AcDbLine
 10
58980.83226366648
 20
-3442.774020631551
 30
0.0
 11
58655.83226366648
 21
-3442.774020631551
 31
0.0
  0
LINE
  5
2565
330
2
100
AcDbEntity
  8
A-MassElement-G
  6
Continuous
 62
   210
370
    -3
100
AcDbLine
 10
58685.83226366648
 20
-3472.77402063155
 30
0.0
 11
58980.83226366648
 21
-3472.77402063155
 31
0.0
  0
LINE
  5
2566
330
2
100
AcDbEntity
  8
A-MassElement-G
  6
Continuous
 62
   210
370
    -3
100
AcDbLine
 10
59090.83226366648
 20
-3022.77402063155
 30
0.0
 11
59034.83226366648
 21
-3022.77402063155
 31
0.0
  0
LINE
  5
2567
330
2
100
AcDbEntity
  8
A-MassElement-G
  6
Continuous
 62
   210
370
    -3
100
AcDbLine
 10
59090.83226366648
 20
-3028.77402063155
 30
0.0
 11
59090.83226366648
 21
-3022.77402063155
 31
0.0
  0
LINE
  5
2568
330
2
100
AcDbEntity
  8
A-MassElement-G
  6
Continuous
 62
   210
370
    -3
100
AcDbLine
 10
59034.83226366648
 20
-3022.77402063155
 30
0.0
 11
59034.83226366648
 21
-3078.774020631551
 31
0.0
  0
LINE
  5
2569
330
2
100
AcDbEntity
  8
A-MassElement-G
  6
Continuous
 62
   210
370
    -3
100
AcDbLine
 10
59034.83226366648
 20
-3078.774020631551
 30
0.0
 11
59040.83226366648
 21
-3078.774020631551
 31
0.0
  0
LINE
  5
256A
330
2
100
AcDbEntity
  8
A-MassElement-G
  6
Continuous
 62
   210
370
    -3
390
235E
100
AcDbLine
 10
59040.83226366648
 20
-3078.774020631551
 30
0.0
 11
59034.83226366648
 21
-3078.774020631551
 31
0.0
  0
LINE
  5
256B
330
2
100
AcDbEntity
  8
A-MassElement-G
  6
Continuous
 62
   210
370
    -3
390
235E
100
AcDbLine
 10
59090.83226366648
 20
-3022.77402063155
 30
0.0
 11
59090.83226366648
 21
-3028.77402063155
 31
0.0
  0
LINE
  5
2571
330
2
100
AcDbEntity
  8
A-MassElement-G
  6
Continuous
 62
   210
370
    -3
100
AcDbLine
 10
59104.83226366648
 20
-4562.774020631549
 30
0.0
 11
59104.83226366648
 21
-4714.813989060105
 31
0.0
  0
LINE
  5
2572
330
2
100
AcDbEntity
  8
A-MassElement-G
  6
Continuous
 62
   210
370
    -3
100
AcDbLine
 10
58980.83226366647
 20
-3156.762350332996
 30
0.0
 11
58980.83226366647
 21
-3276.762350332996
 31
0.0
  0
LINE
  5
2573
330
2
100
AcDbEntity
  8
A-MassElement-G
  6
Continuous
 62
   210
370
    -3
100
AcDbLine
 10
59040.83226366648
 20
-3156.762350332996
 30
0.0
 11
58980.83226366647
 21
-3156.762350332996
 31
0.0
  0
LINE
  5
2574
330
2
100
AcDbEntity
  8
A-MassElement-G
  6
Continuous
 62
   210
370
    -3
100
AcDbLine
 10
59040.83226366648
 20
-3276.762350332996
 30
0.0
 11
58980.83226366647
 21
-3276.762350332996
 31
0.0
  0
LINE
  5
2575
330
2
100
AcDbEntity
  8
A-MassElement-G
  6
Continuous
 62
   210
370
    -3
100
AcDbLine
 10
59040.83226366648
 20
-3126.762350332996
 30
0.0
 11
58950.83226366648
 21
-3126.762350332996
 31
0.0
  0
LINE
  5
2576
330
2
100
AcDbEntity
  8
A-MassElement-G
  6
Continuous
 62
   210
370
    -3
100
AcDbLine
 10
59040.83226366648
 20
-3306.762350332996
 30
0.0
 11
58950.83226366648
 21
-3306.762350332996
 31
0.0
  0
LWPOLYLINE
  5
2577
102
{ACAD_REACTORS
330
25E1
102
}
330
2
100
AcDbEntity
  8
0Hatch
100
AcDbPolyline
 90
       18
 70
     0
 43
0.0
 10
59040.83226366648
 20
-3028.77402063155
 10
59875.83226366648
 20
-3028.77402063155
 10
59875.83226366648
 20
-3362.77402063155
 10
59895.83226366648
 20
-3362.77402063155
 10
59895.83226366648
 20
-3827.774020631546
 10
59855.83226366648
 20
-3827.774020631546
 10
59855.83226366648
 20
-4097.77402063155
 10
59895.83226366648
 20
-4097.77402063155
 10
59895.83226366648
 20
-4562.774020631549
 10
59104.83226366648
 20
-4562.774020631549
 10
59104.83226366648
 20
-4235.957786815623
 10
59020.6484974824
 20
-4151.77402063155
 10
58885.83226366648
 20
-4151.77402063155
 10
58885.83226366648
 20
-3773.77402063155
 10
58980.83226366648
 20
-3773.77402063155
 10
58980.83226366648
 20
-3362.77402063155
 10
59040.83226366648
 20
-3362.77402063155
 10
59040.83226366648
 20
-3028.77402063155
  0
LWPOLYLINE
  5
2579
102
{ACAD_REACTORS
330
25E1
102
}
330
2
100
AcDbEntity
  8
0Hatch
100
AcDbPolyline
 90
       17
 70
     1
 43
0.0
 10
59100.83226366648
 20
-3088.774020631551
 10
59815.83226366648
 20
-3088.774020631551
 10
59815.83226366649
 20
-3422.77402063155
 10
59835.83226366648
 20
-3422.77402063155
 10
59835.83226366648
 20
-3767.774020631547
 10
59795.83226366648
 20
-3767.774020631547
 10
59795.83226366648
 20
-4157.77402063155
 10
59835.83226366648
 20
-4157.77402063155
 10
59835.83226366648
 20
-4502.774020631551
 10
59164.83226366648
 20
-4502.774020631551
 10
59164.83226366648
 20
-4211.104973073236
 10
59045.50131122479
 20
-4091.774020631549
 10
58945.83226366647
 20
-4091.774020631549
 10
58945.83226366647
 20
-3833.77402063155
 10
59040.83226366648
 20
-3833.77402063155
 10
59040.83226366648
 20
-3422.77402063155
 10
59100.83226366648
 20
-3422.77402063155
  0
LINE
  5
2586
330
2
100
AcDbEntity
  8
A-MassElement-G
  6
Continuous
 62
   210
370
    -3
390
235E
100
AcDbLine
 10
59901.83226366648
 20
-4568.77402063155
 30
0.0
 11
59845.83226366648
 21
-4568.77402063155
 31
0.0
  0
LINE
  5
2587
330
2
100
AcDbEntity
  8
A-MassElement-G
  6
HIDDEN2
 62
    11
370
    25
390
235E
100
AcDbLine
 10
59845.83226366648
 20
-4568.77402063155
 30
0.0
 11
59845.83226366648
 21
-4562.774020631549
 31
0.0
  0
LINE
  5
2588
330
2
100
AcDbEntity
  8
A-MassElement-G
  6
HIDDEN2
 62
    11
370
    25
390
235E
100
AcDbLine
 10
59895.83226366648
 20
-4512.77402063155
 30
0.0
 11
59901.83226366648
 21
-4512.77402063155
 31
0.0
  0
LINE
  5
2589
330
2
100
AcDbEntity
  8
A-MassElement-G
  6
Continuous
 62
   210
370
    -3
390
235E
100
AcDbLine
 10
59901.83226366648
 20
-4512.77402063155
 30
0.0
 11
59901.83226366648
 21
-4568.77402063155
 31
0.0
  0
LINE
  5
258A
330
2
100
AcDbEntity
  8
A-MassElement-G
  6
Continuous
 62
   210
370
    -3
100
AcDbLine
 10
59901.83226366648
 20
-4512.77402063155
 30
0.0
 11
59895.83226366648
 21
-4512.77402063155
 31
0.0
  0
LINE
  5
258B
330
2
100
AcDbEntity
  8
A-MassElement-G
  6
Continuous
 62
   210
370
    -3
100
AcDbLine
 10
59845.83226366648
 20
-4562.774020631549
 30
0.0
 11
59845.83226366648
 21
-4568.77402063155
 31
0.0
  0
HATCH
  5
25E1
330
2
100
AcDbEntity
  8
0Hatch
100
AcDbHatch
 10
0.0
 20
0.0
 30
0.0
210
0.0
220
0.0
230
1.0
  2
SOLID
 70
     1
 71
     1
 91
        2
 92
       23
 72
     0
 73
     1
 93
       12
 10
59895.83226366647
 20
-3362.77402063155
 10
59875.83226366648
 20
-3362.77402063155
 10
59875.83226366648
 20
-3337.774020631551
 10
59815.83226366648
 20
-3337.774020631549
 10
59815.83226366649
 20
-3422.774020631551
 10
59835.83226366649
 20
-3422.77402063155
 10
59835.8322636665
 20
-3767.774020631546
 10
59795.83226366648
 20
-3767.774020631547
 10
59795.83226366648
 20
-3882.774020631551
 10
59855.83226366648
 20
-3882.774020631551
 10
59855.83226366648
 20
-3827.774020631547
 10
59895.83226366649
 20
-3827.774020631546
 97
        4
330
2577
330
2489
330
2579
330
2480
 92
        7
 72
     0
 73
     1
 93
       30
 10
59040.83226366648
 20
-3028.77402063155
 10
59040.83226366648
 20
-3362.77402063155
 10
58980.83226366649
 20
-3362.77402063155
 10
58980.8322636665
 20
-3773.77402063155
 10
58885.83226366649
 20
-3773.77402063155
 10
58885.83226366647
 20
-4151.77402063155
 10
59020.6484974824
 20
-4151.77402063155
 10
59104.83226366649
 20
-4235.957786815629
 10
59104.83226366647
 20
-4562.774020631549
 10
59895.83226366648
 20
-4562.774020631549
 10
59895.83226366648
 20
-4097.77402063155
 10
59855.83226366648
 20
-4097.77402063155
 10
59855.83226366648
 20
-4042.77402063155
 10
59795.83226366648
 20
-4042.77402063155
 10
59795.83226366649
 20
-4157.77402063155
 10
59835.83226366647
 20
-4157.77402063155
 10
59835.83226366649
 20
-4502.774020631551
 10
59164.83226366647
 20
-4502.774020631551
 10
59164.8322636665
 20
-4211.104973073253
 10
59045.50131122478
 20
-4091.774020631549
 10
58945.83226366647
 20
-4091.77402063155
 10
58945.83226366647
 20
-3833.77402063155
 10
59040.83226366648
 20
-3833.77402063155
 10
59040.83226366648
 20
-3422.77402063155
 10
59100.83226366647
 20
-3422.77402063155
 10
59100.83226366649
 20
-3088.774020631551
 10
59815.83226366648
 20
-3088.774020631551
 10
59815.83226366649
 20
-3097.77402063155
 10
59875.83226366648
 20
-3097.774020631551
 10
59875.83226366647
 20
-3028.77402063155
 97
        4
330
2577
330
247F
330
2579
330
2491
 75
     0
 76
     1
 47
3.344584692497647
 98
        2
 10
59877.24290461583
 20
-3529.86091801928
 10
59719.96530688816
 20
-3058.274467995856
1001
ACAD
1010
0.0
1020
0.0
1030
0.0
  0
DIMENSION
  5
25EA
330
2
100
AcDbEntity
  8
0Wymiary-PL
 62
    54
 48
4.0
100
AcDbDimension
  2
*D52
 10
58980.83226366648
 20
-2822.77402063155
 30
0.0
 11
58843.31560467093
 21
-2742.77402063155
 31
0.0
 70
   160
 71
     5
 42
95.0
  3
500
100
AcDbAlignedDimension
 13
58885.83226366648
 23
-3773.77402063155
 33
0.0
 14
58980.83226366648
 24
-3773.77402063155
 34
0.0
100
AcDbRotatedDimension
  0
DIMENSION
  5
2600
330
2
100
AcDbEntity
  8
0Wymiary-PL
 62
    54
 48
4.0
100
AcDbDimension
  2
*D53
 10
59040.83226366648
 20
-2822.77402063155
 30
0.0
 11
59010.83226366648
 21
-2742.77402063155
 31
0.0
 70
    32
 71
     5
 42
60.0
  3
500
100
AcDbAlignedDimension
 13
58980.83226366648
 23
-3773.77402063155
 33
0.0
 14
59040.83226366648
 24
-3362.77402063155
 34
0.0
100
AcDbRotatedDimension
  0
DIMENSION
  5
2616
330
2
100
AcDbEntity
  8
0Wymiary-PL
 62
    54
 48
4.0
100
AcDbDimension
  2
*D54
 10
59875.83226366648
 20
-2822.77402063155
 30
0.0
 11
59458.33226366648
 21
-2742.77402063155
 31
0.0
 70
    32
 71
     5
 42
835.0
  3
500
100
AcDbAlignedDimension
 13
59040.83226366648
 23
-3362.77402063155
 33
0.0
 14
59875.83226366648
 24
-3028.77402063155
 34
0.0
100
AcDbRotatedDimension
  0
DIMENSION
  5
2628
330
2
100
AcDbEntity
  8
0Wymiary-PL
 62
    54
 48
4.0
100
AcDbDimension
  2
*D55
 10
59895.83226366648
 20
-2622.774020631549
 30
0.0
 11
59390.83226366648
 21
-2542.774020631549
 31
0.0
 70
    32
 71
     5
 42
1010.0
  3
500
100
AcDbAlignedDimension
 13
58885.83226366648
 23
-3773.77402063155
 33
0.0
 14
59895.83226366648
 24
-3709.76635870499
 34
0.0
100
AcDbRotatedDimension
  0
DIMENSION
  5
263A
330
2
100
AcDbEntity
  8
0Wymiary-PL
 62
    54
 48
4.0
100
AcDbDimension
  2
*D56
 10
59895.83226366648
 20
-2822.774020631549
 30
0.0
 11
59885.83226366648
 21
-2742.774020631549
 31
0.0
 70
    32
 71
     5
 42
19.99999999999272
  3
500
100
AcDbAlignedDimension
 13
59875.83226366648
 23
-3362.77402063155
 33
0.0
 14
59895.83226366648
 24
-3362.77402063155
 34
0.0
100
AcDbRotatedDimension
  0
DIMENSION
  5
2647
330
2
100
AcDbEntity
  8
0Wymiary-PL
 62
    54
 48
4.0
100
AcDbDimension
  2
*D57
 10
58425.83226366648
 20
-3362.77402063155
 30
0.0
 11
58345.83226366648
 21
-3195.774020631541
 31
0.0
 70
    32
 71
     5
 42
334.0
  3
500
100
AcDbAlignedDimension
 13
59040.83226366648
 23
-3028.77402063155
 33
0.0
 14
59040.83226366648
 24
-3362.77402063155
 34
0.0
 50
90.0
100
AcDbRotatedDimension
  0
DIMENSION
  5
2659
330
2
100
AcDbEntity
  8
0Wymiary-PL
 62
    54
 48
4.0
100
AcDbDimension
  2
*D58
 10
58425.83226366648
 20
-3773.77402063155
 30
0.0
 11
58345.83226366648
 21
-3568.274020631541
 31
0.0
 70
    32
 71
     5
 42
411.0
  3
500
100
AcDbAlignedDimension
 13
59040.83226366648
 23
-3362.77402063155
 33
0.0
 14
58980.83226366648
 24
-3773.77402063155
 34
0.0
 50
90.0
100
AcDbRotatedDimension
  0
DIMENSION
  5
2664
330
2
100
AcDbEntity
  8
0Wymiary-PL
 62
    54
 48
4.0
100
AcDbDimension
  2
*D59
 10
58425.83226366648
 20
-4151.77402063155
 30
0.0
 11
58345.83226366648
 21
-3962.774020631542
 31
0.0
 70
    32
 71
     5
 42
378.0000000000005
  3
500
100
AcDbAlignedDimension
 13
58980.83226366648
 23
-3773.77402063155
 33
0.0
 14
58885.83226366648
 24
-4151.77402063155
 34
0.0
 50
90.0
100
AcDbRotatedDimension
  0
DIMENSION
  5
266F
330
2
100
AcDbEntity
  8
0Wymiary-PL
 62
    54
 48
4.0
100
AcDbDimension
  2
*D60
 10
58425.83226366648
 20
-4562.774020631549
 30
0.0
 11
58345.83226366648
 21
-4357.274020631541
 31
0.0
 70
    32
 71
     5
 42
411.0
  3
500
100
AcDbAlignedDimension
 13
58885.83226366648
 23
-4151.77402063155
 33
0.0
 14
59105.33226366648
 24
-4562.774020631549
 34
0.0
 50
90.0
100
AcDbRotatedDimension
  0
DIMENSION
  5
267A
330
2
100
AcDbEntity
  8
0Wymiary-PL
 62
    54
 48
4.0
100
AcDbDimension
  2
*D61
 10
58225.83226366648
 20
-4562.774020631549
 30
0.0
 11
58145.83226366648
 21
-3795.774020631542
 31
0.0
 70
    32
 71
     5
 42
1534.0
  3
500
100
AcDbAlignedDimension
 13
59301.58830283571
 23
-3028.77402063155
 33
0.0
 14
59301.58830283571
 24
-4562.774020631549
 34
0.0
 50
90.0
100
AcDbRotatedDimension
  0
HATCH
  5
2691
330
2
100
AcDbEntity
  8
0Hatch
100
AcDbHatch
 10
0.0
 20
0.0
 30
0.0
210
0.0
220
0.0
230
1.0
  2
SOLID
 70
     1
 71
     1
 91
        1
 92
        7
 72
     1
 73
     1
 93
        2
 10
58989.83226366648
 20
-4536.274020631549
 42
1.0
 10
59024.83226366648
 20
-4536.274020631549
 42
1.0
 97
        1
330
254E
 75
     0
 76
     1
 47
1.607542023055731
 98
        1
 10
59001.33902500352
 20
-4532.039212797506
1001
ACAD
1010
0.0
1020
0.0
1030
0.0
  0
LINE
  5
26DC
330
2
100
AcDbEntity
  8
A-MassElement-G
  6
Continuous
 62
   210
370
    -3
100
AcDbLine
 10
62305.1416565092
 20
-3362.77402063155
 30
0.0
 11
62305.1416565092
 21
-3028.77402063155
 31
0.0
  0
LINE
  5
26DD
330
2
100
AcDbEntity
  8
A-MassElement-G
  6
Continuous
 62
   210
370
    -3
100
AcDbLine
 10
62440.14165650921
 20
-3412.77402063155
 30
0.0
 11
62440.14165650921
 21
-3028.77402063155
 31
0.0
  0
LINE
  5
26DE
330
2
100
AcDbEntity
  8
A-MassElement-G
  6
Continuous
 62
   210
370
    -3
100
AcDbLine
 10
62330.14165650921
 20
-3797.774020631547
 30
0.0
 11
62440.14165650921
 21
-3797.774020631547
 31
0.0
  0
LINE
  5
26DF
330
2
100
AcDbEntity
  8
A-MassElement-G
  6
Continuous
 62
   210
370
    -3
100
AcDbLine
 10
62300.14165650921
 20
-3767.774020631547
 30
0.0
 11
62440.14165650921
 21
-3767.774020631547
 31
0.0
  0
LINE
  5
26E0
330
2
100
AcDbEntity
  8
A-MassElement-G
  6
Continuous
 62
   210
370
    -3
100
AcDbLine
 10
62360.14165650921
 20
-3827.774020631546
 30
0.0
 11
62483.14165650921
 21
-3827.774020631546
 31
0.0
  0
LINE
  5
26E1
330
2
100
AcDbEntity
  8
A-MassElement-G
  6
Continuous
 62
   210
370
    -3
100
AcDbLine
 10
62440.14165650921
 20
-4127.774020631551
 30
0.0
 11
62330.14165650921
 21
-4127.774020631551
 31
0.0
  0
LINE
  5
26E2
330
2
100
AcDbEntity
  8
A-MassElement-G
  6
Continuous
 62
   210
370
    -3
100
AcDbLine
 10
62440.14165650921
 20
-4157.77402063155
 30
0.0
 11
62300.14165650921
 21
-4157.77402063155
 31
0.0
  0
HATCH
  5
26E3
330
2
100
AcDbEntity
  8
0Hatch
100
AcDbHatch
 10
0.0
 20
0.0
 30
0.0
210
0.0
220
0.0
230
1.0
  2
SOLID
 70
     1
 71
     1
 91
        2
 92
       23
 72
     0
 73
     1
 93
       12
 10
62440.1416565092
 20
-3827.774020631546
 10
62480.1416565092
 20
-3827.774020631546
 10
62480.1416565092
 20
-3882.774020631551
 10
62540.14165650921
 20
-3882.774020631551
 10
62540.14165650922
 20
-3767.774020631547
 10
62500.1416565092
 20
-3767.774020631547
 10
62500.1416565092
 20
-3422.77402063155
 10
62520.1416565092
 20
-3422.77402063155
 10
62520.14165650921
 20
-3337.774020631551
 10
62460.1416565092
 20
-3337.77402063155
 10
62460.1416565092
 20
-3362.77402063155
 10
62440.14165650921
 20
-3362.77402063155
 97
        4
330
273F
330
26EE
330
2740
330
26E5
 92
        7
 72
     0
 73
     1
 93
       30
 10
62460.14165650921
 20
-3028.77402063155
 10
62460.1416565092
 20
-3097.77402063155
 10
62520.1416565092
 20
-3097.77402063155
 10
62520.14165650921
 20
-3088.774020631551
 10
63235.14165650921
 20
-3088.774020631551
 10
63235.14165650921
 20
-3422.77402063155
 10
63295.14165650921
 20
-3422.77402063155
 10
63295.14165650921
 20
-3833.77402063155
 10
63390.14165650921
 20
-3833.77402063155
 10
63390.14165650921
 20
-4091.774020631549
 10
63290.4726089509
 20
-4091.77402063155
 10
63171.1416565092
 20
-4211.104973073241
 10
63171.1416565092
 20
-4502.774020631551
 10
62500.1416565092
 20
-4502.774020631551
 10
62500.14165650921
 20
-4157.77402063155
 10
62540.14165650921
 20
-4157.77402063155
 10
62540.14165650921
 20
-4042.77402063155
 10
62480.1416565092
 20
-4042.77402063155
 10
62480.1416565092
 20
-4097.77402063155
 10
62440.14165650921
 20
-4097.77402063155
 10
62440.14165650921
 20
-4562.774020631549
 10
63231.1416565092
 20
-4562.774020631549
 10
63231.14165650921
 20
-4235.957786815612
 10
63315.32542269328
 20
-4151.774020631549
 10
63450.14165650921
 20
-4151.774020631549
 10
63450.14165650921
 20
-3773.77402063155
 10
63355.14165650921
 20
-3773.77402063155
 10
63355.1416565092
 20
-3362.77402063155
 10
63295.14165650921
 20
-3362.77402063155
 10
63295.14165650922
 20
-3028.77402063155
 97
        4
330
273F
330
26E4
330
2740
330
26F6
 75
     0
 76
     1
 47
3.344584692497647
 98
        2
 10
62458.73101555985
 20
-3529.86091801928
 10
62616.00861328752
 20
-3058.274467995856
1001
ACAD
1010
0.0
1020
0.0
1030
0.0
  0
LINE
  5
26E4
102
{ACAD_REACTORS
330
26E3
102
}
330
2
100
AcDbEntity
  8
0Hatch
100
AcDbLine
 10
62480.1416565092
 20
-4042.77402063155
 30
0.0
 11
62540.14165650921
 21
-4042.77402063155
 31
0.0
  0
LINE
  5
26E5
102
{ACAD_REACTORS
330
26E3
102
}
330
2
100
AcDbEntity
  8
0Hatch
100
AcDbLine
 10
62540.14165650921
 20
-3882.774020631551
 30
0.0
 11
62480.1416565092
 21
-3882.774020631551
 31
0.0
  0
LINE
  5
26E6
330
2
100
AcDbEntity
  8
A-MassElement-G
  6
Continuous
 62
   210
370
    -3
100
AcDbLine
 10
62360.14165650921
 20
-4097.77402063155
 30
0.0
 11
62483.14165650921
 21
-4097.77402063155
 31
0.0
  0
LINE
  5
26E7
330
2
100
AcDbEntity
  8
A-MassElement-G
  6
Continuous
 62
   210
370
    -3
100
AcDbLine
 10
62360.14165650921
 20
-4097.77402063155
 30
0.0
 11
62360.14165650921
 21
-3827.774020631546
 31
0.0
  0
LINE
  5
26E8
330
2
100
AcDbEntity
  8
A-MassElement-G
  6
Continuous
 62
   210
370
    -3
100
AcDbLine
 10
62330.14165650921
 20
-4127.774020631551
 30
0.0
 11
62330.14165650921
 21
-3797.774020631547
 31
0.0
  0
LINE
  5
26E9
330
2
100
AcDbEntity
  8
A-MassElement-G
  6
Continuous
 62
   210
370
    -3
100
AcDbLine
 10
62300.14165650921
 20
-4157.77402063155
 30
0.0
 11
62300.14165650921
 21
-3767.774020631547
 31
0.0
  0
LINE
  5
26EA
330
2
100
AcDbEntity
  8
A-MassElement-G
  6
Continuous
 62
   210
370
    -3
100
AcDbLine
 10
62434.1416565092
 20
-3356.774020631551
 30
0.0
 11
62460.14165650921
 21
-3356.774020631551
 31
0.0
  0
LINE
  5
26EB
330
2
100
AcDbEntity
  8
A-MassElement-G
  6
Continuous
 62
   210
370
    -3
100
AcDbLine
 10
62440.14165650921
 20
-3412.77402063155
 30
0.0
 11
62434.1416565092
 21
-3412.77402063155
 31
0.0
  0
LINE
  5
26EC
330
2
100
AcDbEntity
  8
A-MassElement-G
  6
Continuous
 62
   210
370
    -3
100
AcDbLine
 10
62434.1416565092
 20
-3412.77402063155
 30
0.0
 11
62434.1416565092
 21
-3356.774020631551
 31
0.0
  0
LINE
  5
26ED
330
2
100
AcDbEntity
  8
A-MassElement-G
  6
Continuous
 62
   210
370
    -3
390
235E
100
AcDbLine
 10
62434.1416565092
 20
-3412.77402063155
 30
0.0
 11
62440.14165650921
 21
-3412.77402063155
 31
0.0
  0
LINE
  5
26EE
102
{ACAD_REACTORS
330
26E3
102
}
330
2
100
AcDbEntity
  8
0Hatch
100
AcDbLine
 10
62460.14165650921
 20
-3337.77402063155
 30
0.0
 11
62520.1416565092
 21
-3337.77402063155
 31
0.0
  0
LINE
  5
26EF
330
2
100
AcDbEntity
  8
A-MassElement-G
  6
Continuous
 62
   210
370
    -3
100
AcDbLine
 10
62305.1416565092
 20
-3362.77402063155
 30
0.0
 11
62460.14165650921
 21
-3362.77402063155
 31
0.0
  0
LINE
  5
26F0
330
2
100
AcDbEntity
  8
A-MassElement-G
  6
Continuous
 62
   210
370
    -3
390
235E
100
AcDbLine
 10
62454.1416565092
 20
-3078.774020631551
 30
0.0
 11
62460.14165650921
 21
-3078.774020631551
 31
0.0
  0
LINE
  5
26F1
330
2
100
AcDbEntity
  8
A-MassElement-G
  6
Continuous
 62
   210
370
    -3
390
235E
100
AcDbLine
 10
62510.14165650921
 20
-3028.77402063155
 30
0.0
 11
62510.14165650921
 21
-3022.77402063155
 31
0.0
  0
LINE
  5
26F2
330
2
100
AcDbEntity
  8
A-MassElement-G
  6
Continuous
 62
   210
370
    -3
390
235E
100
AcDbLine
 10
62510.14165650921
 20
-3022.77402063155
 30
0.0
 11
62454.1416565092
 21
-3022.77402063155
 31
0.0
  0
LINE
  5
26F3
330
2
100
AcDbEntity
  8
A-MassElement-G
  6
Continuous
 62
   210
370
    -3
390
235E
100
AcDbLine
 10
62454.1416565092
 20
-3022.77402063155
 30
0.0
 11
62454.1416565092
 21
-3078.774020631551
 31
0.0
  0
LINE
  5
26F4
330
2
100
AcDbEntity
  8
A-MassElement-G
  6
Continuous
 62
   210
370
    -3
100
AcDbLine
 10
62510.14165650921
 20
-3022.77402063155
 30
0.0
 11
62510.14165650921
 21
-3028.77402063155
 31
0.0
  0
LINE
  5
26F5
330
2
100
AcDbEntity
  8
A-MassElement-G
  6
Continuous
 62
   210
370
    -3
100
AcDbLine
 10
62460.14165650921
 20
-3078.774020631551
 30
0.0
 11
62454.1416565092
 21
-3078.774020631551
 31
0.0
  0
LINE
  5
26F6
102
{ACAD_REACTORS
330
26E3
102
}
330
2
100
AcDbEntity
  8
0Hatch
100
AcDbLine
 10
62520.14165650921
 20
-3097.77402063155
 30
0.0
 11
62460.14165650921
 21
-3097.77402063155
 31
0.0
  0
LINE
  5
26F7
330
2
100
AcDbEntity
  8
A-MassElement-G
  6
Continuous
 62
   210
370
    -3
100
AcDbLine
 10
62305.1416565092
 20
-3028.77402063155
 30
0.0
 11
62510.14165650921
 21
-3028.77402063155
 31
0.0
  0
LINE
  5
26F8
330
2
100
AcDbEntity
  8
A-MassElement-G
  6
Continuous
 62
   210
370
    -3
100
AcDbLine
 10
63680.14165650921
 20
-4259.813989060098
 30
0.0
 11
63680.14165650921
 21
-4051.774020631547
 31
0.0
  0
LINE
  5
26F9
330
2
100
AcDbEntity
  8
A-MassElement-G
  6
Continuous
 62
   210
370
    -3
100
AcDbLine
 10
63710.14165650921
 20
-4051.77402063155
 30
0.0
 11
63710.14165650921
 21
-4289.813989060098
 31
0.0
  0
LINE
  5
26FA
330
2
100
AcDbEntity
  8
A-MassElement-G
  6
Continuous
 62
   210
370
    -3
100
AcDbLine
 10
63650.1416565092
 20
-3472.77402063155
 30
0.0
 11
63650.1416565092
 21
-4454.813989060105
 31
0.0
  0
LINE
  5
26FB
330
2
100
AcDbEntity
  8
A-MassElement-G
  6
Continuous
 62
   210
370
    -3
390
1D00
100
AcDbLine
 10
63355.14165650921
 20
-4151.77402063155
 30
0.0
 11
63355.14165650921
 21
-4562.774020631549
 31
0.0
  0
LINE
  5
26FC
330
2
100
AcDbEntity
  8
A-MassElement-G
  6
Continuous
 62
   210
370
    -3
100
AcDbLine
 10
63680.14165650921
 20
-4265.813989060098
 30
0.0
 11
63650.1416565092
 21
-4265.813989060098
 31
0.0
  0
LINE
  5
26FD
330
2
100
AcDbEntity
  8
A-MassElement-G
  6
Continuous
 62
   210
370
    -3
100
AcDbLine
 10
63680.14165650921
 20
-4265.813989060098
 30
0.0
 11
63680.14165650921
 21
-4467.240395931294
 31
0.0
  0
LINE
  5
26FE
330
2
100
AcDbEntity
  8
A-MassElement-G
  6
Continuous
 62
   210
370
    -3
100
AcDbLine
 10
63680.14165650921
 20
-4467.240395931294
 30
0.0
 11
63432.5680633804
 21
-4714.813989060101
 31
0.0
  0
LINE
  5
26FF
330
2
100
AcDbEntity
  8
A-MassElement-G
  6
Continuous
 62
   210
370
    -3
100
AcDbLine
 10
63237.14165650921
 20
-4714.813989060101
 30
0.0
 11
63432.5680633804
 21
-4714.813989060101
 31
0.0
  0
LINE
  5
2700
330
2
100
AcDbEntity
  8
A-MassElement-G
  6
Continuous
 62
   210
370
    -3
100
AcDbLine
 10
63237.14165650921
 20
-4714.813989060105
 30
0.0
 11
63237.14165650921
 21
-4684.813989060105
 31
0.0
  0
LINE
  5
2701
330
2
100
AcDbEntity
  8
A-MassElement-G
  6
Continuous
 62
   210
370
    -3
100
AcDbLine
 10
63231.1416565092
 20
-4720.813989060105
 30
0.0
 11
63231.1416565092
 21
-4684.813989060105
 31
0.0
  0
LINE
  5
2702
330
2
100
AcDbEntity
  8
A-MassElement-G
  6
Continuous
 62
   210
370
    -3
100
AcDbLine
 10
63710.14165650921
 20
-4289.813989060098
 30
0.0
 11
63686.14165650921
 21
-4289.813989060098
 31
0.0
  0
LINE
  5
2703
330
2
100
AcDbEntity
  8
A-MassElement-G
  6
Continuous
 62
   210
370
    -3
100
AcDbLine
 10
63650.1416565092
 20
-4259.813989060098
 30
0.0
 11
63686.14165650921
 21
-4259.813989060098
 31
0.0
  0
LINE
  5
2704
330
2
100
AcDbEntity
  8
A-MassElement-G
  6
Continuous
 62
   210
370
    -3
100
AcDbLine
 10
63231.1416565092
 20
-4512.77402063155
 30
0.0
 11
63237.14165650921
 21
-4512.77402063155
 31
0.0
  0
LINE
  5
2705
330
2
100
AcDbEntity
  8
A-MassElement-G
  6
Continuous
 62
   210
370
    -3
100
AcDbLine
 10
63237.14165650921
 20
-4512.77402063155
 30
0.0
 11
63237.14165650921
 21
-4568.77402063155
 31
0.0
  0
LINE
  5
2706
330
2
100
AcDbEntity
  8
A-MassElement-G
  6
Continuous
 62
   210
370
    -3
100
AcDbLine
 10
63237.14165650921
 20
-4568.77402063155
 30
0.0
 11
63181.1416565092
 21
-4568.77402063155
 31
0.0
  0
LINE
  5
2707
330
2
100
AcDbEntity
  8
A-MassElement-G
  6
Continuous
 62
   210
370
    -3
100
AcDbLine
 10
63181.1416565092
 20
-4568.77402063155
 30
0.0
 11
63181.1416565092
 21
-4562.774020631549
 31
0.0
  0
LINE
  5
2708
330
2
100
AcDbEntity
  8
A-MassElement-G
  6
Continuous
 62
   210
370
    -3
390
235E
100
AcDbLine
 10
63181.1416565092
 20
-4562.774020631549
 30
0.0
 11
63181.1416565092
 21
-4568.77402063155
 31
0.0
  0
LINE
  5
2709
330
2
100
AcDbEntity
  8
A-MassElement-G
  6
Continuous
 62
   210
370
    -3
390
235E
100
AcDbLine
 10
63237.14165650921
 20
-4512.77402063155
 30
0.0
 11
63231.1416565092
 21
-4512.77402063155
 31
0.0
  0
LINE
  5
270A
330
2
100
AcDbEntity
  8
A-MassElement-G
  6
Continuous
 62
   210
370
    -3
100
AcDbLine
 10
63201.1416565092
 20
-4562.774020631549
 30
0.0
 11
63201.1416565092
 21
-4714.813989060105
 31
0.0
  0
LINE
  5
270B
330
2
100
AcDbEntity
  8
A-MassElement-G
  6
Continuous
 62
   210
370
    -3
100
AcDbLine
 10
63201.1416565092
 20
-4714.813989060105
 30
0.0
 11
63231.1416565092
 21
-4714.813989060094
 31
0.0
  0
LINE
  5
270C
330
2
100
AcDbEntity
  8
A-MassElement-G
  6
Continuous
 62
   210
370
    -3
100
AcDbLine
 10
63171.1416565092
 20
-4744.813989060104
 30
0.0
 11
63171.1416565092
 21
-4562.774020631549
 31
0.0
  0
LINE
  5
270D
330
2
100
AcDbEntity
  8
A-MassElement-G
  6
Continuous
 62
   210
370
    -3
100
AcDbLine
 10
63261.1416565092
 20
-4720.813989060101
 30
0.0
 11
63261.1416565092
 21
-4744.813989060104
 31
0.0
  0
LINE
  5
270E
330
2
100
AcDbEntity
  8
A-MassElement-G
  6
Continuous
 62
   210
370
    -3
100
AcDbLine
 10
63261.1416565092
 20
-4744.813989060104
 30
0.0
 11
63171.1416565092
 21
-4744.813989060104
 31
0.0
  0
LINE
  5
270F
330
2
100
AcDbEntity
  8
A-MassElement-G
  6
Continuous
 62
   210
370
    -3
100
AcDbLine
 10
63231.1416565092
 20
-4684.813989060105
 30
0.0
 11
63420.14165650921
 21
-4684.813989060105
 31
0.0
  0
LINE
  5
2710
330
2
100
AcDbEntity
  8
A-MassElement-G
  6
Continuous
 62
   210
370
    -3
100
AcDbLine
 10
63420.14165650921
 20
-4684.813989060105
 30
0.0
 11
63650.1416565092
 21
-4454.813989060105
 31
0.0
  0
LINE
  5
2711
330
2
100
AcDbEntity
  8
A-MassElement-G
  6
Continuous
 62
   210
370
    -3
100
AcDbLine
 10
63686.14165650921
 20
-4469.725677305534
 30
0.0
 11
63435.05334475464
 21
-4720.813989060105
 31
0.0
  0
LINE
  5
2712
330
2
100
AcDbEntity
  8
A-MassElement-G
  6
Continuous
 62
   210
370
    -3
100
AcDbLine
 10
63435.05334475464
 20
-4720.813989060105
 30
0.0
 11
63231.1416565092
 21
-4720.813989060109
 31
0.0
  0
LINE
  5
2713
330
2
100
AcDbEntity
  8
A-MassElement-G
  6
Continuous
 62
   210
370
    -3
100
AcDbLine
 10
63261.1416565092
 20
-4720.813989060105
 30
0.0
 11
63261.1416565092
 21
-4744.813989060104
 31
0.0
  0
LINE
  5
2714
330
2
100
AcDbEntity
  8
A-MassElement-G
  6
Continuous
 62
   210
370
    -3
100
AcDbLine
 10
63231.1416565092
 20
-4714.813989060105
 30
0.0
 11
63201.1416565092
 21
-4714.813989060105
 31
0.0
  0
LINE
  5
2715
330
2
100
AcDbEntity
  8
A-MassElement-G
  6
Continuous
 62
   210
370
    -3
100
AcDbLine
 10
63261.1416565092
 20
-4744.813989060104
 30
0.0
 11
63171.1416565092
 21
-4744.813989060104
 31
0.0
  0
LINE
  5
2716
330
2
100
AcDbEntity
  8
A-MassElement-G
  6
Continuous
 62
   210
370
    -3
100
AcDbLine
 10
63435.05334475464
 20
-4720.813989060101
 30
0.0
 11
63231.1416565092
 21
-4720.813989060105
 31
0.0
  0
LINE
  5
2717
330
2
100
AcDbEntity
  8
A-MassElement-G
  6
Continuous
 62
   210
370
    -3
100
AcDbLine
 10
63686.14165650921
 20
-4469.725677305534
 30
0.0
 11
63435.05334475464
 21
-4720.813989060101
 31
0.0
  0
LINE
  5
2718
330
2
100
AcDbEntity
  8
A-MassElement-G
  6
Continuous
 62
   210
370
    -3
100
AcDbLine
 10
63420.14165650921
 20
-4684.813989060102
 30
0.0
 11
63231.1416565092
 21
-4684.813989060105
 31
0.0
  0
LINE
  5
2719
330
2
100
AcDbEntity
  8
A-MassElement-G
  6
Continuous
 62
   210
370
    -3
100
AcDbLine
 10
63650.1416565092
 20
-4454.813989060101
 30
0.0
 11
63420.14165650921
 21
-4684.813989060102
 31
0.0
  0
LINE
  5
271A
330
2
100
AcDbEntity
  8
A-MassElement-G
  6
Continuous
 62
   210
370
    -3
390
1D00
100
AcDbLine
 10
63355.14165650921
 20
-4562.774020631549
 30
0.0
 11
63230.6416565092
 21
-4562.774020631549
 31
0.0
  0
HATCH
  5
271B
330
2
100
AcDbEntity
  8
0Hatch
100
AcDbHatch
 10
0.0
 20
0.0
 30
0.0
210
0.0
220
0.0
230
1.0
  2
SOLID
 70
     1
 71
     1
 91
        1
 92
        7
 72
     1
 73
     1
 93
        2
 10
63311.1416565092
 20
-4536.274020631549
 42
1.0
 10
63346.1416565092
 20
-4536.274020631549
 42
1.0
 97
        1
330
271C
 75
     0
 76
     1
 47
1.607542023055731
 98
        1
 10
63334.63489517216
 20
-4532.039212797506
1001
ACAD
1010
0.0
1020
0.0
1030
0.0
  0
CIRCLE
  5
271C
102
{ACAD_REACTORS
330
271B
102
}
330
2
100
AcDbEntity
  8
0Hatch
390
1D00
100
AcDbCircle
 10
63328.64165650921
 20
-4536.274020631549
 30
0.0
 40
17.5
  0
LINE
  5
271D
330
2
100
AcDbEntity
  8
A-MassElement-G
  6
Continuous
 62
   210
370
    -3
100
AcDbLine
 10
63686.14165650921
 20
-4259.813989060098
 30
0.0
 11
63686.14165650921
 21
-4469.725677305534
 31
0.0
  0
LINE
  5
271E
330
2
100
AcDbEntity
  8
A-MassElement-G
  6
Continuous
 62
   210
370
    -3
100
AcDbLine
 10
63686.14165650921
 20
-4259.813989060094
 30
0.0
 11
63686.14165650921
 21
-4469.725677305534
 31
0.0
  0
LINE
  5
271F
330
2
100
AcDbEntity
  8
A-MassElement-G
  6
Continuous
 62
   210
370
    -3
100
AcDbLine
 10
63385.14165650921
 20
-3126.762350332996
 30
0.0
 11
63385.14165650921
 21
-3306.762350332996
 31
0.0
  0
LINE
  5
2720
330
2
100
AcDbEntity
  8
A-MassElement-G
  6
Continuous
 62
   210
370
    -3
100
AcDbLine
 10
63710.14165650921
 20
-3412.77402063155
 30
0.0
 11
63710.14165650921
 21
-3871.774020631543
 31
0.0
  0
LINE
  5
2721
330
2
100
AcDbEntity
  8
A-MassElement-G
  6
Continuous
 62
   210
370
    -3
100
AcDbLine
 10
63680.14165650921
 20
-3442.774020631551
 30
0.0
 11
63680.14165650921
 21
-3871.774020631547
 31
0.0
  0
LINE
  5
2722
330
2
100
AcDbEntity
  8
A-MassElement-G
  6
Continuous
 62
   210
370
    -3
100
AcDbLine
 10
63705.82732162342
 20
-4045.774020631546
 30
0.0
 11
63656.14165650921
 21
-4045.774020631546
 31
0.0
  0
LINE
  5
2723
330
2
100
AcDbEntity
  8
A-MassElement-G
  6
Continuous
 62
   210
370
    -3
100
AcDbLine
 10
63656.14165650921
 20
-3877.774020631547
 30
0.0
 11
63705.82732162342
 21
-3877.774020631547
 31
0.0
  0
LINE
  5
2724
330
2
100
AcDbEntity
  8
A-MassElement-G
  6
Continuous
 62
   210
370
    -3
100
AcDbLine
 10
63656.14165650921
 20
-4045.774020631546
 30
0.0
 11
63656.14165650921
 21
-3877.774020631547
 31
0.0
  0
ARC
  5
2725
330
2
100
AcDbEntity
  8
A-MassElement-G
  6
Continuous
 62
   210
370
    -3
100
AcDbCircle
 10
63448.96081408141
 20
-3961.774020631546
 30
0.0
 40
270.2524795387211
100
AcDbArc
 50
341.891317833979
 51
18.10868216602101
  0
LINE
  5
2726
330
2
100
AcDbEntity
  8
A-MassElement-G
  6
Continuous
 62
   210
370
    -3
100
AcDbLine
 10
63650.1416565092
 20
-3871.774020631547
 30
0.0
 11
63710.14165650922
 21
-3871.774020631547
 31
0.0
  0
LINE
  5
2727
330
2
100
AcDbEntity
  8
A-MassElement-G
  6
Continuous
 62
   210
370
    -3
100
AcDbLine
 10
63710.14165650922
 20
-3871.774020631547
 30
0.0
 11
63721.01639772
 21
-3913.803280983677
 31
0.0
  0
LINE
  5
2728
330
2
100
AcDbEntity
  8
A-MassElement-G
  6
Continuous
 62
   210
370
    -3
100
AcDbLine
 10
63721.01639772
 20
-3913.803280983677
 30
0.0
 11
63725.21329362013
 21
-3961.774020631547
 31
0.0
  0
LINE
  5
2729
330
2
100
AcDbEntity
  8
A-MassElement-G
  6
Continuous
 62
   210
370
    -3
100
AcDbLine
 10
63725.21329362013
 20
-3961.774020631547
 30
0.0
 11
63721.01639772
 21
-4009.744760279416
 31
0.0
  0
LINE
  5
272A
330
2
100
AcDbEntity
  8
A-MassElement-G
  6
Continuous
 62
   210
370
    -3
100
AcDbLine
 10
63721.01639772
 20
-4009.744760279416
 30
0.0
 11
63710.14165650922
 21
-4051.774020631547
 31
0.0
  0
LINE
  5
272B
330
2
100
AcDbEntity
  8
A-MassElement-G
  6
Continuous
 62
   210
370
    -3
100
AcDbLine
 10
63710.14165650922
 20
-4051.774020631547
 30
0.0
 11
63650.1416565092
 21
-4051.774020631547
 31
0.0
  0
LINE
  5
272C
330
2
100
AcDbEntity
  8
A-MassElement-G
  6
Continuous
 62
   210
370
    -3
100
AcDbLine
 10
63355.14165650921
 20
-3412.77402063155
 30
0.0
 11
63710.14165650921
 21
-3412.77402063155
 31
0.0
  0
LINE
  5
272D
330
2
100
AcDbEntity
  8
A-MassElement-G
  6
Continuous
 62
   210
370
    -3
390
235E
100
AcDbLine
 10
63361.1416565092
 20
-3412.77402063155
 30
0.0
 11
63361.1416565092
 21
-3356.774020631551
 31
0.0
  0
LINE
  5
272E
330
2
100
AcDbEntity
  8
A-MassElement-G
  6
Continuous
 62
   210
370
    -3
390
235E
100
AcDbLine
 10
63361.1416565092
 20
-3356.774020631551
 30
0.0
 11
63305.14165650921
 21
-3356.774020631551
 31
0.0
  0
LINE
  5
272F
330
2
100
AcDbEntity
  8
A-MassElement-G
  6
HIDDEN2
 62
    11
370
    25
390
235E
100
AcDbLine
 10
63305.14165650921
 20
-3356.774020631551
 30
0.0
 11
63305.14165650921
 21
-3362.77402063155
 31
0.0
  0
LINE
  5
2730
330
2
100
AcDbEntity
  8
A-MassElement-G
  6
Continuous
 62
   210
370
    -3
100
AcDbLine
 10
63305.14165650921
 20
-3362.77402063155
 30
0.0
 11
63305.14165650921
 21
-3356.774020631551
 31
0.0
  0
LINE
  5
2731
330
2
100
AcDbEntity
  8
A-MassElement-G
  6
Continuous
 62
   210
370
    -3
100
AcDbLine
 10
63355.14165650921
 20
-3442.774020631551
 30
0.0
 11
63680.14165650921
 21
-3442.774020631551
 31
0.0
  0
LINE
  5
2732
330
2
100
AcDbEntity
  8
A-MassElement-G
  6
Continuous
 62
   210
370
    -3
100
AcDbLine
 10
63650.1416565092
 20
-3472.77402063155
 30
0.0
 11
63355.14165650921
 21
-3472.77402063155
 31
0.0
  0
LINE
  5
2733
330
2
100
AcDbEntity
  8
A-MassElement-G
  6
Continuous
 62
   210
370
    -3
100
AcDbLine
 10
63245.14165650921
 20
-3022.77402063155
 30
0.0
 11
63301.14165650921
 21
-3022.77402063155
 31
0.0
  0
LINE
  5
2734
330
2
100
AcDbEntity
  8
A-MassElement-G
  6
Continuous
 62
   210
370
    -3
100
AcDbLine
 10
63245.14165650921
 20
-3028.77402063155
 30
0.0
 11
63245.14165650921
 21
-3022.77402063155
 31
0.0
  0
LINE
  5
2735
330
2
100
AcDbEntity
  8
A-MassElement-G
  6
Continuous
 62
   210
370
    -3
100
AcDbLine
 10
63301.14165650921
 20
-3022.77402063155
 30
0.0
 11
63301.14165650921
 21
-3078.774020631551
 31
0.0
  0
LINE
  5
2736
330
2
100
AcDbEntity
  8
A-MassElement-G
  6
Continuous
 62
   210
370
    -3
100
AcDbLine
 10
63301.14165650921
 20
-3078.774020631551
 30
0.0
 11
63295.14165650921
 21
-3078.774020631551
 31
0.0
  0
LINE
  5
2737
330
2
100
AcDbEntity
  8
A-MassElement-G
  6
Continuous
 62
   210
370
    -3
390
235E
100
AcDbLine
 10
63295.14165650921
 20
-3078.774020631551
 30
0.0
 11
63301.14165650921
 21
-3078.774020631551
 31
0.0
  0
LINE
  5
2738
330
2
100
AcDbEntity
  8
A-MassElement-G
  6
Continuous
 62
   210
370
    -3
390
235E
100
AcDbLine
 10
63245.14165650921
 20
-3022.77402063155
 30
0.0
 11
63245.14165650921
 21
-3028.77402063155
 31
0.0
  0
LINE
  5
2739
330
2
100
AcDbEntity
  8
A-MassElement-G
  6
Continuous
 62
   210
370
    -3
100
AcDbLine
 10
63231.1416565092
 20
-4562.774020631549
 30
0.0
 11
63231.1416565092
 21
-4714.813989060105
 31
0.0
  0
LINE
  5
273A
330
2
100
AcDbEntity
  8
A-MassElement-G
  6
Continuous
 62
   210
370
    -3
100
AcDbLine
 10
63355.14165650922
 20
-3156.762350332996
 30
0.0
 11
63355.14165650922
 21
-3276.762350332996
 31
0.0
  0
LINE
  5
273B
330
2
100
AcDbEntity
  8
A-MassElement-G
  6
Continuous
 62
   210
370
    -3
100
AcDbLine
 10
63295.14165650921
 20
-3156.762350332996
 30
0.0
 11
63355.14165650922
 21
-3156.762350332996
 31
0.0
  0
LINE
  5
273C
330
2
100
AcDbEntity
  8
A-MassElement-G
  6
Continuous
 62
   210
370
    -3
100
AcDbLine
 10
63295.14165650921
 20
-3276.762350332996
 30
0.0
 11
63355.14165650922
 21
-3276.762350332996
 31
0.0
  0
LINE
  5
273D
330
2
100
AcDbEntity
  8
A-MassElement-G
  6
Continuous
 62
   210
370
    -3
100
AcDbLine
 10
63295.14165650921
 20
-3126.762350332996
 30
0.0
 11
63385.14165650921
 21
-3126.762350332996
 31
0.0
  0
LINE
  5
273E
330
2
100
AcDbEntity
  8
A-MassElement-G
  6
Continuous
 62
   210
370
    -3
100
AcDbLine
 10
63295.14165650921
 20
-3306.762350332996
 30
0.0
 11
63385.14165650921
 21
-3306.762350332996
 31
0.0
  0
LWPOLYLINE
  5
273F
102
{ACAD_REACTORS
330
26E3
102
}
330
2
100
AcDbEntity
  8
0Hatch
100
AcDbPolyline
 90
       18
 70
     0
 43
0.0
 10
63295.14165650921
 20
-3028.77402063155
 10
62460.14165650921
 20
-3028.77402063155
 10
62460.1416565092
 20
-3362.77402063155
 10
62440.14165650921
 20
-3362.77402063155
 10
62440.14165650921
 20
-3827.774020631546
 10
62480.1416565092
 20
-3827.774020631546
 10
62480.1416565092
 20
-4097.77402063155
 10
62440.14165650921
 20
-4097.77402063155
 10
62440.14165650921
 20
-4562.774020631549
 10
63231.1416565092
 20
-4562.774020631549
 10
63231.1416565092
 20
-4235.957786815623
 10
63315.32542269328
 20
-4151.77402063155
 10
63450.14165650921
 20
-4151.77402063155
 10
63450.14165650921
 20
-3773.77402063155
 10
63355.14165650921
 20
-3773.77402063155
 10
63355.14165650921
 20
-3362.77402063155
 10
63295.14165650921
 20
-3362.77402063155
 10
63295.14165650921
 20
-3028.77402063155
  0
LWPOLYLINE
  5
2740
102
{ACAD_REACTORS
330
26E3
102
}
330
2
100
AcDbEntity
  8
0Hatch
100
AcDbPolyline
 90
       17
 70
     1
 43
0.0
 10
63235.1416565092
 20
-3088.774020631551
 10
62520.14165650921
 20
-3088.774020631551
 10
62520.1416565092
 20
-3422.77402063155
 10
62500.1416565092
 20
-3422.77402063155
 10
62500.1416565092
 20
-3767.774020631547
 10
62540.14165650921
 20
-3767.774020631547
 10
62540.14165650921
 20
-4157.77402063155
 10
62500.1416565092
 20
-4157.77402063155
 10
62500.1416565092
 20
-4502.774020631551
 10
63171.1416565092
 20
-4502.774020631551
 10
63171.1416565092
 20
-4211.104973073236
 10
63290.4726089509
 20
-4091.774020631549
 10
63390.14165650921
 20
-4091.774020631549
 10
63390.14165650921
 20
-3833.77402063155
 10
63295.14165650921
 20
-3833.77402063155
 10
63295.14165650921
 20
-3422.77402063155
 10
63235.1416565092
 20
-3422.77402063155
  0
LINE
  5
2741
330
2
100
AcDbEntity
  8
A-MassElement-G
  6
Continuous
 62
   210
370
    -3
390
235E
100
AcDbLine
 10
62434.1416565092
 20
-4568.77402063155
 30
0.0
 11
62490.14165650921
 21
-4568.77402063155
 31
0.0
  0
LINE
  5
2742
330
2
100
AcDbEntity
  8
A-MassElement-G
  6
HIDDEN2
 62
    11
370
    25
390
235E
100
AcDbLine
 10
62490.14165650921
 20
-4568.77402063155
 30
0.0
 11
62490.14165650921
 21
-4562.774020631549
 31
0.0
  0
LINE
  5
2743
330
2
100
AcDbEntity
  8
A-MassElement-G
  6
HIDDEN2
 62
    11
370
    25
390
235E
100
AcDbLine
 10
62440.14165650921
 20
-4512.77402063155
 30
0.0
 11
62434.1416565092
 21
-4512.77402063155
 31
0.0
  0
LINE
  5
2744
330
2
100
AcDbEntity
  8
A-MassElement-G
  6
Continuous
 62
   210
370
    -3
390
235E
100
AcDbLine
 10
62434.1416565092
 20
-4512.77402063155
 30
0.0
 11
62434.1416565092
 21
-4568.77402063155
 31
0.0
  0
LINE
  5
2745
330
2
100
AcDbEntity
  8
A-MassElement-G
  6
Continuous
 62
   210
370
    -3
100
AcDbLine
 10
62434.1416565092
 20
-4512.77402063155
 30
0.0
 11
62440.14165650921
 21
-4512.77402063155
 31
0.0
  0
LINE
  5
2746
330
2
100
AcDbEntity
  8
A-MassElement-G
  6
Continuous
 62
   210
370
    -3
100
AcDbLine
 10
62490.14165650921
 20
-4562.774020631549
 30
0.0
 11
62490.14165650921
 21
-4568.77402063155
 31
0.0
  0
DIMENSION
  5
2747
330
2
100
AcDbEntity
  8
0Wymiary-PL
 62
    54
 48
4.0
100
AcDbDimension
  2
*D62
 10
63355.14165650921
 20
-2822.77402063155
 30
0.0
 11
63492.65831550475
 21
-2742.77402063155
 31
0.0
 70
   160
 71
     5
 42
95.0
  3
500
100
AcDbAlignedDimension
 13
63450.14165650921
 23
-3773.77402063155
 33
0.0
 14
63355.14165650921
 24
-3773.77402063155
 34
0.0
 50
180.0
100
AcDbRotatedDimension
  0
DIMENSION
  5
2748
330
2
100
AcDbEntity
  8
0Wymiary-PL
 62
    54
 48
4.0
100
AcDbDimension
  2
*D63
 10
63295.14165650921
 20
-2822.77402063155
 30
0.0
 11
63325.14165650921
 21
-2742.77402063155
 31
0.0
 70
    32
 71
     5
 42
60.0
  3
500
100
AcDbAlignedDimension
 13
63355.14165650921
 23
-3773.77402063155
 33
0.0
 14
63295.14165650921
 24
-3362.77402063155
 34
0.0
 50
180.0
100
AcDbRotatedDimension
  0
DIMENSION
  5
2749
330
2
100
AcDbEntity
  8
0Wymiary-PL
 62
    54
 48
4.0
100
AcDbDimension
  2
*D64
 10
62460.14165650921
 20
-2822.77402063155
 30
0.0
 11
62877.6416565092
 21
-2742.77402063155
 31
0.0
 70
    32
 71
     5
 42
835.0
  3
500
100
AcDbAlignedDimension
 13
63295.14165650921
 23
-3362.77402063155
 33
0.0
 14
62460.14165650921
 24
-3028.77402063155
 34
0.0
 50
180.0
100
AcDbRotatedDimension
  0
DIMENSION
  5
274A
330
2
100
AcDbEntity
  8
0Wymiary-PL
 62
    54
 48
4.0
100
AcDbDimension
  2
*D65
 10
62440.14165650921
 20
-2622.774020631549
 30
0.0
 11
62945.1416565092
 21
-2542.774020631549
 31
0.0
 70
    32
 71
     5
 42
1010.0
  3
500
100
AcDbAlignedDimension
 13
63450.14165650921
 23
-3773.77402063155
 33
0.0
 14
62440.14165650921
 24
-3709.76635870499
 34
0.0
 50
180.0
100
AcDbRotatedDimension
  0
DIMENSION
  5
274B
330
2
100
AcDbEntity
  8
0Wymiary-PL
 62
    54
 48
4.0
100
AcDbDimension
  2
*D66
 10
62440.14165650921
 20
-2822.774020631549
 30
0.0
 11
62450.1416565092
 21
-2742.774020631549
 31
0.0
 70
    32
 71
     5
 42
19.99999999999272
  3
500
100
AcDbAlignedDimension
 13
62460.1416565092
 23
-3362.77402063155
 33
0.0
 14
62440.14165650921
 24
-3362.77402063155
 34
0.0
 50
180.0
100
AcDbRotatedDimension
  0
DIMENSION
  5
274C
330
2
100
AcDbEntity
  8
0Wymiary-PL
 62
    54
 48
4.0
100
AcDbDimension
  2
*D67
 10
63910.1416565092
 20
-3362.77402063155
 30
0.0
 11
63830.1416565092
 21
-3195.774020631541
 31
0.0
 70
    32
 71
     5
 42
334.0
  3
500
100
AcDbAlignedDimension
 13
63295.14165650921
 23
-3028.77402063155
 33
0.0
 14
63295.14165650921
 24
-3362.77402063155
 34
0.0
 50
90.0
100
AcDbRotatedDimension
  0
DIMENSION
  5
274D
330
2
100
AcDbEntity
  8
0Wymiary-PL
 62
    54
 48
4.0
100
AcDbDimension
  2
*D68
 10
63910.1416565092
 20
-3773.77402063155
 30
0.0
 11
63830.1416565092
 21
-3568.27402063154
 31
0.0
 70
    32
 71
     5
 42
411.0
  3
500
100
AcDbAlignedDimension
 13
63295.14165650921
 23
-3362.77402063155
 33
0.0
 14
63355.14165650921
 24
-3773.77402063155
 34
0.0
 50
90.0
100
AcDbRotatedDimension
  0
DIMENSION
  5
274E
330
2
100
AcDbEntity
  8
0Wymiary-PL
 62
    54
 48
4.0
100
AcDbDimension
  2
*D69
 10
63910.1416565092
 20
-4151.774020631552
 30
0.0
 11
63830.1416565092
 21
-3962.774020631541
 31
0.0
 70
    32
 71
     5
 42
378.0000000000005
  3
500
100
AcDbAlignedDimension
 13
63355.14165650921
 23
-3773.77402063155
 33
0.0
 14
63450.14165650921
 24
-4151.77402063155
 34
0.0
 50
90.0
100
AcDbRotatedDimension
  0
DIMENSION
  5
274F
330
2
100
AcDbEntity
  8
0Wymiary-PL
 62
    54
 48
4.0
100
AcDbDimension
  2
*D70
 10
63910.1416565092
 20
-4562.774020631551
 30
0.0
 11
63830.1416565092
 21
-4357.27402063154
 31
0.0
 70
    32
 71
     5
 42
411.0
  3
500
100
AcDbAlignedDimension
 13
63450.14165650921
 23
-4151.77402063155
 33
0.0
 14
63230.6416565092
 24
-4562.774020631549
 34
0.0
 50
90.0
100
AcDbRotatedDimension
  0
DIMENSION
  5
2750
330
2
100
AcDbEntity
  8
0Wymiary-PL
 62
    54
 48
4.0
100
AcDbDimension
  2
*D71
 10
64110.14165650921
 20
-4562.774020631551
 30
0.0
 11
64030.14165650921
 21
-3795.774020631541
 31
0.0
 70
    32
 71
     5
 42
1534.0
  3
500
100
AcDbAlignedDimension
 13
63034.38561733998
 23
-3028.77402063155
 33
0.0
 14
63034.38561733998
 24
-4562.774020631549
 34
0.0
 50
90.0
100
AcDbRotatedDimension
  0
ENDSEC
  0
SECTION
  2
OBJECTS
  0
DICTIONARY
  5
B
330
0
100
AcDbDictionary
281
     1
  3
ACAD_COLOR
350
53
  3
ACAD_GROUP
350
4E
  3
ACAD_LAYOUT
350
12
  3
ACAD_MATERIAL
350
D
  3
ACAD_MLEADERSTYLE
350
7A8
  3
ACAD_MLINESTYLE
350
4F
  3
ACAD_PLOTSETTINGS
350
50
  3
ACAD_PLOTSTYLENAME
350
A
  3
ACAD_SCALELIST
350
54
  3
ACAD_TABLESTYLE
350
55
  3
ACAD_VISUALSTYLE
350
15
  3
ACDB_RECOMPOSE_DATA
350
794
  3
AcDbVariableDictionary
350
795
  3
AEC_PROPERTY_SET_DEFS
350
952
  3
DWGPROPS
350
280A
  0
DICTIONARY
  5
1E
330
1D
100
AcDbDictionary
280
     1
281
     1
  3
ACAD_LAYERSTATES
360
1F
  0
DICTIONARY
  5
7
330
6
100
AcDbDictionary
280
     1
281
     1
  3
ADSK_XREC_LAYER_RECONCILED
360
8
  0
DICTIONARY
  5
75
330
74
100
AcDbDictionary
280
     1
281
     1
  3
ADSK_XREC_LAYER_RECONCILED
360
76
  0
DICTIONARY
  5
57
330
56
100
AcDbDictionary
280
     1
281
     1
  3
ADSK_XREC_LAYER_RECONCILED
360
58
  0
DICTIONARY
  5
3A4
330
3A3
100
AcDbDictionary
280
     1
281
     1
  3
ADSK_XREC_LAYER_RECONCILED
360
3A5
  0
DICTIONARY
  5
7F
330
7E
100
AcDbDictionary
280
     1
281
     1
  3
ADSK_XREC_LAYER_RECONCILED
360
80
  0
DICTIONARY
  5
1A17
330
1A16
100
AcDbDictionary
280
     1
281
     1
  0
DICTIONARY
  5
1A19
330
1A18
100
AcDbDictionary
280
     1
281
     1
  0
DICTIONARY
  5
1CFD
330
1CFC
100
AcDbDictionary
280
     1
281
     1
  0
DICTIONARY
  5
1CFF
330
1CFE
100
AcDbDictionary
280
     1
281
     1
  0
DICTIONARY
  5
234D
330
234C
100
AcDbDictionary
280
     1
281
     1
  0
DICTIONARY
  5
234F
330
234E
100
AcDbDictionary
280
     1
281
     1
  0
DICTIONARY
  5
2351
330
2350
100
AcDbDictionary
280
     1
281
     1
  0
DICTIONARY
  5
2353
330
2352
100
AcDbDictionary
280
     1
281
     1
  0
DICTIONARY
  5
2355
330
2354
100
AcDbDictionary
280
     1
281
     1
  0
DICTIONARY
  5
2357
330
2356
100
AcDbDictionary
280
     1
281
     1
  0
DICTIONARY
  5
3
330
2
100
AcDbDictionary
280
     1
281
     1
  3
ACAD_SORTENTS
360
790
  0
DICTIONARY
  5
30
330
2F
100
AcDbDictionary
280
     1
281
     1
  3
ACAD_SORTENTS
360
78F
  0
DICTIONARY
  5
2250
330
224F
100
AcDbDictionary
280
     1
281
     1
  3
ACAD_SORTENTS
360
2251
  0
DICTIONARY
  5
225F
330
225E
100
AcDbDictionary
280
     1
281
     1
  3
ACAD_SORTENTS
360
2260
  0
DICTIONARY
  5
2269
330
2268
100
AcDbDictionary
280
     1
281
     1
  3
ACAD_SORTENTS
360
226A
  0
DICTIONARY
  5
226F
330
226E
100
AcDbDictionary
280
     1
281
     1
  3
ACAD_SORTENTS
360
2270
  0
DICTIONARY
  5
53
102
{ACAD_REACTORS
330
B
102
}
330
B
100
AcDbDictionary
281
     1
  0
DICTIONARY
  5
4E
102
{ACAD_REACTORS
330
B
102
}
330
B
100
AcDbDictionary
281
     1
  0
DICTIONARY
  5
12
102
{ACAD_REACTORS
330
B
102
}
330
B
100
AcDbDictionary
281
     1
  3
Layout1
350
1943
  3
Model
350
11
  0
DICTIONARY
  5
D
102
{ACAD_REACTORS
330
B
102
}
330
B
100
AcDbDictionary
281
     1
  3
ByBlock
350
52
  3
ByLayer
350
51
  3
Global
350
C
  0
DICTIONARY
  5
7A8
102
{ACAD_REACTORS
330
B
102
}
330
B
100
AcDbDictionary
281
     1
  3
Standard
350
7A9
  0
DICTIONARY
  5
4F
102
{ACAD_REACTORS
330
B
102
}
330
B
100
AcDbDictionary
281
     1
  3
STANDARD
350
59
  0
DICTIONARY
  5
50
102
{ACAD_REACTORS
330
B
102
}
330
B
100
AcDbDictionary
281
     1
  0
ACDBDICTIONARYWDFLT
  5
A
102
{ACAD_REACTORS
330
B
102
}
330
B
100
AcDbDictionary
281
     1
  3
Medium
350
1D00
  3
Normal
350
9
  3
Style 1
350
235D
  3
Thin
350
235E
100
AcDbDictionaryWithDefault
340
9
  0
DICTIONARY
  5
54
102
{ACAD_REACTORS
330
B
102
}
330
B
100
AcDbDictionary
281
     1
  3
*A1
350
85B
  3
*A10
350
87C
  3
*A100
350
2368
  3
*A101
350
2369
  3
*A102
350
236A
  3
*A103
350
236B
  3
*A104
350
236C
  3
*A105
350
236D
  3
*A106
350
236E
  3
*A107
350
236F
  3
*A108
350
2370
  3
*A109
350
2371
  3
*A11
350
87D
  3
*A12
350
1331
  3
*A13
350
865
  3
*A14
350
860
  3
*A15
350
862
  3
*A16
350
132D
  3
*A17
350
87E
  3
*A18
350
168F
  3
*A19
350
1690
  3
*A2
350
1335
  3
*A20
350
1691
  3
*A21
350
868
  3
*A22
350
86A
  3
*A23
350
1332
  3
*A24
350
1692
  3
*A25
350
1693
  3
*A26
350
85E
  3
*A27
350
1694
  3
*A28
350
86F
  3
*A29
350
871
  3
*A3
350
1336
  3
*A30
350
1695
  3
*A31
350
882
  3
*A32
350
866
  3
*A33
350
86D
  3
*A34
350
876
  3
*A35
350
85D
  3
*A36
350
85F
  3
*A37
350
863
  3
*A38
350
85C
  3
*A39
350
874
  3
*A4
350
132C
  3
*A40
350
132E
  3
*A41
350
867
  3
*A42
350
1A1C
  3
*A43
350
864
  3
*A44
350
1A1D
  3
*A45
350
1333
  3
*A46
350
1A1E
  3
*A47
350
1A1F
  3
*A48
350
86C
  3
*A49
350
1A20
  3
*A5
350
1337
  3
*A50
350
1A21
  3
*A51
350
1A22
  3
*A52
350
873
  3
*A53
350
86B
  3
*A54
350
87A
  3
*A55
350
86E
  3
*A56
350
879
  3
*A57
350
872
  3
*A58
350
880
  3
*A59
350
875
  3
*A6
350
87F
  3
*A60
350
1D01
  3
*A61
350
878
  3
*A62
350
1D02
  3
*A63
350
1D03
  3
*A64
350
132F
  3
*A65
350
1D04
  3
*A66
350
1D05
  3
*A67
350
87B
  3
*A68
350
1D06
  3
*A69
350
1D07
  3
*A7
350
881
  3
*A70
350
861
  3
*A71
350
132B
  3
*A72
350
869
  3
*A73
350
1330
  3
*A74
350
2021
  3
*A75
350
2022
  3
*A76
350
2023
  3
*A77
350
2024
  3
*A78
350
870
  3
*A79
350
2025
  3
*A8
350
877
  3
*A80
350
2026
  3
*A81
350
2027
  3
*A82
350
2028
  3
*A83
350
2029
  3
*A84
350
202A
  3
*A85
350
202B
  3
*A86
350
202C
  3
*A87
350
202D
  3
*A88
350
202E
  3
*A89
350
1334
  3
*A9
350
1338
  3
*A90
350
202F
  3
*A91
350
235F
  3
*A92
350
2360
  3
*A93
350
2361
  3
*A94
350
2362
  3
*A95
350
2363
  3
*A96
350
2364
  3
*A97
350
2365
  3
*A98
350
2366
  3
*A99
350
2367
  3
A0
350
5E
  3
A1
350
5F
  3
A2
350
60
  3
A3
350
61
  3
A4
350
62
  3
A5
350
63
  3
A6
350
64
  3
A7
350
65
  3
A8
350
66
  3
A9
350
67
  3
B0
350
68
  3
B1
350
69
  3
B2
350
6A
  3
B3
350
6B
  3
B4
350
6C
  3
B5
350
6D
  3
B6
350
6E
  3
B7
350
6F
  3
B8
350
70
  3
B9
350
71
  3
C0
350
72
  0
DICTIONARY
  5
55
102
{ACAD_REACTORS
330
B
102
}
330
B
100
AcDbDictionary
281
     1
  3
Standard
350
5A
  0
DICTIONARY
  5
15
102
{ACAD_REACTORS
330
B
102
}
330
B
100
AcDbDictionary
281
     1
  3
2dWireframe
350
14
  3
3D Hidden
350
7A0
  3
3dWireframe
350
5D
  3
Basic
350
79F
  3
Brighten
350
7A3
  3
ColorChange
350
7A7
  3
Conceptual
350
7A1
  3
Dim
350
7A2
  3
Facepattern
350
7A6
  3
Flat
350
79B
  3
FlatWithEdges
350
79C
  3
Gouraud
350
79D
  3
GouraudWithEdges
350
79E
  3
Linepattern
350
7A5
  3
Phong
350
7B1
  3
PhongWithEdges
350
7B2
  3
Realistic
350
5C
  3
Thicken
350
7A4
  0
XRECORD
  5
794
102
{ACAD_REACTORS
330
B
102
}
330
B
100
AcDbXrecord
280
     1
 90
        1
330
5A
  0
DICTIONARY
  5
795
102
{ACAD_REACTORS
330
B
102
}
330
B
100
AcDbDictionary
281
     1
  3
CANNOSCALE
350
798
  3
CMLEADERSTYLE
350
797
  3
CTABLESTYLE
350
796
  3
DIMASSOC
350
2808
  3
HIDETEXT
350
2807
  3
INDEXCTL
350
2806
  3
LIGHTINGUNITS
350
799
  3
MSLTSCALE
350
2804
  3
SORTENTS
350
2805
  0
DICTIONARY
  5
952
102
{ACAD_REACTORS
330
B
102
}
330
B
100
AcDbDictionary
281
     1
  0
XRECORD
  5
280A
102
{ACAD_REACTORS
330
B
102
}
330
B
100
AcDbXrecord
280
     1
  1
DWGPROPS COOKIE
  2

  3

  4

  6

  7

  8
beata.rzonca
  9

300
=
301
=
302
=
303
=
304
=
305
=
306
=
307
=
308
=
309
=
 40
21.75416819444444
 41
2450817.525937848
 42
2454980.682148438
  1

 90
        0
  0
DICTIONARY
  5
1F
102
{ACAD_REACTORS
330
1E
102
}
330
1E
100
AcDbDictionary
281
     1
  0
XRECORD
  5
8
102
{ACAD_REACTORS
330
7
102
}
330
7
100
AcDbXrecord
280
     1
290
     1
  0
XRECORD
  5
76
102
{ACAD_REACTORS
330
75
102
}
330
75
100
AcDbXrecord
280
     1
290
     1
  0
XRECORD
  5
58
102
{ACAD_REACTORS
330
57
102
}
330
57
100
AcDbXrecord
280
     1
290
     1
  0
XRECORD
  5
3A5
102
{ACAD_REACTORS
330
3A4
102
}
330
3A4
100
AcDbXrecord
280
     1
290
     1
  0
XRECORD
  5
80
102
{ACAD_REACTORS
330
7F
102
}
330
7F
100
AcDbXrecord
280
     1
290
     1
  0
SORTENTSTABLE
  5
790
102
{ACAD_REACTORS
330
3
102
}
330
3
100
AcDbSortentsTable
330
2
331
2561
  5
2564
331
2569
  5
2571
331
2571
  5
2574
331
2579
  5
2588
331
24B2
  5
24B4
331
247B
  5
247B
331
2483
  5
2485
331
248B
  5
248D
331
2589
  5
258C
331
2548
  5
254A
331
2493
  5
2495
331
2550
  5
2553
331
249B
  5
249D
331
2558
  5
255B
331
24AB
  5
24AD
331
2562
  5
2565
331
256A
  5
2572
331
2572
  5
2575
331
24B3
  5
24B5
331
247C
  5
247C
331
2484
  5
2486
331
248C
  5
248E
331
2600
  5
2616
331
258A
  5
25B7
331
2647
  5
2659
331
2549
  5
254B
331
2494
  5
2496
331
2551
  5
2554
331
249C
  5
24AA
331
2559
  5
255C
331
24AC
  5
24AE
331
2563
  5
2566
331
256B
  5
2573
331
25E1
  5
247F
331
2628
  5
263A
331
2573
  5
2576
331
266F
  5
267A
331
24B4
  5
24B6
331
247D
  5
247D
331
2485
  5
2487
331
248D
  5
248F
331
1A9E
  5
1A9E
331
258B
  5
25EA
331
254A
  5
254C
331
2495
  5
2497
331
2552
  5
2555
331
249D
  5
24AB
331
255A
  5
255D
331
24AD
  5
24AF
331
2564
  5
2567
331
25EA
  5
2600
331
2574
  5
2577
331
24B5
  5
24B7
331
247E
  5
247E
331
2486
  5
2488
331
248E
  5
2490
331
254B
  5
254D
331
2496
  5
2498
331
2553
  5
2556
331
255B
  5
255F
331
24AE
  5
24B0
331
2565
  5
2568
331
2659
  5
2664
331
2575
  5
2579
331
24B6
  5
24B8
331
247F
  5
2481
331
2487
  5
2489
331
248F
  5
2491
331
1AA0
  5
1AA0
331
263A
  5
2647
331
254C
  5
254E
331
2497
  5
2499
331
2554
  5
2557
331
255C
  5
2560
331
24AF
  5
24B1
331
2566
  5
2569
331
2691
  5
2550
331
2576
  5
2586
331
24B7
  5
24B9
331
2478
  5
2478
331
2480
  5
2482
331
2488
  5
248A
331
1AA1
  5
1AA1
331
2586
  5
2589
331
267A
  5
268C
331
2490
  5
2492
331
254D
  5
254F
331
2498
  5
249A
331
2555
  5
2558
331
255D
  5
2561
331
1A8A
  5
1A8A
331
2567
  5
256A
331
2577
  5
2587
331
24B0
  5
24B2
331
24B8
  5
2546
331
2479
  5
2479
331
2481
  5
2483
331
2489
  5
248B
331
2546
  5
2548
331
1AA2
  5
1AA2
331
2587
  5
258A
331
2491
  5
2493
331
254E
  5
2551
331
2499
  5
249B
331
2556
  5
2559
331
1A8B
  5
1A8B
331
2560
  5
2563
331
2568
  5
256B
331
2664
  5
266F
331
24B1
  5
24B3
331
24B9
  5
2547
331
247A
  5
247A
331
2482
  5
2484
331
248A
  5
248C
331
2547
  5
2549
331
2588
  5
258B
331
2616
  5
2628
331
2492
  5
2494
331
254F
  5
2552
331
249A
  5
249C
331
2557
  5
255A
331
255F
  5
2562
331
24AA
  5
24AC
  0
SORTENTSTABLE
  5
78F
102
{ACAD_REACTORS
330
30
102
}
330
30
100
AcDbSortentsTable
330
2F
  0
SORTENTSTABLE
  5
2251
102
{ACAD_REACTORS
330
2250
102
}
330
2250
100
AcDbSortentsTable
330
224F
  0
SORTENTSTABLE
  5
2260
102
{ACAD_REACTORS
330
225F
102
}
330
225F
100
AcDbSortentsTable
330
225E
  0
SORTENTSTABLE
  5
226A
102
{ACAD_REACTORS
330
2269
102
}
330
2269
100
AcDbSortentsTable
330
2268
  0
SORTENTSTABLE
  5
2270
102
{ACAD_REACTORS
330
226F
102
}
330
226F
100
AcDbSortentsTable
330
226E
  0
LAYOUT
  5
1943
102
{ACAD_XDICTIONARY
360
2814
102
}
102
{ACAD_REACTORS
330
12
102
}
330
12
100
AcDbPlotSettings
  1

  2
CutePDF Writer
  4

  6

 40
0.0
 41
0.0
 42
0.0
 43
0.0
 44
0.0
 45
0.0
 46
0.0
 47
0.0
 48
0.0
 49
0.0
140
0.0
141
0.0
142
1.0
143
1.0
 70
   688
 72
     0
 73
     0
 74
     5
  7

 75
    16
147
1.0
148
0.0
149
0.0
100
AcDbLayout
  1
Layout1
 70
     1
 71
     1
 10
0.0
 20
0.0
 11
12.0
 21
9.0
 12
0.0
 22
0.0
 32
0.0
 14
0.0
 24
0.0
 34
0.0
 15
0.0
 25
0.0
 35
0.0
146
0.0
 13
0.0
 23
0.0
 33
0.0
 16
1.0
 26
0.0
 36
0.0
 17
0.0
 27
1.0
 37
0.0
 76
     0
330
1942
  0
LAYOUT
  5
11
102
{ACAD_XDICTIONARY
360
280D
102
}
102
{ACAD_REACTORS
330
12
102
}
330
12
100
AcDbPlotSettings
  1

  2
RICOH Aficio AP610N PCL 5e
  4
A4
  6
10-ele
 40
6.805083274841308
 41
5.027085781097412
 42
6.974411010742187
 43
5.027069091796875
 44
209.9733276367187
 45
296.9259948730469
 46
-3.903083324432671
 47
3.235920000076276
 48
67057.75918130524
 49
-45526.33714755503
140
77257.75918130527
141
-31506.33714755504
142
1.0
143
50.0
 70
 11940
 72
     1
 73
     0
 74
     4
  7
monochrome_140.ctb
 75
     0
147
0.0192346895442289
148
-67057.75918130524
149
45526.33714755503
100
AcDbLayout
  1
Model
 70
     1
 71
     0
 10
0.0
 20
0.0
 11
12.0
 21
9.0
 12
0.0
 22
0.0
 32
0.0
 14
0.0
 24
0.0
 34
0.0
 15
0.0
 25
0.0
 35
0.0
146
0.0
 13
0.0
 23
0.0
 33
0.0
 16
1.0
 26
0.0
 36
0.0
 17
0.0
 27
1.0
 37
0.0
 76
     0
330
2
331
29
1001
ACAD_PSEXT
1000
RICOH Aficio AP610N PCL 5e
1000
RICOH Aficio AP610N PCL 5e
1000
IP_192.168.0.252_tech
1000

1070
     0
  0
MATERIAL
  5
52
102
{ACAD_XDICTIONARY
360
2811
102
}
102
{ACAD_REACTORS
330
D
102
}
330
D
100
AcDbMaterial
  1
ByBlock
 73
     1
 78
     1
172
     1
176
     1
270
     1
274
     1
  0
MATERIAL
  5
51
102
{ACAD_XDICTIONARY
360
280F
102
}
102
{ACAD_REACTORS
330
D
102
}
330
D
100
AcDbMaterial
  1
ByLayer
 73
     1
 78
     1
172
     1
176
     1
270
     1
274
     1
  0
MATERIAL
  5
C
102
{ACAD_XDICTIONARY
360
280B
102
}
102
{ACAD_REACTORS
330
D
102
}
330
D
100
AcDbMaterial
  1
Global
 73
     1
 78
     1
172
     1
176
     1
270
     1
274
     1
  0
MLEADERSTYLE
  5
7A9
102
{ACAD_REACTORS
330
7A8
102
}
330
7A8
100
AcDbMLeaderStyle
170
     2
171
     1
172
     0
 90
        2
 40
0.0
 41
0.0
173
     1
 91
-1056964608
340
24
 92
       -2
290
     1
 42
0.09
291
     1
 43
0.36
  3
Standard
 44
0.18
300

342
21
174
     1
178
     6
175
     1
176
     0
 93
-1056964608
 45
0.18
292
     0
297
     0
 46
0.18
 94
-1056964608
 47
1.0
 49
1.0
140
1.0
293
     1
141
0.0
294
     1
177
     0
142
1.0
295
     0
296
     0
143
0.125
1001
ACAD_MLEADERVER
1070
     2
  0
MLINESTYLE
  5
59
102
{ACAD_REACTORS
330
4F
102
}
330
4F
100
AcDbMlineStyle
  2
STANDARD
 70
     0
  3

 62
     0
 51
90.0
 52
90.0
 71
     2
 49
0.5
 62
   256
  6
BYLAYER
 49
-0.5
 62
   256
  6
BYLAYER
  0
ACDBPLACEHOLDER
  5
1D00
102
{ACAD_REACTORS
330
A
102
}
330
A
  0
ACDBPLACEHOLDER
  5
9
102
{ACAD_REACTORS
330
A
102
}
330
A
  0
ACDBPLACEHOLDER
  5
235D
102
{ACAD_REACTORS
330
A
102
}
330
A
  0
ACDBPLACEHOLDER
  5
235E
102
{ACAD_REACTORS
330
A
102
}
330
A
  0
SCALE
  5
85B
102
{ACAD_REACTORS
330
54
102
}
330
54
100
AcDbScale
 70
     0
300
1:1_2
140
1.0
141
1.0
290
     0
  0
SCALE
  5
87C
102
{ACAD_REACTORS
330
54
102
}
330
54
100
AcDbScale
 70
     0
300
1/2" = 1'-0"
140
0.5
141
12.0
290
     0
  0
SCALE
  5
2368
102
{ACAD_REACTORS
330
54
102
}
330
54
100
AcDbScale
 70
     0
300
1:10_XREF
140
1.0
141
10.0
290
     0
  0
SCALE
  5
2369
102
{ACAD_REACTORS
330
54
102
}
330
54
100
AcDbScale
 70
     0
300
1:16_XREF
140
1.0
141
16.0
290
     0
  0
SCALE
  5
236A
102
{ACAD_REACTORS
330
54
102
}
330
54
100
AcDbScale
 70
     0
300
1:20_XREF
140
1.0
141
20.0
290
     0
  0
SCALE
  5
236B
102
{ACAD_REACTORS
330
54
102
}
330
54
100
AcDbScale
 70
     0
300
1:30_XREF
140
1.0
141
30.0
290
     0
  0
SCALE
  5
236C
102
{ACAD_REACTORS
330
54
102
}
330
54
100
AcDbScale
 70
     0
300
1:100_XREF
140
1.0
141
100.0
290
     0
  0
SCALE
  5
236D
102
{ACAD_REACTORS
330
54
102
}
330
54
100
AcDbScale
 70
     0
300
2:1_XREF
140
2.0
141
1.0
290
     0
  0
SCALE
  5
236E
102
{ACAD_REACTORS
330
54
102
}
330
54
100
AcDbScale
 70
     0
300
4:1_XREF
140
4.0
141
1.0
290
     0
  0
SCALE
  5
236F
102
{ACAD_REACTORS
330
54
102
}
330
54
100
AcDbScale
 70
     0
300
8:1_XREF
140
8.0
141
1.0
290
     0
  0
SCALE
  5
2370
102
{ACAD_REACTORS
330
54
102
}
330
54
100
AcDbScale
 70
     0
300
10:1_XREF
140
10.0
141
1.0
290
     0
  0
SCALE
  5
2371
102
{ACAD_REACTORS
330
54
102
}
330
54
100
AcDbScale
 70
     0
300
100:1_XREF
140
100.0
141
1.0
290
     0
  0
SCALE
  5
87D
102
{ACAD_REACTORS
330
54
102
}
330
54
100
AcDbScale
 70
     0
300
3/4" = 1'-0"
140
0.75
141
12.0
290
     0
  0
SCALE
  5
1331
102
{ACAD_REACTORS
330
54
102
}
330
54
100
AcDbScale
 70
     0
300
1:2_3
140
1.0
141
0.2
290
     0
  0
SCALE
  5
865
102
{ACAD_REACTORS
330
54
102
}
330
54
100
AcDbScale
 70
     0
300
1:5_1
140
1.0
141
5.0
290
     0
  0
SCALE
  5
860
102
{ACAD_REACTORS
330
54
102
}
330
54
100
AcDbScale
 70
     0
300
1:50_2
140
1.0
141
50.0
290
     0
  0
SCALE
  5
862
102
{ACAD_REACTORS
330
54
102
}
330
54
100
AcDbScale
 70
     0
300
1:1_1
140
1.0
141
1.0
290
     0
  0
SCALE
  5
132D
102
{ACAD_REACTORS
330
54
102
}
330
54
100
AcDbScale
 70
     0
300
1:20_3
140
1.0
141
2.0
290
     0
  0
SCALE
  5
87E
102
{ACAD_REACTORS
330
54
102
}
330
54
100
AcDbScale
 70
     0
300
1" = 1'-0"
140
1.0
141
12.0
290
     0
  0
SCALE
  5
168F
102
{ACAD_REACTORS
330
54
102
}
330
54
100
AcDbScale
 70
     0
300
1:1_3_1
140
1.0
141
1.0
290
     0
  0
SCALE
  5
1690
102
{ACAD_REACTORS
330
54
102
}
330
54
100
AcDbScale
 70
     0
300
1:2_3_1
140
1.0
141
2.0
290
     0
  0
SCALE
  5
1335
102
{ACAD_REACTORS
330
54
102
}
330
54
100
AcDbScale
 70
     0
300
1:10_4
140
1.0
141
10.0
290
     0
  0
SCALE
  5
1691
102
{ACAD_REACTORS
330
54
102
}
330
54
100
AcDbScale
 70
     0
300
1:5_3_1
140
1.0
141
5.0
290
     0
  0
SCALE
  5
868
102
{ACAD_REACTORS
330
54
102
}
330
54
100
AcDbScale
 70
     0
300
1:16
140
1.0
141
16.0
290
     0
  0
SCALE
  5
86A
102
{ACAD_REACTORS
330
54
102
}
330
54
100
AcDbScale
 70
     0
300
1:30
140
1.0
141
30.0
290
     0
  0
SCALE
  5
1332
102
{ACAD_REACTORS
330
54
102
}
330
54
100
AcDbScale
 70
     0
300
1:1_4
140
1.0
141
1.0
290
     0
  0
SCALE
  5
1692
102
{ACAD_REACTORS
330
54
102
}
330
54
100
AcDbScale
 70
     0
300
1:10_3_1
140
1.0
141
10.0
290
     0
  0
SCALE
  5
1693
102
{ACAD_REACTORS
330
54
102
}
330
54
100
AcDbScale
 70
     0
300
1:20_3_1
140
1.0
141
20.0
290
     0
  0
SCALE
  5
85E
102
{ACAD_REACTORS
330
54
102
}
330
54
100
AcDbScale
 70
     0
300
1:10_2
140
1.0
141
10.0
290
     0
  0
SCALE
  5
1694
102
{ACAD_REACTORS
330
54
102
}
330
54
100
AcDbScale
 70
     0
300
1:50_3_1
140
1.0
141
50.0
290
     0
  0
SCALE
  5
86F
102
{ACAD_REACTORS
330
54
102
}
330
54
100
AcDbScale
 70
     0
300
4:1
140
4.0
141
1.0
290
     0
  0
SCALE
  5
871
102
{ACAD_REACTORS
330
54
102
}
330
54
100
AcDbScale
 70
     0
300
10:1
140
10.0
141
1.0
290
     0
  0
SCALE
  5
1336
102
{ACAD_REACTORS
330
54
102
}
330
54
100
AcDbScale
 70
     0
300
1:20_4
140
1.0
141
20.0
290
     0
  0
SCALE
  5
1695
102
{ACAD_REACTORS
330
54
102
}
330
54
100
AcDbScale
 70
     0
300
1:100_3_1
140
1.0
141
100.0
290
     0
  0
SCALE
  5
882
102
{ACAD_REACTORS
330
54
102
}
330
54
100
AcDbScale
 70
     0
300
1'-0" = 1'-0"
140
12.0
141
12.0
290
     0
  0
SCALE
  5
866
102
{ACAD_REACTORS
330
54
102
}
330
54
100
AcDbScale
 70
     0
300
1:8
140
1.0
141
8.0
290
     0
  0
SCALE
  5
86D
102
{ACAD_REACTORS
330
54
102
}
330
54
100
AcDbScale
 70
     0
300
1:100_1
140
1.0
141
100.0
290
     0
  0
SCALE
  5
876
102
{ACAD_REACTORS
330
54
102
}
330
54
100
AcDbScale
 70
     0
300
1/16" = 1'-0"
140
0.0625
141
12.0
290
     0
  0
SCALE
  5
85D
102
{ACAD_REACTORS
330
54
102
}
330
54
100
AcDbScale
 70
     0
300
1:5_2
140
1.0
141
5.0
290
     0
  0
SCALE
  5
85F
102
{ACAD_REACTORS
330
54
102
}
330
54
100
AcDbScale
 70
     0
300
1:20_2
140
1.0
141
20.0
290
     0
  0
SCALE
  5
863
102
{ACAD_REACTORS
330
54
102
}
330
54
100
AcDbScale
 70
     0
300
1:2_1
140
1.0
141
2.0
290
     0
  0
SCALE
  5
85C
102
{ACAD_REACTORS
330
54
102
}
330
54
100
AcDbScale
 70
     0
300
1:2_2
140
1.0
141
2.0
290
     0
  0
SCALE
  5
874
102
{ACAD_REACTORS
330
54
102
}
330
54
100
AcDbScale
 70
     0
300
1/64" = 1'-0"
140
0.015625
141
12.0
290
     0
  0
SCALE
  5
132C
102
{ACAD_REACTORS
330
54
102
}
330
54
100
AcDbScale
 70
     0
300
1:10_3
140
1.0
141
1.0
290
     0
  0
SCALE
  5
132E
102
{ACAD_REACTORS
330
54
102
}
330
54
100
AcDbScale
 70
     0
300
1:50_3
140
1.0
141
5.0
290
     0
  0
SCALE
  5
867
102
{ACAD_REACTORS
330
54
102
}
330
54
100
AcDbScale
 70
     0
300
1:10_1
140
1.0
141
10.0
290
     0
  0
SCALE
  5
1A1C
102
{ACAD_REACTORS
330
54
102
}
330
54
100
AcDbScale
 70
     0
300
1:1_5
140
1.0
141
1.0
290
     0
  0
SCALE
  5
864
102
{ACAD_REACTORS
330
54
102
}
330
54
100
AcDbScale
 70
     0
300
1:4
140
1.0
141
4.0
290
     0
  0
SCALE
  5
1A1D
102
{ACAD_REACTORS
330
54
102
}
330
54
100
AcDbScale
 70
     0
300
1:2_5
140
1.0
141
2.0
290
     0
  0
SCALE
  5
1333
102
{ACAD_REACTORS
330
54
102
}
330
54
100
AcDbScale
 70
     0
300
1:2_4
140
1.0
141
2.0
290
     0
  0
SCALE
  5
1A1E
102
{ACAD_REACTORS
330
54
102
}
330
54
100
AcDbScale
 70
     0
300
1:5_5
140
1.0
141
5.0
290
     0
  0
SCALE
  5
1A1F
102
{ACAD_REACTORS
330
54
102
}
330
54
100
AcDbScale
 70
     0
300
1:10_5
140
1.0
141
10.0
290
     0
  0
SCALE
  5
86C
102
{ACAD_REACTORS
330
54
102
}
330
54
100
AcDbScale
 70
     0
300
1:50_1
140
1.0
141
50.0
290
     0
  0
SCALE
  5
1A20
102
{ACAD_REACTORS
330
54
102
}
330
54
100
AcDbScale
 70
     0
300
1:20_5
140
1.0
141
20.0
290
     0
  0
SCALE
  5
1337
102
{ACAD_REACTORS
330
54
102
}
330
54
100
AcDbScale
 70
     0
300
1:50_4
140
1.0
141
50.0
290
     0
  0
SCALE
  5
1A21
102
{ACAD_REACTORS
330
54
102
}
330
54
100
AcDbScale
 70
     0
300
1:50_5
140
1.0
141
50.0
290
     0
  0
SCALE
  5
1A22
102
{ACAD_REACTORS
330
54
102
}
330
54
100
AcDbScale
 70
     0
300
1:100_5
140
1.0
141
100.0
290
     0
  0
SCALE
  5
873
102
{ACAD_REACTORS
330
54
102
}
330
54
100
AcDbScale
 70
     0
300
1/128" = 1'-0"
140
0.0078125
141
12.0
290
     0
  0
SCALE
  5
86B
102
{ACAD_REACTORS
330
54
102
}
330
54
100
AcDbScale
 70
     0
300
1:40
140
1.0
141
40.0
290
     0
  0
SCALE
  5
87A
102
{ACAD_REACTORS
330
54
102
}
330
54
100
AcDbScale
 70
     0
300
1/4" = 1'-0"
140
0.25
141
12.0
290
     0
  0
SCALE
  5
86E
102
{ACAD_REACTORS
330
54
102
}
330
54
100
AcDbScale
 70
     0
300
2:1
140
2.0
141
1.0
290
     0
  0
SCALE
  5
879
102
{ACAD_REACTORS
330
54
102
}
330
54
100
AcDbScale
 70
     0
300
3/16" = 1'-0"
140
0.1875
141
12.0
290
     0
  0
SCALE
  5
872
102
{ACAD_REACTORS
330
54
102
}
330
54
100
AcDbScale
 70
     0
300
100:1
140
100.0
141
1.0
290
     0
  0
SCALE
  5
880
102
{ACAD_REACTORS
330
54
102
}
330
54
100
AcDbScale
 70
     0
300
3" = 1'-0"
140
3.0
141
12.0
290
     0
  0
SCALE
  5
875
102
{ACAD_REACTORS
330
54
102
}
330
54
100
AcDbScale
 70
     0
300
1/32" = 1'-0"
140
0.03125
141
12.0
290
     0
  0
SCALE
  5
87F
102
{ACAD_REACTORS
330
54
102
}
330
54
100
AcDbScale
 70
     0
300
1-1/2" = 1'-0"
140
1.5
141
12.0
290
     0
  0
SCALE
  5
1D01
102
{ACAD_REACTORS
330
54
102
}
330
54
100
AcDbScale
 70
     0
300
1:1_6
140
1.0
141
1.0
290
     0
  0
SCALE
  5
878
102
{ACAD_REACTORS
330
54
102
}
330
54
100
AcDbScale
 70
     0
300
1/8" = 1'-0"
140
0.125
141
12.0
290
     0
  0
SCALE
  5
1D02
102
{ACAD_REACTORS
330
54
102
}
330
54
100
AcDbScale
 70
     0
300
1:2_6
140
1.0
141
2.0
290
     0
  0
SCALE
  5
1D03
102
{ACAD_REACTORS
330
54
102
}
330
54
100
AcDbScale
 70
     0
300
1:5_6
140
1.0
141
5.0
290
     0
  0
SCALE
  5
132F
102
{ACAD_REACTORS
330
54
102
}
330
54
100
AcDbScale
 70
     0
300
1:100_3
140
1.0
141
10.0
290
     0
  0
SCALE
  5
1D04
102
{ACAD_REACTORS
330
54
102
}
330
54
100
AcDbScale
 70
     0
300
1:10_6
140
1.0
141
10.0
290
     0
  0
SCALE
  5
1D05
102
{ACAD_REACTORS
330
54
102
}
330
54
100
AcDbScale
 70
     0
300
1:20_6
140
1.0
141
20.0
290
     0
  0
SCALE
  5
87B
102
{ACAD_REACTORS
330
54
102
}
330
54
100
AcDbScale
 70
     0
300
3/8" = 1'-0"
140
0.375
141
12.0
290
     0
  0
SCALE
  5
1D06
102
{ACAD_REACTORS
330
54
102
}
330
54
100
AcDbScale
 70
     0
300
1:50_6
140
1.0
141
50.0
290
     0
  0
SCALE
  5
1D07
102
{ACAD_REACTORS
330
54
102
}
330
54
100
AcDbScale
 70
     0
300
1:100_6
140
1.0
141
100.0
290
     0
  0
SCALE
  5
881
102
{ACAD_REACTORS
330
54
102
}
330
54
100
AcDbScale
 70
     0
300
6" = 1'-0"
140
6.0
141
12.0
290
     0
  0
SCALE
  5
861
102
{ACAD_REACTORS
330
54
102
}
330
54
100
AcDbScale
 70
     0
300
1:100_2
140
1.0
141
100.0
290
     0
  0
SCALE
  5
132B
102
{ACAD_REACTORS
330
54
102
}
330
54
100
AcDbScale
 70
     0
300
1:5_3
140
1.0
141
0.5
290
     0
  0
SCALE
  5
869
102
{ACAD_REACTORS
330
54
102
}
330
54
100
AcDbScale
 70
     0
300
1:20_1
140
1.0
141
20.0
290
     0
  0
SCALE
  5
1330
102
{ACAD_REACTORS
330
54
102
}
330
54
100
AcDbScale
 70
     0
300
1:1_3
140
1.0
141
0.1
290
     0
  0
SCALE
  5
2021
102
{ACAD_REACTORS
330
54
102
}
330
54
100
AcDbScale
 70
     0
300
1/64" = 1'-0"_XREF
140
0.015625
141
12.0
290
     0
1001
ACAD
1000
AcRTDxfName
1000
SCALE
  0
SCALE
  5
2022
102
{ACAD_REACTORS
330
54
102
}
330
54
100
AcDbScale
 70
     0
300
1 1/2" = 1'-0"_XREF
140
1.5
141
12.0
290
     0
1001
ACAD
1000
AcRTDxfName
1000
SCALE
  0
SCALE
  5
2023
102
{ACAD_REACTORS
330
54
102
}
330
54
100
AcDbScale
 70
     0
300
3" = 1'-0"_XREF
140
3.0
141
12.0
290
     0
1001
ACAD
1000
AcRTDxfName
1000
SCALE
  0
SCALE
  5
2024
102
{ACAD_REACTORS
330
54
102
}
330
54
100
AcDbScale
 70
     0
300
6" = 1'-0"_XREF
140
6.0
141
12.0
290
     0
1001
ACAD
1000
AcRTDxfName
1000
SCALE
  0
SCALE
  5
870
102
{ACAD_REACTORS
330
54
102
}
330
54
100
AcDbScale
 70
     0
300
8:1
140
8.0
141
1.0
290
     0
  0
SCALE
  5
2025
102
{ACAD_REACTORS
330
54
102
}
330
54
100
AcDbScale
 70
     0
300
1'-0" = 1'-0"_XREF
140
12.0
141
12.0
290
     0
1001
ACAD
1000
AcRTDxfName
1000
SCALE
  0
SCALE
  5
877
102
{ACAD_REACTORS
330
54
102
}
330
54
100
AcDbScale
 70
     0
300
3/32" = 1'-0"
140
0.09375
141
12.0
290
     0
  0
SCALE
  5
2026
102
{ACAD_REACTORS
330
54
102
}
330
54
100
AcDbScale
 70
     0
300
1/32" = 1'-0"_XREF
140
0.03125
141
12.0
290
     0
1001
ACAD
1000
AcRTDxfName
1000
SCALE
  0
SCALE
  5
2027
102
{ACAD_REACTORS
330
54
102
}
330
54
100
AcDbScale
 70
     0
300
1/16" = 1'-0"_XREF
140
0.0625
141
12.0
290
     0
1001
ACAD
1000
AcRTDxfName
1000
SCALE
  0
SCALE
  5
2028
102
{ACAD_REACTORS
330
54
102
}
330
54
100
AcDbScale
 70
     0
300
3/32" = 1'-0"_XREF
140
0.09375
141
12.0
290
     0
1001
ACAD
1000
AcRTDxfName
1000
SCALE
  0
SCALE
  5
2029
102
{ACAD_REACTORS
330
54
102
}
330
54
100
AcDbScale
 70
     0
300
1/8" = 1'-0"_XREF
140
0.125
141
12.0
290
     0
1001
ACAD
1000
AcRTDxfName
1000
SCALE
  0
SCALE
  5
202A
102
{ACAD_REACTORS
330
54
102
}
330
54
100
AcDbScale
 70
     0
300
3/16" = 1'-0"_XREF
140
0.1875
141
12.0
290
     0
1001
ACAD
1000
AcRTDxfName
1000
SCALE
  0
SCALE
  5
202B
102
{ACAD_REACTORS
330
54
102
}
330
54
100
AcDbScale
 70
     0
300
1/4" = 1'-0"_XREF
140
0.25
141
12.0
290
     0
1001
ACAD
1000
AcRTDxfName
1000
SCALE
  0
SCALE
  5
202C
102
{ACAD_REACTORS
330
54
102
}
330
54
100
AcDbScale
 70
     0
300
3/8" = 1'-0"_XREF
140
0.375
141
12.0
290
     0
1001
ACAD
1000
AcRTDxfName
1000
SCALE
  0
SCALE
  5
202D
102
{ACAD_REACTORS
330
54
102
}
330
54
100
AcDbScale
 70
     0
300
1/2" = 1'-0"_XREF
140
0.5
141
12.0
290
     0
1001
ACAD
1000
AcRTDxfName
1000
SCALE
  0
SCALE
  5
202E
102
{ACAD_REACTORS
330
54
102
}
330
54
100
AcDbScale
 70
     0
300
3/4" = 1'-0"_XREF
140
0.75
141
12.0
290
     0
1001
ACAD
1000
AcRTDxfName
1000
SCALE
  0
SCALE
  5
1334
102
{ACAD_REACTORS
330
54
102
}
330
54
100
AcDbScale
 70
     0
300
1:5_4
140
1.0
141
5.0
290
     0
  0
SCALE
  5
1338
102
{ACAD_REACTORS
330
54
102
}
330
54
100
AcDbScale
 70
     0
300
1:100_4
140
1.0
141
100.0
290
     0
  0
SCALE
  5
202F
102
{ACAD_REACTORS
330
54
102
}
330
54
100
AcDbScale
 70
     0
300
1" = 1'-0"_XREF
140
1.0
141
12.0
290
     0
1001
ACAD
1000
AcRTDxfName
1000
SCALE
  0
SCALE
  5
235F
102
{ACAD_REACTORS
330
54
102
}
330
54
100
AcDbScale
 70
     0
300
1:1_XREF
140
1.0
141
1.0
290
     0
  0
SCALE
  5
2360
102
{ACAD_REACTORS
330
54
102
}
330
54
100
AcDbScale
 70
     0
300
1/128" = 1'-0"_XREF
140
0.0078125
141
12.0
290
     0
  0
SCALE
  5
2361
102
{ACAD_REACTORS
330
54
102
}
330
54
100
AcDbScale
 70
     0
300
1:2_XREF
140
1.0
141
2.0
290
     0
  0
SCALE
  5
2362
102
{ACAD_REACTORS
330
54
102
}
330
54
100
AcDbScale
 70
     0
300
1:40_XREF
140
1.0
141
40.0
290
     0
  0
SCALE
  5
2363
102
{ACAD_REACTORS
330
54
102
}
330
54
100
AcDbScale
 70
     0
300
1:4_XREF
140
1.0
141
4.0
290
     0
  0
SCALE
  5
2364
102
{ACAD_REACTORS
330
54
102
}
330
54
100
AcDbScale
 70
     0
300
1-1/2" = 1'-0"_XREF
140
1.5
141
12.0
290
     0
  0
SCALE
  5
2365
102
{ACAD_REACTORS
330
54
102
}
330
54
100
AcDbScale
 70
     0
300
1:5_XREF
140
1.0
141
5.0
290
     0
  0
SCALE
  5
2366
102
{ACAD_REACTORS
330
54
102
}
330
54
100
AcDbScale
 70
     0
300
1:8_XREF
140
1.0
141
8.0
290
     0
  0
SCALE
  5
2367
102
{ACAD_REACTORS
330
54
102
}
330
54
100
AcDbScale
 70
     0
300
1:50_XREF
140
1.0
141
50.0
290
     0
  0
SCALE
  5
5E
102
{ACAD_REACTORS
330
54
102
}
330
54
100
AcDbScale
 70
     0
300
1:1
140
1.0
141
0.1
290
     0
  0
SCALE
  5
5F
102
{ACAD_REACTORS
330
54
102
}
330
54
100
AcDbScale
 70
     0
300
1:2
140
1.0
141
0.2
290
     0
  0
SCALE
  5
60
102
{ACAD_REACTORS
330
54
102
}
330
54
100
AcDbScale
 70
     0
300
1:2.5
140
1.0
141
0.25
290
     0
  0
SCALE
  5
61
102
{ACAD_REACTORS
330
54
102
}
330
54
100
AcDbScale
 70
     0
300
1:5
140
1.0
141
0.5
290
     0
  0
SCALE
  5
62
102
{ACAD_REACTORS
330
54
102
}
330
54
100
AcDbScale
 70
     0
300
1:7.5
140
1.0
141
0.75
290
     0
  0
SCALE
  5
63
102
{ACAD_REACTORS
330
54
102
}
330
54
100
AcDbScale
 70
     0
300
1:10
140
1.0
141
1.0
290
     1
  0
SCALE
  5
64
102
{ACAD_REACTORS
330
54
102
}
330
54
100
AcDbScale
 70
     0
300
1:20
140
1.0
141
2.0
290
     0
  0
SCALE
  5
65
102
{ACAD_REACTORS
330
54
102
}
330
54
100
AcDbScale
 70
     0
300
1:25
140
1.0
141
2.5
290
     0
  0
SCALE
  5
66
102
{ACAD_REACTORS
330
54
102
}
330
54
100
AcDbScale
 70
     0
300
1:50
140
1.0
141
5.0
290
     0
  0
SCALE
  5
67
102
{ACAD_REACTORS
330
54
102
}
330
54
100
AcDbScale
 70
     0
300
1:75
140
1.0
141
7.5
290
     0
  0
SCALE
  5
68
102
{ACAD_REACTORS
330
54
102
}
330
54
100
AcDbScale
 70
     0
300
1:100
140
1.0
141
10.0
290
     0
  0
SCALE
  5
69
102
{ACAD_REACTORS
330
54
102
}
330
54
100
AcDbScale
 70
     0
300
1:150
140
1.0
141
15.0
290
     0
  0
SCALE
  5
6A
102
{ACAD_REACTORS
330
54
102
}
330
54
100
AcDbScale
 70
     0
300
1:200
140
1.0
141
20.0
290
     0
  0
SCALE
  5
6B
102
{ACAD_REACTORS
330
54
102
}
330
54
100
AcDbScale
 70
     0
300
1:250
140
1.0
141
25.0
290
     0
  0
SCALE
  5
6C
102
{ACAD_REACTORS
330
54
102
}
330
54
100
AcDbScale
 70
     0
300
1:500
140
1.0
141
50.0
290
     0
  0
SCALE
  5
6D
102
{ACAD_REACTORS
330
54
102
}
330
54
100
AcDbScale
 70
     0
300
1:750
140
1.0
141
75.0
290
     0
  0
SCALE
  5
6E
102
{ACAD_REACTORS
330
54
102
}
330
54
100
AcDbScale
 70
     0
300
1:1000
140
1.0
141
100.0
290
     0
  0
SCALE
  5
6F
102
{ACAD_REACTORS
330
54
102
}
330
54
100
AcDbScale
 70
     0
300
1:1250
140
1.0
141
125.0
290
     0
  0
SCALE
  5
70
102
{ACAD_REACTORS
330
54
102
}
330
54
100
AcDbScale
 70
     0
300
1:2000
140
1.0
141
200.0
290
     0
  0
SCALE
  5
71
102
{ACAD_REACTORS
330
54
102
}
330
54
100
AcDbScale
 70
     0
300
1:2500
140
1.0
141
250.0
290
     0
  0
SCALE
  5
72
102
{ACAD_REACTORS
330
54
102
}
330
54
100
AcDbScale
 70
     0
300
1:5000
140
1.0
141
500.0
290
     0
  0
TABLESTYLE
  5
5A
102
{ACAD_XDICTIONARY
360
5B
102
}
102
{ACAD_REACTORS
330
55
102
}
330
55
100
AcDbTableStyle
  3
Standard
 70
     0
 71
     0
 40
0.06
 41
0.06
280
     0
281
     0
  7
STANDARD
140
0.18
170
     2
 62
     0
 63
     7
283
     0
274
    -2
284
     1
 64
     0
275
    -2
285
     1
 65
     0
276
    -2
286
     1
 66
     0
277
    -2
287
     1
 67
     0
278
    -2
288
     1
 68
     0
279
    -2
289
     1
 69
     0
  7
STANDARD
140
0.25
170
     5
 62
     0
 63
     7
283
     0
274
    -2
284
     1
 64
     0
275
    -2
285
     1
 65
     0
276
    -2
286
     1
 66
     0
277
    -2
287
     1
 67
     0
278
    -2
288
     1
 68
     0
279
    -2
289
     1
 69
     0
  7
STANDARD
140
0.18
170
     5
 62
     0
 63
     7
283
     0
274
    -2
284
     1
 64
     0
275
    -2
285
     1
 65
     0
276
    -2
286
     1
 66
     0
277
    -2
287
     1
 67
     0
278
    -2
288
     1
 68
     0
279
    -2
289
     1
 69
     0
  0
VISUALSTYLE
  5
14
102
{ACAD_REACTORS
330
15
102
}
330
15
100
AcDbVisualStyle
  2
2dWireframe
 70
     4
 71
     0
 72
     2
 73
     0
 90
        0
 40
-0.6
 41
-30.0
 62
     5
 63
     7
 74
     1
 91
        4
 64
     7
 65
   257
 75
     1
175
     1
 42
1.0
 92
        0
 66
   257
 43
1.0
 76
     1
 77
     6
 78
     2
 67
     7
 79
     5
170
     0
171
     0
290
     0
174
     0
 93
        1
 44
0.0
173
     0
291
     0
 45
0.0
1001
ACAD
1000
AcDbSavedByObjectVersion
1070
     0
  0
VISUALSTYLE
  5
7A0
102
{ACAD_REACTORS
330
15
102
}
330
15
100
AcDbVisualStyle
  2
3D Hidden
 70
     6
 71
     1
 72
     2
 73
     2
 90
        0
 40
-0.6
 41
-30.0
 62
     5
 63
     7
 74
     2
 91
        2
 64
     7
 65
   257
 75
     2
175
     1
 42
40.0
 92
        0
 66
   257
 43
1.0
 76
     1
 77
     6
 78
     2
 67
     7
 79
     3
170
     0
171
     0
290
     0
174
     0
 93
        1
 44
0.0
173
     0
291
     0
 45
0.0
1001
ACAD
1000
AcDbSavedByObjectVersion
1070
     0
  0
VISUALSTYLE
  5
5D
102
{ACAD_REACTORS
330
15
102
}
330
15
100
AcDbVisualStyle
  2
3dWireframe
 70
     5
 71
     0
 72
     2
 73
     0
 90
        0
 40
-0.6
 41
-30.0
 62
     5
 63
     7
 74
     1
 91
        4
 64
     7
 65
   257
 75
     1
175
     1
 42
1.0
 92
        0
 66
   257
 43
1.0
 76
     1
 77
     6
 78
     2
 67
     7
 79
     5
170
     0
171
     0
290
     0
174
     0
 93
        1
 44
0.0
173
     0
291
     0
 45
0.0
1001
ACAD
1000
AcDbSavedByObjectVersion
1070
     0
  0
VISUALSTYLE
  5
79F
102
{ACAD_REACTORS
330
15
102
}
330
15
100
AcDbVisualStyle
  2
Basic
 70
     7
 71
     1
 72
     0
 73
     1
 90
        0
 40
-0.6
 41
-30.0
 62
     5
 63
     7
 74
     0
 91
        4
 64
     7
 65
   257
 75
     1
175
     1
 42
1.0
 92
        8
 66
     7
 43
1.0
 76
     1
 77
     6
 78
     2
 67
     7
 79
     5
170
     0
171
     0
290
     0
174
     0
 93
        1
 44
0.0
173
     0
291
     1
 45
0.0
1001
ACAD
1000
AcDbSavedByObjectVersion
1070
     0
  0
VISUALSTYLE
  5
7A3
102
{ACAD_REACTORS
330
15
102
}
330
15
100
AcDbVisualStyle
  2
Brighten
 70
    12
 71
     2
 72
     2
 73
     0
 90
        0
 40
-0.6
 41
-30.0
 62
     5
 63
     7
 74
     1
 91
        4
 64
     7
 65
   257
 75
     1
175
     1
 42
1.0
 92
        8
 66
     7
 43
1.0
 76
     1
 77
     6
 78
     2
 67
     7
 79
     5
170
     0
171
     0
290
     0
174
     0
 93
        1
 44
50.0
173
     0
291
     1
 45
0.0
1001
ACAD
1000
AcDbSavedByObjectVersion
1070
     0
  0
VISUALSTYLE
  5
7A7
102
{ACAD_REACTORS
330
15
102
}
330
15
100
AcDbVisualStyle
  2
ColorChange
 70
    16
 71
     2
 72
     2
 73
     3
 90
        0
 40
-0.6
 41
-30.0
 62
     5
 63
     8
 74
     1
 91
        4
 64
     7
 65
   257
 75
     1
175
     1
 42
1.0
 92
        8
 66
     8
 43
1.0
 76
     1
 77
     6
 78
     2
 67
     7
 79
     5
170
     0
171
     0
290
     0
174
     0
 93
        1
 44
0.0
173
     0
291
     1
 45
0.0
1001
ACAD
1000
AcDbSavedByObjectVersion
1070
     0
  0
VISUALSTYLE
  5
7A1
102
{ACAD_REACTORS
330
15
102
}
330
15
100
AcDbVisualStyle
  2
Conceptual
 70
     9
 71
     3
 72
     2
 73
     0
 90
        0
 40
-0.6
 41
-30.0
 62
     5
 63
     7
 74
     2
 91
        2
 64
     7
 65
   257
 75
     1
175
     1
 42
40.0
 92
        8
 66
     7
 43
1.0
 76
     1
 77
     6
 78
     2
 67
     7
 79
     3
170
     0
171
     0
290
     0
174
     0
 93
        1
 44
0.0
173
     0
291
     0
 45
0.0
1001
ACAD
1000
AcDbSavedByObjectVersion
1070
     0
  0
VISUALSTYLE
  5
7A2
102
{ACAD_REACTORS
330
15
102
}
330
15
100
AcDbVisualStyle
  2
Dim
 70
    11
 71
     2
 72
     2
 73
     0
 90
        0
 40
-0.6
 41
-30.0
 62
     5
 63
     7
 74
     1
 91
        4
 64
     7
 65
   257
 75
     1
175
     1
 42
1.0
 92
        8
 66
     7
 43
1.0
 76
     1
 77
     6
 78
     2
 67
     7
 79
     5
170
     0
171
     0
290
     0
174
     0
 93
        1
 44
-50.0
173
     0
291
     1
 45
0.0
1001
ACAD
1000
AcDbSavedByObjectVersion
1070
     0
  0
VISUALSTYLE
  5
7A6
102
{ACAD_REACTORS
330
15
102
}
330
15
100
AcDbVisualStyle
  2
Facepattern
 70
    15
 71
     2
 72
     2
 73
     0
 90
        0
 40
-0.6
 41
-30.0
 62
     5
 63
     7
 74
     1
 91
        4
 64
     7
 65
   257
 75
     1
175
     1
 42
1.0
 92
        8
 66
     7
 43
1.0
 76
     1
 77
     6
 78
     2
 67
     7
 79
     5
170
     0
171
     0
290
     0
174
     0
 93
        1
 44
0.0
173
     0
291
     1
 45
0.0
1001
ACAD
1000
AcDbSavedByObjectVersion
1070
     0
  0
VISUALSTYLE
  5
79B
102
{ACAD_REACTORS
330
15
102
}
330
15
100
AcDbVisualStyle
  2
Flat
 70
     0
 71
     2
 72
     1
 73
     1
 90
        2
 40
-0.6
 41
30.0
 62
     5
 63
     7
 74
     0
 91
        4
 64
     7
 65
   257
 75
     1
175
     1
 42
1.0
 92
        8
 66
     7
 43
1.0
 76
     1
 77
     6
 78
     2
 67
     7
 79
     5
170
     0
171
     0
290
     0
174
     0
 93
       13
 44
0.0
173
     0
291
     0
 45
0.0
1001
ACAD
1000
AcDbSavedByObjectVersion
1070
     0
  0
VISUALSTYLE
  5
79C
102
{ACAD_REACTORS
330
15
102
}
330
15
100
AcDbVisualStyle
  2
FlatWithEdges
 70
     1
 71
     2
 72
     1
 73
     1
 90
        2
 40
-0.6
 41
30.0
 62
     5
 63
     7
 74
     1
 91
        4
 64
     7
 65
   257
 75
     1
175
     1
 42
1.0
 92
        0
 66
   257
 43
1.0
 76
     1
 77
     6
 78
     2
 67
     7
 79
     5
170
     0
171
     0
290
     0
174
     0
 93
       13
 44
0.0
173
     0
291
     0
 45
0.0
1001
ACAD
1000
AcDbSavedByObjectVersion
1070
     0
  0
VISUALSTYLE
  5
79D
102
{ACAD_REACTORS
330
15
102
}
330
15
100
AcDbVisualStyle
  2
Gouraud
 70
     2
 71
     2
 72
     2
 73
     1
 90
        2
 40
-0.6
 41
30.0
 62
     5
 63
     7
 74
     0
 91
        4
 64
     7
 65
   257
 75
     1
175
     1
 42
1.0
 92
        0
 66
     7
 43
1.0
 76
     1
 77
     6
 78
     2
 67
     7
 79
     5
170
     0
171
     0
290
     0
174
     0
 93
       13
 44
0.0
173
     0
291
     0
 45
0.0
1001
ACAD
1000
AcDbSavedByObjectVersion
1070
     0
  0
VISUALSTYLE
  5
79E
102
{ACAD_REACTORS
330
15
102
}
330
15
100
AcDbVisualStyle
  2
GouraudWithEdges
 70
     3
 71
     2
 72
     2
 73
     1
 90
        2
 40
-0.6
 41
30.0
 62
     5
 63
     7
 74
     1
 91
        4
 64
     7
 65
   257
 75
     1
175
     1
 42
1.0
 92
        0
 66
   257
 43
1.0
 76
     1
 77
     6
 78
     2
 67
     7
 79
     5
170
     0
171
     0
290
     0
174
     0
 93
       13
 44
0.0
173
     0
291
     0
 45
0.0
1001
ACAD
1000
AcDbSavedByObjectVersion
1070
     0
  0
VISUALSTYLE
  5
7A5
102
{ACAD_REACTORS
330
15
102
}
330
15
100
AcDbVisualStyle
  2
Linepattern
 70
    14
 71
     2
 72
     2
 73
     0
 90
        0
 40
-0.6
 41
-30.0
 62
     5
 63
     7
 74
     1
 91
        4
 64
     7
 65
   257
 75
     7
175
     7
 42
1.0
 92
        8
 66
     7
 43
1.0
 76
     1
 77
     6
 78
     2
 67
     7
 79
     5
170
     0
171
     0
290
     0
174
     0
 93
        1
 44
0.0
173
     0
291
     1
 45
0.0
1001
ACAD
1000
AcDbSavedByObjectVersion
1070
     0
  0
VISUALSTYLE
  5
7B1
102
{ACAD_REACTORS
330
15
102
}
330
15
100
AcDbVisualStyle
  2

 70
     8
 71
     2
 72
     2
 73
     0
 90
        0
 40
-0.6
 41
-30.0
 62
     5
 63
     7
 74
     0
 91
        0
 64
     7
 65
   257
 75
     1
175
     1
 42
1.0
 92
        8
 66
     8
 43
1.0
 76
     1
 77
     6
 78
     2
 67
     7
 79
     5
170
     0
171
     0
290
     0
174
     0
 93
       13
 44
0.0
173
     0
291
     0
 45
0.0
1001
ACAD
1000
AcDbSavedByObjectVersion
1070
     0
  0
VISUALSTYLE
  5
7B2
102
{ACAD_REACTORS
330
15
102
}
330
15
100
AcDbVisualStyle
  2

 70
     8
 71
     2
 72
     2
 73
     0
 90
        0
 40
-0.6
 41
-30.0
 62
     5
 63
     7
 74
     1
 91
        0
 64
     7
 65
   257
 75
     1
175
     1
 42
1.0
 92
        8
 66
     8
 43
1.0
 76
     1
 77
     6
 78
     2
 67
     7
 79
     5
170
     0
171
     0
290
     0
174
     0
 93
       13
 44
0.0
173
     0
291
     0
 45
0.0
1001
ACAD
1000
AcDbSavedByObjectVersion
1070
     0
  0
VISUALSTYLE
  5
5C
102
{ACAD_REACTORS
330
15
102
}
330
15
100
AcDbVisualStyle
  2
Realistic
 70
     8
 71
     2
 72
     2
 73
     0
 90
        0
 40
-0.6
 41
-30.0
 62
     5
 63
     7
 74
     1
 91
        0
 64
     7
 65
   257
 75
     1
175
     1
 42
1.0
 92
        8
 66
     8
 43
1.0
 76
     1
 77
     6
 78
     2
 67
     7
 79
     5
170
     0
171
     0
290
     0
174
     0
 93
       13
 44
0.0
173
     0
291
     0
 45
0.0
1001
ACAD
1000
AcDbSavedByObjectVersion
1070
     0
  0
VISUALSTYLE
  5
7A4
102
{ACAD_REACTORS
330
15
102
}
330
15
100
AcDbVisualStyle
  2
Thicken
 70
    13
 71
     2
 72
     2
 73
     0
 90
        0
 40
-0.6
 41
-30.0
 62
     5
 63
     7
 74
     1
 91
        4
 64
     7
 65
   257
 75
     1
175
     1
 42
1.0
 92
       12
 66
     7
 43
1.0
 76
     1
 77
     6
 78
     2
 67
     7
 79
     5
170
     0
171
     0
290
     0
174
     0
 93
        1
 44
0.0
173
     0
291
     1
 45
0.0
1001
ACAD
1000
AcDbSavedByObjectVersion
1070
     0
  0
DICTIONARYVAR
  5
798
102
{ACAD_REACTORS
330
795
102
}
330
795
100
DictionaryVariables
280
     0
  1
1:1
  0
DICTIONARYVAR
  5
797
102
{ACAD_REACTORS
330
795
102
}
330
795
100
DictionaryVariables
280
     0
  1
STANDARD
  0
DICTIONARYVAR
  5
796
102
{ACAD_REACTORS
330
795
102
}
330
795
100
DictionaryVariables
280
     0
  1
STANDARD
  0
DICTIONARYVAR
  5
2808
102
{ACAD_REACTORS
330
795
102
}
330
795
100
DictionaryVariables
280
     0
  1
1
  0
DICTIONARYVAR
  5
2807
102
{ACAD_REACTORS
330
795
102
}
330
795
100
DictionaryVariables
280
     0
  1
1
  0
DICTIONARYVAR
  5
2806
102
{ACAD_REACTORS
330
795
102
}
330
795
100
DictionaryVariables
280
     0
  1
0
  0
DICTIONARYVAR
  5
799
102
{ACAD_REACTORS
330
795
102
}
330
795
100
DictionaryVariables
280
     0
  1
0
  0
DICTIONARYVAR
  5
2804
102
{ACAD_REACTORS
330
795
102
}
330
795
100
DictionaryVariables
280
     0
  1
1
  0
DICTIONARYVAR
  5
2805
102
{ACAD_REACTORS
330
795
102
}
330
795
100
DictionaryVariables
280
     0
  1
127
  0
DICTIONARY
  5
2814
330
1943
100
AcDbDictionary
280
     1
281
     1
  3
ACAD_XREC_ROUNDTRIP
360
2815
  0
DICTIONARY
  5
280D
330
11
100
AcDbDictionary
280
     1
281
     1
  3
ACAD_XREC_ROUNDTRIP
360
280E
  0
DICTIONARY
  5
2811
330
52
100
AcDbDictionary
280
     1
281
     1
  3
ACAD_XREC_ROUNDTRIP
360
2812
  0
DICTIONARY
  5
280F
330
51
100
AcDbDictionary
280
     1
281
     1
  3
ACAD_XREC_ROUNDTRIP
360
2810
  0
DICTIONARY
  5
280B
330
C
100
AcDbDictionary
280
     1
281
     1
  3
ACAD_XREC_ROUNDTRIP
360
280C
  0
DICTIONARY
  5
5B
330
5A
100
AcDbDictionary
280
     1
281
     1
  3
ACAD_ROUNDTRIP_2008_TABLESTYLE_CELLSTYLEMAP
360
2809
  3
ACAD_XREC_ROUNDTRIP
360
2813
  0
XRECORD
  5
2815
102
{ACAD_REACTORS
330
2814
102
}
330
2814
100
AcDbXrecord
280
     1
102
SHADEPLOT
 70
     0
102
SHADEPLOTRESLEVEL
 70
     2
102
SHADEPLOTCUSTOMDPI
 70
   300
  0
XRECORD
  5
280E
102
{ACAD_REACTORS
330
280D
102
}
330
280D
100
AcDbXrecord
280
     1
102
SHADEPLOT
 70
     1
102
SHADEPLOTRESLEVEL
 70
     2
102
SHADEPLOTCUSTOMDPI
 70
   300
  0
XRECORD
  5
2812
102
{ACAD_REACTORS
330
2811
102
}
330
2811
100
AcDbXrecord
280
     1
102
MATERIAL
148
0.0
149
0.0
149
0.0
 93
        0
 94
       63
282
     0
 72
     1
 77
     1
171
     1
175
     1
179
     1
273
     0
  0
XRECORD
  5
2810
102
{ACAD_REACTORS
330
280F
102
}
330
280F
100
AcDbXrecord
280
     1
102
MATERIAL
148
0.0
149
0.0
149
0.0
 93
        0
 94
       63
282
     0
 72
     1
 77
     1
171
     1
175
     1
179
     1
273
     0
  0
XRECORD
  5
280C
102
{ACAD_REACTORS
330
280B
102
}
330
280B
100
AcDbXrecord
280
     1
102
MATERIAL
148
0.0
149
0.0
149
0.0
 93
        0
 94
       63
282
     0
 72
     1
 77
     1
171
     1
175
     1
179
     1
273
     0
  0
CELLSTYLEMAP
  5
2809
102
{ACAD_REACTORS
330
5B
102
}
330
5B
100
AcDbCellStyleMap
 90
        3
300
CELLSTYLE
  1
TABLEFORMAT_BEGIN
 90
        5
170
     1
 91
        0
 92
    32768
 62
   257
 93
        1
300
CONTENTFORMAT
  1
CONTENTFORMAT_BEGIN
 90
        0
 91
        0
 92
        4
 93
        0
300

 40
0.0
140
1.0
 94
        5
 62
     0
340
21
144
0.25
309
CONTENTFORMAT_END
171
     0
 94
        6
 95
        1
302
GRIDFORMAT
  1
GRIDFORMAT_BEGIN
 90
        0
 91
        1
 62
     0
 92
       -2
340
0
 93
        0
 40
0.045
309
GRIDFORMAT_END
 95
        2
302
GRIDFORMAT
  1
GRIDFORMAT_BEGIN
 90
        0
 91
        1
 62
     0
 92
       -2
340
0
 93
        0
 40
0.045
309
GRIDFORMAT_END
 95
        4
302
GRIDFORMAT
  1
GRIDFORMAT_BEGIN
 90
        0
 91
        1
 62
     0
 92
       -2
340
0
 93
        0
 40
0.045
309
GRIDFORMAT_END
 95
        8
302
GRIDFORMAT
  1
GRIDFORMAT_BEGIN
 90
        0
 91
        1
 62
     0
 92
       -2
340
0
 93
        0
 40
0.045
309
GRIDFORMAT_END
 95
       16
302
GRIDFORMAT
  1
GRIDFORMAT_BEGIN
 90
        0
 91
        1
 62
     0
 92
       -2
340
0
 93
        0
 40
0.045
309
GRIDFORMAT_END
 95
       32
302
GRIDFORMAT
  1
GRIDFORMAT_BEGIN
 90
        0
 91
        1
 62
     0
 92
       -2
340
0
 93
        0
 40
0.045
309
GRIDFORMAT_END
309
TABLEFORMAT_END
  1
CELLSTYLE_BEGIN
 90
        1
 91
        1
300
_TITLE
309
CELLSTYLE_END
300
CELLSTYLE
  1
TABLEFORMAT_BEGIN
 90
        5
170
     1
 91
        0
 92
        0
 62
   257
 93
        1
300
CONTENTFORMAT
  1
CONTENTFORMAT_BEGIN
 90
        0
 91
        0
 92
        4
 93
        0
300

 40
0.0
140
1.0
 94
        5
 62
     0
340
21
144
0.18
309
CONTENTFORMAT_END
171
     0
 94
        6
 95
        1
302
GRIDFORMAT
  1
GRIDFORMAT_BEGIN
 90
        0
 91
        1
 62
     0
 92
       -2
340
0
 93
        0
 40
0.045
309
GRIDFORMAT_END
 95
        2
302
GRIDFORMAT
  1
GRIDFORMAT_BEGIN
 90
        0
 91
        1
 62
     0
 92
       -2
340
0
 93
        0
 40
0.045
309
GRIDFORMAT_END
 95
        4
302
GRIDFORMAT
  1
GRIDFORMAT_BEGIN
 90
        0
 91
        1
 62
     0
 92
       -2
340
0
 93
        0
 40
0.045
309
GRIDFORMAT_END
 95
        8
302
GRIDFORMAT
  1
GRIDFORMAT_BEGIN
 90
        0
 91
        1
 62
     0
 92
       -2
340
0
 93
        0
 40
0.045
309
GRIDFORMAT_END
 95
       16
302
GRIDFORMAT
  1
GRIDFORMAT_BEGIN
 90
        0
 91
        1
 62
     0
 92
       -2
340
0
 93
        0
 40
0.045
309
GRIDFORMAT_END
 95
       32
302
GRIDFORMAT
  1
GRIDFORMAT_BEGIN
 90
        0
 91
        1
 62
     0
 92
       -2
340
0
 93
        0
 40
0.045
309
GRIDFORMAT_END
309
TABLEFORMAT_END
  1
CELLSTYLE_BEGIN
 90
        2
 91
        1
300
_HEADER
309
CELLSTYLE_END
300
CELLSTYLE
  1
TABLEFORMAT_BEGIN
 90
        5
170
     1
 91
        0
 92
        0
 62
   257
 93
        1
300
CONTENTFORMAT
  1
CONTENTFORMAT_BEGIN
 90
        0
 91
        0
 92
        4
 93
        0
300

 40
0.0
140
1.0
 94
        2
 62
     0
340
21
144
0.18
309
CONTENTFORMAT_END
171
     0
 94
        6
 95
        1
302
GRIDFORMAT
  1
GRIDFORMAT_BEGIN
 90
        0
 91
        1
 62
     0
 92
       -2
340
0
 93
        0
 40
0.045
309
GRIDFORMAT_END
 95
        2
302
GRIDFORMAT
  1
GRIDFORMAT_BEGIN
 90
        0
 91
        1
 62
     0
 92
       -2
340
0
 93
        0
 40
0.045
309
GRIDFORMAT_END
 95
        4
302
GRIDFORMAT
  1
GRIDFORMAT_BEGIN
 90
        0
 91
        1
 62
     0
 92
       -2
340
0
 93
        0
 40
0.045
309
GRIDFORMAT_END
 95
        8
302
GRIDFORMAT
  1
GRIDFORMAT_BEGIN
 90
        0
 91
        1
 62
     0
 92
       -2
340
0
 93
        0
 40
0.045
309
GRIDFORMAT_END
 95
       16
302
GRIDFORMAT
  1
GRIDFORMAT_BEGIN
 90
        0
 91
        1
 62
     0
 92
       -2
340
0
 93
        0
 40
0.045
309
GRIDFORMAT_END
 95
       32
302
GRIDFORMAT
  1
GRIDFORMAT_BEGIN
 90
        0
 91
        1
 62
     0
 92
       -2
340
0
 93
        0
 40
0.045
309
GRIDFORMAT_END
309
TABLEFORMAT_END
  1
CELLSTYLE_BEGIN
 90
        3
 91
        2
300
_DATA
309
CELLSTYLE_END
  0
XRECORD
  5
2813
102
{ACAD_REACTORS
330
5B
102
}
330
5B
100
AcDbXrecord
280
     1
102
ACAD_ROUNDTRIP_PRE2007_TABLESTYLE
 90
        4
 91
        0
  1

 92
        4
 93
        0
  2

 94
        4
 95
        0
  3

  0
ENDSEC
  0
EOF
