  0
SECTION
  2
HEADER
  9
$ACADVER
  1
AC1015
  9
$ACADMAINTVER
 70
    20
  9
$DWGCODEPAGE
  3
ANSI_1250
  9
$INSBASE
 10
9677.351579171606
 20
1189.596440029025
 30
0.0000000000031697
  9
$EXTMIN
 10
67601.39436320923
 20
-12830.83167067901
 30
-0.0000000000000151
  9
$EXTMAX
 10
77807.3039557728
 20
1190.024042212615
 30
0.0000000000000001
  9
$LIMMIN
 10
0.0
 20
0.0
  9
$LIMMAX
 10
12.0
 20
9.0
  9
$ORTHOMODE
 70
     1
  9
$REGENMODE
 70
     1
  9
$FILLMODE
 70
     1
  9
$QTEXTMODE
 70
     0
  9
$MIRRTEXT
 70
     0
  9
$LTSCALE
 40
75.0
  9
$ATTMODE
 70
     1
  9
$TEXTSIZE
 40
0.2
  9
$TRACEWID
 40
40.0
  9
$TEXTSTYLE
  7
STANDARD
  9
$CLAYER
  8
0Wymiary-PL
  9
$CELTYPE
  6
BYLAYER
  9
$CECOLOR
 62
    54
  9
$CELTSCALE
 40
4.0
  9
$DISPSILH
 70
     0
  9
$DIMSCALE
 40
1.0
  9
$DIMASZ
 40
30.0
  9
$DIMEXO
 40
43.0
  9
$DIMDLI
 40
0.0
  9
$DIMRND
 40
0.5
  9
$DIMDLE
 40
12.0
  9
$DIMEXE
 40
13.0
  9
$DIMTP
 40
0.0
  9
$DIMTM
 40
0.0
  9
$DIMTXT
 40
80.0
  9
$DIMCEN
 40
0.0
  9
$DIMTSZ
 40
0.0
  9
$DIMTOL
 70
     0
  9
$DIMLIM
 70
     0
  9
$DIMTIH
 70
     0
  9
$DIMTOH
 70
     0
  9
$DIMSE1
 70
     1
  9
$DIMSE2
 70
     1
  9
$DIMTAD
 70
     0
  9
$DIMZIN
 70
    12
  9
$DIMBLK
  1
B-DIM
  9
$DIMASO
 70
     1
  9
$DIMSHO
 70
     1
  9
$DIMPOST
  1

  9
$DIMAPOST
  1

  9
$DIMALT
 70
     0
  9
$DIMALTD
 70
     2
  9
$DIMALTF
 40
25.4
  9
$DIMLFAC
 40
1.0
  9
$DIMTOFL
 70
     1
  9
$DIMTVP
 40
1.0
  9
$DIMTIX
 70
     1
  9
$DIMSOXD
 70
     0
  9
$DIMSAH
 70
     0
  9
$DIMBLK1
  1

  9
$DIMBLK2
  1

  9
$DIMSTYLE
  2
500
  9
$DIMCLRD
 70
     1
  9
$DIMCLRE
 70
     1
  9
$DIMCLRT
 70
   140
  9
$DIMTFAC
 40
1.0
  9
$DIMGAP
 40
0.0
  9
$DIMJUST
 70
     0
  9
$DIMSD1
 70
     0
  9
$DIMSD2
 70
     0
  9
$DIMTOLJ
 70
     1
  9
$DIMTZIN
 70
     0
  9
$DIMALTZ
 70
     0
  9
$DIMALTTZ
 70
     0
  9
$DIMUPT
 70
     0
  9
$DIMDEC
 70
     1
  9
$DIMTDEC
 70
     1
  9
$DIMALTU
 70
     2
  9
$DIMALTTD
 70
     2
  9
$DIMTXSTY
  7
ROMANS
  9
$DIMAUNIT
 70
     0
  9
$DIMADEC
 70
     0
  9
$DIMALTRND
 40
0.0
  9
$DIMAZIN
 70
     0
  9
$DIMDSEP
 70
    46
  9
$DIMATFIT
 70
     3
  9
$DIMFRAC
 70
     0
  9
$DIMLDRBLK
  1
B-DIM
  9
$DIMLUNIT
 70
     2
  9
$DIMLWD
 70
    -2
  9
$DIMLWE
 70
    -2
  9
$DIMTMOVE
 70
     2
  9
$LUNITS
 70
     2
  9
$LUPREC
 70
     2
  9
$SKETCHINC
 40
0.1
  9
$FILLETRAD
 40
0.0
  9
$AUNITS
 70
     0
  9
$AUPREC
 70
     1
  9
$MENU
  1
acad
  9
$ELEVATION
 40
0.0
  9
$PELEVATION
 40
0.0
  9
$THICKNESS
 40
0.0
  9
$LIMCHECK
 70
     0
  9
$CHAMFERA
 40
30.0
  9
$CHAMFERB
 40
30.0
  9
$CHAMFERC
 40
0.0
  9
$CHAMFERD
 40
0.0
  9
$SKPOLY
 70
     0
  9
$TDCREATE
 40
2450817.525937848
  9
$TDUCREATE
 40
2450817.442604514
  9
$TDUPDATE
 40
2454980.585982164
  9
$TDUUPDATE
 40
2454980.502648831
  9
$TDINDWG
 40
21.7514909722
  9
$TDUSRTIMER
 40
21.7514909722
  9
$USRTIMER
 70
     1
  9
$ANGBASE
 50
0.0
  9
$ANGDIR
 70
     0
  9
$PDMODE
 70
     3
  9
$PDSIZE
 40
10.0
  9
$PLINEWID
 40
60.0
  9
$SPLFRAME
 70
     0
  9
$SPLINETYPE
 70
     6
  9
$SPLINESEGS
 70
     8
  9
$HANDSEED
  5
24FB
  9
$SURFTAB1
 70
     6
  9
$SURFTAB2
 70
     6
  9
$SURFTYPE
 70
     6
  9
$SURFU
 70
     6
  9
$SURFV
 70
     6
  9
$UCSBASE
  2

  9
$UCSNAME
  2

  9
$UCSORG
 10
0.0
 20
0.0
 30
0.0
  9
$UCSXDIR
 10
1.0
 20
0.0
 30
0.0
  9
$UCSYDIR
 10
0.0
 20
1.0
 30
0.0
  9
$UCSORTHOREF
  2

  9
$UCSORTHOVIEW
 70
     0
  9
$UCSORGTOP
 10
0.0
 20
0.0
 30
0.0
  9
$UCSORGBOTTOM
 10
0.0
 20
0.0
 30
0.0
  9
$UCSORGLEFT
 10
0.0
 20
0.0
 30
0.0
  9
$UCSORGRIGHT
 10
0.0
 20
0.0
 30
0.0
  9
$UCSORGFRONT
 10
0.0
 20
0.0
 30
0.0
  9
$UCSORGBACK
 10
0.0
 20
0.0
 30
0.0
  9
$PUCSBASE
  2

  9
$PUCSNAME
  2

  9
$PUCSORG
 10
0.0
 20
0.0
 30
0.0
  9
$PUCSXDIR
 10
1.0
 20
0.0
 30
0.0
  9
$PUCSYDIR
 10
0.0
 20
1.0
 30
0.0
  9
$PUCSORTHOREF
  2

  9
$PUCSORTHOVIEW
 70
     0
  9
$PUCSORGTOP
 10
0.0
 20
0.0
 30
0.0
  9
$PUCSORGBOTTOM
 10
0.0
 20
0.0
 30
0.0
  9
$PUCSORGLEFT
 10
0.0
 20
0.0
 30
0.0
  9
$PUCSORGRIGHT
 10
0.0
 20
0.0
 30
0.0
  9
$PUCSORGFRONT
 10
0.0
 20
0.0
 30
0.0
  9
$PUCSORGBACK
 10
0.0
 20
0.0
 30
0.0
  9
$USERI1
 70
     0
  9
$USERI2
 70
     0
  9
$USERI3
 70
     0
  9
$USERI4
 70
     0
  9
$USERI5
 70
     0
  9
$USERR1
 40
0.0
  9
$USERR2
 40
0.0
  9
$USERR3
 40
0.0
  9
$USERR4
 40
0.0
  9
$USERR5
 40
0.0
  9
$WORLDVIEW
 70
     1
  9
$SHADEDGE
 70
     3
  9
$SHADEDIF
 70
    70
  9
$TILEMODE
 70
     1
  9
$MAXACTVP
 70
    16
  9
$PINSBASE
 10
0.0
 20
0.0
 30
0.0
  9
$PLIMCHECK
 70
     0
  9
$PEXTMIN
 10
0.0
 20
0.0
 30
0.0
  9
$PEXTMAX
 10
0.0
 20
0.0
 30
0.0
  9
$PLIMMIN
 10
0.0
 20
0.0
  9
$PLIMMAX
 10
12.0
 20
9.0
  9
$UNITMODE
 70
     0
  9
$VISRETAIN
 70
     0
  9
$PLINEGEN
 70
     0
  9
$PSLTSCALE
 70
     1
  9
$TREEDEPTH
 70
  3020
  9
$CMLSTYLE
  2
STANDARD
  9
$CMLJUST
 70
     0
  9
$CMLSCALE
 40
1.0
  9
$PROXYGRAPHICS
 70
     1
  9
$MEASUREMENT
 70
     0
  9
$CELWEIGHT
370
    -1
  9
$ENDCAPS
280
     0
  9
$JOINSTYLE
280
     0
  9
$LWDISPLAY
290
     0
  9
$INSUNITS
 70
     0
  9
$HYPERLINKBASE
  1

  9
$STYLESHEET
  1
monochrome_140.ctb
  9
$XEDIT
290
     1
  9
$CEPSNTYPE
380
     0
  9
$PSTYLEMODE
290
     1
  9
$FINGERPRINTGUID
  2
{2D5E65A9-1F91-4A53-BA94-481E1C74241D}
  9
$VERSIONGUID
  2
{1BD64934-C336-42F0-9D5C-1F267D0F9FA3}
  9
$EXTNAMES
290
     1
  9
$PSVPSCALE
 40
0.0
  9
$OLESTARTUP
290
     0
  0
ENDSEC
  0
SECTION
  2
CLASSES
  0
CLASS
  1
DICTIONARYVAR
  2
AcDbDictionaryVar
  3
ObjectDBX Classes
 90
        0
280
     0
281
     0
  0
CLASS
  1
ACDBDICTIONARYWDFLT
  2
AcDbDictionaryWithDefault
  3
ObjectDBX Classes
 90
        0
280
     0
281
     0
  0
CLASS
  1
ACDBPLACEHOLDER
  2
AcDbPlaceHolder
  3
ObjectDBX Classes
 90
        0
280
     0
281
     0
  0
CLASS
  1
LAYOUT
  2
AcDbLayout
  3
ObjectDBX Classes
 90
        0
280
     0
281
     0
  0
CLASS
  1
AEC_VARS_DWG_SETUP
  2
AecDbVarsDwgSetup
  3
AecBase50|Product Desc: Autodesk Architectural Desktop 2007 |Company: Autodesk,Inc. |WEB Address: www.autodesk.com
 90
    32897
280
     0
281
     0
  0
CLASS
  1
AEC_DISP_REP_CONFIG
  2
AecDbDispRepConfig
  3
AecBase50|Product Desc: Autodesk Architectural Desktop 2007 |Company: Autodesk,Inc. |WEB Address: www.autodesk.com
 90
    32897
280
     0
281
     0
  0
CLASS
  1
AEC_DISP_REP_SET
  2
AecDbDispRepSet
  3
AecBase50|Product Desc: Autodesk Architectural Desktop 2007 |Company: Autodesk,Inc. |WEB Address: www.autodesk.com
 90
    32897
280
     0
281
     0
  0
CLASS
  1
AEC_DISP_REP_2D_SECTION
  2
AecDbDispRep2dSection
  3
AecBase50|Product Desc: Autodesk Architectural Desktop 2007 |Company: Autodesk,Inc. |WEB Address: www.autodesk.com
 90
    32897
280
     0
281
     0
  0
CLASS
  1
AEC_DISP_REP_ANCHOR_BUB_TO_GRID
  2
AecDbDispRepAnchorBubToGrid
  3
AecStructureBase50|Product Desc: Autodesk Architectural Desktop 2007 |Company: Autodesk,Inc. |WEB Address: www.autodesk.com
 90
    32897
280
     0
281
     0
  0
CLASS
  1
AEC_DISP_REP_ANCHOR_BUB_TO_GRID_MODEL
  2
AecDbDispRepAnchorBubToGridMdl
  3
AecStructureBase50|Product Desc: Autodesk Architectural Desktop 2007 |Company: Autodesk,Inc. |WEB Address: www.autodesk.com
 90
    32897
280
     0
281
     0
  0
CLASS
  1
AEC_DISP_REP_ANCHOR_ENT_TO_NODE
  2
AecDbDispRepAnchorEntToNode
  3
AecBase50|Product Desc: Autodesk Architectural Desktop 2007 |Company: Autodesk,Inc. |WEB Address: www.autodesk.com
 90
    32897
280
     0
281
     0
  0
CLASS
  1
AEC_DISP_REP_ANCHOR_TAG_TO_ENT
  2
AecDbDispRepAnchorTagToEnt
  3
AecScheduleData50|Product Desc: Autodesk Architectural Desktop 2007 |Company: Autodesk,Inc. |WEB Address: www.autodesk.com
 90
    32897
280
     0
281
     0
  0
CLASS
  1
AEC_DISP_REP_AREA
  2
AecDbDispRepArea
  3
AecAreaCalculationBase50|Product Desc: Autodesk Architectural Desktop 2007 |Company: Autodesk,Inc. |WEB Address: www.autodesk.com
 90
    32897
280
     0
281
     0
  0
CLASS
  1
AEC_DISP_REP_AREA_DECOMPOSED
  2
AecDbDispRepAreaDecomposed
  3
AecAreaCalculationBase50|Product Desc: Autodesk Architectural Desktop 2007 |Company: Autodesk,Inc. |WEB Address: www.autodesk.com
 90
    32897
280
     0
281
     0
  0
CLASS
  1
AEC_DISP_REP_AREAGROUP
  2
AecDbDispRepAreaGroup
  3
AecAreaCalculationBase50|Product Desc: Autodesk Architectural Desktop 2007 |Company: Autodesk,Inc. |WEB Address: www.autodesk.com
 90
    32897
280
     0
281
     0
  0
CLASS
  1
AEC_DISP_REP_BDG_ELEVLINE_MODEL
  2
AecDbDispRepBdgElevLineModel
  3
AecArchBase50|Product Desc: Autodesk Architectural Desktop 2007 |Company: Autodesk,Inc. |WEB Address: www.autodesk.com
 90
    32897
280
     0
281
     0
  0
CLASS
  1
AEC_DISP_REP_BDG_SECTIONLINE_PLAN
  2
AecDbDispRepBdgElevLinePlan
  3
AecArchBase50|Product Desc: Autodesk Architectural Desktop 2007 |Company: Autodesk,Inc. |WEB Address: www.autodesk.com
 90
    32897
280
     0
281
     0
  0
CLASS
  1
AEC_DISP_REP_BDG_SECTIONLINE_MODEL
  2
AecDbDispRepBdgSectionLineModel
  3
AecArchBase50|Product Desc: Autodesk Architectural Desktop 2007 |Company: Autodesk,Inc. |WEB Address: www.autodesk.com
 90
    32897
280
     0
281
     0
  0
CLASS
  1
AEC_DISP_REP_BDG_SECTIONLINE_PLAN
  2
AecDbDispRepBdgSectionLinePlan
  3
AecArchBase50|Product Desc: Autodesk Architectural Desktop 2007 |Company: Autodesk,Inc. |WEB Address: www.autodesk.com
 90
    32897
280
     0
281
     0
  0
CLASS
  1
AEC_DISP_REP_BDG_SECTION_SUBDIV
  2
AecDbDispRepBdgSectionSubDiv
  3
AecArchBase50|Product Desc: Autodesk Architectural Desktop 2007 |Company: Autodesk,Inc. |WEB Address: www.autodesk.com
 90
    32897
280
     0
281
     0
  0
CLASS
  1
AEC_DISP_REP_CAMERA
  2
AecDbDispRepCamera
  3
AecBase50|Product Desc: Autodesk Architectural Desktop 2007 |Company: Autodesk,Inc. |WEB Address: www.autodesk.com
 90
    32897
280
     0
281
     0
  0
CLASS
  1
AEC_DISP_REP_CEILING_GRID
  2
AecDbDispRepCeilingGrid
  3
AecArchBase50|Product Desc: Autodesk Architectural Desktop 2007 |Company: Autodesk,Inc. |WEB Address: www.autodesk.com
 90
    33661
280
     0
281
     0
  0
CLASS
  1
AEC_DISP_REP_CEILING_GRID_MODEL
  2
AecDbDispRepCeilingGridModel
  3
AecArchBase50|Product Desc: Autodesk Architectural Desktop 2007 |Company: Autodesk,Inc. |WEB Address: www.autodesk.com
 90
    32897
280
     0
281
     0
  0
CLASS
  1
AEC_DISP_REP_CEILING_GRID_RCP
  2
AecDbDispRepCeilingGridRcp
  3
AecArchBase50|Product Desc: Autodesk Architectural Desktop 2007 |Company: Autodesk,Inc. |WEB Address: www.autodesk.com
 90
    32897
280
     0
281
     0
  0
CLASS
  1
AEC_DISP_REP_CLIP_VOLUME_MODEL
  2
AecDbDispRepClipVolModel
  3
AecBase50|Product Desc: Autodesk Architectural Desktop 2007 |Company: Autodesk,Inc. |WEB Address: www.autodesk.com
 90
    32897
280
     0
281
     0
  0
CLASS
  1
AEC_DISP_REP_CLIP_VOLUME_PLAN
  2
AecDbDispRepClipVolPlan
  3
AecBase50|Product Desc: Autodesk Architectural Desktop 2007 |Company: Autodesk,Inc. |WEB Address: www.autodesk.com
 90
    32897
280
     0
281
     0
  0
CLASS
  1
AEC_DISP_REP_CLIP_VOLUME_RESULT_SUBDIV
  2
AecDbDispRepClipVolResSubDiv
  3
AecBase50|Product Desc: Autodesk Architectural Desktop 2007 |Company: Autodesk,Inc. |WEB Address: www.autodesk.com
 90
    32897
280
     0
281
     0
  0
CLASS
  1
AEC_DISP_REP_CLIP_VOLUME_RESULT
  2
AecDbDispRepClipVolResult
  3
AecBase50|Product Desc: Autodesk Architectural Desktop 2007 |Company: Autodesk,Inc. |WEB Address: www.autodesk.com
 90
    32897
280
     0
281
     0
  0
CLASS
  1
AEC_DISP_REP_COLUMN_GRID
  2
AecDbDispRepColumnGrid
  3
AecStructureBase50|Product Desc: Autodesk Architectural Desktop 2007 |Company: Autodesk,Inc. |WEB Address: www.autodesk.com
 90
    32897
280
     0
281
     0
  0
CLASS
  1
AEC_DISP_REP_COLUMN_GRID_MODEL
  2
AecDbDispRepColumnGridModel
  3
AecStructureBase50|Product Desc: Autodesk Architectural Desktop 2007 |Company: Autodesk,Inc. |WEB Address: www.autodesk.com
 90
    32897
280
     0
281
     0
  0
CLASS
  1
AEC_DISP_REP_CURTAIN_WALL_LAYOUT_MODEL
  2
AecDbDispRepCurtainWallLayoutModel
  3
AecArchBase50|Product Desc: Autodesk Architectural Desktop 2007 |Company: Autodesk,Inc. |WEB Address: www.autodesk.com
 90
    32897
280
     0
281
     0
  0
CLASS
  1
AEC_DISP_REP_CURTAIN_WALL_LAYOUT_PLAN
  2
AecDbDispRepCurtainWallLayoutPlan
  3
AecArchBase50|Product Desc: Autodesk Architectural Desktop 2007 |Company: Autodesk,Inc. |WEB Address: www.autodesk.com
 90
    32897
280
     0
281
     0
  0
CLASS
  1
AEC_DISP_REP_CURTAIN_WALL_UNIT_MODEL
  2
AecDbDispRepCurtainWallUnitModel
  3
AecArchBase50|Product Desc: Autodesk Architectural Desktop 2007 |Company: Autodesk,Inc. |WEB Address: www.autodesk.com
 90
    32897
280
     0
281
     0
  0
CLASS
  1
AEC_DISP_REP_CURTAIN_WALL_UNIT_PLAN
  2
AecDbDispRepCurtainWallUnitPlan
  3
AecArchBase50|Product Desc: Autodesk Architectural Desktop 2007 |Company: Autodesk,Inc. |WEB Address: www.autodesk.com
 90
    32897
280
     0
281
     0
  0
CLASS
  1
AEC_DB_DISP_REP_DIM_GROUP_PLAN
  2
AecDbDispRepDimGroupPlan
  3
AecArchDACHBase50|Product Desc: Autodesk Architectural Desktop 2007 |Company: Autodesk,Inc. |WEB Address: www.autodesk.com
 90
    32897
280
     0
281
     0
  0
CLASS
  1
AEC_DISP_REP_DOOR_MODEL
  2
AecDbDispRepDoorModel
  3
AecArchBase50|Product Desc: Autodesk Architectural Desktop 2007 |Company: Autodesk,Inc. |WEB Address: www.autodesk.com
 90
    32897
280
     0
281
     0
  0
CLASS
  1
AEC_DISP_REP_DOOR_NOMINAL
  2
AecDbDispRepDoorNominal
  3
AecArchBase50|Product Desc: Autodesk Architectural Desktop 2007 |Company: Autodesk,Inc. |WEB Address: www.autodesk.com
 90
    32897
280
     0
281
     0
  0
CLASS
  1
AEC_DISP_REP_DOOR_PLAN
  2
AecDbDispRepDoorPlan
  3
AecArchBase50|Product Desc: Autodesk Architectural Desktop 2007 |Company: Autodesk,Inc. |WEB Address: www.autodesk.com
 90
    32897
280
     0
281
     0
  0
CLASS
  1
AEC_DISP_REP_EDITINPLACEPROFILE
  2
AecDbDispRepEditInPlaceProfile
  3
AecBase50|Product Desc: Autodesk Architectural Desktop 2007 |Company: Autodesk,Inc. |WEB Address: www.autodesk.com
 90
    32897
280
     0
281
     0
  0
CLASS
  1
AEC_DISP_REP_ENT_REF
  2
AecDbDispRepEntRef
  3
AecBase50|Product Desc: Autodesk Architectural Desktop 2007 |Company: Autodesk,Inc. |WEB Address: www.autodesk.com
 90
    32897
280
     0
281
     0
  0
CLASS
  1
AEC_DISP_REP_LAYOUT_CURVE
  2
AecDbDispRepLayoutCurve
  3
AecBase50|Product Desc: Autodesk Architectural Desktop 2007 |Company: Autodesk,Inc. |WEB Address: www.autodesk.com
 90
    32897
280
     0
281
     0
  0
CLASS
  1
AEC_DISP_REP_LAYOUT_GRID2D
  2
AecDbDispRepLayoutGrid2d
  3
AecBase50|Product Desc: Autodesk Architectural Desktop 2007 |Company: Autodesk,Inc. |WEB Address: www.autodesk.com
 90
    32897
280
     0
281
     0
  0
CLASS
  1
AEC_DISP_REP_LAYOUT_GRID3D
  2
AecDbDispRepLayoutGrid3d
  3
AecBase50|Product Desc: Autodesk Architectural Desktop 2007 |Company: Autodesk,Inc. |WEB Address: www.autodesk.com
 90
    32897
280
     0
281
     0
  0
CLASS
  1
AEC_DISP_REP_MASKBLOCK_REF
  2
AecDbDispRepMaskBlockRef
  3
AecBase50|Product Desc: Autodesk Architectural Desktop 2007 |Company: Autodesk,Inc. |WEB Address: www.autodesk.com
 90
    32897
280
     0
281
     0
  0
CLASS
  1
AEC_DISP_REP_MASKBLOCK_REF_RCP
  2
AecDbDispRepMaskBlockRefRcp
  3
AecArchBase50|Product Desc: Autodesk Architectural Desktop 2007 |Company: Autodesk,Inc. |WEB Address: www.autodesk.com
 90
    32897
280
     0
281
     0
  0
CLASS
  1
AEC_DISP_REP_MASS_ELEM_MODEL
  2
AecDbDispRepMassElemModel
  3
AecBaseEx50|Product Desc: Autodesk Architectural Desktop 2007 |Company: Autodesk,Inc. |WEB Address: www.autodesk.com
 90
    32897
280
     0
281
     0
  0
CLASS
  1
AEC_DISP_REP_MASS_ELEM_SCHEM
  2
AecDbDispRepMassElemSchem
  3
AecBaseEx50|Product Desc: Autodesk Architectural Desktop 2007 |Company: Autodesk,Inc. |WEB Address: www.autodesk.com
 90
    32897
280
     0
281
     0
  0
CLASS
  1
AEC_DISP_REP_MASS_GROUP_MODEL
  2
AecDbDispRepMassGroupModel
  3
AecBaseEx50|Product Desc: Autodesk Architectural Desktop 2007 |Company: Autodesk,Inc. |WEB Address: www.autodesk.com
 90
    32897
280
     0
281
     0
  0
CLASS
  1
AEC_DISP_REP_MASS_GROUP_PLAN
  2
AecDbDispRepMassGroupPlan
  3
AecBaseEx50|Product Desc: Autodesk Architectural Desktop 2007 |Company: Autodesk,Inc. |WEB Address: www.autodesk.com
 90
    32897
280
     0
281
     0
  0
CLASS
  1
AEC_DISP_REP_MATERIAL
  2
AecDbDispRepMaterial
  3
AecBase50|Product Desc: Autodesk Architectural Desktop 2007 |Company: Autodesk,Inc. |WEB Address: www.autodesk.com
 90
    32897
280
     0
281
     0
  0
CLASS
  1
AEC_DISP_REP_MVBLOCK_REF
  2
AecDbDispRepMvBlockRef
  3
AecBase50|Product Desc: Autodesk Architectural Desktop 2007 |Company: Autodesk,Inc. |WEB Address: www.autodesk.com
 90
    32897
280
     0
281
     0
  0
CLASS
  1
AEC_DISP_REP_MVBLOCK_REF_MODEL
  2
AecDbDispRepMvBlockRefModel
  3
AecBase50|Product Desc: Autodesk Architectural Desktop 2007 |Company: Autodesk,Inc. |WEB Address: www.autodesk.com
 90
    32897
280
     0
281
     0
  0
CLASS
  1
AEC_DISP_REP_OPENING
  2
AecDbDispRepOpening
  3
AecArchBase50|Product Desc: Autodesk Architectural Desktop 2007 |Company: Autodesk,Inc. |WEB Address: www.autodesk.com
 90
    32897
280
     0
281
     0
  0
CLASS
  1
AEC_DISP_REP_OPENING_MODEL
  2
AecDbDispRepOpeningModel
  3
AecArchBase50|Product Desc: Autodesk Architectural Desktop 2007 |Company: Autodesk,Inc. |WEB Address: www.autodesk.com
 90
    32897
280
     0
281
     0
  0
CLASS
  1
AEC_DISP_REP_POLYGON_MODEL
  2
AecDbDispRepPolygonModel
  3
AecBase50|Product Desc: Autodesk Architectural Desktop 2007 |Company: Autodesk,Inc. |WEB Address: www.autodesk.com
 90
    32897
280
     0
281
     0
  0
CLASS
  1
AEC_DISP_REP_RAILING_MODEL
  2
AecDbDispRepRailingModel
  3
AecArchBase50|Product Desc: Autodesk Architectural Desktop 2007 |Company: Autodesk,Inc. |WEB Address: www.autodesk.com
 90
    32897
280
     0
281
     0
  0
CLASS
  1
AEC_DISP_REP_RAILING_PLAN
  2
AecDbDispRepRailingPlan
  3
AecArchBase50|Product Desc: Autodesk Architectural Desktop 2007 |Company: Autodesk,Inc. |WEB Address: www.autodesk.com
 90
    32897
280
     0
281
     0
  0
CLASS
  1
AEC_DISP_REP_ROOF_MODEL
  2
AecDbDispRepRoofModel
  3
AecArchBase50|Product Desc: Autodesk Architectural Desktop 2007 |Company: Autodesk,Inc. |WEB Address: www.autodesk.com
 90
    32897
280
     0
281
     0
  0
CLASS
  1
AEC_DISP_REP_ROOF_PLAN
  2
AecDbDispRepRoofPlan
  3
AecArchBase50|Product Desc: Autodesk Architectural Desktop 2007 |Company: Autodesk,Inc. |WEB Address: www.autodesk.com
 90
    32897
280
     0
281
     0
  0
CLASS
  1
AEC_DISP_REP_ROOFSLAB_MODEL
  2
AecDbDispRepRoofSlabModel
  3
AecArchBase50|Product Desc: Autodesk Architectural Desktop 2007 |Company: Autodesk,Inc. |WEB Address: www.autodesk.com
 90
    32897
280
     0
281
     0
  0
CLASS
  1
AEC_DISP_REP_ROOFSLAB_PLAN
  2
AecDbDispRepRoofSlabPlan
  3
AecArchBase50|Product Desc: Autodesk Architectural Desktop 2007 |Company: Autodesk,Inc. |WEB Address: www.autodesk.com
 90
    32897
280
     0
281
     0
  0
CLASS
  1
AEC_DISP_REP_SCHEDULE_TABLE
  2
AecDbDispRepScheduleTable
  3
AecSchedule50|Product Desc: Autodesk Architectural Desktop 2007 |Company: Autodesk,Inc. |WEB Address: www.autodesk.com
 90
    32897
280
     0
281
     0
  0
CLASS
  1
AEC_DISP_REP_SLAB_MODEL
  2
AecDbDispRepSlabModel
  3
AecArchBase50|Product Desc: Autodesk Architectural Desktop 2007 |Company: Autodesk,Inc. |WEB Address: www.autodesk.com
 90
    32897
280
     0
281
     0
  0
CLASS
  1
AEC_DISP_REP_SLAB_PLAN
  2
AecDbDispRepSlabPlan
  3
AecArchBase50|Product Desc: Autodesk Architectural Desktop 2007 |Company: Autodesk,Inc. |WEB Address: www.autodesk.com
 90
    32897
280
     0
281
     0
  0
CLASS
  1
AEC_DISP_REP_SLICE
  2
AecDbDispRepSlice
  3
AecBase50|Product Desc: Autodesk Architectural Desktop 2007 |Company: Autodesk,Inc. |WEB Address: www.autodesk.com
 90
    32897
280
     0
281
     0
  0
CLASS
  1
AEC_DISP_REP_SPACE_BOUNDARY_MODEL
  2
AecDbDispRepSpaceBoundaryModel
  3
AecArchBase50|Product Desc: Autodesk Architectural Desktop 2007 |Company: Autodesk,Inc. |WEB Address: www.autodesk.com
 90
    32897
280
     0
281
     0
  0
CLASS
  1
AEC_DISP_REP_SPACE_BOUNDARY_PLAN
  2
AecDbDispRepSpaceBoundaryPlan
  3
AecArchBase50|Product Desc: Autodesk Architectural Desktop 2007 |Company: Autodesk,Inc. |WEB Address: www.autodesk.com
 90
    32897
280
     0
281
     0
  0
CLASS
  1
AEC_DISP_REP_SPACE_BOUNDARY_SCHEM
  2
AecDbDispRepSpaceBoundarySketch
  3
AecArchBase50|Product Desc: Autodesk Architectural Desktop 2007 |Company: Autodesk,Inc. |WEB Address: www.autodesk.com
 90
    32897
280
     0
281
     0
  0
CLASS
  1
AEC_DISP_REP_SPACE_MODEL
  2
AecDbDispRepSpaceModel
  3
AecArchBase50|Product Desc: Autodesk Architectural Desktop 2007 |Company: Autodesk,Inc. |WEB Address: www.autodesk.com
 90
    32897
280
     0
281
     0
  0
CLASS
  1
AEC_DISP_REP_SPACE_PLAN
  2
AecDbDispRepSpacePlan
  3
AecArchBase50|Product Desc: Autodesk Architectural Desktop 2007 |Company: Autodesk,Inc. |WEB Address: www.autodesk.com
 90
    32897
280
     0
281
     0
  0
CLASS
  1
AEC_DISP_REP_STAIR_MODEL
  2
AecDbDispRepStairModel
  3
AecArchBase50|Product Desc: Autodesk Architectural Desktop 2007 |Company: Autodesk,Inc. |WEB Address: www.autodesk.com
 90
    32897
280
     0
281
     0
  0
CLASS
  1
AEC_DISP_REP_STAIR_PLAN
  2
AecDbDispRepStairPlan
  3
AecArchBase50|Product Desc: Autodesk Architectural Desktop 2007 |Company: Autodesk,Inc. |WEB Address: www.autodesk.com
 90
    32897
280
     0
281
     0
  0
CLASS
  1
AEC_DISP_REP_WALL_GRAPH
  2
AecDbDispRepWallGraph
  3
AecArchBase50|Product Desc: Autodesk Architectural Desktop 2007 |Company: Autodesk,Inc. |WEB Address: www.autodesk.com
 90
    32897
280
     0
281
     0
  0
CLASS
  1
AEC_DISP_REP_WALL_MODEL
  2
AecDbDispRepWallModel
  3
AecArchBase50|Product Desc: Autodesk Architectural Desktop 2007 |Company: Autodesk,Inc. |WEB Address: www.autodesk.com
 90
    32897
280
     0
281
     0
  0
CLASS
  1
AEC_DISP_REP_WALL_PLAN
  2
AecDbDispRepWallPlan
  3
AecArchBase50|Product Desc: Autodesk Architectural Desktop 2007 |Company: Autodesk,Inc. |WEB Address: www.autodesk.com
 90
    32897
280
     0
281
     0
  0
CLASS
  1
AEC_DISP_REP_WALL_SCHEM
  2
AecDbDispRepWallSchem
  3
AecArchBase50|Product Desc: Autodesk Architectural Desktop 2007 |Company: Autodesk,Inc. |WEB Address: www.autodesk.com
 90
    32897
280
     0
281
     0
  0
CLASS
  1
AEC_DISP_REP_WINDOW_ASSEMBLY_MODEL
  2
AecDbDispRepWindowAssemblyModel
  3
AecArchBase50|Product Desc: Autodesk Architectural Desktop 2007 |Company: Autodesk,Inc. |WEB Address: www.autodesk.com
 90
    32897
280
     0
281
     0
  0
CLASS
  1
AEC_DISP_REP_WINDOW_ASSEMBLY_PLAN
  2
AecDbDispRepWindowAssemblyPlan
  3
AecArchBase50|Product Desc: Autodesk Architectural Desktop 2007 |Company: Autodesk,Inc. |WEB Address: www.autodesk.com
 90
    32897
280
     0
281
     0
  0
CLASS
  1
AEC_AECDBDISPREPWINDOWASSEMBLYPLAN100
  2
AecDbDispRepWindowAssemblyPlan100
  3
AecArchDACHBase50|Product Desc: Autodesk Architectural Desktop 2007 |Company: Autodesk,Inc. |WEB Address: www.autodesk.com
 90
    32897
280
     0
281
     0
  0
CLASS
  1
AEC_DISP_REP_WINDOW_MODEL
  2
AecDbDispRepWindowModel
  3
AecArchBase50|Product Desc: Autodesk Architectural Desktop 2007 |Company: Autodesk,Inc. |WEB Address: www.autodesk.com
 90
    32897
280
     0
281
     0
  0
CLASS
  1
AEC_DISP_REP_WINDOW_NOMINAL
  2
AecDbDispRepWindowNominal
  3
AecArchBase50|Product Desc: Autodesk Architectural Desktop 2007 |Company: Autodesk,Inc. |WEB Address: www.autodesk.com
 90
    32897
280
     0
281
     0
  0
CLASS
  1
AEC_DISP_REP_WINDOW_PLAN
  2
AecDbDispRepWindowPlan
  3
AecArchBase50|Product Desc: Autodesk Architectural Desktop 2007 |Company: Autodesk,Inc. |WEB Address: www.autodesk.com
 90
    32897
280
     0
281
     0
  0
CLASS
  1
AECS_DISP_REP_MEMBER_LOGICAL
  2
AecsDbDispRepMemberLogical
  3
AecStructureBase50|Product Desc: Autodesk Architectural Desktop 2007 |Company: Autodesk,Inc. |WEB Address: www.autodesk.com
 90
    32897
280
     0
281
     0
  0
CLASS
  1
AECS_DISP_REP_MEMBER_MODEL_DESIGN
  2
AecsDbDispRepMemberModelDesign
  3
AecStructureBase50|Product Desc: Autodesk Architectural Desktop 2007 |Company: Autodesk,Inc. |WEB Address: www.autodesk.com
 90
    32897
280
     0
281
     0
  0
CLASS
  1
AECS_DISP_REP_MEMBER_PLAN_DESIGN
  2
AecsDbDispRepMemberPlanDesign
  3
AecStructureBase50|Product Desc: Autodesk Architectural Desktop 2007 |Company: Autodesk,Inc. |WEB Address: www.autodesk.com
 90
    32897
280
     0
281
     0
  0
CLASS
  1
AEC_DISP_PROPS_ENT
  2
AecDbDispPropsEnt
  3
AecBase50|Product Desc: Autodesk Architectural Desktop 2007 |Company: Autodesk,Inc. |WEB Address: www.autodesk.com
 90
    32897
280
     0
281
     0
  0
CLASS
  1
AEC_DISP_PROPS_CLIP_VOLUME
  2
AecDbDispPropsClipVol
  3
AecBase50|Product Desc: Autodesk Architectural Desktop 2007 |Company: Autodesk,Inc. |WEB Address: www.autodesk.com
 90
    32897
280
     0
281
     0
  0
CLASS
  1
AEC_DISP_PROPS_SLICE
  2
AecDbDispPropsSlice
  3
AecBase50|Product Desc: Autodesk Architectural Desktop 2007 |Company: Autodesk,Inc. |WEB Address: www.autodesk.com
 90
    32897
280
     0
281
     0
  0
CLASS
  1
AEC_DISP_PROPS_ROOFSLAB_PLAN
  2
AecDbDispPropsRoofSlabPlan
  3
AecArchBase50|Product Desc: Autodesk Architectural Desktop 2007 |Company: Autodesk,Inc. |WEB Address: www.autodesk.com
 90
    32897
280
     0
281
     0
  0
CLASS
  1
AEC_DISP_PROPS_GRID_ASSEMBLY_MODEL
  2
AecDbDispPropsGridAssemblyModel
  3
AecArchBase50|Product Desc: Autodesk Architectural Desktop 2007 |Company: Autodesk,Inc. |WEB Address: www.autodesk.com
 90
    32897
280
     0
281
     0
  0
CLASS
  1
AEC_DISP_PROPS_ROOF
  2
AecDbDispPropsRoof
  3
AecArchBase50|Product Desc: Autodesk Architectural Desktop 2007 |Company: Autodesk,Inc. |WEB Address: www.autodesk.com
 90
    32897
280
     0
281
     0
  0
CLASS
  1
AEC_DISP_PROPS_SPACE_MODEL
  2
AecDbDispPropsSpaceModel
  3
AecArchBase50|Product Desc: Autodesk Architectural Desktop 2007 |Company: Autodesk,Inc. |WEB Address: www.autodesk.com
 90
    32897
280
     0
281
     0
  0
CLASS
  1
AEC_DISP_PROPS_EDITINPLACEPROFILE_MODEL
  2
AecDbDispPropsEditInPlaceProfile
  3
AecBase50|Product Desc: Autodesk Architectural Desktop 2007 |Company: Autodesk,Inc. |WEB Address: www.autodesk.com
 90
    32897
280
     0
281
     0
  0
CLASS
  1
AEC_DISP_PROPS_DOOR
  2
AecDbDispPropsDoor
  3
AecArchBase50|Product Desc: Autodesk Architectural Desktop 2007 |Company: Autodesk,Inc. |WEB Address: www.autodesk.com
 90
    32897
280
     0
281
     0
  0
CLASS
  1
AEC_DISP_PROPS_MASKBLOCK
  2
AecDbDispPropsMaskBlock
  3
AecBase50|Product Desc: Autodesk Architectural Desktop 2007 |Company: Autodesk,Inc. |WEB Address: www.autodesk.com
 90
    32897
280
     0
281
     0
  0
CLASS
  1
AEC_DISP_PROPS_SPACE_PLAN
  2
AecDbDispPropsSpacePlan
  3
AecArchBase50|Product Desc: Autodesk Architectural Desktop 2007 |Company: Autodesk,Inc. |WEB Address: www.autodesk.com
 90
    32897
280
     0
281
     0
  0
CLASS
  1
AEC_DISP_PROPS_RAILING_PLAN
  2
AecDbDispPropsRailingPlan
  3
AecArchBase50|Product Desc: Autodesk Architectural Desktop 2007 |Company: Autodesk,Inc. |WEB Address: www.autodesk.com
 90
    32897
280
     0
281
     0
  0
CLASS
  1
AEC_DISP_PROPS_LAYOUT_GRID2D
  2
AecDbDispPropsLayoutGrid2d
  3
AecBase50|Product Desc: Autodesk Architectural Desktop 2007 |Company: Autodesk,Inc. |WEB Address: www.autodesk.com
 90
    32897
280
     0
281
     0
  0
CLASS
  1
AEC_DISP_PROPS_CLIP_VOLUME_RESULT
  2
AecDbDispPropsClipVolResSubDiv
  3
AecBase50|Product Desc: Autodesk Architectural Desktop 2007 |Company: Autodesk,Inc. |WEB Address: www.autodesk.com
 90
    32897
280
     0
281
     0
  0
CLASS
  1
AEC_DISP_PROPS_STAIR_MODEL
  2
AecDbDispPropsStairModel
  3
AecArchBase50|Product Desc: Autodesk Architectural Desktop 2007 |Company: Autodesk,Inc. |WEB Address: www.autodesk.com
 90
    32897
280
     0
281
     0
  0
CLASS
  1
AEC_DISP_PROPS_LAYOUT_CURVE
  2
AecDbDispPropsLayoutCurve
  3
AecBase50|Product Desc: Autodesk Architectural Desktop 2007 |Company: Autodesk,Inc. |WEB Address: www.autodesk.com
 90
    32897
280
     0
281
     0
  0
CLASS
  1
AEC_DISP_PROPS_POLYGON_MODEL
  2
AecDbDispPropsPolygonModel
  3
AecBase50|Product Desc: Autodesk Architectural Desktop 2007 |Company: Autodesk,Inc. |WEB Address: www.autodesk.com
 90
    32897
280
     0
281
     0
  0
CLASS
  1
AEC_DISP_PROPS_MASS_GROUP
  2
AecDbDispPropsMassGroup
  3
AecBaseEx50|Product Desc: Autodesk Architectural Desktop 2007 |Company: Autodesk,Inc. |WEB Address: www.autodesk.com
 90
    32897
280
     0
281
     0
  0
CLASS
  1
AEC_DISP_PROPS_STAIR_PLAN
  2
AecDbDispPropsStairPlan
  3
AecArchBase50|Product Desc: Autodesk Architectural Desktop 2007 |Company: Autodesk,Inc. |WEB Address: www.autodesk.com
 90
    32897
280
     0
281
     0
  0
CLASS
  1
AEC_DISP_PROPS_OPENING
  2
AecDbDispPropsOpening
  3
AecArchBase50|Product Desc: Autodesk Architectural Desktop 2007 |Company: Autodesk,Inc. |WEB Address: www.autodesk.com
 90
    32897
280
     0
281
     0
  0
CLASS
  1
AEC_DISP_PROPS_WALL_GRAPH
  2
AecDbDispPropsWallGraph
  3
AecArchBase50|Product Desc: Autodesk Architectural Desktop 2007 |Company: Autodesk,Inc. |WEB Address: www.autodesk.com
 90
    32897
280
     0
281
     0
  0
CLASS
  1
AEC_DISP_PROPS_DOOR_NOMINAL
  2
AecDbDispPropsDoorNominal
  3
AecArchBase50|Product Desc: Autodesk Architectural Desktop 2007 |Company: Autodesk,Inc. |WEB Address: www.autodesk.com
 90
    32897
280
     0
281
     0
  0
CLASS
  1
AEC_DISP_PROPS_SLAB
  2
AecDbDispPropsSlab
  3
AecArchBase50|Product Desc: Autodesk Architectural Desktop 2007 |Company: Autodesk,Inc. |WEB Address: www.autodesk.com
 90
    32897
280
     0
281
     0
  0
CLASS
  1
AEC_DISP_PROPS_WALL_MODEL
  2
AecDbDispPropsWallModel
  3
AecArchBase50|Product Desc: Autodesk Architectural Desktop 2007 |Company: Autodesk,Inc. |WEB Address: www.autodesk.com
 90
    32897
280
     0
281
     0
  0
CLASS
  1
AEC_DISP_PROPS_MATERIAL
  2
AecDbDispPropsMaterial
  3
AecBase50|Product Desc: Autodesk Architectural Desktop 2007 |Company: Autodesk,Inc. |WEB Address: www.autodesk.com
 90
    32897
280
     0
281
     0
  0
CLASS
  1
AEC_DISP_PROPS_WINDOW
  2
AecDbDispPropsWindow
  3
AecArchBase50|Product Desc: Autodesk Architectural Desktop 2007 |Company: Autodesk,Inc. |WEB Address: www.autodesk.com
 90
    32897
280
     0
281
     0
  0
CLASS
  1
AEC_DISP_PROPS_LAYOUT_GRID3D
  2
AecDbDispPropsLayoutGrid3d
  3
AecBase50|Product Desc: Autodesk Architectural Desktop 2007 |Company: Autodesk,Inc. |WEB Address: www.autodesk.com
 90
    32897
280
     0
281
     0
  0
CLASS
  1
AEC_DISP_PROPS_GRID_ASSEMBLY_PLAN
  2
AecDbDispPropsGridAssemblyPlan
  3
AecArchBase50|Product Desc: Autodesk Architectural Desktop 2007 |Company: Autodesk,Inc. |WEB Address: www.autodesk.com
 90
    32897
280
     0
281
     0
  0
CLASS
  1
AEC_DISP_PROPS_WALL_SCHEM
  2
AecDbDispPropsWallSchem
  3
AecArchBase50|Product Desc: Autodesk Architectural Desktop 2007 |Company: Autodesk,Inc. |WEB Address: www.autodesk.com
 90
    32897
280
     0
281
     0
  0
CLASS
  1
AEC_DISP_PROPS_WALL_PLAN
  2
AecDbDispPropsWallPlan
  3
AecArchBase50|Product Desc: Autodesk Architectural Desktop 2007 |Company: Autodesk,Inc. |WEB Address: www.autodesk.com
 90
    32897
280
     0
281
     0
  0
CLASS
  1
AEC_DISP_PROPS_SPACE_BOUNDARY
  2
AecDbDispPropsSpaceBoundary
  3
AecArchBase50|Product Desc: Autodesk Architectural Desktop 2007 |Company: Autodesk,Inc. |WEB Address: www.autodesk.com
 90
    32897
280
     0
281
     0
  0
CLASS
  1
AEC_DISP_PROPS_SLAB_PLAN
  2
AecDbDispPropsSlabPlan
  3
AecArchBase50|Product Desc: Autodesk Architectural Desktop 2007 |Company: Autodesk,Inc. |WEB Address: www.autodesk.com
 90
    32897
280
     0
281
     0
  0
CLASS
  1
AEC_DISP_PROPS_RAILING_MODEL
  2
AecDbDispPropsRailingModel
  3
AecArchBase50|Product Desc: Autodesk Architectural Desktop 2007 |Company: Autodesk,Inc. |WEB Address: www.autodesk.com
 90
    32897
280
     0
281
     0
  0
CLASS
  1
AEC_DISP_PROPS_MASS_ELEM_MODEL
  2
AecDbDispPropsMassElem
  3
AecBaseEx50|Product Desc: Autodesk Architectural Desktop 2007 |Company: Autodesk,Inc. |WEB Address: www.autodesk.com
 90
    32897
280
     0
281
     0
  0
CLASS
  1
AEC_DISP_PROPS_DIM
  2
AecDbDispPropsDimGroup
  3
AecArchDACHBase50|Product Desc: Autodesk Architectural Desktop 2007 |Company: Autodesk,Inc. |WEB Address: www.autodesk.com
 90
    32897
280
     0
281
     0
  0
CLASS
  1
AEC_DISP_PROPS_ROOFSLAB
  2
AecDbDispPropsRoofSlab
  3
AecArchBase50|Product Desc: Autodesk Architectural Desktop 2007 |Company: Autodesk,Inc. |WEB Address: www.autodesk.com
 90
    32897
280
     0
281
     0
  0
CLASS
  1
AEC_DISP_PROPS_ENT_REF
  2
AecDbDispPropsEntRef
  3
AecBase50|Product Desc: Autodesk Architectural Desktop 2007 |Company: Autodesk,Inc. |WEB Address: www.autodesk.com
 90
    32897
280
     0
281
     0
  0
CLASS
  1
AEC_DISP_PROPS_2D_SECTION
  2
AecDbDispProps2dSection
  3
AecBase50|Product Desc: Autodesk Architectural Desktop 2007 |Company: Autodesk,Inc. |WEB Address: www.autodesk.com
 90
    32897
280
     0
281
     0
  0
CLASS
  1
AECS_DISP_PROPS_MEMBER_LOGICAL
  2
AecsDbDispPropsMemberLogical
  3
AecStructureBase50|Product Desc: Autodesk Architectural Desktop 2007 |Company: Autodesk,Inc. |WEB Address: www.autodesk.com
 90
    32897
280
     0
281
     0
  0
CLASS
  1
AEC_DISP_PROPS_AREA_DECOMPOSED
  2
AecDbDispPropsAreaDecomposed
  3
AecAreaCalculationBase50|Product Desc: Autodesk Architectural Desktop 2007 |Company: Autodesk,Inc. |WEB Address: www.autodesk.com
 90
    32897
280
     0
281
     0
  0
CLASS
  1
AEC_DISP_PROPS_CAMERA
  2
AecDbDispPropsCamera
  3
AecBase50|Product Desc: Autodesk Architectural Desktop 2007 |Company: Autodesk,Inc. |WEB Address: www.autodesk.com
 90
    32897
280
     0
281
     0
  0
CLASS
  1
AECS_DISP_PROPS_MEMBER
  2
AecsDbDispPropsMember
  3
AecStructureBase50|Product Desc: Autodesk Architectural Desktop 2007 |Company: Autodesk,Inc. |WEB Address: www.autodesk.com
 90
    32897
280
     0
281
     0
  0
CLASS
  1
AECS_DISP_PROPS_MEMBER_PLAN
  2
AecsDbDispPropsMemberPlan
  3
AecStructureBase50|Product Desc: Autodesk Architectural Desktop 2007 |Company: Autodesk,Inc. |WEB Address: www.autodesk.com
 90
    32897
280
     0
281
     0
  0
CLASS
  1
AEC_DISP_PROPS_AREAGROUP
  2
AecDbDispPropsAreaGroup
  3
AecAreaCalculationBase50|Product Desc: Autodesk Architectural Desktop 2007 |Company: Autodesk,Inc. |WEB Address: www.autodesk.com
 90
    32897
280
     0
281
     0
  0
CLASS
  1
AEC_DISP_PROPS_WINDOW_NOMINAL
  2
AecDbDispPropsWindowNominal
  3
AecArchBase50|Product Desc: Autodesk Architectural Desktop 2007 |Company: Autodesk,Inc. |WEB Address: www.autodesk.com
 90
    32897
280
     0
281
     0
  0
CLASS
  1
AEC_DISP_PROPS_AREA
  2
AecDbDispPropsArea
  3
AecAreaCalculationBase50|Product Desc: Autodesk Architectural Desktop 2007 |Company: Autodesk,Inc. |WEB Address: www.autodesk.com
 90
    32897
280
     0
281
     0
  0
CLASS
  1
AEC_DISP_PROPS_SCHEDULE_TABLE
  2
AecDbDispPropsScheduleTable
  3
AecSchedule50|Product Desc: Autodesk Architectural Desktop 2007 |Company: Autodesk,Inc. |WEB Address: www.autodesk.com
 90
    32897
280
     0
281
     0
  0
CLASS
  1
AEC_LAYERKEY_STYLE
  2
AecDbLayerKeyStyle
  3
AecBase50|Product Desc: Autodesk Architectural Desktop 2007 |Company: Autodesk,Inc. |WEB Address: www.autodesk.com
 90
    32897
280
     0
281
     0
  0
CLASS
  1
AEC_VARS_ARCHBASE
  2
AecDbVarsArchBase
  3
AecArchBase50|Product Desc: Autodesk Architectural Desktop 2007 |Company: Autodesk,Inc. |WEB Address: www.autodesk.com
 90
    32897
280
     0
281
     0
  0
CLASS
  1
AEC_VARS_MUNICH
  2
AecDbVarsMunich
  3
AecArchDACHBase50|Product Desc: Autodesk Architectural Desktop 2007 |Company: Autodesk,Inc. |WEB Address: www.autodesk.com
 90
    32897
280
     0
281
     0
  0
CLASS
  1
AEC_NOTIFICATION_TRACKER
  2
AecDbNotificationTracker
  3
AecBase50|Product Desc: Autodesk Architectural Desktop 2007 |Company: Autodesk,Inc. |WEB Address: www.autodesk.com
 90
    32897
280
     0
281
     0
  0
CLASS
  1
AEC_DISP_REP_ANCHOR
  2
AecDbDispRepAnchor
  3
AecBase50|Product Desc: Autodesk Architectural Desktop 2007 |Company: Autodesk,Inc. |WEB Address: www.autodesk.com
 90
    32897
280
     0
281
     0
  0
CLASS
  1
AEC_DISP_REP_POLYGON_TRUECOLOUR
  2
AecDbDispRepPolygonTrueColour
  3
AecBase50|Product Desc: Autodesk Architectural Desktop 2007 |Company: Autodesk,Inc. |WEB Address: www.autodesk.com
 90
    32897
280
     0
281
     0
  0
CLASS
  1
AEC_DISP_PROPS_POLYGON_TRUECOLOUR
  2
AecDbDispPropsPolygonTrueColour
  3
AecBase50|Product Desc: Autodesk Architectural Desktop 2007 |Company: Autodesk,Inc. |WEB Address: www.autodesk.com
 90
    32897
280
     0
281
     0
  0
CLASS
  1
AEC_DISP_REP_BDG_ELEVLINE_RCP
  2
AecDbDispRepBdgElevLineRcp
  3
AecArchBase50|Product Desc: Autodesk Architectural Desktop 2007 |Company: Autodesk,Inc. |WEB Address: www.autodesk.com
 90
    32897
280
     0
281
     0
  0
CLASS
  1
AEC_DISP_REP_BDG_SECTIONLINE_RCP
  2
AecDbDispRepBdgSectionLineRcp
  3
AecArchBase50|Product Desc: Autodesk Architectural Desktop 2007 |Company: Autodesk,Inc. |WEB Address: www.autodesk.com
 90
    32897
280
     0
281
     0
  0
CLASS
  1
AEC_DISP_REP_BDG_SECTION_MODEL
  2
AecDbDispRepBdgSectionModel
  3
AecArchBase50|Product Desc: Autodesk Architectural Desktop 2007 |Company: Autodesk,Inc. |WEB Address: www.autodesk.com
 90
    32897
280
     0
281
     0
  0
CLASS
  1
AEC_DISP_REP_DOOR_ELEV
  2
AecDbDispRepDoorElev
  3
AecArchBase50|Product Desc: Autodesk Architectural Desktop 2007 |Company: Autodesk,Inc. |WEB Address: www.autodesk.com
 90
    32897
280
     0
281
     0
  0
CLASS
  1
AEC_DISP_REP_DOOR_RCP
  2
AecDbDispRepDoorRcp
  3
AecArchBase50|Product Desc: Autodesk Architectural Desktop 2007 |Company: Autodesk,Inc. |WEB Address: www.autodesk.com
 90
    32897
280
     0
281
     0
  0
CLASS
  1
AEC_DISP_REP_DOOR_THRESHOLD_PLAN
  2
AecDbDispRepDoorThresholdPlan
  3
AecArchBase50|Product Desc: Autodesk Architectural Desktop 2007 |Company: Autodesk,Inc. |WEB Address: www.autodesk.com
 90
    32897
280
     0
281
     0
  0
CLASS
  1
AEC_DISP_PROPS_DOOR_THRESHOLD_PLAN
  2
AecDbDispPropsDoorThresholdPlan
  3
AecArchBase50|Product Desc: Autodesk Architectural Desktop 2007 |Company: Autodesk,Inc. |WEB Address: www.autodesk.com
 90
    32897
280
     0
281
     0
  0
CLASS
  1
AEC_DISP_REP_MASS_ELEM_RCP
  2
AecDbDispRepMassElemRcp
  3
AecArchBase50|Product Desc: Autodesk Architectural Desktop 2007 |Company: Autodesk,Inc. |WEB Address: www.autodesk.com
 90
    32897
280
     0
281
     0
  0
CLASS
  1
AEC_DISP_REP_MASS_GROUP_RCP
  2
AecDbDispRepMassGroupRcp
  3
AecArchBase50|Product Desc: Autodesk Architectural Desktop 2007 |Company: Autodesk,Inc. |WEB Address: www.autodesk.com
 90
    32897
280
     0
281
     0
  0
CLASS
  1
AEC_DISP_REP_MVBLOCK_REF_RCP
  2
AecDbDispRepMvBlockRefRcp
  3
AecArchBase50|Product Desc: Autodesk Architectural Desktop 2007 |Company: Autodesk,Inc. |WEB Address: www.autodesk.com
 90
    32897
280
     0
281
     0
  0
CLASS
  1
AEC_DISP_REP_ROOF_RCP
  2
AecDbDispRepRoofRcp
  3
AecArchBase50|Product Desc: Autodesk Architectural Desktop 2007 |Company: Autodesk,Inc. |WEB Address: www.autodesk.com
 90
    32897
280
     0
281
     0
  0
CLASS
  1
AEC_DISP_REP_SPACE_BOUNDARY_DIAGRAM
  2
AecDbDispRepSpaceBoundaryDgrm
  3
AecArchBase50|Product Desc: Autodesk Architectural Desktop 2007 |Company: Autodesk,Inc. |WEB Address: www.autodesk.com
 90
    32897
280
     0
281
     0
  0
CLASS
  1
AEC_DISP_REP_SPACE_RCP
  2
AecDbDispRepSpaceRcp
  3
AecArchBase50|Product Desc: Autodesk Architectural Desktop 2007 |Company: Autodesk,Inc. |WEB Address: www.autodesk.com
 90
    32897
280
     0
281
     0
  0
CLASS
  1
AEC_DISP_REP_SPACE_VOLUME
  2
AecDbDispRepSpaceVolume
  3
AecArchBase50|Product Desc: Autodesk Architectural Desktop 2007 |Company: Autodesk,Inc. |WEB Address: www.autodesk.com
 90
    32897
280
     0
281
     0
  0
CLASS
  1
AEC_DISP_REP_STAIR_PLAN_OVERLAPPING
  2
AecDbDispRepStairPlanOverlapping
  3
AecArchBase50|Product Desc: Autodesk Architectural Desktop 2007 |Company: Autodesk,Inc. |WEB Address: www.autodesk.com
 90
    32897
280
     0
281
     0
  0
CLASS
  1
AEC_DISP_PROPS_STAIR_PLAN_OVERLAPPING
  2
AecDbDispPropsStairPlanOverlapping
  3
AecArchBase50|Product Desc: Autodesk Architectural Desktop 2007 |Company: Autodesk,Inc. |WEB Address: www.autodesk.com
 90
    32897
280
     0
281
     0
  0
CLASS
  1
AEC_DISP_REP_STAIR_RCP
  2
AecDbDispRepStairRcp
  3
AecArchBase50|Product Desc: Autodesk Architectural Desktop 2007 |Company: Autodesk,Inc. |WEB Address: www.autodesk.com
 90
    32897
280
     0
281
     0
  0
CLASS
  1
AEC_DISP_REP_WALL_RCP
  2
AecDbDispRepWallRcp
  3
AecArchBase50|Product Desc: Autodesk Architectural Desktop 2007 |Company: Autodesk,Inc. |WEB Address: www.autodesk.com
 90
    32897
280
     0
281
     0
  0
CLASS
  1
AEC_DISP_REP_WINDOWASSEMBLY_SILL_PLAN
  2
AecDbDispRepWindowAssemblySillPlan
  3
AecArchBase50|Product Desc: Autodesk Architectural Desktop 2007 |Company: Autodesk,Inc. |WEB Address: www.autodesk.com
 90
    32897
280
     0
281
     0
  0
CLASS
  1
AEC_DISP_PROPS_WINDOW_ASSEMBLY_SILL_PLAN
  2
AecDbDispPropsWindowAssemblySillPlan
  3
AecArchBase50|Product Desc: Autodesk Architectural Desktop 2007 |Company: Autodesk,Inc. |WEB Address: www.autodesk.com
 90
    32897
280
     0
281
     0
  0
CLASS
  1
AEC_DISP_REP_WINDOW_ELEV
  2
AecDbDispRepWindowElev
  3
AecArchBase50|Product Desc: Autodesk Architectural Desktop 2007 |Company: Autodesk,Inc. |WEB Address: www.autodesk.com
 90
    32897
280
     0
281
     0
  0
CLASS
  1
AEC_DISP_REP_WINDOW_RCP
  2
AecDbDispRepWindowRcp
  3
AecArchBase50|Product Desc: Autodesk Architectural Desktop 2007 |Company: Autodesk,Inc. |WEB Address: www.autodesk.com
 90
    32897
280
     0
281
     0
  0
CLASS
  1
AEC_DISP_REP_WINDOW_SILL_PLAN
  2
AecDbDispRepWindowSillPlan
  3
AecArchBase50|Product Desc: Autodesk Architectural Desktop 2007 |Company: Autodesk,Inc. |WEB Address: www.autodesk.com
 90
    32897
280
     0
281
     0
  0
CLASS
  1
AEC_DISP_PROPS_WINDOW_SILL_PLAN
  2
AecDbDispPropsWindowSillPlan
  3
AecArchBase50|Product Desc: Autodesk Architectural Desktop 2007 |Company: Autodesk,Inc. |WEB Address: www.autodesk.com
 90
    32897
280
     0
281
     0
  0
CLASS
  1
AEC_DISP_REP_ANCHOR_BUB_TO_GRID_RCP
  2
AecDbDispRepAnchorBubToGridRcp
  3
AecStructureBase50|Product Desc: Autodesk Architectural Desktop 2007 |Company: Autodesk,Inc. |WEB Address: www.autodesk.com
 90
    32897
280
     0
281
     0
  0
CLASS
  1
AEC_DISP_REP_COLUMN_GRID_RCP
  2
AecDbDispRepColumnGridRcp
  3
AecStructureBase50|Product Desc: Autodesk Architectural Desktop 2007 |Company: Autodesk,Inc. |WEB Address: www.autodesk.com
 90
    32897
280
     0
281
     0
  0
CLASS
  1
AECS_DISP_REP_MEMBER_ELEVATION_DESIGN
  2
AecsDbDispRepMemberElevationDesign
  3
AecStructureBase50|Product Desc: Autodesk Architectural Desktop 2007 |Company: Autodesk,Inc. |WEB Address: www.autodesk.com
 90
    32897
280
     0
281
     0
  0
CLASS
  1
AECS_DISP_PROPS_MEMBER_PROJECTED
  2
AecsDbDispPropsMemberProjected
  3
AecStructureBase50|Product Desc: Autodesk Architectural Desktop 2007 |Company: Autodesk,Inc. |WEB Address: www.autodesk.com
 90
    32897
280
     0
281
     0
  0
CLASS
  1
AECS_DISP_REP_MEMBER_ELEVATION_DETAIL
  2
AecsDbDispRepMemberElevationDetail
  3
AecStructureBase50|Product Desc: Autodesk Architectural Desktop 2007 |Company: Autodesk,Inc. |WEB Address: www.autodesk.com
 90
    32897
280
     0
281
     0
  0
CLASS
  1
AECS_DISP_REP_MEMBER_MODEL_DETAIL
  2
AecsDbDispRepMemberModelDetail
  3
AecStructureBase50|Product Desc: Autodesk Architectural Desktop 2007 |Company: Autodesk,Inc. |WEB Address: www.autodesk.com
 90
    32897
280
     0
281
     0
  0
CLASS
  1
AECS_DISP_REP_MEMBER_PLAN_DETAIL
  2
AecsDbDispRepMemberPlanDetail
  3
AecStructureBase50|Product Desc: Autodesk Architectural Desktop 2007 |Company: Autodesk,Inc. |WEB Address: www.autodesk.com
 90
    32897
280
     0
281
     0
  0
CLASS
  1
AECS_DISP_REP_MEMBER_PLAN_SKETCH
  2
AecsDbDispRepMemberPlanSketch
  3
AecStructureBase50|Product Desc: Autodesk Architectural Desktop 2007 |Company: Autodesk,Inc. |WEB Address: www.autodesk.com
 90
    32897
280
     0
281
     0
  0
CLASS
  1
AECS_DISP_PROPS_MEMBER_PLAN_SKETCH
  2
AecsDbDispPropsMemberPlanSketch
  3
AecStructureBase50|Product Desc: Autodesk Architectural Desktop 2007 |Company: Autodesk,Inc. |WEB Address: www.autodesk.com
 90
    32897
280
     0
281
     0
  0
CLASS
  1
AEC_AECDBDISPREPAREA100
  2
AecDbDispRepArea100
  3
AecArchDACHBase50|Product Desc: Autodesk Architectural Desktop 2007 |Company: Autodesk,Inc. |WEB Address: www.autodesk.com
 90
    32897
280
     0
281
     0
  0
CLASS
  1
AEC_AECDBDISPREPAREAGROUP100
  2
AecDbDispRepAreaGroup100
  3
AecArchDACHBase50|Product Desc: Autodesk Architectural Desktop 2007 |Company: Autodesk,Inc. |WEB Address: www.autodesk.com
 90
    32897
280
     0
281
     0
  0
CLASS
  1
AEC_AECDBDISPREPBDGELEVLINEPLAN100
  2
AecDbDispRepBdgElevLinePlan100
  3
AecArchDACHBase50|Product Desc: Autodesk Architectural Desktop 2007 |Company: Autodesk,Inc. |WEB Address: www.autodesk.com
 90
    32897
280
     0
281
     0
  0
CLASS
  1
AEC_AECDBDISPREPBDGSECTIONLINEPLAN100
  2
AecDbDispRepBdgSectionLinePlan100
  3
AecArchDACHBase50|Product Desc: Autodesk Architectural Desktop 2007 |Company: Autodesk,Inc. |WEB Address: www.autodesk.com
 90
    32897
280
     0
281
     0
  0
CLASS
  1
AEC_AECDBDISPREPCEILINGGRIDPLAN100
  2
AecDbDispRepCeilingGridPlan100
  3
AecArchDACHBase50|Product Desc: Autodesk Architectural Desktop 2007 |Company: Autodesk,Inc. |WEB Address: www.autodesk.com
 90
    32897
280
     0
281
     0
  0
CLASS
  1
AEC_AECDBDISPREPCOLUMNGRIDPLAN100
  2
AecDbDispRepColumnGridPlan100
  3
AecArchDACHBase50|Product Desc: Autodesk Architectural Desktop 2007 |Company: Autodesk,Inc. |WEB Address: www.autodesk.com
 90
    32897
280
     0
281
     0
  0
CLASS
  1
AEC_AECDBDISPREPCURTAINWALLLAYOUTPLAN100
  2
AecDbDispRepCurtainWallLayoutPlan100
  3
AecArchDACHBase50|Product Desc: Autodesk Architectural Desktop 2007 |Company: Autodesk,Inc. |WEB Address: www.autodesk.com
 90
    32897
280
     0
281
     0
  0
CLASS
  1
AEC_AECDBDISPREPCURTAINWALLUNITPLAN100
  2
AecDbDispRepCurtainWallUnitPlan100
  3
AecArchDACHBase50|Product Desc: Autodesk Architectural Desktop 2007 |Company: Autodesk,Inc. |WEB Address: www.autodesk.com
 90
    32897
280
     0
281
     0
  0
CLASS
  1
AEC_AECDBDISPREPMVBLOCKREFPLAN100
  2
AecDbDispRepMvBlockRefPlan100
  3
AecArchDACHBase50|Product Desc: Autodesk Architectural Desktop 2007 |Company: Autodesk,Inc. |WEB Address: www.autodesk.com
 90
    32897
280
     0
281
     0
  0
CLASS
  1
AEC_AECDBDISPREPROOFPLAN100
  2
AecDbDispRepRoofPlan100
  3
AecArchDACHBase50|Product Desc: Autodesk Architectural Desktop 2007 |Company: Autodesk,Inc. |WEB Address: www.autodesk.com
 90
    32897
280
     0
281
     0
  0
CLASS
  1
AEC_AECDBDISPREPROOFSLABPLAN100
  2
AecDbDispRepRoofSlabPlan100
  3
AecArchDACHBase50|Product Desc: Autodesk Architectural Desktop 2007 |Company: Autodesk,Inc. |WEB Address: www.autodesk.com
 90
    32897
280
     0
281
     0
  0
CLASS
  1
AEC_AECDBDISPREPSLABPLAN100
  2
AecDbDispRepSlabPlan100
  3
AecArchDACHBase50|Product Desc: Autodesk Architectural Desktop 2007 |Company: Autodesk,Inc. |WEB Address: www.autodesk.com
 90
    32897
280
     0
281
     0
  0
CLASS
  1
AEC_AECDBDISPREPSPACEBOUNDARYPLAN100
  2
AecDbDispRepSpaceBoundaryPlan100
  3
AecArchDACHBase50|Product Desc: Autodesk Architectural Desktop 2007 |Company: Autodesk,Inc. |WEB Address: www.autodesk.com
 90
    32897
280
     0
281
     0
  0
CLASS
  1
AEC_AECDBDISPREPSPACEPLAN100
  2
AecDbDispRepSpacePlan100
  3
AecArchDACHBase50|Product Desc: Autodesk Architectural Desktop 2007 |Company: Autodesk,Inc. |WEB Address: www.autodesk.com
 90
    32897
280
     0
281
     0
  0
CLASS
  1
AEC_AECDBDISPREPWALLPLAN100
  2
AecDbDispRepWallPlan100
  3
AecArchDACHBase50|Product Desc: Autodesk Architectural Desktop 2007 |Company: Autodesk,Inc. |WEB Address: www.autodesk.com
 90
    32897
280
     0
281
     0
  0
CLASS
  1
AEC_AECDBDISPREPAREA50
  2
AecDbDispRepArea50
  3
AecArchDACHBase50|Product Desc: Autodesk Architectural Desktop 2007 |Company: Autodesk,Inc. |WEB Address: www.autodesk.com
 90
    32897
280
     0
281
     0
  0
CLASS
  1
AEC_AECDBDISPREPAREAGROUP50
  2
AecDbDispRepAreaGroup50
  3
AecArchDACHBase50|Product Desc: Autodesk Architectural Desktop 2007 |Company: Autodesk,Inc. |WEB Address: www.autodesk.com
 90
    32897
280
     0
281
     0
  0
CLASS
  1
AEC_AECDBDISPREPBDGELEVLINEPLAN50
  2
AecDbDispRepBdgElevLinePlan50
  3
AecArchDACHBase50|Product Desc: Autodesk Architectural Desktop 2007 |Company: Autodesk,Inc. |WEB Address: www.autodesk.com
 90
    32897
280
     0
281
     0
  0
CLASS
  1
AEC_AECDBDISPREPBDGSECTIONLINEPLAN50
  2
AecDbDispRepBdgSectionLinePlan50
  3
AecArchDACHBase50|Product Desc: Autodesk Architectural Desktop 2007 |Company: Autodesk,Inc. |WEB Address: www.autodesk.com
 90
    32897
280
     0
281
     0
  0
CLASS
  1
AEC_AECDBDISPREPCEILINGGRIDPLAN50
  2
AecDbDispRepCeilingGridPlan50
  3
AecArchDACHBase50|Product Desc: Autodesk Architectural Desktop 2007 |Company: Autodesk,Inc. |WEB Address: www.autodesk.com
 90
    32897
280
     0
281
     0
  0
CLASS
  1
AEC_AECDBDISPREPCOLUMNGRIDPLAN50
  2
AecDbDispRepColumnGridPlan50
  3
AecArchDACHBase50|Product Desc: Autodesk Architectural Desktop 2007 |Company: Autodesk,Inc. |WEB Address: www.autodesk.com
 90
    32897
280
     0
281
     0
  0
CLASS
  1
AEC_AECDBDISPREPCURTAINWALLLAYOUTPLAN50
  2
AecDbDispRepCurtainWallLayoutPlan50
  3
AecArchDACHBase50|Product Desc: Autodesk Architectural Desktop 2007 |Company: Autodesk,Inc. |WEB Address: www.autodesk.com
 90
    32897
280
     0
281
     0
  0
CLASS
  1
AEC_AECDBDISPREPCURTAINWALLUNITPLAN50
  2
AecDbDispRepCurtainWallUnitPlan50
  3
AecArchDACHBase50|Product Desc: Autodesk Architectural Desktop 2007 |Company: Autodesk,Inc. |WEB Address: www.autodesk.com
 90
    32897
280
     0
281
     0
  0
CLASS
  1
AEC_AECDBDISPREPMVBLOCKREFPLAN50
  2
AecDbDispRepMvBlockRefPlan50
  3
AecArchDACHBase50|Product Desc: Autodesk Architectural Desktop 2007 |Company: Autodesk,Inc. |WEB Address: www.autodesk.com
 90
    32897
280
     0
281
     0
  0
CLASS
  1
AEC_AECDBDISPREPROOFPLAN50
  2
AecDbDispRepRoofPlan50
  3
AecArchDACHBase50|Product Desc: Autodesk Architectural Desktop 2007 |Company: Autodesk,Inc. |WEB Address: www.autodesk.com
 90
    32897
280
     0
281
     0
  0
CLASS
  1
AEC_AECDBDISPREPROOFSLABPLAN50
  2
AecDbDispRepRoofSlabPlan50
  3
AecArchDACHBase50|Product Desc: Autodesk Architectural Desktop 2007 |Company: Autodesk,Inc. |WEB Address: www.autodesk.com
 90
    32897
280
     0
281
     0
  0
CLASS
  1
AEC_AECDBDISPREPSLABPLAN50
  2
AecDbDispRepSlabPlan50
  3
AecArchDACHBase50|Product Desc: Autodesk Architectural Desktop 2007 |Company: Autodesk,Inc. |WEB Address: www.autodesk.com
 90
    32897
280
     0
281
     0
  0
CLASS
  1
AEC_AECDBDISPREPSPACEBOUNDARYPLAN50
  2
AecDbDispRepSpaceBoundaryPlan50
  3
AecArchDACHBase50|Product Desc: Autodesk Architectural Desktop 2007 |Company: Autodesk,Inc. |WEB Address: www.autodesk.com
 90
    32897
280
     0
281
     0
  0
CLASS
  1
AEC_AECDBDISPREPSPACEPLAN50
  2
AecDbDispRepSpacePlan50
  3
AecArchDACHBase50|Product Desc: Autodesk Architectural Desktop 2007 |Company: Autodesk,Inc. |WEB Address: www.autodesk.com
 90
    32897
280
     0
281
     0
  0
CLASS
  1
AEC_AECDBDISPREPWALLPLAN50
  2
AecDbDispRepWallPlan50
  3
AecArchDACHBase50|Product Desc: Autodesk Architectural Desktop 2007 |Company: Autodesk,Inc. |WEB Address: www.autodesk.com
 90
    32897
280
     0
281
     0
  0
CLASS
  1
AEC_AECDBDISPREPWINDOWASSEMBLYPLAN50
  2
AecDbDispRepWindowAssemblyPlan50
  3
AecArchDACHBase50|Product Desc: Autodesk Architectural Desktop 2007 |Company: Autodesk,Inc. |WEB Address: www.autodesk.com
 90
    32897
280
     0
281
     0
  0
CLASS
  1
AEC_DB_DISP_REP_DIM_GROUP_PLAN100
  2
AecDbDispRepDimGroupPlan100
  3
AecArchDACHBase50|Product Desc: Autodesk Architectural Desktop 2007 |Company: Autodesk,Inc. |WEB Address: www.autodesk.com
 90
    32897
280
     0
281
     0
  0
CLASS
  1
AEC_DB_DISP_REP_DIM_GROUP_PLAN50
  2
AecDbDispRepDimGroupPlan50
  3
AecArchDACHBase50|Product Desc: Autodesk Architectural Desktop 2007 |Company: Autodesk,Inc. |WEB Address: www.autodesk.com
 90
    32897
280
     0
281
     0
  0
CLASS
  1
AEC_DISP_REP_DOOR_PLAN_50
  2
AecDbDispRepDoorPlan50
  3
AecArchDACHBase50|Product Desc: Autodesk Architectural Desktop 2007 |Company: Autodesk,Inc. |WEB Address: www.autodesk.com
 90
    32897
280
     0
281
     0
  0
CLASS
  1
AEC_DISP_PROPS_DOOR_PLAN_50
  2
AecDbDispPropsDoorPlan50
  3
AecArchDACHBase50|Product Desc: Autodesk Architectural Desktop 2007 |Company: Autodesk,Inc. |WEB Address: www.autodesk.com
 90
    32897
280
     0
281
     0
  0
CLASS
  1
AEC_DISP_REP_DOOR_PLAN_HEKTO
  2
AecDbDispRepDoorPlanHekto
  3
AecArchDACHBase50|Product Desc: Autodesk Architectural Desktop 2007 |Company: Autodesk,Inc. |WEB Address: www.autodesk.com
 90
    32897
280
     0
281
     0
  0
CLASS
  1
AEC_DISP_PROPS_DOOR_PLAN_100
  2
AecDbDispPropsDoorPlan100
  3
AecArchDACHBase50|Product Desc: Autodesk Architectural Desktop 2007 |Company: Autodesk,Inc. |WEB Address: www.autodesk.com
 90
    32897
280
     0
281
     0
  0
CLASS
  1
AEC_DISP_REP_DOOR_THRESHOLD_SYMBOL_PLAN
  2
AecDbDispRepDoorThresholdSymbolPlan
  3
AecArchDACHBase50|Product Desc: Autodesk Architectural Desktop 2007 |Company: Autodesk,Inc. |WEB Address: www.autodesk.com
 90
    32897
280
     0
281
     0
  0
CLASS
  1
AEC_DISP_PROPS_DOOR_THRESHOLD_SYMBOL_PLAN
  2
AecDbDispPropsDoorThresholdSymbolPlan
  3
AecArchDACHBase50|Product Desc: Autodesk Architectural Desktop 2007 |Company: Autodesk,Inc. |WEB Address: www.autodesk.com
 90
    32897
280
     0
281
     0
  0
CLASS
  1
AEC_DISPREPAECDBDISPREPMASSELEMPLAN100
  2
AecDbDispRepMassElemPlan100
  3
AecArchDACHBase50|Product Desc: Autodesk Architectural Desktop 2007 |Company: Autodesk,Inc. |WEB Address: www.autodesk.com
 90
    32897
280
     0
281
     0
  0
CLASS
  1
AEC_DISPROPSMASSELEMPLANCOMMON
  2
AecDbDispPropsMassElemPlanCommon
  3
AecArchDACHBase50|Product Desc: Autodesk Architectural Desktop 2007 |Company: Autodesk,Inc. |WEB Address: www.autodesk.com
 90
    32897
280
     0
281
     0
  0
CLASS
  1
AEC_DISPREPAECDBDISPREPMASSELEMPLAN50
  2
AecDbDispRepMassElemPlan50
  3
AecArchDACHBase50|Product Desc: Autodesk Architectural Desktop 2007 |Company: Autodesk,Inc. |WEB Address: www.autodesk.com
 90
    32897
280
     0
281
     0
  0
CLASS
  1
AEC_DISPREPAECDBDISPREPMASSGROUPPLAN100
  2
AecDbDispRepMassGroupPlan100
  3
AecArchDACHBase50|Product Desc: Autodesk Architectural Desktop 2007 |Company: Autodesk,Inc. |WEB Address: www.autodesk.com
 90
    32897
280
     0
281
     0
  0
CLASS
  1
AEC_DISPROPSMASSGROUPPLANCOMMON
  2
AecDbDispPropsMassGroupPlanCommon
  3
AecArchDACHBase50|Product Desc: Autodesk Architectural Desktop 2007 |Company: Autodesk,Inc. |WEB Address: www.autodesk.com
 90
    32897
280
     0
281
     0
  0
CLASS
  1
AEC_DISPREPAECDBDISPREPMASSGROUPPLAN50
  2
AecDbDispRepMassGroupPlan50
  3
AecArchDACHBase50|Product Desc: Autodesk Architectural Desktop 2007 |Company: Autodesk,Inc. |WEB Address: www.autodesk.com
 90
    32897
280
     0
281
     0
  0
CLASS
  1
AEC_DISPREPAECDBDISPREPOPENINGPLAN100
  2
AecDbDispRepOpeningPlan100
  3
AecArchDACHBase50|Product Desc: Autodesk Architectural Desktop 2007 |Company: Autodesk,Inc. |WEB Address: www.autodesk.com
 90
    32897
280
     0
281
     0
  0
CLASS
  1
AEC_DISPROPSOPENINGPLANCOMMONHATCHED
  2
AecDbDispPropsOpeningPlanCommonHatched
  3
AecArchDACHBase50|Product Desc: Autodesk Architectural Desktop 2007 |Company: Autodesk,Inc. |WEB Address: www.autodesk.com
 90
    32897
280
     0
281
     0
  0
CLASS
  1
AEC_DISPREPAECDBDISPREPOPENINGPLAN50
  2
AecDbDispRepOpeningPlan50
  3
AecArchDACHBase50|Product Desc: Autodesk Architectural Desktop 2007 |Company: Autodesk,Inc. |WEB Address: www.autodesk.com
 90
    32897
280
     0
281
     0
  0
CLASS
  1
AEC_DISPREPAECDBDISPREPOPENINGPLANREFLECTED
  2
AecDbDispRepOpeningPlanReflected
  3
AecArchDACHBase50|Product Desc: Autodesk Architectural Desktop 2007 |Company: Autodesk,Inc. |WEB Address: www.autodesk.com
 90
    32897
280
     0
281
     0
  0
CLASS
  1
AEC_DISPROPSOPENINGPLANCOMMON
  2
AecDbDispPropsOpeningPlanCommon
  3
AecArchDACHBase50|Product Desc: Autodesk Architectural Desktop 2007 |Company: Autodesk,Inc. |WEB Address: www.autodesk.com
 90
    32897
280
     0
281
     0
  0
CLASS
  1
AEC_DISPREPAECDBDISPREPOPENINGSILLPLAN
  2
AecDbDispRepOpeningSillPlan
  3
AecArchDACHBase50|Product Desc: Autodesk Architectural Desktop 2007 |Company: Autodesk,Inc. |WEB Address: www.autodesk.com
 90
    32897
280
     0
281
     0
  0
CLASS
  1
AEC_DISPROPSOPENINGSILLPLAN
  2
AecDbDispPropsOpeningSillPlan
  3
AecArchDACHBase50|Product Desc: Autodesk Architectural Desktop 2007 |Company: Autodesk,Inc. |WEB Address: www.autodesk.com
 90
    32897
280
     0
281
     0
  0
CLASS
  1
AEC_DISP_REP_RAILING_PLAN_100
  2
AecDbDispRepRailingPlan100
  3
AecArchDACHBase50|Product Desc: Autodesk Architectural Desktop 2007 |Company: Autodesk,Inc. |WEB Address: www.autodesk.com
 90
    32897
280
     0
281
     0
  0
CLASS
  1
AEC_DISP_ROPS_RAILING_PLAN_100
  2
AecDbDispPropsRailingPlan100
  3
AecArchDACHBase50|Product Desc: Autodesk Architectural Desktop 2007 |Company: Autodesk,Inc. |WEB Address: www.autodesk.com
 90
    32897
280
     0
281
     0
  0
CLASS
  1
AEC_DISP_REP_RAILING_PLAN_50
  2
AecDbDispRepRailingPlan50
  3
AecArchDACHBase50|Product Desc: Autodesk Architectural Desktop 2007 |Company: Autodesk,Inc. |WEB Address: www.autodesk.com
 90
    32897
280
     0
281
     0
  0
CLASS
  1
AEC_DISP_ROPS_RAILING_PLAN_50
  2
AecDbDispPropsRailingPlan50
  3
AecArchDACHBase50|Product Desc: Autodesk Architectural Desktop 2007 |Company: Autodesk,Inc. |WEB Address: www.autodesk.com
 90
    32897
280
     0
281
     0
  0
CLASS
  1
AEC_DISP_REP_STAIR_PLAN_100
  2
AecDbDispRepStairPlan100
  3
AecArchDACHBase50|Product Desc: Autodesk Architectural Desktop 2007 |Company: Autodesk,Inc. |WEB Address: www.autodesk.com
 90
    32897
280
     0
281
     0
  0
CLASS
  1
AEC_DISP_ROPS_STAIR_PLAN_100
  2
AecDbDispPropsStairPlan100
  3
AecArchDACHBase50|Product Desc: Autodesk Architectural Desktop 2007 |Company: Autodesk,Inc. |WEB Address: www.autodesk.com
 90
    32897
280
     0
281
     0
  0
CLASS
  1
AEC_DISP_REP_STAIR_PLAN_50
  2
AecDbDispRepStairPlan50
  3
AecArchDACHBase50|Product Desc: Autodesk Architectural Desktop 2007 |Company: Autodesk,Inc. |WEB Address: www.autodesk.com
 90
    32897
280
     0
281
     0
  0
CLASS
  1
AEC_DISP_ROPS_STAIR_PLAN_50
  2
AecDbDispPropsStairPlan50
  3
AecArchDACHBase50|Product Desc: Autodesk Architectural Desktop 2007 |Company: Autodesk,Inc. |WEB Address: www.autodesk.com
 90
    32897
280
     0
281
     0
  0
CLASS
  1
AEC_DISP_REP_WINDOW_PLAN_100
  2
AecDbDispRepWindowPlan100
  3
AecArchDACHBase50|Product Desc: Autodesk Architectural Desktop 2007 |Company: Autodesk,Inc. |WEB Address: www.autodesk.com
 90
    32897
280
     0
281
     0
  0
CLASS
  1
AEC_DISP_PROPS_WINDOW_PLAN_100
  2
AecDbDispPropsWindowPlan100
  3
AecArchDACHBase50|Product Desc: Autodesk Architectural Desktop 2007 |Company: Autodesk,Inc. |WEB Address: www.autodesk.com
 90
    32897
280
     0
281
     0
  0
CLASS
  1
AEC_DISP_REP_WINDOW_PLAN_50
  2
AecDbDispRepWindowPlan50
  3
AecArchDACHBase50|Product Desc: Autodesk Architectural Desktop 2007 |Company: Autodesk,Inc. |WEB Address: www.autodesk.com
 90
    32897
280
     0
281
     0
  0
CLASS
  1
AEC_DISP_PROPS_WINDOW_PLAN_50
  2
AecDbDispPropsWindowPlan50
  3
AecArchDACHBase50|Product Desc: Autodesk Architectural Desktop 2007 |Company: Autodesk,Inc. |WEB Address: www.autodesk.com
 90
    32897
280
     0
281
     0
  0
CLASS
  1
BINRECORD
  2
AcAecBinRecord
  3
AecBase50|Product Desc: Autodesk Architectural Desktop 2007 |Company: Autodesk,Inc. |WEB Address: www.autodesk.com
 90
    32897
280
     0
281
     0
  0
CLASS
  1
SORTENTSTABLE
  2
AcDbSortentsTable
  3
ObjectDBX Classes
 90
        0
280
     0
281
     0
  0
CLASS
  1
AEC_MASS_ELEM
  2
AecDbMassElem
  3
AecBaseEx50|Product Desc: Autodesk Architectural Desktop 2007 |Company: Autodesk,Inc. |WEB Address: www.autodesk.com
 90
    33661
280
     0
281
     1
  0
CLASS
  1
MATERIAL
  2
AcDbMaterial
  3
ObjectDBX Classes
 90
     1153
280
     0
281
     0
  0
CLASS
  1
AECS_MEMBER
  2
AecsDbMember
  3
AecStructureBase50|Product Desc: Autodesk Architectural Desktop 2007 |Company: Autodesk,Inc. |WEB Address: www.autodesk.com
 90
    33661
280
     0
281
     1
  0
CLASS
  1
AEC_WALL
  2
AecDbWall
  3
AecArchBase50|Product Desc: Autodesk Architectural Desktop 2007 |Company: Autodesk,Inc. |WEB Address: www.autodesk.com
 90
    33661
280
     0
281
     1
  0
CLASS
  1
AEC_DOOR
  2
AecDbDoor
  3
AecArchBase50|Product Desc: Autodesk Architectural Desktop 2007 |Company: Autodesk,Inc. |WEB Address: www.autodesk.com
 90
    33661
280
     0
281
     1
  0
CLASS
  1
AEC_ANCHOR_OPENINGBASE_TO_WALL
  2
AecDbAnchorOpeningBaseToWall
  3
AecArchBase50|Product Desc: Autodesk Architectural Desktop 2007 |Company: Autodesk,Inc. |WEB Address: www.autodesk.com
 90
    32897
280
     0
281
     0
  0
CLASS
  1
AEC_SPACE_BOUNDARY
  2
AecDbSpaceBoundary
  3
AecArchBase50|Product Desc: Autodesk Architectural Desktop 2007 |Company: Autodesk,Inc. |WEB Address: www.autodesk.com
 90
    33661
280
     0
281
     1
  0
CLASS
  1
AEC_SPACE
  2
AecDbSpace
  3
AecArchBase50|Product Desc: Autodesk Architectural Desktop 2007 |Company: Autodesk,Inc. |WEB Address: www.autodesk.com
 90
    33661
280
     0
281
     1
  0
CLASS
  1
AecDbPropertySet
  2
AecDbPropertySet
  3
AecScheduleData50|Product Desc: Autodesk Architectural Desktop 2007 |Company: Autodesk,Inc. |WEB Address: www.autodesk.com
 90
    32897
280
     0
281
     0
  0
CLASS
  1
AEC_MVBLOCK_REF
  2
AecDbMvBlockRef
  3
AecBase50|Product Desc: Autodesk Architectural Desktop 2007 |Company: Autodesk,Inc. |WEB Address: www.autodesk.com
 90
    33661
280
     0
281
     1
  0
CLASS
  1
AEC_ANCHOR_TAG_TO_ENT
  2
AecDbAnchorTagToEnt
  3
AecScheduleData50|Product Desc: Autodesk Architectural Desktop 2007 |Company: Autodesk,Inc. |WEB Address: www.autodesk.com
 90
    32897
280
     0
281
     0
  0
CLASS
  1
AEC_WINDOW
  2
AecDbWindow
  3
AecArchBase50|Product Desc: Autodesk Architectural Desktop 2007 |Company: Autodesk,Inc. |WEB Address: www.autodesk.com
 90
    33661
280
     0
281
     1
  0
CLASS
  1
AEC_OPENING
  2
AecDbOpening
  3
AecArchBase50|Product Desc: Autodesk Architectural Desktop 2007 |Company: Autodesk,Inc. |WEB Address: www.autodesk.com
 90
    33661
280
     0
281
     1
  0
CLASS
  1
AEC_CLASSIFICATION_SYSTEM_DEF
  2
AecDbClassificationSystemDef
  3
AecBase50|Product Desc: Autodesk Architectural Desktop 2007 |Company: Autodesk,Inc. |WEB Address: www.autodesk.com
 90
    32897
280
     0
281
     0
  0
CLASS
  1
AEC_CLASSIFICATION_DEF
  2
AecDbClassificationDef
  3
AecBase50|Product Desc: Autodesk Architectural Desktop 2007 |Company: Autodesk,Inc. |WEB Address: www.autodesk.com
 90
    32897
280
     0
281
     0
  0
CLASS
  1
AEC_CLEANUP_GROUP_DEF
  2
AecDbCleanupGroupDef
  3
AecArchBase50|Product Desc: Autodesk Architectural Desktop 2007 |Company: Autodesk,Inc. |WEB Address: www.autodesk.com
 90
    32897
280
     0
281
     0
  0
CLASS
  1
AEC_DOOR_STYLE
  2
AecDbDoorStyle
  3
AecArchBase50|Product Desc: Autodesk Architectural Desktop 2007 |Company: Autodesk,Inc. |WEB Address: www.autodesk.com
 90
    32897
280
     0
281
     0
  0
CLASS
  1
AEC_STDSIZE_OPENINGS
  2
AecDbStdSizeOpeningList
  3
AecArchBase50|Product Desc: Autodesk Architectural Desktop 2007 |Company: Autodesk,Inc. |WEB Address: www.autodesk.com
 90
    32897
280
     0
281
     0
  0
CLASS
  1
AEC_ENDCAP_STYLE
  2
AecDbEndcapStyle
  3
AecArchBase50|Product Desc: Autodesk Architectural Desktop 2007 |Company: Autodesk,Inc. |WEB Address: www.autodesk.com
 90
    32897
280
     0
281
     0
  0
CLASS
  1
AEC_MASS_ELEM_STYLE
  2
AecDbMassElemStyle
  3
AecBaseEx50|Product Desc: Autodesk Architectural Desktop 2007 |Company: Autodesk,Inc. |WEB Address: www.autodesk.com
 90
    32897
280
     0
281
     0
  0
CLASS
  1
AEC_MATERIAL_DEF
  2
AecDbMaterialDef
  3
AecBase50|Product Desc: Autodesk Architectural Desktop 2007 |Company: Autodesk,Inc. |WEB Address: www.autodesk.com
 90
    32897
280
     0
281
     0
  0
CLASS
  1
AEC_MVBLOCK_DEF
  2
AecDbMvBlockDef
  3
AecBase50|Product Desc: Autodesk Architectural Desktop 2007 |Company: Autodesk,Inc. |WEB Address: www.autodesk.com
 90
    32897
280
     0
281
     0
  0
CLASS
  1
AEC_FRAME_DEF
  2
AecDbOpeningEndcapStyle
  3
AecArchBase50|Product Desc: Autodesk Architectural Desktop 2007 |Company: Autodesk,Inc. |WEB Address: www.autodesk.com
 90
    32897
280
     0
281
     0
  0
CLASS
  1
AEC_PROFILE_DEF
  2
AecDbProfileDef
  3
AecBase50|Product Desc: Autodesk Architectural Desktop 2007 |Company: Autodesk,Inc. |WEB Address: www.autodesk.com
 90
    32897
280
     0
281
     0
  0
CLASS
  1
AEC_SCHEDULE_DATA_FORMAT
  2
AecDbScheduleDataFormat
  3
AecScheduleData50|Product Desc: Autodesk Architectural Desktop 2007 |Company: Autodesk,Inc. |WEB Address: www.autodesk.com
 90
    32897
280
     0
281
     0
  0
CLASS
  1
AEC_PROPERTY_SET_DEF
  2
AecDbPropertySetDef
  3
AecScheduleData50|Product Desc: Autodesk Architectural Desktop 2007 |Company: Autodesk,Inc. |WEB Address: www.autodesk.com
 90
    32897
280
     0
281
     0
  0
CLASS
  1
AEC_SPACE_STYLES
  2
AecDbSpaceStyle
  3
AecArchBase50|Product Desc: Autodesk Architectural Desktop 2007 |Company: Autodesk,Inc. |WEB Address: www.autodesk.com
 90
    32897
280
     0
281
     0
  0
CLASS
  1
AEC_TEXT_NOTE
  2
AecDbTextNote
  3
AecBase50|Product Desc: Autodesk Architectural Desktop 2007 |Company: Autodesk,Inc. |WEB Address: www.autodesk.com
 90
    32897
280
     0
281
     0
  0
CLASS
  1
AECS_MEMBER_STYLE
  2
AecsDbMemberStyle
  3
AecStructureBase50|Product Desc: Autodesk Architectural Desktop 2007 |Company: Autodesk,Inc. |WEB Address: www.autodesk.com
 90
    32897
280
     0
281
     0
  0
CLASS
  1
AEC_VARS_STRUCTUREBASE
  2
AecsDbVarsStructureBase
  3
AecStructureBase50|Product Desc: Autodesk Architectural Desktop 2007 |Company: Autodesk,Inc. |WEB Address: www.autodesk.com
 90
    32897
280
     0
281
     0
  0
CLASS
  1
AEC_WALL_STYLE
  2
AecDbWallStyle
  3
AecArchBase50|Product Desc: Autodesk Architectural Desktop 2007 |Company: Autodesk,Inc. |WEB Address: www.autodesk.com
 90
    32897
280
     0
281
     0
  0
CLASS
  1
AEC_WINDOW_STYLE
  2
AecDbWindowStyle
  3
AecArchBase50|Product Desc: Autodesk Architectural Desktop 2007 |Company: Autodesk,Inc. |WEB Address: www.autodesk.com
 90
    32897
280
     0
281
     0
  0
CLASS
  1
AECS_MEMBER_NODE_SHAPE
  2
AecsDbMemberNodeShape
  3
AecStructureBase50|Product Desc: Autodesk Architectural Desktop 2007 |Company: Autodesk,Inc. |WEB Address: www.autodesk.com
 90
    32897
280
     0
281
     0
  0
CLASS
  1
AEC_SCHEDULE_TABLE
  2
AecDbScheduleTable
  3
AecSchedule50|Product Desc: Autodesk Architectural Desktop 2007 |Company: Autodesk,Inc. |WEB Address: www.autodesk.com
 90
    33661
280
     0
281
     1
  0
CLASS
  1
AEC_SCHEDULE_TABLE_STYLE
  2
AecDbScheduleTableStyle
  3
AecSchedule50|Product Desc: Autodesk Architectural Desktop 2007 |Company: Autodesk,Inc. |WEB Address: www.autodesk.com
 90
    32897
280
     0
281
     0
  0
CLASS
  1
AEC_ANCHOR_MVB_TO_UCS
  2
AecDbAnchorMVBToUCS
  3
AecBase50|Product Desc: Autodesk Architectural Desktop 2007 |Company: Autodesk,Inc. |WEB Address: www.autodesk.com
 90
    32897
280
     0
281
     0
  0
CLASS
  1
IMAGEDEF
  2
AcDbRasterImageDef
  3
ISM
 90
    32768
280
     0
281
     0
  0
CLASS
  1
AEC_ANCHOR_ENT_TO_GRID_ASSEMBLY
  2
AecDbAnchorEntToGridAssembly
  3
AecBase50|Product Desc: Autodesk Architectural Desktop 2007 |Company: Autodesk,Inc. |WEB Address: www.autodesk.com
 90
    32897
280
     0
281
     0
  0
CLASS
  1
AEC_WINDOW_ASSEMBLY
  2
AecDbWindowAssembly
  3
AecArchBase50|Product Desc: Autodesk Architectural Desktop 2007 |Company: Autodesk,Inc. |WEB Address: www.autodesk.com
 90
    33661
280
     0
281
     1
  0
CLASS
  1
AEC_ANCHOR_WINASSEMBLY_TO_WALL
  2
AecDbAnchorWinAssemblyToWall
  3
AecArchBase50|Product Desc: Autodesk Architectural Desktop 2007 |Company: Autodesk,Inc. |WEB Address: www.autodesk.com
 90
    32897
280
     0
281
     0
  0
CLASS
  1
AEC_STAIR
  2
AecDbStair
  3
AecArchBase50|Product Desc: Autodesk Architectural Desktop 2007 |Company: Autodesk,Inc. |WEB Address: www.autodesk.com
 90
    33661
280
     0
281
     1
  0
CLASS
  1
AEC_RAILING
  2
AecDbRailing
  3
AecArchBase50|Product Desc: Autodesk Architectural Desktop 2007 |Company: Autodesk,Inc. |WEB Address: www.autodesk.com
 90
    33661
280
     0
281
     1
  0
CLASS
  1
AEC_ANCHOR_RAILING_TO_STAIR
  2
AecDbAnchorRailingToStair
  3
AecArchBase50|Product Desc: Autodesk Architectural Desktop 2007 |Company: Autodesk,Inc. |WEB Address: www.autodesk.com
 90
    32897
280
     0
281
     0
  0
CLASS
  1
AEC_RAILING_STYLE
  2
AecDbRailingStyle
  3
AecArchBase50|Product Desc: Autodesk Architectural Desktop 2007 |Company: Autodesk,Inc. |WEB Address: www.autodesk.com
 90
    32897
280
     0
281
     0
  0
CLASS
  1
AEC_STAIR_STYLE
  2
AecDbStairStyle
  3
AecArchBase50|Product Desc: Autodesk Architectural Desktop 2007 |Company: Autodesk,Inc. |WEB Address: www.autodesk.com
 90
    32897
280
     0
281
     0
  0
CLASS
  1
AEC_STAIR_WINDER_STYLE
  2
AecDbStairWinderStyle
  3
AecArchBase50|Product Desc: Autodesk Architectural Desktop 2007 |Company: Autodesk,Inc. |WEB Address: www.autodesk.com
 90
    32897
280
     0
281
     0
  0
CLASS
  1
AEC_STAIR_WINDER_TYPE_SINGLE_POINT
  2
AecDbStairWinderTypeSinglePoint
  3
AecArchBase50|Product Desc: Autodesk Architectural Desktop 2007 |Company: Autodesk,Inc. |WEB Address: www.autodesk.com
 90
    32897
280
     0
281
     0
  0
CLASS
  1
AEC_WINDOW_ASSEMBLY_STYLE
  2
AecDbWindowAssemblyStyle
  3
AecArchBase50|Product Desc: Autodesk Architectural Desktop 2007 |Company: Autodesk,Inc. |WEB Address: www.autodesk.com
 90
    32897
280
     0
281
     0
  0
CLASS
  1
AEC_AECDBAREASTYLE
  2
AecDbAreaStyle
  3
AecAreaCalculationBase50|Product Desc: Autodesk Architectural Desktop 2007 |Company: Autodesk,Inc. |WEB Address: www.autodesk.com
 90
    32897
280
     0
281
     0
  0
CLASS
  1
AEC_AECDBAREAPROPOSALNAMES
  2
AecDbAreaProposalNames
  3
AecAreaCalculationBase50|Product Desc: Autodesk Architectural Desktop 2007 |Company: Autodesk,Inc. |WEB Address: www.autodesk.com
 90
    32897
280
     0
281
     0
  0
CLASS
  1
AEC_AREA
  2
AecDbArea
  3
AecAreaCalculationBase50|Product Desc: Autodesk Architectural Desktop 2007 |Company: Autodesk,Inc. |WEB Address: www.autodesk.com
 90
    33661
280
     0
281
     1
  0
CLASS
  1
OBJECT_PTR
  2
CAseDLPNTableRecord
  3
ASE-LPNTableRecord
 90
    32769
280
     1
281
     0
  0
CLASS
  1
TABLESTYLE
  2
AcDbTableStyle
  3
ObjectDBX Classes
 90
     4095
280
     0
281
     0
  0
CLASS
  1
AEC_DISP_REP_DISPLAYTHEME
  2
AecDbDispRepDisplayTheme
  3
AecBase50|Product Desc: Autodesk Architectural Desktop 2007 |Company: Autodesk,Inc. |WEB Address: www.autodesk.com
 90
    32897
280
     0
281
     0
  0
CLASS
  1
AEC_DISP_PROPS_DISPLAYTHEME
  2
AecDbDispPropsDisplayTheme
  3
AecBase50|Product Desc: Autodesk Architectural Desktop 2007 |Company: Autodesk,Inc. |WEB Address: www.autodesk.com
 90
    32897
280
     0
281
     0
  0
CLASS
  1
AEC_DISP_REP_ANCHOR_EXT_TAG_TO_ENT
  2
AecDbDispRepAnchorExtendedTagToEnt
  3
AecScheduleData50|Product Desc: Autodesk Architectural Desktop 2007 |Company: Autodesk,Inc. |WEB Address: www.autodesk.com
 90
    32897
280
     0
281
     0
  0
CLASS
  1
VISUALSTYLE
  2
AcDbVisualStyle
  3
ObjectDBX Classes
 90
     4095
280
     0
281
     0
  0
CLASS
  1
AEC_AECDBDISPREPZONE100
  2
AecDbDispRepZonePlan100
  3
AecArchDACHBase50|Product Desc: Autodesk Architectural Desktop 2007 |Company: Autodesk,Inc. |WEB Address: www.autodesk.com
 90
    32897
280
     0
281
     0
  0
CLASS
  1
AEC_DISP_PROPS_ZONE
  2
AecDbDispPropsZone
  3
AecArchBase50|Product Desc: Autodesk Architectural Desktop 2007 |Company: Autodesk,Inc. |WEB Address: www.autodesk.com
 90
    32897
280
     0
281
     0
  0
CLASS
  1
AEC_AECDBDISPREPZONE50
  2
AecDbDispRepZonePlan50
  3
AecArchDACHBase50|Product Desc: Autodesk Architectural Desktop 2007 |Company: Autodesk,Inc. |WEB Address: www.autodesk.com
 90
    32897
280
     0
281
     0
  0
CLASS
  1
AEC_DISP_REP_SPACE_DECOMPOSED
  2
AecDbDispRepSpaceDecomposed
  3
AecArchBase50|Product Desc: Autodesk Architectural Desktop 2007 |Company: Autodesk,Inc. |WEB Address: www.autodesk.com
 90
    32897
280
     0
281
     0
  0
CLASS
  1
AEC_DISP_PROPS_SPACE_DECOMPOSED
  2
AecDbDispPropsSpaceDecomposed
  3
AecArchBase50|Product Desc: Autodesk Architectural Desktop 2007 |Company: Autodesk,Inc. |WEB Address: www.autodesk.com
 90
    32897
280
     0
281
     0
  0
CLASS
  1
AEC_DISP_REP_ZONE
  2
AecDbDispRepZone
  3
AecArchBase50|Product Desc: Autodesk Architectural Desktop 2007 |Company: Autodesk,Inc. |WEB Address: www.autodesk.com
 90
    32897
280
     0
281
     0
  0
CLASS
  1
AEC_LIST_DEF
  2
AecDbListDefinition
  3
AecBase50|Product Desc: Autodesk Architectural Desktop 2007 |Company: Autodesk,Inc. |WEB Address: www.autodesk.com
 90
    32897
280
     0
281
     0
  0
CLASS
  1
EXACXREFPANELOBJECT
  2
ExAcXREFPanelObject
  3
EXAC_ESW
 90
    33793
280
     1
281
     0
  0
CLASS
  1
NPOCOLLECTION
  2
AcDbImpNonPersistentObjectsCollection
  3
ObjectDBX Classes
 90
    33921
280
     0
281
     0
  0
CLASS
  1
ACAD_EVALUATION_GRAPH
  2
AcDbEvalGraph
  3
ObjectDBX Classes
 90
    33921
280
     0
281
     0
  0
CLASS
  1
BLOCKLINEARPARAMETER
  2
AcDbBlockLinearParameter
  3
ObjectDBX Classes
 90
    33921
280
     0
281
     0
  0
CLASS
  1
BLOCKLINEARGRIP
  2
AcDbBlockLinearGrip
  3
ObjectDBX Classes
 90
    33921
280
     0
281
     0
  0
CLASS
  1
BLOCKGRIPLOCATIONCOMPONENT
  2
AcDbBlockGripExpr
  3
ObjectDBX Classes
 90
    33921
280
     0
281
     0
  0
CLASS
  1
BLOCKSTRETCHACTION
  2
AcDbBlockStretchAction
  3
ObjectDBX Classes
 90
    33921
280
     0
281
     0
  0
CLASS
  1
BLOCKFLIPPARAMETER
  2
AcDbBlockFlipParameter
  3
ObjectDBX Classes
 90
    33921
280
     0
281
     0
  0
CLASS
  1
BLOCKFLIPGRIP
  2
AcDbBlockFlipGrip
  3
ObjectDBX Classes
 90
    33921
280
     0
281
     0
  0
CLASS
  1
BLOCKFLIPACTION
  2
AcDbBlockFlipAction
  3
ObjectDBX Classes
 90
    33921
280
     0
281
     0
  0
CLASS
  1
ACDB_DYNAMICBLOCKPURGEPREVENTER_VERSION
  2
AcDbDynamicBlockPurgePreventer
  3
ObjectDBX Classes
 90
    33921
280
     0
281
     0
  0
CLASS
  1
ACDB_BLOCKREPRESENTATION_DATA
  2
AcDbBlockRepresentationData
  3
ObjectDBX Classes
 90
    33921
280
     0
281
     0
  0
CLASS
  1
AEC_SLAB
  2
AecDbSlab
  3
AecArchBase50|Product Desc: Autodesk Architectural Desktop 2007 |Company: Autodesk,Inc. |WEB Address: www.autodesk.com
 90
    33661
280
     0
281
     1
  0
CLASS
  1
AEC_LIST_DEF
  2
AecDbListItem
  3
AecBase50|Product Desc: Autodesk Architectural Desktop 2007 |Company: Autodesk,Inc. |WEB Address: www.autodesk.com
 90
    32897
280
     0
281
     0
  0
CLASS
  1
AEC_ROOFSLAB_STYLE
  2
AecDbRoofSlabStyle
  3
AecArchBase50|Product Desc: Autodesk Architectural Desktop 2007 |Company: Autodesk,Inc. |WEB Address: www.autodesk.com
 90
    32897
280
     0
281
     0
  0
CLASS
  1
AEC_ROOFSLABEDGE_STYLE
  2
AecDbRoofSlabEdgeStyle
  3
AecArchBase50|Product Desc: Autodesk Architectural Desktop 2007 |Company: Autodesk,Inc. |WEB Address: www.autodesk.com
 90
    32897
280
     0
281
     0
  0
CLASS
  1
AEC_SLAB_STYLE
  2
AecDbSlabStyle
  3
AecArchBase50|Product Desc: Autodesk Architectural Desktop 2007 |Company: Autodesk,Inc. |WEB Address: www.autodesk.com
 90
    32897
280
     0
281
     0
  0
CLASS
  1
AEC_SLABEDGE_STYLE
  2
AecDbSlabEdgeStyle
  3
AecArchBase50|Product Desc: Autodesk Architectural Desktop 2007 |Company: Autodesk,Inc. |WEB Address: www.autodesk.com
 90
    32897
280
     0
281
     0
  0
CLASS
  1
EXACTERMXREFMAP
  2
ExAcTermXrefMap
  3
EXAC_SERVICE
 90
    33793
280
     1
281
     0
  0
CLASS
  1
AEC_AECDBZONESTYLE
  2
AecDbZoneStyle
  3
AecArchBase50|Product Desc: Autodesk Architectural Desktop 2007 |Company: Autodesk,Inc. |WEB Address: www.autodesk.com
 90
    32897
280
     0
281
     0
  0
CLASS
  1
AEC_ZONE
  2
AecDbZone
  3
AecArchBase50|Product Desc: Autodesk Architectural Desktop 2007 |Company: Autodesk,Inc. |WEB Address: www.autodesk.com
 90
    33661
280
     0
281
     1
  0
CLASS
  1
ACAD_TABLE
  2
AcDbTable
  3
ObjectDBX Classes
 90
    33793
280
     0
281
     1
  0
CLASS
  1
AEC_DISPLAYTHEME_STYLE
  2
AecDbDisplayThemeStyle
  3
AecBase50|Product Desc: Autodesk Architectural Desktop 2007 |Company: Autodesk,Inc. |WEB Address: www.autodesk.com
 90
    32897
280
     0
281
     0
  0
CLASS
  1
DIMASSOC
  2
AcDbDimAssoc
  3
"AcDbDimAssoc|Product Desc:     AcDim ARX App For Dimension|Company:          Autodesk, Inc.|WEB Address:      www.autodesk.com"
 90
    32768
280
     0
281
     0
  0
CLASS
  1
AEC_MASS_GROUP
  2
AecDbMassGroup
  3
AecBaseEx50|Product Desc: Autodesk Architectural Desktop 2007 |Company: Autodesk,Inc. |WEB Address: www.autodesk.com
 90
    33661
280
     0
281
     1
  0
CLASS
  1
AEC_ANCHOR_ENT_TO_ENT
  2
AecDbAnchorEntToEnt
  3
AecBase50|Product Desc: Autodesk Architectural Desktop 2007 |Company: Autodesk,Inc. |WEB Address: www.autodesk.com
 90
    32897
280
     0
281
     0
  0
CLASS
  1
AEC_2D_SECTION
  2
AecDb2dSection
  3
AecBase50|Product Desc: Autodesk Architectural Desktop 2007 |Company: Autodesk,Inc. |WEB Address: www.autodesk.com
 90
    33661
280
     0
281
     1
  0
CLASS
  1
AEC_2DSECTION_STYLE
  2
AecDb2dSectionStyle
  3
AecBase50|Product Desc: Autodesk Architectural Desktop 2007 |Company: Autodesk,Inc. |WEB Address: www.autodesk.com
 90
    32897
280
     0
281
     0
  0
CLASS
  1
SCALE
  2
AcDbScale
  3
ObjectDBX Classes
 90
     1153
280
     0
281
     0
  0
CLASS
  1
MLEADERSTYLE
  2
AcDbMLeaderStyle
  3
ACDB_MLEADERSTYLE_CLASS
 90
     4095
280
     0
281
     0
  0
CLASS
  1
AEC_REFEDIT_STATUS_TRACKER
  2
AecDbRefEditStatusTracker
  3
AecArchBase50|Product Desc: Autodesk Architectural Desktop 2007 |Company: Autodesk,Inc. |WEB Address: www.autodesk.com
 90
    32897
280
     0
281
     0
  0
CLASS
  1
CELLSTYLEMAP
  2
AcDbCellStyleMap
  3
ObjectDBX Classes
 90
     1152
280
     0
281
     0
  0
CLASS
  1
BLOCKARRAYACTION
  2
AcDbBlockArrayAction
  3
ObjectDBX Classes
 90
    33921
280
     0
281
     0
  0
CLASS
  1
BLOCKBASEPOINTPARAMETER
  2
AcDbBlockBasepointParameter
  3
ObjectDBX Classes
 90
    33921
280
     0
281
     0
  0
CLASS
  1
SOLID_BACKGROUND
  2
AcDbSolidBackground
  3
SCENEOE
 90
    36863
280
     0
281
     0
  0
ENDSEC
  0
SECTION
  2
TABLES
  0
TABLE
  2
VPORT
  5
28
330
0
100
AcDbSymbolTable
 70
     1
  0
VPORT
  5
29
330
28
100
AcDbSymbolTableRecord
100
AcDbViewportTableRecord
  2
*Active
 70
     0
 10
0.0
 20
0.0
 11
1.0
 21
1.0
 12
71321.07233866044
 22
-4476.809681234281
 13
-3534.953416816247
 23
4038.000000000049
 14
1.0
 24
1.0
 15
1.0
 25
1.0
 16
0.0
 26
0.0
 36
1.0
 17
0.0
 27
0.0
 37
0.0
 40
31696.3194441374
 41
1.574498567335243
 42
50.0
 43
0.0
 44
0.0
 50
0.0
 51
0.0
 71
     0
 72
  2000
 73
     1
 74
     1
 75
     0
 76
     0
 77
     0
 78
     0
281
     0
 65
     1
110
0.0
120
0.0
130
0.0
111
1.0
121
0.0
131
0.0
112
0.0
122
1.0
132
0.0
 79
     0
146
0.0
  0
ENDTAB
  0
TABLE
  2
LTYPE
  5
23
330
0
100
AcDbSymbolTable
 70
     3
  0
LTYPE
  5
24
330
23
100
AcDbSymbolTableRecord
100
AcDbLinetypeTableRecord
  2
BYBLOCK
 70
     0
  3

 72
    65
 73
     0
 40
0.0
  0
LTYPE
  5
25
330
23
100
AcDbSymbolTableRecord
100
AcDbLinetypeTableRecord
  2
BYLAYER
 70
     0
  3

 72
    65
 73
     0
 40
0.0
  0
LTYPE
  5
E
330
23
100
AcDbSymbolTableRecord
100
AcDbLinetypeTableRecord
  2
CONTINUOUS
 70
     0
  3
Solid line
 72
    65
 73
     0
 40
0.0
  0
LTYPE
  5
77
330
23
100
AcDbSymbolTableRecord
100
AcDbLinetypeTableRecord
  2
DASHED
 70
     0
  3
Dashed __ __ __ __ __ __ __ __ __ __ __ __ __ _
 72
    65
 73
     2
 40
0.75
 49
0.5
 74
     0
 49
-0.25
 74
     0
  0
ENDTAB
  0
TABLE
  2
LAYER
  5
1D
102
{ACAD_XDICTIONARY
360
1E
102
}
330
0
100
AcDbSymbolTable
 70
    14
  0
LAYER
  5
6
102
{ACAD_XDICTIONARY
360
7
102
}
330
1D
100
AcDbSymbolTableRecord
100
AcDbLayerTableRecord
  2
0
 70
     0
 62
     7
  6
CONTINUOUS
370
    -3
390
9
1001
RAK
1000
{ACET-LAYISO
1070
     0
1070
     7
1000
CONTINUOUS
1070
     1
1071
       -3
1071
        1
1005
9
1000
ACET-LAYISO}
  0
LAYER
  5
74
102
{ACAD_XDICTIONARY
360
75
102
}
330
1D
100
AcDbSymbolTableRecord
100
AcDbLayerTableRecord
  2
NAPISY
 70
     0
 62
   140
  6
CONTINUOUS
370
    -3
390
9
1001
RAK
1000
{ACET-LAYISO
1070
     0
1070
   140
1000
CONTINUOUS
1071
       -3
1071
        1
1005
9
1000
ACET-LAYISO}
  0
LAYER
  5
3B5
330
1D
100
AcDbSymbolTableRecord
100
AcDbLayerTableRecord
  2
Defpoints
 70
     0
 62
     7
  6
CONTINUOUS
290
     0
370
    -3
390
9
1001
RAK
1000
{ACET-LAYISO
1070
     0
1070
     7
1000
CONTINUOUS
1071
       -3
1071
        0
1005
9
1000
ACET-LAYISO}
  0
LAYER
  5
56
102
{ACAD_XDICTIONARY
360
57
102
}
330
1D
100
AcDbSymbolTableRecord
100
AcDbLayerTableRecord
  2
0Wymiary-PL
 70
     0
 62
     1
  6
CONTINUOUS
370
     5
390
9
  0
LAYER
  5
3A3
102
{ACAD_XDICTIONARY
360
3A4
102
}
330
1D
100
AcDbSymbolTableRecord
100
AcDbLayerTableRecord
  2
0Hatch
 70
     0
 62
   122
  6
CONTINUOUS
370
     5
390
9
  0
LAYER
  5
7E
102
{ACAD_XDICTIONARY
360
7F
102
}
330
1D
100
AcDbSymbolTableRecord
100
AcDbLayerTableRecord
  2
RAMKI-A4
 70
     0
 62
     2
  6
CONTINUOUS
290
     0
370
    -3
390
9
1001
RAK
1000
{ACET-LAYISO
1070
     0
1070
     2
1000
Continuous
1071
       -3
1071
        0
1005
9
1000
ACET-LAYISO}
  0
LAYER
  5
1326
330
1D
100
AcDbSymbolTableRecord
100
AcDbLayerTableRecord
  2
TEREN$0$A-MassElement-G
 70
     0
 62
   210
  6
CONTINUOUS
370
     9
390
9
1001
AcAecLayerStandard
1000
BS1192 - Descriptive
1001
RAK
1000
{ACET-LAYISO
1070
     0
1070
   210
1000
Continuous
1071
        9
1071
        1
1005
9
1000
ACET-LAYISO}
  0
LAYER
  5
1A18
102
{ACAD_XDICTIONARY
360
1A19
102
}
330
1D
100
AcDbSymbolTableRecord
100
AcDbLayerTableRecord
  2
WYMIARY
 70
     0
 62
     1
  6
CONTINUOUS
370
    -3
390
9
  0
ENDTAB
  0
TABLE
  2
STYLE
  5
20
330
0
100
AcDbSymbolTable
 70
     5
  0
STYLE
  5
21
330
20
100
AcDbSymbolTableRecord
100
AcDbTextStyleTableRecord
  2
STANDARD
 70
     0
 40
0.0
 41
1.0
 50
0.0
 71
     0
 42
0.2
  3
txt
  4

  0
STYLE
  5
2E
330
20
100
AcDbSymbolTableRecord
100
AcDbTextStyleTableRecord
  2
ROMANS
 70
     0
 40
0.0
 41
0.9
 50
0.0
 71
     0
 42
5.0
  3
romans.shx
  4

  0
STYLE
  5
79
330
20
100
AcDbSymbolTableRecord
100
AcDbTextStyleTableRecord
  2
AVA
 70
     0
 40
0.0
 41
1.0
 50
0.0
 71
     0
 42
20.0
  3
ARIAL.TTF
  4

1001
ACAD
1000
Arial CE
1071
    60962
  0
ENDTAB
  0
TABLE
  2
VIEW
  5
26
330
0
100
AcDbSymbolTable
 70
     1
  0
VIEW
  5
13
330
26
100
AcDbSymbolTableRecord
100
AcDbViewTableRecord
  2
10-ele
 70
     0
 40
2040.000000000001
 10
597.6361962217097
 20
4133.999999999996
 41
2803.999999999998
 11
0.0
 21
0.0
 31
1.0
 12
0.0
 22
0.0
 32
0.0
 42
50.0
 43
0.0
 44
0.0
 50
0.0
 71
     0
281
     0
 72
     1
110
0.0
120
0.0
130
0.0
111
1.0
121
0.0
131
0.0
112
0.0
122
1.0
132
0.0
 79
     0
146
0.0
  0
ENDTAB
  0
TABLE
  2
UCS
  5
27
330
0
100
AcDbSymbolTable
 70
     0
  0
ENDTAB
  0
TABLE
  2
APPID
  5
2A
330
0
100
AcDbSymbolTable
 70
     7
  0
APPID
  5
2B
330
2A
100
AcDbSymbolTableRecord
100
AcDbRegAppTableRecord
  2
ACAD
 70
     0
  0
APPID
  5
F
330
2A
100
AcDbSymbolTableRecord
100
AcDbRegAppTableRecord
  2
RAK
 70
     0
  0
APPID
  5
16
330
2A
100
AcDbSymbolTableRecord
100
AcDbRegAppTableRecord
  2
ACAD_PSEXT
 70
     0
  0
APPID
  5
7AA
330
2A
100
AcDbSymbolTableRecord
100
AcDbRegAppTableRecord
  2
ACAD_MLEADERVER
 70
     0
  0
APPID
  5
B8E
330
2A
100
AcDbSymbolTableRecord
100
AcDbRegAppTableRecord
  2
ACAD_EXEMPT_FROM_CAD_STANDARDS
 70
     0
  0
APPID
  5
132A
330
2A
100
AcDbSymbolTableRecord
100
AcDbRegAppTableRecord
  2
AcAecLayerStandard
 70
     0
  0
APPID
  5
2020
330
2A
100
AcDbSymbolTableRecord
100
AcDbRegAppTableRecord
  2
AcLayerTools
 70
     0
  0
ENDTAB
  0
TABLE
  2
DIMSTYLE
  5
2C
330
0
100
AcDbSymbolTable
 70
     7
100
AcDbDimStyleTable
 71
     1
340
2D
  0
DIMSTYLE
105
2D
102
{ACAD_REACTORS
330
231E
330
2333
330
2335
330
2460
330
2496
330
246B
330
246F
330
2471
102
}
330
2C
100
AcDbSymbolTableRecord
100
AcDbDimStyleTableRecord
  2
500
 70
     0
 41
30.0
 42
43.0
 43
0.0
 44
13.0
 45
0.5
 46
12.0
 73
     0
 74
     0
 75
     1
 76
     1
 78
    12
140
80.0
141
0.0
145
1.0
147
0.0
172
     1
174
     1
176
     1
177
     1
178
   140
271
     1
272
     1
279
     2
340
2E
341
2F
342
2F
  0
ENDTAB
  0
TABLE
  2
BLOCK_RECORD
  5
1
330
0
100
AcDbSymbolTable
 70
    63
  0
BLOCK_RECORD
  5
2
102
{ACAD_XDICTIONARY
360
3
102
}
330
1
100
AcDbSymbolTableRecord
100
AcDbBlockTableRecord
  2
*MODEL_SPACE
340
11
  0
BLOCK_RECORD
  5
1942
330
1
100
AcDbSymbolTableRecord
100
AcDbBlockTableRecord
  2
*Paper_Space
340
1943
  0
BLOCK_RECORD
  5
2F
102
{ACAD_XDICTIONARY
360
30
102
}
330
1
100
AcDbSymbolTableRecord
100
AcDbBlockTableRecord
  2
B-DIM
340
0
102
{BLKREFS
331
1BB3
331
1BB4
331
1BBA
331
1BBB
331
1BC1
331
1BC2
331
1BCF
331
1BD0
331
1BD6
331
1BD7
331
1BDD
331
1BDE
331
1BE6
331
1BE7
331
1BF6
331
1BF7
331
1BFD
331
1BFE
331
1C04
331
1C05
331
1C0B
331
1C0C
331
1C14
331
1C15
331
1C22
331
1C23
331
1C29
331
1C2A
331
1C34
331
1C35
331
1C3D
331
1C3E
331
1C46
331
1C47
331
1C4D
331
1C4E
331
2008
331
2009
331
2012
331
2013
331
20A3
331
20A4
331
20AA
331
20AB
331
2112
331
2113
331
211D
331
211E
331
212A
331
212B
331
2149
331
214A
331
2150
331
2151
331
2157
331
2158
331
215E
331
215F
331
2165
331
2166
331
216C
331
216D
331
2175
331
2176
331
217C
331
217D
331
220D
331
220E
331
2214
331
2215
331
221B
331
221C
331
2222
331
2223
331
2229
331
222A
331
2230
331
2231
331
2239
331
223A
331
2240
331
2241
331
2256
331
2257
331
2260
331
2261
331
226A
331
226B
331
2276
331
2277
331
2280
331
2281
331
228C
331
228D
331
23CF
331
23D0
331
23ED
331
23EE
331
23F6
331
23F7
331
244A
331
244B
331
2451
331
2452
331
245A
331
245B
331
2465
331
2466
331
24C2
331
24C3
331
24C9
331
24CA
331
24D0
331
24D1
331
24D9
331
24DA
102
}
  0
BLOCK_RECORD
  5
224F
330
1
100
AcDbSymbolTableRecord
100
AcDbBlockTableRecord
  2
A4_100
340
0
102
{BLKREFS
331
229D
331
2317
102
}
  0
BLOCK_RECORD
  5
2398
330
1
100
AcDbSymbolTableRecord
100
AcDbBlockTableRecord
  2
*D52
340
0
  0
BLOCK_RECORD
  5
23A2
330
1
100
AcDbSymbolTableRecord
100
AcDbBlockTableRecord
  2
*D53
340
0
  0
BLOCK_RECORD
  5
23AC
330
1
100
AcDbSymbolTableRecord
100
AcDbBlockTableRecord
  2
*D54
340
0
  0
BLOCK_RECORD
  5
2461
330
1
100
AcDbSymbolTableRecord
100
AcDbBlockTableRecord
  2
*D57
340
0
  0
BLOCK_RECORD
  5
2497
330
1
100
AcDbSymbolTableRecord
100
AcDbBlockTableRecord
  2
*D58
340
0
  0
BLOCK_RECORD
  5
24A1
330
1
100
AcDbSymbolTableRecord
100
AcDbBlockTableRecord
  2
*D59
340
0
  0
BLOCK_RECORD
  5
24AB
330
1
100
AcDbSymbolTableRecord
100
AcDbBlockTableRecord
  2
*D60
340
0
  0
BLOCK_RECORD
  5
24B5
330
1
100
AcDbSymbolTableRecord
100
AcDbBlockTableRecord
  2
*D61
340
0
  0
ENDTAB
  0
ENDSEC
  0
SECTION
  2
BLOCKS
  0
BLOCK
  5
5
330
2
100
AcDbEntity
  8
0
100
AcDbBlockBegin
  2
*MODEL_SPACE
 70
     0
 10
0.0
 20
0.0
 30
0.0
  3
*MODEL_SPACE
  1

  0
ENDBLK
  5
10
330
2
100
AcDbEntity
  8
0
100
AcDbBlockEnd
  0
BLOCK
  5
1944
330
1942
100
AcDbEntity
 67
     1
  8
0
 48
4.0
100
AcDbBlockBegin
  2
*Paper_Space
 70
     0
 10
0.0
 20
0.0
 30
0.0
  3
*Paper_Space
  1

  0
ENDBLK
  5
1945
330
1942
100
AcDbEntity
 67
     1
  8
0
 48
4.0
100
AcDbBlockEnd
  0
BLOCK
  5
32
330
2F
100
AcDbEntity
  8
0
100
AcDbBlockBegin
  2
B-DIM
 70
     0
 10
0.0
 20
0.0
 30
0.0
  3
B-DIM
  1

  0
LINE
  5
33
330
2F
100
AcDbEntity
  8
0
 62
     1
100
AcDbLine
 10
0.000000000000091
 20
-1.1
 30
0.0
 11
0.000000000000091
 21
1.1
 31
0.0
  0
LWPOLYLINE
  5
34
330
2F
100
AcDbEntity
  8
0
 62
     1
100
AcDbPolyline
 90
        2
 70
     0
 43
0.3
 10
-0.7071067811864851
 20
-0.7071067811864851
 10
0.707106781186576
 20
0.707106781186576
  0
LINE
  5
35
330
2F
100
AcDbEntity
  8
0
 62
     1
100
AcDbLine
 10
1.20000000000009
 20
0.0
 30
0.0
 11
-1.199999999999909
 21
0.0
 31
0.0
  0
ENDBLK
  5
36
330
2F
100
AcDbEntity
  8
0
100
AcDbBlockEnd
  0
BLOCK
  5
2250
330
224F
100
AcDbEntity
  8
0
100
AcDbBlockBegin
  2
A4_100
 70
     0
 10
0.0
 20
0.0
 30
0.0
  3
A4_100
  1

  0
LWPOLYLINE
  5
2251
330
224F
100
AcDbEntity
  8
RAMKI-A4
100
AcDbPolyline
 90
        4
 70
     1
 43
0.0
 10
0.0
 20
0.0
 10
0.0
 20
2804.0
 10
2040.0
 20
2804.0
 10
2040.0
 20
0.0
  0
ENDBLK
  5
2252
330
224F
100
AcDbEntity
  8
0
100
AcDbBlockEnd
  0
BLOCK
  5
2399
330
2398
100
AcDbEntity
  8
0
 62
    54
 48
4.0
100
AcDbBlockBegin
  2
*D52
 70
     1
 10
0.0
 20
0.0
 30
0.0
  3
*D52
  1

  0
LINE
  5
2449
330
2398
100
AcDbEntity
  8
0Hatch
 62
     1
370
    -2
100
AcDbLine
 10
69545.65255687028
 20
-5365.13333775886
 30
0.0
 11
69545.65255687028
 21
-4476.133337758859
 31
0.0
  0
INSERT
  5
244A
330
2398
100
AcDbEntity
  8
0Hatch
 62
     1
370
    -2
100
AcDbBlockReference
  2
B-DIM
 10
69545.65255687028
 20
-5395.13333775886
 30
0.0
 41
30.0
 42
30.0
 43
30.0
 50
270.0
  0
INSERT
  5
244B
330
2398
100
AcDbEntity
  8
0Hatch
 62
     1
370
    -2
100
AcDbBlockReference
  2
B-DIM
 10
69545.65255687028
 20
-4446.13333775886
 30
0.0
 41
30.0
 42
30.0
 43
30.0
 50
90.0
  0
MTEXT
  5
244C
330
2398
100
AcDbEntity
  8
0Hatch
 62
   140
100
AcDbMText
 10
69465.65255687028
 20
-4920.633337758849
 30
0.0
 40
80.0
 41
0.0
 71
     5
 72
     1
  1
\A1;949
  7
ROMANS
 11
0.0000000000000001
 21
1.0
 31
0.0
 73
     1
 44
1.0
1001
ACAD
1000
MTEXTBEGIN
1070
    73
1070
     1
1070
    44
1040
1.0
1070
    74
1070
     0
1000
MTEXTEND
  0
POINT
  5
244D
330
2398
100
AcDbEntity
  8
Defpoints
 62
     0
100
AcDbPoint
 10
70045.65255687028
 20
-5395.13333775886
 30
0.0
  0
POINT
  5
244E
330
2398
100
AcDbEntity
  8
Defpoints
 62
     0
100
AcDbPoint
 10
70045.65255687028
 20
-4446.13333775886
 30
0.0
  0
POINT
  5
244F
330
2398
100
AcDbEntity
  8
Defpoints
 62
     0
100
AcDbPoint
 10
69545.65255687028
 20
-4446.13333775886
 30
0.0
  0
ENDBLK
  5
239A
330
2398
100
AcDbEntity
  8
0
 62
    54
 48
4.0
100
AcDbBlockEnd
  0
BLOCK
  5
23A3
330
23A2
100
AcDbEntity
  8
0
 62
    54
 48
4.0
100
AcDbBlockBegin
  2
*D53
 70
     1
 10
0.0
 20
0.0
 30
0.0
  3
*D53
  1

  0
LINE
  5
2450
330
23A2
100
AcDbEntity
  8
WYMIARY
 62
     1
370
    -2
100
AcDbLine
 10
70075.65255687028
 20
-5805.13333775886
 30
0.0
 11
71234.65255687028
 21
-5805.13333775886
 31
0.0
  0
INSERT
  5
2451
330
23A2
100
AcDbEntity
  8
WYMIARY
 62
     1
370
    -2
100
AcDbBlockReference
  2
B-DIM
 10
70045.65255687028
 20
-5805.13333775886
 30
0.0
 41
30.0
 42
30.0
 43
30.0
 50
180.0
  0
INSERT
  5
2452
330
23A2
100
AcDbEntity
  8
WYMIARY
 62
     1
370
    -2
100
AcDbBlockReference
  2
B-DIM
 10
71264.65255687028
 20
-5805.13333775886
 30
0.0
 41
30.0
 42
30.0
 43
30.0
  0
MTEXT
  5
2453
330
23A2
100
AcDbEntity
  8
WYMIARY
 62
   140
100
AcDbMText
 10
70655.15255687028
 20
-5725.13333775886
 30
0.0
 40
80.0
 41
0.0
 71
     5
 72
     1
  1
\A1;1219
  7
ROMANS
 73
     1
 44
1.0
1001
ACAD
1000
MTEXTBEGIN
1070
    73
1070
     1
1070
    44
1040
1.0
1070
    74
1070
     0
1000
MTEXTEND
  0
POINT
  5
2454
330
23A2
100
AcDbEntity
  8
Defpoints
 62
     0
100
AcDbPoint
 10
70045.65255687028
 20
-5454.968428491324
 30
0.0
  0
POINT
  5
2455
330
23A2
100
AcDbEntity
  8
Defpoints
 62
     0
100
AcDbPoint
 10
71264.65255687028
 20
-5454.968428491324
 30
0.0
  0
POINT
  5
2456
330
23A2
100
AcDbEntity
  8
Defpoints
 62
     0
100
AcDbPoint
 10
71264.65255687028
 20
-5805.13333775886
 30
0.0
  0
ENDBLK
  5
23A4
330
23A2
100
AcDbEntity
  8
0
 62
    54
 48
4.0
100
AcDbBlockEnd
  0
BLOCK
  5
23AD
330
23AC
100
AcDbEntity
  8
0
 62
    54
 48
4.0
100
AcDbBlockBegin
  2
*D54
 70
     1
 10
0.0
 20
0.0
 30
0.0
  3
*D54
  1

  0
LINE
  5
2457
330
23AC
100
AcDbEntity
  8
WYMIARY
 62
     1
370
    -2
100
AcDbLine
 10
69915.65255687028
 20
-5805.13333775886
 30
0.0
 11
69885.65255687028
 21
-5805.13333775886
 31
0.0
  0
LINE
  5
2458
330
23AC
100
AcDbEntity
  8
WYMIARY
 62
     1
370
    -2
100
AcDbLine
 10
70075.65255687028
 20
-5805.13333775886
 30
0.0
 11
70105.65255687028
 21
-5805.13333775886
 31
0.0
  0
LINE
  5
2459
330
23AC
100
AcDbEntity
  8
WYMIARY
 62
     1
370
    -2
100
AcDbLine
 10
69945.65255687028
 20
-5805.13333775886
 30
0.0
 11
70045.65255687028
 21
-5805.13333775886
 31
0.0
  0
INSERT
  5
245A
330
23AC
100
AcDbEntity
  8
WYMIARY
 62
     1
370
    -2
100
AcDbBlockReference
  2
B-DIM
 10
69945.65255687028
 20
-5805.13333775886
 30
0.0
 41
30.0
 42
30.0
 43
30.0
  0
INSERT
  5
245B
330
23AC
100
AcDbEntity
  8
WYMIARY
 62
     1
370
    -2
100
AcDbBlockReference
  2
B-DIM
 10
70045.65255687028
 20
-5805.13333775886
 30
0.0
 41
30.0
 42
30.0
 43
30.0
 50
180.0
  0
MTEXT
  5
245C
330
23AC
100
AcDbEntity
  8
WYMIARY
 62
   140
100
AcDbMText
 10
69995.65255687028
 20
-5725.13333775886
 30
0.0
 40
80.0
 41
0.0
 71
     5
 72
     1
  1
\A1;100
  7
ROMANS
 73
     1
 44
1.0
1001
ACAD
1000
MTEXTBEGIN
1070
    73
1070
     1
1070
    44
1040
1.0
1070
    74
1070
     0
1000
MTEXTEND
  0
POINT
  5
245D
330
23AC
100
AcDbEntity
  8
Defpoints
 62
     0
100
AcDbPoint
 10
69945.65255687028
 20
-5117.325323786005
 30
0.0
  0
POINT
  5
245E
330
23AC
100
AcDbEntity
  8
Defpoints
 62
     0
100
AcDbPoint
 10
70045.65255687028
 20
-5454.968428491324
 30
0.0
  0
POINT
  5
245F
330
23AC
100
AcDbEntity
  8
Defpoints
 62
     0
100
AcDbPoint
 10
70045.65255687028
 20
-5805.13333775886
 30
0.0
  0
ENDBLK
  5
23AE
330
23AC
100
AcDbEntity
  8
0
 62
    54
 48
4.0
100
AcDbBlockEnd
  0
BLOCK
  5
2462
330
2461
100
AcDbEntity
  8
0
 62
    54
 48
4.0
100
AcDbBlockBegin
  2
*D57
 70
     1
 10
0.0
 20
0.0
 30
0.0
  3
*D57
  1

  0
LINE
  5
2464
330
2461
100
AcDbEntity
  8
0Wymiary-PL
 62
     1
 48
4.0
370
    -2
100
AcDbLine
 10
69975.65255687027
 20
-6005.133337758859
 30
0.0
 11
71234.65255687028
 21
-6005.133337758859
 31
0.0
  0
INSERT
  5
2465
330
2461
100
AcDbEntity
  8
0Wymiary-PL
 62
     1
 48
4.0
370
    -2
100
AcDbBlockReference
  2
B-DIM
 10
69945.65255687028
 20
-6005.133337758859
 30
0.0
 41
30.0
 42
30.0
 43
30.0
 50
180.0
  0
INSERT
  5
2466
330
2461
100
AcDbEntity
  8
0Wymiary-PL
 62
     1
 48
4.0
370
    -2
100
AcDbBlockReference
  2
B-DIM
 10
71264.65255687028
 20
-6005.133337758859
 30
0.0
 41
30.0
 42
30.0
 43
30.0
  0
MTEXT
  5
2467
330
2461
100
AcDbEntity
  8
0Wymiary-PL
 62
   140
 48
4.0
100
AcDbMText
 10
70605.15255687028
 20
-5925.13333775886
 30
0.0
 40
80.0
 41
0.0
 71
     5
 72
     1
  1
\A1;1319
  7
ROMANS
 73
     1
 44
1.0
1001
ACAD
1000
MTEXTBEGIN
1070
    73
1070
     1
1070
    44
1040
1.0
1070
    74
1070
     0
1000
MTEXTEND
  0
POINT
  5
2468
330
2461
100
AcDbEntity
  8
Defpoints
 62
     0
 48
4.0
100
AcDbPoint
 10
69945.65255687028
 20
-4958.223283082683
 30
0.0
  0
POINT
  5
2469
330
2461
100
AcDbEntity
  8
Defpoints
 62
     0
 48
4.0
100
AcDbPoint
 10
71264.65255687028
 20
-4958.223283082683
 30
0.0
  0
POINT
  5
246A
330
2461
100
AcDbEntity
  8
Defpoints
 62
     0
 48
4.0
100
AcDbPoint
 10
71264.65255687028
 20
-6005.133337758859
 30
0.0
  0
ENDBLK
  5
2463
330
2461
100
AcDbEntity
  8
0
 62
    54
 48
4.0
100
AcDbBlockEnd
  0
BLOCK
  5
2498
330
2497
100
AcDbEntity
  8
0
 62
    54
 48
4.0
100
AcDbBlockBegin
  2
*D58
 70
     1
 10
0.0
 20
0.0
 30
0.0
  3
*D58
  1

  0
LINE
  5
24C1
330
2497
100
AcDbEntity
  8
0Wymiary-PL
 62
     1
 48
4.0
370
    -2
100
AcDbLine
 10
75642.00040077005
 20
-6005.133337758859
 30
0.0
 11
74383.00040077004
 21
-6005.133337758859
 31
0.0
  0
INSERT
  5
24C2
330
2497
100
AcDbEntity
  8
0Wymiary-PL
 62
     1
 48
4.0
370
    -2
100
AcDbBlockReference
  2
B-DIM
 10
75672.00040077005
 20
-6005.133337758859
 30
0.0
 41
30.0
 42
30.0
 43
30.0
  0
INSERT
  5
24C3
330
2497
100
AcDbEntity
  8
0Wymiary-PL
 62
     1
 48
4.0
370
    -2
100
AcDbBlockReference
  2
B-DIM
 10
74353.00040077005
 20
-6005.133337758859
 30
0.0
 41
30.0
 42
30.0
 43
30.0
 50
180.0
  0
MTEXT
  5
24C4
330
2497
100
AcDbEntity
  8
0Wymiary-PL
 62
   140
 48
4.0
100
AcDbMText
 10
75012.50040077005
 20
-5925.13333775886
 30
0.0
 40
80.0
 41
0.0
 71
     5
 72
     1
  1
\A1;1319
  7
ROMANS
 73
     1
 44
1.0
1001
ACAD
1000
MTEXTBEGIN
1070
    73
1070
     1
1070
    44
1040
1.0
1070
    74
1070
     0
1000
MTEXTEND
  0
POINT
  5
24C5
330
2497
100
AcDbEntity
  8
Defpoints
 62
     0
 48
4.0
100
AcDbPoint
 10
75672.00040077005
 20
-4958.223283082683
 30
0.0
  0
POINT
  5
24C6
330
2497
100
AcDbEntity
  8
Defpoints
 62
     0
 48
4.0
100
AcDbPoint
 10
74353.00040077005
 20
-4958.223283082683
 30
0.0
  0
POINT
  5
24C7
330
2497
100
AcDbEntity
  8
Defpoints
 62
     0
 48
4.0
100
AcDbPoint
 10
74353.00040077005
 20
-6005.133337758859
 30
0.0
  0
ENDBLK
  5
2499
330
2497
100
AcDbEntity
  8
0
 62
    54
 48
4.0
100
AcDbBlockEnd
  0
BLOCK
  5
24A2
330
24A1
100
AcDbEntity
  8
0
 62
    54
 48
4.0
100
AcDbBlockBegin
  2
*D59
 70
     1
 10
0.0
 20
0.0
 30
0.0
  3
*D59
  1

  0
LINE
  5
24C8
330
24A1
100
AcDbEntity
  8
0Hatch
 62
     1
370
    -2
100
AcDbLine
 10
76072.00040077005
 20
-5365.133337758861
 30
0.0
 11
76072.00040077005
 21
-4476.13333775886
 31
0.0
  0
INSERT
  5
24C9
330
24A1
100
AcDbEntity
  8
0Hatch
 62
     1
370
    -2
100
AcDbBlockReference
  2
B-DIM
 10
76072.00040077005
 20
-5395.133337758861
 30
0.0
 41
30.0
 42
30.0
 43
30.0
 50
270.0
  0
INSERT
  5
24CA
330
24A1
100
AcDbEntity
  8
0Hatch
 62
     1
370
    -2
100
AcDbBlockReference
  2
B-DIM
 10
76072.00040077005
 20
-4446.133337758861
 30
0.0
 41
30.0
 42
30.0
 43
30.0
 50
90.0
  0
MTEXT
  5
24CB
330
24A1
100
AcDbEntity
  8
0Hatch
 62
   140
100
AcDbMText
 10
75992.00040077005
 20
-4920.633337758848
 30
0.0
 40
80.0
 41
0.0
 71
     5
 72
     1
  1
\A1;949
  7
ROMANS
 11
0.0000000000000001
 21
1.0
 31
0.0
 73
     1
 44
1.0
1001
ACAD
1000
MTEXTBEGIN
1070
    73
1070
     1
1070
    44
1040
1.0
1070
    74
1070
     0
1000
MTEXTEND
  0
POINT
  5
24CC
330
24A1
100
AcDbEntity
  8
Defpoints
 62
     0
100
AcDbPoint
 10
75572.00040077004
 20
-5395.13333775886
 30
0.0
  0
POINT
  5
24CD
330
24A1
100
AcDbEntity
  8
Defpoints
 62
     0
100
AcDbPoint
 10
75572.00040077004
 20
-4446.13333775886
 30
0.0
  0
POINT
  5
24CE
330
24A1
100
AcDbEntity
  8
Defpoints
 62
     0
100
AcDbPoint
 10
76072.00040077005
 20
-4446.133337758861
 30
0.0
  0
ENDBLK
  5
24A3
330
24A1
100
AcDbEntity
  8
0
 62
    54
 48
4.0
100
AcDbBlockEnd
  0
BLOCK
  5
24AC
330
24AB
100
AcDbEntity
  8
0
 62
    54
 48
4.0
100
AcDbBlockBegin
  2
*D60
 70
     1
 10
0.0
 20
0.0
 30
0.0
  3
*D60
  1

  0
LINE
  5
24CF
330
24AB
100
AcDbEntity
  8
WYMIARY
 62
     1
370
    -2
100
AcDbLine
 10
75542.00040077005
 20
-5805.13333775886
 30
0.0
 11
74383.00040077004
 21
-5805.13333775886
 31
0.0
  0
INSERT
  5
24D0
330
24AB
100
AcDbEntity
  8
WYMIARY
 62
     1
370
    -2
100
AcDbBlockReference
  2
B-DIM
 10
75572.00040077004
 20
-5805.13333775886
 30
0.0
 41
30.0
 42
30.0
 43
30.0
  0
INSERT
  5
24D1
330
24AB
100
AcDbEntity
  8
WYMIARY
 62
     1
370
    -2
100
AcDbBlockReference
  2
B-DIM
 10
74353.00040077005
 20
-5805.13333775886
 30
0.0
 41
30.0
 42
30.0
 43
30.0
 50
180.0
  0
MTEXT
  5
24D2
330
24AB
100
AcDbEntity
  8
WYMIARY
 62
   140
100
AcDbMText
 10
74962.50040077005
 20
-5725.13333775886
 30
0.0
 40
80.0
 41
0.0
 71
     5
 72
     1
  1
\A1;1219
  7
ROMANS
 73
     1
 44
1.0
1001
ACAD
1000
MTEXTBEGIN
1070
    73
1070
     1
1070
    44
1040
1.0
1070
    74
1070
     0
1000
MTEXTEND
  0
POINT
  5
24D3
330
24AB
100
AcDbEntity
  8
Defpoints
 62
     0
100
AcDbPoint
 10
75572.00040077004
 20
-5454.968428491324
 30
0.0
  0
POINT
  5
24D4
330
24AB
100
AcDbEntity
  8
Defpoints
 62
     0
100
AcDbPoint
 10
74353.00040077005
 20
-5454.968428491324
 30
0.0
  0
POINT
  5
24D5
330
24AB
100
AcDbEntity
  8
Defpoints
 62
     0
100
AcDbPoint
 10
74353.00040077005
 20
-5805.13333775886
 30
0.0
  0
ENDBLK
  5
24AD
330
24AB
100
AcDbEntity
  8
0
 62
    54
 48
4.0
100
AcDbBlockEnd
  0
BLOCK
  5
24B6
330
24B5
100
AcDbEntity
  8
0
 62
    54
 48
4.0
100
AcDbBlockBegin
  2
*D61
 70
     1
 10
0.0
 20
0.0
 30
0.0
  3
*D61
  1

  0
LINE
  5
24D6
330
24B5
100
AcDbEntity
  8
WYMIARY
 62
     1
370
    -2
100
AcDbLine
 10
75702.00040077005
 20
-5805.13333775886
 30
0.0
 11
75732.00040077004
 21
-5805.13333775886
 31
0.0
  0
LINE
  5
24D7
330
24B5
100
AcDbEntity
  8
WYMIARY
 62
     1
370
    -2
100
AcDbLine
 10
75542.00040077005
 20
-5805.13333775886
 30
0.0
 11
75512.00040077005
 21
-5805.13333775886
 31
0.0
  0
LINE
  5
24D8
330
24B5
100
AcDbEntity
  8
WYMIARY
 62
     1
370
    -2
100
AcDbLine
 10
75672.00040077005
 20
-5805.13333775886
 30
0.0
 11
75572.00040077004
 21
-5805.13333775886
 31
0.0
  0
INSERT
  5
24D9
330
24B5
100
AcDbEntity
  8
WYMIARY
 62
     1
370
    -2
100
AcDbBlockReference
  2
B-DIM
 10
75672.00040077005
 20
-5805.13333775886
 30
0.0
 41
30.0
 42
30.0
 43
30.0
 50
180.0
  0
INSERT
  5
24DA
330
24B5
100
AcDbEntity
  8
WYMIARY
 62
     1
370
    -2
100
AcDbBlockReference
  2
B-DIM
 10
75572.00040077004
 20
-5805.13333775886
 30
0.0
 41
30.0
 42
30.0
 43
30.0
  0
MTEXT
  5
24DB
330
24B5
100
AcDbEntity
  8
WYMIARY
 62
   140
100
AcDbMText
 10
75622.00040077005
 20
-5725.13333775886
 30
0.0
 40
80.0
 41
0.0
 71
     5
 72
     1
  1
\A1;100
  7
ROMANS
 73
     1
 44
1.0
1001
ACAD
1000
MTEXTBEGIN
1070
    73
1070
     1
1070
    44
1040
1.0
1070
    74
1070
     0
1000
MTEXTEND
  0
POINT
  5
24DC
330
24B5
100
AcDbEntity
  8
Defpoints
 62
     0
100
AcDbPoint
 10
75672.00040077005
 20
-5117.325323786005
 30
0.0
  0
POINT
  5
24DD
330
24B5
100
AcDbEntity
  8
Defpoints
 62
     0
100
AcDbPoint
 10
75572.00040077004
 20
-5454.968428491324
 30
0.0
  0
POINT
  5
24DE
330
24B5
100
AcDbEntity
  8
Defpoints
 62
     0
100
AcDbPoint
 10
75572.00040077004
 20
-5805.13333775886
 30
0.0
  0
ENDBLK
  5
24B7
330
24B5
100
AcDbEntity
  8
0
 62
    54
 48
4.0
100
AcDbBlockEnd
  0
ENDSEC
  0
SECTION
  2
ENTITIES
  0
INSERT
  5
2317
330
2
100
AcDbEntity
  8
RAMKI-A4
100
AcDbBlockReference
  2
A4_100
 10
67604.17551804864
 20
-12830.40384687605
 30
0.0
 41
5.0
 42
5.0
 43
5.0
  0
DIMENSION
  5
231E
330
2
100
AcDbEntity
  8
0Hatch
100
AcDbDimension
  2
*D52
 10
69545.65255687028
 20
-4446.13333775886
 30
0.0
 11
69465.65255687028
 21
-4920.633337758849
 31
0.0
 70
    32
 71
     5
 42
949.0
  3
500
100
AcDbAlignedDimension
 13
70045.65255687028
 23
-5395.13333775886
 33
0.0
 14
70045.65255687028
 24
-4446.13333775886
 34
0.0
 50
90.0
100
AcDbRotatedDimension
  0
LWPOLYLINE
  5
231F
102
{ACAD_REACTORS
330
241F
102
}
330
2
100
AcDbEntity
  8
0Hatch
100
AcDbPolyline
 90
       10
 70
     1
 43
0.0
 10
70472.15255687028
 20
-5395.13333775886
 10
70045.65255687028
 20
-5395.13333775886
 10
70045.65255687028
 20
-5214.492209943361
 10
69945.65255687028
 20
-5156.757183024398
 10
69945.65255687028
 20
-4958.223283082683
 10
70045.65255687028
 20
-4900.48825616372
 10
70045.65255687028
 20
-4446.13333775886
 10
71264.65255687028
 20
-4446.13333775886
 10
71264.65255687028
 20
-5395.13333775886
 10
70572.15255687028
 20
-5395.13333775886
  0
LINE
  5
2320
330
2
100
AcDbEntity
  8
TEREN$0$A-MassElement-G
  6
Continuous
 62
   210
370
     5
100
AcDbLine
 10
69745.65255687028
 20
-4236.13333775886
 30
0.0
 11
69745.65255687028
 21
-5041.287129186472
 31
0.0
  0
LWPOLYLINE
  5
2322
330
2
100
AcDbEntity
  8
NAPISY
  6
DASHED
 62
     1
 48
25.0
370
     5
100
AcDbPolyline
 90
        2
 70
     0
 43
0.0
 10
72808.82647882016
 20
-9470.943623254163
 10
72808.82647882016
 20
-3523.581372037385
  0
TEXT
  5
2323
330
2
100
AcDbEntity
  8
NAPISY
100
AcDbText
 10
69034.5483268874
 20
-12256.84076618097
 30
0.0
 40
100.0
  1
   O B R Y S   B U D Y N K U           S K A L A   1 : 5 0 0 
  7
AVA
100
AcDbText
  0
TEXT
  5
2324
330
2
100
AcDbEntity
  8
NAPISY
100
AcDbText
 10
72721.47546630581
 20
-8410.648492190551
 30
0.0
 40
100.0
  1
OŚ ODBICIA LUSTRZANEGO
 50
90.0
  7
AVA
100
AcDbText
  0
DIMENSION
  5
2333
330
2
100
AcDbEntity
  8
WYMIARY
100
AcDbDimension
  2
*D53
 10
71264.65255687028
 20
-5805.13333775886
 30
0.0
 11
70655.15255687028
 21
-5725.13333775886
 31
0.0
 70
    32
 71
     5
 42
1219.0
  3
500
100
AcDbAlignedDimension
 13
70045.65255687028
 23
-5454.968428491324
 33
0.0
 14
71264.65255687028
 24
-5454.968428491324
 34
0.0
100
AcDbRotatedDimension
  0
LWPOLYLINE
  5
2334
102
{ACAD_REACTORS
330
241F
102
}
330
2
100
AcDbEntity
  8
0Hatch
100
AcDbPolyline
 90
       10
 70
     1
 43
0.0
 10
70572.15255687028
 20
-5335.13333775886
 10
70472.15255687028
 20
-5335.13333775886
 10
70105.65255687028
 20
-5335.13333775886
 10
70105.65255687028
 20
-5179.851193791983
 10
70005.65255687027
 20
-5122.11616687302
 10
70005.65255687027
 20
-4992.864299234061
 10
70105.65255687028
 20
-4935.129272315098
 10
70105.65255687028
 20
-4506.13333775886
 10
71204.65255687028
 20
-4506.13333775886
 10
71204.65255687028
 20
-5335.13333775886
  0
DIMENSION
  5
2335
330
2
100
AcDbEntity
  8
WYMIARY
100
AcDbDimension
  2
*D54
 10
70045.65255687028
 20
-5805.13333775886
 30
0.0
 11
69995.65255687028
 21
-5725.13333775886
 31
0.0
 70
    32
 71
     5
 42
100.0
  3
500
100
AcDbAlignedDimension
 13
69945.65255687028
 23
-5117.325323786005
 33
0.0
 14
70045.65255687028
 24
-5454.968428491324
 34
0.0
100
AcDbRotatedDimension
  0
LINE
  5
2336
330
2
100
AcDbEntity
  8
TEREN$0$A-MassElement-G
  6
Continuous
 62
   210
370
     5
100
AcDbLine
 10
69795.67012734396
 20
-5104.805803115043
 30
0.0
 11
69895.67012734397
 21
-5162.540830034006
 31
0.0
  0
LINE
  5
2337
330
2
100
AcDbEntity
  8
TEREN$0$A-MassElement-G
  6
Continuous
 62
   210
370
     5
100
AcDbLine
 10
69795.67012734396
 20
-5104.805803115043
 30
0.0
 11
69810.67012734397
 21
-5078.825041001517
 31
0.0
  0
LINE
  5
2338
330
2
100
AcDbEntity
  8
TEREN$0$A-MassElement-G
  6
Continuous
 62
   210
370
     5
100
AcDbLine
 10
69895.67012734397
 20
-5162.540830034006
 30
0.0
 11
69910.67012734396
 21
-5136.560067920481
 31
0.0
  0
LINE
  5
2339
330
2
100
AcDbEntity
  8
TEREN$0$A-MassElement-G
  6
Continuous
 62
   210
370
     5
100
AcDbLine
 10
69745.65255687028
 20
-5041.287129186472
 30
0.0
 11
69945.65255687028
 21
-5156.757183024398
 31
0.0
  0
HATCH
  5
233A
330
2
100
AcDbEntity
  8
0Hatch
100
AcDbHatch
 10
0.0
 20
0.0
 30
0.0
210
0.0
220
0.0
230
1.0
  2
SOLID
 70
     1
 71
     0
 91
        2
 92
        7
 72
     0
 73
     1
 93
        4
 10
70427.90176214298
 20
-5530.63333775886
 10
70427.90176214298
 20
-5510.63333775886
 10
70407.90176214298
 20
-5510.63333775886
 10
70407.90176214298
 20
-5530.63333775886
 97
        0
 92
        7
 72
     0
 73
     1
 93
        4
 10
70781.90176214298
 20
-5510.63333775886
 10
70781.90176214298
 20
-5530.63333775886
 10
70801.90176214298
 20
-5530.63333775886
 10
70801.90176214298
 20
-5510.63333775886
 97
        0
 75
     0
 76
     1
 47
3.266547632880571
 98
        2
 10
70417.26810724425
 20
-5521.658839294498
 10
70793.16720213746
 20
-5515.125763501244
  0
LINE
  5
233D
330
2
100
AcDbEntity
  8
0Hatch
100
AcDbLine
 10
70781.90176214298
 20
-5510.63333775886
 30
0.0
 11
70801.90176214298
 21
-5510.63333775886
 31
0.0
  0
LINE
  5
233E
330
2
100
AcDbEntity
  8
0Hatch
100
AcDbLine
 10
70801.90176214298
 20
-5530.63333775886
 30
0.0
 11
70781.90176214298
 21
-5530.63333775886
 31
0.0
  0
LINE
  5
233F
330
2
100
AcDbEntity
  8
0Hatch
100
AcDbLine
 10
70781.90176214298
 20
-5510.63333775886
 30
0.0
 11
70781.90176214298
 21
-5530.63333775886
 31
0.0
  0
LINE
  5
2340
330
2
100
AcDbEntity
  8
0Hatch
100
AcDbLine
 10
70801.90176214298
 20
-5510.63333775886
 30
0.0
 11
70801.90176214298
 21
-5530.63333775886
 31
0.0
  0
LINE
  5
2341
330
2
100
AcDbEntity
  8
TEREN$0$A-MassElement-G
  6
Continuous
 62
   210
370
     5
100
AcDbLine
 10
70849.90176214298
 20
-5605.13333775886
 30
0.0
 11
70849.90176214298
 21
-5395.13333775886
 31
0.0
  0
LINE
  5
2342
330
2
100
AcDbEntity
  8
TEREN$0$A-MassElement-G
  6
Continuous
 62
   210
370
     5
100
AcDbLine
 10
70360.02910392458
 20
-5605.13333775886
 30
0.0
 11
70360.02910392458
 21
-5575.13333775886
 31
0.0
  0
LINE
  5
2343
330
2
100
AcDbEntity
  8
TEREN$0$A-MassElement-G
  6
Continuous
 62
   210
370
     5
100
AcDbLine
 10
70360.02910392458
 20
-5395.13333775886
 30
0.0
 11
70360.02910392458
 21
-5605.13333775886
 31
0.0
  0
LINE
  5
2344
330
2
100
AcDbEntity
  8
0Hatch
100
AcDbLine
 10
70407.90176214298
 20
-5510.63333775886
 30
0.0
 11
70407.90176214298
 21
-5530.63333775886
 31
0.0
  0
LINE
  5
2345
330
2
100
AcDbEntity
  8
0Hatch
100
AcDbLine
 10
70427.90176214298
 20
-5510.63333775886
 30
0.0
 11
70427.90176214298
 21
-5530.63333775886
 31
0.0
  0
LINE
  5
2346
330
2
100
AcDbEntity
  8
0Hatch
100
AcDbLine
 10
70427.90176214298
 20
-5530.63333775886
 30
0.0
 11
70407.90176214298
 21
-5530.63333775886
 31
0.0
  0
LINE
  5
2347
330
2
100
AcDbEntity
  8
0Hatch
100
AcDbLine
 10
70407.90176214298
 20
-5510.63333775886
 30
0.0
 11
70427.90176214298
 21
-5510.63333775886
 31
0.0
  0
LINE
  5
2348
330
2
100
AcDbEntity
  8
TEREN$0$A-MassElement-G
  6
Continuous
 62
   210
370
     5
100
AcDbLine
 10
70360.02910392458
 20
-5575.13333775886
 30
0.0
 11
70849.90176214298
 21
-5575.13333775886
 31
0.0
  0
LINE
  5
2349
330
2
100
AcDbEntity
  8
TEREN$0$A-MassElement-G
  6
Continuous
 62
   210
370
     5
100
AcDbLine
 10
70360.02910392458
 20
-5575.13333775886
 30
0.0
 11
70849.90176214298
 21
-5575.13333775886
 31
0.0
  0
LINE
  5
234A
330
2
100
AcDbEntity
  8
TEREN$0$A-MassElement-G
  6
Continuous
 62
   210
370
     5
100
AcDbLine
 10
70849.90176214298
 20
-5605.13333775886
 30
0.0
 11
70360.02910392458
 21
-5605.13333775886
 31
0.0
  0
LINE
  5
234B
102
{ACAD_REACTORS
330
241F
102
}
330
2
100
AcDbEntity
  8
0Hatch
100
AcDbLine
 10
70472.15255687028
 20
-5395.13333775886
 30
0.0
 11
70472.15255687028
 21
-5335.13333775886
 31
0.0
  0
LINE
  5
234C
102
{ACAD_REACTORS
330
241F
102
}
330
2
100
AcDbEntity
  8
0Hatch
100
AcDbLine
 10
70572.15255687028
 20
-5395.13333775886
 30
0.0
 11
70572.15255687028
 21
-5335.13333775886
 31
0.0
  0
LINE
  5
236D
330
2
100
AcDbEntity
  8
TEREN$0$A-MassElement-G
  6
Continuous
 62
   210
370
     5
100
AcDbLine
 10
70815.8055537157
 20
-4236.13333775886
 30
0.0
 11
69745.65255687028
 21
-4236.13333775886
 31
0.0
  0
HATCH
  5
236E
330
2
100
AcDbEntity
  8
0Hatch
100
AcDbHatch
 10
0.0
 20
0.0
 30
0.0
210
0.0
220
0.0
230
1.0
  2
SOLID
 70
     1
 71
     0
 91
        3
 92
        7
 72
     0
 73
     1
 93
        4
 10
70135.77090184033
 20
-4340.63333775886
 10
70115.77090184032
 20
-4340.63333775886
 10
70115.77090184032
 20
-4360.633337758859
 10
70135.77090184033
 20
-4360.633337758859
 97
        0
 92
        7
 72
     0
 73
     1
 93
        4
 10
70404.77090184032
 20
-4360.633337758859
 10
70404.77090184031
 20
-4340.63333775886
 10
70384.77090184033
 20
-4340.63333775886
 10
70384.77090184033
 20
-4360.633337758859
 97
        0
 92
        7
 72
     0
 73
     1
 93
        4
 10
70673.77090184033
 20
-4360.633337758859
 10
70673.77090184033
 20
-4340.63333775886
 10
70653.77090184032
 20
-4340.63333775886
 10
70653.77090184032
 20
-4360.633337758859
 97
        0
 75
     0
 76
     1
 47
3.266547632880571
 98
        3
 10
70129.62352357048
 20
-4352.234754893201
 10
70394.38724533661
 20
-4355.501292789835
 10
70662.41971540605
 20
-4352.234754893201
  0
LINE
  5
236F
330
2
100
AcDbEntity
  8
TEREN$0$A-MassElement-G
  6
Continuous
 62
   210
370
     5
100
AcDbLine
 10
70815.8055537157
 20
-4446.13333775886
 30
0.0
 11
70815.8055537157
 21
-4236.13333775886
 31
0.0
  0
LINE
  5
2370
330
2
100
AcDbEntity
  8
0Hatch
100
AcDbLine
 10
70404.77090184032
 20
-4340.63333775886
 30
0.0
 11
70404.77090184032
 21
-4360.633337758859
 31
0.0
  0
LINE
  5
2371
330
2
100
AcDbEntity
  8
0Hatch
100
AcDbLine
 10
70384.77090184033
 20
-4340.63333775886
 30
0.0
 11
70384.77090184033
 21
-4360.633337758859
 31
0.0
  0
LINE
  5
2372
330
2
100
AcDbEntity
  8
0Hatch
100
AcDbLine
 10
70384.77090184033
 20
-4340.63333775886
 30
0.0
 11
70404.77090184032
 21
-4340.63333775886
 31
0.0
  0
LINE
  5
2373
330
2
100
AcDbEntity
  8
0Hatch
100
AcDbLine
 10
70404.77090184032
 20
-4360.633337758859
 30
0.0
 11
70384.77090184033
 21
-4360.633337758859
 31
0.0
  0
LINE
  5
2374
330
2
100
AcDbEntity
  8
0Hatch
100
AcDbLine
 10
70653.77090184032
 20
-4340.63333775886
 30
0.0
 11
70673.77090184033
 21
-4340.63333775886
 31
0.0
  0
LINE
  5
2375
330
2
100
AcDbEntity
  8
0Hatch
100
AcDbLine
 10
70673.77090184033
 20
-4360.633337758859
 30
0.0
 11
70653.77090184032
 21
-4360.633337758859
 31
0.0
  0
LINE
  5
2376
330
2
100
AcDbEntity
  8
0Hatch
100
AcDbLine
 10
70653.77090184032
 20
-4340.63333775886
 30
0.0
 11
70653.77090184032
 21
-4360.633337758859
 31
0.0
  0
LINE
  5
2377
330
2
100
AcDbEntity
  8
0Hatch
100
AcDbLine
 10
70673.77090184033
 20
-4340.63333775886
 30
0.0
 11
70673.77090184033
 21
-4360.633337758859
 31
0.0
  0
LINE
  5
2378
330
2
100
AcDbEntity
  8
0Hatch
100
AcDbLine
 10
70115.77090184032
 20
-4340.63333775886
 30
0.0
 11
70135.77090184033
 21
-4340.63333775886
 31
0.0
  0
LINE
  5
2379
330
2
100
AcDbEntity
  8
0Hatch
100
AcDbLine
 10
70135.77090184033
 20
-4360.633337758859
 30
0.0
 11
70115.77090184032
 21
-4360.633337758859
 31
0.0
  0
LINE
  5
237B
330
2
100
AcDbEntity
  8
0Hatch
100
AcDbLine
 10
70115.77090184032
 20
-4340.63333775886
 30
0.0
 11
70115.77090184032
 21
-4360.633337758859
 31
0.0
  0
LINE
  5
237C
330
2
100
AcDbEntity
  8
0Hatch
100
AcDbLine
 10
70135.77090184033
 20
-4340.63333775886
 30
0.0
 11
70135.77090184033
 21
-4360.633337758859
 31
0.0
  0
TEXT
  5
23FC
330
2
100
AcDbEntity
  8
NAPISY
100
AcDbText
 10
69159.74051584152
 20
298.5174969083455
 30
0.0
 40
150.0
  1
MOŻNA WKLEIĆ DO PROJEKTU ZAGOSPODAROWANIA TERENU
  7
AVA
100
AcDbText
  0
TEXT
  5
23FD
330
2
100
AcDbEntity
  8
NAPISY
100
AcDbText
 10
69083.40524520638
 20
628.3859742711065
 30
0.0
 40
150.0
  1
"DOM W KONWALIACH"
  7
AVA
100
AcDbText
  0
HATCH
  5
241F
330
2
100
AcDbEntity
  8
0Hatch
100
AcDbHatch
 10
0.0
 20
0.0
 30
0.0
210
0.0
220
0.0
230
1.0
  2
SOLID
 70
     1
 71
     1
 91
        1
 92
        7
 72
     0
 73
     1
 93
       20
 10
71204.65255687026
 20
-4506.133337758859
 10
71204.65255687026
 20
-5335.13333775886
 10
70572.15255687028
 20
-5335.13333775886
 10
70572.15255687028
 20
-5395.13333775886
 10
71264.65255687028
 20
-5395.13333775886
 10
71264.65255687029
 20
-4446.13333775886
 10
70045.65255687028
 20
-4446.13333775886
 10
70045.65255687028
 20
-4900.488256163722
 10
69945.65255687028
 20
-4958.223283082679
 10
69945.65255687028
 20
-5156.757183024397
 10
70045.65255687026
 20
-5214.49220994336
 10
70045.65255687028
 20
-5395.13333775886
 10
70472.15255687028
 20
-5395.133337758861
 10
70472.15255687028
 20
-5335.13333775886
 10
70105.65255687028
 20
-5335.133337758861
 10
70105.65255687028
 20
-5179.85119379198
 10
70005.65255687027
 20
-5122.116166873023
 10
70005.65255687027
 20
-4992.864299234065
 10
70105.65255687028
 20
-4935.129272315093
 10
70105.65255687026
 20
-4506.13333775886
 97
        4
330
231F
330
234B
330
2334
330
234C
 75
     0
 76
     1
 47
4.813297433589031
 98
        1
 10
70810.48273812379
 20
-4485.229037820515
1001
ACAD
1010
0.0
1020
0.0
1030
0.0
  0
DIMENSION
  5
2460
330
2
100
AcDbEntity
  8
0Wymiary-PL
 62
    54
 48
4.0
100
AcDbDimension
  2
*D57
 10
71264.65255687028
 20
-6005.133337758859
 30
0.0
 11
70605.15255687028
 21
-5925.13333775886
 31
0.0
 70
    32
 71
     5
 42
1319.0
  3
500
100
AcDbAlignedDimension
 13
69945.65255687028
 23
-4958.223283082683
 33
0.0
 14
71264.65255687028
 24
-4958.223283082683
 34
0.0
100
AcDbRotatedDimension
  0
DIMENSION
  5
246B
330
2
100
AcDbEntity
  8
0Hatch
100
AcDbDimension
  2
*D59
 10
76072.00040077005
 20
-4446.133337758861
 30
0.0
 11
75992.00040077005
 21
-4920.633337758848
 31
0.0
 70
    32
 71
     5
 42
949.0
  3
500
100
AcDbAlignedDimension
 13
75572.00040077004
 23
-5395.13333775886
 33
0.0
 14
75572.00040077004
 24
-4446.13333775886
 34
0.0
 50
90.0
100
AcDbRotatedDimension
  0
HATCH
  5
246C
330
2
100
AcDbEntity
  8
0Hatch
100
AcDbHatch
 10
0.0
 20
0.0
 30
0.0
210
0.0
220
0.0
230
1.0
  2
SOLID
 70
     1
 71
     1
 91
        1
 92
        7
 72
     0
 73
     1
 93
       20
 10
75512.00040077005
 20
-4506.133337758861
 10
75512.00040077003
 20
-4935.129272315092
 10
75612.00040077005
 20
-4992.864299234056
 10
75612.00040077003
 20
-5122.116166873015
 10
75512.00040077005
 20
-5179.851193791989
 10
75512.00040077005
 20
-5335.133337758861
 10
75145.50040077005
 20
-5335.13333775886
 10
75145.50040077005
 20
-5395.133337758861
 10
75572.00040077004
 20
-5395.13333775886
 10
75572.00040077006
 20
-5214.49220994336
 10
75672.00040077005
 20
-5156.7571830244
 10
75672.00040077005
 20
-4958.223283082689
 10
75572.00040077006
 20
-4900.488256163722
 10
75572.00040077004
 20
-4446.13333775886
 10
74353.00040077005
 20
-4446.13333775886
 10
74353.00040077005
 20
-5395.13333775886
 10
75045.50040077004
 20
-5395.13333775886
 10
75045.50040077004
 20
-5335.13333775886
 10
74413.00040077004
 20
-5335.13333775886
 10
74413.00040077004
 20
-4506.13333775886
 97
        4
330
246D
330
2485
330
2470
330
2486
 75
     0
 76
     1
 47
4.813297433589031
 98
        1
 10
74807.17021951653
 20
-4485.229037820515
1001
ACAD
1010
0.0
1020
0.0
1030
0.0
  0
LWPOLYLINE
  5
246D
102
{ACAD_REACTORS
330
246C
102
}
330
2
100
AcDbEntity
  8
0Hatch
100
AcDbPolyline
 90
       10
 70
     1
 43
0.0
 10
75145.50040077005
 20
-5395.13333775886
 10
75572.00040077004
 20
-5395.13333775886
 10
75572.00040077004
 20
-5214.492209943361
 10
75672.00040077005
 20
-5156.757183024398
 10
75672.00040077005
 20
-4958.223283082683
 10
75572.00040077004
 20
-4900.48825616372
 10
75572.00040077004
 20
-4446.13333775886
 10
74353.00040077005
 20
-4446.13333775886
 10
74353.00040077005
 20
-5395.13333775886
 10
75045.50040077004
 20
-5395.13333775886
  0
LINE
  5
246E
330
2
100
AcDbEntity
  8
TEREN$0$A-MassElement-G
  6
Continuous
 62
   210
370
     5
100
AcDbLine
 10
75872.00040077004
 20
-4236.13333775886
 30
0.0
 11
75872.00040077004
 21
-5041.287129186472
 31
0.0
  0
DIMENSION
  5
246F
330
2
100
AcDbEntity
  8
WYMIARY
100
AcDbDimension
  2
*D60
 10
74353.00040077005
 20
-5805.13333775886
 30
0.0
 11
74962.50040077005
 21
-5725.13333775886
 31
0.0
 70
    32
 71
     5
 42
1219.0
  3
500
100
AcDbAlignedDimension
 13
75572.00040077004
 23
-5454.968428491324
 33
0.0
 14
74353.00040077005
 24
-5454.968428491324
 34
0.0
 50
180.0
100
AcDbRotatedDimension
  0
LWPOLYLINE
  5
2470
102
{ACAD_REACTORS
330
246C
102
}
330
2
100
AcDbEntity
  8
0Hatch
100
AcDbPolyline
 90
       10
 70
     1
 43
0.0
 10
75045.50040077004
 20
-5335.13333775886
 10
75145.50040077005
 20
-5335.13333775886
 10
75512.00040077005
 20
-5335.13333775886
 10
75512.00040077005
 20
-5179.851193791983
 10
75612.00040077005
 20
-5122.11616687302
 10
75612.00040077005
 20
-4992.864299234061
 10
75512.00040077005
 20
-4935.129272315098
 10
75512.00040077005
 20
-4506.13333775886
 10
74413.00040077004
 20
-4506.13333775886
 10
74413.00040077004
 20
-5335.13333775886
  0
DIMENSION
  5
2471
330
2
100
AcDbEntity
  8
WYMIARY
100
AcDbDimension
  2
*D61
 10
75572.00040077004
 20
-5805.13333775886
 30
0.0
 11
75622.00040077005
 21
-5725.13333775886
 31
0.0
 70
    32
 71
     5
 42
100.0
  3
500
100
AcDbAlignedDimension
 13
75672.00040077005
 23
-5117.325323786005
 33
0.0
 14
75572.00040077004
 24
-5454.968428491324
 34
0.0
 50
180.0
100
AcDbRotatedDimension
  0
LINE
  5
2472
330
2
100
AcDbEntity
  8
TEREN$0$A-MassElement-G
  6
Continuous
 62
   210
370
     5
100
AcDbLine
 10
75821.98283029636
 20
-5104.805803115043
 30
0.0
 11
75721.98283029636
 21
-5162.540830034006
 31
0.0
  0
LINE
  5
2473
330
2
100
AcDbEntity
  8
TEREN$0$A-MassElement-G
  6
Continuous
 62
   210
370
     5
100
AcDbLine
 10
75821.98283029636
 20
-5104.805803115043
 30
0.0
 11
75806.98283029636
 21
-5078.825041001517
 31
0.0
  0
LINE
  5
2474
330
2
100
AcDbEntity
  8
TEREN$0$A-MassElement-G
  6
Continuous
 62
   210
370
     5
100
AcDbLine
 10
75721.98283029636
 20
-5162.540830034006
 30
0.0
 11
75706.98283029636
 21
-5136.560067920481
 31
0.0
  0
LINE
  5
2475
330
2
100
AcDbEntity
  8
TEREN$0$A-MassElement-G
  6
Continuous
 62
   210
370
     5
100
AcDbLine
 10
75872.00040077004
 20
-5041.287129186472
 30
0.0
 11
75672.00040077005
 21
-5156.757183024398
 31
0.0
  0
HATCH
  5
2476
330
2
100
AcDbEntity
  8
0Hatch
100
AcDbHatch
 10
0.0
 20
0.0
 30
0.0
210
0.0
220
0.0
230
1.0
  2
SOLID
 70
     1
 71
     0
 91
        2
 92
        7
 72
     0
 73
     1
 93
        4
 10
75189.75119549734
 20
-5530.63333775886
 10
75189.75119549734
 20
-5510.63333775886
 10
75209.75119549734
 20
-5510.63333775886
 10
75209.75119549734
 20
-5530.63333775886
 97
        0
 92
        7
 72
     0
 73
     1
 93
        4
 10
74835.75119549734
 20
-5510.63333775886
 10
74835.75119549734
 20
-5530.63333775886
 10
74815.75119549734
 20
-5530.63333775886
 10
74815.75119549734
 20
-5510.63333775886
 97
        0
 75
     0
 76
     1
 47
3.266547632880571
 98
        2
 10
75200.38485039608
 20
-5521.658839294498
 10
74824.48575550286
 20
-5515.125763501244
  0
LINE
  5
2477
330
2
100
AcDbEntity
  8
0Hatch
100
AcDbLine
 10
74835.75119549734
 20
-5510.63333775886
 30
0.0
 11
74815.75119549734
 21
-5510.63333775886
 31
0.0
  0
LINE
  5
2478
330
2
100
AcDbEntity
  8
0Hatch
100
AcDbLine
 10
74815.75119549734
 20
-5530.63333775886
 30
0.0
 11
74835.75119549734
 21
-5530.63333775886
 31
0.0
  0
LINE
  5
2479
330
2
100
AcDbEntity
  8
0Hatch
100
AcDbLine
 10
74835.75119549734
 20
-5510.63333775886
 30
0.0
 11
74835.75119549734
 21
-5530.63333775886
 31
0.0
  0
LINE
  5
247A
330
2
100
AcDbEntity
  8
0Hatch
100
AcDbLine
 10
74815.75119549734
 20
-5510.63333775886
 30
0.0
 11
74815.75119549734
 21
-5530.63333775886
 31
0.0
  0
LINE
  5
247B
330
2
100
AcDbEntity
  8
TEREN$0$A-MassElement-G
  6
Continuous
 62
   210
370
     5
100
AcDbLine
 10
74767.75119549734
 20
-5605.13333775886
 30
0.0
 11
74767.75119549734
 21
-5395.13333775886
 31
0.0
  0
LINE
  5
247C
330
2
100
AcDbEntity
  8
TEREN$0$A-MassElement-G
  6
Continuous
 62
   210
370
     5
100
AcDbLine
 10
75257.62385371574
 20
-5605.13333775886
 30
0.0
 11
75257.62385371574
 21
-5575.13333775886
 31
0.0
  0
LINE
  5
247D
330
2
100
AcDbEntity
  8
TEREN$0$A-MassElement-G
  6
Continuous
 62
   210
370
     5
100
AcDbLine
 10
75257.62385371574
 20
-5395.13333775886
 30
0.0
 11
75257.62385371574
 21
-5605.13333775886
 31
0.0
  0
LINE
  5
247E
330
2
100
AcDbEntity
  8
0Hatch
100
AcDbLine
 10
75209.75119549734
 20
-5510.63333775886
 30
0.0
 11
75209.75119549734
 21
-5530.63333775886
 31
0.0
  0
LINE
  5
247F
330
2
100
AcDbEntity
  8
0Hatch
100
AcDbLine
 10
75189.75119549734
 20
-5510.63333775886
 30
0.0
 11
75189.75119549734
 21
-5530.63333775886
 31
0.0
  0
LINE
  5
2480
330
2
100
AcDbEntity
  8
0Hatch
100
AcDbLine
 10
75189.75119549734
 20
-5530.63333775886
 30
0.0
 11
75209.75119549734
 21
-5530.63333775886
 31
0.0
  0
LINE
  5
2481
330
2
100
AcDbEntity
  8
0Hatch
100
AcDbLine
 10
75209.75119549734
 20
-5510.63333775886
 30
0.0
 11
75189.75119549734
 21
-5510.63333775886
 31
0.0
  0
LINE
  5
2482
330
2
100
AcDbEntity
  8
TEREN$0$A-MassElement-G
  6
Continuous
 62
   210
370
     5
100
AcDbLine
 10
75257.62385371574
 20
-5575.13333775886
 30
0.0
 11
74767.75119549734
 21
-5575.13333775886
 31
0.0
  0
LINE
  5
2483
330
2
100
AcDbEntity
  8
TEREN$0$A-MassElement-G
  6
Continuous
 62
   210
370
     5
100
AcDbLine
 10
75257.62385371574
 20
-5575.13333775886
 30
0.0
 11
74767.75119549734
 21
-5575.13333775886
 31
0.0
  0
LINE
  5
2484
330
2
100
AcDbEntity
  8
TEREN$0$A-MassElement-G
  6
Continuous
 62
   210
370
     5
100
AcDbLine
 10
74767.75119549734
 20
-5605.13333775886
 30
0.0
 11
75257.62385371574
 21
-5605.13333775886
 31
0.0
  0
LINE
  5
2485
102
{ACAD_REACTORS
330
246C
102
}
330
2
100
AcDbEntity
  8
0Hatch
100
AcDbLine
 10
75145.50040077005
 20
-5395.13333775886
 30
0.0
 11
75145.50040077005
 21
-5335.13333775886
 31
0.0
  0
LINE
  5
2486
102
{ACAD_REACTORS
330
246C
102
}
330
2
100
AcDbEntity
  8
0Hatch
100
AcDbLine
 10
75045.50040077004
 20
-5395.13333775886
 30
0.0
 11
75045.50040077004
 21
-5335.13333775886
 31
0.0
  0
LINE
  5
2487
330
2
100
AcDbEntity
  8
TEREN$0$A-MassElement-G
  6
Continuous
 62
   210
370
     5
100
AcDbLine
 10
74801.84740392462
 20
-4236.13333775886
 30
0.0
 11
75872.00040077004
 21
-4236.13333775886
 31
0.0
  0
HATCH
  5
2488
330
2
100
AcDbEntity
  8
0Hatch
100
AcDbHatch
 10
0.0
 20
0.0
 30
0.0
210
0.0
220
0.0
230
1.0
  2
SOLID
 70
     1
 71
     0
 91
        3
 92
        7
 72
     0
 73
     1
 93
        4
 10
75481.8820558
 20
-4340.63333775886
 10
75501.8820558
 20
-4340.63333775886
 10
75501.8820558
 20
-4360.633337758859
 10
75481.8820558
 20
-4360.633337758859
 97
        0
 92
        7
 72
     0
 73
     1
 93
        4
 10
75212.8820558
 20
-4360.633337758859
 10
75212.88205580002
 20
-4340.63333775886
 10
75232.8820558
 20
-4340.63333775886
 10
75232.8820558
 20
-4360.633337758859
 97
        0
 92
        7
 72
     0
 73
     1
 93
        4
 10
74943.8820558
 20
-4360.633337758859
 10
74943.8820558
 20
-4340.63333775886
 10
74963.8820558
 20
-4340.63333775886
 10
74963.8820558
 20
-4360.633337758859
 97
        0
 75
     0
 76
     1
 47
3.266547632880571
 98
        3
 10
75488.02943406984
 20
-4352.234754893201
 10
75223.26571230372
 20
-4355.501292789835
 10
74955.23324223428
 20
-4352.234754893201
  0
LINE
  5
2489
330
2
100
AcDbEntity
  8
TEREN$0$A-MassElement-G
  6
Continuous
 62
   210
370
     5
100
AcDbLine
 10
74801.84740392462
 20
-4446.13333775886
 30
0.0
 11
74801.84740392462
 21
-4236.13333775886
 31
0.0
  0
LINE
  5
248A
330
2
100
AcDbEntity
  8
0Hatch
100
AcDbLine
 10
75212.8820558
 20
-4340.63333775886
 30
0.0
 11
75212.8820558
 21
-4360.633337758859
 31
0.0
  0
LINE
  5
248B
330
2
100
AcDbEntity
  8
0Hatch
100
AcDbLine
 10
75232.8820558
 20
-4340.63333775886
 30
0.0
 11
75232.8820558
 21
-4360.633337758859
 31
0.0
  0
LINE
  5
248C
330
2
100
AcDbEntity
  8
0Hatch
100
AcDbLine
 10
75232.8820558
 20
-4340.63333775886
 30
0.0
 11
75212.8820558
 21
-4340.63333775886
 31
0.0
  0
LINE
  5
248D
330
2
100
AcDbEntity
  8
0Hatch
100
AcDbLine
 10
75212.8820558
 20
-4360.633337758859
 30
0.0
 11
75232.8820558
 21
-4360.633337758859
 31
0.0
  0
LINE
  5
248E
330
2
100
AcDbEntity
  8
0Hatch
100
AcDbLine
 10
74963.8820558
 20
-4340.63333775886
 30
0.0
 11
74943.8820558
 21
-4340.63333775886
 31
0.0
  0
LINE
  5
248F
330
2
100
AcDbEntity
  8
0Hatch
100
AcDbLine
 10
74943.8820558
 20
-4360.633337758859
 30
0.0
 11
74963.8820558
 21
-4360.633337758859
 31
0.0
  0
LINE
  5
2490
330
2
100
AcDbEntity
  8
0Hatch
100
AcDbLine
 10
74963.8820558
 20
-4340.63333775886
 30
0.0
 11
74963.8820558
 21
-4360.633337758859
 31
0.0
  0
LINE
  5
2491
330
2
100
AcDbEntity
  8
0Hatch
100
AcDbLine
 10
74943.8820558
 20
-4340.63333775886
 30
0.0
 11
74943.8820558
 21
-4360.633337758859
 31
0.0
  0
LINE
  5
2492
330
2
100
AcDbEntity
  8
0Hatch
100
AcDbLine
 10
75501.8820558
 20
-4340.63333775886
 30
0.0
 11
75481.8820558
 21
-4340.63333775886
 31
0.0
  0
LINE
  5
2493
330
2
100
AcDbEntity
  8
0Hatch
100
AcDbLine
 10
75481.8820558
 20
-4360.633337758859
 30
0.0
 11
75501.8820558
 21
-4360.633337758859
 31
0.0
  0
LINE
  5
2494
330
2
100
AcDbEntity
  8
0Hatch
100
AcDbLine
 10
75501.8820558
 20
-4340.63333775886
 30
0.0
 11
75501.8820558
 21
-4360.633337758859
 31
0.0
  0
LINE
  5
2495
330
2
100
AcDbEntity
  8
0Hatch
100
AcDbLine
 10
75481.8820558
 20
-4340.63333775886
 30
0.0
 11
75481.8820558
 21
-4360.633337758859
 31
0.0
  0
DIMENSION
  5
2496
330
2
100
AcDbEntity
  8
0Wymiary-PL
 62
    54
 48
4.0
100
AcDbDimension
  2
*D58
 10
74353.00040077005
 20
-6005.133337758859
 30
0.0
 11
75012.50040077005
 21
-5925.13333775886
 31
0.0
 70
    32
 71
     5
 42
1319.0
  3
500
100
AcDbAlignedDimension
 13
75672.00040077005
 23
-4958.223283082683
 33
0.0
 14
74353.00040077005
 24
-4958.223283082683
 34
0.0
 50
180.0
100
AcDbRotatedDimension
  0
ENDSEC
  0
SECTION
  2
OBJECTS
  0
DICTIONARY
  5
B
330
0
100
AcDbDictionary
281
     1
  3
ACAD_COLOR
350
53
  3
ACAD_GROUP
350
4E
  3
ACAD_LAYOUT
350
12
  3
ACAD_MATERIAL
350
D
  3
ACAD_MLEADERSTYLE
350
7A8
  3
ACAD_MLINESTYLE
350
4F
  3
ACAD_PLOTSETTINGS
350
50
  3
ACAD_PLOTSTYLENAME
350
A
  3
ACAD_SCALELIST
350
54
  3
ACAD_TABLESTYLE
350
55
  3
ACAD_VISUALSTYLE
350
15
  3
ACDB_RECOMPOSE_DATA
350
794
  3
AcDbVariableDictionary
350
795
  3
AEC_PROPERTY_SET_DEFS
350
952
  3
DWGPROPS
350
24EF
  0
DICTIONARY
  5
1E
330
1D
100
AcDbDictionary
280
     1
281
     1
  3
ACAD_LAYERSTATES
360
1F
  0
DICTIONARY
  5
7
330
6
100
AcDbDictionary
280
     1
281
     1
  3
ADSK_XREC_LAYER_RECONCILED
360
8
  0
DICTIONARY
  5
75
330
74
100
AcDbDictionary
280
     1
281
     1
  3
ADSK_XREC_LAYER_RECONCILED
360
76
  0
DICTIONARY
  5
57
330
56
100
AcDbDictionary
280
     1
281
     1
  3
ADSK_XREC_LAYER_RECONCILED
360
58
  0
DICTIONARY
  5
3A4
330
3A3
100
AcDbDictionary
280
     1
281
     1
  3
ADSK_XREC_LAYER_RECONCILED
360
3A5
  0
DICTIONARY
  5
7F
330
7E
100
AcDbDictionary
280
     1
281
     1
  3
ADSK_XREC_LAYER_RECONCILED
360
80
  0
DICTIONARY
  5
1A19
330
1A18
100
AcDbDictionary
280
     1
281
     1
  0
DICTIONARY
  5
3
330
2
100
AcDbDictionary
280
     1
281
     1
  3
ACAD_SORTENTS
360
790
  0
DICTIONARY
  5
30
330
2F
100
AcDbDictionary
280
     1
281
     1
  3
ACAD_SORTENTS
360
78F
  0
DICTIONARY
  5
53
102
{ACAD_REACTORS
330
B
102
}
330
B
100
AcDbDictionary
281
     1
  0
DICTIONARY
  5
4E
102
{ACAD_REACTORS
330
B
102
}
330
B
100
AcDbDictionary
281
     1
  0
DICTIONARY
  5
12
102
{ACAD_REACTORS
330
B
102
}
330
B
100
AcDbDictionary
281
     1
  3
Layout1
350
1943
  3
Model
350
11
  0
DICTIONARY
  5
D
102
{ACAD_REACTORS
330
B
102
}
330
B
100
AcDbDictionary
281
     1
  3
ByBlock
350
52
  3
ByLayer
350
51
  3
Global
350
C
  0
DICTIONARY
  5
7A8
102
{ACAD_REACTORS
330
B
102
}
330
B
100
AcDbDictionary
281
     1
  0
DICTIONARY
  5
4F
102
{ACAD_REACTORS
330
B
102
}
330
B
100
AcDbDictionary
281
     1
  3
STANDARD
350
59
  0
DICTIONARY
  5
50
102
{ACAD_REACTORS
330
B
102
}
330
B
100
AcDbDictionary
281
     1
  0
ACDBDICTIONARYWDFLT
  5
A
102
{ACAD_REACTORS
330
B
102
}
330
B
100
AcDbDictionary
281
     1
  3
Normal
350
9
100
AcDbDictionaryWithDefault
340
9
  0
DICTIONARY
  5
54
102
{ACAD_REACTORS
330
B
102
}
330
B
100
AcDbDictionary
281
     1
  3
*A1
350
85B
  3
*A10
350
87C
  3
*A11
350
87D
  3
*A12
350
1331
  3
*A13
350
865
  3
*A14
350
860
  3
*A15
350
862
  3
*A16
350
132D
  3
*A17
350
87E
  3
*A18
350
168F
  3
*A19
350
1690
  3
*A2
350
1335
  3
*A20
350
1691
  3
*A21
350
868
  3
*A22
350
86A
  3
*A23
350
1332
  3
*A24
350
1692
  3
*A25
350
1693
  3
*A26
350
85E
  3
*A27
350
1694
  3
*A28
350
86F
  3
*A29
350
871
  3
*A3
350
1336
  3
*A30
350
1695
  3
*A31
350
882
  3
*A32
350
866
  3
*A33
350
86D
  3
*A34
350
876
  3
*A35
350
85D
  3
*A36
350
85F
  3
*A37
350
863
  3
*A38
350
85C
  3
*A39
350
874
  3
*A4
350
132C
  3
*A40
350
132E
  3
*A41
350
867
  3
*A42
350
1A1C
  3
*A43
350
864
  3
*A44
350
1A1D
  3
*A45
350
1333
  3
*A46
350
1A1E
  3
*A47
350
1A1F
  3
*A48
350
86C
  3
*A49
350
1A20
  3
*A5
350
1337
  3
*A50
350
1A21
  3
*A51
350
1A22
  3
*A52
350
873
  3
*A53
350
86B
  3
*A54
350
87A
  3
*A55
350
86E
  3
*A56
350
879
  3
*A57
350
872
  3
*A58
350
880
  3
*A59
350
875
  3
*A6
350
87F
  3
*A60
350
1D01
  3
*A61
350
878
  3
*A62
350
1D02
  3
*A63
350
1D03
  3
*A64
350
132F
  3
*A65
350
1D04
  3
*A66
350
1D05
  3
*A67
350
87B
  3
*A68
350
1D06
  3
*A69
350
1D07
  3
*A7
350
881
  3
*A70
350
861
  3
*A71
350
132B
  3
*A72
350
869
  3
*A73
350
1330
  3
*A74
350
2021
  3
*A75
350
2022
  3
*A76
350
2023
  3
*A77
350
2024
  3
*A78
350
870
  3
*A79
350
2025
  3
*A8
350
877
  3
*A80
350
2026
  3
*A81
350
2027
  3
*A82
350
2028
  3
*A83
350
2029
  3
*A84
350
202A
  3
*A85
350
202B
  3
*A86
350
202C
  3
*A87
350
202D
  3
*A88
350
202E
  3
*A89
350
1334
  3
*A9
350
1338
  3
*A90
350
202F
  3
*A91
350
2295
  3
*A92
350
2296
  3
*A93
350
2297
  3
*A94
350
2298
  3
*A95
350
2299
  3
*A96
350
229A
  3
*A97
350
229B
  3
A0
350
5E
  3
A1
350
5F
  3
A2
350
60
  3
A3
350
61
  3
A4
350
62
  3
A5
350
63
  3
A6
350
64
  3
A7
350
65
  3
A8
350
66
  3
A9
350
67
  3
B0
350
68
  3
B1
350
69
  3
B2
350
6A
  3
B3
350
6B
  3
B4
350
6C
  3
B5
350
6D
  3
B6
350
6E
  3
B7
350
6F
  3
B8
350
70
  3
B9
350
71
  3
C0
350
72
  0
DICTIONARY
  5
55
102
{ACAD_REACTORS
330
B
102
}
330
B
100
AcDbDictionary
281
     1
  3
Standard
350
5A
  0
DICTIONARY
  5
15
102
{ACAD_REACTORS
330
B
102
}
330
B
100
AcDbDictionary
281
     1
  3
2dWireframe
350
14
  3
3D Hidden
350
7A0
  3
3dWireframe
350
5D
  3
Basic
350
79F
  3
Brighten
350
7A3
  3
ColorChange
350
7A7
  3
Conceptual
350
7A1
  3
Dim
350
7A2
  3
Facepattern
350
7A6
  3
Flat
350
79B
  3
FlatWithEdges
350
79C
  3
Gouraud
350
79D
  3
GouraudWithEdges
350
79E
  3
Linepattern
350
7A5
  3
Phong
350
7B1
  3
PhongWithEdges
350
7B2
  3
Realistic
350
5C
  3
Thicken
350
7A4
  0
XRECORD
  5
794
102
{ACAD_REACTORS
330
B
102
}
330
B
100
AcDbXrecord
280
     1
 90
        1
330
5A
  0
DICTIONARY
  5
795
102
{ACAD_REACTORS
330
B
102
}
330
B
100
AcDbDictionary
281
     1
  3
CANNOSCALE
350
798
  3
CMLEADERSTYLE
350
797
  3
CTABLESTYLE
350
796
  3
DIMASSOC
350
24ED
  3
HIDETEXT
350
24EC
  3
INDEXCTL
350
24EB
  3
LIGHTINGUNITS
350
799
  3
MSLTSCALE
350
24E9
  3
SORTENTS
350
24EA
  0
DICTIONARY
  5
952
102
{ACAD_REACTORS
330
B
102
}
330
B
100
AcDbDictionary
281
     1
  0
XRECORD
  5
24EF
102
{ACAD_REACTORS
330
B
102
}
330
B
100
AcDbXrecord
280
     1
  1
DWGPROPS COOKIE
  2

  3

  4

  6

  7

  8
beata.rzonca
  9

300
=
301
=
302
=
303
=
304
=
305
=
306
=
307
=
308
=
309
=
 40
21.75149097222222
 41
2450817.525937848
 42
2454980.585982164
  1

 90
        0
  0
DICTIONARY
  5
1F
102
{ACAD_REACTORS
330
1E
102
}
330
1E
100
AcDbDictionary
281
     1
  0
XRECORD
  5
8
102
{ACAD_REACTORS
330
7
102
}
330
7
100
AcDbXrecord
280
     1
290
     1
  0
XRECORD
  5
76
102
{ACAD_REACTORS
330
75
102
}
330
75
100
AcDbXrecord
280
     1
290
     1
  0
XRECORD
  5
58
102
{ACAD_REACTORS
330
57
102
}
330
57
100
AcDbXrecord
280
     1
290
     1
  0
XRECORD
  5
3A5
102
{ACAD_REACTORS
330
3A4
102
}
330
3A4
100
AcDbXrecord
280
     1
290
     1
  0
XRECORD
  5
80
102
{ACAD_REACTORS
330
7F
102
}
330
7F
100
AcDbXrecord
280
     1
290
     1
  0
SORTENTSTABLE
  5
790
102
{ACAD_REACTORS
330
3
102
}
330
3
100
AcDbSortentsTable
330
2
331
234A
  5
234D
331
2323
  5
2324
331
23FD
  5
2408
331
2372
  5
2375
331
2333
  5
2334
331
2343
  5
2346
331
234B
  5
234E
331
2324
  5
2333
331
2373
  5
2376
331
2334
  5
2335
331
237B
  5
237E
331
2344
  5
2347
331
234C
  5
2351
331
2374
  5
2377
331
2335
  5
2336
331
237C
  5
237F
331
233D
  5
2340
331
2345
  5
2348
331
241F
  5
231F
331
231E
  5
231E
331
236D
  5
2370
331
2375
  5
2378
331
2336
  5
2337
331
233E
  5
2341
331
2346
  5
2349
331
2317
  5
2317
331
231F
  5
2320
331
236E
  5
2371
331
2376
  5
2379
331
2337
  5
2338
331
233F
  5
2342
331
2347
  5
234A
331
2320
  5
2322
331
236F
  5
2372
331
2377
  5
237A
331
2338
  5
2339
331
2340
  5
2343
331
2348
  5
234B
331
2370
  5
2373
331
2378
  5
237B
331
2339
  5
233A
331
2341
  5
2344
331
2349
  5
234C
331
2322
  5
2323
331
23FC
  5
2400
331
2371
  5
2374
331
2379
  5
237D
331
233A
  5
233F
331
2342
  5
2345
  0
SORTENTSTABLE
  5
78F
102
{ACAD_REACTORS
330
30
102
}
330
30
100
AcDbSortentsTable
330
2F
  0
LAYOUT
  5
1943
102
{ACAD_XDICTIONARY
360
24F9
102
}
102
{ACAD_REACTORS
330
12
102
}
330
12
100
AcDbPlotSettings
  1

  2
CutePDF Writer
  4

  6

 40
0.0
 41
0.0
 42
0.0
 43
0.0
 44
0.0
 45
0.0
 46
0.0
 47
0.0
 48
0.0
 49
0.0
140
0.0
141
0.0
142
1.0
143
1.0
 70
   688
 72
     0
 73
     0
 74
     5
  7

 75
    16
147
1.0
148
0.0
149
0.0
100
AcDbLayout
  1
Layout1
 70
     1
 71
     1
 10
0.0
 20
0.0
 11
12.0
 21
9.0
 12
0.0
 22
0.0
 32
0.0
 14
0.0
 24
0.0
 34
0.0
 15
0.0
 25
0.0
 35
0.0
146
0.0
 13
0.0
 23
0.0
 33
0.0
 16
1.0
 26
0.0
 36
0.0
 17
0.0
 27
1.0
 37
0.0
 76
     0
330
1942
  0
LAYOUT
  5
11
102
{ACAD_XDICTIONARY
360
24F2
102
}
102
{ACAD_REACTORS
330
12
102
}
330
12
100
AcDbPlotSettings
  1

  2
RICOH Aficio AP610N PCL 5e
  4
A4
  6
10-ele
 40
6.805083274841308
 41
5.027085781097412
 42
6.974411010742187
 43
5.027069091796875
 44
209.9733276367187
 45
296.9259948730469
 46
-3.903083324432671
 47
3.235920000076276
 48
67057.75918130524
 49
-45526.33714755503
140
77257.75918130527
141
-31506.33714755504
142
1.0
143
50.0
 70
 11940
 72
     1
 73
     0
 74
     4
  7
monochrome_140.ctb
 75
     0
147
0.0192346895442289
148
-67057.75918130524
149
45526.33714755503
100
AcDbLayout
  1
Model
 70
     1
 71
     0
 10
0.0
 20
0.0
 11
12.0
 21
9.0
 12
0.0
 22
0.0
 32
0.0
 14
0.0
 24
0.0
 34
0.0
 15
0.0
 25
0.0
 35
0.0
146
0.0
 13
0.0
 23
0.0
 33
0.0
 16
1.0
 26
0.0
 36
0.0
 17
0.0
 27
1.0
 37
0.0
 76
     0
330
2
331
29
1001
ACAD_PSEXT
1000
RICOH Aficio AP610N PCL 5e
1000
RICOH Aficio AP610N PCL 5e
1000
IP_192.168.0.252_tech
1000

1070
     0
  0
MATERIAL
  5
52
102
{ACAD_XDICTIONARY
360
24F6
102
}
102
{ACAD_REACTORS
330
D
102
}
330
D
100
AcDbMaterial
  1
ByBlock
 73
     1
 78
     1
172
     1
176
     1
270
     1
274
     1
  0
MATERIAL
  5
51
102
{ACAD_XDICTIONARY
360
24F4
102
}
102
{ACAD_REACTORS
330
D
102
}
330
D
100
AcDbMaterial
  1
ByLayer
 73
     1
 78
     1
172
     1
176
     1
270
     1
274
     1
  0
MATERIAL
  5
C
102
{ACAD_XDICTIONARY
360
24F0
102
}
102
{ACAD_REACTORS
330
D
102
}
330
D
100
AcDbMaterial
  1
Global
 73
     1
 78
     1
172
     1
176
     1
270
     1
274
     1
  0
MLINESTYLE
  5
59
102
{ACAD_REACTORS
330
4F
102
}
330
4F
100
AcDbMlineStyle
  2
STANDARD
 70
     0
  3

 62
     0
 51
90.0
 52
90.0
 71
     2
 49
0.5
 62
   256
  6
BYLAYER
 49
-0.5
 62
   256
  6
BYLAYER
  0
ACDBPLACEHOLDER
  5
9
102
{ACAD_REACTORS
330
A
102
}
330
A
  0
SCALE
  5
85B
102
{ACAD_REACTORS
330
54
102
}
330
54
100
AcDbScale
 70
     0
300
1:1_2
140
1.0
141
1.0
290
     0
  0
SCALE
  5
87C
102
{ACAD_REACTORS
330
54
102
}
330
54
100
AcDbScale
 70
     0
300
1/2" = 1'-0"
140
0.5
141
12.0
290
     0
  0
SCALE
  5
87D
102
{ACAD_REACTORS
330
54
102
}
330
54
100
AcDbScale
 70
     0
300
3/4" = 1'-0"
140
0.75
141
12.0
290
     0
  0
SCALE
  5
1331
102
{ACAD_REACTORS
330
54
102
}
330
54
100
AcDbScale
 70
     0
300
1:2_3
140
1.0
141
0.2
290
     0
  0
SCALE
  5
865
102
{ACAD_REACTORS
330
54
102
}
330
54
100
AcDbScale
 70
     0
300
1:5_1
140
1.0
141
5.0
290
     0
  0
SCALE
  5
860
102
{ACAD_REACTORS
330
54
102
}
330
54
100
AcDbScale
 70
     0
300
1:50_2
140
1.0
141
50.0
290
     0
  0
SCALE
  5
862
102
{ACAD_REACTORS
330
54
102
}
330
54
100
AcDbScale
 70
     0
300
1:1_1
140
1.0
141
1.0
290
     0
  0
SCALE
  5
132D
102
{ACAD_REACTORS
330
54
102
}
330
54
100
AcDbScale
 70
     0
300
1:20_3
140
1.0
141
2.0
290
     0
  0
SCALE
  5
87E
102
{ACAD_REACTORS
330
54
102
}
330
54
100
AcDbScale
 70
     0
300
1" = 1'-0"
140
1.0
141
12.0
290
     0
  0
SCALE
  5
168F
102
{ACAD_REACTORS
330
54
102
}
330
54
100
AcDbScale
 70
     0
300
1:1_3_1
140
1.0
141
1.0
290
     0
  0
SCALE
  5
1690
102
{ACAD_REACTORS
330
54
102
}
330
54
100
AcDbScale
 70
     0
300
1:2_3_1
140
1.0
141
2.0
290
     0
  0
SCALE
  5
1335
102
{ACAD_REACTORS
330
54
102
}
330
54
100
AcDbScale
 70
     0
300
1:10_4
140
1.0
141
10.0
290
     0
  0
SCALE
  5
1691
102
{ACAD_REACTORS
330
54
102
}
330
54
100
AcDbScale
 70
     0
300
1:5_3_1
140
1.0
141
5.0
290
     0
  0
SCALE
  5
868
102
{ACAD_REACTORS
330
54
102
}
330
54
100
AcDbScale
 70
     0
300
1:16
140
1.0
141
16.0
290
     0
  0
SCALE
  5
86A
102
{ACAD_REACTORS
330
54
102
}
330
54
100
AcDbScale
 70
     0
300
1:30
140
1.0
141
30.0
290
     0
  0
SCALE
  5
1332
102
{ACAD_REACTORS
330
54
102
}
330
54
100
AcDbScale
 70
     0
300
1:1_4
140
1.0
141
1.0
290
     0
  0
SCALE
  5
1692
102
{ACAD_REACTORS
330
54
102
}
330
54
100
AcDbScale
 70
     0
300
1:10_3_1
140
1.0
141
10.0
290
     0
  0
SCALE
  5
1693
102
{ACAD_REACTORS
330
54
102
}
330
54
100
AcDbScale
 70
     0
300
1:20_3_1
140
1.0
141
20.0
290
     0
  0
SCALE
  5
85E
102
{ACAD_REACTORS
330
54
102
}
330
54
100
AcDbScale
 70
     0
300
1:10_2
140
1.0
141
10.0
290
     0
  0
SCALE
  5
1694
102
{ACAD_REACTORS
330
54
102
}
330
54
100
AcDbScale
 70
     0
300
1:50_3_1
140
1.0
141
50.0
290
     0
  0
SCALE
  5
86F
102
{ACAD_REACTORS
330
54
102
}
330
54
100
AcDbScale
 70
     0
300
4:1
140
4.0
141
1.0
290
     0
  0
SCALE
  5
871
102
{ACAD_REACTORS
330
54
102
}
330
54
100
AcDbScale
 70
     0
300
10:1
140
10.0
141
1.0
290
     0
  0
SCALE
  5
1336
102
{ACAD_REACTORS
330
54
102
}
330
54
100
AcDbScale
 70
     0
300
1:20_4
140
1.0
141
20.0
290
     0
  0
SCALE
  5
1695
102
{ACAD_REACTORS
330
54
102
}
330
54
100
AcDbScale
 70
     0
300
1:100_3_1
140
1.0
141
100.0
290
     0
  0
SCALE
  5
882
102
{ACAD_REACTORS
330
54
102
}
330
54
100
AcDbScale
 70
     0
300
1'-0" = 1'-0"
140
12.0
141
12.0
290
     0
  0
SCALE
  5
866
102
{ACAD_REACTORS
330
54
102
}
330
54
100
AcDbScale
 70
     0
300
1:8
140
1.0
141
8.0
290
     0
  0
SCALE
  5
86D
102
{ACAD_REACTORS
330
54
102
}
330
54
100
AcDbScale
 70
     0
300
1:100_1
140
1.0
141
100.0
290
     0
  0
SCALE
  5
876
102
{ACAD_REACTORS
330
54
102
}
330
54
100
AcDbScale
 70
     0
300
1/16" = 1'-0"
140
0.0625
141
12.0
290
     0
  0
SCALE
  5
85D
102
{ACAD_REACTORS
330
54
102
}
330
54
100
AcDbScale
 70
     0
300
1:5_2
140
1.0
141
5.0
290
     0
  0
SCALE
  5
85F
102
{ACAD_REACTORS
330
54
102
}
330
54
100
AcDbScale
 70
     0
300
1:20_2
140
1.0
141
20.0
290
     0
  0
SCALE
  5
863
102
{ACAD_REACTORS
330
54
102
}
330
54
100
AcDbScale
 70
     0
300
1:2_1
140
1.0
141
2.0
290
     0
  0
SCALE
  5
85C
102
{ACAD_REACTORS
330
54
102
}
330
54
100
AcDbScale
 70
     0
300
1:2_2
140
1.0
141
2.0
290
     0
  0
SCALE
  5
874
102
{ACAD_REACTORS
330
54
102
}
330
54
100
AcDbScale
 70
     0
300
1/64" = 1'-0"
140
0.015625
141
12.0
290
     0
  0
SCALE
  5
132C
102
{ACAD_REACTORS
330
54
102
}
330
54
100
AcDbScale
 70
     0
300
1:10_3
140
1.0
141
1.0
290
     0
  0
SCALE
  5
132E
102
{ACAD_REACTORS
330
54
102
}
330
54
100
AcDbScale
 70
     0
300
1:50_3
140
1.0
141
5.0
290
     0
  0
SCALE
  5
867
102
{ACAD_REACTORS
330
54
102
}
330
54
100
AcDbScale
 70
     0
300
1:10_1
140
1.0
141
10.0
290
     0
  0
SCALE
  5
1A1C
102
{ACAD_REACTORS
330
54
102
}
330
54
100
AcDbScale
 70
     0
300
1:1_5
140
1.0
141
1.0
290
     0
  0
SCALE
  5
864
102
{ACAD_REACTORS
330
54
102
}
330
54
100
AcDbScale
 70
     0
300
1:4
140
1.0
141
4.0
290
     0
  0
SCALE
  5
1A1D
102
{ACAD_REACTORS
330
54
102
}
330
54
100
AcDbScale
 70
     0
300
1:2_5
140
1.0
141
2.0
290
     0
  0
SCALE
  5
1333
102
{ACAD_REACTORS
330
54
102
}
330
54
100
AcDbScale
 70
     0
300
1:2_4
140
1.0
141
2.0
290
     0
  0
SCALE
  5
1A1E
102
{ACAD_REACTORS
330
54
102
}
330
54
100
AcDbScale
 70
     0
300
1:5_5
140
1.0
141
5.0
290
     0
  0
SCALE
  5
1A1F
102
{ACAD_REACTORS
330
54
102
}
330
54
100
AcDbScale
 70
     0
300
1:10_5
140
1.0
141
10.0
290
     0
  0
SCALE
  5
86C
102
{ACAD_REACTORS
330
54
102
}
330
54
100
AcDbScale
 70
     0
300
1:50_1
140
1.0
141
50.0
290
     0
  0
SCALE
  5
1A20
102
{ACAD_REACTORS
330
54
102
}
330
54
100
AcDbScale
 70
     0
300
1:20_5
140
1.0
141
20.0
290
     0
  0
SCALE
  5
1337
102
{ACAD_REACTORS
330
54
102
}
330
54
100
AcDbScale
 70
     0
300
1:50_4
140
1.0
141
50.0
290
     0
  0
SCALE
  5
1A21
102
{ACAD_REACTORS
330
54
102
}
330
54
100
AcDbScale
 70
     0
300
1:50_5
140
1.0
141
50.0
290
     0
  0
SCALE
  5
1A22
102
{ACAD_REACTORS
330
54
102
}
330
54
100
AcDbScale
 70
     0
300
1:100_5
140
1.0
141
100.0
290
     0
  0
SCALE
  5
873
102
{ACAD_REACTORS
330
54
102
}
330
54
100
AcDbScale
 70
     0
300
1/128" = 1'-0"
140
0.0078125
141
12.0
290
     0
  0
SCALE
  5
86B
102
{ACAD_REACTORS
330
54
102
}
330
54
100
AcDbScale
 70
     0
300
1:40
140
1.0
141
40.0
290
     0
  0
SCALE
  5
87A
102
{ACAD_REACTORS
330
54
102
}
330
54
100
AcDbScale
 70
     0
300
1/4" = 1'-0"
140
0.25
141
12.0
290
     0
  0
SCALE
  5
86E
102
{ACAD_REACTORS
330
54
102
}
330
54
100
AcDbScale
 70
     0
300
2:1
140
2.0
141
1.0
290
     0
  0
SCALE
  5
879
102
{ACAD_REACTORS
330
54
102
}
330
54
100
AcDbScale
 70
     0
300
3/16" = 1'-0"
140
0.1875
141
12.0
290
     0
  0
SCALE
  5
872
102
{ACAD_REACTORS
330
54
102
}
330
54
100
AcDbScale
 70
     0
300
100:1
140
100.0
141
1.0
290
     0
  0
SCALE
  5
880
102
{ACAD_REACTORS
330
54
102
}
330
54
100
AcDbScale
 70
     0
300
3" = 1'-0"
140
3.0
141
12.0
290
     0
  0
SCALE
  5
875
102
{ACAD_REACTORS
330
54
102
}
330
54
100
AcDbScale
 70
     0
300
1/32" = 1'-0"
140
0.03125
141
12.0
290
     0
  0
SCALE
  5
87F
102
{ACAD_REACTORS
330
54
102
}
330
54
100
AcDbScale
 70
     0
300
1-1/2" = 1'-0"
140
1.5
141
12.0
290
     0
  0
SCALE
  5
1D01
102
{ACAD_REACTORS
330
54
102
}
330
54
100
AcDbScale
 70
     0
300
1:1_6
140
1.0
141
1.0
290
     0
  0
SCALE
  5
878
102
{ACAD_REACTORS
330
54
102
}
330
54
100
AcDbScale
 70
     0
300
1/8" = 1'-0"
140
0.125
141
12.0
290
     0
  0
SCALE
  5
1D02
102
{ACAD_REACTORS
330
54
102
}
330
54
100
AcDbScale
 70
     0
300
1:2_6
140
1.0
141
2.0
290
     0
  0
SCALE
  5
1D03
102
{ACAD_REACTORS
330
54
102
}
330
54
100
AcDbScale
 70
     0
300
1:5_6
140
1.0
141
5.0
290
     0
  0
SCALE
  5
132F
102
{ACAD_REACTORS
330
54
102
}
330
54
100
AcDbScale
 70
     0
300
1:100_3
140
1.0
141
10.0
290
     0
  0
SCALE
  5
1D04
102
{ACAD_REACTORS
330
54
102
}
330
54
100
AcDbScale
 70
     0
300
1:10_6
140
1.0
141
10.0
290
     0
  0
SCALE
  5
1D05
102
{ACAD_REACTORS
330
54
102
}
330
54
100
AcDbScale
 70
     0
300
1:20_6
140
1.0
141
20.0
290
     0
  0
SCALE
  5
87B
102
{ACAD_REACTORS
330
54
102
}
330
54
100
AcDbScale
 70
     0
300
3/8" = 1'-0"
140
0.375
141
12.0
290
     0
  0
SCALE
  5
1D06
102
{ACAD_REACTORS
330
54
102
}
330
54
100
AcDbScale
 70
     0
300
1:50_6
140
1.0
141
50.0
290
     0
  0
SCALE
  5
1D07
102
{ACAD_REACTORS
330
54
102
}
330
54
100
AcDbScale
 70
     0
300
1:100_6
140
1.0
141
100.0
290
     0
  0
SCALE
  5
881
102
{ACAD_REACTORS
330
54
102
}
330
54
100
AcDbScale
 70
     0
300
6" = 1'-0"
140
6.0
141
12.0
290
     0
  0
SCALE
  5
861
102
{ACAD_REACTORS
330
54
102
}
330
54
100
AcDbScale
 70
     0
300
1:100_2
140
1.0
141
100.0
290
     0
  0
SCALE
  5
132B
102
{ACAD_REACTORS
330
54
102
}
330
54
100
AcDbScale
 70
     0
300
1:5_3
140
1.0
141
0.5
290
     0
  0
SCALE
  5
869
102
{ACAD_REACTORS
330
54
102
}
330
54
100
AcDbScale
 70
     0
300
1:20_1
140
1.0
141
20.0
290
     0
  0
SCALE
  5
1330
102
{ACAD_REACTORS
330
54
102
}
330
54
100
AcDbScale
 70
     0
300
1:1_3
140
1.0
141
0.1
290
     0
  0
SCALE
  5
2021
102
{ACAD_REACTORS
330
54
102
}
330
54
100
AcDbScale
 70
     0
300
1/64" = 1'-0"_XREF
140
0.015625
141
12.0
290
     0
1001
ACAD
1000
AcRTDxfName
1000
SCALE
  0
SCALE
  5
2022
102
{ACAD_REACTORS
330
54
102
}
330
54
100
AcDbScale
 70
     0
300
1 1/2" = 1'-0"_XREF
140
1.5
141
12.0
290
     0
1001
ACAD
1000
AcRTDxfName
1000
SCALE
  0
SCALE
  5
2023
102
{ACAD_REACTORS
330
54
102
}
330
54
100
AcDbScale
 70
     0
300
3" = 1'-0"_XREF
140
3.0
141
12.0
290
     0
1001
ACAD
1000
AcRTDxfName
1000
SCALE
  0
SCALE
  5
2024
102
{ACAD_REACTORS
330
54
102
}
330
54
100
AcDbScale
 70
     0
300
6" = 1'-0"_XREF
140
6.0
141
12.0
290
     0
1001
ACAD
1000
AcRTDxfName
1000
SCALE
  0
SCALE
  5
870
102
{ACAD_REACTORS
330
54
102
}
330
54
100
AcDbScale
 70
     0
300
8:1
140
8.0
141
1.0
290
     0
  0
SCALE
  5
2025
102
{ACAD_REACTORS
330
54
102
}
330
54
100
AcDbScale
 70
     0
300
1'-0" = 1'-0"_XREF
140
12.0
141
12.0
290
     0
1001
ACAD
1000
AcRTDxfName
1000
SCALE
  0
SCALE
  5
877
102
{ACAD_REACTORS
330
54
102
}
330
54
100
AcDbScale
 70
     0
300
3/32" = 1'-0"
140
0.09375
141
12.0
290
     0
  0
SCALE
  5
2026
102
{ACAD_REACTORS
330
54
102
}
330
54
100
AcDbScale
 70
     0
300
1/32" = 1'-0"_XREF
140
0.03125
141
12.0
290
     0
1001
ACAD
1000
AcRTDxfName
1000
SCALE
  0
SCALE
  5
2027
102
{ACAD_REACTORS
330
54
102
}
330
54
100
AcDbScale
 70
     0
300
1/16" = 1'-0"_XREF
140
0.0625
141
12.0
290
     0
1001
ACAD
1000
AcRTDxfName
1000
SCALE
  0
SCALE
  5
2028
102
{ACAD_REACTORS
330
54
102
}
330
54
100
AcDbScale
 70
     0
300
3/32" = 1'-0"_XREF
140
0.09375
141
12.0
290
     0
1001
ACAD
1000
AcRTDxfName
1000
SCALE
  0
SCALE
  5
2029
102
{ACAD_REACTORS
330
54
102
}
330
54
100
AcDbScale
 70
     0
300
1/8" = 1'-0"_XREF
140
0.125
141
12.0
290
     0
1001
ACAD
1000
AcRTDxfName
1000
SCALE
  0
SCALE
  5
202A
102
{ACAD_REACTORS
330
54
102
}
330
54
100
AcDbScale
 70
     0
300
3/16" = 1'-0"_XREF
140
0.1875
141
12.0
290
     0
1001
ACAD
1000
AcRTDxfName
1000
SCALE
  0
SCALE
  5
202B
102
{ACAD_REACTORS
330
54
102
}
330
54
100
AcDbScale
 70
     0
300
1/4" = 1'-0"_XREF
140
0.25
141
12.0
290
     0
1001
ACAD
1000
AcRTDxfName
1000
SCALE
  0
SCALE
  5
202C
102
{ACAD_REACTORS
330
54
102
}
330
54
100
AcDbScale
 70
     0
300
3/8" = 1'-0"_XREF
140
0.375
141
12.0
290
     0
1001
ACAD
1000
AcRTDxfName
1000
SCALE
  0
SCALE
  5
202D
102
{ACAD_REACTORS
330
54
102
}
330
54
100
AcDbScale
 70
     0
300
1/2" = 1'-0"_XREF
140
0.5
141
12.0
290
     0
1001
ACAD
1000
AcRTDxfName
1000
SCALE
  0
SCALE
  5
202E
102
{ACAD_REACTORS
330
54
102
}
330
54
100
AcDbScale
 70
     0
300
3/4" = 1'-0"_XREF
140
0.75
141
12.0
290
     0
1001
ACAD
1000
AcRTDxfName
1000
SCALE
  0
SCALE
  5
1334
102
{ACAD_REACTORS
330
54
102
}
330
54
100
AcDbScale
 70
     0
300
1:5_4
140
1.0
141
5.0
290
     0
  0
SCALE
  5
1338
102
{ACAD_REACTORS
330
54
102
}
330
54
100
AcDbScale
 70
     0
300
1:100_4
140
1.0
141
100.0
290
     0
  0
SCALE
  5
202F
102
{ACAD_REACTORS
330
54
102
}
330
54
100
AcDbScale
 70
     0
300
1" = 1'-0"_XREF
140
1.0
141
12.0
290
     0
1001
ACAD
1000
AcRTDxfName
1000
SCALE
  0
SCALE
  5
2295
102
{ACAD_REACTORS
330
54
102
}
330
54
100
AcDbScale
 70
     0
300
1:1_7
140
1.0
141
1.0
290
     0
  0
SCALE
  5
2296
102
{ACAD_REACTORS
330
54
102
}
330
54
100
AcDbScale
 70
     0
300
1:2_7
140
1.0
141
2.0
290
     0
  0
SCALE
  5
2297
102
{ACAD_REACTORS
330
54
102
}
330
54
100
AcDbScale
 70
     0
300
1:5_7
140
1.0
141
5.0
290
     0
  0
SCALE
  5
2298
102
{ACAD_REACTORS
330
54
102
}
330
54
100
AcDbScale
 70
     0
300
1:10_7
140
1.0
141
10.0
290
     0
  0
SCALE
  5
2299
102
{ACAD_REACTORS
330
54
102
}
330
54
100
AcDbScale
 70
     0
300
1:20_7
140
1.0
141
20.0
290
     0
  0
SCALE
  5
229A
102
{ACAD_REACTORS
330
54
102
}
330
54
100
AcDbScale
 70
     0
300
1:50_7
140
1.0
141
50.0
290
     0
  0
SCALE
  5
229B
102
{ACAD_REACTORS
330
54
102
}
330
54
100
AcDbScale
 70
     0
300
1:100_7
140
1.0
141
100.0
290
     0
  0
SCALE
  5
5E
102
{ACAD_REACTORS
330
54
102
}
330
54
100
AcDbScale
 70
     0
300
1:1
140
1.0
141
0.1
290
     0
  0
SCALE
  5
5F
102
{ACAD_REACTORS
330
54
102
}
330
54
100
AcDbScale
 70
     0
300
1:2
140
1.0
141
0.2
290
     0
  0
SCALE
  5
60
102
{ACAD_REACTORS
330
54
102
}
330
54
100
AcDbScale
 70
     0
300
1:2.5
140
1.0
141
0.25
290
     0
  0
SCALE
  5
61
102
{ACAD_REACTORS
330
54
102
}
330
54
100
AcDbScale
 70
     0
300
1:5
140
1.0
141
0.5
290
     0
  0
SCALE
  5
62
102
{ACAD_REACTORS
330
54
102
}
330
54
100
AcDbScale
 70
     0
300
1:7.5
140
1.0
141
0.75
290
     0
  0
SCALE
  5
63
102
{ACAD_REACTORS
330
54
102
}
330
54
100
AcDbScale
 70
     0
300
1:10
140
1.0
141
1.0
290
     1
  0
SCALE
  5
64
102
{ACAD_REACTORS
330
54
102
}
330
54
100
AcDbScale
 70
     0
300
1:20
140
1.0
141
2.0
290
     0
  0
SCALE
  5
65
102
{ACAD_REACTORS
330
54
102
}
330
54
100
AcDbScale
 70
     0
300
1:25
140
1.0
141
2.5
290
     0
  0
SCALE
  5
66
102
{ACAD_REACTORS
330
54
102
}
330
54
100
AcDbScale
 70
     0
300
1:50
140
1.0
141
5.0
290
     0
  0
SCALE
  5
67
102
{ACAD_REACTORS
330
54
102
}
330
54
100
AcDbScale
 70
     0
300
1:75
140
1.0
141
7.5
290
     0
  0
SCALE
  5
68
102
{ACAD_REACTORS
330
54
102
}
330
54
100
AcDbScale
 70
     0
300
1:100
140
1.0
141
10.0
290
     0
  0
SCALE
  5
69
102
{ACAD_REACTORS
330
54
102
}
330
54
100
AcDbScale
 70
     0
300
1:150
140
1.0
141
15.0
290
     0
  0
SCALE
  5
6A
102
{ACAD_REACTORS
330
54
102
}
330
54
100
AcDbScale
 70
     0
300
1:200
140
1.0
141
20.0
290
     0
  0
SCALE
  5
6B
102
{ACAD_REACTORS
330
54
102
}
330
54
100
AcDbScale
 70
     0
300
1:250
140
1.0
141
25.0
290
     0
  0
SCALE
  5
6C
102
{ACAD_REACTORS
330
54
102
}
330
54
100
AcDbScale
 70
     0
300
1:500
140
1.0
141
50.0
290
     0
  0
SCALE
  5
6D
102
{ACAD_REACTORS
330
54
102
}
330
54
100
AcDbScale
 70
     0
300
1:750
140
1.0
141
75.0
290
     0
  0
SCALE
  5
6E
102
{ACAD_REACTORS
330
54
102
}
330
54
100
AcDbScale
 70
     0
300
1:1000
140
1.0
141
100.0
290
     0
  0
SCALE
  5
6F
102
{ACAD_REACTORS
330
54
102
}
330
54
100
AcDbScale
 70
     0
300
1:1250
140
1.0
141
125.0
290
     0
  0
SCALE
  5
70
102
{ACAD_REACTORS
330
54
102
}
330
54
100
AcDbScale
 70
     0
300
1:2000
140
1.0
141
200.0
290
     0
  0
SCALE
  5
71
102
{ACAD_REACTORS
330
54
102
}
330
54
100
AcDbScale
 70
     0
300
1:2500
140
1.0
141
250.0
290
     0
  0
SCALE
  5
72
102
{ACAD_REACTORS
330
54
102
}
330
54
100
AcDbScale
 70
     0
300
1:5000
140
1.0
141
500.0
290
     0
  0
TABLESTYLE
  5
5A
102
{ACAD_XDICTIONARY
360
5B
102
}
102
{ACAD_REACTORS
330
55
102
}
330
55
100
AcDbTableStyle
  3
Standard
 70
     0
 71
     0
 40
0.06
 41
0.06
280
     0
281
     0
  7
STANDARD
140
0.18
170
     2
 62
     0
 63
     7
283
     0
274
    -2
284
     1
 64
     0
275
    -2
285
     1
 65
     0
276
    -2
286
     1
 66
     0
277
    -2
287
     1
 67
     0
278
    -2
288
     1
 68
     0
279
    -2
289
     1
 69
     0
  7
STANDARD
140
0.25
170
     5
 62
     0
 63
     7
283
     0
274
    -2
284
     1
 64
     0
275
    -2
285
     1
 65
     0
276
    -2
286
     1
 66
     0
277
    -2
287
     1
 67
     0
278
    -2
288
     1
 68
     0
279
    -2
289
     1
 69
     0
  7
STANDARD
140
0.18
170
     5
 62
     0
 63
     7
283
     0
274
    -2
284
     1
 64
     0
275
    -2
285
     1
 65
     0
276
    -2
286
     1
 66
     0
277
    -2
287
     1
 67
     0
278
    -2
288
     1
 68
     0
279
    -2
289
     1
 69
     0
  0
VISUALSTYLE
  5
14
102
{ACAD_REACTORS
330
15
102
}
330
15
100
AcDbVisualStyle
  2
2dWireframe
 70
     4
 71
     0
 72
     2
 73
     0
 90
        0
 40
-0.6
 41
-30.0
 62
     5
 63
     7
 74
     1
 91
        4
 64
     7
 65
   257
 75
     1
175
     1
 42
1.0
 92
        0
 66
   257
 43
1.0
 76
     1
 77
     6
 78
     2
 67
     7
 79
     5
170
     0
171
     0
290
     0
174
     0
 93
        1
 44
0.0
173
     0
291
     0
 45
0.0
1001
ACAD
1000
AcDbSavedByObjectVersion
1070
     0
  0
VISUALSTYLE
  5
7A0
102
{ACAD_REACTORS
330
15
102
}
330
15
100
AcDbVisualStyle
  2
3D Hidden
 70
     6
 71
     1
 72
     2
 73
     2
 90
        0
 40
-0.6
 41
-30.0
 62
     5
 63
     7
 74
     2
 91
        2
 64
     7
 65
   257
 75
     2
175
     1
 42
40.0
 92
        0
 66
   257
 43
1.0
 76
     1
 77
     6
 78
     2
 67
     7
 79
     3
170
     0
171
     0
290
     0
174
     0
 93
        1
 44
0.0
173
     0
291
     0
 45
0.0
1001
ACAD
1000
AcDbSavedByObjectVersion
1070
     0
  0
VISUALSTYLE
  5
5D
102
{ACAD_REACTORS
330
15
102
}
330
15
100
AcDbVisualStyle
  2
3dWireframe
 70
     5
 71
     0
 72
     2
 73
     0
 90
        0
 40
-0.6
 41
-30.0
 62
     5
 63
     7
 74
     1
 91
        4
 64
     7
 65
   257
 75
     1
175
     1
 42
1.0
 92
        0
 66
   257
 43
1.0
 76
     1
 77
     6
 78
     2
 67
     7
 79
     5
170
     0
171
     0
290
     0
174
     0
 93
        1
 44
0.0
173
     0
291
     0
 45
0.0
1001
ACAD
1000
AcDbSavedByObjectVersion
1070
     0
  0
VISUALSTYLE
  5
79F
102
{ACAD_REACTORS
330
15
102
}
330
15
100
AcDbVisualStyle
  2
Basic
 70
     7
 71
     1
 72
     0
 73
     1
 90
        0
 40
-0.6
 41
-30.0
 62
     5
 63
     7
 74
     0
 91
        4
 64
     7
 65
   257
 75
     1
175
     1
 42
1.0
 92
        8
 66
     7
 43
1.0
 76
     1
 77
     6
 78
     2
 67
     7
 79
     5
170
     0
171
     0
290
     0
174
     0
 93
        1
 44
0.0
173
     0
291
     1
 45
0.0
1001
ACAD
1000
AcDbSavedByObjectVersion
1070
     0
  0
VISUALSTYLE
  5
7A3
102
{ACAD_REACTORS
330
15
102
}
330
15
100
AcDbVisualStyle
  2
Brighten
 70
    12
 71
     2
 72
     2
 73
     0
 90
        0
 40
-0.6
 41
-30.0
 62
     5
 63
     7
 74
     1
 91
        4
 64
     7
 65
   257
 75
     1
175
     1
 42
1.0
 92
        8
 66
     7
 43
1.0
 76
     1
 77
     6
 78
     2
 67
     7
 79
     5
170
     0
171
     0
290
     0
174
     0
 93
        1
 44
50.0
173
     0
291
     1
 45
0.0
1001
ACAD
1000
AcDbSavedByObjectVersion
1070
     0
  0
VISUALSTYLE
  5
7A7
102
{ACAD_REACTORS
330
15
102
}
330
15
100
AcDbVisualStyle
  2
ColorChange
 70
    16
 71
     2
 72
     2
 73
     3
 90
        0
 40
-0.6
 41
-30.0
 62
     5
 63
     8
 74
     1
 91
        4
 64
     7
 65
   257
 75
     1
175
     1
 42
1.0
 92
        8
 66
     8
 43
1.0
 76
     1
 77
     6
 78
     2
 67
     7
 79
     5
170
     0
171
     0
290
     0
174
     0
 93
        1
 44
0.0
173
     0
291
     1
 45
0.0
1001
ACAD
1000
AcDbSavedByObjectVersion
1070
     0
  0
VISUALSTYLE
  5
7A1
102
{ACAD_REACTORS
330
15
102
}
330
15
100
AcDbVisualStyle
  2
Conceptual
 70
     9
 71
     3
 72
     2
 73
     0
 90
        0
 40
-0.6
 41
-30.0
 62
     5
 63
     7
 74
     2
 91
        2
 64
     7
 65
   257
 75
     1
175
     1
 42
40.0
 92
        8
 66
     7
 43
1.0
 76
     1
 77
     6
 78
     2
 67
     7
 79
     3
170
     0
171
     0
290
     0
174
     0
 93
        1
 44
0.0
173
     0
291
     0
 45
0.0
1001
ACAD
1000
AcDbSavedByObjectVersion
1070
     0
  0
VISUALSTYLE
  5
7A2
102
{ACAD_REACTORS
330
15
102
}
330
15
100
AcDbVisualStyle
  2
Dim
 70
    11
 71
     2
 72
     2
 73
     0
 90
        0
 40
-0.6
 41
-30.0
 62
     5
 63
     7
 74
     1
 91
        4
 64
     7
 65
   257
 75
     1
175
     1
 42
1.0
 92
        8
 66
     7
 43
1.0
 76
     1
 77
     6
 78
     2
 67
     7
 79
     5
170
     0
171
     0
290
     0
174
     0
 93
        1
 44
-50.0
173
     0
291
     1
 45
0.0
1001
ACAD
1000
AcDbSavedByObjectVersion
1070
     0
  0
VISUALSTYLE
  5
7A6
102
{ACAD_REACTORS
330
15
102
}
330
15
100
AcDbVisualStyle
  2
Facepattern
 70
    15
 71
     2
 72
     2
 73
     0
 90
        0
 40
-0.6
 41
-30.0
 62
     5
 63
     7
 74
     1
 91
        4
 64
     7
 65
   257
 75
     1
175
     1
 42
1.0
 92
        8
 66
     7
 43
1.0
 76
     1
 77
     6
 78
     2
 67
     7
 79
     5
170
     0
171
     0
290
     0
174
     0
 93
        1
 44
0.0
173
     0
291
     1
 45
0.0
1001
ACAD
1000
AcDbSavedByObjectVersion
1070
     0
  0
VISUALSTYLE
  5
79B
102
{ACAD_REACTORS
330
15
102
}
330
15
100
AcDbVisualStyle
  2
Flat
 70
     0
 71
     2
 72
     1
 73
     1
 90
        2
 40
-0.6
 41
30.0
 62
     5
 63
     7
 74
     0
 91
        4
 64
     7
 65
   257
 75
     1
175
     1
 42
1.0
 92
        8
 66
     7
 43
1.0
 76
     1
 77
     6
 78
     2
 67
     7
 79
     5
170
     0
171
     0
290
     0
174
     0
 93
       13
 44
0.0
173
     0
291
     0
 45
0.0
1001
ACAD
1000
AcDbSavedByObjectVersion
1070
     0
  0
VISUALSTYLE
  5
79C
102
{ACAD_REACTORS
330
15
102
}
330
15
100
AcDbVisualStyle
  2
FlatWithEdges
 70
     1
 71
     2
 72
     1
 73
     1
 90
        2
 40
-0.6
 41
30.0
 62
     5
 63
     7
 74
     1
 91
        4
 64
     7
 65
   257
 75
     1
175
     1
 42
1.0
 92
        0
 66
   257
 43
1.0
 76
     1
 77
     6
 78
     2
 67
     7
 79
     5
170
     0
171
     0
290
     0
174
     0
 93
       13
 44
0.0
173
     0
291
     0
 45
0.0
1001
ACAD
1000
AcDbSavedByObjectVersion
1070
     0
  0
VISUALSTYLE
  5
79D
102
{ACAD_REACTORS
330
15
102
}
330
15
100
AcDbVisualStyle
  2
Gouraud
 70
     2
 71
     2
 72
     2
 73
     1
 90
        2
 40
-0.6
 41
30.0
 62
     5
 63
     7
 74
     0
 91
        4
 64
     7
 65
   257
 75
     1
175
     1
 42
1.0
 92
        0
 66
     7
 43
1.0
 76
     1
 77
     6
 78
     2
 67
     7
 79
     5
170
     0
171
     0
290
     0
174
     0
 93
       13
 44
0.0
173
     0
291
     0
 45
0.0
1001
ACAD
1000
AcDbSavedByObjectVersion
1070
     0
  0
VISUALSTYLE
  5
79E
102
{ACAD_REACTORS
330
15
102
}
330
15
100
AcDbVisualStyle
  2
GouraudWithEdges
 70
     3
 71
     2
 72
     2
 73
     1
 90
        2
 40
-0.6
 41
30.0
 62
     5
 63
     7
 74
     1
 91
        4
 64
     7
 65
   257
 75
     1
175
     1
 42
1.0
 92
        0
 66
   257
 43
1.0
 76
     1
 77
     6
 78
     2
 67
     7
 79
     5
170
     0
171
     0
290
     0
174
     0
 93
       13
 44
0.0
173
     0
291
     0
 45
0.0
1001
ACAD
1000
AcDbSavedByObjectVersion
1070
     0
  0
VISUALSTYLE
  5
7A5
102
{ACAD_REACTORS
330
15
102
}
330
15
100
AcDbVisualStyle
  2
Linepattern
 70
    14
 71
     2
 72
     2
 73
     0
 90
        0
 40
-0.6
 41
-30.0
 62
     5
 63
     7
 74
     1
 91
        4
 64
     7
 65
   257
 75
     7
175
     7
 42
1.0
 92
        8
 66
     7
 43
1.0
 76
     1
 77
     6
 78
     2
 67
     7
 79
     5
170
     0
171
     0
290
     0
174
     0
 93
        1
 44
0.0
173
     0
291
     1
 45
0.0
1001
ACAD
1000
AcDbSavedByObjectVersion
1070
     0
  0
VISUALSTYLE
  5
7B1
102
{ACAD_REACTORS
330
15
102
}
330
15
100
AcDbVisualStyle
  2

 70
     8
 71
     2
 72
     2
 73
     0
 90
        0
 40
-0.6
 41
-30.0
 62
     5
 63
     7
 74
     0
 91
        0
 64
     7
 65
   257
 75
     1
175
     1
 42
1.0
 92
        8
 66
     8
 43
1.0
 76
     1
 77
     6
 78
     2
 67
     7
 79
     5
170
     0
171
     0
290
     0
174
     0
 93
       13
 44
0.0
173
     0
291
     0
 45
0.0
1001
ACAD
1000
AcDbSavedByObjectVersion
1070
     0
  0
VISUALSTYLE
  5
7B2
102
{ACAD_REACTORS
330
15
102
}
330
15
100
AcDbVisualStyle
  2

 70
     8
 71
     2
 72
     2
 73
     0
 90
        0
 40
-0.6
 41
-30.0
 62
     5
 63
     7
 74
     1
 91
        0
 64
     7
 65
   257
 75
     1
175
     1
 42
1.0
 92
        8
 66
     8
 43
1.0
 76
     1
 77
     6
 78
     2
 67
     7
 79
     5
170
     0
171
     0
290
     0
174
     0
 93
       13
 44
0.0
173
     0
291
     0
 45
0.0
1001
ACAD
1000
AcDbSavedByObjectVersion
1070
     0
  0
VISUALSTYLE
  5
5C
102
{ACAD_REACTORS
330
15
102
}
330
15
100
AcDbVisualStyle
  2
Realistic
 70
     8
 71
     2
 72
     2
 73
     0
 90
        0
 40
-0.6
 41
-30.0
 62
     5
 63
     7
 74
     1
 91
        0
 64
     7
 65
   257
 75
     1
175
     1
 42
1.0
 92
        8
 66
     8
 43
1.0
 76
     1
 77
     6
 78
     2
 67
     7
 79
     5
170
     0
171
     0
290
     0
174
     0
 93
       13
 44
0.0
173
     0
291
     0
 45
0.0
1001
ACAD
1000
AcDbSavedByObjectVersion
1070
     0
  0
VISUALSTYLE
  5
7A4
102
{ACAD_REACTORS
330
15
102
}
330
15
100
AcDbVisualStyle
  2
Thicken
 70
    13
 71
     2
 72
     2
 73
     0
 90
        0
 40
-0.6
 41
-30.0
 62
     5
 63
     7
 74
     1
 91
        4
 64
     7
 65
   257
 75
     1
175
     1
 42
1.0
 92
       12
 66
     7
 43
1.0
 76
     1
 77
     6
 78
     2
 67
     7
 79
     5
170
     0
171
     0
290
     0
174
     0
 93
        1
 44
0.0
173
     0
291
     1
 45
0.0
1001
ACAD
1000
AcDbSavedByObjectVersion
1070
     0
  0
DICTIONARYVAR
  5
798
102
{ACAD_REACTORS
330
795
102
}
330
795
100
DictionaryVariables
280
     0
  1
1:1
  0
DICTIONARYVAR
  5
797
102
{ACAD_REACTORS
330
795
102
}
330
795
100
DictionaryVariables
280
     0
  1
STANDARD
  0
DICTIONARYVAR
  5
796
102
{ACAD_REACTORS
330
795
102
}
330
795
100
DictionaryVariables
280
     0
  1
STANDARD
  0
DICTIONARYVAR
  5
24ED
102
{ACAD_REACTORS
330
795
102
}
330
795
100
DictionaryVariables
280
     0
  1
1
  0
DICTIONARYVAR
  5
24EC
102
{ACAD_REACTORS
330
795
102
}
330
795
100
DictionaryVariables
280
     0
  1
1
  0
DICTIONARYVAR
  5
24EB
102
{ACAD_REACTORS
330
795
102
}
330
795
100
DictionaryVariables
280
     0
  1
0
  0
DICTIONARYVAR
  5
799
102
{ACAD_REACTORS
330
795
102
}
330
795
100
DictionaryVariables
280
     0
  1
0
  0
DICTIONARYVAR
  5
24E9
102
{ACAD_REACTORS
330
795
102
}
330
795
100
DictionaryVariables
280
     0
  1
1
  0
DICTIONARYVAR
  5
24EA
102
{ACAD_REACTORS
330
795
102
}
330
795
100
DictionaryVariables
280
     0
  1
127
  0
DICTIONARY
  5
24F9
330
1943
100
AcDbDictionary
280
     1
281
     1
  3
ACAD_XREC_ROUNDTRIP
360
24FA
  0
DICTIONARY
  5
24F2
330
11
100
AcDbDictionary
280
     1
281
     1
  3
ACAD_XREC_ROUNDTRIP
360
24F3
  0
DICTIONARY
  5
24F6
330
52
100
AcDbDictionary
280
     1
281
     1
  3
ACAD_XREC_ROUNDTRIP
360
24F7
  0
DICTIONARY
  5
24F4
330
51
100
AcDbDictionary
280
     1
281
     1
  3
ACAD_XREC_ROUNDTRIP
360
24F5
  0
DICTIONARY
  5
24F0
330
C
100
AcDbDictionary
280
     1
281
     1
  3
ACAD_XREC_ROUNDTRIP
360
24F1
  0
DICTIONARY
  5
5B
330
5A
100
AcDbDictionary
280
     1
281
     1
  3
ACAD_ROUNDTRIP_2008_TABLESTYLE_CELLSTYLEMAP
360
24EE
  3
ACAD_XREC_ROUNDTRIP
360
24F8
  0
XRECORD
  5
24FA
102
{ACAD_REACTORS
330
24F9
102
}
330
24F9
100
AcDbXrecord
280
     1
102
SHADEPLOT
 70
     0
102
SHADEPLOTRESLEVEL
 70
     2
102
SHADEPLOTCUSTOMDPI
 70
   300
  0
XRECORD
  5
24F3
102
{ACAD_REACTORS
330
24F2
102
}
330
24F2
100
AcDbXrecord
280
     1
102
SHADEPLOT
 70
     1
102
SHADEPLOTRESLEVEL
 70
     2
102
SHADEPLOTCUSTOMDPI
 70
   300
  0
XRECORD
  5
24F7
102
{ACAD_REACTORS
330
24F6
102
}
330
24F6
100
AcDbXrecord
280
     1
102
MATERIAL
148
0.0
149
0.0
149
0.0
 93
        0
 94
       63
282
     0
 72
     1
 77
     1
171
     1
175
     1
179
     1
273
     0
  0
XRECORD
  5
24F5
102
{ACAD_REACTORS
330
24F4
102
}
330
24F4
100
AcDbXrecord
280
     1
102
MATERIAL
148
0.0
149
0.0
149
0.0
 93
        0
 94
       63
282
     0
 72
     1
 77
     1
171
     1
175
     1
179
     1
273
     0
  0
XRECORD
  5
24F1
102
{ACAD_REACTORS
330
24F0
102
}
330
24F0
100
AcDbXrecord
280
     1
102
MATERIAL
148
0.0
149
0.0
149
0.0
 93
        0
 94
       63
282
     0
 72
     1
 77
     1
171
     1
175
     1
179
     1
273
     0
  0
CELLSTYLEMAP
  5
24EE
102
{ACAD_REACTORS
330
5B
102
}
330
5B
100
AcDbCellStyleMap
 90
        3
300
CELLSTYLE
  1
TABLEFORMAT_BEGIN
 90
        5
170
     1
 91
        0
 92
    32768
 62
   257
 93
        1
300
CONTENTFORMAT
  1
CONTENTFORMAT_BEGIN
 90
        0
 91
        0
 92
        4
 93
        0
300

 40
0.0
140
1.0
 94
        5
 62
     0
340
21
144
0.25
309
CONTENTFORMAT_END
171
     0
 94
        6
 95
        1
302
GRIDFORMAT
  1
GRIDFORMAT_BEGIN
 90
        0
 91
        1
 62
     0
 92
       -2
340
0
 93
        0
 40
0.045
309
GRIDFORMAT_END
 95
        2
302
GRIDFORMAT
  1
GRIDFORMAT_BEGIN
 90
        0
 91
        1
 62
     0
 92
       -2
340
0
 93
        0
 40
0.045
309
GRIDFORMAT_END
 95
        4
302
GRIDFORMAT
  1
GRIDFORMAT_BEGIN
 90
        0
 91
        1
 62
     0
 92
       -2
340
0
 93
        0
 40
0.045
309
GRIDFORMAT_END
 95
        8
302
GRIDFORMAT
  1
GRIDFORMAT_BEGIN
 90
        0
 91
        1
 62
     0
 92
       -2
340
0
 93
        0
 40
0.045
309
GRIDFORMAT_END
 95
       16
302
GRIDFORMAT
  1
GRIDFORMAT_BEGIN
 90
        0
 91
        1
 62
     0
 92
       -2
340
0
 93
        0
 40
0.045
309
GRIDFORMAT_END
 95
       32
302
GRIDFORMAT
  1
GRIDFORMAT_BEGIN
 90
        0
 91
        1
 62
     0
 92
       -2
340
0
 93
        0
 40
0.045
309
GRIDFORMAT_END
309
TABLEFORMAT_END
  1
CELLSTYLE_BEGIN
 90
        1
 91
        1
300
_TITLE
309
CELLSTYLE_END
300
CELLSTYLE
  1
TABLEFORMAT_BEGIN
 90
        5
170
     1
 91
        0
 92
        0
 62
   257
 93
        1
300
CONTENTFORMAT
  1
CONTENTFORMAT_BEGIN
 90
        0
 91
        0
 92
        4
 93
        0
300

 40
0.0
140
1.0
 94
        5
 62
     0
340
21
144
0.18
309
CONTENTFORMAT_END
171
     0
 94
        6
 95
        1
302
GRIDFORMAT
  1
GRIDFORMAT_BEGIN
 90
        0
 91
        1
 62
     0
 92
       -2
340
0
 93
        0
 40
0.045
309
GRIDFORMAT_END
 95
        2
302
GRIDFORMAT
  1
GRIDFORMAT_BEGIN
 90
        0
 91
        1
 62
     0
 92
       -2
340
0
 93
        0
 40
0.045
309
GRIDFORMAT_END
 95
        4
302
GRIDFORMAT
  1
GRIDFORMAT_BEGIN
 90
        0
 91
        1
 62
     0
 92
       -2
340
0
 93
        0
 40
0.045
309
GRIDFORMAT_END
 95
        8
302
GRIDFORMAT
  1
GRIDFORMAT_BEGIN
 90
        0
 91
        1
 62
     0
 92
       -2
340
0
 93
        0
 40
0.045
309
GRIDFORMAT_END
 95
       16
302
GRIDFORMAT
  1
GRIDFORMAT_BEGIN
 90
        0
 91
        1
 62
     0
 92
       -2
340
0
 93
        0
 40
0.045
309
GRIDFORMAT_END
 95
       32
302
GRIDFORMAT
  1
GRIDFORMAT_BEGIN
 90
        0
 91
        1
 62
     0
 92
       -2
340
0
 93
        0
 40
0.045
309
GRIDFORMAT_END
309
TABLEFORMAT_END
  1
CELLSTYLE_BEGIN
 90
        2
 91
        1
300
_HEADER
309
CELLSTYLE_END
300
CELLSTYLE
  1
TABLEFORMAT_BEGIN
 90
        5
170
     1
 91
        0
 92
        0
 62
   257
 93
        1
300
CONTENTFORMAT
  1
CONTENTFORMAT_BEGIN
 90
        0
 91
        0
 92
        4
 93
        0
300

 40
0.0
140
1.0
 94
        2
 62
     0
340
21
144
0.18
309
CONTENTFORMAT_END
171
     0
 94
        6
 95
        1
302
GRIDFORMAT
  1
GRIDFORMAT_BEGIN
 90
        0
 91
        1
 62
     0
 92
       -2
340
0
 93
        0
 40
0.045
309
GRIDFORMAT_END
 95
        2
302
GRIDFORMAT
  1
GRIDFORMAT_BEGIN
 90
        0
 91
        1
 62
     0
 92
       -2
340
0
 93
        0
 40
0.045
309
GRIDFORMAT_END
 95
        4
302
GRIDFORMAT
  1
GRIDFORMAT_BEGIN
 90
        0
 91
        1
 62
     0
 92
       -2
340
0
 93
        0
 40
0.045
309
GRIDFORMAT_END
 95
        8
302
GRIDFORMAT
  1
GRIDFORMAT_BEGIN
 90
        0
 91
        1
 62
     0
 92
       -2
340
0
 93
        0
 40
0.045
309
GRIDFORMAT_END
 95
       16
302
GRIDFORMAT
  1
GRIDFORMAT_BEGIN
 90
        0
 91
        1
 62
     0
 92
       -2
340
0
 93
        0
 40
0.045
309
GRIDFORMAT_END
 95
       32
302
GRIDFORMAT
  1
GRIDFORMAT_BEGIN
 90
        0
 91
        1
 62
     0
 92
       -2
340
0
 93
        0
 40
0.045
309
GRIDFORMAT_END
309
TABLEFORMAT_END
  1
CELLSTYLE_BEGIN
 90
        3
 91
        2
300
_DATA
309
CELLSTYLE_END
  0
XRECORD
  5
24F8
102
{ACAD_REACTORS
330
5B
102
}
330
5B
100
AcDbXrecord
280
     1
102
ACAD_ROUNDTRIP_PRE2007_TABLESTYLE
 90
        4
 91
        0
  1

 92
        4
 93
        0
  2

 94
        4
 95
        0
  3

  0
ENDSEC
  0
EOF
