  0
SECTION
  2
HEADER
  9
$ACADVER
  1
AC1015
  9
$ACADMAINTVER
 70
    20
  9
$DWGCODEPAGE
  3
ANSI_1250
  9
$INSBASE
 10
9677.351579171606
 20
1189.596440029025
 30
0.0000000000031697
  9
$EXTMIN
 10
67093.47064899921
 20
-12697.88942227891
 30
0.0
  9
$EXTMAX
 10
77293.47064899924
 20
1322.110577721089
 30
0.0
  9
$LIMMIN
 10
0.0
 20
0.0
  9
$LIMMAX
 10
12.0
 20
9.0
  9
$ORTHOMODE
 70
     0
  9
$REGENMODE
 70
     1
  9
$FILLMODE
 70
     1
  9
$QTEXTMODE
 70
     0
  9
$MIRRTEXT
 70
     0
  9
$LTSCALE
 40
75.0
  9
$ATTMODE
 70
     1
  9
$TEXTSIZE
 40
0.2
  9
$TRACEWID
 40
40.0
  9
$TEXTSTYLE
  7
STANDARD
  9
$CLAYER
  8
0Wymiary-PL
  9
$CELTYPE
  6
BYLAYER
  9
$CECOLOR
 62
   256
  9
$CELTSCALE
 40
4.0
  9
$DISPSILH
 70
     0
  9
$DIMSCALE
 40
0.1
  9
$DIMASZ
 40
30.0
  9
$DIMEXO
 40
43.0
  9
$DIMDLI
 40
0.0
  9
$DIMRND
 40
0.5
  9
$DIMDLE
 40
12.0
  9
$DIMEXE
 40
13.0
  9
$DIMTP
 40
0.0
  9
$DIMTM
 40
0.0
  9
$DIMTXT
 40
80.0
  9
$DIMCEN
 40
0.0
  9
$DIMTSZ
 40
0.0
  9
$DIMTOL
 70
     0
  9
$DIMLIM
 70
     0
  9
$DIMTIH
 70
     0
  9
$DIMTOH
 70
     0
  9
$DIMSE1
 70
     1
  9
$DIMSE2
 70
     1
  9
$DIMTAD
 70
     0
  9
$DIMZIN
 70
    12
  9
$DIMBLK
  1
B-DIM
  9
$DIMASO
 70
     1
  9
$DIMSHO
 70
     1
  9
$DIMPOST
  1

  9
$DIMAPOST
  1

  9
$DIMALT
 70
     0
  9
$DIMALTD
 70
     2
  9
$DIMALTF
 40
25.4
  9
$DIMLFAC
 40
1.0
  9
$DIMTOFL
 70
     1
  9
$DIMTVP
 40
1.0
  9
$DIMTIX
 70
     1
  9
$DIMSOXD
 70
     0
  9
$DIMSAH
 70
     0
  9
$DIMBLK1
  1

  9
$DIMBLK2
  1

  9
$DIMSTYLE
  2
500
  9
$DIMCLRD
 70
     1
  9
$DIMCLRE
 70
     1
  9
$DIMCLRT
 70
   140
  9
$DIMTFAC
 40
1.0
  9
$DIMGAP
 40
0.0
  9
$DIMJUST
 70
     0
  9
$DIMSD1
 70
     0
  9
$DIMSD2
 70
     0
  9
$DIMTOLJ
 70
     1
  9
$DIMTZIN
 70
     0
  9
$DIMALTZ
 70
     0
  9
$DIMALTTZ
 70
     0
  9
$DIMUPT
 70
     0
  9
$DIMDEC
 70
     1
  9
$DIMTDEC
 70
     1
  9
$DIMALTU
 70
     2
  9
$DIMALTTD
 70
     2
  9
$DIMTXSTY
  7
ROMANS
  9
$DIMAUNIT
 70
     0
  9
$DIMADEC
 70
     0
  9
$DIMALTRND
 40
0.0
  9
$DIMAZIN
 70
     0
  9
$DIMDSEP
 70
    46
  9
$DIMATFIT
 70
     3
  9
$DIMFRAC
 70
     0
  9
$DIMLDRBLK
  1
B-DIM
  9
$DIMLUNIT
 70
     2
  9
$DIMLWD
 70
    -2
  9
$DIMLWE
 70
    -2
  9
$DIMTMOVE
 70
     2
  9
$LUNITS
 70
     4
  9
$LUPREC
 70
     4
  9
$SKETCHINC
 40
0.1
  9
$FILLETRAD
 40
0.0
  9
$AUNITS
 70
     0
  9
$AUPREC
 70
     2
  9
$MENU
  1
acad
  9
$ELEVATION
 40
0.0
  9
$PELEVATION
 40
0.0
  9
$THICKNESS
 40
0.0
  9
$LIMCHECK
 70
     0
  9
$CHAMFERA
 40
30.0
  9
$CHAMFERB
 40
30.0
  9
$CHAMFERC
 40
0.0
  9
$CHAMFERD
 40
0.0
  9
$SKPOLY
 70
     0
  9
$TDCREATE
 40
2450817.484271180
  9
$TDUCREATE
 40
2450817.442604514
  9
$TDUPDATE
 40
2455182.526693241
  9
$TDUUPDATE
 40
2455182.485026574
  9
$TDINDWG
 40
21.7614081366
  9
$TDUSRTIMER
 40
21.7614081366
  9
$USRTIMER
 70
     1
  9
$ANGBASE
 50
0.0
  9
$ANGDIR
 70
     0
  9
$PDMODE
 70
     3
  9
$PDSIZE
 40
10.0
  9
$PLINEWID
 40
60.0
  9
$SPLFRAME
 70
     0
  9
$SPLINETYPE
 70
     6
  9
$SPLINESEGS
 70
     8
  9
$HANDSEED
  5
3352
  9
$SURFTAB1
 70
     6
  9
$SURFTAB2
 70
     6
  9
$SURFTYPE
 70
     6
  9
$SURFU
 70
     6
  9
$SURFV
 70
     6
  9
$UCSBASE
  2

  9
$UCSNAME
  2

  9
$UCSORG
 10
0.0
 20
0.0
 30
0.0
  9
$UCSXDIR
 10
1.0
 20
0.0
 30
0.0
  9
$UCSYDIR
 10
0.0
 20
1.0
 30
0.0
  9
$UCSORTHOREF
  2

  9
$UCSORTHOVIEW
 70
     0
  9
$UCSORGTOP
 10
0.0
 20
0.0
 30
0.0
  9
$UCSORGBOTTOM
 10
0.0
 20
0.0
 30
0.0
  9
$UCSORGLEFT
 10
0.0
 20
0.0
 30
0.0
  9
$UCSORGRIGHT
 10
0.0
 20
0.0
 30
0.0
  9
$UCSORGFRONT
 10
0.0
 20
0.0
 30
0.0
  9
$UCSORGBACK
 10
0.0
 20
0.0
 30
0.0
  9
$PUCSBASE
  2

  9
$PUCSNAME
  2

  9
$PUCSORG
 10
0.0
 20
0.0
 30
0.0
  9
$PUCSXDIR
 10
1.0
 20
0.0
 30
0.0
  9
$PUCSYDIR
 10
0.0
 20
1.0
 30
0.0
  9
$PUCSORTHOREF
  2

  9
$PUCSORTHOVIEW
 70
     0
  9
$PUCSORGTOP
 10
0.0
 20
0.0
 30
0.0
  9
$PUCSORGBOTTOM
 10
0.0
 20
0.0
 30
0.0
  9
$PUCSORGLEFT
 10
0.0
 20
0.0
 30
0.0
  9
$PUCSORGRIGHT
 10
0.0
 20
0.0
 30
0.0
  9
$PUCSORGFRONT
 10
0.0
 20
0.0
 30
0.0
  9
$PUCSORGBACK
 10
0.0
 20
0.0
 30
0.0
  9
$USERI1
 70
     0
  9
$USERI2
 70
     0
  9
$USERI3
 70
     0
  9
$USERI4
 70
     0
  9
$USERI5
 70
     0
  9
$USERR1
 40
0.0
  9
$USERR2
 40
0.0
  9
$USERR3
 40
0.0
  9
$USERR4
 40
0.0
  9
$USERR5
 40
0.0
  9
$WORLDVIEW
 70
     1
  9
$SHADEDGE
 70
     3
  9
$SHADEDIF
 70
    70
  9
$TILEMODE
 70
     1
  9
$MAXACTVP
 70
    16
  9
$PINSBASE
 10
0.0
 20
0.0
 30
0.0
  9
$PLIMCHECK
 70
     0
  9
$PEXTMIN
 10
0.0
 20
0.0
 30
0.0
  9
$PEXTMAX
 10
0.0
 20
0.0
 30
0.0
  9
$PLIMMIN
 10
0.0
 20
0.0
  9
$PLIMMAX
 10
12.0
 20
9.0
  9
$UNITMODE
 70
     0
  9
$VISRETAIN
 70
     0
  9
$PLINEGEN
 70
     0
  9
$PSLTSCALE
 70
     1
  9
$TREEDEPTH
 70
  3020
  9
$CMLSTYLE
  2
STANDARD
  9
$CMLJUST
 70
     0
  9
$CMLSCALE
 40
1.0
  9
$PROXYGRAPHICS
 70
     1
  9
$MEASUREMENT
 70
     0
  9
$CELWEIGHT
370
    -1
  9
$ENDCAPS
280
     0
  9
$JOINSTYLE
280
     0
  9
$LWDISPLAY
290
     0
  9
$INSUNITS
 70
     1
  9
$HYPERLINKBASE
  1

  9
$STYLESHEET
  1
monochrome_140.ctb
  9
$XEDIT
290
     1
  9
$CEPSNTYPE
380
     0
  9
$PSTYLEMODE
290
     1
  9
$FINGERPRINTGUID
  2
{2D5E65A9-1F91-4A53-BA94-481E1C74241D}
  9
$VERSIONGUID
  2
{6888A441-C3C7-49E9-A706-1E379A0043EF}
  9
$EXTNAMES
290
     1
  9
$PSVPSCALE
 40
0.0
  9
$OLESTARTUP
290
     0
  0
ENDSEC
  0
SECTION
  2
CLASSES
  0
CLASS
  1
DICTIONARYVAR
  2
AcDbDictionaryVar
  3
ObjectDBX Classes
 90
        0
280
     0
281
     0
  0
CLASS
  1
ACDBDICTIONARYWDFLT
  2
AcDbDictionaryWithDefault
  3
ObjectDBX Classes
 90
        0
280
     0
281
     0
  0
CLASS
  1
ACDBPLACEHOLDER
  2
AcDbPlaceHolder
  3
ObjectDBX Classes
 90
        0
280
     0
281
     0
  0
CLASS
  1
LAYOUT
  2
AcDbLayout
  3
ObjectDBX Classes
 90
        0
280
     0
281
     0
  0
CLASS
  1
AEC_VARS_DWG_SETUP
  2
AecDbVarsDwgSetup
  3
AecBase50|Product Desc: Autodesk Architectural Desktop 2007 |Company: Autodesk,Inc. |WEB Address: www.autodesk.com
 90
      129
280
     0
281
     0
  0
CLASS
  1
AEC_DISP_REP_CONFIG
  2
AecDbDispRepConfig
  3
AecBase50|Product Desc: Autodesk Architectural Desktop 2007 |Company: Autodesk,Inc. |WEB Address: www.autodesk.com
 90
      129
280
     0
281
     0
  0
CLASS
  1
AEC_DISP_REP_SET
  2
AecDbDispRepSet
  3
AecBase50|Product Desc: Autodesk Architectural Desktop 2007 |Company: Autodesk,Inc. |WEB Address: www.autodesk.com
 90
      129
280
     0
281
     0
  0
CLASS
  1
AEC_DISP_REP_2D_SECTION
  2
AecDbDispRep2dSection
  3
AecBase50|Product Desc: Autodesk Architectural Desktop 2007 |Company: Autodesk,Inc. |WEB Address: www.autodesk.com
 90
      129
280
     0
281
     0
  0
CLASS
  1
AEC_DISP_REP_ANCHOR_BUB_TO_GRID
  2
AecDbDispRepAnchorBubToGrid
  3
AecStructureBase50|Product Desc: Autodesk Architectural Desktop 2007 |Company: Autodesk,Inc. |WEB Address: www.autodesk.com
 90
      129
280
     0
281
     0
  0
CLASS
  1
AEC_DISP_REP_ANCHOR_BUB_TO_GRID_MODEL
  2
AecDbDispRepAnchorBubToGridMdl
  3
AecStructureBase50|Product Desc: Autodesk Architectural Desktop 2007 |Company: Autodesk,Inc. |WEB Address: www.autodesk.com
 90
      129
280
     0
281
     0
  0
CLASS
  1
AEC_DISP_REP_ANCHOR_ENT_TO_NODE
  2
AecDbDispRepAnchorEntToNode
  3
AecBaseEx50|Product Desc: Autodesk Architectural Desktop 2007 |Company: Autodesk,Inc. |WEB Address: www.autodesk.com
 90
      129
280
     0
281
     0
  0
CLASS
  1
AEC_DISP_REP_ANCHOR_TAG_TO_ENT
  2
AecDbDispRepAnchorTagToEnt
  3
AecScheduleData50|Product Desc: Autodesk Architectural Desktop 2007 |Company: Autodesk,Inc. |WEB Address: www.autodesk.com
 90
      129
280
     0
281
     0
  0
CLASS
  1
AEC_DISP_REP_AREA
  2
AecDbDispRepArea
  3
AecAreaCalculationBase50|Product Desc: Autodesk Architectural Desktop 2007 |Company: Autodesk,Inc. |WEB Address: www.autodesk.com
 90
    32897
280
     0
281
     0
  0
CLASS
  1
AEC_DISP_REP_AREA_DECOMPOSED
  2
AecDbDispRepAreaDecomposed
  3
AecAreaCalculationBase50|Product Desc: Autodesk Architectural Desktop 2007 |Company: Autodesk,Inc. |WEB Address: www.autodesk.com
 90
    32897
280
     0
281
     0
  0
CLASS
  1
AEC_DISP_REP_AREAGROUP
  2
AecDbDispRepAreaGroup
  3
AecAreaCalculationBase50|Product Desc: Autodesk Architectural Desktop 2007 |Company: Autodesk,Inc. |WEB Address: www.autodesk.com
 90
    32897
280
     0
281
     0
  0
CLASS
  1
AEC_DISP_REP_BDG_ELEVLINE_MODEL
  2
AecDbDispRepBdgElevLineModel
  3
AecArchBase50|Product Desc: Autodesk Architectural Desktop 2007 |Company: Autodesk,Inc. |WEB Address: www.autodesk.com
 90
      129
280
     0
281
     0
  0
CLASS
  1
AEC_DISP_REP_BDG_SECTIONLINE_PLAN
  2
AecDbDispRepBdgElevLinePlan
  3
AecArchBase50|Product Desc: Autodesk Architectural Desktop 2007 |Company: Autodesk,Inc. |WEB Address: www.autodesk.com
 90
      129
280
     0
281
     0
  0
CLASS
  1
AEC_DISP_REP_BDG_SECTIONLINE_MODEL
  2
AecDbDispRepBdgSectionLineModel
  3
AecArchBase50|Product Desc: Autodesk Architectural Desktop 2007 |Company: Autodesk,Inc. |WEB Address: www.autodesk.com
 90
      129
280
     0
281
     0
  0
CLASS
  1
AEC_DISP_REP_BDG_SECTIONLINE_PLAN
  2
AecDbDispRepBdgSectionLinePlan
  3
AecArchBase50|Product Desc: Autodesk Architectural Desktop 2007 |Company: Autodesk,Inc. |WEB Address: www.autodesk.com
 90
      129
280
     0
281
     0
  0
CLASS
  1
AEC_DISP_REP_BDG_SECTION_SUBDIV
  2
AecDbDispRepBdgSectionSubDiv
  3
AecArchBase50|Product Desc: Autodesk Architectural Desktop 2007 |Company: Autodesk,Inc. |WEB Address: www.autodesk.com
 90
      129
280
     0
281
     0
  0
CLASS
  1
AEC_DISP_REP_CAMERA
  2
AecDbDispRepCamera
  3
AecBase50|Product Desc: Autodesk Architectural Desktop 2007 |Company: Autodesk,Inc. |WEB Address: www.autodesk.com
 90
    32897
280
     0
281
     0
  0
CLASS
  1
AEC_DISP_REP_CEILING_GRID
  2
AecDbDispRepCeilingGrid
  3
AecArchBase50|Product Desc: Autodesk Architectural Desktop 2007 |Company: Autodesk,Inc. |WEB Address: www.autodesk.com
 90
      893
280
     0
281
     0
  0
CLASS
  1
AEC_DISP_REP_CEILING_GRID_MODEL
  2
AecDbDispRepCeilingGridModel
  3
AecArchBase50|Product Desc: Autodesk Architectural Desktop 2007 |Company: Autodesk,Inc. |WEB Address: www.autodesk.com
 90
      129
280
     0
281
     0
  0
CLASS
  1
AEC_DISP_REP_CEILING_GRID_RCP
  2
AecDbDispRepCeilingGridRcp
  3
AecArchBase50|Product Desc: Autodesk Architectural Desktop 2007 |Company: Autodesk,Inc. |WEB Address: www.autodesk.com
 90
      129
280
     0
281
     0
  0
CLASS
  1
AEC_DISP_REP_CLIP_VOLUME_MODEL
  2
AecDbDispRepClipVolModel
  3
AecBase50|Product Desc: Autodesk Architectural Desktop 2007 |Company: Autodesk,Inc. |WEB Address: www.autodesk.com
 90
      129
280
     0
281
     0
  0
CLASS
  1
AEC_DISP_REP_CLIP_VOLUME_PLAN
  2
AecDbDispRepClipVolPlan
  3
AecBase50|Product Desc: Autodesk Architectural Desktop 2007 |Company: Autodesk,Inc. |WEB Address: www.autodesk.com
 90
      129
280
     0
281
     0
  0
CLASS
  1
AEC_DISP_REP_CLIP_VOLUME_RESULT_SUBDIV
  2
AecDbDispRepClipVolResSubDiv
  3
AecBase50|Product Desc: Autodesk Architectural Desktop 2007 |Company: Autodesk,Inc. |WEB Address: www.autodesk.com
 90
      129
280
     0
281
     0
  0
CLASS
  1
AEC_DISP_REP_CLIP_VOLUME_RESULT
  2
AecDbDispRepClipVolResult
  3
AecBase50|Product Desc: Autodesk Architectural Desktop 2007 |Company: Autodesk,Inc. |WEB Address: www.autodesk.com
 90
      129
280
     0
281
     0
  0
CLASS
  1
AEC_DISP_REP_COLUMN_GRID
  2
AecDbDispRepColumnGrid
  3
AecStructureBase50|Product Desc: Autodesk Architectural Desktop 2007 |Company: Autodesk,Inc. |WEB Address: www.autodesk.com
 90
      129
280
     0
281
     0
  0
CLASS
  1
AEC_DISP_REP_COLUMN_GRID_MODEL
  2
AecDbDispRepColumnGridModel
  3
AecStructureBase50|Product Desc: Autodesk Architectural Desktop 2007 |Company: Autodesk,Inc. |WEB Address: www.autodesk.com
 90
      129
280
     0
281
     0
  0
CLASS
  1
AEC_DISP_REP_CURTAIN_WALL_LAYOUT_MODEL
  2
AecDbDispRepCurtainWallLayoutModel
  3
AecArchBase50|Product Desc: Autodesk Architectural Desktop 2007 |Company: Autodesk,Inc. |WEB Address: www.autodesk.com
 90
      129
280
     0
281
     0
  0
CLASS
  1
AEC_DISP_REP_CURTAIN_WALL_LAYOUT_PLAN
  2
AecDbDispRepCurtainWallLayoutPlan
  3
AecArchBase50|Product Desc: Autodesk Architectural Desktop 2007 |Company: Autodesk,Inc. |WEB Address: www.autodesk.com
 90
      129
280
     0
281
     0
  0
CLASS
  1
AEC_DISP_REP_CURTAIN_WALL_UNIT_MODEL
  2
AecDbDispRepCurtainWallUnitModel
  3
AecArchBase50|Product Desc: Autodesk Architectural Desktop 2007 |Company: Autodesk,Inc. |WEB Address: www.autodesk.com
 90
      129
280
     0
281
     0
  0
CLASS
  1
AEC_DISP_REP_CURTAIN_WALL_UNIT_PLAN
  2
AecDbDispRepCurtainWallUnitPlan
  3
AecArchBase50|Product Desc: Autodesk Architectural Desktop 2007 |Company: Autodesk,Inc. |WEB Address: www.autodesk.com
 90
      129
280
     0
281
     0
  0
CLASS
  1
AEC_DB_DISP_REP_DIM_GROUP_PLAN
  2
AecDbDispRepDimGroupPlan
  3
AecArchDACHBase50|Product Desc: Autodesk Architectural Desktop 2007 |Company: Autodesk,Inc. |WEB Address: www.autodesk.com
 90
      129
280
     0
281
     0
  0
CLASS
  1
AEC_DISP_REP_DOOR_MODEL
  2
AecDbDispRepDoorModel
  3
AecArchBase50|Product Desc: Autodesk Architectural Desktop 2007 |Company: Autodesk,Inc. |WEB Address: www.autodesk.com
 90
      129
280
     0
281
     0
  0
CLASS
  1
AEC_DISP_REP_DOOR_NOMINAL
  2
AecDbDispRepDoorNominal
  3
AecArchBase50|Product Desc: Autodesk Architectural Desktop 2007 |Company: Autodesk,Inc. |WEB Address: www.autodesk.com
 90
      129
280
     0
281
     0
  0
CLASS
  1
AEC_DISP_REP_DOOR_PLAN
  2
AecDbDispRepDoorPlan
  3
AecArchBase50|Product Desc: Autodesk Architectural Desktop 2007 |Company: Autodesk,Inc. |WEB Address: www.autodesk.com
 90
      129
280
     0
281
     0
  0
CLASS
  1
AEC_DISP_REP_EDITINPLACEPROFILE
  2
AecDbDispRepEditInPlaceProfile
  3
AecBase50|Product Desc: Autodesk Architectural Desktop 2007 |Company: Autodesk,Inc. |WEB Address: www.autodesk.com
 90
      129
280
     0
281
     0
  0
CLASS
  1
AEC_DISP_REP_ENT_REF
  2
AecDbDispRepEntRef
  3
AecBase50|Product Desc: Autodesk Architectural Desktop 2007 |Company: Autodesk,Inc. |WEB Address: www.autodesk.com
 90
      129
280
     0
281
     0
  0
CLASS
  1
AEC_DISP_REP_LAYOUT_CURVE
  2
AecDbDispRepLayoutCurve
  3
AecBase50|Product Desc: Autodesk Architectural Desktop 2007 |Company: Autodesk,Inc. |WEB Address: www.autodesk.com
 90
      129
280
     0
281
     0
  0
CLASS
  1
AEC_DISP_REP_LAYOUT_GRID2D
  2
AecDbDispRepLayoutGrid2d
  3
AecBase50|Product Desc: Autodesk Architectural Desktop 2007 |Company: Autodesk,Inc. |WEB Address: www.autodesk.com
 90
      129
280
     0
281
     0
  0
CLASS
  1
AEC_DISP_REP_LAYOUT_GRID3D
  2
AecDbDispRepLayoutGrid3d
  3
AecBase50|Product Desc: Autodesk Architectural Desktop 2007 |Company: Autodesk,Inc. |WEB Address: www.autodesk.com
 90
      129
280
     0
281
     0
  0
CLASS
  1
AEC_DISP_REP_MASKBLOCK_REF
  2
AecDbDispRepMaskBlockRef
  3
AecBase50|Product Desc: Autodesk Architectural Desktop 2007 |Company: Autodesk,Inc. |WEB Address: www.autodesk.com
 90
      129
280
     0
281
     0
  0
CLASS
  1
AEC_DISP_REP_MASKBLOCK_REF_RCP
  2
AecDbDispRepMaskBlockRefRcp
  3
AecArchBase50|Product Desc: Autodesk Architectural Desktop 2007 |Company: Autodesk,Inc. |WEB Address: www.autodesk.com
 90
      129
280
     0
281
     0
  0
CLASS
  1
AEC_DISP_REP_MASS_ELEM_MODEL
  2
AecDbDispRepMassElemModel
  3
AecBaseEx50|Product Desc: Autodesk Architectural Desktop 2007 |Company: Autodesk,Inc. |WEB Address: www.autodesk.com
 90
      129
280
     0
281
     0
  0
CLASS
  1
AEC_DISP_REP_MASS_ELEM_SCHEM
  2
AecDbDispRepMassElemSchem
  3
AecBaseEx50|Product Desc: Autodesk Architectural Desktop 2007 |Company: Autodesk,Inc. |WEB Address: www.autodesk.com
 90
      129
280
     0
281
     0
  0
CLASS
  1
AEC_DISP_REP_MASS_GROUP_MODEL
  2
AecDbDispRepMassGroupModel
  3
AecBaseEx50|Product Desc: Autodesk Architectural Desktop 2007 |Company: Autodesk,Inc. |WEB Address: www.autodesk.com
 90
      129
280
     0
281
     0
  0
CLASS
  1
AEC_DISP_REP_MASS_GROUP_PLAN
  2
AecDbDispRepMassGroupPlan
  3
AecBaseEx50|Product Desc: Autodesk Architectural Desktop 2007 |Company: Autodesk,Inc. |WEB Address: www.autodesk.com
 90
      129
280
     0
281
     0
  0
CLASS
  1
AEC_DISP_REP_MATERIAL
  2
AecDbDispRepMaterial
  3
AecBase50|Product Desc: Autodesk Architectural Desktop 2007 |Company: Autodesk,Inc. |WEB Address: www.autodesk.com
 90
      129
280
     0
281
     0
  0
CLASS
  1
AEC_DISP_REP_MVBLOCK_REF
  2
AecDbDispRepMvBlockRef
  3
AecBase50|Product Desc: Autodesk Architectural Desktop 2007 |Company: Autodesk,Inc. |WEB Address: www.autodesk.com
 90
      129
280
     0
281
     0
  0
CLASS
  1
AEC_DISP_REP_MVBLOCK_REF_MODEL
  2
AecDbDispRepMvBlockRefModel
  3
AecBase50|Product Desc: Autodesk Architectural Desktop 2007 |Company: Autodesk,Inc. |WEB Address: www.autodesk.com
 90
      129
280
     0
281
     0
  0
CLASS
  1
AEC_DISP_REP_OPENING
  2
AecDbDispRepOpening
  3
AecArchBase50|Product Desc: Autodesk Architectural Desktop 2007 |Company: Autodesk,Inc. |WEB Address: www.autodesk.com
 90
      129
280
     0
281
     0
  0
CLASS
  1
AEC_DISP_REP_OPENING_MODEL
  2
AecDbDispRepOpeningModel
  3
AecArchBase50|Product Desc: Autodesk Architectural Desktop 2007 |Company: Autodesk,Inc. |WEB Address: www.autodesk.com
 90
      129
280
     0
281
     0
  0
CLASS
  1
AEC_DISP_REP_POLYGON_MODEL
  2
AecDbDispRepPolygonModel
  3
AecBaseEx50|Product Desc: Autodesk Architectural Desktop 2007 |Company: Autodesk,Inc. |WEB Address: www.autodesk.com
 90
      129
280
     0
281
     0
  0
CLASS
  1
AEC_DISP_REP_RAILING_MODEL
  2
AecDbDispRepRailingModel
  3
AecArchBase50|Product Desc: Autodesk Architectural Desktop 2007 |Company: Autodesk,Inc. |WEB Address: www.autodesk.com
 90
      129
280
     0
281
     0
  0
CLASS
  1
AEC_DISP_REP_RAILING_PLAN
  2
AecDbDispRepRailingPlan
  3
AecArchBase50|Product Desc: Autodesk Architectural Desktop 2007 |Company: Autodesk,Inc. |WEB Address: www.autodesk.com
 90
      129
280
     0
281
     0
  0
CLASS
  1
AEC_DISP_REP_ROOF_MODEL
  2
AecDbDispRepRoofModel
  3
AecArchBase50|Product Desc: Autodesk Architectural Desktop 2007 |Company: Autodesk,Inc. |WEB Address: www.autodesk.com
 90
      129
280
     0
281
     0
  0
CLASS
  1
AEC_DISP_REP_ROOF_PLAN
  2
AecDbDispRepRoofPlan
  3
AecArchBase50|Product Desc: Autodesk Architectural Desktop 2007 |Company: Autodesk,Inc. |WEB Address: www.autodesk.com
 90
      129
280
     0
281
     0
  0
CLASS
  1
AEC_DISP_REP_ROOFSLAB_MODEL
  2
AecDbDispRepRoofSlabModel
  3
AecArchBase50|Product Desc: Autodesk Architectural Desktop 2007 |Company: Autodesk,Inc. |WEB Address: www.autodesk.com
 90
      129
280
     0
281
     0
  0
CLASS
  1
AEC_DISP_REP_ROOFSLAB_PLAN
  2
AecDbDispRepRoofSlabPlan
  3
AecArchBase50|Product Desc: Autodesk Architectural Desktop 2007 |Company: Autodesk,Inc. |WEB Address: www.autodesk.com
 90
      129
280
     0
281
     0
  0
CLASS
  1
AEC_DISP_REP_SCHEDULE_TABLE
  2
AecDbDispRepScheduleTable
  3
AecSchedule50|Product Desc: Autodesk Architectural Desktop 2007 |Company: Autodesk,Inc. |WEB Address: www.autodesk.com
 90
      129
280
     0
281
     0
  0
CLASS
  1
AEC_DISP_REP_SLAB_MODEL
  2
AecDbDispRepSlabModel
  3
AecArchBase50|Product Desc: Autodesk Architectural Desktop 2007 |Company: Autodesk,Inc. |WEB Address: www.autodesk.com
 90
      129
280
     0
281
     0
  0
CLASS
  1
AEC_DISP_REP_SLAB_PLAN
  2
AecDbDispRepSlabPlan
  3
AecArchBase50|Product Desc: Autodesk Architectural Desktop 2007 |Company: Autodesk,Inc. |WEB Address: www.autodesk.com
 90
      129
280
     0
281
     0
  0
CLASS
  1
AEC_DISP_REP_SLICE
  2
AecDbDispRepSlice
  3
AecBase50|Product Desc: Autodesk Architectural Desktop 2007 |Company: Autodesk,Inc. |WEB Address: www.autodesk.com
 90
      129
280
     0
281
     0
  0
CLASS
  1
AEC_DISP_REP_SPACE_BOUNDARY_MODEL
  2
AecDbDispRepSpaceBoundaryModel
  3
AecArchBase50|Product Desc: Autodesk Architectural Desktop 2007 |Company: Autodesk,Inc. |WEB Address: www.autodesk.com
 90
    32897
280
     0
281
     0
  0
CLASS
  1
AEC_DISP_REP_SPACE_BOUNDARY_PLAN
  2
AecDbDispRepSpaceBoundaryPlan
  3
AecArchBase50|Product Desc: Autodesk Architectural Desktop 2007 |Company: Autodesk,Inc. |WEB Address: www.autodesk.com
 90
    32897
280
     0
281
     0
  0
CLASS
  1
AEC_DISP_REP_SPACE_BOUNDARY_SCHEM
  2
AecDbDispRepSpaceBoundarySketch
  3
AecArchBase50|Product Desc: Autodesk Architectural Desktop 2007 |Company: Autodesk,Inc. |WEB Address: www.autodesk.com
 90
    32897
280
     0
281
     0
  0
CLASS
  1
AEC_DISP_REP_SPACE_MODEL
  2
AecDbDispRepSpaceModel
  3
AecArchBase50|Product Desc: Autodesk Architectural Desktop 2007 |Company: Autodesk,Inc. |WEB Address: www.autodesk.com
 90
      129
280
     0
281
     0
  0
CLASS
  1
AEC_DISP_REP_SPACE_PLAN
  2
AecDbDispRepSpacePlan
  3
AecArchBase50|Product Desc: Autodesk Architectural Desktop 2007 |Company: Autodesk,Inc. |WEB Address: www.autodesk.com
 90
      129
280
     0
281
     0
  0
CLASS
  1
AEC_DISP_REP_STAIR_MODEL
  2
AecDbDispRepStairModel
  3
AecArchBase50|Product Desc: Autodesk Architectural Desktop 2007 |Company: Autodesk,Inc. |WEB Address: www.autodesk.com
 90
      129
280
     0
281
     0
  0
CLASS
  1
AEC_DISP_REP_STAIR_PLAN
  2
AecDbDispRepStairPlan
  3
AecArchBase50|Product Desc: Autodesk Architectural Desktop 2007 |Company: Autodesk,Inc. |WEB Address: www.autodesk.com
 90
      129
280
     0
281
     0
  0
CLASS
  1
AEC_DISP_REP_WALL_GRAPH
  2
AecDbDispRepWallGraph
  3
AecArchBase50|Product Desc: Autodesk Architectural Desktop 2007 |Company: Autodesk,Inc. |WEB Address: www.autodesk.com
 90
      129
280
     0
281
     0
  0
CLASS
  1
AEC_DISP_REP_WALL_MODEL
  2
AecDbDispRepWallModel
  3
AecArchBase50|Product Desc: Autodesk Architectural Desktop 2007 |Company: Autodesk,Inc. |WEB Address: www.autodesk.com
 90
      129
280
     0
281
     0
  0
CLASS
  1
AEC_DISP_REP_WALL_PLAN
  2
AecDbDispRepWallPlan
  3
AecArchBase50|Product Desc: Autodesk Architectural Desktop 2007 |Company: Autodesk,Inc. |WEB Address: www.autodesk.com
 90
      129
280
     0
281
     0
  0
CLASS
  1
AEC_DISP_REP_WALL_SCHEM
  2
AecDbDispRepWallSchem
  3
AecArchBase50|Product Desc: Autodesk Architectural Desktop 2007 |Company: Autodesk,Inc. |WEB Address: www.autodesk.com
 90
      129
280
     0
281
     0
  0
CLASS
  1
AEC_DISP_REP_WINDOW_ASSEMBLY_MODEL
  2
AecDbDispRepWindowAssemblyModel
  3
AecArchBase50|Product Desc: Autodesk Architectural Desktop 2007 |Company: Autodesk,Inc. |WEB Address: www.autodesk.com
 90
      129
280
     0
281
     0
  0
CLASS
  1
AEC_DISP_REP_WINDOW_ASSEMBLY_PLAN
  2
AecDbDispRepWindowAssemblyPlan
  3
AecArchBase50|Product Desc: Autodesk Architectural Desktop 2007 |Company: Autodesk,Inc. |WEB Address: www.autodesk.com
 90
      129
280
     0
281
     0
  0
CLASS
  1
AEC_AECDBDISPREPWINDOWASSEMBLYPLAN100
  2
AecDbDispRepWindowAssemblyPlan100
  3
AecArchDACHBase50|Product Desc: Autodesk Architectural Desktop 2007 |Company: Autodesk,Inc. |WEB Address: www.autodesk.com
 90
      129
280
     0
281
     0
  0
CLASS
  1
AEC_DISP_REP_WINDOW_MODEL
  2
AecDbDispRepWindowModel
  3
AecArchBase50|Product Desc: Autodesk Architectural Desktop 2007 |Company: Autodesk,Inc. |WEB Address: www.autodesk.com
 90
      129
280
     0
281
     0
  0
CLASS
  1
AEC_DISP_REP_WINDOW_NOMINAL
  2
AecDbDispRepWindowNominal
  3
AecArchBase50|Product Desc: Autodesk Architectural Desktop 2007 |Company: Autodesk,Inc. |WEB Address: www.autodesk.com
 90
      129
280
     0
281
     0
  0
CLASS
  1
AEC_DISP_REP_WINDOW_PLAN
  2
AecDbDispRepWindowPlan
  3
AecArchBase50|Product Desc: Autodesk Architectural Desktop 2007 |Company: Autodesk,Inc. |WEB Address: www.autodesk.com
 90
      129
280
     0
281
     0
  0
CLASS
  1
AECS_DISP_REP_MEMBER_LOGICAL
  2
AecsDbDispRepMemberLogical
  3
AecStructureBase50|Product Desc: Autodesk Architectural Desktop 2007 |Company: Autodesk,Inc. |WEB Address: www.autodesk.com
 90
      129
280
     0
281
     0
  0
CLASS
  1
AECS_DISP_REP_MEMBER_MODEL_DESIGN
  2
AecsDbDispRepMemberModelDesign
  3
AecStructureBase50|Product Desc: Autodesk Architectural Desktop 2007 |Company: Autodesk,Inc. |WEB Address: www.autodesk.com
 90
      129
280
     0
281
     0
  0
CLASS
  1
AECS_DISP_REP_MEMBER_PLAN_DESIGN
  2
AecsDbDispRepMemberPlanDesign
  3
AecStructureBase50|Product Desc: Autodesk Architectural Desktop 2007 |Company: Autodesk,Inc. |WEB Address: www.autodesk.com
 90
      129
280
     0
281
     0
  0
CLASS
  1
AEC_DISP_PROPS_ENT
  2
AecDbDispPropsEnt
  3
AecBase50|Product Desc: Autodesk Architectural Desktop 2007 |Company: Autodesk,Inc. |WEB Address: www.autodesk.com
 90
      129
280
     0
281
     0
  0
CLASS
  1
AEC_DISP_PROPS_CLIP_VOLUME
  2
AecDbDispPropsClipVol
  3
AecBase50|Product Desc: Autodesk Architectural Desktop 2007 |Company: Autodesk,Inc. |WEB Address: www.autodesk.com
 90
      129
280
     0
281
     0
  0
CLASS
  1
AEC_DISP_PROPS_SLICE
  2
AecDbDispPropsSlice
  3
AecBase50|Product Desc: Autodesk Architectural Desktop 2007 |Company: Autodesk,Inc. |WEB Address: www.autodesk.com
 90
      129
280
     0
281
     0
  0
CLASS
  1
AEC_DISP_PROPS_ROOFSLAB_PLAN
  2
AecDbDispPropsRoofSlabPlan
  3
AecArchBase50|Product Desc: Autodesk Architectural Desktop 2007 |Company: Autodesk,Inc. |WEB Address: www.autodesk.com
 90
      129
280
     0
281
     0
  0
CLASS
  1
AEC_DISP_PROPS_GRID_ASSEMBLY_MODEL
  2
AecDbDispPropsGridAssemblyModel
  3
AecArchBase50|Product Desc: Autodesk Architectural Desktop 2007 |Company: Autodesk,Inc. |WEB Address: www.autodesk.com
 90
      129
280
     0
281
     0
  0
CLASS
  1
AEC_DISP_PROPS_ROOF
  2
AecDbDispPropsRoof
  3
AecArchBase50|Product Desc: Autodesk Architectural Desktop 2007 |Company: Autodesk,Inc. |WEB Address: www.autodesk.com
 90
      129
280
     0
281
     0
  0
CLASS
  1
AEC_DISP_PROPS_SPACE_MODEL
  2
AecDbDispPropsSpaceModel
  3
AecArchBase50|Product Desc: Autodesk Architectural Desktop 2007 |Company: Autodesk,Inc. |WEB Address: www.autodesk.com
 90
      129
280
     0
281
     0
  0
CLASS
  1
AEC_DISP_PROPS_EDITINPLACEPROFILE_MODEL
  2
AecDbDispPropsEditInPlaceProfile
  3
AecBase50|Product Desc: Autodesk Architectural Desktop 2007 |Company: Autodesk,Inc. |WEB Address: www.autodesk.com
 90
      129
280
     0
281
     0
  0
CLASS
  1
AEC_DISP_PROPS_DOOR
  2
AecDbDispPropsDoor
  3
AecArchBase50|Product Desc: Autodesk Architectural Desktop 2007 |Company: Autodesk,Inc. |WEB Address: www.autodesk.com
 90
      129
280
     0
281
     0
  0
CLASS
  1
AEC_DISP_PROPS_MASKBLOCK
  2
AecDbDispPropsMaskBlock
  3
AecBase50|Product Desc: Autodesk Architectural Desktop 2007 |Company: Autodesk,Inc. |WEB Address: www.autodesk.com
 90
      129
280
     0
281
     0
  0
CLASS
  1
AEC_DISP_PROPS_SPACE_PLAN
  2
AecDbDispPropsSpacePlan
  3
AecArchBase50|Product Desc: Autodesk Architectural Desktop 2007 |Company: Autodesk,Inc. |WEB Address: www.autodesk.com
 90
      129
280
     0
281
     0
  0
CLASS
  1
AEC_DISP_PROPS_RAILING_PLAN
  2
AecDbDispPropsRailingPlan
  3
AecArchBase50|Product Desc: Autodesk Architectural Desktop 2007 |Company: Autodesk,Inc. |WEB Address: www.autodesk.com
 90
      129
280
     0
281
     0
  0
CLASS
  1
AEC_DISP_PROPS_LAYOUT_GRID2D
  2
AecDbDispPropsLayoutGrid2d
  3
AecBase50|Product Desc: Autodesk Architectural Desktop 2007 |Company: Autodesk,Inc. |WEB Address: www.autodesk.com
 90
      129
280
     0
281
     0
  0
CLASS
  1
AEC_DISP_PROPS_CLIP_VOLUME_RESULT
  2
AecDbDispPropsClipVolResSubDiv
  3
AecBase50|Product Desc: Autodesk Architectural Desktop 2007 |Company: Autodesk,Inc. |WEB Address: www.autodesk.com
 90
      129
280
     0
281
     0
  0
CLASS
  1
AEC_DISP_PROPS_STAIR_MODEL
  2
AecDbDispPropsStairModel
  3
AecArchBase50|Product Desc: Autodesk Architectural Desktop 2007 |Company: Autodesk,Inc. |WEB Address: www.autodesk.com
 90
      129
280
     0
281
     0
  0
CLASS
  1
AEC_DISP_PROPS_LAYOUT_CURVE
  2
AecDbDispPropsLayoutCurve
  3
AecBase50|Product Desc: Autodesk Architectural Desktop 2007 |Company: Autodesk,Inc. |WEB Address: www.autodesk.com
 90
      129
280
     0
281
     0
  0
CLASS
  1
AEC_DISP_PROPS_POLYGON_MODEL
  2
AecDbDispPropsPolygonModel
  3
AecBaseEx50|Product Desc: Autodesk Architectural Desktop 2007 |Company: Autodesk,Inc. |WEB Address: www.autodesk.com
 90
      129
280
     0
281
     0
  0
CLASS
  1
AEC_DISP_PROPS_MASS_GROUP
  2
AecDbDispPropsMassGroup
  3
AecBaseEx50|Product Desc: Autodesk Architectural Desktop 2007 |Company: Autodesk,Inc. |WEB Address: www.autodesk.com
 90
      129
280
     0
281
     0
  0
CLASS
  1
AEC_DISP_PROPS_STAIR_PLAN
  2
AecDbDispPropsStairPlan
  3
AecArchBase50|Product Desc: Autodesk Architectural Desktop 2007 |Company: Autodesk,Inc. |WEB Address: www.autodesk.com
 90
      129
280
     0
281
     0
  0
CLASS
  1
AEC_DISP_PROPS_OPENING
  2
AecDbDispPropsOpening
  3
AecArchBase50|Product Desc: Autodesk Architectural Desktop 2007 |Company: Autodesk,Inc. |WEB Address: www.autodesk.com
 90
      129
280
     0
281
     0
  0
CLASS
  1
AEC_DISP_PROPS_WALL_GRAPH
  2
AecDbDispPropsWallGraph
  3
AecArchBase50|Product Desc: Autodesk Architectural Desktop 2007 |Company: Autodesk,Inc. |WEB Address: www.autodesk.com
 90
      129
280
     0
281
     0
  0
CLASS
  1
AEC_DISP_PROPS_DOOR_NOMINAL
  2
AecDbDispPropsDoorNominal
  3
AecArchBase50|Product Desc: Autodesk Architectural Desktop 2007 |Company: Autodesk,Inc. |WEB Address: www.autodesk.com
 90
      129
280
     0
281
     0
  0
CLASS
  1
AEC_DISP_PROPS_SLAB
  2
AecDbDispPropsSlab
  3
AecArchBase50|Product Desc: Autodesk Architectural Desktop 2007 |Company: Autodesk,Inc. |WEB Address: www.autodesk.com
 90
      129
280
     0
281
     0
  0
CLASS
  1
AEC_DISP_PROPS_WALL_MODEL
  2
AecDbDispPropsWallModel
  3
AecArchBase50|Product Desc: Autodesk Architectural Desktop 2007 |Company: Autodesk,Inc. |WEB Address: www.autodesk.com
 90
      129
280
     0
281
     0
  0
CLASS
  1
AEC_DISP_PROPS_MATERIAL
  2
AecDbDispPropsMaterial
  3
AecBase50|Product Desc: Autodesk Architectural Desktop 2007 |Company: Autodesk,Inc. |WEB Address: www.autodesk.com
 90
      129
280
     0
281
     0
  0
CLASS
  1
AEC_DISP_PROPS_WINDOW
  2
AecDbDispPropsWindow
  3
AecArchBase50|Product Desc: Autodesk Architectural Desktop 2007 |Company: Autodesk,Inc. |WEB Address: www.autodesk.com
 90
      129
280
     0
281
     0
  0
CLASS
  1
AEC_DISP_PROPS_LAYOUT_GRID3D
  2
AecDbDispPropsLayoutGrid3d
  3
AecBase50|Product Desc: Autodesk Architectural Desktop 2007 |Company: Autodesk,Inc. |WEB Address: www.autodesk.com
 90
      129
280
     0
281
     0
  0
CLASS
  1
AEC_DISP_PROPS_GRID_ASSEMBLY_PLAN
  2
AecDbDispPropsGridAssemblyPlan
  3
AecArchBase50|Product Desc: Autodesk Architectural Desktop 2007 |Company: Autodesk,Inc. |WEB Address: www.autodesk.com
 90
      129
280
     0
281
     0
  0
CLASS
  1
AEC_DISP_PROPS_WALL_SCHEM
  2
AecDbDispPropsWallSchem
  3
AecArchBase50|Product Desc: Autodesk Architectural Desktop 2007 |Company: Autodesk,Inc. |WEB Address: www.autodesk.com
 90
      129
280
     0
281
     0
  0
CLASS
  1
AEC_DISP_PROPS_WALL_PLAN
  2
AecDbDispPropsWallPlan
  3
AecArchBase50|Product Desc: Autodesk Architectural Desktop 2007 |Company: Autodesk,Inc. |WEB Address: www.autodesk.com
 90
      129
280
     0
281
     0
  0
CLASS
  1
AEC_DISP_PROPS_SPACE_BOUNDARY
  2
AecDbDispPropsSpaceBoundary
  3
AecArchBase50|Product Desc: Autodesk Architectural Desktop 2007 |Company: Autodesk,Inc. |WEB Address: www.autodesk.com
 90
    32897
280
     0
281
     0
  0
CLASS
  1
AEC_DISP_PROPS_SLAB_PLAN
  2
AecDbDispPropsSlabPlan
  3
AecArchBase50|Product Desc: Autodesk Architectural Desktop 2007 |Company: Autodesk,Inc. |WEB Address: www.autodesk.com
 90
      129
280
     0
281
     0
  0
CLASS
  1
AEC_DISP_PROPS_RAILING_MODEL
  2
AecDbDispPropsRailingModel
  3
AecArchBase50|Product Desc: Autodesk Architectural Desktop 2007 |Company: Autodesk,Inc. |WEB Address: www.autodesk.com
 90
      129
280
     0
281
     0
  0
CLASS
  1
AEC_DISP_PROPS_MASS_ELEM_MODEL
  2
AecDbDispPropsMassElem
  3
AecBaseEx50|Product Desc: Autodesk Architectural Desktop 2007 |Company: Autodesk,Inc. |WEB Address: www.autodesk.com
 90
      129
280
     0
281
     0
  0
CLASS
  1
AEC_DISP_PROPS_DIM
  2
AecDbDispPropsDimGroup
  3
AecArchDACHBase50|Product Desc: Autodesk Architectural Desktop 2007 |Company: Autodesk,Inc. |WEB Address: www.autodesk.com
 90
      129
280
     0
281
     0
  0
CLASS
  1
AEC_DISP_PROPS_ROOFSLAB
  2
AecDbDispPropsRoofSlab
  3
AecArchBase50|Product Desc: Autodesk Architectural Desktop 2007 |Company: Autodesk,Inc. |WEB Address: www.autodesk.com
 90
      129
280
     0
281
     0
  0
CLASS
  1
AEC_DISP_PROPS_ENT_REF
  2
AecDbDispPropsEntRef
  3
AecBase50|Product Desc: Autodesk Architectural Desktop 2007 |Company: Autodesk,Inc. |WEB Address: www.autodesk.com
 90
      129
280
     0
281
     0
  0
CLASS
  1
AEC_DISP_PROPS_2D_SECTION
  2
AecDbDispProps2dSection
  3
AecBase50|Product Desc: Autodesk Architectural Desktop 2007 |Company: Autodesk,Inc. |WEB Address: www.autodesk.com
 90
      129
280
     0
281
     0
  0
CLASS
  1
AECS_DISP_PROPS_MEMBER_LOGICAL
  2
AecsDbDispPropsMemberLogical
  3
AecStructureBase50|Product Desc: Autodesk Architectural Desktop 2007 |Company: Autodesk,Inc. |WEB Address: www.autodesk.com
 90
      129
280
     0
281
     0
  0
CLASS
  1
AEC_DISP_PROPS_AREA_DECOMPOSED
  2
AecDbDispPropsAreaDecomposed
  3
AecAreaCalculationBase50|Product Desc: Autodesk Architectural Desktop 2007 |Company: Autodesk,Inc. |WEB Address: www.autodesk.com
 90
    32897
280
     0
281
     0
  0
CLASS
  1
AEC_DISP_PROPS_CAMERA
  2
AecDbDispPropsCamera
  3
AecBase50|Product Desc: Autodesk Architectural Desktop 2007 |Company: Autodesk,Inc. |WEB Address: www.autodesk.com
 90
    32897
280
     0
281
     0
  0
CLASS
  1
AECS_DISP_PROPS_MEMBER
  2
AecsDbDispPropsMember
  3
AecStructureBase50|Product Desc: Autodesk Architectural Desktop 2007 |Company: Autodesk,Inc. |WEB Address: www.autodesk.com
 90
      129
280
     0
281
     0
  0
CLASS
  1
AECS_DISP_PROPS_MEMBER_PLAN
  2
AecsDbDispPropsMemberPlan
  3
AecStructureBase50|Product Desc: Autodesk Architectural Desktop 2007 |Company: Autodesk,Inc. |WEB Address: www.autodesk.com
 90
      129
280
     0
281
     0
  0
CLASS
  1
AEC_DISP_PROPS_AREAGROUP
  2
AecDbDispPropsAreaGroup
  3
AecAreaCalculationBase50|Product Desc: Autodesk Architectural Desktop 2007 |Company: Autodesk,Inc. |WEB Address: www.autodesk.com
 90
    32897
280
     0
281
     0
  0
CLASS
  1
AEC_DISP_PROPS_WINDOW_NOMINAL
  2
AecDbDispPropsWindowNominal
  3
AecArchBase50|Product Desc: Autodesk Architectural Desktop 2007 |Company: Autodesk,Inc. |WEB Address: www.autodesk.com
 90
      129
280
     0
281
     0
  0
CLASS
  1
AEC_DISP_PROPS_AREA
  2
AecDbDispPropsArea
  3
AecAreaCalculationBase50|Product Desc: Autodesk Architectural Desktop 2007 |Company: Autodesk,Inc. |WEB Address: www.autodesk.com
 90
    32897
280
     0
281
     0
  0
CLASS
  1
AEC_DISP_PROPS_SCHEDULE_TABLE
  2
AecDbDispPropsScheduleTable
  3
AecSchedule50|Product Desc: Autodesk Architectural Desktop 2007 |Company: Autodesk,Inc. |WEB Address: www.autodesk.com
 90
      129
280
     0
281
     0
  0
CLASS
  1
AEC_LAYERKEY_STYLE
  2
AecDbLayerKeyStyle
  3
AecBase50|Product Desc: Autodesk Architectural Desktop 2007 |Company: Autodesk,Inc. |WEB Address: www.autodesk.com
 90
      129
280
     0
281
     0
  0
CLASS
  1
AEC_VARS_ARCHBASE
  2
AecDbVarsArchBase
  3
AecArchBase50|Product Desc: Autodesk Architectural Desktop 2007 |Company: Autodesk,Inc. |WEB Address: www.autodesk.com
 90
      129
280
     0
281
     0
  0
CLASS
  1
AEC_VARS_MUNICH
  2
AecDbVarsMunich
  3
AecArchDACHBase50|Product Desc: Autodesk Architectural Desktop 2007 |Company: Autodesk,Inc. |WEB Address: www.autodesk.com
 90
      129
280
     0
281
     0
  0
CLASS
  1
AEC_NOTIFICATION_TRACKER
  2
AecDbNotificationTracker
  3
AecBase50|Product Desc: Autodesk Architectural Desktop 2007 |Company: Autodesk,Inc. |WEB Address: www.autodesk.com
 90
      129
280
     0
281
     0
  0
CLASS
  1
AEC_DISP_REP_ANCHOR
  2
AecDbDispRepAnchor
  3
AecBase50|Product Desc: Autodesk Architectural Desktop 2007 |Company: Autodesk,Inc. |WEB Address: www.autodesk.com
 90
      129
280
     0
281
     0
  0
CLASS
  1
AEC_DISP_REP_POLYGON_TRUECOLOUR
  2
AecDbDispRepPolygonTrueColour
  3
AecBaseEx50|Product Desc: Autodesk Architectural Desktop 2007 |Company: Autodesk,Inc. |WEB Address: www.autodesk.com
 90
      129
280
     0
281
     0
  0
CLASS
  1
AEC_DISP_PROPS_POLYGON_TRUECOLOUR
  2
AecDbDispPropsPolygonTrueColour
  3
AecBaseEx50|Product Desc: Autodesk Architectural Desktop 2007 |Company: Autodesk,Inc. |WEB Address: www.autodesk.com
 90
      129
280
     0
281
     0
  0
CLASS
  1
AEC_DISP_REP_BDG_ELEVLINE_RCP
  2
AecDbDispRepBdgElevLineRcp
  3
AecArchBase50|Product Desc: Autodesk Architectural Desktop 2007 |Company: Autodesk,Inc. |WEB Address: www.autodesk.com
 90
      129
280
     0
281
     0
  0
CLASS
  1
AEC_DISP_REP_BDG_SECTIONLINE_RCP
  2
AecDbDispRepBdgSectionLineRcp
  3
AecArchBase50|Product Desc: Autodesk Architectural Desktop 2007 |Company: Autodesk,Inc. |WEB Address: www.autodesk.com
 90
      129
280
     0
281
     0
  0
CLASS
  1
AEC_DISP_REP_BDG_SECTION_MODEL
  2
AecDbDispRepBdgSectionModel
  3
AecArchBase50|Product Desc: Autodesk Architectural Desktop 2007 |Company: Autodesk,Inc. |WEB Address: www.autodesk.com
 90
      129
280
     0
281
     0
  0
CLASS
  1
AEC_DISP_REP_DOOR_ELEV
  2
AecDbDispRepDoorElev
  3
AecArchBase50|Product Desc: Autodesk Architectural Desktop 2007 |Company: Autodesk,Inc. |WEB Address: www.autodesk.com
 90
      129
280
     0
281
     0
  0
CLASS
  1
AEC_DISP_REP_DOOR_RCP
  2
AecDbDispRepDoorRcp
  3
AecArchBase50|Product Desc: Autodesk Architectural Desktop 2007 |Company: Autodesk,Inc. |WEB Address: www.autodesk.com
 90
      129
280
     0
281
     0
  0
CLASS
  1
AEC_DISP_REP_DOOR_THRESHOLD_PLAN
  2
AecDbDispRepDoorThresholdPlan
  3
AecArchBase50|Product Desc: Autodesk Architectural Desktop 2007 |Company: Autodesk,Inc. |WEB Address: www.autodesk.com
 90
      129
280
     0
281
     0
  0
CLASS
  1
AEC_DISP_PROPS_DOOR_THRESHOLD_PLAN
  2
AecDbDispPropsDoorThresholdPlan
  3
AecArchBase50|Product Desc: Autodesk Architectural Desktop 2007 |Company: Autodesk,Inc. |WEB Address: www.autodesk.com
 90
      129
280
     0
281
     0
  0
CLASS
  1
AEC_DISP_REP_MASS_ELEM_RCP
  2
AecDbDispRepMassElemRcp
  3
AecArchBase50|Product Desc: Autodesk Architectural Desktop 2007 |Company: Autodesk,Inc. |WEB Address: www.autodesk.com
 90
      129
280
     0
281
     0
  0
CLASS
  1
AEC_DISP_REP_MASS_GROUP_RCP
  2
AecDbDispRepMassGroupRcp
  3
AecArchBase50|Product Desc: Autodesk Architectural Desktop 2007 |Company: Autodesk,Inc. |WEB Address: www.autodesk.com
 90
      129
280
     0
281
     0
  0
CLASS
  1
AEC_DISP_REP_MVBLOCK_REF_RCP
  2
AecDbDispRepMvBlockRefRcp
  3
AecArchBase50|Product Desc: Autodesk Architectural Desktop 2007 |Company: Autodesk,Inc. |WEB Address: www.autodesk.com
 90
      129
280
     0
281
     0
  0
CLASS
  1
AEC_DISP_REP_ROOF_RCP
  2
AecDbDispRepRoofRcp
  3
AecArchBase50|Product Desc: Autodesk Architectural Desktop 2007 |Company: Autodesk,Inc. |WEB Address: www.autodesk.com
 90
      129
280
     0
281
     0
  0
CLASS
  1
AEC_DISP_REP_SPACE_BOUNDARY_DIAGRAM
  2
AecDbDispRepSpaceBoundaryDgrm
  3
AecArchBase50|Product Desc: Autodesk Architectural Desktop 2007 |Company: Autodesk,Inc. |WEB Address: www.autodesk.com
 90
    32897
280
     0
281
     0
  0
CLASS
  1
AEC_DISP_REP_SPACE_RCP
  2
AecDbDispRepSpaceRcp
  3
AecArchBase50|Product Desc: Autodesk Architectural Desktop 2007 |Company: Autodesk,Inc. |WEB Address: www.autodesk.com
 90
      129
280
     0
281
     0
  0
CLASS
  1
AEC_DISP_REP_SPACE_VOLUME
  2
AecDbDispRepSpaceVolume
  3
AecArchBase50|Product Desc: Autodesk Architectural Desktop 2007 |Company: Autodesk,Inc. |WEB Address: www.autodesk.com
 90
      129
280
     0
281
     0
  0
CLASS
  1
AEC_DISP_REP_STAIR_PLAN_OVERLAPPING
  2
AecDbDispRepStairPlanOverlapping
  3
AecArchBase50|Product Desc: Autodesk Architectural Desktop 2007 |Company: Autodesk,Inc. |WEB Address: www.autodesk.com
 90
      129
280
     0
281
     0
  0
CLASS
  1
AEC_DISP_PROPS_STAIR_PLAN_OVERLAPPING
  2
AecDbDispPropsStairPlanOverlapping
  3
AecArchBase50|Product Desc: Autodesk Architectural Desktop 2007 |Company: Autodesk,Inc. |WEB Address: www.autodesk.com
 90
      129
280
     0
281
     0
  0
CLASS
  1
AEC_DISP_REP_STAIR_RCP
  2
AecDbDispRepStairRcp
  3
AecArchBase50|Product Desc: Autodesk Architectural Desktop 2007 |Company: Autodesk,Inc. |WEB Address: www.autodesk.com
 90
      129
280
     0
281
     0
  0
CLASS
  1
AEC_DISP_REP_WALL_RCP
  2
AecDbDispRepWallRcp
  3
AecArchBase50|Product Desc: Autodesk Architectural Desktop 2007 |Company: Autodesk,Inc. |WEB Address: www.autodesk.com
 90
      129
280
     0
281
     0
  0
CLASS
  1
AEC_DISP_REP_WINDOWASSEMBLY_SILL_PLAN
  2
AecDbDispRepWindowAssemblySillPlan
  3
AecArchBase50|Product Desc: Autodesk Architectural Desktop 2007 |Company: Autodesk,Inc. |WEB Address: www.autodesk.com
 90
      129
280
     0
281
     0
  0
CLASS
  1
AEC_DISP_PROPS_WINDOW_ASSEMBLY_SILL_PLAN
  2
AecDbDispPropsWindowAssemblySillPlan
  3
AecArchBase50|Product Desc: Autodesk Architectural Desktop 2007 |Company: Autodesk,Inc. |WEB Address: www.autodesk.com
 90
      129
280
     0
281
     0
  0
CLASS
  1
AEC_DISP_REP_WINDOW_ELEV
  2
AecDbDispRepWindowElev
  3
AecArchBase50|Product Desc: Autodesk Architectural Desktop 2007 |Company: Autodesk,Inc. |WEB Address: www.autodesk.com
 90
      129
280
     0
281
     0
  0
CLASS
  1
AEC_DISP_REP_WINDOW_RCP
  2
AecDbDispRepWindowRcp
  3
AecArchBase50|Product Desc: Autodesk Architectural Desktop 2007 |Company: Autodesk,Inc. |WEB Address: www.autodesk.com
 90
      129
280
     0
281
     0
  0
CLASS
  1
AEC_DISP_REP_WINDOW_SILL_PLAN
  2
AecDbDispRepWindowSillPlan
  3
AecArchBase50|Product Desc: Autodesk Architectural Desktop 2007 |Company: Autodesk,Inc. |WEB Address: www.autodesk.com
 90
      129
280
     0
281
     0
  0
CLASS
  1
AEC_DISP_PROPS_WINDOW_SILL_PLAN
  2
AecDbDispPropsWindowSillPlan
  3
AecArchBase50|Product Desc: Autodesk Architectural Desktop 2007 |Company: Autodesk,Inc. |WEB Address: www.autodesk.com
 90
      129
280
     0
281
     0
  0
CLASS
  1
AEC_DISP_REP_ANCHOR_BUB_TO_GRID_RCP
  2
AecDbDispRepAnchorBubToGridRcp
  3
AecStructureBase50|Product Desc: Autodesk Architectural Desktop 2007 |Company: Autodesk,Inc. |WEB Address: www.autodesk.com
 90
      129
280
     0
281
     0
  0
CLASS
  1
AEC_DISP_REP_COLUMN_GRID_RCP
  2
AecDbDispRepColumnGridRcp
  3
AecStructureBase50|Product Desc: Autodesk Architectural Desktop 2007 |Company: Autodesk,Inc. |WEB Address: www.autodesk.com
 90
      129
280
     0
281
     0
  0
CLASS
  1
AECS_DISP_REP_MEMBER_ELEVATION_DESIGN
  2
AecsDbDispRepMemberElevationDesign
  3
AecStructureBase50|Product Desc: Autodesk Architectural Desktop 2007 |Company: Autodesk,Inc. |WEB Address: www.autodesk.com
 90
      129
280
     0
281
     0
  0
CLASS
  1
AECS_DISP_PROPS_MEMBER_PROJECTED
  2
AecsDbDispPropsMemberProjected
  3
AecStructureBase50|Product Desc: Autodesk Architectural Desktop 2007 |Company: Autodesk,Inc. |WEB Address: www.autodesk.com
 90
      129
280
     0
281
     0
  0
CLASS
  1
AECS_DISP_REP_MEMBER_ELEVATION_DETAIL
  2
AecsDbDispRepMemberElevationDetail
  3
AecStructureBase50|Product Desc: Autodesk Architectural Desktop 2007 |Company: Autodesk,Inc. |WEB Address: www.autodesk.com
 90
      129
280
     0
281
     0
  0
CLASS
  1
AECS_DISP_REP_MEMBER_MODEL_DETAIL
  2
AecsDbDispRepMemberModelDetail
  3
AecStructureBase50|Product Desc: Autodesk Architectural Desktop 2007 |Company: Autodesk,Inc. |WEB Address: www.autodesk.com
 90
      129
280
     0
281
     0
  0
CLASS
  1
AECS_DISP_REP_MEMBER_PLAN_DETAIL
  2
AecsDbDispRepMemberPlanDetail
  3
AecStructureBase50|Product Desc: Autodesk Architectural Desktop 2007 |Company: Autodesk,Inc. |WEB Address: www.autodesk.com
 90
      129
280
     0
281
     0
  0
CLASS
  1
AECS_DISP_REP_MEMBER_PLAN_SKETCH
  2
AecsDbDispRepMemberPlanSketch
  3
AecStructureBase50|Product Desc: Autodesk Architectural Desktop 2007 |Company: Autodesk,Inc. |WEB Address: www.autodesk.com
 90
      129
280
     0
281
     0
  0
CLASS
  1
AECS_DISP_PROPS_MEMBER_PLAN_SKETCH
  2
AecsDbDispPropsMemberPlanSketch
  3
AecStructureBase50|Product Desc: Autodesk Architectural Desktop 2007 |Company: Autodesk,Inc. |WEB Address: www.autodesk.com
 90
      129
280
     0
281
     0
  0
CLASS
  1
AEC_AECDBDISPREPAREA100
  2
AecDbDispRepArea100
  3
AecArchDACHBase50|Product Desc: Autodesk Architectural Desktop 2007 |Company: Autodesk,Inc. |WEB Address: www.autodesk.com
 90
    32897
280
     0
281
     0
  0
CLASS
  1
AEC_AECDBDISPREPAREAGROUP100
  2
AecDbDispRepAreaGroup100
  3
AecArchDACHBase50|Product Desc: Autodesk Architectural Desktop 2007 |Company: Autodesk,Inc. |WEB Address: www.autodesk.com
 90
    32897
280
     0
281
     0
  0
CLASS
  1
AEC_AECDBDISPREPBDGELEVLINEPLAN100
  2
AecDbDispRepBdgElevLinePlan100
  3
AecArchDACHBase50|Product Desc: Autodesk Architectural Desktop 2007 |Company: Autodesk,Inc. |WEB Address: www.autodesk.com
 90
      129
280
     0
281
     0
  0
CLASS
  1
AEC_AECDBDISPREPBDGSECTIONLINEPLAN100
  2
AecDbDispRepBdgSectionLinePlan100
  3
AecArchDACHBase50|Product Desc: Autodesk Architectural Desktop 2007 |Company: Autodesk,Inc. |WEB Address: www.autodesk.com
 90
      129
280
     0
281
     0
  0
CLASS
  1
AEC_AECDBDISPREPCEILINGGRIDPLAN100
  2
AecDbDispRepCeilingGridPlan100
  3
AecArchDACHBase50|Product Desc: Autodesk Architectural Desktop 2007 |Company: Autodesk,Inc. |WEB Address: www.autodesk.com
 90
      129
280
     0
281
     0
  0
CLASS
  1
AEC_AECDBDISPREPCOLUMNGRIDPLAN100
  2
AecDbDispRepColumnGridPlan100
  3
AecArchDACHBase50|Product Desc: Autodesk Architectural Desktop 2007 |Company: Autodesk,Inc. |WEB Address: www.autodesk.com
 90
      129
280
     0
281
     0
  0
CLASS
  1
AEC_AECDBDISPREPCURTAINWALLLAYOUTPLAN100
  2
AecDbDispRepCurtainWallLayoutPlan100
  3
AecArchDACHBase50|Product Desc: Autodesk Architectural Desktop 2007 |Company: Autodesk,Inc. |WEB Address: www.autodesk.com
 90
      129
280
     0
281
     0
  0
CLASS
  1
AEC_AECDBDISPREPCURTAINWALLUNITPLAN100
  2
AecDbDispRepCurtainWallUnitPlan100
  3
AecArchDACHBase50|Product Desc: Autodesk Architectural Desktop 2007 |Company: Autodesk,Inc. |WEB Address: www.autodesk.com
 90
      129
280
     0
281
     0
  0
CLASS
  1
AEC_AECDBDISPREPMVBLOCKREFPLAN100
  2
AecDbDispRepMvBlockRefPlan100
  3
AecArchDACHBase50|Product Desc: Autodesk Architectural Desktop 2007 |Company: Autodesk,Inc. |WEB Address: www.autodesk.com
 90
      129
280
     0
281
     0
  0
CLASS
  1
AEC_AECDBDISPREPROOFPLAN100
  2
AecDbDispRepRoofPlan100
  3
AecArchDACHBase50|Product Desc: Autodesk Architectural Desktop 2007 |Company: Autodesk,Inc. |WEB Address: www.autodesk.com
 90
      129
280
     0
281
     0
  0
CLASS
  1
AEC_AECDBDISPREPROOFSLABPLAN100
  2
AecDbDispRepRoofSlabPlan100
  3
AecArchDACHBase50|Product Desc: Autodesk Architectural Desktop 2007 |Company: Autodesk,Inc. |WEB Address: www.autodesk.com
 90
      129
280
     0
281
     0
  0
CLASS
  1
AEC_AECDBDISPREPSLABPLAN100
  2
AecDbDispRepSlabPlan100
  3
AecArchDACHBase50|Product Desc: Autodesk Architectural Desktop 2007 |Company: Autodesk,Inc. |WEB Address: www.autodesk.com
 90
      129
280
     0
281
     0
  0
CLASS
  1
AEC_AECDBDISPREPSPACEBOUNDARYPLAN100
  2
AecDbDispRepSpaceBoundaryPlan100
  3
AecArchDACHBase50|Product Desc: Autodesk Architectural Desktop 2007 |Company: Autodesk,Inc. |WEB Address: www.autodesk.com
 90
    32897
280
     0
281
     0
  0
CLASS
  1
AEC_AECDBDISPREPSPACEPLAN100
  2
AecDbDispRepSpacePlan100
  3
AecArchDACHBase50|Product Desc: Autodesk Architectural Desktop 2007 |Company: Autodesk,Inc. |WEB Address: www.autodesk.com
 90
      129
280
     0
281
     0
  0
CLASS
  1
AEC_AECDBDISPREPWALLPLAN100
  2
AecDbDispRepWallPlan100
  3
AecArchDACHBase50|Product Desc: Autodesk Architectural Desktop 2007 |Company: Autodesk,Inc. |WEB Address: www.autodesk.com
 90
      129
280
     0
281
     0
  0
CLASS
  1
AEC_AECDBDISPREPAREA50
  2
AecDbDispRepArea50
  3
AecArchDACHBase50|Product Desc: Autodesk Architectural Desktop 2007 |Company: Autodesk,Inc. |WEB Address: www.autodesk.com
 90
    32897
280
     0
281
     0
  0
CLASS
  1
AEC_AECDBDISPREPAREAGROUP50
  2
AecDbDispRepAreaGroup50
  3
AecArchDACHBase50|Product Desc: Autodesk Architectural Desktop 2007 |Company: Autodesk,Inc. |WEB Address: www.autodesk.com
 90
    32897
280
     0
281
     0
  0
CLASS
  1
AEC_AECDBDISPREPBDGELEVLINEPLAN50
  2
AecDbDispRepBdgElevLinePlan50
  3
AecArchDACHBase50|Product Desc: Autodesk Architectural Desktop 2007 |Company: Autodesk,Inc. |WEB Address: www.autodesk.com
 90
      129
280
     0
281
     0
  0
CLASS
  1
AEC_AECDBDISPREPBDGSECTIONLINEPLAN50
  2
AecDbDispRepBdgSectionLinePlan50
  3
AecArchDACHBase50|Product Desc: Autodesk Architectural Desktop 2007 |Company: Autodesk,Inc. |WEB Address: www.autodesk.com
 90
      129
280
     0
281
     0
  0
CLASS
  1
AEC_AECDBDISPREPCEILINGGRIDPLAN50
  2
AecDbDispRepCeilingGridPlan50
  3
AecArchDACHBase50|Product Desc: Autodesk Architectural Desktop 2007 |Company: Autodesk,Inc. |WEB Address: www.autodesk.com
 90
      129
280
     0
281
     0
  0
CLASS
  1
AEC_AECDBDISPREPCOLUMNGRIDPLAN50
  2
AecDbDispRepColumnGridPlan50
  3
AecArchDACHBase50|Product Desc: Autodesk Architectural Desktop 2007 |Company: Autodesk,Inc. |WEB Address: www.autodesk.com
 90
      129
280
     0
281
     0
  0
CLASS
  1
AEC_AECDBDISPREPCURTAINWALLLAYOUTPLAN50
  2
AecDbDispRepCurtainWallLayoutPlan50
  3
AecArchDACHBase50|Product Desc: Autodesk Architectural Desktop 2007 |Company: Autodesk,Inc. |WEB Address: www.autodesk.com
 90
      129
280
     0
281
     0
  0
CLASS
  1
AEC_AECDBDISPREPCURTAINWALLUNITPLAN50
  2
AecDbDispRepCurtainWallUnitPlan50
  3
AecArchDACHBase50|Product Desc: Autodesk Architectural Desktop 2007 |Company: Autodesk,Inc. |WEB Address: www.autodesk.com
 90
      129
280
     0
281
     0
  0
CLASS
  1
AEC_AECDBDISPREPMVBLOCKREFPLAN50
  2
AecDbDispRepMvBlockRefPlan50
  3
AecArchDACHBase50|Product Desc: Autodesk Architectural Desktop 2007 |Company: Autodesk,Inc. |WEB Address: www.autodesk.com
 90
      129
280
     0
281
     0
  0
CLASS
  1
AEC_AECDBDISPREPROOFPLAN50
  2
AecDbDispRepRoofPlan50
  3
AecArchDACHBase50|Product Desc: Autodesk Architectural Desktop 2007 |Company: Autodesk,Inc. |WEB Address: www.autodesk.com
 90
      129
280
     0
281
     0
  0
CLASS
  1
AEC_AECDBDISPREPROOFSLABPLAN50
  2
AecDbDispRepRoofSlabPlan50
  3
AecArchDACHBase50|Product Desc: Autodesk Architectural Desktop 2007 |Company: Autodesk,Inc. |WEB Address: www.autodesk.com
 90
      129
280
     0
281
     0
  0
CLASS
  1
AEC_AECDBDISPREPSLABPLAN50
  2
AecDbDispRepSlabPlan50
  3
AecArchDACHBase50|Product Desc: Autodesk Architectural Desktop 2007 |Company: Autodesk,Inc. |WEB Address: www.autodesk.com
 90
      129
280
     0
281
     0
  0
CLASS
  1
AEC_AECDBDISPREPSPACEBOUNDARYPLAN50
  2
AecDbDispRepSpaceBoundaryPlan50
  3
AecArchDACHBase50|Product Desc: Autodesk Architectural Desktop 2007 |Company: Autodesk,Inc. |WEB Address: www.autodesk.com
 90
    32897
280
     0
281
     0
  0
CLASS
  1
AEC_AECDBDISPREPSPACEPLAN50
  2
AecDbDispRepSpacePlan50
  3
AecArchDACHBase50|Product Desc: Autodesk Architectural Desktop 2007 |Company: Autodesk,Inc. |WEB Address: www.autodesk.com
 90
      129
280
     0
281
     0
  0
CLASS
  1
AEC_AECDBDISPREPWALLPLAN50
  2
AecDbDispRepWallPlan50
  3
AecArchDACHBase50|Product Desc: Autodesk Architectural Desktop 2007 |Company: Autodesk,Inc. |WEB Address: www.autodesk.com
 90
      129
280
     0
281
     0
  0
CLASS
  1
AEC_AECDBDISPREPWINDOWASSEMBLYPLAN50
  2
AecDbDispRepWindowAssemblyPlan50
  3
AecArchDACHBase50|Product Desc: Autodesk Architectural Desktop 2007 |Company: Autodesk,Inc. |WEB Address: www.autodesk.com
 90
      129
280
     0
281
     0
  0
CLASS
  1
AEC_DB_DISP_REP_DIM_GROUP_PLAN100
  2
AecDbDispRepDimGroupPlan100
  3
AecArchDACHBase50|Product Desc: Autodesk Architectural Desktop 2007 |Company: Autodesk,Inc. |WEB Address: www.autodesk.com
 90
      129
280
     0
281
     0
  0
CLASS
  1
AEC_DB_DISP_REP_DIM_GROUP_PLAN50
  2
AecDbDispRepDimGroupPlan50
  3
AecArchDACHBase50|Product Desc: Autodesk Architectural Desktop 2007 |Company: Autodesk,Inc. |WEB Address: www.autodesk.com
 90
      129
280
     0
281
     0
  0
CLASS
  1
AEC_DISP_REP_DOOR_PLAN_50
  2
AecDbDispRepDoorPlan50
  3
AecArchDACHBase50|Product Desc: Autodesk Architectural Desktop 2007 |Company: Autodesk,Inc. |WEB Address: www.autodesk.com
 90
      129
280
     0
281
     0
  0
CLASS
  1
AEC_DISP_PROPS_DOOR_PLAN_50
  2
AecDbDispPropsDoorPlan50
  3
AecArchDACHBase50|Product Desc: Autodesk Architectural Desktop 2007 |Company: Autodesk,Inc. |WEB Address: www.autodesk.com
 90
      129
280
     0
281
     0
  0
CLASS
  1
AEC_DISP_REP_DOOR_PLAN_HEKTO
  2
AecDbDispRepDoorPlanHekto
  3
AecArchDACHBase50|Product Desc: Autodesk Architectural Desktop 2007 |Company: Autodesk,Inc. |WEB Address: www.autodesk.com
 90
      129
280
     0
281
     0
  0
CLASS
  1
AEC_DISP_PROPS_DOOR_PLAN_100
  2
AecDbDispPropsDoorPlan100
  3
AecArchDACHBase50|Product Desc: Autodesk Architectural Desktop 2007 |Company: Autodesk,Inc. |WEB Address: www.autodesk.com
 90
      129
280
     0
281
     0
  0
CLASS
  1
AEC_DISP_REP_DOOR_THRESHOLD_SYMBOL_PLAN
  2
AecDbDispRepDoorThresholdSymbolPlan
  3
AecArchDACHBase50|Product Desc: Autodesk Architectural Desktop 2007 |Company: Autodesk,Inc. |WEB Address: www.autodesk.com
 90
      129
280
     0
281
     0
  0
CLASS
  1
AEC_DISP_PROPS_DOOR_THRESHOLD_SYMBOL_PLAN
  2
AecDbDispPropsDoorThresholdSymbolPlan
  3
AecArchDACHBase50|Product Desc: Autodesk Architectural Desktop 2007 |Company: Autodesk,Inc. |WEB Address: www.autodesk.com
 90
      129
280
     0
281
     0
  0
CLASS
  1
AEC_DISPREPAECDBDISPREPMASSELEMPLAN100
  2
AecDbDispRepMassElemPlan100
  3
AecArchDACHBase50|Product Desc: Autodesk Architectural Desktop 2007 |Company: Autodesk,Inc. |WEB Address: www.autodesk.com
 90
      129
280
     0
281
     0
  0
CLASS
  1
AEC_DISPROPSMASSELEMPLANCOMMON
  2
AecDbDispPropsMassElemPlanCommon
  3
AecArchDACHBase50|Product Desc: Autodesk Architectural Desktop 2007 |Company: Autodesk,Inc. |WEB Address: www.autodesk.com
 90
      129
280
     0
281
     0
  0
CLASS
  1
AEC_DISPREPAECDBDISPREPMASSELEMPLAN50
  2
AecDbDispRepMassElemPlan50
  3
AecArchDACHBase50|Product Desc: Autodesk Architectural Desktop 2007 |Company: Autodesk,Inc. |WEB Address: www.autodesk.com
 90
      129
280
     0
281
     0
  0
CLASS
  1
AEC_DISPREPAECDBDISPREPMASSGROUPPLAN100
  2
AecDbDispRepMassGroupPlan100
  3
AecArchDACHBase50|Product Desc: Autodesk Architectural Desktop 2007 |Company: Autodesk,Inc. |WEB Address: www.autodesk.com
 90
      129
280
     0
281
     0
  0
CLASS
  1
AEC_DISPROPSMASSGROUPPLANCOMMON
  2
AecDbDispPropsMassGroupPlanCommon
  3
AecArchDACHBase50|Product Desc: Autodesk Architectural Desktop 2007 |Company: Autodesk,Inc. |WEB Address: www.autodesk.com
 90
      129
280
     0
281
     0
  0
CLASS
  1
AEC_DISPREPAECDBDISPREPMASSGROUPPLAN50
  2
AecDbDispRepMassGroupPlan50
  3
AecArchDACHBase50|Product Desc: Autodesk Architectural Desktop 2007 |Company: Autodesk,Inc. |WEB Address: www.autodesk.com
 90
      129
280
     0
281
     0
  0
CLASS
  1
AEC_DISPREPAECDBDISPREPOPENINGPLAN100
  2
AecDbDispRepOpeningPlan100
  3
AecArchDACHBase50|Product Desc: Autodesk Architectural Desktop 2007 |Company: Autodesk,Inc. |WEB Address: www.autodesk.com
 90
      129
280
     0
281
     0
  0
CLASS
  1
AEC_DISPROPSOPENINGPLANCOMMONHATCHED
  2
AecDbDispPropsOpeningPlanCommonHatched
  3
AecArchDACHBase50|Product Desc: Autodesk Architectural Desktop 2007 |Company: Autodesk,Inc. |WEB Address: www.autodesk.com
 90
      129
280
     0
281
     0
  0
CLASS
  1
AEC_DISPREPAECDBDISPREPOPENINGPLAN50
  2
AecDbDispRepOpeningPlan50
  3
AecArchDACHBase50|Product Desc: Autodesk Architectural Desktop 2007 |Company: Autodesk,Inc. |WEB Address: www.autodesk.com
 90
      129
280
     0
281
     0
  0
CLASS
  1
AEC_DISPREPAECDBDISPREPOPENINGPLANREFLECTED
  2
AecDbDispRepOpeningPlanReflected
  3
AecArchDACHBase50|Product Desc: Autodesk Architectural Desktop 2007 |Company: Autodesk,Inc. |WEB Address: www.autodesk.com
 90
      129
280
     0
281
     0
  0
CLASS
  1
AEC_DISPROPSOPENINGPLANCOMMON
  2
AecDbDispPropsOpeningPlanCommon
  3
AecArchDACHBase50|Product Desc: Autodesk Architectural Desktop 2007 |Company: Autodesk,Inc. |WEB Address: www.autodesk.com
 90
      129
280
     0
281
     0
  0
CLASS
  1
AEC_DISPREPAECDBDISPREPOPENINGSILLPLAN
  2
AecDbDispRepOpeningSillPlan
  3
AecArchDACHBase50|Product Desc: Autodesk Architectural Desktop 2007 |Company: Autodesk,Inc. |WEB Address: www.autodesk.com
 90
      129
280
     0
281
     0
  0
CLASS
  1
AEC_DISPROPSOPENINGSILLPLAN
  2
AecDbDispPropsOpeningSillPlan
  3
AecArchDACHBase50|Product Desc: Autodesk Architectural Desktop 2007 |Company: Autodesk,Inc. |WEB Address: www.autodesk.com
 90
      129
280
     0
281
     0
  0
CLASS
  1
AEC_DISP_REP_RAILING_PLAN_100
  2
AecDbDispRepRailingPlan100
  3
AecArchDACHBase50|Product Desc: Autodesk Architectural Desktop 2007 |Company: Autodesk,Inc. |WEB Address: www.autodesk.com
 90
      129
280
     0
281
     0
  0
CLASS
  1
AEC_DISP_ROPS_RAILING_PLAN_100
  2
AecDbDispPropsRailingPlan100
  3
AecArchDACHBase50|Product Desc: Autodesk Architectural Desktop 2007 |Company: Autodesk,Inc. |WEB Address: www.autodesk.com
 90
      129
280
     0
281
     0
  0
CLASS
  1
AEC_DISP_REP_RAILING_PLAN_50
  2
AecDbDispRepRailingPlan50
  3
AecArchDACHBase50|Product Desc: Autodesk Architectural Desktop 2007 |Company: Autodesk,Inc. |WEB Address: www.autodesk.com
 90
      129
280
     0
281
     0
  0
CLASS
  1
AEC_DISP_ROPS_RAILING_PLAN_50
  2
AecDbDispPropsRailingPlan50
  3
AecArchDACHBase50|Product Desc: Autodesk Architectural Desktop 2007 |Company: Autodesk,Inc. |WEB Address: www.autodesk.com
 90
      129
280
     0
281
     0
  0
CLASS
  1
AEC_DISP_REP_STAIR_PLAN_100
  2
AecDbDispRepStairPlan100
  3
AecArchDACHBase50|Product Desc: Autodesk Architectural Desktop 2007 |Company: Autodesk,Inc. |WEB Address: www.autodesk.com
 90
      129
280
     0
281
     0
  0
CLASS
  1
AEC_DISP_ROPS_STAIR_PLAN_100
  2
AecDbDispPropsStairPlan100
  3
AecArchDACHBase50|Product Desc: Autodesk Architectural Desktop 2007 |Company: Autodesk,Inc. |WEB Address: www.autodesk.com
 90
      129
280
     0
281
     0
  0
CLASS
  1
AEC_DISP_REP_STAIR_PLAN_50
  2
AecDbDispRepStairPlan50
  3
AecArchDACHBase50|Product Desc: Autodesk Architectural Desktop 2007 |Company: Autodesk,Inc. |WEB Address: www.autodesk.com
 90
      129
280
     0
281
     0
  0
CLASS
  1
AEC_DISP_ROPS_STAIR_PLAN_50
  2
AecDbDispPropsStairPlan50
  3
AecArchDACHBase50|Product Desc: Autodesk Architectural Desktop 2007 |Company: Autodesk,Inc. |WEB Address: www.autodesk.com
 90
      129
280
     0
281
     0
  0
CLASS
  1
AEC_DISP_REP_WINDOW_PLAN_100
  2
AecDbDispRepWindowPlan100
  3
AecArchDACHBase50|Product Desc: Autodesk Architectural Desktop 2007 |Company: Autodesk,Inc. |WEB Address: www.autodesk.com
 90
      129
280
     0
281
     0
  0
CLASS
  1
AEC_DISP_PROPS_WINDOW_PLAN_100
  2
AecDbDispPropsWindowPlan100
  3
AecArchDACHBase50|Product Desc: Autodesk Architectural Desktop 2007 |Company: Autodesk,Inc. |WEB Address: www.autodesk.com
 90
      129
280
     0
281
     0
  0
CLASS
  1
AEC_DISP_REP_WINDOW_PLAN_50
  2
AecDbDispRepWindowPlan50
  3
AecArchDACHBase50|Product Desc: Autodesk Architectural Desktop 2007 |Company: Autodesk,Inc. |WEB Address: www.autodesk.com
 90
      129
280
     0
281
     0
  0
CLASS
  1
AEC_DISP_PROPS_WINDOW_PLAN_50
  2
AecDbDispPropsWindowPlan50
  3
AecArchDACHBase50|Product Desc: Autodesk Architectural Desktop 2007 |Company: Autodesk,Inc. |WEB Address: www.autodesk.com
 90
      129
280
     0
281
     0
  0
CLASS
  1
BINRECORD
  2
AcAecBinRecord
  3
AecBase50|Product Desc: Autodesk Architectural Desktop 2007 |Company: Autodesk,Inc. |WEB Address: www.autodesk.com
 90
      129
280
     0
281
     0
  0
CLASS
  1
SORTENTSTABLE
  2
AcDbSortentsTable
  3
ObjectDBX Classes
 90
        0
280
     0
281
     0
  0
CLASS
  1
AEC_MASS_ELEM
  2
AecDbMassElem
  3
AecBaseEx50|Product Desc: Autodesk Architectural Desktop 2007 |Company: Autodesk,Inc. |WEB Address: www.autodesk.com
 90
    33661
280
     0
281
     1
  0
CLASS
  1
MATERIAL
  2
AcDbMaterial
  3
ObjectDBX Classes
 90
     1153
280
     0
281
     0
  0
CLASS
  1
AECS_MEMBER
  2
AecsDbMember
  3
AecStructureBase50|Product Desc: Autodesk Architectural Desktop 2007 |Company: Autodesk,Inc. |WEB Address: www.autodesk.com
 90
    33661
280
     0
281
     1
  0
CLASS
  1
AEC_WALL
  2
AecDbWall
  3
AecArchBase50|Product Desc: Autodesk Architectural Desktop 2007 |Company: Autodesk,Inc. |WEB Address: www.autodesk.com
 90
    33661
280
     0
281
     1
  0
CLASS
  1
AEC_DOOR
  2
AecDbDoor
  3
AecArchBase50|Product Desc: Autodesk Architectural Desktop 2007 |Company: Autodesk,Inc. |WEB Address: www.autodesk.com
 90
    33661
280
     0
281
     1
  0
CLASS
  1
AEC_ANCHOR_OPENINGBASE_TO_WALL
  2
AecDbAnchorOpeningBaseToWall
  3
AecArchBase50|Product Desc: Autodesk Architectural Desktop 2007 |Company: Autodesk,Inc. |WEB Address: www.autodesk.com
 90
    32897
280
     0
281
     0
  0
CLASS
  1
AEC_SPACE_BOUNDARY
  2
AecDbSpaceBoundary
  3
AecArchBase50|Product Desc: Autodesk Architectural Desktop 2007 |Company: Autodesk,Inc. |WEB Address: www.autodesk.com
 90
    33661
280
     0
281
     1
  0
CLASS
  1
AEC_SPACE
  2
AecDbSpace
  3
AecArchBase50|Product Desc: Autodesk Architectural Desktop 2007 |Company: Autodesk,Inc. |WEB Address: www.autodesk.com
 90
    33661
280
     0
281
     1
  0
CLASS
  1
AecDbPropertySet
  2
AecDbPropertySet
  3
AecScheduleData50|Product Desc: Autodesk Architectural Desktop 2007 |Company: Autodesk,Inc. |WEB Address: www.autodesk.com
 90
    32897
280
     0
281
     0
  0
CLASS
  1
AEC_MVBLOCK_REF
  2
AecDbMvBlockRef
  3
AecBase50|Product Desc: Autodesk Architectural Desktop 2007 |Company: Autodesk,Inc. |WEB Address: www.autodesk.com
 90
    33661
280
     0
281
     1
  0
CLASS
  1
AEC_ANCHOR_TAG_TO_ENT
  2
AecDbAnchorTagToEnt
  3
AecScheduleData50|Product Desc: Autodesk Architectural Desktop 2007 |Company: Autodesk,Inc. |WEB Address: www.autodesk.com
 90
    32897
280
     0
281
     0
  0
CLASS
  1
AEC_WINDOW
  2
AecDbWindow
  3
AecArchBase50|Product Desc: Autodesk Architectural Desktop 2007 |Company: Autodesk,Inc. |WEB Address: www.autodesk.com
 90
    33661
280
     0
281
     1
  0
CLASS
  1
AEC_OPENING
  2
AecDbOpening
  3
AecArchBase50|Product Desc: Autodesk Architectural Desktop 2007 |Company: Autodesk,Inc. |WEB Address: www.autodesk.com
 90
    33661
280
     0
281
     1
  0
CLASS
  1
AEC_CLASSIFICATION_SYSTEM_DEF
  2
AecDbClassificationSystemDef
  3
AecBase50|Product Desc: Autodesk Architectural Desktop 2007 |Company: Autodesk,Inc. |WEB Address: www.autodesk.com
 90
    32897
280
     0
281
     0
  0
CLASS
  1
AEC_CLASSIFICATION_DEF
  2
AecDbClassificationDef
  3
AecBase50|Product Desc: Autodesk Architectural Desktop 2007 |Company: Autodesk,Inc. |WEB Address: www.autodesk.com
 90
    32897
280
     0
281
     0
  0
CLASS
  1
AEC_CLEANUP_GROUP_DEF
  2
AecDbCleanupGroupDef
  3
AecArchBase50|Product Desc: Autodesk Architectural Desktop 2007 |Company: Autodesk,Inc. |WEB Address: www.autodesk.com
 90
    32897
280
     0
281
     0
  0
CLASS
  1
AEC_DOOR_STYLE
  2
AecDbDoorStyle
  3
AecArchBase50|Product Desc: Autodesk Architectural Desktop 2007 |Company: Autodesk,Inc. |WEB Address: www.autodesk.com
 90
    32897
280
     0
281
     0
  0
CLASS
  1
AEC_STDSIZE_OPENINGS
  2
AecDbStdSizeOpeningList
  3
AecArchBase50|Product Desc: Autodesk Architectural Desktop 2007 |Company: Autodesk,Inc. |WEB Address: www.autodesk.com
 90
    32897
280
     0
281
     0
  0
CLASS
  1
AEC_ENDCAP_STYLE
  2
AecDbEndcapStyle
  3
AecArchBase50|Product Desc: Autodesk Architectural Desktop 2007 |Company: Autodesk,Inc. |WEB Address: www.autodesk.com
 90
    32897
280
     0
281
     0
  0
CLASS
  1
AEC_MASS_ELEM_STYLE
  2
AecDbMassElemStyle
  3
AecBaseEx50|Product Desc: Autodesk Architectural Desktop 2007 |Company: Autodesk,Inc. |WEB Address: www.autodesk.com
 90
    32897
280
     0
281
     0
  0
CLASS
  1
AEC_MATERIAL_DEF
  2
AecDbMaterialDef
  3
AecBase50|Product Desc: Autodesk Architectural Desktop 2007 |Company: Autodesk,Inc. |WEB Address: www.autodesk.com
 90
    32897
280
     0
281
     0
  0
CLASS
  1
AEC_MVBLOCK_DEF
  2
AecDbMvBlockDef
  3
AecBase50|Product Desc: Autodesk Architectural Desktop 2007 |Company: Autodesk,Inc. |WEB Address: www.autodesk.com
 90
    32897
280
     0
281
     0
  0
CLASS
  1
AEC_FRAME_DEF
  2
AecDbOpeningEndcapStyle
  3
AecArchBase50|Product Desc: Autodesk Architectural Desktop 2007 |Company: Autodesk,Inc. |WEB Address: www.autodesk.com
 90
    32897
280
     0
281
     0
  0
CLASS
  1
AEC_PROFILE_DEF
  2
AecDbProfileDef
  3
AecBase50|Product Desc: Autodesk Architectural Desktop 2007 |Company: Autodesk,Inc. |WEB Address: www.autodesk.com
 90
    32897
280
     0
281
     0
  0
CLASS
  1
AEC_SCHEDULE_DATA_FORMAT
  2
AecDbScheduleDataFormat
  3
AecScheduleData50|Product Desc: Autodesk Architectural Desktop 2007 |Company: Autodesk,Inc. |WEB Address: www.autodesk.com
 90
    32897
280
     0
281
     0
  0
CLASS
  1
AEC_PROPERTY_SET_DEF
  2
AecDbPropertySetDef
  3
AecScheduleData50|Product Desc: Autodesk Architectural Desktop 2007 |Company: Autodesk,Inc. |WEB Address: www.autodesk.com
 90
    32897
280
     0
281
     0
  0
CLASS
  1
AEC_SPACE_STYLES
  2
AecDbSpaceStyle
  3
AecArchBase50|Product Desc: Autodesk Architectural Desktop 2007 |Company: Autodesk,Inc. |WEB Address: www.autodesk.com
 90
    32897
280
     0
281
     0
  0
CLASS
  1
AEC_TEXT_NOTE
  2
AecDbTextNote
  3
AecBase50|Product Desc: Autodesk Architectural Desktop 2007 |Company: Autodesk,Inc. |WEB Address: www.autodesk.com
 90
    32897
280
     0
281
     0
  0
CLASS
  1
AECS_MEMBER_STYLE
  2
AecsDbMemberStyle
  3
AecStructureBase50|Product Desc: Autodesk Architectural Desktop 2007 |Company: Autodesk,Inc. |WEB Address: www.autodesk.com
 90
    32897
280
     0
281
     0
  0
CLASS
  1
AEC_VARS_STRUCTUREBASE
  2
AecsDbVarsStructureBase
  3
AecStructureBase50|Product Desc: Autodesk Architectural Desktop 2007 |Company: Autodesk,Inc. |WEB Address: www.autodesk.com
 90
    32897
280
     0
281
     0
  0
CLASS
  1
AEC_WALL_STYLE
  2
AecDbWallStyle
  3
AecArchBase50|Product Desc: Autodesk Architectural Desktop 2007 |Company: Autodesk,Inc. |WEB Address: www.autodesk.com
 90
    32897
280
     0
281
     0
  0
CLASS
  1
AEC_WINDOW_STYLE
  2
AecDbWindowStyle
  3
AecArchBase50|Product Desc: Autodesk Architectural Desktop 2007 |Company: Autodesk,Inc. |WEB Address: www.autodesk.com
 90
    32897
280
     0
281
     0
  0
CLASS
  1
AECS_MEMBER_NODE_SHAPE
  2
AecsDbMemberNodeShape
  3
AecStructureBase50|Product Desc: Autodesk Architectural Desktop 2007 |Company: Autodesk,Inc. |WEB Address: www.autodesk.com
 90
    32897
280
     0
281
     0
  0
CLASS
  1
AEC_SCHEDULE_TABLE
  2
AecDbScheduleTable
  3
AecSchedule50|Product Desc: Autodesk Architectural Desktop 2007 |Company: Autodesk,Inc. |WEB Address: www.autodesk.com
 90
    33661
280
     0
281
     1
  0
CLASS
  1
AEC_SCHEDULE_TABLE_STYLE
  2
AecDbScheduleTableStyle
  3
AecSchedule50|Product Desc: Autodesk Architectural Desktop 2007 |Company: Autodesk,Inc. |WEB Address: www.autodesk.com
 90
    32897
280
     0
281
     0
  0
CLASS
  1
AEC_ANCHOR_MVB_TO_UCS
  2
AecDbAnchorMVBToUCS
  3
AecBase50|Product Desc: Autodesk Architectural Desktop 2007 |Company: Autodesk,Inc. |WEB Address: www.autodesk.com
 90
    32897
280
     0
281
     0
  0
CLASS
  1
IMAGEDEF
  2
AcDbRasterImageDef
  3
ISM
 90
    32768
280
     0
281
     0
  0
CLASS
  1
AEC_ANCHOR_ENT_TO_GRID_ASSEMBLY
  2
AecDbAnchorEntToGridAssembly
  3
AecBaseEx50|Product Desc: Autodesk Architectural Desktop 2007 |Company: Autodesk,Inc. |WEB Address: www.autodesk.com
 90
    32897
280
     0
281
     0
  0
CLASS
  1
AEC_WINDOW_ASSEMBLY
  2
AecDbWindowAssembly
  3
AecArchBase50|Product Desc: Autodesk Architectural Desktop 2007 |Company: Autodesk,Inc. |WEB Address: www.autodesk.com
 90
    33661
280
     0
281
     1
  0
CLASS
  1
AEC_ANCHOR_WINASSEMBLY_TO_WALL
  2
AecDbAnchorWinAssemblyToWall
  3
AecArchBase50|Product Desc: Autodesk Architectural Desktop 2007 |Company: Autodesk,Inc. |WEB Address: www.autodesk.com
 90
    32897
280
     0
281
     0
  0
CLASS
  1
AEC_STAIR
  2
AecDbStair
  3
AecArchBase50|Product Desc: Autodesk Architectural Desktop 2007 |Company: Autodesk,Inc. |WEB Address: www.autodesk.com
 90
    33661
280
     0
281
     1
  0
CLASS
  1
AEC_RAILING
  2
AecDbRailing
  3
AecArchBase50|Product Desc: Autodesk Architectural Desktop 2007 |Company: Autodesk,Inc. |WEB Address: www.autodesk.com
 90
    33661
280
     0
281
     1
  0
CLASS
  1
AEC_ANCHOR_RAILING_TO_STAIR
  2
AecDbAnchorRailingToStair
  3
AecArchBase50|Product Desc: Autodesk Architectural Desktop 2007 |Company: Autodesk,Inc. |WEB Address: www.autodesk.com
 90
    32897
280
     0
281
     0
  0
CLASS
  1
AEC_RAILING_STYLE
  2
AecDbRailingStyle
  3
AecArchBase50|Product Desc: Autodesk Architectural Desktop 2007 |Company: Autodesk,Inc. |WEB Address: www.autodesk.com
 90
    32897
280
     0
281
     0
  0
CLASS
  1
AEC_STAIR_STYLE
  2
AecDbStairStyle
  3
AecArchBase50|Product Desc: Autodesk Architectural Desktop 2007 |Company: Autodesk,Inc. |WEB Address: www.autodesk.com
 90
    32897
280
     0
281
     0
  0
CLASS
  1
AEC_STAIR_WINDER_STYLE
  2
AecDbStairWinderStyle
  3
AecArchBase50|Product Desc: Autodesk Architectural Desktop 2007 |Company: Autodesk,Inc. |WEB Address: www.autodesk.com
 90
    32897
280
     0
281
     0
  0
CLASS
  1
AEC_STAIR_WINDER_TYPE_SINGLE_POINT
  2
AecDbStairWinderTypeSinglePoint
  3
AecArchBase50|Product Desc: Autodesk Architectural Desktop 2007 |Company: Autodesk,Inc. |WEB Address: www.autodesk.com
 90
    32897
280
     0
281
     0
  0
CLASS
  1
AEC_WINDOW_ASSEMBLY_STYLE
  2
AecDbWindowAssemblyStyle
  3
AecArchBase50|Product Desc: Autodesk Architectural Desktop 2007 |Company: Autodesk,Inc. |WEB Address: www.autodesk.com
 90
    32897
280
     0
281
     0
  0
CLASS
  1
AEC_AECDBAREASTYLE
  2
AecDbAreaStyle
  3
AecAreaCalculationBase50|Product Desc: Autodesk Architectural Desktop 2007 |Company: Autodesk,Inc. |WEB Address: www.autodesk.com
 90
    32897
280
     0
281
     0
  0
CLASS
  1
AEC_AECDBAREAPROPOSALNAMES
  2
AecDbAreaProposalNames
  3
AecAreaCalculationBase50|Product Desc: Autodesk Architectural Desktop 2007 |Company: Autodesk,Inc. |WEB Address: www.autodesk.com
 90
    32897
280
     0
281
     0
  0
CLASS
  1
AEC_AREA
  2
AecDbArea
  3
AecAreaCalculationBase50|Product Desc: Autodesk Architectural Desktop 2007 |Company: Autodesk,Inc. |WEB Address: www.autodesk.com
 90
    33661
280
     0
281
     1
  0
CLASS
  1
OBJECT_PTR
  2
CAseDLPNTableRecord
  3
ASE-LPNTableRecord
 90
    32769
280
     1
281
     0
  0
CLASS
  1
TABLESTYLE
  2
AcDbTableStyle
  3
ObjectDBX Classes
 90
     4095
280
     0
281
     0
  0
CLASS
  1
AEC_DISP_REP_DISPLAYTHEME
  2
AecDbDispRepDisplayTheme
  3
AecBase50|Product Desc: Autodesk Architectural Desktop 2007 |Company: Autodesk,Inc. |WEB Address: www.autodesk.com
 90
      129
280
     0
281
     0
  0
CLASS
  1
AEC_DISP_PROPS_DISPLAYTHEME
  2
AecDbDispPropsDisplayTheme
  3
AecBase50|Product Desc: Autodesk Architectural Desktop 2007 |Company: Autodesk,Inc. |WEB Address: www.autodesk.com
 90
      129
280
     0
281
     0
  0
CLASS
  1
AEC_DISP_REP_ANCHOR_EXT_TAG_TO_ENT
  2
AecDbDispRepAnchorExtendedTagToEnt
  3
AecScheduleData50|Product Desc: Autodesk Architectural Desktop 2007 |Company: Autodesk,Inc. |WEB Address: www.autodesk.com
 90
      129
280
     0
281
     0
  0
CLASS
  1
VISUALSTYLE
  2
AcDbVisualStyle
  3
ObjectDBX Classes
 90
     4095
280
     0
281
     0
  0
CLASS
  1
AEC_AECDBDISPREPZONE100
  2
AecDbDispRepZonePlan100
  3
AecArchDACHBase50|Product Desc: Autodesk Architectural Desktop 2007 |Company: Autodesk,Inc. |WEB Address: www.autodesk.com
 90
      129
280
     0
281
     0
  0
CLASS
  1
AEC_DISP_PROPS_ZONE
  2
AecDbDispPropsZone
  3
AecArchBase50|Product Desc: Autodesk Architectural Desktop 2007 |Company: Autodesk,Inc. |WEB Address: www.autodesk.com
 90
      129
280
     0
281
     0
  0
CLASS
  1
AEC_AECDBDISPREPZONE50
  2
AecDbDispRepZonePlan50
  3
AecArchDACHBase50|Product Desc: Autodesk Architectural Desktop 2007 |Company: Autodesk,Inc. |WEB Address: www.autodesk.com
 90
      129
280
     0
281
     0
  0
CLASS
  1
AEC_DISP_REP_SPACE_DECOMPOSED
  2
AecDbDispRepSpaceDecomposed
  3
AecArchBase50|Product Desc: Autodesk Architectural Desktop 2007 |Company: Autodesk,Inc. |WEB Address: www.autodesk.com
 90
      129
280
     0
281
     0
  0
CLASS
  1
AEC_DISP_PROPS_SPACE_DECOMPOSED
  2
AecDbDispPropsSpaceDecomposed
  3
AecArchBase50|Product Desc: Autodesk Architectural Desktop 2007 |Company: Autodesk,Inc. |WEB Address: www.autodesk.com
 90
      129
280
     0
281
     0
  0
CLASS
  1
AEC_DISP_REP_ZONE
  2
AecDbDispRepZone
  3
AecArchBase50|Product Desc: Autodesk Architectural Desktop 2007 |Company: Autodesk,Inc. |WEB Address: www.autodesk.com
 90
      129
280
     0
281
     0
  0
CLASS
  1
AEC_LIST_DEF
  2
AecDbListDefinition
  3
AecBase50|Product Desc: Autodesk Architectural Desktop 2007 |Company: Autodesk,Inc. |WEB Address: www.autodesk.com
 90
    32897
280
     0
281
     0
  0
CLASS
  1
EXACXREFPANELOBJECT
  2
ExAcXREFPanelObject
  3
EXAC_ESW
 90
     1025
280
     1
281
     0
  0
CLASS
  1
NPOCOLLECTION
  2
AcDbImpNonPersistentObjectsCollection
  3
ObjectDBX Classes
 90
     1153
280
     0
281
     0
  0
CLASS
  1
ACAD_EVALUATION_GRAPH
  2
AcDbEvalGraph
  3
ObjectDBX Classes
 90
    33921
280
     0
281
     0
  0
CLASS
  1
BLOCKLINEARPARAMETER
  2
AcDbBlockLinearParameter
  3
ObjectDBX Classes
 90
    33921
280
     0
281
     0
  0
CLASS
  1
BLOCKLINEARGRIP
  2
AcDbBlockLinearGrip
  3
ObjectDBX Classes
 90
    33921
280
     0
281
     0
  0
CLASS
  1
BLOCKGRIPLOCATIONCOMPONENT
  2
AcDbBlockGripExpr
  3
ObjectDBX Classes
 90
    33921
280
     0
281
     0
  0
CLASS
  1
BLOCKSTRETCHACTION
  2
AcDbBlockStretchAction
  3
ObjectDBX Classes
 90
    33921
280
     0
281
     0
  0
CLASS
  1
BLOCKFLIPPARAMETER
  2
AcDbBlockFlipParameter
  3
ObjectDBX Classes
 90
    33921
280
     0
281
     0
  0
CLASS
  1
BLOCKFLIPGRIP
  2
AcDbBlockFlipGrip
  3
ObjectDBX Classes
 90
    33921
280
     0
281
     0
  0
CLASS
  1
BLOCKFLIPACTION
  2
AcDbBlockFlipAction
  3
ObjectDBX Classes
 90
    33921
280
     0
281
     0
  0
CLASS
  1
ACDB_DYNAMICBLOCKPURGEPREVENTER_VERSION
  2
AcDbDynamicBlockPurgePreventer
  3
ObjectDBX Classes
 90
    33921
280
     0
281
     0
  0
CLASS
  1
ACDB_BLOCKREPRESENTATION_DATA
  2
AcDbBlockRepresentationData
  3
ObjectDBX Classes
 90
    33921
280
     0
281
     0
  0
CLASS
  1
AEC_SLAB
  2
AecDbSlab
  3
AecArchBase50|Product Desc: Autodesk Architectural Desktop 2007 |Company: Autodesk,Inc. |WEB Address: www.autodesk.com
 90
    33661
280
     0
281
     1
  0
CLASS
  1
AEC_LIST_DEF
  2
AecDbListItem
  3
AecBase50|Product Desc: Autodesk Architectural Desktop 2007 |Company: Autodesk,Inc. |WEB Address: www.autodesk.com
 90
    32897
280
     0
281
     0
  0
CLASS
  1
AEC_ROOFSLAB_STYLE
  2
AecDbRoofSlabStyle
  3
AecArchBase50|Product Desc: Autodesk Architectural Desktop 2007 |Company: Autodesk,Inc. |WEB Address: www.autodesk.com
 90
    32897
280
     0
281
     0
  0
CLASS
  1
AEC_ROOFSLABEDGE_STYLE
  2
AecDbRoofSlabEdgeStyle
  3
AecArchBase50|Product Desc: Autodesk Architectural Desktop 2007 |Company: Autodesk,Inc. |WEB Address: www.autodesk.com
 90
    32897
280
     0
281
     0
  0
CLASS
  1
AEC_SLAB_STYLE
  2
AecDbSlabStyle
  3
AecArchBase50|Product Desc: Autodesk Architectural Desktop 2007 |Company: Autodesk,Inc. |WEB Address: www.autodesk.com
 90
    32897
280
     0
281
     0
  0
CLASS
  1
AEC_SLABEDGE_STYLE
  2
AecDbSlabEdgeStyle
  3
AecArchBase50|Product Desc: Autodesk Architectural Desktop 2007 |Company: Autodesk,Inc. |WEB Address: www.autodesk.com
 90
    32897
280
     0
281
     0
  0
CLASS
  1
EXACTERMXREFMAP
  2
ExAcTermXrefMap
  3
EXAC_SERVICE
 90
    33793
280
     1
281
     0
  0
CLASS
  1
AEC_AECDBZONESTYLE
  2
AecDbZoneStyle
  3
AecArchBase50|Product Desc: Autodesk Architectural Desktop 2007 |Company: Autodesk,Inc. |WEB Address: www.autodesk.com
 90
    32897
280
     0
281
     0
  0
CLASS
  1
AEC_ZONE
  2
AecDbZone
  3
AecArchBase50|Product Desc: Autodesk Architectural Desktop 2007 |Company: Autodesk,Inc. |WEB Address: www.autodesk.com
 90
    33661
280
     0
281
     1
  0
CLASS
  1
ACAD_TABLE
  2
AcDbTable
  3
ObjectDBX Classes
 90
    33793
280
     0
281
     1
  0
CLASS
  1
AEC_DISPLAYTHEME_STYLE
  2
AecDbDisplayThemeStyle
  3
AecBase50|Product Desc: Autodesk Architectural Desktop 2007 |Company: Autodesk,Inc. |WEB Address: www.autodesk.com
 90
    32897
280
     0
281
     0
  0
CLASS
  1
DIMASSOC
  2
AcDbDimAssoc
  3
"AcDbDimAssoc|Product Desc:     AcDim ARX App For Dimension|Company:          Autodesk, Inc.|WEB Address:      www.autodesk.com"
 90
    32768
280
     0
281
     0
  0
CLASS
  1
AEC_MASS_GROUP
  2
AecDbMassGroup
  3
AecBaseEx50|Product Desc: Autodesk Architectural Desktop 2007 |Company: Autodesk,Inc. |WEB Address: www.autodesk.com
 90
    33661
280
     0
281
     1
  0
CLASS
  1
AEC_ANCHOR_ENT_TO_ENT
  2
AecDbAnchorEntToEnt
  3
AecBaseEx50|Product Desc: Autodesk Architectural Desktop 2007 |Company: Autodesk,Inc. |WEB Address: www.autodesk.com
 90
    32897
280
     0
281
     0
  0
CLASS
  1
AEC_2D_SECTION
  2
AecDb2dSection
  3
AecBase50|Product Desc: Autodesk Architectural Desktop 2007 |Company: Autodesk,Inc. |WEB Address: www.autodesk.com
 90
    33661
280
     0
281
     1
  0
CLASS
  1
AEC_2DSECTION_STYLE
  2
AecDb2dSectionStyle
  3
AecBase50|Product Desc: Autodesk Architectural Desktop 2007 |Company: Autodesk,Inc. |WEB Address: www.autodesk.com
 90
    32897
280
     0
281
     0
  0
CLASS
  1
SCALE
  2
AcDbScale
  3
ObjectDBX Classes
 90
     1153
280
     0
281
     0
  0
CLASS
  1
MLEADERSTYLE
  2
AcDbMLeaderStyle
  3
ACDB_MLEADERSTYLE_CLASS
 90
     4095
280
     0
281
     0
  0
CLASS
  1
AEC_REFEDIT_STATUS_TRACKER
  2
AecDbRefEditStatusTracker
  3
AecArchBase50|Product Desc: Autodesk Architectural Desktop 2007 |Company: Autodesk,Inc. |WEB Address: www.autodesk.com
 90
    32897
280
     0
281
     0
  0
CLASS
  1
CELLSTYLEMAP
  2
AcDbCellStyleMap
  3
ObjectDBX Classes
 90
     1152
280
     0
281
     0
  0
CLASS
  1
BLOCKARRAYACTION
  2
AcDbBlockArrayAction
  3
ObjectDBX Classes
 90
    33921
280
     0
281
     0
  0
CLASS
  1
BLOCKBASEPOINTPARAMETER
  2
AcDbBlockBasepointParameter
  3
ObjectDBX Classes
 90
    33921
280
     0
281
     0
  0
CLASS
  1
SOLID_BACKGROUND
  2
AcDbSolidBackground
  3
SCENEOE
 90
    36863
280
     0
281
     0
  0
ENDSEC
  0
SECTION
  2
TABLES
  0
TABLE
  2
VPORT
  5
28
330
0
100
AcDbSymbolTable
 70
     1
  0
VPORT
  5
29
330
28
100
AcDbSymbolTableRecord
100
AcDbViewportTableRecord
  2
*Active
 70
     0
 10
0.0
 20
0.0
 11
1.0
 21
1.0
 12
68970.49466593578
 22
-9202.028338604902
 13
-3534.953416816247
 23
4038.000000000049
 14
1.0
 24
1.0
 15
1.0
 25
1.0
 16
0.0
 26
0.0
 36
1.0
 17
0.0
 27
0.0
 37
0.0
 40
27715.99346328838
 41
1.853197674418604
 42
50.0
 43
0.0
 44
0.0
 50
0.0
 51
0.0
 71
     0
 72
  2000
 73
     1
 74
     1
 75
     0
 76
     0
 77
     0
 78
     0
281
     0
 65
     1
110
0.0
120
0.0
130
0.0
111
1.0
121
0.0
131
0.0
112
0.0
122
1.0
132
0.0
 79
     0
146
0.0
  0
ENDTAB
  0
TABLE
  2
LTYPE
  5
23
330
0
100
AcDbSymbolTable
 70
     2
  0
LTYPE
  5
24
330
23
100
AcDbSymbolTableRecord
100
AcDbLinetypeTableRecord
  2
BYBLOCK
 70
     0
  3

 72
    65
 73
     0
 40
0.0
  0
LTYPE
  5
25
330
23
100
AcDbSymbolTableRecord
100
AcDbLinetypeTableRecord
  2
BYLAYER
 70
     0
  3

 72
    65
 73
     0
 40
0.0
  0
LTYPE
  5
E
330
23
100
AcDbSymbolTableRecord
100
AcDbLinetypeTableRecord
  2
CONTINUOUS
 70
     0
  3
Solid line
 72
    65
 73
     0
 40
0.0
  0
LTYPE
  5
77
330
23
100
AcDbSymbolTableRecord
100
AcDbLinetypeTableRecord
  2
DASHED
 70
     0
  3
Dashed __ __ __ __ __ __ __ __ __ __ __ __ __ _
 72
    65
 73
     2
 40
0.75
 49
0.5
 74
     0
 49
-0.25
 74
     0
  0
ENDTAB
  0
TABLE
  2
LAYER
  5
1D
102
{ACAD_XDICTIONARY
360
1E
102
}
330
0
100
AcDbSymbolTable
 70
     5
  0
LAYER
  5
6
102
{ACAD_XDICTIONARY
360
7
102
}
330
1D
100
AcDbSymbolTableRecord
100
AcDbLayerTableRecord
  2
0
 70
     0
 62
     7
  6
CONTINUOUS
370
    -3
390
9
1001
RAK
1000
{ACET-LAYISO
1070
     0
1070
     7
1000
CONTINUOUS
1070
     1
1071
       -3
1071
        1
1005
9
1000
ACET-LAYISO}
  0
LAYER
  5
74
102
{ACAD_XDICTIONARY
360
75
102
}
330
1D
100
AcDbSymbolTableRecord
100
AcDbLayerTableRecord
  2
NAPISY
 70
     0
 62
   140
  6
CONTINUOUS
370
    -3
390
9
1001
RAK
1000
{ACET-LAYISO
1070
     0
1070
   140
1000
CONTINUOUS
1071
       -3
1071
        1
1005
9
1000
ACET-LAYISO}
  0
LAYER
  5
3B5
330
1D
100
AcDbSymbolTableRecord
100
AcDbLayerTableRecord
  2
Defpoints
 70
     0
 62
     7
  6
CONTINUOUS
290
     0
370
    -3
390
9
1001
RAK
1000
{ACET-LAYISO
1070
     0
1070
     7
1000
CONTINUOUS
1071
       -3
1071
        0
1005
9
1000
ACET-LAYISO}
  0
LAYER
  5
56
102
{ACAD_XDICTIONARY
360
57
102
}
330
1D
100
AcDbSymbolTableRecord
100
AcDbLayerTableRecord
  2
0Wymiary-PL
 70
     0
 62
     1
  6
CONTINUOUS
370
     5
390
9
  0
LAYER
  5
7E
102
{ACAD_XDICTIONARY
360
7F
102
}
330
1D
100
AcDbSymbolTableRecord
100
AcDbLayerTableRecord
  2
RAMKI-A4
 70
     0
 62
     2
  6
CONTINUOUS
290
     0
370
    -3
390
9
1001
RAK
1000
{ACET-LAYISO
1070
     0
1070
     2
1000
Continuous
1071
       -3
1071
        0
1005
9
1000
ACET-LAYISO}
  0
ENDTAB
  0
TABLE
  2
STYLE
  5
20
330
0
100
AcDbSymbolTable
 70
     4
  0
STYLE
  5
21
330
20
100
AcDbSymbolTableRecord
100
AcDbTextStyleTableRecord
  2
STANDARD
 70
     0
 40
0.0
 41
1.0
 50
0.0
 71
     0
 42
0.2
  3
txt
  4

  0
STYLE
  5
2E
330
20
100
AcDbSymbolTableRecord
100
AcDbTextStyleTableRecord
  2
ROMANS
 70
     0
 40
0.0
 41
0.9
 50
0.0
 71
     0
 42
5.0
  3
romans.shx
  4

  0
STYLE
  5
79
330
20
100
AcDbSymbolTableRecord
100
AcDbTextStyleTableRecord
  2
AVA
 70
     0
 40
0.0
 41
1.0
 50
0.0
 71
     0
 42
20.0
  3
ARIAL.TTF
  4

1001
ACAD
1000
Arial CE
1071
    60962
  0
ENDTAB
  0
TABLE
  2
VIEW
  5
26
330
0
100
AcDbSymbolTable
 70
     1
  0
VIEW
  5
13
330
26
100
AcDbSymbolTableRecord
100
AcDbViewTableRecord
  2
10-ele
 70
     0
 40
2040.000000000001
 10
597.6361962217097
 20
4133.999999999996
 41
2803.999999999998
 11
0.0
 21
0.0
 31
1.0
 12
0.0
 22
0.0
 32
0.0
 42
50.0
 43
0.0
 44
0.0
 50
0.0
 71
     0
281
     0
 72
     1
110
0.0
120
0.0
130
0.0
111
1.0
121
0.0
131
0.0
112
0.0
122
1.0
132
0.0
 79
     0
146
0.0
  0
ENDTAB
  0
TABLE
  2
UCS
  5
27
330
0
100
AcDbSymbolTable
 70
     1
  0
ENDTAB
  0
TABLE
  2
APPID
  5
2A
330
0
100
AcDbSymbolTable
 70
    12
  0
APPID
  5
2B
330
2A
100
AcDbSymbolTableRecord
100
AcDbRegAppTableRecord
  2
ACAD
 70
     0
  0
APPID
  5
F
330
2A
100
AcDbSymbolTableRecord
100
AcDbRegAppTableRecord
  2
RAK
 70
     0
  0
APPID
  5
16
330
2A
100
AcDbSymbolTableRecord
100
AcDbRegAppTableRecord
  2
ACAD_PSEXT
 70
     0
  0
APPID
  5
7AA
330
2A
100
AcDbSymbolTableRecord
100
AcDbRegAppTableRecord
  2
ACAD_MLEADERVER
 70
     0
  0
APPID
  5
B8E
330
2A
100
AcDbSymbolTableRecord
100
AcDbRegAppTableRecord
  2
ACAD_EXEMPT_FROM_CAD_STANDARDS
 70
     0
  0
APPID
  5
132A
330
2A
100
AcDbSymbolTableRecord
100
AcDbRegAppTableRecord
  2
AcAecLayerStandard
 70
     0
  0
APPID
  5
2057
330
2A
100
AcDbSymbolTableRecord
100
AcDbRegAppTableRecord
  2
AcLayerTools
 70
     0
  0
APPID
  5
2319
330
2A
100
AcDbSymbolTableRecord
100
AcDbRegAppTableRecord
  2
AEC_XDATA_BOUND_SPACE
 70
     0
  0
APPID
  5
231E
330
2A
100
AcDbSymbolTableRecord
100
AcDbRegAppTableRecord
  2
DCO15
 70
     0
  0
APPID
  5
313D
330
2A
100
AcDbSymbolTableRecord
100
AcDbRegAppTableRecord
  2
AECBASE
 70
     0
  0
APPID
  5
313E
330
2A
100
AcDbSymbolTableRecord
100
AcDbRegAppTableRecord
  2
AEC_OBJVER_INFO
 70
     0
  0
APPID
  5
313F
330
2A
100
AcDbSymbolTableRecord
100
AcDbRegAppTableRecord
  2
AcadAnnoAV
 70
     0
  0
ENDTAB
  0
TABLE
  2
DIMSTYLE
  5
2C
330
0
100
AcDbSymbolTable
 70
     4
100
AcDbDimStyleTable
 71
     2
340
2D
340
4C
  0
DIMSTYLE
105
4C
330
2C
100
AcDbSymbolTableRecord
100
AcDbDimStyleTableRecord
  2
Standard
 70
     0
340
21
  0
DIMSTYLE
105
2D
102
{ACAD_REACTORS
330
25CF
330
25DA
330
25F7
330
2602
330
260D
330
2618
330
2623
330
2CEA
330
2CEB
330
2CEC
330
2CED
330
2CEE
330
2CEF
330
2CF0
102
}
330
2C
100
AcDbSymbolTableRecord
100
AcDbDimStyleTableRecord
  2
500
 70
     0
 41
30.0
 42
43.0
 43
0.0
 44
13.0
 45
0.5
 46
12.0
 73
     0
 74
     0
 75
     1
 76
     1
 78
    12
140
80.0
141
0.0
145
1.0
147
0.0
172
     1
174
     1
176
     1
177
     1
178
   140
271
     1
272
     1
279
     2
340
2E
341
2F
342
2F
  0
ENDTAB
  0
TABLE
  2
BLOCK_RECORD
  5
1
330
0
100
AcDbSymbolTable
 70
    16
  0
BLOCK_RECORD
  5
2
102
{ACAD_XDICTIONARY
360
3
102
}
330
1
100
AcDbSymbolTableRecord
100
AcDbBlockTableRecord
  2
*MODEL_SPACE
340
11
  0
BLOCK_RECORD
  5
1942
330
1
100
AcDbSymbolTableRecord
100
AcDbBlockTableRecord
  2
*Paper_Space
340
1943
  0
BLOCK_RECORD
  5
2F
102
{ACAD_XDICTIONARY
360
30
102
}
330
1
100
AcDbSymbolTableRecord
100
AcDbBlockTableRecord
  2
B-DIM
340
0
102
{BLKREFS
331
2EF4
331
2EF5
331
2F1E
331
2F1F
331
2F48
331
2F49
331
2F72
331
2F73
331
2F9C
331
2F9D
331
2FD2
331
2FD3
331
2FFC
331
2FFD
331
3026
331
3027
331
3050
331
3051
331
307A
331
307B
331
30A4
331
30A5
331
30CE
331
30CF
331
3104
331
3105
331
312E
331
312F
102
}
  0
BLOCK_RECORD
  5
25D0
330
1
100
AcDbSymbolTableRecord
100
AcDbBlockTableRecord
  2
*D1
340
0
  0
BLOCK_RECORD
  5
25DB
330
1
100
AcDbSymbolTableRecord
100
AcDbBlockTableRecord
  2
*D2
340
0
  0
BLOCK_RECORD
  5
25F8
330
1
100
AcDbSymbolTableRecord
100
AcDbBlockTableRecord
  2
*D3
340
0
  0
BLOCK_RECORD
  5
2603
330
1
100
AcDbSymbolTableRecord
100
AcDbBlockTableRecord
  2
*D4
340
0
  0
BLOCK_RECORD
  5
260E
330
1
100
AcDbSymbolTableRecord
100
AcDbBlockTableRecord
  2
*D5
340
0
  0
BLOCK_RECORD
  5
2619
330
1
100
AcDbSymbolTableRecord
100
AcDbBlockTableRecord
  2
*D6
340
0
  0
BLOCK_RECORD
  5
2624
330
1
100
AcDbSymbolTableRecord
100
AcDbBlockTableRecord
  2
*D7
340
0
  0
BLOCK_RECORD
  5
2DEB
330
1
100
AcDbSymbolTableRecord
100
AcDbBlockTableRecord
  2
*D8
340
0
  0
BLOCK_RECORD
  5
2DF5
330
1
100
AcDbSymbolTableRecord
100
AcDbBlockTableRecord
  2
*D9
340
0
  0
BLOCK_RECORD
  5
2E01
330
1
100
AcDbSymbolTableRecord
100
AcDbBlockTableRecord
  2
*D10
340
0
  0
BLOCK_RECORD
  5
2E0B
330
1
100
AcDbSymbolTableRecord
100
AcDbBlockTableRecord
  2
*D11
340
0
  0
BLOCK_RECORD
  5
2E15
330
1
100
AcDbSymbolTableRecord
100
AcDbBlockTableRecord
  2
*D12
340
0
  0
BLOCK_RECORD
  5
2E1F
330
1
100
AcDbSymbolTableRecord
100
AcDbBlockTableRecord
  2
*D13
340
0
  0
BLOCK_RECORD
  5
2E29
330
1
100
AcDbSymbolTableRecord
100
AcDbBlockTableRecord
  2
*D14
340
0
  0
ENDTAB
  0
ENDSEC
  0
SECTION
  2
BLOCKS
  0
BLOCK
  5
5
330
2
100
AcDbEntity
  8
0
100
AcDbBlockBegin
  2
*MODEL_SPACE
 70
     0
 10
0.0
 20
0.0
 30
0.0
  3
*MODEL_SPACE
  1

  0
ENDBLK
  5
10
330
2
100
AcDbEntity
  8
0
100
AcDbBlockEnd
  0
BLOCK
  5
1944
330
1942
100
AcDbEntity
 67
     1
  8
0
 48
4.0
100
AcDbBlockBegin
  2
*Paper_Space
 70
     0
 10
0.0
 20
0.0
 30
0.0
  3
*Paper_Space
  1

  0
ENDBLK
  5
1945
330
1942
100
AcDbEntity
 67
     1
  8
0
 48
4.0
100
AcDbBlockEnd
  0
BLOCK
  5
32
330
2F
100
AcDbEntity
  8
0
100
AcDbBlockBegin
  2
B-DIM
 70
     0
 10
0.0
 20
0.0
 30
0.0
  3
B-DIM
  1

  0
LINE
  5
33
330
2F
100
AcDbEntity
  8
0
 62
     1
100
AcDbLine
 10
0.000000000000091
 20
-1.1
 30
0.0
 11
0.000000000000091
 21
1.1
 31
0.0
  0
LWPOLYLINE
  5
34
330
2F
100
AcDbEntity
  8
0
 62
     1
100
AcDbPolyline
 90
        2
 70
     0
 43
0.3
 10
-0.7071067811864851
 20
-0.7071067811864851
 10
0.707106781186576
 20
0.707106781186576
  0
LINE
  5
35
330
2F
100
AcDbEntity
  8
0
 62
     1
100
AcDbLine
 10
1.20000000000009
 20
0.0
 30
0.0
 11
-1.199999999999909
 21
0.0
 31
0.0
  0
ENDBLK
  5
36
330
2F
100
AcDbEntity
  8
0
100
AcDbBlockEnd
  0
BLOCK
  5
25D1
330
25D0
100
AcDbEntity
  8
0
 48
4.0
100
AcDbBlockBegin
  2
*D1
 70
     1
 10
0.0
 20
0.0
 30
0.0
  3
*D1
  1

  0
LINE
  5
312D
330
25D0
100
AcDbEntity
  8
0Wymiary-PL
 62
     1
 48
4.0
370
    -2
100
AcDbLine
 10
69689.64576803753
 20
-1883.987685730506
 30
0.0
 11
70779.64576803753
 21
-1883.987685730506
 31
0.0
  0
INSERT
  5
312E
330
25D0
100
AcDbEntity
  8
0Wymiary-PL
 62
     1
 48
4.0
370
    -2
100
AcDbBlockReference
  2
B-DIM
 10
69659.64576803753
 20
-1883.987685730506
 30
0.0
 41
30.0
 42
30.0
 43
30.0
 50
180.0
  0
INSERT
  5
312F
330
25D0
100
AcDbEntity
  8
0Wymiary-PL
 62
     1
 48
4.0
370
    -2
100
AcDbBlockReference
  2
B-DIM
 10
70809.64576803753
 20
-1883.987685730506
 30
0.0
 41
30.0
 42
30.0
 43
30.0
  0
MTEXT
  5
3130
330
25D0
100
AcDbEntity
  8
0Wymiary-PL
 62
   140
 48
4.0
100
AcDbMText
 10
70234.64576803753
 20
-1803.987685730506
 30
0.0
 40
80.0
 41
0.0
 71
     5
 72
     1
  1
\A1;1150
  7
ROMANS
 73
     1
 44
1.0
1001
ACAD
1000
MTEXTBEGIN
1070
    73
1070
     1
1070
    44
1040
1.0
1070
    74
1070
     0
1000
MTEXTEND
  0
POINT
  5
3131
330
25D0
100
AcDbEntity
  8
Defpoints
 62
     0
 48
4.0
100
AcDbPoint
 10
69659.64576803753
 20
-2225.530030499685
 30
0.0
  0
POINT
  5
3132
330
25D0
100
AcDbEntity
  8
Defpoints
 62
     0
 48
4.0
100
AcDbPoint
 10
70809.64576803753
 20
-2225.530030499685
 30
0.0
  0
POINT
  5
3133
330
25D0
100
AcDbEntity
  8
Defpoints
 62
     0
 48
4.0
100
AcDbPoint
 10
70809.64576803753
 20
-1883.987685730506
 30
0.0
  0
ENDBLK
  5
25D2
330
25D0
100
AcDbEntity
  8
0
 48
4.0
100
AcDbBlockEnd
  0
BLOCK
  5
25DC
330
25DB
100
AcDbEntity
  8
0
 48
4.0
100
AcDbBlockBegin
  2
*D2
 70
     1
 10
0.0
 20
0.0
 30
0.0
  3
*D2
  1

  0
LINE
  5
3101
330
25DB
100
AcDbEntity
  8
0Wymiary-PL
 62
     1
 48
4.0
370
    -2
100
AcDbLine
 10
70779.64576803753
 20
-1883.987685730506
 30
0.0
 11
70749.64576803753
 21
-1883.987685730506
 31
0.0
  0
LINE
  5
3102
330
25DB
100
AcDbEntity
  8
0Wymiary-PL
 62
     1
 48
4.0
370
    -2
100
AcDbLine
 10
70939.64576803752
 20
-1883.987685730506
 30
0.0
 11
70969.64576803752
 21
-1883.987685730506
 31
0.0
  0
LINE
  5
3103
330
25DB
100
AcDbEntity
  8
0Wymiary-PL
 62
     1
 48
4.0
370
    -2
100
AcDbLine
 10
70809.64576803753
 20
-1883.987685730506
 30
0.0
 11
70909.64576803751
 21
-1883.987685730506
 31
0.0
  0
INSERT
  5
3104
330
25DB
100
AcDbEntity
  8
0Wymiary-PL
 62
     1
 48
4.0
370
    -2
100
AcDbBlockReference
  2
B-DIM
 10
70809.64576803753
 20
-1883.987685730506
 30
0.0
 41
30.0
 42
30.0
 43
30.0
  0
INSERT
  5
3105
330
25DB
100
AcDbEntity
  8
0Wymiary-PL
 62
     1
 48
4.0
370
    -2
100
AcDbBlockReference
  2
B-DIM
 10
70909.64576803751
 20
-1883.987685730506
 30
0.0
 41
30.0
 42
30.0
 43
30.0
 50
180.0
  0
MTEXT
  5
3106
330
25DB
100
AcDbEntity
  8
0Wymiary-PL
 62
   140
 48
4.0
100
AcDbMText
 10
70859.64576803753
 20
-1803.987685730506
 30
0.0
 40
80.0
 41
0.0
 71
     5
 72
     1
  1
\A1;100
  7
ROMANS
 73
     1
 44
1.0
1001
ACAD
1000
MTEXTBEGIN
1070
    73
1070
     1
1070
    44
1040
1.0
1070
    74
1070
     0
1000
MTEXTEND
  0
POINT
  5
3107
330
25DB
100
AcDbEntity
  8
Defpoints
 62
     0
 48
4.0
100
AcDbPoint
 10
70809.64576803753
 20
-2225.530030499685
 30
0.0
  0
POINT
  5
3108
330
25DB
100
AcDbEntity
  8
Defpoints
 62
     0
 48
4.0
100
AcDbPoint
 10
70909.64576803751
 20
-2580.530030499688
 30
0.0
  0
POINT
  5
3109
330
25DB
100
AcDbEntity
  8
Defpoints
 62
     0
 48
4.0
100
AcDbPoint
 10
70909.64576803751
 20
-1883.987685730506
 30
0.0
  0
ENDBLK
  5
25DD
330
25DB
100
AcDbEntity
  8
0
 48
4.0
100
AcDbBlockEnd
  0
BLOCK
  5
25F9
330
25F8
100
AcDbEntity
  8
0
 48
4.0
100
AcDbBlockBegin
  2
*D3
 70
     1
 10
0.0
 20
0.0
 30
0.0
  3
*D3
  1

  0
LINE
  5
30CD
330
25F8
100
AcDbEntity
  8
0Wymiary-PL
 62
     1
 48
4.0
370
    -2
100
AcDbLine
 10
69689.64576803753
 20
-4171.19874061725
 30
0.0
 11
70879.64576803751
 21
-4171.19874061725
 31
0.0
  0
INSERT
  5
30CE
330
25F8
100
AcDbEntity
  8
0Wymiary-PL
 62
     1
 48
4.0
370
    -2
100
AcDbBlockReference
  2
B-DIM
 10
69659.64576803753
 20
-4171.19874061725
 30
0.0
 41
30.0
 42
30.0
 43
30.0
 50
180.0
  0
INSERT
  5
30CF
330
25F8
100
AcDbEntity
  8
0Wymiary-PL
 62
     1
 48
4.0
370
    -2
100
AcDbBlockReference
  2
B-DIM
 10
70909.64576803751
 20
-4171.19874061725
 30
0.0
 41
30.0
 42
30.0
 43
30.0
  0
MTEXT
  5
30D0
330
25F8
100
AcDbEntity
  8
0Wymiary-PL
 62
   140
 48
4.0
100
AcDbMText
 10
70284.64576803753
 20
-4091.19874061725
 30
0.0
 40
80.0
 41
0.0
 71
     5
 72
     1
  1
\A1;1250
  7
ROMANS
 73
     1
 44
1.0
1001
ACAD
1000
MTEXTBEGIN
1070
    73
1070
     1
1070
    44
1040
1.0
1070
    74
1070
     0
1000
MTEXTEND
  0
POINT
  5
30D1
330
25F8
100
AcDbEntity
  8
Defpoints
 62
     0
 48
4.0
100
AcDbPoint
 10
69659.64576803753
 20
-2367.237443469873
 30
0.0
  0
POINT
  5
30D2
330
25F8
100
AcDbEntity
  8
Defpoints
 62
     0
 48
4.0
100
AcDbPoint
 10
70909.64576803751
 20
-2797.237443469871
 30
0.0
  0
POINT
  5
30D3
330
25F8
100
AcDbEntity
  8
Defpoints
 62
     0
 48
4.0
100
AcDbPoint
 10
70909.64576803751
 20
-4171.19874061725
 30
0.0
  0
ENDBLK
  5
25FA
330
25F8
100
AcDbEntity
  8
0
 48
4.0
100
AcDbBlockEnd
  0
BLOCK
  5
2604
330
2603
100
AcDbEntity
  8
0
 48
4.0
100
AcDbBlockBegin
  2
*D4
 70
     1
 10
0.0
 20
0.0
 30
0.0
  3
*D4
  1

  0
LINE
  5
30A3
330
2603
100
AcDbEntity
  8
0Wymiary-PL
 62
     1
 48
4.0
370
    -2
100
AcDbLine
 10
69182.45665154715
 20
-2479.86122497684
 30
0.0
 11
69182.45665154715
 21
-3279.861224976838
 31
0.0
  0
INSERT
  5
30A4
330
2603
100
AcDbEntity
  8
0Wymiary-PL
 62
     1
 48
4.0
370
    -2
100
AcDbBlockReference
  2
B-DIM
 10
69182.45665154715
 20
-2449.861224976841
 30
0.0
 41
30.0
 42
30.0
 43
30.0
 50
90.0
  0
INSERT
  5
30A5
330
2603
100
AcDbEntity
  8
0Wymiary-PL
 62
     1
 48
4.0
370
    -2
100
AcDbBlockReference
  2
B-DIM
 10
69182.45665154715
 20
-3309.861224976839
 30
0.0
 41
30.0
 42
30.0
 43
30.0
 50
270.0
  0
MTEXT
  5
30A6
330
2603
100
AcDbEntity
  8
0Wymiary-PL
 62
   140
 48
4.0
100
AcDbMText
 10
69102.45665154715
 20
-2879.861224976828
 30
0.0
 40
80.0
 41
0.0
 71
     5
 72
     1
  1
\A1;860
  7
ROMANS
 11
0.0000000000000001
 21
1.0
 31
0.0
 73
     1
 44
1.0
1001
ACAD
1000
MTEXTBEGIN
1070
    73
1070
     1
1070
    44
1040
1.0
1070
    74
1070
     0
1000
MTEXTEND
  0
POINT
  5
30A7
330
2603
100
AcDbEntity
  8
Defpoints
 62
     0
 48
4.0
100
AcDbPoint
 10
69323.86423037252
 20
-2449.861224976841
 30
0.0
  0
POINT
  5
30A8
330
2603
100
AcDbEntity
  8
Defpoints
 62
     0
 48
4.0
100
AcDbPoint
 10
69323.86423037252
 20
-3309.861224976839
 30
0.0
  0
POINT
  5
30A9
330
2603
100
AcDbEntity
  8
Defpoints
 62
     0
 48
4.0
100
AcDbPoint
 10
69182.45665154715
 20
-3309.861224976839
 30
0.0
  0
ENDBLK
  5
2605
330
2603
100
AcDbEntity
  8
0
 48
4.0
100
AcDbBlockEnd
  0
BLOCK
  5
260F
330
260E
100
AcDbEntity
  8
0
 48
4.0
100
AcDbBlockBegin
  2
*D5
 70
     1
 10
0.0
 20
0.0
 30
0.0
  3
*D5
  1

  0
LINE
  5
3079
330
260E
100
AcDbEntity
  8
0Wymiary-PL
 62
     1
 48
4.0
370
    -2
100
AcDbLine
 10
71373.07566776455
 20
-2479.86122497684
 30
0.0
 11
71373.07566776455
 21
-2674.861224976849
 31
0.0
  0
INSERT
  5
307A
330
260E
100
AcDbEntity
  8
0Wymiary-PL
 62
     1
 48
4.0
370
    -2
100
AcDbBlockReference
  2
B-DIM
 10
71373.07566776455
 20
-2449.861224976841
 30
0.0
 41
30.0
 42
30.0
 43
30.0
 50
90.0
  0
INSERT
  5
307B
330
260E
100
AcDbEntity
  8
0Wymiary-PL
 62
     1
 48
4.0
370
    -2
100
AcDbBlockReference
  2
B-DIM
 10
71373.07566776455
 20
-2704.86122497685
 30
0.0
 41
30.0
 42
30.0
 43
30.0
 50
270.0
  0
MTEXT
  5
307C
330
260E
100
AcDbEntity
  8
0Wymiary-PL
 62
   140
 48
4.0
100
AcDbMText
 10
71293.07566776455
 20
-2577.361224976833
 30
0.0
 40
80.0
 41
0.0
 71
     5
 72
     1
  1
\A1;255
  7
ROMANS
 11
0.0000000000000001
 21
1.0
 31
0.0
 73
     1
 44
1.0
1001
ACAD
1000
MTEXTBEGIN
1070
    73
1070
     1
1070
    44
1040
1.0
1070
    74
1070
     0
1000
MTEXTEND
  0
POINT
  5
307D
330
260E
100
AcDbEntity
  8
Defpoints
 62
     0
 48
4.0
100
AcDbPoint
 10
71052.31524170478
 20
-2449.861224976841
 30
0.0
  0
POINT
  5
307E
330
260E
100
AcDbEntity
  8
Defpoints
 62
     0
 48
4.0
100
AcDbPoint
 10
71052.31524170478
 20
-2704.86122497685
 30
0.0
  0
POINT
  5
307F
330
260E
100
AcDbEntity
  8
Defpoints
 62
     0
 48
4.0
100
AcDbPoint
 10
71373.07566776455
 20
-2704.86122497685
 30
0.0
  0
ENDBLK
  5
2610
330
260E
100
AcDbEntity
  8
0
 48
4.0
100
AcDbBlockEnd
  0
BLOCK
  5
261A
330
2619
100
AcDbEntity
  8
0
 48
4.0
100
AcDbBlockBegin
  2
*D6
 70
     1
 10
0.0
 20
0.0
 30
0.0
  3
*D6
  1

  0
LINE
  5
304F
330
2619
100
AcDbEntity
  8
0Wymiary-PL
 62
     1
 48
4.0
370
    -2
100
AcDbLine
 10
71373.07566776455
 20
-2734.86122497685
 30
0.0
 11
71373.07566776455
 21
-3024.861224976824
 31
0.0
  0
INSERT
  5
3050
330
2619
100
AcDbEntity
  8
0Wymiary-PL
 62
     1
 48
4.0
370
    -2
100
AcDbBlockReference
  2
B-DIM
 10
71373.07566776455
 20
-2704.86122497685
 30
0.0
 41
30.0
 42
30.0
 43
30.0
 50
90.0
  0
INSERT
  5
3051
330
2619
100
AcDbEntity
  8
0Wymiary-PL
 62
     1
 48
4.0
370
    -2
100
AcDbBlockReference
  2
B-DIM
 10
71373.07566776455
 20
-3054.861224976824
 30
0.0
 41
30.0
 42
30.0
 43
30.0
 50
270.0
  0
MTEXT
  5
3052
330
2619
100
AcDbEntity
  8
0Wymiary-PL
 62
   140
 48
4.0
100
AcDbMText
 10
71293.07566776455
 20
-2879.861224976826
 30
0.0
 40
80.0
 41
0.0
 71
     5
 72
     1
  1
\A1;350
  7
ROMANS
 11
0.0000000000000001
 21
1.0
 31
0.0
 73
     1
 44
1.0
1001
ACAD
1000
MTEXTBEGIN
1070
    73
1070
     1
1070
    44
1040
1.0
1070
    74
1070
     0
1000
MTEXTEND
  0
POINT
  5
3053
330
2619
100
AcDbEntity
  8
Defpoints
 62
     0
 48
4.0
100
AcDbPoint
 10
71052.31524170478
 20
-2704.86122497685
 30
0.0
  0
POINT
  5
3054
330
2619
100
AcDbEntity
  8
Defpoints
 62
     0
 48
4.0
100
AcDbPoint
 10
71052.31524170478
 20
-3054.861224976824
 30
0.0
  0
POINT
  5
3055
330
2619
100
AcDbEntity
  8
Defpoints
 62
     0
 48
4.0
100
AcDbPoint
 10
71373.07566776455
 20
-3054.861224976824
 30
0.0
  0
ENDBLK
  5
261B
330
2619
100
AcDbEntity
  8
0
 48
4.0
100
AcDbBlockEnd
  0
BLOCK
  5
2625
330
2624
100
AcDbEntity
  8
0
 48
4.0
100
AcDbBlockBegin
  2
*D7
 70
     1
 10
0.0
 20
0.0
 30
0.0
  3
*D7
  1

  0
LINE
  5
3025
330
2624
100
AcDbEntity
  8
0Wymiary-PL
 62
     1
 48
4.0
370
    -2
100
AcDbLine
 10
71373.07566776455
 20
-3084.861224976824
 30
0.0
 11
71373.07566776455
 21
-3279.861224976838
 31
0.0
  0
INSERT
  5
3026
330
2624
100
AcDbEntity
  8
0Wymiary-PL
 62
     1
 48
4.0
370
    -2
100
AcDbBlockReference
  2
B-DIM
 10
71373.07566776455
 20
-3054.861224976824
 30
0.0
 41
30.0
 42
30.0
 43
30.0
 50
90.0
  0
INSERT
  5
3027
330
2624
100
AcDbEntity
  8
0Wymiary-PL
 62
     1
 48
4.0
370
    -2
100
AcDbBlockReference
  2
B-DIM
 10
71373.07566776455
 20
-3309.861224976839
 30
0.0
 41
30.0
 42
30.0
 43
30.0
 50
270.0
  0
MTEXT
  5
3028
330
2624
100
AcDbEntity
  8
0Wymiary-PL
 62
   140
 48
4.0
100
AcDbMText
 10
71293.07566776455
 20
-3182.36122497682
 30
0.0
 40
80.0
 41
0.0
 71
     5
 72
     1
  1
\A1;255
  7
ROMANS
 11
0.0000000000000001
 21
1.0
 31
0.0
 73
     1
 44
1.0
1001
ACAD
1000
MTEXTBEGIN
1070
    73
1070
     1
1070
    44
1040
1.0
1070
    74
1070
     0
1000
MTEXTEND
  0
POINT
  5
3029
330
2624
100
AcDbEntity
  8
Defpoints
 62
     0
 48
4.0
100
AcDbPoint
 10
71052.31524170478
 20
-3054.861224976824
 30
0.0
  0
POINT
  5
302A
330
2624
100
AcDbEntity
  8
Defpoints
 62
     0
 48
4.0
100
AcDbPoint
 10
71025.53800085655
 20
-3309.861224976839
 30
0.0
  0
POINT
  5
302B
330
2624
100
AcDbEntity
  8
Defpoints
 62
     0
 48
4.0
100
AcDbPoint
 10
71373.07566776455
 20
-3309.861224976839
 30
0.0
  0
ENDBLK
  5
2626
330
2624
100
AcDbEntity
  8
0
 48
4.0
100
AcDbBlockEnd
  0
BLOCK
  5
2DEC
330
2DEB
100
AcDbEntity
  8
0
 48
4.0
100
AcDbBlockBegin
  2
*D8
 70
     1
 10
0.0
 20
0.0
 30
0.0
  3
*D8
  1

  0
LINE
  5
2FFB
330
2DEB
100
AcDbEntity
  8
0Wymiary-PL
 62
     1
 48
4.0
370
    -2
100
AcDbLine
 10
74697.29552996088
 20
-1883.987685730506
 30
0.0
 11
73607.29552996088
 21
-1883.987685730506
 31
0.0
  0
INSERT
  5
2FFC
330
2DEB
100
AcDbEntity
  8
0Wymiary-PL
 62
     1
 48
4.0
370
    -2
100
AcDbBlockReference
  2
B-DIM
 10
74727.29552996089
 20
-1883.987685730506
 30
0.0
 41
30.0
 42
30.0
 43
30.0
  0
INSERT
  5
2FFD
330
2DEB
100
AcDbEntity
  8
0Wymiary-PL
 62
     1
 48
4.0
370
    -2
100
AcDbBlockReference
  2
B-DIM
 10
73577.29552996088
 20
-1883.987685730506
 30
0.0
 41
30.0
 42
30.0
 43
30.0
 50
180.0
  0
MTEXT
  5
2FFE
330
2DEB
100
AcDbEntity
  8
0Wymiary-PL
 62
   140
 48
4.0
100
AcDbMText
 10
74152.29552996088
 20
-1803.987685730506
 30
0.0
 40
80.0
 41
0.0
 71
     5
 72
     1
  1
\A1;1150
  7
ROMANS
 73
     1
 44
1.0
1001
ACAD
1000
MTEXTBEGIN
1070
    73
1070
     1
1070
    44
1040
1.0
1070
    74
1070
     0
1000
MTEXTEND
  0
POINT
  5
2FFF
330
2DEB
100
AcDbEntity
  8
Defpoints
 62
     0
 48
4.0
100
AcDbPoint
 10
74727.29552996089
 20
-2502.662287246902
 30
0.0
  0
POINT
  5
3000
330
2DEB
100
AcDbEntity
  8
Defpoints
 62
     0
 48
4.0
100
AcDbPoint
 10
73577.29552996088
 20
-2225.530030499685
 30
0.0
  0
POINT
  5
3001
330
2DEB
100
AcDbEntity
  8
Defpoints
 62
     0
 48
4.0
100
AcDbPoint
 10
73577.29552996088
 20
-1883.987685730506
 30
0.0
  0
ENDBLK
  5
2DED
330
2DEB
100
AcDbEntity
  8
0
 48
4.0
100
AcDbBlockEnd
  0
BLOCK
  5
2DF6
330
2DF5
100
AcDbEntity
  8
0
 48
4.0
100
AcDbBlockBegin
  2
*D9
 70
     1
 10
0.0
 20
0.0
 30
0.0
  3
*D9
  1

  0
LINE
  5
2FCF
330
2DF5
100
AcDbEntity
  8
0Wymiary-PL
 62
     1
 48
4.0
370
    -2
100
AcDbLine
 10
73607.29552996088
 20
-1883.987685730506
 30
0.0
 11
73637.29552996089
 21
-1883.987685730506
 31
0.0
  0
LINE
  5
2FD0
330
2DF5
100
AcDbEntity
  8
0Wymiary-PL
 62
     1
 48
4.0
370
    -2
100
AcDbLine
 10
73447.2955299609
 20
-1883.987685730506
 30
0.0
 11
73417.2955299609
 21
-1883.987685730506
 31
0.0
  0
LINE
  5
2FD1
330
2DF5
100
AcDbEntity
  8
0Wymiary-PL
 62
     1
 48
4.0
370
    -2
100
AcDbLine
 10
73577.29552996088
 20
-1883.987685730506
 30
0.0
 11
73477.2955299609
 21
-1883.987685730506
 31
0.0
  0
INSERT
  5
2FD2
330
2DF5
100
AcDbEntity
  8
0Wymiary-PL
 62
     1
 48
4.0
370
    -2
100
AcDbBlockReference
  2
B-DIM
 10
73577.29552996088
 20
-1883.987685730506
 30
0.0
 41
30.0
 42
30.0
 43
30.0
 50
180.0
  0
INSERT
  5
2FD3
330
2DF5
100
AcDbEntity
  8
0Wymiary-PL
 62
     1
 48
4.0
370
    -2
100
AcDbBlockReference
  2
B-DIM
 10
73477.2955299609
 20
-1883.987685730506
 30
0.0
 41
30.0
 42
30.0
 43
30.0
  0
MTEXT
  5
2FD4
330
2DF5
100
AcDbEntity
  8
0Wymiary-PL
 62
   140
 48
4.0
100
AcDbMText
 10
73527.29552996088
 20
-1803.987685730506
 30
0.0
 40
80.0
 41
0.0
 71
     5
 72
     1
  1
\A1;100
  7
ROMANS
 73
     1
 44
1.0
1001
ACAD
1000
MTEXTBEGIN
1070
    73
1070
     1
1070
    44
1040
1.0
1070
    74
1070
     0
1000
MTEXTEND
  0
POINT
  5
2FD5
330
2DF5
100
AcDbEntity
  8
Defpoints
 62
     0
 48
4.0
100
AcDbPoint
 10
73577.29552996088
 20
-2225.530030499685
 30
0.0
  0
POINT
  5
2FD6
330
2DF5
100
AcDbEntity
  8
Defpoints
 62
     0
 48
4.0
100
AcDbPoint
 10
73477.2955299609
 20
-2879.861224976838
 30
0.0
  0
POINT
  5
2FD7
330
2DF5
100
AcDbEntity
  8
Defpoints
 62
     0
 48
4.0
100
AcDbPoint
 10
73477.2955299609
 20
-1883.987685730506
 30
0.0
  0
ENDBLK
  5
2DF7
330
2DF5
100
AcDbEntity
  8
0
 48
4.0
100
AcDbBlockEnd
  0
BLOCK
  5
2E02
330
2E01
100
AcDbEntity
  8
0
 48
4.0
100
AcDbBlockBegin
  2
*D10
 70
     1
 10
0.0
 20
0.0
 30
0.0
  3
*D10
  1

  0
LINE
  5
2F9B
330
2E01
100
AcDbEntity
  8
0Wymiary-PL
 62
     1
 48
4.0
370
    -2
100
AcDbLine
 10
74697.29552996088
 20
-4171.19874061725
 30
0.0
 11
73507.2955299609
 21
-4171.19874061725
 31
0.0
  0
INSERT
  5
2F9C
330
2E01
100
AcDbEntity
  8
0Wymiary-PL
 62
     1
 48
4.0
370
    -2
100
AcDbBlockReference
  2
B-DIM
 10
74727.29552996089
 20
-4171.19874061725
 30
0.0
 41
30.0
 42
30.0
 43
30.0
  0
INSERT
  5
2F9D
330
2E01
100
AcDbEntity
  8
0Wymiary-PL
 62
     1
 48
4.0
370
    -2
100
AcDbBlockReference
  2
B-DIM
 10
73477.2955299609
 20
-4171.19874061725
 30
0.0
 41
30.0
 42
30.0
 43
30.0
 50
180.0
  0
MTEXT
  5
2F9E
330
2E01
100
AcDbEntity
  8
0Wymiary-PL
 62
   140
 48
4.0
100
AcDbMText
 10
74102.29552996089
 20
-4091.19874061725
 30
0.0
 40
80.0
 41
0.0
 71
     5
 72
     1
  1
\A1;1250
  7
ROMANS
 73
     1
 44
1.0
1001
ACAD
1000
MTEXTBEGIN
1070
    73
1070
     1
1070
    44
1040
1.0
1070
    74
1070
     0
1000
MTEXTEND
  0
POINT
  5
2F9F
330
2E01
100
AcDbEntity
  8
Defpoints
 62
     0
 48
4.0
100
AcDbPoint
 10
74727.29552996089
 20
-2367.237443469873
 30
0.0
  0
POINT
  5
2FA0
330
2E01
100
AcDbEntity
  8
Defpoints
 62
     0
 48
4.0
100
AcDbPoint
 10
73477.2955299609
 20
-2797.237443469871
 30
0.0
  0
POINT
  5
2FA1
330
2E01
100
AcDbEntity
  8
Defpoints
 62
     0
 48
4.0
100
AcDbPoint
 10
73477.2955299609
 20
-4171.19874061725
 30
0.0
  0
ENDBLK
  5
2E03
330
2E01
100
AcDbEntity
  8
0
 48
4.0
100
AcDbBlockEnd
  0
BLOCK
  5
2E0C
330
2E0B
100
AcDbEntity
  8
0
 48
4.0
100
AcDbBlockBegin
  2
*D11
 70
     1
 10
0.0
 20
0.0
 30
0.0
  3
*D11
  1

  0
LINE
  5
2F71
330
2E0B
100
AcDbEntity
  8
0Wymiary-PL
 62
     1
 48
4.0
370
    -2
100
AcDbLine
 10
75204.48464645126
 20
-2479.86122497684
 30
0.0
 11
75204.48464645126
 21
-3279.861224976838
 31
0.0
  0
INSERT
  5
2F72
330
2E0B
100
AcDbEntity
  8
0Wymiary-PL
 62
     1
 48
4.0
370
    -2
100
AcDbBlockReference
  2
B-DIM
 10
75204.48464645126
 20
-2449.861224976841
 30
0.0
 41
30.0
 42
30.0
 43
30.0
 50
90.0
  0
INSERT
  5
2F73
330
2E0B
100
AcDbEntity
  8
0Wymiary-PL
 62
     1
 48
4.0
370
    -2
100
AcDbBlockReference
  2
B-DIM
 10
75204.48464645126
 20
-3309.861224976839
 30
0.0
 41
30.0
 42
30.0
 43
30.0
 50
270.0
  0
MTEXT
  5
2F74
330
2E0B
100
AcDbEntity
  8
0Wymiary-PL
 62
   140
 48
4.0
100
AcDbMText
 10
75124.48464645126
 20
-2879.861224976827
 30
0.0
 40
80.0
 41
0.0
 71
     5
 72
     1
  1
\A1;860
  7
ROMANS
 11
0.0000000000000001
 21
1.0
 31
0.0
 73
     1
 44
1.0
1001
ACAD
1000
MTEXTBEGIN
1070
    73
1070
     1
1070
    44
1040
1.0
1070
    74
1070
     0
1000
MTEXTEND
  0
POINT
  5
2F75
330
2E0B
100
AcDbEntity
  8
Defpoints
 62
     0
 48
4.0
100
AcDbPoint
 10
75063.0770676259
 20
-2449.861224976841
 30
0.0
  0
POINT
  5
2F76
330
2E0B
100
AcDbEntity
  8
Defpoints
 62
     0
 48
4.0
100
AcDbPoint
 10
75063.0770676259
 20
-3309.861224976839
 30
0.0
  0
POINT
  5
2F77
330
2E0B
100
AcDbEntity
  8
Defpoints
 62
     0
 48
4.0
100
AcDbPoint
 10
75204.48464645126
 20
-3309.861224976839
 30
0.0
  0
ENDBLK
  5
2E0D
330
2E0B
100
AcDbEntity
  8
0
 48
4.0
100
AcDbBlockEnd
  0
BLOCK
  5
2E16
330
2E15
100
AcDbEntity
  8
0
 48
4.0
100
AcDbBlockBegin
  2
*D12
 70
     1
 10
0.0
 20
0.0
 30
0.0
  3
*D12
  1

  0
LINE
  5
2F47
330
2E15
100
AcDbEntity
  8
0Wymiary-PL
 62
     1
 48
4.0
370
    -2
100
AcDbLine
 10
73077.88715052171
 20
-2479.86122497684
 30
0.0
 11
73077.88715052171
 21
-2674.861224976849
 31
0.0
  0
INSERT
  5
2F48
330
2E15
100
AcDbEntity
  8
0Wymiary-PL
 62
     1
 48
4.0
370
    -2
100
AcDbBlockReference
  2
B-DIM
 10
73077.88715052171
 20
-2449.861224976841
 30
0.0
 41
30.0
 42
30.0
 43
30.0
 50
90.0
  0
INSERT
  5
2F49
330
2E15
100
AcDbEntity
  8
0Wymiary-PL
 62
     1
 48
4.0
370
    -2
100
AcDbBlockReference
  2
B-DIM
 10
73077.88715052171
 20
-2704.86122497685
 30
0.0
 41
30.0
 42
30.0
 43
30.0
 50
270.0
  0
MTEXT
  5
2F4A
330
2E15
100
AcDbEntity
  8
0Wymiary-PL
 62
   140
 48
4.0
100
AcDbMText
 10
72997.88715052171
 20
-2577.361224976833
 30
0.0
 40
80.0
 41
0.0
 71
     5
 72
     1
  1
\A1;255
  7
ROMANS
 11
0.0000000000000001
 21
1.0
 31
0.0
 73
     1
 44
1.0
1001
ACAD
1000
MTEXTBEGIN
1070
    73
1070
     1
1070
    44
1040
1.0
1070
    74
1070
     0
1000
MTEXTEND
  0
POINT
  5
2F4B
330
2E15
100
AcDbEntity
  8
Defpoints
 62
     0
 48
4.0
100
AcDbPoint
 10
73687.65846701081
 20
-2449.861224976841
 30
0.0
  0
POINT
  5
2F4C
330
2E15
100
AcDbEntity
  8
Defpoints
 62
     0
 48
4.0
100
AcDbPoint
 10
73577.29552996088
 20
-2704.86122497685
 30
0.0
  0
POINT
  5
2F4D
330
2E15
100
AcDbEntity
  8
Defpoints
 62
     0
 48
4.0
100
AcDbPoint
 10
73077.88715052171
 20
-2704.86122497685
 30
0.0
  0
ENDBLK
  5
2E17
330
2E15
100
AcDbEntity
  8
0
 48
4.0
100
AcDbBlockEnd
  0
BLOCK
  5
2E20
330
2E1F
100
AcDbEntity
  8
0
 48
4.0
100
AcDbBlockBegin
  2
*D13
 70
     1
 10
0.0
 20
0.0
 30
0.0
  3
*D13
  1

  0
LINE
  5
2F1D
330
2E1F
100
AcDbEntity
  8
0Wymiary-PL
 62
     1
 48
4.0
370
    -2
100
AcDbLine
 10
73077.88715052171
 20
-2734.86122497685
 30
0.0
 11
73077.88715052171
 21
-3024.861224976824
 31
0.0
  0
INSERT
  5
2F1E
330
2E1F
100
AcDbEntity
  8
0Wymiary-PL
 62
     1
 48
4.0
370
    -2
100
AcDbBlockReference
  2
B-DIM
 10
73077.88715052171
 20
-2704.86122497685
 30
0.0
 41
30.0
 42
30.0
 43
30.0
 50
90.0
  0
INSERT
  5
2F1F
330
2E1F
100
AcDbEntity
  8
0Wymiary-PL
 62
     1
 48
4.0
370
    -2
100
AcDbBlockReference
  2
B-DIM
 10
73077.88715052171
 20
-3054.861224976824
 30
0.0
 41
30.0
 42
30.0
 43
30.0
 50
270.0
  0
MTEXT
  5
2F20
330
2E1F
100
AcDbEntity
  8
0Wymiary-PL
 62
   140
 48
4.0
100
AcDbMText
 10
72997.88715052171
 20
-2879.861224976825
 30
0.0
 40
80.0
 41
0.0
 71
     5
 72
     1
  1
\A1;350
  7
ROMANS
 11
0.0000000000000001
 21
1.0
 31
0.0
 73
     1
 44
1.0
1001
ACAD
1000
MTEXTBEGIN
1070
    73
1070
     1
1070
    44
1040
1.0
1070
    74
1070
     0
1000
MTEXTEND
  0
POINT
  5
2F21
330
2E1F
100
AcDbEntity
  8
Defpoints
 62
     0
 48
4.0
100
AcDbPoint
 10
73577.29552996088
 20
-2704.86122497685
 30
0.0
  0
POINT
  5
2F22
330
2E1F
100
AcDbEntity
  8
Defpoints
 62
     0
 48
4.0
100
AcDbPoint
 10
73577.29552996088
 20
-3054.861224976824
 30
0.0
  0
POINT
  5
2F23
330
2E1F
100
AcDbEntity
  8
Defpoints
 62
     0
 48
4.0
100
AcDbPoint
 10
73077.88715052171
 20
-3054.861224976824
 30
0.0
  0
ENDBLK
  5
2E21
330
2E1F
100
AcDbEntity
  8
0
 48
4.0
100
AcDbBlockEnd
  0
BLOCK
  5
2E2A
330
2E29
100
AcDbEntity
  8
0
 48
4.0
100
AcDbBlockBegin
  2
*D14
 70
     1
 10
0.0
 20
0.0
 30
0.0
  3
*D14
  1

  0
LINE
  5
2EF3
330
2E29
100
AcDbEntity
  8
0Wymiary-PL
 62
     1
 48
4.0
370
    -2
100
AcDbLine
 10
73077.88715052171
 20
-3084.861224976824
 30
0.0
 11
73077.88715052171
 21
-3279.861224976838
 31
0.0
  0
INSERT
  5
2EF4
330
2E29
100
AcDbEntity
  8
0Wymiary-PL
 62
     1
 48
4.0
370
    -2
100
AcDbBlockReference
  2
B-DIM
 10
73077.88715052171
 20
-3054.861224976824
 30
0.0
 41
30.0
 42
30.0
 43
30.0
 50
90.0
  0
INSERT
  5
2EF5
330
2E29
100
AcDbEntity
  8
0Wymiary-PL
 62
     1
 48
4.0
370
    -2
100
AcDbBlockReference
  2
B-DIM
 10
73077.88715052171
 20
-3309.861224976839
 30
0.0
 41
30.0
 42
30.0
 43
30.0
 50
270.0
  0
MTEXT
  5
2EF6
330
2E29
100
AcDbEntity
  8
0Wymiary-PL
 62
   140
 48
4.0
100
AcDbMText
 10
72997.88715052171
 20
-3182.36122497682
 30
0.0
 40
80.0
 41
0.0
 71
     5
 72
     1
  1
\A1;255
  7
ROMANS
 11
0.0000000000000001
 21
1.0
 31
0.0
 73
     1
 44
1.0
1001
ACAD
1000
MTEXTBEGIN
1070
    73
1070
     1
1070
    44
1040
1.0
1070
    74
1070
     0
1000
MTEXTEND
  0
POINT
  5
2EF7
330
2E29
100
AcDbEntity
  8
Defpoints
 62
     0
 48
4.0
100
AcDbPoint
 10
73577.29552996088
 20
-3054.861224976824
 30
0.0
  0
POINT
  5
2EF8
330
2E29
100
AcDbEntity
  8
Defpoints
 62
     0
 48
4.0
100
AcDbPoint
 10
73729.61111756634
 20
-3309.861224976839
 30
0.0
  0
POINT
  5
2EF9
330
2E29
100
AcDbEntity
  8
Defpoints
 62
     0
 48
4.0
100
AcDbPoint
 10
73077.88715052171
 20
-3309.861224976839
 30
0.0
  0
ENDBLK
  5
2E2B
330
2E29
100
AcDbEntity
  8
0
 48
4.0
100
AcDbBlockEnd
  0
ENDSEC
  0
SECTION
  2
ENTITIES
  0
LINE
  5
20E4
330
2
100
AcDbEntity
  8
NAPISY
  6
DASHED
 62
     1
 48
25.0
370
     5
100
AcDbLine
 10
72193.4706489992
 20
-6588.910890917322
 30
0.0
 11
72193.4706489992
 21
-1278.22382612247
 31
0.0
  0
TEXT
  5
20E5
330
2
100
AcDbEntity
  8
NAPISY
100
AcDbText
 10
72133.94947200589
 20
-6602.249821363947
 30
0.0
 40
100.0
  1
OŚ ODBICIA LUSTRZANEGO
 50
90.0
  7
AVA
100
AcDbText
  0
TEXT
  5
20E7
330
2
100
AcDbEntity
  8
NAPISY
100
AcDbText
 10
68649.0356467921
 20
431.0319215054896
 30
0.0
 40
150.0
  1
MOŻNA WKLEIĆ DO PROJEKTU ZAGOSPODAROWANIA TERENU
  7
AVA
100
AcDbText
  0
TEXT
  5
20E8
330
2
100
AcDbEntity
  8
NAPISY
100
AcDbText
 10
68572.70037615695
 20
760.9003988682506
 30
0.0
 40
150.0
  1
"DOM W JEŻYNACH (PD)"
  7
AVA
100
AcDbText
  0
TEXT
  5
230F
330
2
100
AcDbEntity
  8
NAPISY
100
AcDbText
 10
68552.82259567419
 20
-12032.33333937637
 30
0.0
 40
100.0
  1
   O B R Y S   B U D Y N K U           S K A L A   1 : 5 0 0 
  7
AVA
100
AcDbText
  0
LINE
  5
2543
330
2
100
AcDbEntity
  8
0
  6
Continuous
370
     5
390
1D00
100
AcDbLine
 10
70795.64576803753
 20
-4025.861224976745
 30
0.0
 11
70795.64576803753
 21
-3309.861224976653
 31
0.0
  0
LINE
  5
2544
330
2
100
AcDbEntity
  8
0
  6
Continuous
370
     5
390
1D00
100
AcDbLine
 10
70775.64576803753
 20
-3429.861224976651
 30
0.0
 11
70775.64576803753
 21
-4025.861224976844
 31
0.0
  0
LINE
  5
2545
330
2
100
AcDbEntity
  8
0
  6
Continuous
370
     5
100
AcDbLine
 10
70789.64576803753
 20
-3628.861224976651
 30
0.0
 11
70789.64576803753
 21
-3429.861224976651
 31
0.0
  0
LINE
  5
2546
330
2
100
AcDbEntity
  8
0
  6
Continuous
370
     5
100
AcDbLine
 10
70781.64576803753
 20
-3628.861224976651
 30
0.0
 11
70781.64576803753
 21
-3429.861224976651
 31
0.0
  0
LINE
  5
2547
330
2
100
AcDbEntity
  8
0
  6
Continuous
370
     5
390
1D00
100
AcDbLine
 10
70468.64576803753
 20
-4025.861224978345
 30
0.0
 11
70468.64576803753
 21
-3429.861224976838
 31
0.0
  0
LINE
  5
2548
330
2
100
AcDbEntity
  8
0
  6
Continuous
370
     5
390
1D00
100
AcDbLine
 10
70448.64576803753
 20
-4025.861224978442
 30
0.0
 11
70448.64576803753
 21
-3429.861224976838
 31
0.0
  0
LINE
  5
2549
330
2
100
AcDbEntity
  8
0
  6
Continuous
370
     5
100
AcDbLine
 10
70462.64576803753
 20
-3628.861224976839
 30
0.0
 11
70462.64576803753
 21
-3429.861224976838
 31
0.0
  0
LINE
  5
254A
330
2
100
AcDbEntity
  8
0
  6
Continuous
370
     5
100
AcDbLine
 10
70454.64576803753
 20
-3628.861224976839
 30
0.0
 11
70454.64576803753
 21
-3429.861224976838
 31
0.0
  0
LINE
  5
254B
330
2
100
AcDbEntity
  8
0
  6
Continuous
370
     5
100
AcDbLine
 10
70399.64576803753
 20
-3622.861224976838
 30
0.0
 11
70399.64576803753
 21
-3421.861224976839
 31
0.0
  0
LINE
  5
254C
330
2
100
AcDbEntity
  8
0
  6
Continuous
370
     5
100
AcDbLine
 10
70391.64576803753
 20
-3622.861224976838
 30
0.0
 11
70391.64576803753
 21
-3421.861224976839
 31
0.0
  0
LINE
  5
254D
330
2
100
AcDbEntity
  8
0
  6
Continuous
370
     5
390
1D00
100
AcDbLine
 10
70385.64576803753
 20
-3627.861224976839
 30
0.0
 11
70385.64576803753
 21
-3429.861224976838
 31
0.0
  0
LINE
  5
254E
330
2
100
AcDbEntity
  8
0
  6
Continuous
370
     5
390
1D00
100
AcDbLine
 10
70245.64576803753
 20
-3627.861224976839
 30
0.0
 11
70245.64576803753
 21
-3429.861224976838
 31
0.0
  0
LINE
  5
254F
330
2
100
AcDbEntity
  8
0
  6
Continuous
370
     5
390
1D00
100
AcDbLine
 10
70225.64576803753
 20
-3449.861224976839
 30
0.0
 11
70225.64576803753
 21
-3627.861224976839
 31
0.0
  0
LINE
  5
2550
330
2
100
AcDbEntity
  8
0
  6
Continuous
370
     5
390
1D00
100
AcDbLine
 10
70405.64576803753
 20
-3627.861224976839
 30
0.0
 11
70405.64576803753
 21
-3449.861224976839
 31
0.0
  0
LINE
  5
2551
330
2
100
AcDbEntity
  8
0
  6
Continuous
370
     5
100
AcDbLine
 10
70461.64576803753
 20
-4019.861224976924
 30
0.0
 11
70461.64576803753
 21
-3628.861224976839
 31
0.0
  0
LINE
  5
2552
330
2
100
AcDbEntity
  8
0
  6
Continuous
370
     5
100
AcDbLine
 10
70455.64576803753
 20
-4019.861224976927
 30
0.0
 11
70455.64576803753
 21
-3628.861224976839
 31
0.0
  0
LINE
  5
2553
330
2
100
AcDbEntity
  8
0
  6
Continuous
370
     5
100
AcDbLine
 10
70455.64576803753
 20
-3634.861224976839
 30
0.0
 11
70461.64576803753
 21
-3634.861224976839
 31
0.0
  0
LINE
  5
2554
330
2
100
AcDbEntity
  8
0
  6
Continuous
370
     5
100
AcDbLine
 10
70454.64576803753
 20
-3628.861224976839
 30
0.0
 11
70462.64576803753
 21
-3628.861224976839
 31
0.0
  0
LINE
  5
2555
330
2
100
AcDbEntity
  8
0
  6
Continuous
370
     5
100
AcDbLine
 10
70462.64576803753
 20
-3620.861224976839
 30
0.0
 11
70454.64576803753
 21
-3620.861224976839
 31
0.0
  0
LINE
  5
255A
330
2
100
AcDbEntity
  8
0
  6
Continuous
370
     5
100
AcDbLine
 10
70391.64576803753
 20
-3622.861224976838
 30
0.0
 11
70399.64576803753
 21
-3622.861224976838
 31
0.0
  0
LINE
  5
255B
330
2
100
AcDbEntity
  8
0
  6
Continuous
370
     5
100
AcDbLine
 10
70399.64576803753
 20
-3614.861224976838
 30
0.0
 11
70391.64576803753
 21
-3614.861224976838
 31
0.0
  0
CIRCLE
  5
255C
330
2
100
AcDbEntity
  8
0
370
     5
100
AcDbCircle
 10
70315.64576803753
 20
-3627.861224976839
 30
0.0
 40
0.025
  0
LINE
  5
255E
330
2
100
AcDbEntity
  8
0
  6
Continuous
370
     5
100
AcDbLine
 10
70448.64576803753
 20
-3627.861224976839
 30
0.0
 11
70454.64576803753
 21
-3627.861224976839
 31
0.0
  0
LINE
  5
255F
330
2
100
AcDbEntity
  8
0
  6
Continuous
370
     5
100
AcDbLine
 10
70462.64576803753
 20
-3627.861224976839
 30
0.0
 11
70468.64576803753
 21
-3627.861224976839
 31
0.0
  0
LINE
  5
2560
330
2
100
AcDbEntity
  8
0
  6
Continuous
370
     5
100
AcDbLine
 10
70775.64576803753
 20
-3627.861224976839
 30
0.0
 11
70781.64576803753
 21
-3627.861224976839
 31
0.0
  0
LINE
  5
2561
330
2
100
AcDbEntity
  8
0
  6
Continuous
370
     5
100
AcDbLine
 10
70789.64576803753
 20
-3627.861224976839
 30
0.0
 11
70860.50143725454
 21
-3627.861224976839
 31
0.0
  0
LINE
  5
2562
330
2
100
AcDbEntity
  8
0
  6
Continuous
370
     5
100
AcDbLine
 10
70245.64576803753
 20
-3597.861224976838
 30
0.0
 11
70385.64576803753
 21
-3597.861224976838
 31
0.0
210
0.0
220
1.0
230
0.0
  0
LINE
  5
2563
330
2
100
AcDbEntity
  8
0
  6
Continuous
370
     5
100
AcDbLine
 10
70788.64576803753
 20
-4019.861224976927
 30
0.0
 11
70788.64576803753
 21
-3628.861224976651
 31
0.0
  0
LINE
  5
2564
330
2
100
AcDbEntity
  8
0
  6
Continuous
370
     5
100
AcDbLine
 10
70782.64576803753
 20
-4019.861224976924
 30
0.0
 11
70782.64576803753
 21
-3628.861224976651
 31
0.0
  0
LINE
  5
2565
330
2
100
AcDbEntity
  8
0
  6
Continuous
370
     5
100
AcDbLine
 10
70781.64576803753
 20
-3628.861224976651
 30
0.0
 11
70789.64576803753
 21
-3628.861224976651
 31
0.0
  0
LINE
  5
2566
330
2
100
AcDbEntity
  8
0
  6
Continuous
370
     5
100
AcDbLine
 10
70789.64576803753
 20
-3620.861224976651
 30
0.0
 11
70781.64576803753
 21
-3620.861224976651
 31
0.0
  0
LINE
  5
2567
330
2
100
AcDbEntity
  8
0
  6
Continuous
370
     5
100
AcDbLine
 10
70782.64576803753
 20
-3634.861224976651
 30
0.0
 11
70788.64576803753
 21
-3634.861224976651
 31
0.0
  0
LINE
  5
2568
330
2
100
AcDbEntity
  8
0
  6
Continuous
370
     5
100
AcDbLine
 10
70391.64576803753
 20
-3421.861224976839
 30
0.0
 11
70791.25021708457
 21
-3421.861224976839
 31
0.0
  0
LINE
  5
256B
330
2
100
AcDbEntity
  8
0
  6
Continuous
370
     5
100
AcDbLine
 10
70452.99598257607
 20
-3421.861224976839
 30
0.0
 11
70452.99598257607
 21
-3429.861224976838
 31
0.0
  0
LINE
  5
256C
330
2
100
AcDbEntity
  8
0
  6
Continuous
370
     5
100
AcDbLine
 10
70453.99598257607
 20
-3421.861224976839
 30
0.0
 11
70453.99598257607
 21
-3429.861224976838
 31
0.0
  0
LINE
  5
256D
330
2
100
AcDbEntity
  8
0
  6
Continuous
370
     5
100
AcDbLine
 10
70461.99598257607
 20
-3429.861224976838
 30
0.0
 11
70461.99598257607
 21
-3421.861224976839
 31
0.0
  0
LINE
  5
256E
330
2
100
AcDbEntity
  8
0
  6
Continuous
370
     5
100
AcDbLine
 10
70454.64576803753
 20
-3486.538679042392
 30
0.0
 11
70462.64576803753
 21
-3486.538679042392
 31
0.0
  0
LINE
  5
256F
330
2
100
AcDbEntity
  8
0
  6
Continuous
370
     5
100
AcDbLine
 10
70462.64576803753
 20
-3478.538679042392
 30
0.0
 11
70454.64576803753
 21
-3478.538679042392
 31
0.0
  0
LINE
  5
2570
330
2
100
AcDbEntity
  8
0
  6
Continuous
370
     5
100
AcDbLine
 10
70454.64576803753
 20
-3443.571587788947
 30
0.0
 11
70462.64576803753
 21
-3443.571587788947
 31
0.0
  0
LINE
  5
2571
330
2
100
AcDbEntity
  8
0
  6
Continuous
370
     5
100
AcDbLine
 10
70462.64576803753
 20
-3435.571587788946
 30
0.0
 11
70454.64576803753
 21
-3435.571587788946
 31
0.0
  0
LINE
  5
2572
330
2
100
AcDbEntity
  8
0
  6
Continuous
370
     5
100
AcDbLine
 10
70454.64576803753
 20
-3557.699952009615
 30
0.0
 11
70462.64576803753
 21
-3557.699952009615
 31
0.0
  0
LINE
  5
2573
330
2
100
AcDbEntity
  8
0
  6
Continuous
370
     5
100
AcDbLine
 10
70462.64576803753
 20
-3549.699952009615
 30
0.0
 11
70454.64576803753
 21
-3549.699952009615
 31
0.0
  0
LINE
  5
2574
330
2
100
AcDbEntity
  8
0
  6
Continuous
370
     5
100
AcDbLine
 10
70444.99598257607
 20
-3421.861224976839
 30
0.0
 11
70444.99598257607
 21
-3429.861224976838
 31
0.0
  0
LINE
  5
2575
330
2
100
AcDbEntity
  8
0
  6
Continuous
370
     5
100
AcDbLine
 10
70225.64576803753
 20
-3309.861224976653
 30
0.0
 11
70225.64576803753
 21
-3429.861224976651
 31
0.0
  0
LINE
  5
2576
330
2
100
AcDbEntity
  8
0
  6
Continuous
370
     5
100
AcDbLine
 10
70399.64576803753
 20
-3518.361224976839
 30
0.0
 11
70391.64576803753
 21
-3518.361224976839
 31
0.0
  0
LINE
  5
2577
330
2
100
AcDbEntity
  8
0
  6
Continuous
370
     5
100
AcDbLine
 10
70391.64576803753
 20
-3526.361224976839
 30
0.0
 11
70399.64576803753
 21
-3526.361224976839
 31
0.0
  0
LINE
  5
2578
330
2
100
AcDbEntity
  8
0
  6
Continuous
370
     5
390
1D00
100
AcDbLine
 10
70385.64576803753
 20
-3447.861224976839
 30
0.0
 11
70245.64576803753
 21
-3447.861224976839
 31
0.0
  0
LINE
  5
2579
330
2
100
AcDbEntity
  8
0
  6
Continuous
370
     5
390
1D00
100
AcDbLine
 10
70190.64576803753
 20
-3449.861224976839
 30
0.0
 11
70190.64576803753
 21
-3309.861224976839
 31
0.0
  0
LINE
  5
257A
330
2
100
AcDbEntity
  8
0
  6
Continuous
370
     5
390
1D00
100
AcDbLine
 10
70245.64576803753
 20
-3429.861224976838
 30
0.0
 11
70190.64576803753
 21
-3429.861224976838
 31
0.0
  0
LINE
  5
257B
330
2
100
AcDbEntity
  8
0
  6
Continuous
370
     5
100
AcDbLine
 10
70245.64576803753
 20
-3477.861224976839
 30
0.0
 11
70385.64576803753
 21
-3477.861224976839
 31
0.0
210
0.0
220
1.0
230
0.0
  0
LINE
  5
257C
330
2
100
AcDbEntity
  8
0
  6
Continuous
370
     5
100
AcDbLine
 10
70245.64576803753
 20
-3507.861224976839
 30
0.0
 11
70385.64576803753
 21
-3507.861224976839
 31
0.0
210
0.0
220
1.0
230
0.0
  0
LINE
  5
257D
330
2
100
AcDbEntity
  8
0
  6
Continuous
370
     5
100
AcDbLine
 10
70245.64576803753
 20
-3537.861224976839
 30
0.0
 11
70385.64576803753
 21
-3537.861224976839
 31
0.0
210
0.0
220
1.0
230
0.0
  0
LINE
  5
257E
330
2
100
AcDbEntity
  8
0
  6
Continuous
370
     5
100
AcDbLine
 10
70245.64576803753
 20
-3567.861224976839
 30
0.0
 11
70385.64576803753
 21
-3567.861224976839
 31
0.0
210
0.0
220
1.0
230
0.0
  0
LINE
  5
257F
330
2
100
AcDbEntity
  8
0
  6
Continuous
370
     5
390
1D00
100
AcDbLine
 10
70385.64576803753
 20
-3429.861224976838
 30
0.0
 11
70830.64576803753
 21
-3429.861224976838
 31
0.0
  0
LINE
  5
2580
330
2
100
AcDbEntity
  8
0
  6
Continuous
370
     5
390
1D00
100
AcDbLine
 10
70405.64576803753
 20
-3449.861224976839
 30
0.0
 11
70448.64576803753
 21
-3449.861224976839
 31
0.0
  0
LINE
  5
2581
330
2
100
AcDbEntity
  8
0
  6
Continuous
370
     5
100
AcDbLine
 10
70830.64576803753
 20
-3429.861224976838
 30
0.0
 11
70830.64576803753
 21
-3309.861224976839
 31
0.0
  0
LINE
  5
2582
330
2
100
AcDbEntity
  8
0
  6
Continuous
370
     5
100
AcDbLine
 10
70536.99598257606
 20
-3421.861224976839
 30
0.0
 11
70536.99598257606
 21
-3429.861224976838
 31
0.0
  0
LINE
  5
2583
330
2
100
AcDbEntity
  8
0
  6
Continuous
370
     5
100
AcDbLine
 10
70543.12309983032
 20
-3429.861224976838
 30
0.0
 11
70543.12309983032
 21
-3421.861224976839
 31
0.0
  0
LINE
  5
2584
330
2
100
AcDbEntity
  8
0
  6
Continuous
370
     5
100
AcDbLine
 10
70701.12309983032
 20
-3421.861224976839
 30
0.0
 11
70701.12309983032
 21
-3429.861224976838
 31
0.0
  0
LINE
  5
2585
330
2
100
AcDbEntity
  8
0
  6
Continuous
370
     5
100
AcDbLine
 10
70707.25021708458
 20
-3429.861224976838
 30
0.0
 11
70707.25021708458
 21
-3421.861224976839
 31
0.0
  0
LINE
  5
2586
330
2
100
AcDbEntity
  8
0
  6
Continuous
370
     5
100
AcDbLine
 10
70791.25021708457
 20
-3429.861224976838
 30
0.0
 11
70791.25021708457
 21
-3421.861224976839
 31
0.0
  0
LINE
  5
2587
330
2
100
AcDbEntity
  8
0
  6
Continuous
370
     5
100
AcDbLine
 10
70782.25021708457
 20
-3421.861224976839
 30
0.0
 11
70782.25021708457
 21
-3429.861224976838
 31
0.0
  0
LINE
  5
2588
330
2
100
AcDbEntity
  8
0
  6
Continuous
370
     5
100
AcDbLine
 10
70790.25021708456
 20
-3429.861224976838
 30
0.0
 11
70790.25021708456
 21
-3421.861224976839
 31
0.0
  0
LINE
  5
2589
330
2
100
AcDbEntity
  8
0
  6
Continuous
370
     5
100
AcDbLine
 10
70618.12309983032
 20
-3421.861224976839
 30
0.0
 11
70618.12309983032
 21
-3429.861224976838
 31
0.0
  0
LINE
  5
258A
330
2
100
AcDbEntity
  8
0
  6
Continuous
370
     5
100
AcDbLine
 10
70626.12309983032
 20
-3429.861224976838
 30
0.0
 11
70626.12309983032
 21
-3421.861224976839
 31
0.0
  0
LINE
  5
258B
330
2
100
AcDbEntity
  8
0
  6
Continuous
370
     5
100
AcDbLine
 10
70781.64576803753
 20
-3486.538679042207
 30
0.0
 11
70789.64576803753
 21
-3486.538679042207
 31
0.0
  0
LINE
  5
258C
330
2
100
AcDbEntity
  8
0
  6
Continuous
370
     5
100
AcDbLine
 10
70789.64576803753
 20
-3478.538679042207
 30
0.0
 11
70781.64576803753
 21
-3478.538679042207
 31
0.0
  0
LINE
  5
258D
330
2
100
AcDbEntity
  8
0
  6
Continuous
370
     5
100
AcDbLine
 10
70781.64576803753
 20
-3443.571587788759
 30
0.0
 11
70789.64576803753
 21
-3443.571587788759
 31
0.0
  0
LINE
  5
258E
330
2
100
AcDbEntity
  8
0
  6
Continuous
370
     5
100
AcDbLine
 10
70789.64576803753
 20
-3435.571587788759
 30
0.0
 11
70781.64576803753
 21
-3435.571587788759
 31
0.0
  0
LINE
  5
258F
330
2
100
AcDbEntity
  8
0
  6
Continuous
370
     5
100
AcDbLine
 10
70781.64576803753
 20
-3557.69995200943
 30
0.0
 11
70789.64576803753
 21
-3557.69995200943
 31
0.0
  0
LINE
  5
2590
330
2
100
AcDbEntity
  8
0
  6
Continuous
370
     5
100
AcDbLine
 10
70789.64576803753
 20
-3549.69995200943
 30
0.0
 11
70781.64576803753
 21
-3549.69995200943
 31
0.0
  0
LINE
  5
2593
330
2
100
AcDbEntity
  8
0
  6
Continuous
370
     5
100
AcDbLine
 10
70325.64576803753
 20
-2329.861224976839
 30
0.0
 11
70325.64576803753
 21
-2449.861224976839
 31
0.0
  0
LINE
  5
2594
330
2
100
AcDbEntity
  8
0
  6
Continuous
370
     5
100
AcDbLine
 10
70295.64576803753
 20
-2317.434818105646
 30
0.0
 11
70295.64576803753
 21
-2449.861224976839
 31
0.0
  0
LINE
  5
2598
330
2
100
AcDbEntity
  8
0
  6
Continuous
370
     5
100
AcDbLine
 10
70795.64576803753
 20
-2449.861224976839
 30
0.0
 11
70795.64576803753
 21
-2199.861224976839
 31
0.0
  0
LINE
  5
2599
330
2
100
AcDbEntity
  8
0
  6
Continuous
370
     5
100
AcDbLine
 10
70231.64576803753
 20
-3622.861224976838
 30
0.0
 11
70231.64576803753
 21
-3435.987641224399
 31
0.0
  0
LINE
  5
259A
330
2
100
AcDbEntity
  8
0
  6
Continuous
370
     5
100
AcDbLine
 10
70239.64576803753
 20
-3622.861224976838
 30
0.0
 11
70239.64576803753
 21
-3435.987641224399
 31
0.0
  0
LINE
  5
259B
330
2
100
AcDbEntity
  8
0
  6
Continuous
370
     5
100
AcDbLine
 10
70239.64576803753
 20
-3622.861224976838
 30
0.0
 11
70231.64576803753
 21
-3622.861224976838
 31
0.0
  0
LINE
  5
259C
330
2
100
AcDbEntity
  8
0
  6
Continuous
370
     5
100
AcDbLine
 10
70231.64576803753
 20
-3614.861224976838
 30
0.0
 11
70239.64576803753
 21
-3614.861224976838
 31
0.0
  0
LINE
  5
259D
330
2
100
AcDbEntity
  8
0
  6
Continuous
370
     5
100
AcDbLine
 10
70239.64576803753
 20
-3435.987641224399
 30
0.0
 11
70190.64576803753
 21
-3435.987641224399
 31
0.0
  0
LINE
  5
259E
330
2
100
AcDbEntity
  8
0
  6
Continuous
370
     5
100
AcDbLine
 10
70231.64576803753
 20
-3518.361224976839
 30
0.0
 11
70239.64576803753
 21
-3518.361224976839
 31
0.0
  0
LINE
  5
259F
330
2
100
AcDbEntity
  8
0
  6
Continuous
370
     5
100
AcDbLine
 10
70239.64576803753
 20
-3526.361224976839
 30
0.0
 11
70231.64576803753
 21
-3526.361224976839
 31
0.0
  0
LINE
  5
25A0
330
2
100
AcDbEntity
  8
0
  6
Continuous
370
     5
100
AcDbLine
 10
70239.64576803753
 20
-3443.9876412244
 30
0.0
 11
70190.64576803753
 21
-3443.9876412244
 31
0.0
  0
HATCH
  5
25A1
330
2
100
AcDbEntity
  8
0
  6
Continuous
370
     5
100
AcDbHatch
 10
0.0
 20
0.0
 30
0.0
210
0.0
220
0.0
230
1.0
  2
SOLID
 70
     1
 71
     1
 91
        1
 92
        7
 72
     0
 73
     1
 93
       20
 10
69659.64576803753
 20
-2449.86122497684
 10
69659.64576803753
 20
-3309.861224976839
 10
70265.64576803753
 20
-3309.861224976838
 10
70265.64576803753
 20
-3249.861224976838
 10
69719.64576803753
 20
-3249.861224976839
 10
69719.64576803752
 20
-2509.861224976841
 10
70749.64576803753
 20
-2509.861224976841
 10
70749.64576803753
 20
-2729.714038719237
 10
70849.6457680375
 20
-2829.714038719231
 10
70849.64576803751
 20
-2930.008411234443
 10
70749.64576803753
 20
-3030.008411234435
 10
70749.64576803753
 20
-3249.861224976839
 10
70365.64576803753
 20
-3249.861224976839
 10
70365.64576803753
 20
-3309.861224976838
 10
70809.64576803753
 20
-3309.861224976839
 10
70809.64576803754
 20
-3054.861224976814
 10
70909.64576803751
 20
-2954.861224976824
 10
70909.64576803751
 20
-2804.861224976845
 10
70809.64576803753
 20
-2704.861224976837
 10
70809.64576803753
 20
-2449.861224976841
 97
       18
330
25A2
330
25A9
330
25A8
330
25B3
330
25B0
330
25B1
330
25AA
330
25AB
330
25AC
330
25AD
330
25AE
330
25AF
330
25B2
330
25A7
330
25A6
330
25A5
330
25A4
330
25A3
 75
     0
 76
     1
 47
4.257102805325993
 98
        1
 10
70322.45927898923
 20
-2478.227789318655
1001
ACAD
1010
0.0
1020
0.0
1030
0.0
  0
LINE
  5
25A2
102
{ACAD_REACTORS
330
25A1
102
}
330
2
100
AcDbEntity
  8
0
  6
Continuous
370
     5
100
AcDbLine
 10
69659.64576803753
 20
-2449.861224976841
 30
0.0
 11
70809.64576803753
 21
-2449.861224976841
 31
0.0
  0
LINE
  5
25A3
102
{ACAD_REACTORS
330
25A1
102
}
330
2
100
AcDbEntity
  8
0
  6
Continuous
370
     5
100
AcDbLine
 10
70809.64576803753
 20
-2449.861224976841
 30
0.0
 11
70809.64576803753
 21
-2704.86122497685
 31
0.0
  0
LINE
  5
25A4
102
{ACAD_REACTORS
330
25A1
102
}
330
2
100
AcDbEntity
  8
0
  6
Continuous
370
     5
100
AcDbLine
 10
70809.64576803753
 20
-2704.86122497685
 30
0.0
 11
70909.64576803751
 21
-2804.861224976844
 31
0.0
  0
LINE
  5
25A5
102
{ACAD_REACTORS
330
25A1
102
}
330
2
100
AcDbEntity
  8
0
  6
Continuous
370
     5
100
AcDbLine
 10
70909.64576803751
 20
-2804.861224976844
 30
0.0
 11
70909.64576803751
 21
-2954.861224976831
 31
0.0
  0
LINE
  5
25A6
102
{ACAD_REACTORS
330
25A1
102
}
330
2
100
AcDbEntity
  8
0
  6
Continuous
370
     5
100
AcDbLine
 10
70909.64576803751
 20
-2954.861224976831
 30
0.0
 11
70809.64576803753
 21
-3054.861224976824
 31
0.0
  0
LINE
  5
25A7
102
{ACAD_REACTORS
330
25A1
102
}
330
2
100
AcDbEntity
  8
0
  6
Continuous
370
     5
100
AcDbLine
 10
70809.64576803753
 20
-3054.861224976824
 30
0.0
 11
70809.64576803753
 21
-3309.861224976839
 31
0.0
  0
LINE
  5
25A8
102
{ACAD_REACTORS
330
25A1
102
}
330
2
100
AcDbEntity
  8
0
  6
Continuous
370
     5
100
AcDbLine
 10
69659.64576803753
 20
-3309.861224976839
 30
0.0
 11
70830.64576803753
 21
-3309.861224976839
 31
0.0
  0
LINE
  5
25A9
102
{ACAD_REACTORS
330
25A1
102
}
330
2
100
AcDbEntity
  8
0
  6
Continuous
370
     5
100
AcDbLine
 10
69659.64576803753
 20
-3309.861224976839
 30
0.0
 11
69659.64576803753
 21
-2449.861224976841
 31
0.0
  0
LINE
  5
25AA
102
{ACAD_REACTORS
330
25A1
102
}
330
2
100
AcDbEntity
  8
0
  6
Continuous
370
     5
100
AcDbLine
 10
69719.64576803753
 20
-2509.861224976841
 30
0.0
 11
70749.64576803753
 21
-2509.861224976841
 31
0.0
  0
LINE
  5
25AB
102
{ACAD_REACTORS
330
25A1
102
}
330
2
100
AcDbEntity
  8
0
  6
Continuous
370
     5
100
AcDbLine
 10
70749.64576803753
 20
-2509.861224976841
 30
0.0
 11
70749.64576803753
 21
-2729.714038719234
 31
0.0
  0
LINE
  5
25AC
102
{ACAD_REACTORS
330
25A1
102
}
330
2
100
AcDbEntity
  8
0
  6
Continuous
370
     5
100
AcDbLine
 10
70749.64576803753
 20
-2729.714038719234
 30
0.0
 11
70849.64576803751
 21
-2829.714038719229
 31
0.0
  0
LINE
  5
25AD
102
{ACAD_REACTORS
330
25A1
102
}
330
2
100
AcDbEntity
  8
0
  6
Continuous
370
     5
100
AcDbLine
 10
70849.64576803751
 20
-2829.714038719229
 30
0.0
 11
70849.64576803751
 21
-2930.008411234446
 31
0.0
  0
LINE
  5
25AE
102
{ACAD_REACTORS
330
25A1
102
}
330
2
100
AcDbEntity
  8
0
  6
Continuous
370
     5
100
AcDbLine
 10
70849.64576803751
 20
-2930.008411234446
 30
0.0
 11
70749.64576803753
 21
-3030.008411234439
 31
0.0
  0
LINE
  5
25AF
102
{ACAD_REACTORS
330
25A1
102
}
330
2
100
AcDbEntity
  8
0
  6
Continuous
370
     5
100
AcDbLine
 10
70749.64576803753
 20
-3030.008411234439
 30
0.0
 11
70749.64576803753
 21
-3249.861224976839
 31
0.0
  0
LINE
  5
25B0
102
{ACAD_REACTORS
330
25A1
102
}
330
2
100
AcDbEntity
  8
0
  6
Continuous
370
     5
100
AcDbLine
 10
70749.64576803753
 20
-3249.861224976839
 30
0.0
 11
69719.64576803753
 21
-3249.861224976839
 31
0.0
  0
LINE
  5
25B1
102
{ACAD_REACTORS
330
25A1
102
}
330
2
100
AcDbEntity
  8
0
  6
Continuous
370
     5
100
AcDbLine
 10
69719.64576803753
 20
-3249.861224976839
 30
0.0
 11
69719.64576803753
 21
-2509.861224976841
 31
0.0
  0
LINE
  5
25B2
102
{ACAD_REACTORS
330
25A1
102
}
330
2
100
AcDbEntity
  8
0
  6
Continuous
370
     5
100
AcDbLine
 10
70365.64576803753
 20
-3249.861224976839
 30
0.0
 11
70365.64576803753
 21
-3309.861224976839
 31
0.0
  0
LINE
  5
25B3
102
{ACAD_REACTORS
330
25A1
102
}
330
2
100
AcDbEntity
  8
0
  6
Continuous
370
     5
100
AcDbLine
 10
70265.64576803753
 20
-3309.861224976839
 30
0.0
 11
70265.64576803753
 21
-3249.861224976839
 31
0.0
  0
LINE
  5
25B6
330
2
100
AcDbEntity
  8
0
  6
Continuous
370
     5
100
AcDbLine
 10
70622.14576803753
 20
-4025.861224976838
 30
0.0
 11
70774.64576803753
 21
-3429.861224976838
 31
0.0
  0
LINE
  5
25B7
330
2
100
AcDbEntity
  8
0
  6
Continuous
370
     5
100
AcDbLine
 10
70468.64576803753
 20
-3429.861224976838
 30
0.0
 11
70622.14576803753
 21
-4025.861224976838
 31
0.0
  0
LINE
  5
25B8
330
2
100
AcDbEntity
  8
0
  6
Continuous
370
     5
100
AcDbLine
 10
70448.64576803753
 20
-4025.861224976931
 30
0.0
 11
70795.64576803753
 21
-4025.861224976746
 31
0.0
  0
LINE
  5
25B9
330
2
100
AcDbEntity
  8
0
  6
Continuous
370
     5
100
AcDbLine
 10
70455.64576803753
 20
-4019.861224976927
 30
0.0
 11
70461.64576803753
 21
-4019.861224976924
 31
0.0
  0
LINE
  5
25BA
330
2
100
AcDbEntity
  8
0
  6
Continuous
370
     5
100
AcDbLine
 10
70455.64576803753
 20
-3700.022497944062
 30
0.0
 11
70461.64576803753
 21
-3700.022497944062
 31
0.0
  0
LINE
  5
25BB
330
2
100
AcDbEntity
  8
0
  6
Continuous
370
     5
100
AcDbLine
 10
70461.64576803753
 20
-3692.022497944062
 30
0.0
 11
70455.64576803753
 21
-3692.022497944062
 31
0.0
  0
LINE
  5
25BC
330
2
100
AcDbEntity
  8
0
  6
Continuous
370
     5
100
AcDbLine
 10
70455.64576803753
 20
-3771.183770911286
 30
0.0
 11
70461.64576803753
 21
-3771.183770911286
 31
0.0
  0
LINE
  5
25BD
330
2
100
AcDbEntity
  8
0
  6
Continuous
370
     5
100
AcDbLine
 10
70461.64576803753
 20
-3763.183770911286
 30
0.0
 11
70455.64576803753
 21
-3763.183770911286
 31
0.0
  0
LINE
  5
25BE
330
2
100
AcDbEntity
  8
0
  6
Continuous
370
     5
100
AcDbLine
 10
70455.64576803753
 20
-3842.345043878509
 30
0.0
 11
70461.64576803753
 21
-3842.345043878509
 31
0.0
  0
LINE
  5
25BF
330
2
100
AcDbEntity
  8
0
  6
Continuous
370
     5
100
AcDbLine
 10
70461.64576803753
 20
-3834.34504387851
 30
0.0
 11
70455.64576803753
 21
-3834.34504387851
 31
0.0
  0
LINE
  5
25C0
330
2
100
AcDbEntity
  8
0
  6
Continuous
370
     5
100
AcDbLine
 10
70455.64576803753
 20
-3913.506316845733
 30
0.0
 11
70461.64576803753
 21
-3913.506316845733
 31
0.0
  0
LINE
  5
25C1
330
2
100
AcDbEntity
  8
0
  6
Continuous
370
     5
100
AcDbLine
 10
70461.64576803753
 20
-3905.506316845733
 30
0.0
 11
70455.64576803753
 21
-3905.506316845733
 31
0.0
  0
LINE
  5
25C2
330
2
100
AcDbEntity
  8
0
  6
Continuous
370
     5
100
AcDbLine
 10
70455.64576803753
 20
-3984.667589812957
 30
0.0
 11
70461.64576803753
 21
-3984.667589812957
 31
0.0
  0
LINE
  5
25C3
330
2
100
AcDbEntity
  8
0
  6
Continuous
370
     5
100
AcDbLine
 10
70461.64576803753
 20
-3976.667589812957
 30
0.0
 11
70455.64576803753
 21
-3976.667589812957
 31
0.0
  0
LINE
  5
25C4
330
2
100
AcDbEntity
  8
0
  6
Continuous
370
     5
100
AcDbLine
 10
70788.64576803753
 20
-4019.861224976927
 30
0.0
 11
70782.64576803753
 21
-4019.861224976924
 31
0.0
  0
LINE
  5
25C5
330
2
100
AcDbEntity
  8
0
  6
Continuous
370
     5
100
AcDbLine
 10
70788.64576803753
 20
-3700.022497944062
 30
0.0
 11
70782.64576803753
 21
-3700.022497944062
 31
0.0
  0
LINE
  5
25C6
330
2
100
AcDbEntity
  8
0
  6
Continuous
370
     5
100
AcDbLine
 10
70782.64576803753
 20
-3692.022497944062
 30
0.0
 11
70788.64576803753
 21
-3692.022497944062
 31
0.0
  0
LINE
  5
25C7
330
2
100
AcDbEntity
  8
0
  6
Continuous
370
     5
100
AcDbLine
 10
70788.64576803753
 20
-3771.183770911286
 30
0.0
 11
70782.64576803753
 21
-3771.183770911286
 31
0.0
  0
LINE
  5
25C8
330
2
100
AcDbEntity
  8
0
  6
Continuous
370
     5
100
AcDbLine
 10
70782.64576803753
 20
-3763.183770911286
 30
0.0
 11
70788.64576803753
 21
-3763.183770911286
 31
0.0
  0
LINE
  5
25C9
330
2
100
AcDbEntity
  8
0
  6
Continuous
370
     5
100
AcDbLine
 10
70788.64576803753
 20
-3842.345043878509
 30
0.0
 11
70782.64576803753
 21
-3842.345043878509
 31
0.0
  0
LINE
  5
25CA
330
2
100
AcDbEntity
  8
0
  6
Continuous
370
     5
100
AcDbLine
 10
70782.64576803753
 20
-3834.34504387851
 30
0.0
 11
70788.64576803753
 21
-3834.34504387851
 31
0.0
  0
LINE
  5
25CB
330
2
100
AcDbEntity
  8
0
  6
Continuous
370
     5
100
AcDbLine
 10
70788.64576803753
 20
-3913.506316845733
 30
0.0
 11
70782.64576803752
 21
-3913.506316845733
 31
0.0
  0
LINE
  5
25CC
330
2
100
AcDbEntity
  8
0
  6
Continuous
370
     5
100
AcDbLine
 10
70782.64576803752
 20
-3905.506316845733
 30
0.0
 11
70788.64576803753
 21
-3905.506316845733
 31
0.0
  0
LINE
  5
25CD
330
2
100
AcDbEntity
  8
0
  6
Continuous
370
     5
100
AcDbLine
 10
70788.64576803753
 20
-3984.667589812957
 30
0.0
 11
70782.64576803753
 21
-3984.667589812957
 31
0.0
  0
LINE
  5
25CE
330
2
100
AcDbEntity
  8
0
  6
Continuous
370
     5
100
AcDbLine
 10
70782.64576803753
 20
-3976.667589812957
 30
0.0
 11
70788.64576803753
 21
-3976.667589812957
 31
0.0
  0
DIMENSION
  5
25CF
330
2
100
AcDbEntity
  8
0Wymiary-PL
 48
4.0
100
AcDbDimension
  2
*D1
 10
70809.64576803753
 20
-1883.987685730506
 30
0.0
 11
70234.64576803753
 21
-1803.987685730506
 31
0.0
 70
    32
 71
     5
 42
1150.0
  3
500
100
AcDbAlignedDimension
 13
69659.64576803753
 23
-2225.530030499685
 33
0.0
 14
70809.64576803753
 24
-2225.530030499685
 34
0.0
100
AcDbRotatedDimension
  0
DIMENSION
  5
25DA
330
2
100
AcDbEntity
  8
0Wymiary-PL
 48
4.0
100
AcDbDimension
  2
*D2
 10
70909.64576803751
 20
-1883.987685730506
 30
0.0
 11
70859.64576803753
 21
-1803.987685730506
 31
0.0
 70
    32
 71
     5
 42
99.99999999998545
  3
500
100
AcDbAlignedDimension
 13
70809.64576803753
 23
-2225.530030499685
 33
0.0
 14
70909.64576803751
 24
-2580.530030499688
 34
0.0
100
AcDbRotatedDimension
  0
DIMENSION
  5
25F7
330
2
100
AcDbEntity
  8
0Wymiary-PL
 48
4.0
100
AcDbDimension
  2
*D3
 10
70909.64576803751
 20
-4171.19874061725
 30
0.0
 11
70284.64576803753
 21
-4091.19874061725
 31
0.0
 70
    32
 71
     5
 42
1249.999999999985
  3
500
100
AcDbAlignedDimension
 13
69659.64576803753
 23
-2367.237443469873
 33
0.0
 14
70909.64576803751
 24
-2797.237443469871
 34
0.0
100
AcDbRotatedDimension
  0
DIMENSION
  5
2602
330
2
100
AcDbEntity
  8
0Wymiary-PL
 48
4.0
100
AcDbDimension
  2
*D4
 10
69182.45665154715
 20
-3309.861224976839
 30
0.0
 11
69102.45665154715
 21
-2879.861224976828
 31
0.0
 70
    32
 71
     5
 42
859.9999999999981
  3
500
100
AcDbAlignedDimension
 13
69323.86423037252
 23
-2449.861224976841
 33
0.0
 14
69323.86423037252
 24
-3309.861224976839
 34
0.0
 50
90.0
100
AcDbRotatedDimension
  0
DIMENSION
  5
260D
330
2
100
AcDbEntity
  8
0Wymiary-PL
 48
4.0
100
AcDbDimension
  2
*D5
 10
71373.07566776455
 20
-2704.86122497685
 30
0.0
 11
71293.07566776455
 21
-2577.361224976833
 31
0.0
 70
    32
 71
     5
 42
255.0000000000091
  3
500
100
AcDbAlignedDimension
 13
71052.31524170478
 23
-2449.861224976841
 33
0.0
 14
71052.31524170478
 24
-2704.86122497685
 34
0.0
 50
90.0
100
AcDbRotatedDimension
  0
DIMENSION
  5
2618
330
2
100
AcDbEntity
  8
0Wymiary-PL
 48
4.0
100
AcDbDimension
  2
*D6
 10
71373.07566776455
 20
-3054.861224976824
 30
0.0
 11
71293.07566776455
 21
-2879.861224976826
 31
0.0
 70
    32
 71
     5
 42
349.9999999999745
  3
500
100
AcDbAlignedDimension
 13
71052.31524170478
 23
-2704.86122497685
 33
0.0
 14
71052.31524170478
 24
-3054.861224976824
 34
0.0
 50
90.0
100
AcDbRotatedDimension
  0
DIMENSION
  5
2623
330
2
100
AcDbEntity
  8
0Wymiary-PL
 48
4.0
100
AcDbDimension
  2
*D7
 10
71373.07566776455
 20
-3309.861224976839
 30
0.0
 11
71293.07566776455
 21
-3182.36122497682
 31
0.0
 70
    32
 71
     5
 42
255.0000000000145
  3
500
100
AcDbAlignedDimension
 13
71052.31524170478
 23
-3054.861224976824
 33
0.0
 14
71025.53800085655
 24
-3309.861224976839
 34
0.0
 50
90.0
100
AcDbRotatedDimension
  0
LINE
  5
2789
330
2
100
AcDbEntity
  8
RAMKI-A4
100
AcDbLine
 10
67093.47064899921
 20
-12697.88942227891
 30
0.0
 11
67093.47064899921
 21
1322.110577721089
 31
0.0
  0
LINE
  5
278A
330
2
100
AcDbEntity
  8
RAMKI-A4
100
AcDbLine
 10
67093.47064899921
 20
1322.110577721089
 30
0.0
 11
77293.47064899924
 21
1322.110577721089
 31
0.0
  0
LINE
  5
278B
330
2
100
AcDbEntity
  8
RAMKI-A4
100
AcDbLine
 10
77293.47064899924
 20
1322.110577721089
 30
0.0
 11
77293.47064899924
 21
-12697.88942227891
 31
0.0
  0
LINE
  5
278C
330
2
100
AcDbEntity
  8
RAMKI-A4
100
AcDbLine
 10
77293.47064899924
 20
-12697.88942227891
 30
0.0
 11
67093.47064899921
 21
-12697.88942227891
 31
0.0
  0
LINE
  5
2B3F
330
2
100
AcDbEntity
  8
0
  6
Continuous
370
     5
100
AcDbLine
 10
69630.67256039286
 20
-3449.861224976839
 30
0.0
 11
70225.64576803753
 21
-3449.861224976839
 31
0.0
  0
ARC
  5
2B40
330
2
100
AcDbEntity
  8
0
  6
Continuous
370
     5
100
AcDbCircle
 10
69630.2435224288
 20
-3330.716894193852
 30
0.0
 40
119.1443307829868
100
AcDbArc
 50
227.9074538721067
 51
270.0
  0
ARC
  5
2B41
330
2
100
AcDbEntity
  8
0
  6
Continuous
370
     5
100
AcDbCircle
 10
69630.2435224288
 20
-3330.716894193852
 30
0.0
 40
297.1443307829868
100
AcDbArc
 50
226.1653659091809
 51
270.0
  0
LINE
  5
2B43
330
2
100
AcDbEntity
  8
0
  6
Continuous
370
     5
100
AcDbLine
 10
70795.64576803753
 20
-3449.861224976839
 30
0.0
 11
70860.50143725454
 21
-3449.861224976839
 31
0.0
  0
ARC
  5
2B44
330
2
100
AcDbEntity
  8
0
  6
Continuous
370
     5
100
AcDbCircle
 10
70860.50143725454
 20
-3330.716894193852
 30
0.0
 40
119.1443307829868
100
AcDbArc
 50
270.0
 51
0.0
  0
ARC
  5
2B45
330
2
100
AcDbEntity
  8
0
  6
Continuous
370
     5
100
AcDbCircle
 10
70860.50143725454
 20
-3330.716894193852
 30
0.0
 40
297.1443307829868
100
AcDbArc
 50
270.0
 51
0.0
  0
LINE
  5
2B46
330
2
100
AcDbEntity
  8
0
  6
Continuous
370
     5
100
AcDbLine
 10
70979.64576803753
 20
-3330.716894193852
 30
0.0
 11
70979.64576803753
 21
-2319.005555759825
 31
0.0
  0
LINE
  5
2B47
330
2
100
AcDbEntity
  8
0
  6
Continuous
370
     5
100
AcDbLine
 10
71157.64576803753
 20
-3330.716894193852
 30
0.0
 11
71157.64576803753
 21
-2319.005555759825
 31
0.0
  0
LINE
  5
2B48
330
2
100
AcDbEntity
  8
0
  6
Continuous
370
     5
100
AcDbLine
 10
70860.50143725454
 20
-2199.861224976839
 30
0.0
 11
69633.3273960272
 21
-2199.861224976839
 31
0.0
  0
LINE
  5
2B49
330
2
100
AcDbEntity
  8
0
  6
Continuous
370
     5
100
AcDbLine
 10
70860.50143725454
 20
-2021.861224976838
 30
0.0
 11
69633.3273960272
 21
-2021.861224976838
 31
0.0
  0
ARC
  5
2B4A
330
2
100
AcDbEntity
  8
0
  6
Continuous
370
     5
100
AcDbCircle
 10
69630.2435224288
 20
-2319.005555759825
 30
0.0
 40
119.144330782987
100
AcDbArc
 50
88.51685956984852
 51
132.0925461278932
  0
ARC
  5
2B4B
330
2
100
AcDbEntity
  8
0
  6
Continuous
370
     5
100
AcDbCircle
 10
69630.2435224288
 20
-2319.005555759825
 30
0.0
 40
297.144330782987
100
AcDbArc
 50
88.51685956984852
 51
133.8346340908191
  0
LINE
  5
2B4C
330
2
100
AcDbEntity
  8
0
  6
Continuous
370
     5
390
1D00
100
AcDbLine
 10
70393.21936116634
 20
-2219.861224976838
 30
0.0
 11
70795.64576803753
 21
-2219.861224976838
 31
0.0
  0
LINE
  5
2B4F
330
2
100
AcDbEntity
  8
0
  6
Continuous
370
     5
390
1D00
100
AcDbLine
 10
70393.21936116634
 20
-2199.861224976839
 30
0.0
 11
70393.21936116634
 21
-2219.861224976838
 31
0.0
  0
LINE
  5
2B50
330
2
100
AcDbEntity
  8
0
  6
Continuous
370
     5
100
AcDbLine
 10
70435.64576803753
 20
-2219.861224976838
 30
0.0
 11
70325.64576803753
 21
-2329.861224976839
 31
0.0
  0
LINE
  5
2B51
330
2
100
AcDbEntity
  8
0
  6
Continuous
370
     5
100
AcDbLine
 10
70393.21936116634
 20
-2219.861224976837
 30
0.0
 11
70295.64576803753
 21
-2317.434818105646
 31
0.0
  0
ARC
  5
2B52
330
2
100
AcDbEntity
  8
0
  6
Continuous
370
     5
100
AcDbCircle
 10
70860.50143725454
 20
-2319.005555759825
 30
0.0
 40
119.1443307829872
100
AcDbArc
 50
0.0
 51
90.0
  0
ARC
  5
2B53
330
2
100
AcDbEntity
  8
0
  6
Continuous
370
     5
100
AcDbCircle
 10
70860.50143725454
 20
-2319.005555759825
 30
0.0
 40
297.1443307829872
100
AcDbArc
 50
0.0
 51
90.0
  0
LINE
  5
2B58
330
2
100
AcDbEntity
  8
0
  6
Continuous
370
     5
100
AcDbLine
 10
69519.64576803753
 20
-2310.45897936812
 30
0.0
 11
69519.64576803753
 21
-3339.263470585558
 31
0.0
  0
LINE
  5
2B59
330
2
100
AcDbEntity
  8
0
  6
Continuous
370
     5
100
AcDbLine
 10
69341.64576803753
 20
-2310.45897936812
 30
0.0
 11
69341.64576803753
 21
-3339.263470585558
 31
0.0
  0
LINE
  5
2B5A
330
2
100
AcDbEntity
  8
0
  6
Continuous
370
     5
100
AcDbLine
 10
70077.54304887992
 20
-3449.861224976839
 30
0.0
 11
70077.54304887992
 21
-3500.802823658594
 31
0.0
  0
LINE
  5
2B5B
330
2
100
AcDbEntity
  8
0
  6
Continuous
370
     5
100
AcDbLine
 10
70097.54304887992
 20
-3449.861224976839
 30
0.0
 11
70097.54304887992
 21
-3478.563000585444
 31
0.0
  0
LINE
  5
2B5C
330
2
100
AcDbEntity
  8
0
  6
Continuous
370
     5
100
AcDbLine
 10
70117.54304887992
 20
-3449.861224976839
 30
0.0
 11
70117.54304887992
 21
-3500.802823658594
 31
0.0
  0
LINE
  5
2B5D
330
2
100
AcDbEntity
  8
0
  6
Continuous
370
     5
100
AcDbLine
 10
70137.54304887991
 20
-3449.861224976839
 30
0.0
 11
70137.54304887991
 21
-3478.563000585444
 31
0.0
  0
LINE
  5
2B5E
330
2
100
AcDbEntity
  8
0
  6
Continuous
370
     5
100
AcDbLine
 10
70157.54304887992
 20
-3449.861224976839
 30
0.0
 11
70157.54304887992
 21
-3500.802823658594
 31
0.0
  0
LINE
  5
2B5F
330
2
100
AcDbEntity
  8
0
  6
Continuous
370
     5
100
AcDbLine
 10
70177.54304887992
 20
-3449.861224976839
 30
0.0
 11
70177.54304887992
 21
-3478.563000585444
 31
0.0
  0
LINE
  5
2B60
330
2
100
AcDbEntity
  8
0
  6
Continuous
370
     5
100
AcDbLine
 10
70052.16895118251
 20
-3449.861224976839
 30
0.0
 11
70052.16895118251
 21
-3478.563000585444
 31
0.0
  0
LINE
  5
2B61
330
2
100
AcDbEntity
  8
0
  6
Continuous
370
     5
100
AcDbLine
 10
69952.16895118251
 20
-3449.861224976839
 30
0.0
 11
69952.16895118251
 21
-3500.802823658594
 31
0.0
  0
LINE
  5
2B62
330
2
100
AcDbEntity
  8
0
  6
Continuous
370
     5
100
AcDbLine
 10
69972.16895118251
 20
-3449.861224976839
 30
0.0
 11
69972.16895118251
 21
-3478.563000585444
 31
0.0
  0
LINE
  5
2B63
330
2
100
AcDbEntity
  8
0
  6
Continuous
370
     5
100
AcDbLine
 10
69992.16895118251
 20
-3449.861224976839
 30
0.0
 11
69992.16895118251
 21
-3500.802823658594
 31
0.0
  0
LINE
  5
2B64
330
2
100
AcDbEntity
  8
0
  6
Continuous
370
     5
100
AcDbLine
 10
70012.1689511825
 20
-3449.861224976839
 30
0.0
 11
70012.1689511825
 21
-3478.563000585444
 31
0.0
  0
LINE
  5
2B65
330
2
100
AcDbEntity
  8
0
  6
Continuous
370
     5
100
AcDbLine
 10
70032.16895118251
 20
-3449.861224976839
 30
0.0
 11
70032.16895118251
 21
-3500.802823658594
 31
0.0
  0
LINE
  5
2B66
330
2
100
AcDbEntity
  8
0
  6
Continuous
370
     5
100
AcDbLine
 10
69926.7948534851
 20
-3449.861224976839
 30
0.0
 11
69926.7948534851
 21
-3478.563000585444
 31
0.0
  0
LINE
  5
2B67
330
2
100
AcDbEntity
  8
0
  6
Continuous
370
     5
100
AcDbLine
 10
69826.7948534851
 20
-3449.861224976839
 30
0.0
 11
69826.7948534851
 21
-3500.802823658594
 31
0.0
  0
LINE
  5
2B68
330
2
100
AcDbEntity
  8
0
  6
Continuous
370
     5
100
AcDbLine
 10
69846.7948534851
 20
-3449.861224976839
 30
0.0
 11
69846.7948534851
 21
-3478.563000585444
 31
0.0
  0
LINE
  5
2B69
330
2
100
AcDbEntity
  8
0
  6
Continuous
370
     5
100
AcDbLine
 10
69866.7948534851
 20
-3449.861224976839
 30
0.0
 11
69866.7948534851
 21
-3500.802823658594
 31
0.0
  0
LINE
  5
2B6A
330
2
100
AcDbEntity
  8
0
  6
Continuous
370
     5
100
AcDbLine
 10
69886.7948534851
 20
-3449.861224976839
 30
0.0
 11
69886.7948534851
 21
-3478.563000585444
 31
0.0
  0
LINE
  5
2B6B
330
2
100
AcDbEntity
  8
0
  6
Continuous
370
     5
100
AcDbLine
 10
69906.7948534851
 20
-3449.861224976839
 30
0.0
 11
69906.7948534851
 21
-3500.802823658594
 31
0.0
  0
LINE
  5
2B6C
330
2
100
AcDbEntity
  8
0
  6
Continuous
370
     5
100
AcDbLine
 10
69801.42075578769
 20
-3449.861224976839
 30
0.0
 11
69801.42075578769
 21
-3478.563000585444
 31
0.0
  0
LINE
  5
2B6D
330
2
100
AcDbEntity
  8
0
  6
Continuous
370
     5
100
AcDbLine
 10
69741.42075578769
 20
-3449.861224976839
 30
0.0
 11
69741.42075578769
 21
-3500.802823658594
 31
0.0
  0
LINE
  5
2B6E
330
2
100
AcDbEntity
  8
0
  6
Continuous
370
     5
100
AcDbLine
 10
69761.4207557877
 20
-3449.861224976839
 30
0.0
 11
69761.4207557877
 21
-3478.563000585444
 31
0.0
  0
LINE
  5
2B6F
330
2
100
AcDbEntity
  8
0
  6
Continuous
370
     5
100
AcDbLine
 10
69781.42075578769
 20
-3449.861224976839
 30
0.0
 11
69781.42075578769
 21
-3500.802823658594
 31
0.0
  0
ARC
  5
2B70
330
2
100
AcDbEntity
  8
0
  6
Continuous
370
     5
100
AcDbCircle
 10
69638.79009882052
 20
-3339.263470585559
 30
0.0
 40
119.1443307829868
100
AcDbArc
 50
180.0
 51
222.0925461273955
  0
ARC
  5
2B71
330
2
100
AcDbEntity
  8
0
  6
Continuous
370
     5
100
AcDbCircle
 10
69638.79009882052
 20
-3339.263470585559
 30
0.0
 40
297.1443307829868
100
AcDbArc
 50
180.0
 51
223.8346340908432
  0
ARC
  5
2B72
330
2
100
AcDbEntity
  8
0
  6
Continuous
370
     5
100
AcDbCircle
 10
69638.79009882052
 20
-2310.45897936812
 30
0.0
 40
119.1443307829868
100
AcDbArc
 50
137.9074538726044
 51
180.0
  0
ARC
  5
2B73
330
2
100
AcDbEntity
  8
0
  6
Continuous
370
     5
100
AcDbCircle
 10
69638.79009882052
 20
-2310.45897936812
 30
0.0
 40
297.1443307829868
100
AcDbArc
 50
136.1653659091567
 51
180.0
  0
LINE
  5
2B74
330
2
100
AcDbEntity
  8
0
  6
Continuous
370
     5
100
AcDbLine
 10
69701.42075578769
 20
-3449.861224976839
 30
0.0
 11
69701.42075578769
 21
-3500.802823658594
 31
0.0
  0
LINE
  5
2B75
330
2
100
AcDbEntity
  8
0
  6
Continuous
370
     5
100
AcDbLine
 10
69721.42075578769
 20
-3449.861224976839
 30
0.0
 11
69721.42075578769
 21
-3478.563000585444
 31
0.0
  0
LINE
  5
2B76
330
2
100
AcDbEntity
  8
0
  6
Continuous
370
     5
100
AcDbLine
 10
69676.04665809028
 20
-3449.861224976839
 30
0.0
 11
69676.04665809028
 21
-3478.563000585444
 31
0.0
  0
LINE
  5
2B77
330
2
100
AcDbEntity
  8
0
  6
Continuous
370
     5
100
AcDbLine
 10
69519.64576803753
 20
-3339.263470585559
 30
0.0
 11
69468.70416935577
 21
-3339.263470585559
 31
0.0
  0
LINE
  5
2B78
330
2
100
AcDbEntity
  8
0
  6
Continuous
370
     5
100
AcDbLine
 10
69519.64576803753
 20
-3313.889372888151
 30
0.0
 11
69490.94399242891
 21
-3313.889372888151
 31
0.0
  0
LINE
  5
2B79
330
2
100
AcDbEntity
  8
0
  6
Continuous
370
     5
100
AcDbLine
 10
69519.64576803753
 20
-3213.889372888151
 30
0.0
 11
69468.70416935577
 21
-3213.889372888151
 31
0.0
  0
LINE
  5
2B7A
330
2
100
AcDbEntity
  8
0
  6
Continuous
370
     5
100
AcDbLine
 10
69519.64576803753
 20
-3233.889372888152
 30
0.0
 11
69490.94399242891
 21
-3233.889372888152
 31
0.0
  0
LINE
  5
2B7B
330
2
100
AcDbEntity
  8
0
  6
Continuous
370
     5
100
AcDbLine
 10
69519.64576803753
 20
-3253.889372888151
 30
0.0
 11
69468.70416935577
 21
-3253.889372888151
 31
0.0
  0
LINE
  5
2B7C
330
2
100
AcDbEntity
  8
0
  6
Continuous
370
     5
100
AcDbLine
 10
69519.64576803753
 20
-3273.889372888151
 30
0.0
 11
69490.94399242891
 21
-3273.889372888151
 31
0.0
  0
LINE
  5
2B7D
330
2
100
AcDbEntity
  8
0
  6
Continuous
370
     5
100
AcDbLine
 10
69519.64576803753
 20
-3293.889372888151
 30
0.0
 11
69468.70416935577
 21
-3293.889372888151
 31
0.0
  0
LINE
  5
2B7E
330
2
100
AcDbEntity
  8
0
  6
Continuous
370
     5
100
AcDbLine
 10
69519.64576803753
 20
-3188.515275190744
 30
0.0
 11
69490.94399242891
 21
-3188.515275190744
 31
0.0
  0
LINE
  5
2B7F
330
2
100
AcDbEntity
  8
0
  6
Continuous
370
     5
100
AcDbLine
 10
69519.64576803753
 20
-3088.515275190744
 30
0.0
 11
69468.70416935577
 21
-3088.515275190744
 31
0.0
  0
LINE
  5
2B80
330
2
100
AcDbEntity
  8
0
  6
Continuous
370
     5
100
AcDbLine
 10
69519.64576803753
 20
-3108.515275190744
 30
0.0
 11
69490.94399242891
 21
-3108.515275190744
 31
0.0
  0
LINE
  5
2B81
330
2
100
AcDbEntity
  8
0
  6
Continuous
370
     5
100
AcDbLine
 10
69519.64576803753
 20
-3128.515275190744
 30
0.0
 11
69468.70416935577
 21
-3128.515275190744
 31
0.0
  0
LINE
  5
2B82
330
2
100
AcDbEntity
  8
0
  6
Continuous
370
     5
100
AcDbLine
 10
69519.64576803753
 20
-3148.515275190744
 30
0.0
 11
69490.94399242891
 21
-3148.515275190744
 31
0.0
  0
LINE
  5
2B83
330
2
100
AcDbEntity
  8
0
  6
Continuous
370
     5
100
AcDbLine
 10
69519.64576803753
 20
-3168.515275190744
 30
0.0
 11
69468.70416935577
 21
-3168.515275190744
 31
0.0
  0
LINE
  5
2B84
330
2
100
AcDbEntity
  8
0
  6
Continuous
370
     5
100
AcDbLine
 10
69519.64576803753
 20
-3063.141177493336
 30
0.0
 11
69490.94399242891
 21
-3063.141177493336
 31
0.0
  0
LINE
  5
2B85
330
2
100
AcDbEntity
  8
0
  6
Continuous
370
     5
100
AcDbLine
 10
69519.64576803753
 20
-3003.141177493336
 30
0.0
 11
69468.70416935577
 21
-3003.141177493336
 31
0.0
  0
LINE
  5
2B86
330
2
100
AcDbEntity
  8
0
  6
Continuous
370
     5
100
AcDbLine
 10
69519.64576803753
 20
-3023.141177493336
 30
0.0
 11
69490.94399242891
 21
-3023.141177493336
 31
0.0
  0
LINE
  5
2B87
330
2
100
AcDbEntity
  8
0
  6
Continuous
370
     5
100
AcDbLine
 10
69519.64576803753
 20
-3043.141177493336
 30
0.0
 11
69468.70416935577
 21
-3043.141177493336
 31
0.0
  0
LINE
  5
2B88
330
2
100
AcDbEntity
  8
0
  6
Continuous
370
     5
100
AcDbLine
 10
69519.64576803753
 20
-2983.141177493336
 30
0.0
 11
69490.94399242891
 21
-2983.141177493336
 31
0.0
  0
LINE
  5
2B89
330
2
100
AcDbEntity
  8
0
  6
Continuous
370
     5
100
AcDbLine
 10
70850.60980478754
 20
-2199.861224976839
 30
0.0
 11
70858.40872972392
 21
-2175.858602092497
 31
0.0
  0
LINE
  5
2B8A
330
2
100
AcDbEntity
  8
0
  6
Continuous
370
     5
100
AcDbLine
 10
70880.66527985414
 20
-2201.57987283933
 30
0.0
 11
70899.43426361759
 21
-2159.424045097778
 31
0.0
  0
LINE
  5
2B8B
330
2
100
AcDbEntity
  8
0
  6
Continuous
370
     5
100
AcDbLine
 10
70909.25468415182
 20
-2210.292665656128
 30
0.0
 11
70924.25468415182
 21
-2184.311903542594
 31
0.0
  0
LINE
  5
2B8C
330
2
100
AcDbEntity
  8
0
  6
Continuous
370
     5
100
AcDbLine
 10
70936.77667925748
 20
-2227.477095622464
 30
0.0
 11
70973.29356855845
 21
-2191.07585508376
 31
0.0
  0
LINE
  5
2B8D
330
2
100
AcDbEntity
  8
0
  6
Continuous
370
     5
100
AcDbLine
 10
70973.3596023642
 20
-2280.816471903255
 30
0.0
 11
70998.04818610222
 21
-2267.74748467769
 31
0.0
  0
LINE
  5
2B8E
330
2
100
AcDbEntity
  8
0
  6
Continuous
370
     5
100
AcDbLine
 10
70978.17760556512
 20
-2300.359082380969
 30
0.0
 11
71028.15205257866
 21
-2289.382081324475
 31
0.0
  0
LINE
  5
2B8F
330
2
100
AcDbEntity
  8
0
  6
Continuous
370
     5
100
AcDbLine
 10
70979.64576803753
 20
-2341.508874438227
 30
0.0
 11
71030.58736671928
 21
-2341.508874438227
 31
0.0
  0
LINE
  5
2B90
330
2
100
AcDbEntity
  8
0
  6
Continuous
370
     5
100
AcDbLine
 10
70979.64576803753
 20
-2321.508874438226
 30
0.0
 11
71008.34754364613
 21
-2321.508874438226
 31
0.0
  0
LINE
  5
2B91
330
2
100
AcDbEntity
  8
0
  6
Continuous
370
     5
100
AcDbLine
 10
70979.64576803753
 20
-2366.882972135634
 30
0.0
 11
71008.34754364613
 21
-2366.882972135634
 31
0.0
  0
LINE
  5
2B92
330
2
100
AcDbEntity
  8
0
  6
Continuous
370
     5
100
AcDbLine
 10
70979.64576803753
 20
-2466.882972135634
 30
0.0
 11
71030.58736671928
 21
-2466.882972135634
 31
0.0
  0
LINE
  5
2B93
330
2
100
AcDbEntity
  8
0
  6
Continuous
370
     5
100
AcDbLine
 10
70979.64576803753
 20
-2446.882972135635
 30
0.0
 11
71008.34754364613
 21
-2446.882972135635
 31
0.0
  0
LINE
  5
2B94
330
2
100
AcDbEntity
  8
0
  6
Continuous
370
     5
100
AcDbLine
 10
70979.64576803753
 20
-2426.882972135635
 30
0.0
 11
71030.58736671928
 21
-2426.882972135635
 31
0.0
  0
LINE
  5
2B95
330
2
100
AcDbEntity
  8
0
  6
Continuous
370
     5
100
AcDbLine
 10
70979.64576803753
 20
-2406.882972135634
 30
0.0
 11
71008.34754364613
 21
-2406.882972135634
 31
0.0
  0
LINE
  5
2B96
330
2
100
AcDbEntity
  8
0
  6
Continuous
370
     5
100
AcDbLine
 10
70979.64576803753
 20
-2386.882972135634
 30
0.0
 11
71030.58736671928
 21
-2386.882972135634
 31
0.0
  0
LINE
  5
2B97
330
2
100
AcDbEntity
  8
0
  6
Continuous
370
     5
100
AcDbLine
 10
70979.64576803753
 20
-2492.257069833042
 30
0.0
 11
71008.34754364613
 21
-2492.257069833042
 31
0.0
  0
LINE
  5
2B98
330
2
100
AcDbEntity
  8
0
  6
Continuous
370
     5
100
AcDbLine
 10
70979.64576803753
 20
-2512.257069833042
 30
0.0
 11
71030.58736671928
 21
-2512.257069833042
 31
0.0
  0
LINE
  5
2B99
330
2
100
AcDbEntity
  8
0
  6
Continuous
370
     5
100
AcDbLine
 10
70979.64576803753
 20
-2532.257069833042
 30
0.0
 11
71008.34754364613
 21
-2532.257069833042
 31
0.0
  0
LINE
  5
2B9A
330
2
100
AcDbEntity
  8
0
  6
Continuous
370
     5
100
AcDbLine
 10
70979.64576803753
 20
-2632.257069833042
 30
0.0
 11
71030.58736671928
 21
-2632.257069833042
 31
0.0
  0
LINE
  5
2B9B
330
2
100
AcDbEntity
  8
0
  6
Continuous
370
     5
100
AcDbLine
 10
70979.64576803753
 20
-2612.257069833042
 30
0.0
 11
71008.34754364613
 21
-2612.257069833042
 31
0.0
  0
LINE
  5
2B9C
330
2
100
AcDbEntity
  8
0
  6
Continuous
370
     5
100
AcDbLine
 10
70979.64576803753
 20
-2592.257069833042
 30
0.0
 11
71030.58736671928
 21
-2592.257069833042
 31
0.0
  0
LINE
  5
2B9D
330
2
100
AcDbEntity
  8
0
  6
Continuous
370
     5
100
AcDbLine
 10
70979.64576803753
 20
-2572.257069833042
 30
0.0
 11
71008.34754364613
 21
-2572.257069833042
 31
0.0
  0
LINE
  5
2B9E
330
2
100
AcDbEntity
  8
0
  6
Continuous
370
     5
100
AcDbLine
 10
70979.64576803753
 20
-2552.257069833042
 30
0.0
 11
71030.58736671928
 21
-2552.257069833042
 31
0.0
  0
LINE
  5
2B9F
330
2
100
AcDbEntity
  8
0
  6
Continuous
370
     5
100
AcDbLine
 10
70979.64576803753
 20
-2657.63116753045
 30
0.0
 11
71008.34754364613
 21
-2657.63116753045
 31
0.0
  0
LINE
  5
2BA0
330
2
100
AcDbEntity
  8
0
  6
Continuous
370
     5
100
AcDbLine
 10
70979.64576803753
 20
-2717.63116753045
 30
0.0
 11
71030.58736671928
 21
-2717.63116753045
 31
0.0
  0
LINE
  5
2BA1
330
2
100
AcDbEntity
  8
0
  6
Continuous
370
     5
100
AcDbLine
 10
70979.64576803753
 20
-2697.63116753045
 30
0.0
 11
71008.34754364613
 21
-2697.63116753045
 31
0.0
  0
LINE
  5
2BA2
330
2
100
AcDbEntity
  8
0
  6
Continuous
370
     5
100
AcDbLine
 10
70979.64576803753
 20
-2677.63116753045
 30
0.0
 11
71030.58736671928
 21
-2677.63116753045
 31
0.0
  0
LINE
  5
2BA3
330
2
100
AcDbEntity
  8
0
  6
Continuous
370
     5
100
AcDbLine
 10
70822.76968440285
 20
-2199.991657805298
 30
0.0
 11
70826.93814531791
 21
-2144.444582437873
 31
0.0
  0
LINE
  5
2BA4
330
2
100
AcDbEntity
  8
0
  6
Continuous
370
     5
100
AcDbLine
 10
70795.89004523979
 20
-2199.861224976839
 30
0.0
 11
70795.83635745954
 21
-2162.709142660989
 31
0.0
  0
LINE
  5
2BA5
330
2
100
AcDbEntity
  8
0
  6
Continuous
370
     5
100
AcDbLine
 10
70630.51594754239
 20
-2199.861224976839
 30
0.0
 11
70630.51594754239
 21
-2171.159449368232
 31
0.0
  0
LINE
  5
2BA6
330
2
100
AcDbEntity
  8
0
  6
Continuous
370
     5
100
AcDbLine
 10
70730.51594754239
 20
-2199.861224976839
 30
0.0
 11
70730.51594754239
 21
-2148.919626295084
 31
0.0
  0
LINE
  5
2BA7
330
2
100
AcDbEntity
  8
0
  6
Continuous
370
     5
100
AcDbLine
 10
70710.51594754239
 20
-2199.861224976839
 30
0.0
 11
70710.51594754239
 21
-2171.159449368232
 31
0.0
  0
LINE
  5
2BA8
330
2
100
AcDbEntity
  8
0
  6
Continuous
370
     5
100
AcDbLine
 10
70690.51594754238
 20
-2199.861224976839
 30
0.0
 11
70690.51594754238
 21
-2148.919626295084
 31
0.0
  0
LINE
  5
2BA9
330
2
100
AcDbEntity
  8
0
  6
Continuous
370
     5
100
AcDbLine
 10
70670.51594754238
 20
-2199.861224976839
 30
0.0
 11
70670.51594754238
 21
-2171.159449368232
 31
0.0
  0
LINE
  5
2BAA
330
2
100
AcDbEntity
  8
0
  6
Continuous
370
     5
100
AcDbLine
 10
70650.51594754239
 20
-2199.861224976839
 30
0.0
 11
70650.51594754239
 21
-2148.919626295084
 31
0.0
  0
LINE
  5
2BAB
330
2
100
AcDbEntity
  8
0
  6
Continuous
370
     5
100
AcDbLine
 10
70755.89004523979
 20
-2199.861224976839
 30
0.0
 11
70755.89004523979
 21
-2171.159449368232
 31
0.0
  0
LINE
  5
2BAC
330
2
100
AcDbEntity
  8
0
  6
Continuous
370
     5
100
AcDbLine
 10
70795.89004523979
 20
-2199.861224976839
 30
0.0
 11
70795.89004523979
 21
-2171.159449368232
 31
0.0
  0
LINE
  5
2BAD
330
2
100
AcDbEntity
  8
0
  6
Continuous
370
     5
100
AcDbLine
 10
70775.89004523979
 20
-2199.861224976839
 30
0.0
 11
70775.89004523979
 21
-2148.919626295084
 31
0.0
  0
LINE
  5
2BAE
330
2
100
AcDbEntity
  8
0
  6
Continuous
370
     5
100
AcDbLine
 10
70465.38612704726
 20
-2199.861224976839
 30
0.0
 11
70465.38612704726
 21
-2171.159449368232
 31
0.0
  0
LINE
  5
2BAF
330
2
100
AcDbEntity
  8
0
  6
Continuous
370
     5
100
AcDbLine
 10
70565.38612704727
 20
-2199.861224976839
 30
0.0
 11
70565.38612704727
 21
-2148.919626295084
 31
0.0
  0
LINE
  5
2BB0
330
2
100
AcDbEntity
  8
0
  6
Continuous
370
     5
100
AcDbLine
 10
70545.38612704726
 20
-2199.861224976839
 30
0.0
 11
70545.38612704726
 21
-2171.159449368232
 31
0.0
  0
LINE
  5
2BB1
330
2
100
AcDbEntity
  8
0
  6
Continuous
370
     5
100
AcDbLine
 10
70525.38612704727
 20
-2199.861224976839
 30
0.0
 11
70525.38612704727
 21
-2148.919626295084
 31
0.0
  0
LINE
  5
2BB2
330
2
100
AcDbEntity
  8
0
  6
Continuous
370
     5
100
AcDbLine
 10
70505.38612704727
 20
-2199.861224976839
 30
0.0
 11
70505.38612704727
 21
-2171.159449368232
 31
0.0
  0
LINE
  5
2BB3
330
2
100
AcDbEntity
  8
0
  6
Continuous
370
     5
100
AcDbLine
 10
70485.38612704727
 20
-2199.861224976839
 30
0.0
 11
70485.38612704727
 21
-2148.919626295084
 31
0.0
  0
LINE
  5
2BB4
330
2
100
AcDbEntity
  8
0
  6
Continuous
370
     5
100
AcDbLine
 10
70590.76022474467
 20
-2199.861224976839
 30
0.0
 11
70590.76022474467
 21
-2171.159449368232
 31
0.0
  0
LINE
  5
2BB5
330
2
100
AcDbEntity
  8
0
  6
Continuous
370
     5
100
AcDbLine
 10
70610.76022474468
 20
-2199.861224976839
 30
0.0
 11
70610.76022474468
 21
-2148.919626295084
 31
0.0
  0
LINE
  5
2BB6
330
2
100
AcDbEntity
  8
0
  6
Continuous
370
     5
100
AcDbLine
 10
70300.25630655212
 20
-2199.861224976837
 30
0.0
 11
70300.25630655212
 21
-2171.159449368232
 31
0.0
  0
LINE
  5
2BB7
330
2
100
AcDbEntity
  8
0
  6
Continuous
370
     5
100
AcDbLine
 10
70400.25630655212
 20
-2199.861224976839
 30
0.0
 11
70400.25630655212
 21
-2148.919626295084
 31
0.0
  0
LINE
  5
2BB8
330
2
100
AcDbEntity
  8
0
  6
Continuous
370
     5
100
AcDbLine
 10
70380.25630655212
 20
-2199.861224976839
 30
0.0
 11
70380.25630655212
 21
-2171.159449368232
 31
0.0
  0
LINE
  5
2BB9
330
2
100
AcDbEntity
  8
0
  6
Continuous
370
     5
100
AcDbLine
 10
70360.25630655212
 20
-2199.861224976839
 30
0.0
 11
70360.25630655212
 21
-2148.919626295084
 31
0.0
  0
LINE
  5
2BBA
330
2
100
AcDbEntity
  8
0
  6
Continuous
370
     5
100
AcDbLine
 10
70340.25630655213
 20
-2199.861224976839
 30
0.0
 11
70340.25630655213
 21
-2171.159449368232
 31
0.0
  0
LINE
  5
2BBB
330
2
100
AcDbEntity
  8
0
  6
Continuous
370
     5
100
AcDbLine
 10
70320.25630655212
 20
-2199.861224976839
 30
0.0
 11
70320.25630655212
 21
-2148.919626295084
 31
0.0
  0
LINE
  5
2BBC
330
2
100
AcDbEntity
  8
0
  6
Continuous
370
     5
100
AcDbLine
 10
70425.63040424953
 20
-2199.861224976839
 30
0.0
 11
70425.63040424953
 21
-2171.159449368232
 31
0.0
  0
LINE
  5
2BBD
330
2
100
AcDbEntity
  8
0
  6
Continuous
370
     5
100
AcDbLine
 10
70445.63040424953
 20
-2199.861224976839
 30
0.0
 11
70445.63040424953
 21
-2148.919626295084
 31
0.0
  0
LINE
  5
2BBE
330
2
100
AcDbEntity
  8
0
  6
Continuous
370
     5
100
AcDbLine
 10
70109.75238835959
 20
-2199.861224976839
 30
0.0
 11
70109.75238835959
 21
-2148.919626295084
 31
0.0
  0
LINE
  5
2BBF
330
2
100
AcDbEntity
  8
0
  6
Continuous
370
     5
100
AcDbLine
 10
70135.12648605699
 20
-2199.861224976839
 30
0.0
 11
70135.12648605699
 21
-2171.159449368232
 31
0.0
  0
LINE
  5
2BC0
330
2
100
AcDbEntity
  8
0
  6
Continuous
370
     5
100
AcDbLine
 10
70235.126486057
 20
-2199.861224976839
 30
0.0
 11
70235.126486057
 21
-2148.919626295084
 31
0.0
  0
LINE
  5
2BC1
330
2
100
AcDbEntity
  8
0
  6
Continuous
370
     5
100
AcDbLine
 10
70215.12648605699
 20
-2199.861224976839
 30
0.0
 11
70215.12648605699
 21
-2171.159449368232
 31
0.0
  0
LINE
  5
2BC2
330
2
100
AcDbEntity
  8
0
  6
Continuous
370
     5
100
AcDbLine
 10
70195.12648605699
 20
-2199.861224976839
 30
0.0
 11
70195.12648605699
 21
-2148.919626295084
 31
0.0
  0
LINE
  5
2BC3
330
2
100
AcDbEntity
  8
0
  6
Continuous
370
     5
100
AcDbLine
 10
70175.12648605699
 20
-2199.861224976839
 30
0.0
 11
70175.12648605699
 21
-2171.159449368232
 31
0.0
  0
LINE
  5
2BC4
330
2
100
AcDbEntity
  8
0
  6
Continuous
370
     5
100
AcDbLine
 10
70155.126486057
 20
-2199.861224976839
 30
0.0
 11
70155.126486057
 21
-2148.919626295084
 31
0.0
  0
LINE
  5
2BC5
330
2
100
AcDbEntity
  8
0
  6
Continuous
370
     5
100
AcDbLine
 10
70260.5005837544
 20
-2199.861224976839
 30
0.0
 11
70260.5005837544
 21
-2171.159449368232
 31
0.0
  0
LINE
  5
2BC6
330
2
100
AcDbEntity
  8
0
  6
Continuous
370
     5
100
AcDbLine
 10
70280.5005837544
 20
-2199.861224976839
 30
0.0
 11
70280.5005837544
 21
-2148.919626295084
 31
0.0
  0
LINE
  5
2BC7
330
2
100
AcDbEntity
  8
0
  6
Continuous
370
     5
100
AcDbLine
 10
70095.12648605701
 20
-2199.861224976837
 30
0.0
 11
70095.12648605701
 21
-2171.159449368232
 31
0.0
  0
LINE
  5
2BC8
330
2
100
AcDbEntity
  8
0
  6
Continuous
370
     5
100
AcDbLine
 10
69904.62256786446
 20
-2199.861224976837
 30
0.0
 11
69904.62256786446
 21
-2148.919626295083
 31
0.0
  0
LINE
  5
2BC9
330
2
100
AcDbEntity
  8
0
  6
Continuous
370
     5
100
AcDbLine
 10
69929.99666556186
 20
-2199.861224976839
 30
0.0
 11
69929.99666556186
 21
-2171.159449368232
 31
0.0
  0
LINE
  5
2BCA
330
2
100
AcDbEntity
  8
0
  6
Continuous
370
     5
100
AcDbLine
 10
70029.99666556186
 20
-2199.861224976839
 30
0.0
 11
70029.99666556186
 21
-2148.919626295084
 31
0.0
  0
LINE
  5
2BCB
330
2
100
AcDbEntity
  8
0
  6
Continuous
370
     5
100
AcDbLine
 10
70009.99666556186
 20
-2199.861224976839
 30
0.0
 11
70009.99666556186
 21
-2171.159449368232
 31
0.0
  0
LINE
  5
2BCC
330
2
100
AcDbEntity
  8
0
  6
Continuous
370
     5
100
AcDbLine
 10
69989.99666556186
 20
-2199.861224976839
 30
0.0
 11
69989.99666556186
 21
-2148.919626295084
 31
0.0
  0
LINE
  5
2BCD
330
2
100
AcDbEntity
  8
0
  6
Continuous
370
     5
100
AcDbLine
 10
69969.99666556186
 20
-2199.861224976839
 30
0.0
 11
69969.99666556186
 21
-2171.159449368232
 31
0.0
  0
LINE
  5
2BCE
330
2
100
AcDbEntity
  8
0
  6
Continuous
370
     5
100
AcDbLine
 10
69949.99666556186
 20
-2199.861224976839
 30
0.0
 11
69949.99666556186
 21
-2148.919626295084
 31
0.0
  0
LINE
  5
2BCF
330
2
100
AcDbEntity
  8
0
  6
Continuous
370
     5
100
AcDbLine
 10
70055.37076325927
 20
-2199.861224976839
 30
0.0
 11
70055.37076325927
 21
-2171.159449368232
 31
0.0
  0
LINE
  5
2BD0
330
2
100
AcDbEntity
  8
0
  6
Continuous
370
     5
100
AcDbLine
 10
70075.37076325927
 20
-2199.861224976839
 30
0.0
 11
70075.37076325927
 21
-2148.919626295084
 31
0.0
  0
LINE
  5
2BD1
330
2
100
AcDbEntity
  8
0
  6
Continuous
370
     5
100
AcDbLine
 10
69864.62256786445
 20
-2199.861224976837
 30
0.0
 11
69864.62256786445
 21
-2171.159449368232
 31
0.0
  0
LINE
  5
2BD2
330
2
100
AcDbEntity
  8
0
  6
Continuous
370
     5
100
AcDbLine
 10
69884.62256786445
 20
-2199.861224976837
 30
0.0
 11
69884.62256786445
 21
-2148.919626295083
 31
0.0
  0
LINE
  5
2BD3
330
2
100
AcDbEntity
  8
0
  6
Continuous
370
     5
100
AcDbLine
 10
69674.11864967192
 20
-2199.861224976837
 30
0.0
 11
69674.11864967192
 21
-2148.919626295083
 31
0.0
  0
LINE
  5
2BD4
330
2
100
AcDbEntity
  8
0
  6
Continuous
370
     5
100
AcDbLine
 10
69699.49274736932
 20
-2199.861224976837
 30
0.0
 11
69699.49274736932
 21
-2171.159449368232
 31
0.0
  0
LINE
  5
2BD5
330
2
100
AcDbEntity
  8
0
  6
Continuous
370
     5
100
AcDbLine
 10
69799.49274736933
 20
-2199.861224976839
 30
0.0
 11
69799.49274736933
 21
-2148.919626295084
 31
0.0
  0
LINE
  5
2BD6
330
2
100
AcDbEntity
  8
0
  6
Continuous
370
     5
100
AcDbLine
 10
69779.49274736932
 20
-2199.861224976837
 30
0.0
 11
69779.49274736932
 21
-2171.159449368232
 31
0.0
  0
LINE
  5
2BD7
330
2
100
AcDbEntity
  8
0
  6
Continuous
370
     5
100
AcDbLine
 10
69759.49274736932
 20
-2199.861224976837
 30
0.0
 11
69759.49274736932
 21
-2148.919626295083
 31
0.0
  0
LINE
  5
2BD8
330
2
100
AcDbEntity
  8
0
  6
Continuous
370
     5
100
AcDbLine
 10
69739.49274736932
 20
-2199.861224976837
 30
0.0
 11
69739.49274736932
 21
-2171.159449368232
 31
0.0
  0
LINE
  5
2BD9
330
2
100
AcDbEntity
  8
0
  6
Continuous
370
     5
100
AcDbLine
 10
69719.49274736933
 20
-2199.861224976837
 30
0.0
 11
69719.49274736933
 21
-2148.919626295083
 31
0.0
  0
LINE
  5
2BDA
330
2
100
AcDbEntity
  8
0
  6
Continuous
370
     5
100
AcDbLine
 10
69824.86684506673
 20
-2199.861224976839
 30
0.0
 11
69824.86684506673
 21
-2171.159449368232
 31
0.0
  0
LINE
  5
2BDB
330
2
100
AcDbEntity
  8
0
  6
Continuous
370
     5
100
AcDbLine
 10
69844.86684506673
 20
-2199.861224976837
 30
0.0
 11
69844.86684506673
 21
-2148.919626295083
 31
0.0
  0
LINE
  5
2BDC
330
2
100
AcDbEntity
  8
0
  6
Continuous
370
     5
100
AcDbLine
 10
70979.64576803753
 20
-2757.63116753045
 30
0.0
 11
71030.58736671928
 21
-2757.63116753045
 31
0.0
  0
LINE
  5
2BDD
330
2
100
AcDbEntity
  8
0
  6
Continuous
370
     5
100
AcDbLine
 10
70979.64576803753
 20
-2737.63116753045
 30
0.0
 11
71008.34754364613
 21
-2737.63116753045
 31
0.0
  0
LINE
  5
2BDE
330
2
100
AcDbEntity
  8
0
  6
Continuous
370
     5
100
AcDbLine
 10
70979.64576803753
 20
-2783.005265227858
 30
0.0
 11
71008.34754364613
 21
-2783.005265227858
 31
0.0
  0
LINE
  5
2BDF
330
2
100
AcDbEntity
  8
0
  6
Continuous
370
     5
100
AcDbLine
 10
70979.64576803753
 20
-2843.005265227857
 30
0.0
 11
71030.58736671928
 21
-2843.005265227857
 31
0.0
  0
LINE
  5
2BE0
330
2
100
AcDbEntity
  8
0
  6
Continuous
370
     5
100
AcDbLine
 10
70979.64576803753
 20
-2823.005265227858
 30
0.0
 11
71008.34754364613
 21
-2823.005265227858
 31
0.0
  0
LINE
  5
2BE1
330
2
100
AcDbEntity
  8
0
  6
Continuous
370
     5
100
AcDbLine
 10
70979.64576803753
 20
-2803.005265227858
 30
0.0
 11
71030.58736671928
 21
-2803.005265227858
 31
0.0
  0
LINE
  5
2BE2
330
2
100
AcDbEntity
  8
0
  6
Continuous
370
     5
100
AcDbLine
 10
70979.64576803753
 20
-2883.005265227858
 30
0.0
 11
71030.58736671928
 21
-2883.005265227858
 31
0.0
  0
LINE
  5
2BE3
330
2
100
AcDbEntity
  8
0
  6
Continuous
370
     5
100
AcDbLine
 10
70979.64576803753
 20
-2863.005265227858
 30
0.0
 11
71008.34754364613
 21
-2863.005265227858
 31
0.0
  0
LINE
  5
2BE4
330
2
100
AcDbEntity
  8
0
  6
Continuous
370
     5
100
AcDbLine
 10
70979.64576803753
 20
-2908.379362925265
 30
0.0
 11
71008.34754364613
 21
-2908.379362925265
 31
0.0
  0
LINE
  5
2BE5
330
2
100
AcDbEntity
  8
0
  6
Continuous
370
     5
100
AcDbLine
 10
70979.64576803753
 20
-2968.379362925265
 30
0.0
 11
71030.58736671928
 21
-2968.379362925265
 31
0.0
  0
LINE
  5
2BE6
330
2
100
AcDbEntity
  8
0
  6
Continuous
370
     5
100
AcDbLine
 10
70979.64576803753
 20
-2948.379362925265
 30
0.0
 11
71008.34754364613
 21
-2948.379362925265
 31
0.0
  0
LINE
  5
2BE7
330
2
100
AcDbEntity
  8
0
  6
Continuous
370
     5
100
AcDbLine
 10
70979.64576803753
 20
-2928.379362925265
 30
0.0
 11
71030.58736671928
 21
-2928.379362925265
 31
0.0
  0
LINE
  5
2BE8
330
2
100
AcDbEntity
  8
0
  6
Continuous
370
     5
100
AcDbLine
 10
70979.64576803753
 20
-3008.379362925265
 30
0.0
 11
71030.58736671928
 21
-3008.379362925265
 31
0.0
  0
LINE
  5
2BE9
330
2
100
AcDbEntity
  8
0
  6
Continuous
370
     5
100
AcDbLine
 10
70979.64576803753
 20
-2988.379362925265
 30
0.0
 11
71008.34754364613
 21
-2988.379362925265
 31
0.0
  0
LINE
  5
2BEA
330
2
100
AcDbEntity
  8
0
  6
Continuous
370
     5
100
AcDbLine
 10
70979.64576803753
 20
-3033.753460622673
 30
0.0
 11
71008.34754364613
 21
-3033.753460622673
 31
0.0
  0
LINE
  5
2BEB
330
2
100
AcDbEntity
  8
0
  6
Continuous
370
     5
100
AcDbLine
 10
70979.64576803753
 20
-3093.753460622673
 30
0.0
 11
71030.58736671928
 21
-3093.753460622673
 31
0.0
  0
LINE
  5
2BEC
330
2
100
AcDbEntity
  8
0
  6
Continuous
370
     5
100
AcDbLine
 10
70979.64576803753
 20
-3073.753460622673
 30
0.0
 11
71008.34754364613
 21
-3073.753460622673
 31
0.0
  0
LINE
  5
2BED
330
2
100
AcDbEntity
  8
0
  6
Continuous
370
     5
100
AcDbLine
 10
70979.64576803753
 20
-3053.753460622673
 30
0.0
 11
71030.58736671928
 21
-3053.753460622673
 31
0.0
  0
LINE
  5
2BEE
330
2
100
AcDbEntity
  8
0
  6
Continuous
370
     5
100
AcDbLine
 10
70979.64576803753
 20
-3133.753460622673
 30
0.0
 11
71030.58736671928
 21
-3133.753460622673
 31
0.0
  0
LINE
  5
2BEF
330
2
100
AcDbEntity
  8
0
  6
Continuous
370
     5
100
AcDbLine
 10
70979.64576803753
 20
-3113.753460622673
 30
0.0
 11
71008.34754364613
 21
-3113.753460622673
 31
0.0
  0
LINE
  5
2BF0
330
2
100
AcDbEntity
  8
0
  6
Continuous
370
     5
100
AcDbLine
 10
70979.64576803753
 20
-3159.127558320081
 30
0.0
 11
71008.34754364613
 21
-3159.127558320081
 31
0.0
  0
LINE
  5
2BF1
330
2
100
AcDbEntity
  8
0
  6
Continuous
370
     5
100
AcDbLine
 10
70979.64576803753
 20
-3219.127558320081
 30
0.0
 11
71030.58736671928
 21
-3219.127558320081
 31
0.0
  0
LINE
  5
2BF2
330
2
100
AcDbEntity
  8
0
  6
Continuous
370
     5
100
AcDbLine
 10
70979.64576803753
 20
-3199.127558320081
 30
0.0
 11
71008.34754364613
 21
-3199.127558320081
 31
0.0
  0
LINE
  5
2BF3
330
2
100
AcDbEntity
  8
0
  6
Continuous
370
     5
100
AcDbLine
 10
70979.64576803753
 20
-3179.127558320081
 30
0.0
 11
71030.58736671928
 21
-3179.127558320081
 31
0.0
  0
LINE
  5
2BF4
330
2
100
AcDbEntity
  8
0
  6
Continuous
370
     5
100
AcDbLine
 10
70979.64576803753
 20
-3259.127558320081
 30
0.0
 11
71030.58736671928
 21
-3259.127558320081
 31
0.0
  0
LINE
  5
2BF5
330
2
100
AcDbEntity
  8
0
  6
Continuous
370
     5
100
AcDbLine
 10
70979.64576803753
 20
-3239.12755832008
 30
0.0
 11
71008.34754364613
 21
-3239.12755832008
 31
0.0
  0
LINE
  5
2BF6
330
2
100
AcDbEntity
  8
0
  6
Continuous
370
     5
100
AcDbLine
 10
70979.64576803753
 20
-3284.501656017488
 30
0.0
 11
71008.34754364613
 21
-3284.501656017488
 31
0.0
  0
LINE
  5
2BF7
330
2
100
AcDbEntity
  8
0
  6
Continuous
370
     5
100
AcDbLine
 10
70979.64576803753
 20
-3344.501656017488
 30
0.0
 11
71030.58736671928
 21
-3344.501656017488
 31
0.0
  0
LINE
  5
2BF8
330
2
100
AcDbEntity
  8
0
  6
Continuous
370
     5
100
AcDbLine
 10
70979.64576803753
 20
-3324.501656017488
 30
0.0
 11
71008.34754364613
 21
-3324.501656017488
 31
0.0
  0
LINE
  5
2BF9
330
2
100
AcDbEntity
  8
0
  6
Continuous
370
     5
100
AcDbLine
 10
70979.64576803753
 20
-3304.501656017488
 30
0.0
 11
71030.58736671928
 21
-3304.501656017488
 31
0.0
  0
LINE
  5
2BFA
330
2
100
AcDbEntity
  8
0
  6
Continuous
370
     5
100
AcDbLine
 10
69519.64576803753
 20
-2963.141177493336
 30
0.0
 11
69468.70416935577
 21
-2963.141177493336
 31
0.0
  0
LINE
  5
2BFB
330
2
100
AcDbEntity
  8
0
  6
Continuous
370
     5
100
AcDbLine
 10
69519.64576803753
 20
-2937.767079795928
 30
0.0
 11
69490.94399242891
 21
-2937.767079795928
 31
0.0
  0
LINE
  5
2BFC
330
2
100
AcDbEntity
  8
0
  6
Continuous
370
     5
100
AcDbLine
 10
69519.64576803753
 20
-2837.767079795928
 30
0.0
 11
69468.70416935577
 21
-2837.767079795928
 31
0.0
  0
LINE
  5
2BFD
330
2
100
AcDbEntity
  8
0
  6
Continuous
370
     5
100
AcDbLine
 10
69519.64576803753
 20
-2857.767079795928
 30
0.0
 11
69490.94399242891
 21
-2857.767079795928
 31
0.0
  0
LINE
  5
2BFE
330
2
100
AcDbEntity
  8
0
  6
Continuous
370
     5
100
AcDbLine
 10
69519.64576803753
 20
-2877.767079795928
 30
0.0
 11
69468.70416935577
 21
-2877.767079795928
 31
0.0
  0
LINE
  5
2BFF
330
2
100
AcDbEntity
  8
0
  6
Continuous
370
     5
100
AcDbLine
 10
69519.64576803753
 20
-2897.767079795928
 30
0.0
 11
69490.94399242891
 21
-2897.767079795928
 31
0.0
  0
LINE
  5
2C00
330
2
100
AcDbEntity
  8
0
  6
Continuous
370
     5
100
AcDbLine
 10
69519.64576803753
 20
-2917.767079795928
 30
0.0
 11
69468.70416935577
 21
-2917.767079795928
 31
0.0
  0
LINE
  5
2C01
330
2
100
AcDbEntity
  8
0
  6
Continuous
370
     5
100
AcDbLine
 10
69519.64576803753
 20
-2812.392982098521
 30
0.0
 11
69490.94399242891
 21
-2812.392982098521
 31
0.0
  0
LINE
  5
2C02
330
2
100
AcDbEntity
  8
0
  6
Continuous
370
     5
100
AcDbLine
 10
69519.64576803753
 20
-2752.392982098521
 30
0.0
 11
69468.70416935577
 21
-2752.392982098521
 31
0.0
  0
LINE
  5
2C03
330
2
100
AcDbEntity
  8
0
  6
Continuous
370
     5
100
AcDbLine
 10
69519.64576803753
 20
-2772.392982098521
 30
0.0
 11
69490.94399242891
 21
-2772.392982098521
 31
0.0
  0
LINE
  5
2C04
330
2
100
AcDbEntity
  8
0
  6
Continuous
370
     5
100
AcDbLine
 10
69519.64576803753
 20
-2792.392982098521
 30
0.0
 11
69468.70416935577
 21
-2792.392982098521
 31
0.0
  0
LINE
  5
2C05
330
2
100
AcDbEntity
  8
0
  6
Continuous
370
     5
100
AcDbLine
 10
69519.64576803753
 20
-2732.392982098521
 30
0.0
 11
69490.94399242891
 21
-2732.392982098521
 31
0.0
  0
LINE
  5
2C06
330
2
100
AcDbEntity
  8
0
  6
Continuous
370
     5
100
AcDbLine
 10
69519.64576803753
 20
-2712.392982098521
 30
0.0
 11
69468.70416935577
 21
-2712.392982098521
 31
0.0
  0
LINE
  5
2C07
330
2
100
AcDbEntity
  8
0
  6
Continuous
370
     5
100
AcDbLine
 10
69519.64576803753
 20
-2687.018884401113
 30
0.0
 11
69490.94399242891
 21
-2687.018884401113
 31
0.0
  0
LINE
  5
2C08
330
2
100
AcDbEntity
  8
0
  6
Continuous
370
     5
100
AcDbLine
 10
69519.64576803753
 20
-2587.018884401113
 30
0.0
 11
69468.70416935577
 21
-2587.018884401113
 31
0.0
  0
LINE
  5
2C09
330
2
100
AcDbEntity
  8
0
  6
Continuous
370
     5
100
AcDbLine
 10
69519.64576803753
 20
-2607.018884401113
 30
0.0
 11
69490.94399242891
 21
-2607.018884401113
 31
0.0
  0
LINE
  5
2C0A
330
2
100
AcDbEntity
  8
0
  6
Continuous
370
     5
100
AcDbLine
 10
69519.64576803753
 20
-2627.018884401113
 30
0.0
 11
69468.70416935577
 21
-2627.018884401113
 31
0.0
  0
LINE
  5
2C0B
330
2
100
AcDbEntity
  8
0
  6
Continuous
370
     5
100
AcDbLine
 10
69519.64576803753
 20
-2647.018884401113
 30
0.0
 11
69490.94399242891
 21
-2647.018884401113
 31
0.0
  0
LINE
  5
2C0C
330
2
100
AcDbEntity
  8
0
  6
Continuous
370
     5
100
AcDbLine
 10
69519.64576803753
 20
-2667.018884401113
 30
0.0
 11
69468.70416935577
 21
-2667.018884401113
 31
0.0
  0
LINE
  5
2C0D
330
2
100
AcDbEntity
  8
0
  6
Continuous
370
     5
100
AcDbLine
 10
69519.64576803753
 20
-2561.644786703705
 30
0.0
 11
69490.94399242891
 21
-2561.644786703705
 31
0.0
  0
LINE
  5
2C0E
330
2
100
AcDbEntity
  8
0
  6
Continuous
370
     5
100
AcDbLine
 10
69519.64576803753
 20
-2501.644786703705
 30
0.0
 11
69468.70416935577
 21
-2501.644786703705
 31
0.0
  0
LINE
  5
2C0F
330
2
100
AcDbEntity
  8
0
  6
Continuous
370
     5
100
AcDbLine
 10
69519.64576803753
 20
-2521.644786703705
 30
0.0
 11
69490.94399242891
 21
-2521.644786703705
 31
0.0
  0
LINE
  5
2C10
330
2
100
AcDbEntity
  8
0
  6
Continuous
370
     5
100
AcDbLine
 10
69519.64576803753
 20
-2541.644786703705
 30
0.0
 11
69468.70416935577
 21
-2541.644786703705
 31
0.0
  0
LINE
  5
2C11
330
2
100
AcDbEntity
  8
0
  6
Continuous
370
     5
100
AcDbLine
 10
69519.64576803753
 20
-2481.644786703705
 30
0.0
 11
69490.94399242891
 21
-2481.644786703705
 31
0.0
  0
LINE
  5
2C12
330
2
100
AcDbEntity
  8
0
  6
Continuous
370
     5
100
AcDbLine
 10
69519.64576803753
 20
-2461.644786703705
 30
0.0
 11
69468.70416935577
 21
-2461.644786703705
 31
0.0
  0
LINE
  5
2C13
330
2
100
AcDbEntity
  8
0
  6
Continuous
370
     5
100
AcDbLine
 10
69519.64576803753
 20
-2436.270689006298
 30
0.0
 11
69490.94399242891
 21
-2436.270689006298
 31
0.0
  0
LINE
  5
2C14
330
2
100
AcDbEntity
  8
0
  6
Continuous
370
     5
100
AcDbLine
 10
69519.64576803753
 20
-2336.270689006298
 30
0.0
 11
69468.70416935577
 21
-2336.270689006298
 31
0.0
  0
LINE
  5
2C15
330
2
100
AcDbEntity
  8
0
  6
Continuous
370
     5
100
AcDbLine
 10
69519.64576803753
 20
-2356.270689006297
 30
0.0
 11
69490.94399242891
 21
-2356.270689006297
 31
0.0
  0
LINE
  5
2C16
330
2
100
AcDbEntity
  8
0
  6
Continuous
370
     5
100
AcDbLine
 10
69519.64576803753
 20
-2376.270689006297
 30
0.0
 11
69468.70416935577
 21
-2376.270689006297
 31
0.0
  0
LINE
  5
2C17
330
2
100
AcDbEntity
  8
0
  6
Continuous
370
     5
100
AcDbLine
 10
69519.64576803753
 20
-2396.270689006298
 30
0.0
 11
69490.94399242891
 21
-2396.270689006298
 31
0.0
  0
LINE
  5
2C18
330
2
100
AcDbEntity
  8
0
  6
Continuous
370
     5
100
AcDbLine
 10
69519.64576803753
 20
-2416.270689006298
 30
0.0
 11
69468.70416935577
 21
-2416.270689006298
 31
0.0
  0
LINE
  5
2C19
330
2
100
AcDbEntity
  8
0
  6
Continuous
370
     5
100
AcDbLine
 10
69519.64576803753
 20
-2310.896591308889
 30
0.0
 11
69490.94399242891
 21
-2310.896591308889
 31
0.0
  0
LINE
  5
2C1A
330
2
100
AcDbEntity
  8
0
  6
Continuous
370
     5
100
AcDbLine
 10
69535.60243731775
 20
-2250.89659130889
 30
0.0
 11
69490.90253056852
 21
-2233.09711526903
 31
0.0
  0
LINE
  5
2C1B
330
2
100
AcDbEntity
  8
0
  6
Continuous
370
     5
100
AcDbLine
 10
69525.71654984264
 20
-2272.912420547417
 30
0.0
 11
69493.30922068956
 21
-2266.799895789956
 31
0.0
  0
LINE
  5
2C1C
330
2
100
AcDbEntity
  8
0
  6
Continuous
370
     5
100
AcDbLine
 10
69521.26272102646
 20
-2290.896591308889
 30
0.0
 11
69468.70416935577
 21
-2286.908371179125
 31
0.0
  0
LINE
  5
2C1D
330
2
100
AcDbEntity
  8
0
  6
Continuous
370
     5
100
AcDbLine
 10
69547.62045143425
 20
-2233.755218357394
 30
0.0
 11
69526.07942037517
 21
-2218.585700457728
 31
0.0
  0
LINE
  5
2C1E
330
2
100
AcDbEntity
  8
0
  6
Continuous
370
     5
100
AcDbLine
 10
69599.30351972869
 20
-2203.948666393552
 30
0.0
 11
69589.49130438061
 21
-2160.663765322205
 31
0.0
  0
LINE
  5
2C1F
330
2
100
AcDbEntity
  8
0
  6
Continuous
370
     5
100
AcDbLine
 10
69619.96544034446
 20
-2200.305376373301
 30
0.0
 11
69616.34298597076
 21
-2177.018667594081
 31
0.0
  0
LINE
  5
2C20
330
2
100
AcDbEntity
  8
0
  6
Continuous
370
     5
100
AcDbLine
 10
69576.47146307147
 20
-2212.68558026041
 30
0.0
 11
69565.40143061276
 21
-2188.947611691701
 31
0.0
  0
LINE
  5
2C21
330
2
100
AcDbEntity
  8
0
  6
Continuous
370
     5
100
AcDbLine
 10
69559.79992235278
 20
-2222.916686653915
 30
0.0
 11
69529.78938013862
 21
-2183.590445407972
 31
0.0
  0
LINE
  5
2C22
330
2
100
AcDbEntity
  8
0
  6
Continuous
370
     5
100
AcDbLine
 10
69633.32712746164
 20
-2199.986534163873
 30
0.0
 11
69633.43266359524
 21
-2150.74475214219
 31
0.0
  0
LINE
  5
2C23
330
2
100
AcDbEntity
  8
0
  6
Continuous
370
     5
100
AcDbLine
 10
69654.11864967191
 20
-2199.861224976837
 30
0.0
 11
69654.11864967191
 21
-2171.159449368232
 31
0.0
  0
LINE
  5
2C24
330
2
100
AcDbEntity
  8
0
  6
Continuous
370
     5
100
AcDbLine
 10
69656.04665809027
 20
-3449.861224976839
 30
0.0
 11
69656.04665809027
 21
-3500.802823658594
 31
0.0
  0
LINE
  5
2C25
330
2
100
AcDbEntity
  8
0
  6
Continuous
370
     5
100
AcDbLine
 10
69630.67256039286
 20
-3449.861224976838
 30
0.0
 11
69630.67256039286
 21
-3478.839854203306
 31
0.0
  0
LINE
  5
2C26
330
2
100
AcDbEntity
  8
0
  6
Continuous
370
     5
100
AcDbLine
 10
69610.38540390846
 20
-3448.19466522547
 30
0.0
 11
69601.86919709906
 21
-3497.584765796727
 31
0.0
  0
LINE
  5
2C27
330
2
100
AcDbEntity
  8
0
  6
Continuous
370
     5
100
AcDbLine
 10
69528.62402956199
 20
-3384.637568282967
 30
0.0
 11
69475.41438031598
 21
-3407.008730346374
 31
0.0
  0
LINE
  5
2C28
330
2
100
AcDbEntity
  8
0
  6
Continuous
370
     5
100
AcDbLine
 10
69519.64576803753
 20
-3359.263470585559
 30
0.0
 11
69490.94399242891
 21
-3359.263470585559
 31
0.0
  0
LINE
  5
2C29
330
2
100
AcDbEntity
  8
0
  6
Continuous
370
     5
100
AcDbLine
 10
69557.25816334611
 20
-3424.889655209419
 30
0.0
 11
69529.19381662637
 21
-3464.125233770248
 31
0.0
  0
LINE
  5
2C2A
330
2
100
AcDbEntity
  8
0
  6
Continuous
370
     5
100
AcDbLine
 10
69539.18287564882
 20
-3404.637568282967
 30
0.0
 11
69513.26089452528
 21
-3426.954470379328
 31
0.0
  0
LINE
  5
2C2B
330
2
100
AcDbEntity
  8
0
  6
Continuous
370
     5
100
AcDbLine
 10
69587.45619490787
 20
-3441.913189821637
 30
0.0
 11
69579.08167765595
 21
-3466.05678925838
 31
0.0
  0
LINE
  5
2C2C
330
2
100
AcDbEntity
  8
0
  6
Continuous
370
     5
100
AcDbLine
 10
70974.75537121852
 20
-3364.501656017488
 30
0.0
 11
71008.34754364613
 21
-3369.45837461103
 31
0.0
  0
LINE
  5
2C2D
330
2
100
AcDbEntity
  8
0
  6
Continuous
370
     5
100
AcDbLine
 10
70966.81498744123
 20
-3384.501656017488
 30
0.0
 11
71021.02033274968
 21
-3406.018867576662
 31
0.0
  0
LINE
  5
2C2E
330
2
100
AcDbEntity
  8
0
  6
Continuous
370
     5
100
AcDbLine
 10
70925.41368700057
 20
-3430.507911653775
 30
0.0
 11
70943.6182676534
 21
-3465.069604276268
 31
0.0
  0
LINE
  5
2C2F
330
2
100
AcDbEntity
  8
0
  6
Continuous
370
     5
100
AcDbLine
 10
70905.31467650653
 20
-3441.112297836713
 30
0.0
 11
70927.82566063309
 21
-3491.797007613917
 31
0.0
  0
LINE
  5
2C30
330
2
100
AcDbEntity
  8
0
  6
Continuous
370
     5
100
AcDbLine
 10
70878.511036316
 20
-3448.492213761964
 30
0.0
 11
70886.38949681334
 21
-3481.866987512154
 31
0.0
  0
LINE
  5
2C31
330
2
100
AcDbEntity
  8
0
  6
Continuous
370
     5
100
AcDbLine
 10
70832.16287297077
 20
-3449.861224976839
 30
0.0
 11
70832.16287297077
 21
-3478.563000585444
 31
0.0
  0
LINE
  5
2C32
330
2
100
AcDbEntity
  8
0
  6
Continuous
370
     5
100
AcDbLine
 10
70852.16287297077
 20
-3449.861224976839
 30
0.0
 11
70852.16287297077
 21
-3500.802823658594
 31
0.0
  0
LINE
  5
2C33
330
2
100
AcDbEntity
  8
0
  6
Continuous
370
     5
100
AcDbLine
 10
70812.16287297078
 20
-3449.861224976839
 30
0.0
 11
70812.16287297078
 21
-3500.802823658594
 31
0.0
  0
LINE
  5
2C34
330
2
100
AcDbEntity
  8
0
  6
Continuous
370
     5
100
AcDbLine
 10
70944.74920149113
 20
-3414.964658430433
 30
0.0
 11
70976.80079035853
 21
-3456.108763466788
 31
0.0
  0
LINE
  5
2C35
330
2
100
AcDbEntity
  8
0
  6
Continuous
370
     5
100
AcDbLine
 10
70957.60989463283
 20
-3399.74818465937
 30
0.0
 11
70987.70656829132
 21
-3422.417784276212
 31
0.0
  0
LINE
  5
2C36
330
2
100
AcDbEntity
  8
0
  6
Continuous
370
     5
100
AcDbLine
 10
70955.26850278105
 20
-2246.793542567978
 30
0.0
 11
70974.93651958168
 21
-2226.597692620433
 31
0.0
  0
LINE
  5
2C37
330
2
100
AcDbEntity
  8
0
  6
Continuous
370
     5
100
AcDbLine
 10
70966.44311481021
 20
-2264.491956406871
 30
0.0
 11
71020.32916729849
 21
-2229.45393831026
 31
0.0
  0
LINE
  5
2C38
330
2
100
AcDbEntity
  8
0
  6
Continuous
370
     5
100
AcDbLine
 10
69630.67256039286
 20
-3627.861224976839
 30
0.0
 11
70405.64576803753
 21
-3627.861224976839
 31
0.0
  0
LINE
  5
2C65
330
2
100
AcDbEntity
  8
0
  6
Continuous
370
     5
390
1D00
100
AcDbLine
 10
73591.29552996089
 20
-4025.861224976745
 30
0.0
 11
73591.29552996089
 21
-3309.861224976653
 31
0.0
  0
LINE
  5
2C66
330
2
100
AcDbEntity
  8
0
  6
Continuous
370
     5
390
1D00
100
AcDbLine
 10
73611.29552996088
 20
-3429.861224976651
 30
0.0
 11
73611.29552996088
 21
-4025.861224976844
 31
0.0
  0
LINE
  5
2C67
330
2
100
AcDbEntity
  8
0
  6
Continuous
370
     5
100
AcDbLine
 10
73597.29552996088
 20
-3628.861224976651
 30
0.0
 11
73597.29552996088
 21
-3429.861224976651
 31
0.0
  0
LINE
  5
2C68
330
2
100
AcDbEntity
  8
0
  6
Continuous
370
     5
100
AcDbLine
 10
73605.29552996089
 20
-3628.861224976651
 30
0.0
 11
73605.29552996089
 21
-3429.861224976651
 31
0.0
  0
LINE
  5
2C69
330
2
100
AcDbEntity
  8
0
  6
Continuous
370
     5
390
1D00
100
AcDbLine
 10
73918.29552996089
 20
-4025.861224978345
 30
0.0
 11
73918.29552996089
 21
-3429.861224976838
 31
0.0
  0
LINE
  5
2C6A
330
2
100
AcDbEntity
  8
0
  6
Continuous
370
     5
390
1D00
100
AcDbLine
 10
73938.29552996089
 20
-4025.861224978442
 30
0.0
 11
73938.29552996089
 21
-3429.861224976838
 31
0.0
  0
LINE
  5
2C6B
330
2
100
AcDbEntity
  8
0
  6
Continuous
370
     5
100
AcDbLine
 10
73924.29552996088
 20
-3628.861224976839
 30
0.0
 11
73924.29552996088
 21
-3429.861224976838
 31
0.0
  0
LINE
  5
2C6C
330
2
100
AcDbEntity
  8
0
  6
Continuous
370
     5
100
AcDbLine
 10
73932.29552996088
 20
-3628.861224976839
 30
0.0
 11
73932.29552996088
 21
-3429.861224976838
 31
0.0
  0
LINE
  5
2C6D
330
2
100
AcDbEntity
  8
0
  6
Continuous
370
     5
100
AcDbLine
 10
73987.29552996089
 20
-3622.861224976838
 30
0.0
 11
73987.29552996089
 21
-3421.861224976839
 31
0.0
  0
LINE
  5
2C6E
330
2
100
AcDbEntity
  8
0
  6
Continuous
370
     5
100
AcDbLine
 10
73995.29552996089
 20
-3622.861224976838
 30
0.0
 11
73995.29552996089
 21
-3421.861224976839
 31
0.0
  0
LINE
  5
2C6F
330
2
100
AcDbEntity
  8
0
  6
Continuous
370
     5
390
1D00
100
AcDbLine
 10
74001.29552996089
 20
-3627.861224976839
 30
0.0
 11
74001.29552996089
 21
-3429.861224976838
 31
0.0
  0
LINE
  5
2C70
330
2
100
AcDbEntity
  8
0
  6
Continuous
370
     5
390
1D00
100
AcDbLine
 10
74141.29552996088
 20
-3627.861224976839
 30
0.0
 11
74141.29552996088
 21
-3429.861224976838
 31
0.0
  0
LINE
  5
2C71
330
2
100
AcDbEntity
  8
0
  6
Continuous
370
     5
390
1D00
100
AcDbLine
 10
74161.29552996088
 20
-3449.861224976839
 30
0.0
 11
74161.29552996088
 21
-3627.861224976839
 31
0.0
  0
LINE
  5
2C72
330
2
100
AcDbEntity
  8
0
  6
Continuous
370
     5
390
1D00
100
AcDbLine
 10
73981.29552996088
 20
-3627.861224976839
 30
0.0
 11
73981.29552996088
 21
-3449.861224976839
 31
0.0
  0
LINE
  5
2C73
330
2
100
AcDbEntity
  8
0
  6
Continuous
370
     5
100
AcDbLine
 10
73925.29552996089
 20
-4019.861224976924
 30
0.0
 11
73925.29552996089
 21
-3628.861224976839
 31
0.0
  0
LINE
  5
2C74
330
2
100
AcDbEntity
  8
0
  6
Continuous
370
     5
100
AcDbLine
 10
73931.29552996088
 20
-4019.861224976927
 30
0.0
 11
73931.29552996088
 21
-3628.861224976839
 31
0.0
  0
LINE
  5
2C75
330
2
100
AcDbEntity
  8
0
  6
Continuous
370
     5
100
AcDbLine
 10
73931.29552996088
 20
-3634.861224976839
 30
0.0
 11
73925.29552996089
 21
-3634.861224976839
 31
0.0
  0
LINE
  5
2C76
330
2
100
AcDbEntity
  8
0
  6
Continuous
370
     5
100
AcDbLine
 10
73932.29552996088
 20
-3628.861224976839
 30
0.0
 11
73924.29552996088
 21
-3628.861224976839
 31
0.0
  0
LINE
  5
2C77
330
2
100
AcDbEntity
  8
0
  6
Continuous
370
     5
100
AcDbLine
 10
73924.29552996088
 20
-3620.861224976839
 30
0.0
 11
73932.29552996088
 21
-3620.861224976839
 31
0.0
  0
LINE
  5
2C78
330
2
100
AcDbEntity
  8
0
  6
Continuous
370
     5
100
AcDbLine
 10
73995.29552996089
 20
-3622.861224976838
 30
0.0
 11
73987.29552996089
 21
-3622.861224976838
 31
0.0
  0
LINE
  5
2C79
330
2
100
AcDbEntity
  8
0
  6
Continuous
370
     5
100
AcDbLine
 10
73987.29552996089
 20
-3614.861224976838
 30
0.0
 11
73995.29552996089
 21
-3614.861224976838
 31
0.0
  0
CIRCLE
  5
2C7A
330
2
100
AcDbEntity
  8
0
370
     5
100
AcDbCircle
 10
74071.29552996089
 20
-3627.861224976839
 30
0.0
 40
0.025
  0
LINE
  5
2C7B
330
2
100
AcDbEntity
  8
0
  6
Continuous
370
     5
390
1D00
100
AcDbLine
 10
73981.29552996088
 20
-3627.861224976839
 30
0.0
 11
74756.26873760555
 21
-3627.861224976839
 31
0.0
  0
LINE
  5
2C7C
330
2
100
AcDbEntity
  8
0
  6
Continuous
370
     5
100
AcDbLine
 10
73938.29552996089
 20
-3627.861224976839
 30
0.0
 11
73932.29552996088
 21
-3627.861224976839
 31
0.0
  0
LINE
  5
2C7D
330
2
100
AcDbEntity
  8
0
  6
Continuous
370
     5
100
AcDbLine
 10
73924.29552996088
 20
-3627.861224976839
 30
0.0
 11
73918.29552996089
 21
-3627.861224976839
 31
0.0
  0
LINE
  5
2C7E
330
2
100
AcDbEntity
  8
0
  6
Continuous
370
     5
100
AcDbLine
 10
73611.29552996088
 20
-3627.861224976839
 30
0.0
 11
73605.29552996089
 21
-3627.861224976839
 31
0.0
  0
LINE
  5
2C80
330
2
100
AcDbEntity
  8
0
  6
Continuous
370
     5
100
AcDbLine
 10
74141.29552996088
 20
-3597.861224976838
 30
0.0
 11
74001.29552996089
 21
-3597.861224976838
 31
0.0
210
0.0
220
1.0
230
0.0
  0
LINE
  5
2C81
330
2
100
AcDbEntity
  8
0
  6
Continuous
370
     5
100
AcDbLine
 10
73598.29552996089
 20
-4019.861224976927
 30
0.0
 11
73598.29552996089
 21
-3628.861224976651
 31
0.0
  0
LINE
  5
2C82
330
2
100
AcDbEntity
  8
0
  6
Continuous
370
     5
100
AcDbLine
 10
73604.29552996088
 20
-4019.861224976924
 30
0.0
 11
73604.29552996088
 21
-3628.861224976651
 31
0.0
  0
LINE
  5
2C83
330
2
100
AcDbEntity
  8
0
  6
Continuous
370
     5
100
AcDbLine
 10
73605.29552996089
 20
-3628.861224976651
 30
0.0
 11
73597.29552996088
 21
-3628.861224976651
 31
0.0
  0
LINE
  5
2C84
330
2
100
AcDbEntity
  8
0
  6
Continuous
370
     5
100
AcDbLine
 10
73597.29552996088
 20
-3620.861224976651
 30
0.0
 11
73605.29552996089
 21
-3620.861224976651
 31
0.0
  0
LINE
  5
2C85
330
2
100
AcDbEntity
  8
0
  6
Continuous
370
     5
100
AcDbLine
 10
73604.29552996088
 20
-3634.861224976651
 30
0.0
 11
73598.29552996089
 21
-3634.861224976651
 31
0.0
  0
LINE
  5
2C86
330
2
100
AcDbEntity
  8
0
  6
Continuous
370
     5
100
AcDbLine
 10
73995.29552996089
 20
-3421.861224976839
 30
0.0
 11
73595.69108091385
 21
-3421.861224976839
 31
0.0
  0
LINE
  5
2C87
330
2
100
AcDbEntity
  8
0
  6
Continuous
370
     5
100
AcDbLine
 10
73933.94531542234
 20
-3421.861224976839
 30
0.0
 11
73933.94531542234
 21
-3429.861224976838
 31
0.0
  0
LINE
  5
2C88
330
2
100
AcDbEntity
  8
0
  6
Continuous
370
     5
100
AcDbLine
 10
73932.94531542235
 20
-3421.861224976839
 30
0.0
 11
73932.94531542235
 21
-3429.861224976838
 31
0.0
  0
LINE
  5
2C89
330
2
100
AcDbEntity
  8
0
  6
Continuous
370
     5
100
AcDbLine
 10
73924.94531542235
 20
-3429.861224976838
 30
0.0
 11
73924.94531542235
 21
-3421.861224976839
 31
0.0
  0
LINE
  5
2C8A
330
2
100
AcDbEntity
  8
0
  6
Continuous
370
     5
100
AcDbLine
 10
73932.29552996088
 20
-3486.538679042392
 30
0.0
 11
73924.29552996088
 21
-3486.538679042392
 31
0.0
  0
LINE
  5
2C8B
330
2
100
AcDbEntity
  8
0
  6
Continuous
370
     5
100
AcDbLine
 10
73924.29552996088
 20
-3478.538679042392
 30
0.0
 11
73932.29552996088
 21
-3478.538679042392
 31
0.0
  0
LINE
  5
2C8C
330
2
100
AcDbEntity
  8
0
  6
Continuous
370
     5
100
AcDbLine
 10
73932.29552996088
 20
-3443.571587788947
 30
0.0
 11
73924.29552996088
 21
-3443.571587788947
 31
0.0
  0
LINE
  5
2C8D
330
2
100
AcDbEntity
  8
0
  6
Continuous
370
     5
100
AcDbLine
 10
73924.29552996088
 20
-3435.571587788946
 30
0.0
 11
73932.29552996088
 21
-3435.571587788946
 31
0.0
  0
LINE
  5
2C8E
330
2
100
AcDbEntity
  8
0
  6
Continuous
370
     5
100
AcDbLine
 10
73932.29552996088
 20
-3557.699952009615
 30
0.0
 11
73924.29552996088
 21
-3557.699952009615
 31
0.0
  0
LINE
  5
2C8F
330
2
100
AcDbEntity
  8
0
  6
Continuous
370
     5
100
AcDbLine
 10
73924.29552996088
 20
-3549.699952009615
 30
0.0
 11
73932.29552996088
 21
-3549.699952009615
 31
0.0
  0
LINE
  5
2C90
330
2
100
AcDbEntity
  8
0
  6
Continuous
370
     5
100
AcDbLine
 10
73941.94531542234
 20
-3421.861224976839
 30
0.0
 11
73941.94531542234
 21
-3429.861224976838
 31
0.0
  0
LINE
  5
2C91
330
2
100
AcDbEntity
  8
0
  6
Continuous
370
     5
100
AcDbLine
 10
74161.29552996088
 20
-3309.861224976653
 30
0.0
 11
74161.29552996088
 21
-3429.861224976651
 31
0.0
  0
LINE
  5
2C92
330
2
100
AcDbEntity
  8
0
  6
Continuous
370
     5
100
AcDbLine
 10
73987.29552996089
 20
-3518.361224976839
 30
0.0
 11
73995.29552996089
 21
-3518.361224976839
 31
0.0
  0
LINE
  5
2C93
330
2
100
AcDbEntity
  8
0
  6
Continuous
370
     5
100
AcDbLine
 10
73995.29552996089
 20
-3526.361224976839
 30
0.0
 11
73987.29552996089
 21
-3526.361224976839
 31
0.0
  0
LINE
  5
2C94
330
2
100
AcDbEntity
  8
0
  6
Continuous
370
     5
390
1D00
100
AcDbLine
 10
74001.29552996089
 20
-3447.861224976839
 30
0.0
 11
74141.29552996088
 21
-3447.861224976839
 31
0.0
  0
LINE
  5
2C95
330
2
100
AcDbEntity
  8
0
  6
Continuous
370
     5
390
1D00
100
AcDbLine
 10
74196.29552996089
 20
-3449.861224976839
 30
0.0
 11
74196.29552996089
 21
-3309.861224976839
 31
0.0
  0
LINE
  5
2C96
330
2
100
AcDbEntity
  8
0
  6
Continuous
370
     5
390
1D00
100
AcDbLine
 10
74141.29552996088
 20
-3429.861224976838
 30
0.0
 11
74196.29552996089
 21
-3429.861224976838
 31
0.0
  0
LINE
  5
2C97
330
2
100
AcDbEntity
  8
0
  6
Continuous
370
     5
100
AcDbLine
 10
74141.29552996088
 20
-3477.861224976839
 30
0.0
 11
74001.29552996089
 21
-3477.861224976839
 31
0.0
210
0.0
220
1.0
230
0.0
  0
LINE
  5
2C98
330
2
100
AcDbEntity
  8
0
  6
Continuous
370
     5
100
AcDbLine
 10
74141.29552996088
 20
-3507.861224976839
 30
0.0
 11
74001.29552996089
 21
-3507.861224976839
 31
0.0
210
0.0
220
1.0
230
0.0
  0
LINE
  5
2C99
330
2
100
AcDbEntity
  8
0
  6
Continuous
370
     5
100
AcDbLine
 10
74141.29552996088
 20
-3537.861224976839
 30
0.0
 11
74001.29552996089
 21
-3537.861224976839
 31
0.0
210
0.0
220
1.0
230
0.0
  0
LINE
  5
2C9A
330
2
100
AcDbEntity
  8
0
  6
Continuous
370
     5
100
AcDbLine
 10
74141.29552996088
 20
-3567.861224976839
 30
0.0
 11
74001.29552996089
 21
-3567.861224976839
 31
0.0
210
0.0
220
1.0
230
0.0
  0
LINE
  5
2C9B
330
2
100
AcDbEntity
  8
0
  6
Continuous
370
     5
390
1D00
100
AcDbLine
 10
74001.29552996089
 20
-3429.861224976838
 30
0.0
 11
73556.29552996089
 21
-3429.861224976838
 31
0.0
  0
LINE
  5
2C9C
330
2
100
AcDbEntity
  8
0
  6
Continuous
370
     5
390
1D00
100
AcDbLine
 10
73981.29552996088
 20
-3449.861224976839
 30
0.0
 11
73938.29552996089
 21
-3449.861224976839
 31
0.0
  0
LINE
  5
2C9D
330
2
100
AcDbEntity
  8
0
  6
Continuous
370
     5
100
AcDbLine
 10
73556.29552996089
 20
-3429.861224976838
 30
0.0
 11
73556.29552996089
 21
-3309.861224976839
 31
0.0
  0
LINE
  5
2C9E
330
2
100
AcDbEntity
  8
0
  6
Continuous
370
     5
100
AcDbLine
 10
73849.94531542235
 20
-3421.861224976839
 30
0.0
 11
73849.94531542235
 21
-3429.861224976838
 31
0.0
  0
LINE
  5
2C9F
330
2
100
AcDbEntity
  8
0
  6
Continuous
370
     5
100
AcDbLine
 10
73843.8181981681
 20
-3429.861224976838
 30
0.0
 11
73843.8181981681
 21
-3421.861224976839
 31
0.0
  0
LINE
  5
2CA0
330
2
100
AcDbEntity
  8
0
  6
Continuous
370
     5
100
AcDbLine
 10
73685.81819816809
 20
-3421.861224976839
 30
0.0
 11
73685.81819816809
 21
-3429.861224976838
 31
0.0
  0
LINE
  5
2CA1
330
2
100
AcDbEntity
  8
0
  6
Continuous
370
     5
100
AcDbLine
 10
73679.69108091384
 20
-3429.861224976838
 30
0.0
 11
73679.69108091384
 21
-3421.861224976839
 31
0.0
  0
LINE
  5
2CA2
330
2
100
AcDbEntity
  8
0
  6
Continuous
370
     5
100
AcDbLine
 10
73595.69108091385
 20
-3429.861224976838
 30
0.0
 11
73595.69108091385
 21
-3421.861224976839
 31
0.0
  0
LINE
  5
2CA3
330
2
100
AcDbEntity
  8
0
  6
Continuous
370
     5
100
AcDbLine
 10
73604.69108091385
 20
-3421.861224976839
 30
0.0
 11
73604.69108091385
 21
-3429.861224976838
 31
0.0
  0
LINE
  5
2CA4
330
2
100
AcDbEntity
  8
0
  6
Continuous
370
     5
100
AcDbLine
 10
73596.69108091384
 20
-3429.861224976838
 30
0.0
 11
73596.69108091384
 21
-3421.861224976839
 31
0.0
  0
LINE
  5
2CA5
330
2
100
AcDbEntity
  8
0
  6
Continuous
370
     5
100
AcDbLine
 10
73768.8181981681
 20
-3421.861224976839
 30
0.0
 11
73768.8181981681
 21
-3429.861224976838
 31
0.0
  0
LINE
  5
2CA6
330
2
100
AcDbEntity
  8
0
  6
Continuous
370
     5
100
AcDbLine
 10
73760.8181981681
 20
-3429.861224976838
 30
0.0
 11
73760.8181981681
 21
-3421.861224976839
 31
0.0
  0
LINE
  5
2CA7
330
2
100
AcDbEntity
  8
0
  6
Continuous
370
     5
100
AcDbLine
 10
73605.29552996089
 20
-3486.538679042207
 30
0.0
 11
73597.29552996088
 21
-3486.538679042207
 31
0.0
  0
LINE
  5
2CA8
330
2
100
AcDbEntity
  8
0
  6
Continuous
370
     5
100
AcDbLine
 10
73597.29552996088
 20
-3478.538679042207
 30
0.0
 11
73605.29552996089
 21
-3478.538679042207
 31
0.0
  0
LINE
  5
2CA9
330
2
100
AcDbEntity
  8
0
  6
Continuous
370
     5
100
AcDbLine
 10
73605.29552996089
 20
-3443.571587788759
 30
0.0
 11
73597.29552996088
 21
-3443.571587788759
 31
0.0
  0
LINE
  5
2CAA
330
2
100
AcDbEntity
  8
0
  6
Continuous
370
     5
100
AcDbLine
 10
73597.29552996088
 20
-3435.571587788759
 30
0.0
 11
73605.29552996089
 21
-3435.571587788759
 31
0.0
  0
LINE
  5
2CAB
330
2
100
AcDbEntity
  8
0
  6
Continuous
370
     5
100
AcDbLine
 10
73605.29552996089
 20
-3557.69995200943
 30
0.0
 11
73597.29552996088
 21
-3557.69995200943
 31
0.0
  0
LINE
  5
2CAC
330
2
100
AcDbEntity
  8
0
  6
Continuous
370
     5
100
AcDbLine
 10
73597.29552996088
 20
-3549.69995200943
 30
0.0
 11
73605.29552996089
 21
-3549.69995200943
 31
0.0
  0
LINE
  5
2CAF
330
2
100
AcDbEntity
  8
0
  6
Continuous
370
     5
100
AcDbLine
 10
74061.29552996088
 20
-2329.861224976839
 30
0.0
 11
74061.29552996088
 21
-2449.861224976839
 31
0.0
  0
LINE
  5
2CB0
330
2
100
AcDbEntity
  8
0
  6
Continuous
370
     5
100
AcDbLine
 10
74091.29552996088
 20
-2317.434818105646
 30
0.0
 11
74091.29552996088
 21
-2449.861224976839
 31
0.0
  0
LINE
  5
2CB3
330
2
100
AcDbEntity
  8
0
  6
Continuous
370
     5
100
AcDbLine
 10
73591.29552996089
 20
-2449.861224976839
 30
0.0
 11
73591.29552996089
 21
-2199.861224976839
 31
0.0
  0
LINE
  5
2CB4
330
2
100
AcDbEntity
  8
0
  6
Continuous
370
     5
100
AcDbLine
 10
74155.29552996089
 20
-3622.861224976838
 30
0.0
 11
74155.29552996089
 21
-3435.987641224399
 31
0.0
  0
LINE
  5
2CB5
330
2
100
AcDbEntity
  8
0
  6
Continuous
370
     5
100
AcDbLine
 10
74147.29552996089
 20
-3622.861224976838
 30
0.0
 11
74147.29552996089
 21
-3435.987641224399
 31
0.0
  0
LINE
  5
2CB6
330
2
100
AcDbEntity
  8
0
  6
Continuous
370
     5
100
AcDbLine
 10
74147.29552996089
 20
-3622.861224976838
 30
0.0
 11
74155.29552996089
 21
-3622.861224976838
 31
0.0
  0
LINE
  5
2CB7
330
2
100
AcDbEntity
  8
0
  6
Continuous
370
     5
100
AcDbLine
 10
74155.29552996089
 20
-3614.861224976838
 30
0.0
 11
74147.29552996089
 21
-3614.861224976838
 31
0.0
  0
LINE
  5
2CB8
330
2
100
AcDbEntity
  8
0
  6
Continuous
370
     5
100
AcDbLine
 10
74147.29552996089
 20
-3435.987641224399
 30
0.0
 11
74196.29552996089
 21
-3435.987641224399
 31
0.0
  0
LINE
  5
2CB9
330
2
100
AcDbEntity
  8
0
  6
Continuous
370
     5
100
AcDbLine
 10
74155.29552996089
 20
-3518.361224976839
 30
0.0
 11
74147.29552996089
 21
-3518.361224976839
 31
0.0
  0
LINE
  5
2CBA
330
2
100
AcDbEntity
  8
0
  6
Continuous
370
     5
100
AcDbLine
 10
74147.29552996089
 20
-3526.361224976839
 30
0.0
 11
74155.29552996089
 21
-3526.361224976839
 31
0.0
  0
LINE
  5
2CBB
330
2
100
AcDbEntity
  8
0
  6
Continuous
370
     5
100
AcDbLine
 10
74147.29552996089
 20
-3443.9876412244
 30
0.0
 11
74196.29552996089
 21
-3443.9876412244
 31
0.0
  0
HATCH
  5
2CBC
330
2
100
AcDbEntity
  8
0
  6
Continuous
370
     5
100
AcDbHatch
 10
0.0
 20
0.0
 30
0.0
210
0.0
220
0.0
230
1.0
  2
SOLID
 70
     1
 71
     1
 91
        1
 92
        7
 72
     0
 73
     1
 93
       20
 10
73577.2955299609
 20
-2449.861224976841
 10
73577.29552996088
 20
-2704.861224976842
 10
73477.2955299609
 20
-2804.861224976852
 10
73477.2955299609
 20
-2954.861224976834
 10
73577.2955299609
 20
-3054.861224976829
 10
73577.2955299609
 20
-3309.861224976839
 10
74021.29552996089
 20
-3309.861224976839
 10
74021.29552996089
 20
-3249.861224976839
 10
73637.29552996089
 20
-3249.861224976839
 10
73637.29552996089
 20
-3030.00841123444
 10
73537.2955299609
 20
-2930.008411234446
 10
73537.29552996089
 20
-2829.71403871923
 10
73637.29552996089
 20
-2729.71403871923
 10
73637.29552996089
 20
-2509.861224976841
 10
74667.29552996087
 20
-2509.861224976841
 10
74667.29552996087
 20
-3249.861224976838
 10
74121.29552996089
 20
-3249.861224976838
 10
74121.29552996087
 20
-3309.861224976838
 10
74727.29552996089
 20
-3309.861224976839
 10
74727.29552996089
 20
-2449.861224976841
 97
       18
330
2CBD
330
2CC4
330
2CC3
330
2CCE
330
2CCB
330
2CCC
330
2CC5
330
2CC6
330
2CC7
330
2CC8
330
2CC9
330
2CCA
330
2CCD
330
2CC2
330
2CC1
330
2CC0
330
2CBF
330
2CBE
 75
     0
 76
     1
 47
4.257102805325993
 98
        1
 10
74064.48201900919
 20
-2478.227789318655
1001
ACAD
1010
0.0
1020
0.0
1030
0.0
  0
LINE
  5
2CBD
102
{ACAD_REACTORS
330
2CBC
102
}
330
2
100
AcDbEntity
  8
0
  6
Continuous
370
     5
100
AcDbLine
 10
74727.29552996089
 20
-2449.861224976841
 30
0.0
 11
73577.29552996088
 21
-2449.861224976841
 31
0.0
  0
LINE
  5
2CBE
102
{ACAD_REACTORS
330
2CBC
102
}
330
2
100
AcDbEntity
  8
0
  6
Continuous
370
     5
100
AcDbLine
 10
73577.29552996088
 20
-2449.861224976841
 30
0.0
 11
73577.29552996088
 21
-2704.86122497685
 31
0.0
  0
LINE
  5
2CBF
102
{ACAD_REACTORS
330
2CBC
102
}
330
2
100
AcDbEntity
  8
0
  6
Continuous
370
     5
100
AcDbLine
 10
73577.29552996088
 20
-2704.86122497685
 30
0.0
 11
73477.2955299609
 21
-2804.861224976844
 31
0.0
  0
LINE
  5
2CC0
102
{ACAD_REACTORS
330
2CBC
102
}
330
2
100
AcDbEntity
  8
0
  6
Continuous
370
     5
100
AcDbLine
 10
73477.2955299609
 20
-2804.861224976844
 30
0.0
 11
73477.2955299609
 21
-2954.861224976831
 31
0.0
  0
LINE
  5
2CC1
102
{ACAD_REACTORS
330
2CBC
102
}
330
2
100
AcDbEntity
  8
0
  6
Continuous
370
     5
100
AcDbLine
 10
73477.2955299609
 20
-2954.861224976831
 30
0.0
 11
73577.29552996088
 21
-3054.861224976824
 31
0.0
  0
LINE
  5
2CC2
102
{ACAD_REACTORS
330
2CBC
102
}
330
2
100
AcDbEntity
  8
0
  6
Continuous
370
     5
100
AcDbLine
 10
73577.29552996088
 20
-3054.861224976824
 30
0.0
 11
73577.29552996088
 21
-3309.861224976839
 31
0.0
  0
LINE
  5
2CC3
102
{ACAD_REACTORS
330
2CBC
102
}
330
2
100
AcDbEntity
  8
0
  6
Continuous
370
     5
100
AcDbLine
 10
74727.29552996089
 20
-3309.861224976839
 30
0.0
 11
73556.29552996089
 21
-3309.861224976839
 31
0.0
  0
LINE
  5
2CC4
102
{ACAD_REACTORS
330
2CBC
102
}
330
2
100
AcDbEntity
  8
0
  6
Continuous
370
     5
100
AcDbLine
 10
74727.29552996089
 20
-3309.861224976839
 30
0.0
 11
74727.29552996089
 21
-2449.861224976841
 31
0.0
  0
LINE
  5
2CC5
102
{ACAD_REACTORS
330
2CBC
102
}
330
2
100
AcDbEntity
  8
0
  6
Continuous
370
     5
100
AcDbLine
 10
74667.29552996088
 20
-2509.861224976841
 30
0.0
 11
73637.29552996089
 21
-2509.861224976841
 31
0.0
  0
LINE
  5
2CC6
102
{ACAD_REACTORS
330
2CBC
102
}
330
2
100
AcDbEntity
  8
0
  6
Continuous
370
     5
100
AcDbLine
 10
73637.29552996089
 20
-2509.861224976841
 30
0.0
 11
73637.29552996089
 21
-2729.714038719234
 31
0.0
  0
LINE
  5
2CC7
102
{ACAD_REACTORS
330
2CBC
102
}
330
2
100
AcDbEntity
  8
0
  6
Continuous
370
     5
100
AcDbLine
 10
73637.29552996089
 20
-2729.714038719234
 30
0.0
 11
73537.2955299609
 21
-2829.714038719229
 31
0.0
  0
LINE
  5
2CC8
102
{ACAD_REACTORS
330
2CBC
102
}
330
2
100
AcDbEntity
  8
0
  6
Continuous
370
     5
100
AcDbLine
 10
73537.2955299609
 20
-2829.714038719229
 30
0.0
 11
73537.2955299609
 21
-2930.008411234446
 31
0.0
  0
LINE
  5
2CC9
102
{ACAD_REACTORS
330
2CBC
102
}
330
2
100
AcDbEntity
  8
0
  6
Continuous
370
     5
100
AcDbLine
 10
73537.2955299609
 20
-2930.008411234446
 30
0.0
 11
73637.29552996089
 21
-3030.008411234439
 31
0.0
  0
LINE
  5
2CCA
102
{ACAD_REACTORS
330
2CBC
102
}
330
2
100
AcDbEntity
  8
0
  6
Continuous
370
     5
100
AcDbLine
 10
73637.29552996089
 20
-3030.008411234439
 30
0.0
 11
73637.29552996089
 21
-3249.861224976839
 31
0.0
  0
LINE
  5
2CCB
102
{ACAD_REACTORS
330
2CBC
102
}
330
2
100
AcDbEntity
  8
0
  6
Continuous
370
     5
100
AcDbLine
 10
73637.29552996089
 20
-3249.861224976839
 30
0.0
 11
74667.29552996088
 21
-3249.861224976839
 31
0.0
  0
LINE
  5
2CCC
102
{ACAD_REACTORS
330
2CBC
102
}
330
2
100
AcDbEntity
  8
0
  6
Continuous
370
     5
100
AcDbLine
 10
74667.29552996088
 20
-3249.861224976839
 30
0.0
 11
74667.29552996088
 21
-2509.861224976841
 31
0.0
  0
LINE
  5
2CCD
102
{ACAD_REACTORS
330
2CBC
102
}
330
2
100
AcDbEntity
  8
0
  6
Continuous
370
     5
100
AcDbLine
 10
74021.29552996089
 20
-3249.861224976839
 30
0.0
 11
74021.29552996089
 21
-3309.861224976839
 31
0.0
  0
LINE
  5
2CCE
102
{ACAD_REACTORS
330
2CBC
102
}
330
2
100
AcDbEntity
  8
0
  6
Continuous
370
     5
100
AcDbLine
 10
74121.29552996089
 20
-3309.861224976839
 30
0.0
 11
74121.29552996089
 21
-3249.861224976839
 31
0.0
  0
LINE
  5
2CD0
330
2
100
AcDbEntity
  8
0
  6
Continuous
370
     5
100
AcDbLine
 10
74161.29552996088
 20
-3449.861224976839
 30
0.0
 11
74756.26873760555
 21
-3449.861224976839
 31
0.0
  0
LINE
  5
2CD1
330
2
100
AcDbEntity
  8
0
  6
Continuous
370
     5
100
AcDbLine
 10
73764.79552996088
 20
-4025.861224976838
 30
0.0
 11
73612.29552996088
 21
-3429.861224976838
 31
0.0
  0
LINE
  5
2CD2
330
2
100
AcDbEntity
  8
0
  6
Continuous
370
     5
100
AcDbLine
 10
73918.29552996089
 20
-3429.861224976838
 30
0.0
 11
73764.79552996088
 21
-4025.861224976838
 31
0.0
  0
LINE
  5
2CD3
330
2
100
AcDbEntity
  8
0
  6
Continuous
370
     5
100
AcDbLine
 10
73938.29552996089
 20
-4025.861224976931
 30
0.0
 11
73591.29552996089
 21
-4025.861224976746
 31
0.0
  0
LINE
  5
2CD4
330
2
100
AcDbEntity
  8
0
  6
Continuous
370
     5
100
AcDbLine
 10
73931.29552996088
 20
-4019.861224976927
 30
0.0
 11
73925.29552996089
 21
-4019.861224976924
 31
0.0
  0
LINE
  5
2CD5
330
2
100
AcDbEntity
  8
0
  6
Continuous
370
     5
100
AcDbLine
 10
73931.29552996088
 20
-3700.022497944062
 30
0.0
 11
73925.29552996089
 21
-3700.022497944062
 31
0.0
  0
LINE
  5
2CD6
330
2
100
AcDbEntity
  8
0
  6
Continuous
370
     5
100
AcDbLine
 10
73925.29552996089
 20
-3692.022497944062
 30
0.0
 11
73931.29552996088
 21
-3692.022497944062
 31
0.0
  0
LINE
  5
2CD7
330
2
100
AcDbEntity
  8
0
  6
Continuous
370
     5
100
AcDbLine
 10
73931.29552996088
 20
-3771.183770911286
 30
0.0
 11
73925.29552996089
 21
-3771.183770911286
 31
0.0
  0
LINE
  5
2CD8
330
2
100
AcDbEntity
  8
0
  6
Continuous
370
     5
100
AcDbLine
 10
73925.29552996089
 20
-3763.183770911286
 30
0.0
 11
73931.29552996088
 21
-3763.183770911286
 31
0.0
  0
LINE
  5
2CD9
330
2
100
AcDbEntity
  8
0
  6
Continuous
370
     5
100
AcDbLine
 10
73931.29552996088
 20
-3842.345043878509
 30
0.0
 11
73925.29552996089
 21
-3842.345043878509
 31
0.0
  0
LINE
  5
2CDA
330
2
100
AcDbEntity
  8
0
  6
Continuous
370
     5
100
AcDbLine
 10
73925.29552996089
 20
-3834.34504387851
 30
0.0
 11
73931.29552996088
 21
-3834.34504387851
 31
0.0
  0
LINE
  5
2CDB
330
2
100
AcDbEntity
  8
0
  6
Continuous
370
     5
100
AcDbLine
 10
73931.29552996088
 20
-3913.506316845733
 30
0.0
 11
73925.29552996089
 21
-3913.506316845733
 31
0.0
  0
LINE
  5
2CDC
330
2
100
AcDbEntity
  8
0
  6
Continuous
370
     5
100
AcDbLine
 10
73925.29552996089
 20
-3905.506316845733
 30
0.0
 11
73931.29552996088
 21
-3905.506316845733
 31
0.0
  0
LINE
  5
2CDD
330
2
100
AcDbEntity
  8
0
  6
Continuous
370
     5
100
AcDbLine
 10
73931.29552996088
 20
-3984.667589812957
 30
0.0
 11
73925.29552996089
 21
-3984.667589812957
 31
0.0
  0
LINE
  5
2CDE
330
2
100
AcDbEntity
  8
0
  6
Continuous
370
     5
100
AcDbLine
 10
73925.29552996089
 20
-3976.667589812957
 30
0.0
 11
73931.29552996088
 21
-3976.667589812957
 31
0.0
  0
LINE
  5
2CDF
330
2
100
AcDbEntity
  8
0
  6
Continuous
370
     5
100
AcDbLine
 10
73598.29552996089
 20
-4019.861224976927
 30
0.0
 11
73604.29552996088
 21
-4019.861224976924
 31
0.0
  0
LINE
  5
2CE0
330
2
100
AcDbEntity
  8
0
  6
Continuous
370
     5
100
AcDbLine
 10
73598.29552996089
 20
-3700.022497944062
 30
0.0
 11
73604.29552996088
 21
-3700.022497944062
 31
0.0
  0
LINE
  5
2CE1
330
2
100
AcDbEntity
  8
0
  6
Continuous
370
     5
100
AcDbLine
 10
73604.29552996088
 20
-3692.022497944062
 30
0.0
 11
73598.29552996089
 21
-3692.022497944062
 31
0.0
  0
LINE
  5
2CE2
330
2
100
AcDbEntity
  8
0
  6
Continuous
370
     5
100
AcDbLine
 10
73598.29552996089
 20
-3771.183770911286
 30
0.0
 11
73604.29552996088
 21
-3771.183770911286
 31
0.0
  0
LINE
  5
2CE3
330
2
100
AcDbEntity
  8
0
  6
Continuous
370
     5
100
AcDbLine
 10
73604.29552996088
 20
-3763.183770911286
 30
0.0
 11
73598.29552996089
 21
-3763.183770911286
 31
0.0
  0
LINE
  5
2CE4
330
2
100
AcDbEntity
  8
0
  6
Continuous
370
     5
100
AcDbLine
 10
73598.29552996089
 20
-3842.345043878509
 30
0.0
 11
73604.29552996088
 21
-3842.345043878509
 31
0.0
  0
LINE
  5
2CE5
330
2
100
AcDbEntity
  8
0
  6
Continuous
370
     5
100
AcDbLine
 10
73604.29552996088
 20
-3834.34504387851
 30
0.0
 11
73598.29552996089
 21
-3834.34504387851
 31
0.0
  0
LINE
  5
2CE6
330
2
100
AcDbEntity
  8
0
  6
Continuous
370
     5
100
AcDbLine
 10
73598.29552996089
 20
-3913.506316845733
 30
0.0
 11
73604.2955299609
 21
-3913.506316845733
 31
0.0
  0
LINE
  5
2CE7
330
2
100
AcDbEntity
  8
0
  6
Continuous
370
     5
100
AcDbLine
 10
73604.2955299609
 20
-3905.506316845733
 30
0.0
 11
73598.29552996089
 21
-3905.506316845733
 31
0.0
  0
LINE
  5
2CE8
330
2
100
AcDbEntity
  8
0
  6
Continuous
370
     5
100
AcDbLine
 10
73598.29552996089
 20
-3984.667589812957
 30
0.0
 11
73604.29552996088
 21
-3984.667589812957
 31
0.0
  0
LINE
  5
2CE9
330
2
100
AcDbEntity
  8
0
  6
Continuous
370
     5
100
AcDbLine
 10
73604.29552996088
 20
-3976.667589812957
 30
0.0
 11
73598.29552996089
 21
-3976.667589812957
 31
0.0
  0
DIMENSION
  5
2CEA
330
2
100
AcDbEntity
  8
0Wymiary-PL
 48
4.0
100
AcDbDimension
  2
*D8
 10
73577.29552996088
 20
-1883.987685730506
 30
0.0
 11
74152.29552996088
 21
-1803.987685730506
 31
0.0
 70
    32
 71
     5
 42
1150.0
  3
500
100
AcDbAlignedDimension
 13
74727.29552996089
 23
-2502.662287246902
 33
0.0
 14
73577.29552996088
 24
-2225.530030499685
 34
0.0
 50
180.0
100
AcDbRotatedDimension
  0
DIMENSION
  5
2CEB
330
2
100
AcDbEntity
  8
0Wymiary-PL
 48
4.0
100
AcDbDimension
  2
*D9
 10
73477.2955299609
 20
-1883.987685730506
 30
0.0
 11
73527.29552996088
 21
-1803.987685730506
 31
0.0
 70
    32
 71
     5
 42
99.99999999998545
  3
500
100
AcDbAlignedDimension
 13
73577.29552996088
 23
-2225.530030499685
 33
0.0
 14
73477.2955299609
 24
-2879.861224976838
 34
0.0
 50
180.0
100
AcDbRotatedDimension
  0
DIMENSION
  5
2CEC
330
2
100
AcDbEntity
  8
0Wymiary-PL
 48
4.0
100
AcDbDimension
  2
*D10
 10
73477.2955299609
 20
-4171.19874061725
 30
0.0
 11
74102.29552996089
 21
-4091.19874061725
 31
0.0
 70
    32
 71
     5
 42
1249.999999999985
  3
500
100
AcDbAlignedDimension
 13
74727.29552996089
 23
-2367.237443469873
 33
0.0
 14
73477.2955299609
 24
-2797.237443469871
 34
0.0
 50
180.0
100
AcDbRotatedDimension
  0
DIMENSION
  5
2CED
330
2
100
AcDbEntity
  8
0Wymiary-PL
 48
4.0
100
AcDbDimension
  2
*D11
 10
75204.48464645126
 20
-3309.861224976839
 30
0.0
 11
75124.48464645126
 21
-2879.861224976827
 31
0.0
 70
    32
 71
     5
 42
859.9999999999981
  3
500
100
AcDbAlignedDimension
 13
75063.0770676259
 23
-2449.861224976841
 33
0.0
 14
75063.0770676259
 24
-3309.861224976839
 34
0.0
 50
90.0
100
AcDbRotatedDimension
  0
DIMENSION
  5
2CEE
330
2
100
AcDbEntity
  8
0Wymiary-PL
 48
4.0
100
AcDbDimension
  2
*D12
 10
73077.88715052171
 20
-2704.86122497685
 30
0.0
 11
72997.88715052171
 21
-2577.361224976833
 31
0.0
 70
    32
 71
     5
 42
255.0000000000091
  3
500
100
AcDbAlignedDimension
 13
73687.65846701081
 23
-2449.861224976841
 33
0.0
 14
73577.29552996088
 24
-2704.86122497685
 34
0.0
 50
90.0
100
AcDbRotatedDimension
  0
DIMENSION
  5
2CEF
330
2
100
AcDbEntity
  8
0Wymiary-PL
 48
4.0
100
AcDbDimension
  2
*D13
 10
73077.88715052171
 20
-3054.861224976824
 30
0.0
 11
72997.88715052171
 21
-2879.861224976825
 31
0.0
 70
    32
 71
     5
 42
349.9999999999745
  3
500
100
AcDbAlignedDimension
 13
73577.29552996088
 23
-2704.86122497685
 33
0.0
 14
73577.29552996088
 24
-3054.861224976824
 34
0.0
 50
90.0
100
AcDbRotatedDimension
  0
DIMENSION
  5
2CF0
330
2
100
AcDbEntity
  8
0Wymiary-PL
 48
4.0
100
AcDbDimension
  2
*D14
 10
73077.88715052171
 20
-3309.861224976839
 30
0.0
 11
72997.88715052171
 21
-3182.36122497682
 31
0.0
 70
    32
 71
     5
 42
255.0000000000145
  3
500
100
AcDbAlignedDimension
 13
73577.29552996088
 23
-3054.861224976824
 33
0.0
 14
73729.61111756634
 24
-3309.861224976839
 34
0.0
 50
90.0
100
AcDbRotatedDimension
  0
ARC
  5
2CF2
330
2
100
AcDbEntity
  8
0
  6
Continuous
370
     5
100
AcDbCircle
 10
74756.69777556961
 20
-3330.716894193852
 30
0.0
 40
119.1443307829868
100
AcDbArc
 50
270.0
 51
312.0925461279085
  0
ARC
  5
2CF3
330
2
100
AcDbEntity
  8
0
  6
Continuous
370
     5
100
AcDbCircle
 10
74756.69777556961
 20
-3330.716894193852
 30
0.0
 40
297.1443307829868
100
AcDbArc
 50
270.0
 51
313.8346340907604
  0
LINE
  5
2CF4
330
2
100
AcDbEntity
  8
0
  6
Continuous
370
     5
100
AcDbLine
 10
73597.29552996088
 20
-3627.861224976839
 30
0.0
 11
73526.43986074387
 21
-3627.861224976839
 31
0.0
  0
LINE
  5
2CF5
330
2
100
AcDbEntity
  8
0
  6
Continuous
370
     5
100
AcDbLine
 10
73591.29552996089
 20
-3449.861224976839
 30
0.0
 11
73526.43986074387
 21
-3449.861224976839
 31
0.0
  0
ARC
  5
2CF6
330
2
100
AcDbEntity
  8
0
  6
Continuous
370
     5
100
AcDbCircle
 10
73526.43986074387
 20
-3330.716894193852
 30
0.0
 40
119.1443307829868
100
AcDbArc
 50
180.0
 51
270.0
  0
ARC
  5
2CF7
330
2
100
AcDbEntity
  8
0
  6
Continuous
370
     5
100
AcDbCircle
 10
73526.43986074387
 20
-3330.716894193852
 30
0.0
 40
297.1443307829868
100
AcDbArc
 50
180.0
 51
270.0
  0
LINE
  5
2CF8
330
2
100
AcDbEntity
  8
0
  6
Continuous
370
     5
100
AcDbLine
 10
73407.29552996089
 20
-3330.716894193852
 30
0.0
 11
73407.29552996089
 21
-2319.005555759825
 31
0.0
  0
LINE
  5
2CF9
330
2
100
AcDbEntity
  8
0
  6
Continuous
370
     5
100
AcDbLine
 10
73229.29552996089
 20
-3330.716894193852
 30
0.0
 11
73229.29552996089
 21
-2319.005555759825
 31
0.0
  0
LINE
  5
2CFA
330
2
100
AcDbEntity
  8
0
  6
Continuous
370
     5
100
AcDbLine
 10
73526.43986074387
 20
-2199.861224976839
 30
0.0
 11
74753.61390197122
 21
-2199.861224976839
 31
0.0
  0
LINE
  5
2CFB
330
2
100
AcDbEntity
  8
0
  6
Continuous
370
     5
100
AcDbLine
 10
73526.43986074387
 20
-2021.861224976838
 30
0.0
 11
74753.61390197122
 21
-2021.861224976838
 31
0.0
  0
ARC
  5
2CFC
330
2
100
AcDbEntity
  8
0
  6
Continuous
370
     5
100
AcDbCircle
 10
74756.69777556961
 20
-2319.005555759825
 30
0.0
 40
119.144330782987
100
AcDbArc
 50
47.90745387209145
 51
91.48314043015128
  0
ARC
  5
2CFD
330
2
100
AcDbEntity
  8
0
  6
Continuous
370
     5
100
AcDbCircle
 10
74756.69777556961
 20
-2319.005555759825
 30
0.0
 40
297.144330782987
100
AcDbArc
 50
46.16536590923964
 51
91.48314043015128
  0
LINE
  5
2CFE
330
2
100
AcDbEntity
  8
0
  6
Continuous
370
     5
390
1D00
100
AcDbLine
 10
73993.72193683208
 20
-2219.861224976838
 30
0.0
 11
73591.29552996089
 21
-2219.861224976838
 31
0.0
  0
LINE
  5
2D01
330
2
100
AcDbEntity
  8
0
  6
Continuous
370
     5
390
1D00
100
AcDbLine
 10
73993.72193683208
 20
-2199.861224976839
 30
0.0
 11
73993.72193683208
 21
-2219.861224976838
 31
0.0
  0
LINE
  5
2D02
330
2
100
AcDbEntity
  8
0
  6
Continuous
370
     5
100
AcDbLine
 10
73951.29552996088
 20
-2219.861224976838
 30
0.0
 11
74061.29552996088
 21
-2329.861224976839
 31
0.0
  0
LINE
  5
2D03
330
2
100
AcDbEntity
  8
0
  6
Continuous
370
     5
100
AcDbLine
 10
73993.72193683208
 20
-2219.861224976837
 30
0.0
 11
74091.29552996088
 21
-2317.434818105646
 31
0.0
  0
ARC
  5
2D04
330
2
100
AcDbEntity
  8
0
  6
Continuous
370
     5
100
AcDbCircle
 10
73526.43986074387
 20
-2319.005555759825
 30
0.0
 40
119.1443307829872
100
AcDbArc
 50
90.0
 51
180.0
  0
ARC
  5
2D05
330
2
100
AcDbEntity
  8
0
  6
Continuous
370
     5
100
AcDbCircle
 10
73526.43986074387
 20
-2319.005555759825
 30
0.0
 40
297.1443307829872
100
AcDbArc
 50
90.0
 51
180.0
  0
LINE
  5
2D0A
330
2
100
AcDbEntity
  8
0
  6
Continuous
370
     5
100
AcDbLine
 10
74867.29552996089
 20
-2310.45897936812
 30
0.0
 11
74867.29552996089
 21
-3339.263470585558
 31
0.0
  0
LINE
  5
2D0B
330
2
100
AcDbEntity
  8
0
  6
Continuous
370
     5
100
AcDbLine
 10
75045.29552996088
 20
-2310.45897936812
 30
0.0
 11
75045.29552996088
 21
-3339.263470585558
 31
0.0
  0
LINE
  5
2D0C
330
2
100
AcDbEntity
  8
0
  6
Continuous
370
     5
100
AcDbLine
 10
74309.3982491185
 20
-3449.861224976839
 30
0.0
 11
74309.3982491185
 21
-3500.802823658594
 31
0.0
  0
LINE
  5
2D0D
330
2
100
AcDbEntity
  8
0
  6
Continuous
370
     5
100
AcDbLine
 10
74289.3982491185
 20
-3449.861224976839
 30
0.0
 11
74289.3982491185
 21
-3478.563000585444
 31
0.0
  0
LINE
  5
2D0E
330
2
100
AcDbEntity
  8
0
  6
Continuous
370
     5
100
AcDbLine
 10
74269.3982491185
 20
-3449.861224976839
 30
0.0
 11
74269.3982491185
 21
-3500.802823658594
 31
0.0
  0
LINE
  5
2D0F
330
2
100
AcDbEntity
  8
0
  6
Continuous
370
     5
100
AcDbLine
 10
74249.3982491185
 20
-3449.861224976839
 30
0.0
 11
74249.3982491185
 21
-3478.563000585444
 31
0.0
  0
LINE
  5
2D10
330
2
100
AcDbEntity
  8
0
  6
Continuous
370
     5
100
AcDbLine
 10
74229.3982491185
 20
-3449.861224976839
 30
0.0
 11
74229.3982491185
 21
-3500.802823658594
 31
0.0
  0
LINE
  5
2D11
330
2
100
AcDbEntity
  8
0
  6
Continuous
370
     5
100
AcDbLine
 10
74209.3982491185
 20
-3449.861224976839
 30
0.0
 11
74209.3982491185
 21
-3478.563000585444
 31
0.0
  0
LINE
  5
2D12
330
2
100
AcDbEntity
  8
0
  6
Continuous
370
     5
100
AcDbLine
 10
74334.77234681591
 20
-3449.861224976839
 30
0.0
 11
74334.77234681591
 21
-3478.563000585444
 31
0.0
  0
LINE
  5
2D13
330
2
100
AcDbEntity
  8
0
  6
Continuous
370
     5
100
AcDbLine
 10
74434.77234681591
 20
-3449.861224976839
 30
0.0
 11
74434.77234681591
 21
-3500.802823658594
 31
0.0
  0
LINE
  5
2D14
330
2
100
AcDbEntity
  8
0
  6
Continuous
370
     5
100
AcDbLine
 10
74414.77234681591
 20
-3449.861224976839
 30
0.0
 11
74414.77234681591
 21
-3478.563000585444
 31
0.0
  0
LINE
  5
2D15
330
2
100
AcDbEntity
  8
0
  6
Continuous
370
     5
100
AcDbLine
 10
74394.77234681591
 20
-3449.861224976839
 30
0.0
 11
74394.77234681591
 21
-3500.802823658594
 31
0.0
  0
LINE
  5
2D16
330
2
100
AcDbEntity
  8
0
  6
Continuous
370
     5
100
AcDbLine
 10
74374.7723468159
 20
-3449.861224976839
 30
0.0
 11
74374.7723468159
 21
-3478.563000585444
 31
0.0
  0
LINE
  5
2D17
330
2
100
AcDbEntity
  8
0
  6
Continuous
370
     5
100
AcDbLine
 10
74354.77234681591
 20
-3449.861224976839
 30
0.0
 11
74354.77234681591
 21
-3500.802823658594
 31
0.0
  0
LINE
  5
2D18
330
2
100
AcDbEntity
  8
0
  6
Continuous
370
     5
100
AcDbLine
 10
74460.14644451332
 20
-3449.861224976839
 30
0.0
 11
74460.14644451332
 21
-3478.563000585444
 31
0.0
  0
LINE
  5
2D19
330
2
100
AcDbEntity
  8
0
  6
Continuous
370
     5
100
AcDbLine
 10
74560.14644451331
 20
-3449.861224976839
 30
0.0
 11
74560.14644451331
 21
-3500.802823658594
 31
0.0
  0
LINE
  5
2D1A
330
2
100
AcDbEntity
  8
0
  6
Continuous
370
     5
100
AcDbLine
 10
74540.14644451332
 20
-3449.861224976839
 30
0.0
 11
74540.14644451332
 21
-3478.563000585444
 31
0.0
  0
LINE
  5
2D1B
330
2
100
AcDbEntity
  8
0
  6
Continuous
370
     5
100
AcDbLine
 10
74520.14644451332
 20
-3449.861224976839
 30
0.0
 11
74520.14644451332
 21
-3500.802823658594
 31
0.0
  0
LINE
  5
2D1C
330
2
100
AcDbEntity
  8
0
  6
Continuous
370
     5
100
AcDbLine
 10
74500.14644451331
 20
-3449.861224976839
 30
0.0
 11
74500.14644451331
 21
-3478.563000585444
 31
0.0
  0
LINE
  5
2D1D
330
2
100
AcDbEntity
  8
0
  6
Continuous
370
     5
100
AcDbLine
 10
74480.14644451331
 20
-3449.861224976839
 30
0.0
 11
74480.14644451331
 21
-3500.802823658594
 31
0.0
  0
LINE
  5
2D1E
330
2
100
AcDbEntity
  8
0
  6
Continuous
370
     5
100
AcDbLine
 10
74585.52054221073
 20
-3449.861224976839
 30
0.0
 11
74585.52054221073
 21
-3478.563000585444
 31
0.0
  0
LINE
  5
2D1F
330
2
100
AcDbEntity
  8
0
  6
Continuous
370
     5
100
AcDbLine
 10
74645.52054221073
 20
-3449.861224976839
 30
0.0
 11
74645.52054221073
 21
-3500.802823658594
 31
0.0
  0
LINE
  5
2D20
330
2
100
AcDbEntity
  8
0
  6
Continuous
370
     5
100
AcDbLine
 10
74625.52054221072
 20
-3449.861224976839
 30
0.0
 11
74625.52054221072
 21
-3478.563000585444
 31
0.0
  0
LINE
  5
2D21
330
2
100
AcDbEntity
  8
0
  6
Continuous
370
     5
100
AcDbLine
 10
74605.52054221072
 20
-3449.861224976839
 30
0.0
 11
74605.52054221072
 21
-3500.802823658594
 31
0.0
  0
ARC
  5
2D22
330
2
100
AcDbEntity
  8
0
  6
Continuous
370
     5
100
AcDbCircle
 10
74748.15119917789
 20
-3339.263470585559
 30
0.0
 40
119.1443307829868
100
AcDbArc
 50
317.9074538726232
 51
0.000000000000007
  0
ARC
  5
2D23
330
2
100
AcDbEntity
  8
0
  6
Continuous
370
     5
100
AcDbCircle
 10
74748.15119917789
 20
-3339.263470585559
 30
0.0
 40
297.1443307829868
100
AcDbArc
 50
316.1653659092358
 51
0.000000000000007
  0
ARC
  5
2D24
330
2
100
AcDbEntity
  8
0
  6
Continuous
370
     5
100
AcDbCircle
 10
74748.15119917789
 20
-2310.45897936812
 30
0.0
 40
119.1443307829868
100
AcDbArc
 50
0.000000000000007
 51
42.09254612737683
  0
ARC
  5
2D25
330
2
100
AcDbEntity
  8
0
  6
Continuous
370
     5
100
AcDbCircle
 10
74748.15119917789
 20
-2310.45897936812
 30
0.0
 40
297.1443307829868
100
AcDbArc
 50
0.000000000000007
 51
43.83463409076422
  0
LINE
  5
2D26
330
2
100
AcDbEntity
  8
0
  6
Continuous
370
     5
100
AcDbLine
 10
74685.52054221072
 20
-3449.861224976839
 30
0.0
 11
74685.52054221072
 21
-3500.802823658594
 31
0.0
  0
LINE
  5
2D27
330
2
100
AcDbEntity
  8
0
  6
Continuous
370
     5
100
AcDbLine
 10
74665.52054221073
 20
-3449.861224976839
 30
0.0
 11
74665.52054221073
 21
-3478.563000585444
 31
0.0
  0
LINE
  5
2D28
330
2
100
AcDbEntity
  8
0
  6
Continuous
370
     5
100
AcDbLine
 10
74710.89463990813
 20
-3449.861224976839
 30
0.0
 11
74710.89463990813
 21
-3478.563000585444
 31
0.0
  0
LINE
  5
2D29
330
2
100
AcDbEntity
  8
0
  6
Continuous
370
     5
100
AcDbLine
 10
74867.29552996089
 20
-3339.263470585559
 30
0.0
 11
74918.23712864265
 21
-3339.263470585559
 31
0.0
  0
LINE
  5
2D2A
330
2
100
AcDbEntity
  8
0
  6
Continuous
370
     5
100
AcDbLine
 10
74867.29552996089
 20
-3313.889372888151
 30
0.0
 11
74895.9973055695
 21
-3313.889372888151
 31
0.0
  0
LINE
  5
2D2B
330
2
100
AcDbEntity
  8
0
  6
Continuous
370
     5
100
AcDbLine
 10
74867.29552996089
 20
-3213.889372888151
 30
0.0
 11
74918.23712864265
 21
-3213.889372888151
 31
0.0
  0
LINE
  5
2D2C
330
2
100
AcDbEntity
  8
0
  6
Continuous
370
     5
100
AcDbLine
 10
74867.29552996089
 20
-3233.889372888152
 30
0.0
 11
74895.9973055695
 21
-3233.889372888152
 31
0.0
  0
LINE
  5
2D2D
330
2
100
AcDbEntity
  8
0
  6
Continuous
370
     5
100
AcDbLine
 10
74867.29552996089
 20
-3253.889372888151
 30
0.0
 11
74918.23712864265
 21
-3253.889372888151
 31
0.0
  0
LINE
  5
2D2E
330
2
100
AcDbEntity
  8
0
  6
Continuous
370
     5
100
AcDbLine
 10
74867.29552996089
 20
-3273.889372888151
 30
0.0
 11
74895.9973055695
 21
-3273.889372888151
 31
0.0
  0
LINE
  5
2D2F
330
2
100
AcDbEntity
  8
0
  6
Continuous
370
     5
100
AcDbLine
 10
74867.29552996089
 20
-3293.889372888151
 30
0.0
 11
74918.23712864265
 21
-3293.889372888151
 31
0.0
  0
LINE
  5
2D30
330
2
100
AcDbEntity
  8
0
  6
Continuous
370
     5
100
AcDbLine
 10
74867.29552996089
 20
-3188.515275190744
 30
0.0
 11
74895.9973055695
 21
-3188.515275190744
 31
0.0
  0
LINE
  5
2D31
330
2
100
AcDbEntity
  8
0
  6
Continuous
370
     5
100
AcDbLine
 10
74867.29552996089
 20
-3088.515275190744
 30
0.0
 11
74918.23712864265
 21
-3088.515275190744
 31
0.0
  0
LINE
  5
2D32
330
2
100
AcDbEntity
  8
0
  6
Continuous
370
     5
100
AcDbLine
 10
74867.29552996089
 20
-3108.515275190744
 30
0.0
 11
74895.9973055695
 21
-3108.515275190744
 31
0.0
  0
LINE
  5
2D33
330
2
100
AcDbEntity
  8
0
  6
Continuous
370
     5
100
AcDbLine
 10
74867.29552996089
 20
-3128.515275190744
 30
0.0
 11
74918.23712864265
 21
-3128.515275190744
 31
0.0
  0
LINE
  5
2D34
330
2
100
AcDbEntity
  8
0
  6
Continuous
370
     5
100
AcDbLine
 10
74867.29552996089
 20
-3148.515275190744
 30
0.0
 11
74895.9973055695
 21
-3148.515275190744
 31
0.0
  0
LINE
  5
2D35
330
2
100
AcDbEntity
  8
0
  6
Continuous
370
     5
100
AcDbLine
 10
74867.29552996089
 20
-3168.515275190744
 30
0.0
 11
74918.23712864265
 21
-3168.515275190744
 31
0.0
  0
LINE
  5
2D36
330
2
100
AcDbEntity
  8
0
  6
Continuous
370
     5
100
AcDbLine
 10
74867.29552996089
 20
-3063.141177493336
 30
0.0
 11
74895.9973055695
 21
-3063.141177493336
 31
0.0
  0
LINE
  5
2D37
330
2
100
AcDbEntity
  8
0
  6
Continuous
370
     5
100
AcDbLine
 10
74867.29552996089
 20
-3003.141177493336
 30
0.0
 11
74918.23712864265
 21
-3003.141177493336
 31
0.0
  0
LINE
  5
2D38
330
2
100
AcDbEntity
  8
0
  6
Continuous
370
     5
100
AcDbLine
 10
74867.29552996089
 20
-3023.141177493336
 30
0.0
 11
74895.9973055695
 21
-3023.141177493336
 31
0.0
  0
LINE
  5
2D39
330
2
100
AcDbEntity
  8
0
  6
Continuous
370
     5
100
AcDbLine
 10
74867.29552996089
 20
-3043.141177493336
 30
0.0
 11
74918.23712864265
 21
-3043.141177493336
 31
0.0
  0
LINE
  5
2D3A
330
2
100
AcDbEntity
  8
0
  6
Continuous
370
     5
100
AcDbLine
 10
74867.29552996089
 20
-2983.141177493336
 30
0.0
 11
74895.9973055695
 21
-2983.141177493336
 31
0.0
  0
LINE
  5
2D3B
330
2
100
AcDbEntity
  8
0
  6
Continuous
370
     5
100
AcDbLine
 10
73536.33149321088
 20
-2199.861224976839
 30
0.0
 11
73528.5325682745
 21
-2175.858602092497
 31
0.0
  0
LINE
  5
2D3C
330
2
100
AcDbEntity
  8
0
  6
Continuous
370
     5
100
AcDbLine
 10
73506.27601814428
 20
-2201.57987283933
 30
0.0
 11
73487.50703438083
 21
-2159.424045097778
 31
0.0
  0
LINE
  5
2D3D
330
2
100
AcDbEntity
  8
0
  6
Continuous
370
     5
100
AcDbLine
 10
73477.6866138466
 20
-2210.292665656128
 30
0.0
 11
73462.6866138466
 21
-2184.311903542594
 31
0.0
  0
LINE
  5
2D3E
330
2
100
AcDbEntity
  8
0
  6
Continuous
370
     5
100
AcDbLine
 10
73450.16461874093
 20
-2227.477095622464
 30
0.0
 11
73413.64772943997
 21
-2191.07585508376
 31
0.0
  0
LINE
  5
2D3F
330
2
100
AcDbEntity
  8
0
  6
Continuous
370
     5
100
AcDbLine
 10
73413.58169563422
 20
-2280.816471903255
 30
0.0
 11
73388.89311189619
 21
-2267.74748467769
 31
0.0
  0
LINE
  5
2D40
330
2
100
AcDbEntity
  8
0
  6
Continuous
370
     5
100
AcDbLine
 10
73408.7636924333
 20
-2300.359082380969
 30
0.0
 11
73358.78924541976
 21
-2289.382081324475
 31
0.0
  0
LINE
  5
2D41
330
2
100
AcDbEntity
  8
0
  6
Continuous
370
     5
100
AcDbLine
 10
73407.29552996089
 20
-2341.508874438227
 30
0.0
 11
73356.35393127914
 21
-2341.508874438227
 31
0.0
  0
LINE
  5
2D42
330
2
100
AcDbEntity
  8
0
  6
Continuous
370
     5
100
AcDbLine
 10
73407.29552996089
 20
-2321.508874438226
 30
0.0
 11
73378.59375435229
 21
-2321.508874438226
 31
0.0
  0
LINE
  5
2D43
330
2
100
AcDbEntity
  8
0
  6
Continuous
370
     5
100
AcDbLine
 10
73407.29552996089
 20
-2366.882972135634
 30
0.0
 11
73378.59375435229
 21
-2366.882972135634
 31
0.0
  0
LINE
  5
2D44
330
2
100
AcDbEntity
  8
0
  6
Continuous
370
     5
100
AcDbLine
 10
73407.29552996089
 20
-2466.882972135634
 30
0.0
 11
73356.35393127914
 21
-2466.882972135634
 31
0.0
  0
LINE
  5
2D45
330
2
100
AcDbEntity
  8
0
  6
Continuous
370
     5
100
AcDbLine
 10
73407.29552996089
 20
-2446.882972135635
 30
0.0
 11
73378.59375435229
 21
-2446.882972135635
 31
0.0
  0
LINE
  5
2D46
330
2
100
AcDbEntity
  8
0
  6
Continuous
370
     5
100
AcDbLine
 10
73407.29552996089
 20
-2426.882972135635
 30
0.0
 11
73356.35393127914
 21
-2426.882972135635
 31
0.0
  0
LINE
  5
2D47
330
2
100
AcDbEntity
  8
0
  6
Continuous
370
     5
100
AcDbLine
 10
73407.29552996089
 20
-2406.882972135634
 30
0.0
 11
73378.59375435229
 21
-2406.882972135634
 31
0.0
  0
LINE
  5
2D48
330
2
100
AcDbEntity
  8
0
  6
Continuous
370
     5
100
AcDbLine
 10
73407.29552996089
 20
-2386.882972135634
 30
0.0
 11
73356.35393127914
 21
-2386.882972135634
 31
0.0
  0
LINE
  5
2D49
330
2
100
AcDbEntity
  8
0
  6
Continuous
370
     5
100
AcDbLine
 10
73407.29552996089
 20
-2492.257069833042
 30
0.0
 11
73378.59375435229
 21
-2492.257069833042
 31
0.0
  0
LINE
  5
2D4A
330
2
100
AcDbEntity
  8
0
  6
Continuous
370
     5
100
AcDbLine
 10
73407.29552996089
 20
-2512.257069833042
 30
0.0
 11
73356.35393127914
 21
-2512.257069833042
 31
0.0
  0
LINE
  5
2D4B
330
2
100
AcDbEntity
  8
0
  6
Continuous
370
     5
100
AcDbLine
 10
73407.29552996089
 20
-2532.257069833042
 30
0.0
 11
73378.59375435229
 21
-2532.257069833042
 31
0.0
  0
LINE
  5
2D4C
330
2
100
AcDbEntity
  8
0
  6
Continuous
370
     5
100
AcDbLine
 10
73407.29552996089
 20
-2632.257069833042
 30
0.0
 11
73356.35393127914
 21
-2632.257069833042
 31
0.0
  0
LINE
  5
2D4D
330
2
100
AcDbEntity
  8
0
  6
Continuous
370
     5
100
AcDbLine
 10
73407.29552996089
 20
-2612.257069833042
 30
0.0
 11
73378.59375435229
 21
-2612.257069833042
 31
0.0
  0
LINE
  5
2D4E
330
2
100
AcDbEntity
  8
0
  6
Continuous
370
     5
100
AcDbLine
 10
73407.29552996089
 20
-2592.257069833042
 30
0.0
 11
73356.35393127914
 21
-2592.257069833042
 31
0.0
  0
LINE
  5
2D4F
330
2
100
AcDbEntity
  8
0
  6
Continuous
370
     5
100
AcDbLine
 10
73407.29552996089
 20
-2572.257069833042
 30
0.0
 11
73378.59375435229
 21
-2572.257069833042
 31
0.0
  0
LINE
  5
2D50
330
2
100
AcDbEntity
  8
0
  6
Continuous
370
     5
100
AcDbLine
 10
73407.29552996089
 20
-2552.257069833042
 30
0.0
 11
73356.35393127914
 21
-2552.257069833042
 31
0.0
  0
LINE
  5
2D51
330
2
100
AcDbEntity
  8
0
  6
Continuous
370
     5
100
AcDbLine
 10
73407.29552996089
 20
-2657.63116753045
 30
0.0
 11
73378.59375435229
 21
-2657.63116753045
 31
0.0
  0
LINE
  5
2D52
330
2
100
AcDbEntity
  8
0
  6
Continuous
370
     5
100
AcDbLine
 10
73407.29552996089
 20
-2717.63116753045
 30
0.0
 11
73356.35393127914
 21
-2717.63116753045
 31
0.0
  0
LINE
  5
2D53
330
2
100
AcDbEntity
  8
0
  6
Continuous
370
     5
100
AcDbLine
 10
73407.29552996089
 20
-2697.63116753045
 30
0.0
 11
73378.59375435229
 21
-2697.63116753045
 31
0.0
  0
LINE
  5
2D54
330
2
100
AcDbEntity
  8
0
  6
Continuous
370
     5
100
AcDbLine
 10
73407.29552996089
 20
-2677.63116753045
 30
0.0
 11
73356.35393127914
 21
-2677.63116753045
 31
0.0
  0
LINE
  5
2D55
330
2
100
AcDbEntity
  8
0
  6
Continuous
370
     5
100
AcDbLine
 10
73564.17161359557
 20
-2199.991657805298
 30
0.0
 11
73560.00315268051
 21
-2144.444582437873
 31
0.0
  0
LINE
  5
2D56
330
2
100
AcDbEntity
  8
0
  6
Continuous
370
     5
100
AcDbLine
 10
73591.05125275863
 20
-2199.861224976839
 30
0.0
 11
73591.10494053887
 21
-2162.709142660989
 31
0.0
  0
LINE
  5
2D57
330
2
100
AcDbEntity
  8
0
  6
Continuous
370
     5
100
AcDbLine
 10
73756.42535045603
 20
-2199.861224976839
 30
0.0
 11
73756.42535045603
 21
-2171.159449368232
 31
0.0
  0
LINE
  5
2D58
330
2
100
AcDbEntity
  8
0
  6
Continuous
370
     5
100
AcDbLine
 10
73656.42535045603
 20
-2199.861224976839
 30
0.0
 11
73656.42535045603
 21
-2148.919626295084
 31
0.0
  0
LINE
  5
2D59
330
2
100
AcDbEntity
  8
0
  6
Continuous
370
     5
100
AcDbLine
 10
73676.42535045603
 20
-2199.861224976839
 30
0.0
 11
73676.42535045603
 21
-2171.159449368232
 31
0.0
  0
LINE
  5
2D5A
330
2
100
AcDbEntity
  8
0
  6
Continuous
370
     5
100
AcDbLine
 10
73696.42535045604
 20
-2199.861224976839
 30
0.0
 11
73696.42535045604
 21
-2148.919626295084
 31
0.0
  0
LINE
  5
2D5B
330
2
100
AcDbEntity
  8
0
  6
Continuous
370
     5
100
AcDbLine
 10
73716.42535045603
 20
-2199.861224976839
 30
0.0
 11
73716.42535045603
 21
-2171.159449368232
 31
0.0
  0
LINE
  5
2D5C
330
2
100
AcDbEntity
  8
0
  6
Continuous
370
     5
100
AcDbLine
 10
73736.42535045603
 20
-2199.861224976839
 30
0.0
 11
73736.42535045603
 21
-2148.919626295084
 31
0.0
  0
LINE
  5
2D5D
330
2
100
AcDbEntity
  8
0
  6
Continuous
370
     5
100
AcDbLine
 10
73631.05125275862
 20
-2199.861224976839
 30
0.0
 11
73631.05125275862
 21
-2171.159449368232
 31
0.0
  0
LINE
  5
2D5E
330
2
100
AcDbEntity
  8
0
  6
Continuous
370
     5
100
AcDbLine
 10
73591.05125275863
 20
-2199.861224976839
 30
0.0
 11
73591.05125275863
 21
-2171.159449368232
 31
0.0
  0
LINE
  5
2D5F
330
2
100
AcDbEntity
  8
0
  6
Continuous
370
     5
100
AcDbLine
 10
73611.05125275862
 20
-2199.861224976839
 30
0.0
 11
73611.05125275862
 21
-2148.919626295084
 31
0.0
  0
LINE
  5
2D60
330
2
100
AcDbEntity
  8
0
  6
Continuous
370
     5
100
AcDbLine
 10
73921.55517095114
 20
-2199.861224976839
 30
0.0
 11
73921.55517095114
 21
-2171.159449368232
 31
0.0
  0
LINE
  5
2D61
330
2
100
AcDbEntity
  8
0
  6
Continuous
370
     5
100
AcDbLine
 10
73821.55517095115
 20
-2199.861224976839
 30
0.0
 11
73821.55517095115
 21
-2148.919626295084
 31
0.0
  0
LINE
  5
2D62
330
2
100
AcDbEntity
  8
0
  6
Continuous
370
     5
100
AcDbLine
 10
73841.55517095114
 20
-2199.861224976839
 30
0.0
 11
73841.55517095114
 21
-2171.159449368232
 31
0.0
  0
LINE
  5
2D63
330
2
100
AcDbEntity
  8
0
  6
Continuous
370
     5
100
AcDbLine
 10
73861.55517095115
 20
-2199.861224976839
 30
0.0
 11
73861.55517095115
 21
-2148.919626295084
 31
0.0
  0
LINE
  5
2D64
330
2
100
AcDbEntity
  8
0
  6
Continuous
370
     5
100
AcDbLine
 10
73881.55517095115
 20
-2199.861224976839
 30
0.0
 11
73881.55517095115
 21
-2171.159449368232
 31
0.0
  0
LINE
  5
2D65
330
2
100
AcDbEntity
  8
0
  6
Continuous
370
     5
100
AcDbLine
 10
73901.55517095115
 20
-2199.861224976839
 30
0.0
 11
73901.55517095115
 21
-2148.919626295084
 31
0.0
  0
LINE
  5
2D66
330
2
100
AcDbEntity
  8
0
  6
Continuous
370
     5
100
AcDbLine
 10
73796.18107325374
 20
-2199.861224976839
 30
0.0
 11
73796.18107325374
 21
-2171.159449368232
 31
0.0
  0
LINE
  5
2D67
330
2
100
AcDbEntity
  8
0
  6
Continuous
370
     5
100
AcDbLine
 10
73776.18107325374
 20
-2199.861224976839
 30
0.0
 11
73776.18107325374
 21
-2148.919626295084
 31
0.0
  0
LINE
  5
2D68
330
2
100
AcDbEntity
  8
0
  6
Continuous
370
     5
100
AcDbLine
 10
74086.6849914463
 20
-2199.861224976837
 30
0.0
 11
74086.6849914463
 21
-2171.159449368232
 31
0.0
  0
LINE
  5
2D69
330
2
100
AcDbEntity
  8
0
  6
Continuous
370
     5
100
AcDbLine
 10
73986.68499144629
 20
-2199.861224976839
 30
0.0
 11
73986.68499144629
 21
-2148.919626295084
 31
0.0
  0
LINE
  5
2D6A
330
2
100
AcDbEntity
  8
0
  6
Continuous
370
     5
100
AcDbLine
 10
74006.6849914463
 20
-2199.861224976839
 30
0.0
 11
74006.6849914463
 21
-2171.159449368232
 31
0.0
  0
LINE
  5
2D6B
330
2
100
AcDbEntity
  8
0
  6
Continuous
370
     5
100
AcDbLine
 10
74026.68499144629
 20
-2199.861224976839
 30
0.0
 11
74026.68499144629
 21
-2148.919626295084
 31
0.0
  0
LINE
  5
2D6C
330
2
100
AcDbEntity
  8
0
  6
Continuous
370
     5
100
AcDbLine
 10
74046.68499144629
 20
-2199.861224976839
 30
0.0
 11
74046.68499144629
 21
-2171.159449368232
 31
0.0
  0
LINE
  5
2D6D
330
2
100
AcDbEntity
  8
0
  6
Continuous
370
     5
100
AcDbLine
 10
74066.68499144629
 20
-2199.861224976839
 30
0.0
 11
74066.68499144629
 21
-2148.919626295084
 31
0.0
  0
LINE
  5
2D6E
330
2
100
AcDbEntity
  8
0
  6
Continuous
370
     5
100
AcDbLine
 10
73961.31089374889
 20
-2199.861224976839
 30
0.0
 11
73961.31089374889
 21
-2171.159449368232
 31
0.0
  0
LINE
  5
2D6F
330
2
100
AcDbEntity
  8
0
  6
Continuous
370
     5
100
AcDbLine
 10
73941.31089374888
 20
-2199.861224976839
 30
0.0
 11
73941.31089374888
 21
-2148.919626295084
 31
0.0
  0
LINE
  5
2D70
330
2
100
AcDbEntity
  8
0
  6
Continuous
370
     5
100
AcDbLine
 10
74277.18890963883
 20
-2199.861224976839
 30
0.0
 11
74277.18890963883
 21
-2148.919626295084
 31
0.0
  0
LINE
  5
2D71
330
2
100
AcDbEntity
  8
0
  6
Continuous
370
     5
100
AcDbLine
 10
74251.81481194142
 20
-2199.861224976839
 30
0.0
 11
74251.81481194142
 21
-2171.159449368232
 31
0.0
  0
LINE
  5
2D72
330
2
100
AcDbEntity
  8
0
  6
Continuous
370
     5
100
AcDbLine
 10
74151.81481194142
 20
-2199.861224976839
 30
0.0
 11
74151.81481194142
 21
-2148.919626295084
 31
0.0
  0
LINE
  5
2D73
330
2
100
AcDbEntity
  8
0
  6
Continuous
370
     5
100
AcDbLine
 10
74171.81481194142
 20
-2199.861224976839
 30
0.0
 11
74171.81481194142
 21
-2171.159449368232
 31
0.0
  0
LINE
  5
2D74
330
2
100
AcDbEntity
  8
0
  6
Continuous
370
     5
100
AcDbLine
 10
74191.81481194143
 20
-2199.861224976839
 30
0.0
 11
74191.81481194143
 21
-2148.919626295084
 31
0.0
  0
LINE
  5
2D75
330
2
100
AcDbEntity
  8
0
  6
Continuous
370
     5
100
AcDbLine
 10
74211.81481194143
 20
-2199.861224976839
 30
0.0
 11
74211.81481194143
 21
-2171.159449368232
 31
0.0
  0
LINE
  5
2D76
330
2
100
AcDbEntity
  8
0
  6
Continuous
370
     5
100
AcDbLine
 10
74231.81481194142
 20
-2199.861224976839
 30
0.0
 11
74231.81481194142
 21
-2148.919626295084
 31
0.0
  0
LINE
  5
2D77
330
2
100
AcDbEntity
  8
0
  6
Continuous
370
     5
100
AcDbLine
 10
74126.44071424401
 20
-2199.861224976839
 30
0.0
 11
74126.44071424401
 21
-2171.159449368232
 31
0.0
  0
LINE
  5
2D78
330
2
100
AcDbEntity
  8
0
  6
Continuous
370
     5
100
AcDbLine
 10
74106.44071424401
 20
-2199.861224976839
 30
0.0
 11
74106.44071424401
 21
-2148.919626295084
 31
0.0
  0
LINE
  5
2D79
330
2
100
AcDbEntity
  8
0
  6
Continuous
370
     5
100
AcDbLine
 10
74291.81481194141
 20
-2199.861224976837
 30
0.0
 11
74291.81481194141
 21
-2171.159449368232
 31
0.0
  0
LINE
  5
2D7A
330
2
100
AcDbEntity
  8
0
  6
Continuous
370
     5
100
AcDbLine
 10
74482.31873013396
 20
-2199.861224976837
 30
0.0
 11
74482.31873013396
 21
-2148.919626295083
 31
0.0
  0
LINE
  5
2D7B
330
2
100
AcDbEntity
  8
0
  6
Continuous
370
     5
100
AcDbLine
 10
74456.94463243656
 20
-2199.861224976839
 30
0.0
 11
74456.94463243656
 21
-2171.159449368232
 31
0.0
  0
LINE
  5
2D7C
330
2
100
AcDbEntity
  8
0
  6
Continuous
370
     5
100
AcDbLine
 10
74356.94463243655
 20
-2199.861224976839
 30
0.0
 11
74356.94463243655
 21
-2148.919626295084
 31
0.0
  0
LINE
  5
2D7D
330
2
100
AcDbEntity
  8
0
  6
Continuous
370
     5
100
AcDbLine
 10
74376.94463243656
 20
-2199.861224976839
 30
0.0
 11
74376.94463243656
 21
-2171.159449368232
 31
0.0
  0
LINE
  5
2D7E
330
2
100
AcDbEntity
  8
0
  6
Continuous
370
     5
100
AcDbLine
 10
74396.94463243656
 20
-2199.861224976839
 30
0.0
 11
74396.94463243656
 21
-2148.919626295084
 31
0.0
  0
LINE
  5
2D7F
330
2
100
AcDbEntity
  8
0
  6
Continuous
370
     5
100
AcDbLine
 10
74416.94463243655
 20
-2199.861224976839
 30
0.0
 11
74416.94463243655
 21
-2171.159449368232
 31
0.0
  0
LINE
  5
2D80
330
2
100
AcDbEntity
  8
0
  6
Continuous
370
     5
100
AcDbLine
 10
74436.94463243655
 20
-2199.861224976839
 30
0.0
 11
74436.94463243655
 21
-2148.919626295084
 31
0.0
  0
LINE
  5
2D81
330
2
100
AcDbEntity
  8
0
  6
Continuous
370
     5
100
AcDbLine
 10
74331.57053473915
 20
-2199.861224976839
 30
0.0
 11
74331.57053473915
 21
-2171.159449368232
 31
0.0
  0
LINE
  5
2D82
330
2
100
AcDbEntity
  8
0
  6
Continuous
370
     5
100
AcDbLine
 10
74311.57053473914
 20
-2199.861224976839
 30
0.0
 11
74311.57053473914
 21
-2148.919626295084
 31
0.0
  0
LINE
  5
2D83
330
2
100
AcDbEntity
  8
0
  6
Continuous
370
     5
100
AcDbLine
 10
74522.31873013396
 20
-2199.861224976837
 30
0.0
 11
74522.31873013396
 21
-2171.159449368232
 31
0.0
  0
LINE
  5
2D84
330
2
100
AcDbEntity
  8
0
  6
Continuous
370
     5
100
AcDbLine
 10
74502.31873013397
 20
-2199.861224976837
 30
0.0
 11
74502.31873013397
 21
-2148.919626295083
 31
0.0
  0
LINE
  5
2D85
330
2
100
AcDbEntity
  8
0
  6
Continuous
370
     5
100
AcDbLine
 10
74712.8226483265
 20
-2199.861224976837
 30
0.0
 11
74712.8226483265
 21
-2148.919626295083
 31
0.0
  0
LINE
  5
2D86
330
2
100
AcDbEntity
  8
0
  6
Continuous
370
     5
100
AcDbLine
 10
74687.44855062909
 20
-2199.861224976837
 30
0.0
 11
74687.44855062909
 21
-2171.159449368232
 31
0.0
  0
LINE
  5
2D87
330
2
100
AcDbEntity
  8
0
  6
Continuous
370
     5
100
AcDbLine
 10
74587.44855062909
 20
-2199.861224976839
 30
0.0
 11
74587.44855062909
 21
-2148.919626295084
 31
0.0
  0
LINE
  5
2D88
330
2
100
AcDbEntity
  8
0
  6
Continuous
370
     5
100
AcDbLine
 10
74607.44855062909
 20
-2199.861224976837
 30
0.0
 11
74607.44855062909
 21
-2171.159449368232
 31
0.0
  0
LINE
  5
2D89
330
2
100
AcDbEntity
  8
0
  6
Continuous
370
     5
100
AcDbLine
 10
74627.4485506291
 20
-2199.861224976837
 30
0.0
 11
74627.4485506291
 21
-2148.919626295083
 31
0.0
  0
LINE
  5
2D8A
330
2
100
AcDbEntity
  8
0
  6
Continuous
370
     5
100
AcDbLine
 10
74647.44855062909
 20
-2199.861224976837
 30
0.0
 11
74647.44855062909
 21
-2171.159449368232
 31
0.0
  0
LINE
  5
2D8B
330
2
100
AcDbEntity
  8
0
  6
Continuous
370
     5
100
AcDbLine
 10
74667.44855062909
 20
-2199.861224976837
 30
0.0
 11
74667.44855062909
 21
-2148.919626295083
 31
0.0
  0
LINE
  5
2D8C
330
2
100
AcDbEntity
  8
0
  6
Continuous
370
     5
100
AcDbLine
 10
74562.07445293169
 20
-2199.861224976839
 30
0.0
 11
74562.07445293169
 21
-2171.159449368232
 31
0.0
  0
LINE
  5
2D8D
330
2
100
AcDbEntity
  8
0
  6
Continuous
370
     5
100
AcDbLine
 10
74542.07445293168
 20
-2199.861224976837
 30
0.0
 11
74542.07445293168
 21
-2148.919626295083
 31
0.0
  0
LINE
  5
2D8E
330
2
100
AcDbEntity
  8
0
  6
Continuous
370
     5
100
AcDbLine
 10
73407.29552996089
 20
-2757.63116753045
 30
0.0
 11
73356.35393127914
 21
-2757.63116753045
 31
0.0
  0
LINE
  5
2D8F
330
2
100
AcDbEntity
  8
0
  6
Continuous
370
     5
100
AcDbLine
 10
73407.29552996089
 20
-2737.63116753045
 30
0.0
 11
73378.59375435229
 21
-2737.63116753045
 31
0.0
  0
LINE
  5
2D90
330
2
100
AcDbEntity
  8
0
  6
Continuous
370
     5
100
AcDbLine
 10
73407.29552996089
 20
-2783.005265227858
 30
0.0
 11
73378.59375435229
 21
-2783.005265227858
 31
0.0
  0
LINE
  5
2D91
330
2
100
AcDbEntity
  8
0
  6
Continuous
370
     5
100
AcDbLine
 10
73407.29552996089
 20
-2843.005265227857
 30
0.0
 11
73356.35393127914
 21
-2843.005265227857
 31
0.0
  0
LINE
  5
2D92
330
2
100
AcDbEntity
  8
0
  6
Continuous
370
     5
100
AcDbLine
 10
73407.29552996089
 20
-2823.005265227858
 30
0.0
 11
73378.59375435229
 21
-2823.005265227858
 31
0.0
  0
LINE
  5
2D93
330
2
100
AcDbEntity
  8
0
  6
Continuous
370
     5
100
AcDbLine
 10
73407.29552996089
 20
-2803.005265227858
 30
0.0
 11
73356.35393127914
 21
-2803.005265227858
 31
0.0
  0
LINE
  5
2D94
330
2
100
AcDbEntity
  8
0
  6
Continuous
370
     5
100
AcDbLine
 10
73407.29552996089
 20
-2883.005265227858
 30
0.0
 11
73356.35393127914
 21
-2883.005265227858
 31
0.0
  0
LINE
  5
2D95
330
2
100
AcDbEntity
  8
0
  6
Continuous
370
     5
100
AcDbLine
 10
73407.29552996089
 20
-2863.005265227858
 30
0.0
 11
73378.59375435229
 21
-2863.005265227858
 31
0.0
  0
LINE
  5
2D96
330
2
100
AcDbEntity
  8
0
  6
Continuous
370
     5
100
AcDbLine
 10
73407.29552996089
 20
-2908.379362925265
 30
0.0
 11
73378.59375435229
 21
-2908.379362925265
 31
0.0
  0
LINE
  5
2D97
330
2
100
AcDbEntity
  8
0
  6
Continuous
370
     5
100
AcDbLine
 10
73407.29552996089
 20
-2968.379362925265
 30
0.0
 11
73356.35393127914
 21
-2968.379362925265
 31
0.0
  0
LINE
  5
2D98
330
2
100
AcDbEntity
  8
0
  6
Continuous
370
     5
100
AcDbLine
 10
73407.29552996089
 20
-2948.379362925265
 30
0.0
 11
73378.59375435229
 21
-2948.379362925265
 31
0.0
  0
LINE
  5
2D99
330
2
100
AcDbEntity
  8
0
  6
Continuous
370
     5
100
AcDbLine
 10
73407.29552996089
 20
-2928.379362925265
 30
0.0
 11
73356.35393127914
 21
-2928.379362925265
 31
0.0
  0
LINE
  5
2D9A
330
2
100
AcDbEntity
  8
0
  6
Continuous
370
     5
100
AcDbLine
 10
73407.29552996089
 20
-3008.379362925265
 30
0.0
 11
73356.35393127914
 21
-3008.379362925265
 31
0.0
  0
LINE
  5
2D9B
330
2
100
AcDbEntity
  8
0
  6
Continuous
370
     5
100
AcDbLine
 10
73407.29552996089
 20
-2988.379362925265
 30
0.0
 11
73378.59375435229
 21
-2988.379362925265
 31
0.0
  0
LINE
  5
2D9C
330
2
100
AcDbEntity
  8
0
  6
Continuous
370
     5
100
AcDbLine
 10
73407.29552996089
 20
-3033.753460622673
 30
0.0
 11
73378.59375435229
 21
-3033.753460622673
 31
0.0
  0
LINE
  5
2D9D
330
2
100
AcDbEntity
  8
0
  6
Continuous
370
     5
100
AcDbLine
 10
73407.29552996089
 20
-3093.753460622673
 30
0.0
 11
73356.35393127914
 21
-3093.753460622673
 31
0.0
  0
LINE
  5
2D9E
330
2
100
AcDbEntity
  8
0
  6
Continuous
370
     5
100
AcDbLine
 10
73407.29552996089
 20
-3073.753460622673
 30
0.0
 11
73378.59375435229
 21
-3073.753460622673
 31
0.0
  0
LINE
  5
2D9F
330
2
100
AcDbEntity
  8
0
  6
Continuous
370
     5
100
AcDbLine
 10
73407.29552996089
 20
-3053.753460622673
 30
0.0
 11
73356.35393127914
 21
-3053.753460622673
 31
0.0
  0
LINE
  5
2DA0
330
2
100
AcDbEntity
  8
0
  6
Continuous
370
     5
100
AcDbLine
 10
73407.29552996089
 20
-3133.753460622673
 30
0.0
 11
73356.35393127914
 21
-3133.753460622673
 31
0.0
  0
LINE
  5
2DA1
330
2
100
AcDbEntity
  8
0
  6
Continuous
370
     5
100
AcDbLine
 10
73407.29552996089
 20
-3113.753460622673
 30
0.0
 11
73378.59375435229
 21
-3113.753460622673
 31
0.0
  0
LINE
  5
2DA2
330
2
100
AcDbEntity
  8
0
  6
Continuous
370
     5
100
AcDbLine
 10
73407.29552996089
 20
-3159.127558320081
 30
0.0
 11
73378.59375435229
 21
-3159.127558320081
 31
0.0
  0
LINE
  5
2DA3
330
2
100
AcDbEntity
  8
0
  6
Continuous
370
     5
100
AcDbLine
 10
73407.29552996089
 20
-3219.127558320081
 30
0.0
 11
73356.35393127914
 21
-3219.127558320081
 31
0.0
  0
LINE
  5
2DA4
330
2
100
AcDbEntity
  8
0
  6
Continuous
370
     5
100
AcDbLine
 10
73407.29552996089
 20
-3199.127558320081
 30
0.0
 11
73378.59375435229
 21
-3199.127558320081
 31
0.0
  0
LINE
  5
2DA5
330
2
100
AcDbEntity
  8
0
  6
Continuous
370
     5
100
AcDbLine
 10
73407.29552996089
 20
-3179.127558320081
 30
0.0
 11
73356.35393127914
 21
-3179.127558320081
 31
0.0
  0
LINE
  5
2DA6
330
2
100
AcDbEntity
  8
0
  6
Continuous
370
     5
100
AcDbLine
 10
73407.29552996089
 20
-3259.127558320081
 30
0.0
 11
73356.35393127914
 21
-3259.127558320081
 31
0.0
  0
LINE
  5
2DA7
330
2
100
AcDbEntity
  8
0
  6
Continuous
370
     5
100
AcDbLine
 10
73407.29552996089
 20
-3239.12755832008
 30
0.0
 11
73378.59375435229
 21
-3239.12755832008
 31
0.0
  0
LINE
  5
2DA8
330
2
100
AcDbEntity
  8
0
  6
Continuous
370
     5
100
AcDbLine
 10
73407.29552996089
 20
-3284.501656017488
 30
0.0
 11
73378.59375435229
 21
-3284.501656017488
 31
0.0
  0
LINE
  5
2DA9
330
2
100
AcDbEntity
  8
0
  6
Continuous
370
     5
100
AcDbLine
 10
73407.29552996089
 20
-3344.501656017488
 30
0.0
 11
73356.35393127914
 21
-3344.501656017488
 31
0.0
  0
LINE
  5
2DAA
330
2
100
AcDbEntity
  8
0
  6
Continuous
370
     5
100
AcDbLine
 10
73407.29552996089
 20
-3324.501656017488
 30
0.0
 11
73378.59375435229
 21
-3324.501656017488
 31
0.0
  0
LINE
  5
2DAB
330
2
100
AcDbEntity
  8
0
  6
Continuous
370
     5
100
AcDbLine
 10
73407.29552996089
 20
-3304.501656017488
 30
0.0
 11
73356.35393127914
 21
-3304.501656017488
 31
0.0
  0
LINE
  5
2DAC
330
2
100
AcDbEntity
  8
0
  6
Continuous
370
     5
100
AcDbLine
 10
74867.29552996089
 20
-2963.141177493336
 30
0.0
 11
74918.23712864265
 21
-2963.141177493336
 31
0.0
  0
LINE
  5
2DAD
330
2
100
AcDbEntity
  8
0
  6
Continuous
370
     5
100
AcDbLine
 10
74867.29552996089
 20
-2937.767079795928
 30
0.0
 11
74895.9973055695
 21
-2937.767079795928
 31
0.0
  0
LINE
  5
2DAE
330
2
100
AcDbEntity
  8
0
  6
Continuous
370
     5
100
AcDbLine
 10
74867.29552996089
 20
-2837.767079795928
 30
0.0
 11
74918.23712864265
 21
-2837.767079795928
 31
0.0
  0
LINE
  5
2DAF
330
2
100
AcDbEntity
  8
0
  6
Continuous
370
     5
100
AcDbLine
 10
74867.29552996089
 20
-2857.767079795928
 30
0.0
 11
74895.9973055695
 21
-2857.767079795928
 31
0.0
  0
LINE
  5
2DB0
330
2
100
AcDbEntity
  8
0
  6
Continuous
370
     5
100
AcDbLine
 10
74867.29552996089
 20
-2877.767079795928
 30
0.0
 11
74918.23712864265
 21
-2877.767079795928
 31
0.0
  0
LINE
  5
2DB1
330
2
100
AcDbEntity
  8
0
  6
Continuous
370
     5
100
AcDbLine
 10
74867.29552996089
 20
-2897.767079795928
 30
0.0
 11
74895.9973055695
 21
-2897.767079795928
 31
0.0
  0
LINE
  5
2DB2
330
2
100
AcDbEntity
  8
0
  6
Continuous
370
     5
100
AcDbLine
 10
74867.29552996089
 20
-2917.767079795928
 30
0.0
 11
74918.23712864265
 21
-2917.767079795928
 31
0.0
  0
LINE
  5
2DB3
330
2
100
AcDbEntity
  8
0
  6
Continuous
370
     5
100
AcDbLine
 10
74867.29552996089
 20
-2812.392982098521
 30
0.0
 11
74895.9973055695
 21
-2812.392982098521
 31
0.0
  0
LINE
  5
2DB4
330
2
100
AcDbEntity
  8
0
  6
Continuous
370
     5
100
AcDbLine
 10
74867.29552996089
 20
-2752.392982098521
 30
0.0
 11
74918.23712864265
 21
-2752.392982098521
 31
0.0
  0
LINE
  5
2DB5
330
2
100
AcDbEntity
  8
0
  6
Continuous
370
     5
100
AcDbLine
 10
74867.29552996089
 20
-2772.392982098521
 30
0.0
 11
74895.9973055695
 21
-2772.392982098521
 31
0.0
  0
LINE
  5
2DB6
330
2
100
AcDbEntity
  8
0
  6
Continuous
370
     5
100
AcDbLine
 10
74867.29552996089
 20
-2792.392982098521
 30
0.0
 11
74918.23712864265
 21
-2792.392982098521
 31
0.0
  0
LINE
  5
2DB7
330
2
100
AcDbEntity
  8
0
  6
Continuous
370
     5
100
AcDbLine
 10
74867.29552996089
 20
-2732.392982098521
 30
0.0
 11
74895.9973055695
 21
-2732.392982098521
 31
0.0
  0
LINE
  5
2DB8
330
2
100
AcDbEntity
  8
0
  6
Continuous
370
     5
100
AcDbLine
 10
74867.29552996089
 20
-2712.392982098521
 30
0.0
 11
74918.23712864265
 21
-2712.392982098521
 31
0.0
  0
LINE
  5
2DB9
330
2
100
AcDbEntity
  8
0
  6
Continuous
370
     5
100
AcDbLine
 10
74867.29552996089
 20
-2687.018884401113
 30
0.0
 11
74895.9973055695
 21
-2687.018884401113
 31
0.0
  0
LINE
  5
2DBA
330
2
100
AcDbEntity
  8
0
  6
Continuous
370
     5
100
AcDbLine
 10
74867.29552996089
 20
-2587.018884401113
 30
0.0
 11
74918.23712864265
 21
-2587.018884401113
 31
0.0
  0
LINE
  5
2DBB
330
2
100
AcDbEntity
  8
0
  6
Continuous
370
     5
100
AcDbLine
 10
74867.29552996089
 20
-2607.018884401113
 30
0.0
 11
74895.9973055695
 21
-2607.018884401113
 31
0.0
  0
LINE
  5
2DBC
330
2
100
AcDbEntity
  8
0
  6
Continuous
370
     5
100
AcDbLine
 10
74867.29552996089
 20
-2627.018884401113
 30
0.0
 11
74918.23712864265
 21
-2627.018884401113
 31
0.0
  0
LINE
  5
2DBD
330
2
100
AcDbEntity
  8
0
  6
Continuous
370
     5
100
AcDbLine
 10
74867.29552996089
 20
-2647.018884401113
 30
0.0
 11
74895.9973055695
 21
-2647.018884401113
 31
0.0
  0
LINE
  5
2DBE
330
2
100
AcDbEntity
  8
0
  6
Continuous
370
     5
100
AcDbLine
 10
74867.29552996089
 20
-2667.018884401113
 30
0.0
 11
74918.23712864265
 21
-2667.018884401113
 31
0.0
  0
LINE
  5
2DBF
330
2
100
AcDbEntity
  8
0
  6
Continuous
370
     5
100
AcDbLine
 10
74867.29552996089
 20
-2561.644786703705
 30
0.0
 11
74895.9973055695
 21
-2561.644786703705
 31
0.0
  0
LINE
  5
2DC0
330
2
100
AcDbEntity
  8
0
  6
Continuous
370
     5
100
AcDbLine
 10
74867.29552996089
 20
-2501.644786703705
 30
0.0
 11
74918.23712864265
 21
-2501.644786703705
 31
0.0
  0
LINE
  5
2DC1
330
2
100
AcDbEntity
  8
0
  6
Continuous
370
     5
100
AcDbLine
 10
74867.29552996089
 20
-2521.644786703705
 30
0.0
 11
74895.9973055695
 21
-2521.644786703705
 31
0.0
  0
LINE
  5
2DC2
330
2
100
AcDbEntity
  8
0
  6
Continuous
370
     5
100
AcDbLine
 10
74867.29552996089
 20
-2541.644786703705
 30
0.0
 11
74918.23712864265
 21
-2541.644786703705
 31
0.0
  0
LINE
  5
2DC3
330
2
100
AcDbEntity
  8
0
  6
Continuous
370
     5
100
AcDbLine
 10
74867.29552996089
 20
-2481.644786703705
 30
0.0
 11
74895.9973055695
 21
-2481.644786703705
 31
0.0
  0
LINE
  5
2DC4
330
2
100
AcDbEntity
  8
0
  6
Continuous
370
     5
100
AcDbLine
 10
74867.29552996089
 20
-2461.644786703705
 30
0.0
 11
74918.23712864265
 21
-2461.644786703705
 31
0.0
  0
LINE
  5
2DC5
330
2
100
AcDbEntity
  8
0
  6
Continuous
370
     5
100
AcDbLine
 10
74867.29552996089
 20
-2436.270689006298
 30
0.0
 11
74895.9973055695
 21
-2436.270689006298
 31
0.0
  0
LINE
  5
2DC6
330
2
100
AcDbEntity
  8
0
  6
Continuous
370
     5
100
AcDbLine
 10
74867.29552996089
 20
-2336.270689006298
 30
0.0
 11
74918.23712864265
 21
-2336.270689006298
 31
0.0
  0
LINE
  5
2DC7
330
2
100
AcDbEntity
  8
0
  6
Continuous
370
     5
100
AcDbLine
 10
74867.29552996089
 20
-2356.270689006297
 30
0.0
 11
74895.9973055695
 21
-2356.270689006297
 31
0.0
  0
LINE
  5
2DC8
330
2
100
AcDbEntity
  8
0
  6
Continuous
370
     5
100
AcDbLine
 10
74867.29552996089
 20
-2376.270689006297
 30
0.0
 11
74918.23712864265
 21
-2376.270689006297
 31
0.0
  0
LINE
  5
2DC9
330
2
100
AcDbEntity
  8
0
  6
Continuous
370
     5
100
AcDbLine
 10
74867.29552996089
 20
-2396.270689006298
 30
0.0
 11
74895.9973055695
 21
-2396.270689006298
 31
0.0
  0
LINE
  5
2DCA
330
2
100
AcDbEntity
  8
0
  6
Continuous
370
     5
100
AcDbLine
 10
74867.29552996089
 20
-2416.270689006298
 30
0.0
 11
74918.23712864265
 21
-2416.270689006298
 31
0.0
  0
LINE
  5
2DCB
330
2
100
AcDbEntity
  8
0
  6
Continuous
370
     5
100
AcDbLine
 10
74867.29552996089
 20
-2310.896591308889
 30
0.0
 11
74895.9973055695
 21
-2310.896591308889
 31
0.0
  0
LINE
  5
2DCC
330
2
100
AcDbEntity
  8
0
  6
Continuous
370
     5
100
AcDbLine
 10
74851.33886068067
 20
-2250.89659130889
 30
0.0
 11
74896.03876742989
 21
-2233.09711526903
 31
0.0
  0
LINE
  5
2DCD
330
2
100
AcDbEntity
  8
0
  6
Continuous
370
     5
100
AcDbLine
 10
74861.22474815577
 20
-2272.912420547417
 30
0.0
 11
74893.63207730885
 21
-2266.799895789956
 31
0.0
  0
LINE
  5
2DCE
330
2
100
AcDbEntity
  8
0
  6
Continuous
370
     5
100
AcDbLine
 10
74865.67857697195
 20
-2290.896591308889
 30
0.0
 11
74918.23712864265
 21
-2286.908371179125
 31
0.0
  0
LINE
  5
2DCF
330
2
100
AcDbEntity
  8
0
  6
Continuous
370
     5
100
AcDbLine
 10
74839.32084656417
 20
-2233.755218357394
 30
0.0
 11
74860.86187762325
 21
-2218.585700457728
 31
0.0
  0
LINE
  5
2DD0
330
2
100
AcDbEntity
  8
0
  6
Continuous
370
     5
100
AcDbLine
 10
74787.63777826972
 20
-2203.948666393552
 30
0.0
 11
74797.44999361781
 21
-2160.663765322205
 31
0.0
  0
LINE
  5
2DD1
330
2
100
AcDbEntity
  8
0
  6
Continuous
370
     5
100
AcDbLine
 10
74766.97585765396
 20
-2200.305376373301
 30
0.0
 11
74770.59831202765
 21
-2177.018667594081
 31
0.0
  0
LINE
  5
2DD2
330
2
100
AcDbEntity
  8
0
  6
Continuous
370
     5
100
AcDbLine
 10
74810.46983492694
 20
-2212.68558026041
 30
0.0
 11
74821.53986738565
 21
-2188.947611691701
 31
0.0
  0
LINE
  5
2DD3
330
2
100
AcDbEntity
  8
0
  6
Continuous
370
     5
100
AcDbLine
 10
74827.14137564564
 20
-2222.916686653915
 30
0.0
 11
74857.15191785979
 21
-2183.590445407972
 31
0.0
  0
LINE
  5
2DD4
330
2
100
AcDbEntity
  8
0
  6
Continuous
370
     5
100
AcDbLine
 10
74753.61417053678
 20
-2199.986534163873
 30
0.0
 11
74753.50863440318
 21
-2150.74475214219
 31
0.0
  0
LINE
  5
2DD5
330
2
100
AcDbEntity
  8
0
  6
Continuous
370
     5
100
AcDbLine
 10
74732.8226483265
 20
-2199.861224976837
 30
0.0
 11
74732.8226483265
 21
-2171.159449368232
 31
0.0
  0
LINE
  5
2DD6
330
2
100
AcDbEntity
  8
0
  6
Continuous
370
     5
100
AcDbLine
 10
74730.89463990815
 20
-3449.861224976839
 30
0.0
 11
74730.89463990815
 21
-3500.802823658594
 31
0.0
  0
LINE
  5
2DD7
330
2
100
AcDbEntity
  8
0
  6
Continuous
370
     5
100
AcDbLine
 10
74756.26873760555
 20
-3449.861224976838
 30
0.0
 11
74756.26873760555
 21
-3478.839854203306
 31
0.0
  0
LINE
  5
2DD8
330
2
100
AcDbEntity
  8
0
  6
Continuous
370
     5
100
AcDbLine
 10
74776.55589408996
 20
-3448.19466522547
 30
0.0
 11
74785.07210089936
 21
-3497.584765796727
 31
0.0
  0
LINE
  5
2DD9
330
2
100
AcDbEntity
  8
0
  6
Continuous
370
     5
100
AcDbLine
 10
74858.31726843643
 20
-3384.637568282967
 30
0.0
 11
74911.52691768244
 21
-3407.008730346374
 31
0.0
  0
LINE
  5
2DDA
330
2
100
AcDbEntity
  8
0
  6
Continuous
370
     5
100
AcDbLine
 10
74867.29552996089
 20
-3359.263470585559
 30
0.0
 11
74895.9973055695
 21
-3359.263470585559
 31
0.0
  0
LINE
  5
2DDB
330
2
100
AcDbEntity
  8
0
  6
Continuous
370
     5
100
AcDbLine
 10
74829.68313465231
 20
-3424.889655209419
 30
0.0
 11
74857.74748137204
 21
-3464.125233770248
 31
0.0
  0
LINE
  5
2DDC
330
2
100
AcDbEntity
  8
0
  6
Continuous
370
     5
100
AcDbLine
 10
74847.75842234959
 20
-3404.637568282967
 30
0.0
 11
74873.68040347313
 21
-3426.954470379328
 31
0.0
  0
LINE
  5
2DDD
330
2
100
AcDbEntity
  8
0
  6
Continuous
370
     5
100
AcDbLine
 10
74799.48510309055
 20
-3441.913189821637
 30
0.0
 11
74807.85962034246
 21
-3466.05678925838
 31
0.0
  0
LINE
  5
2DDE
330
2
100
AcDbEntity
  8
0
  6
Continuous
370
     5
100
AcDbLine
 10
73412.1859267799
 20
-3364.501656017488
 30
0.0
 11
73378.59375435229
 21
-3369.45837461103
 31
0.0
  0
LINE
  5
2DDF
330
2
100
AcDbEntity
  8
0
  6
Continuous
370
     5
100
AcDbLine
 10
73420.12631055719
 20
-3384.501656017488
 30
0.0
 11
73365.92096524873
 21
-3406.018867576662
 31
0.0
  0
LINE
  5
2DE0
330
2
100
AcDbEntity
  8
0
  6
Continuous
370
     5
100
AcDbLine
 10
73461.52761099784
 20
-3430.507911653775
 30
0.0
 11
73443.32303034501
 21
-3465.069604276268
 31
0.0
  0
LINE
  5
2DE1
330
2
100
AcDbEntity
  8
0
  6
Continuous
370
     5
100
AcDbLine
 10
73481.62662149189
 20
-3441.112297836713
 30
0.0
 11
73459.11563736532
 21
-3491.797007613917
 31
0.0
  0
LINE
  5
2DE2
330
2
100
AcDbEntity
  8
0
  6
Continuous
370
     5
100
AcDbLine
 10
73508.43026168242
 20
-3448.492213761964
 30
0.0
 11
73500.55180118508
 21
-3481.866987512154
 31
0.0
  0
LINE
  5
2DE3
330
2
100
AcDbEntity
  8
0
  6
Continuous
370
     5
100
AcDbLine
 10
73554.77842502764
 20
-3449.861224976839
 30
0.0
 11
73554.77842502764
 21
-3478.563000585444
 31
0.0
  0
LINE
  5
2DE4
330
2
100
AcDbEntity
  8
0
  6
Continuous
370
     5
100
AcDbLine
 10
73534.77842502765
 20
-3449.861224976839
 30
0.0
 11
73534.77842502765
 21
-3500.802823658594
 31
0.0
  0
LINE
  5
2DE5
330
2
100
AcDbEntity
  8
0
  6
Continuous
370
     5
100
AcDbLine
 10
73574.77842502764
 20
-3449.861224976839
 30
0.0
 11
73574.77842502764
 21
-3500.802823658594
 31
0.0
  0
LINE
  5
2DE6
330
2
100
AcDbEntity
  8
0
  6
Continuous
370
     5
100
AcDbLine
 10
73442.19209650729
 20
-3414.964658430433
 30
0.0
 11
73410.14050763988
 21
-3456.108763466788
 31
0.0
  0
LINE
  5
2DE7
330
2
100
AcDbEntity
  8
0
  6
Continuous
370
     5
100
AcDbLine
 10
73429.33140336559
 20
-3399.74818465937
 30
0.0
 11
73399.2347297071
 21
-3422.417784276212
 31
0.0
  0
LINE
  5
2DE8
330
2
100
AcDbEntity
  8
0
  6
Continuous
370
     5
100
AcDbLine
 10
73431.67279521737
 20
-2246.793542567978
 30
0.0
 11
73412.00477841674
 21
-2226.597692620433
 31
0.0
  0
LINE
  5
2DE9
330
2
100
AcDbEntity
  8
0
  6
Continuous
370
     5
100
AcDbLine
 10
73420.4981831882
 20
-2264.491956406871
 30
0.0
 11
73366.61213069993
 21
-2229.45393831026
 31
0.0
  0
ENDSEC
  0
SECTION
  2
OBJECTS
  0
DICTIONARY
  5
B
330
0
100
AcDbDictionary
281
     1
  3
ACAD_COLOR
350
53
  3
ACAD_GROUP
350
4E
  3
ACAD_LAYOUT
350
12
  3
ACAD_MATERIAL
350
D
  3
ACAD_MLEADERSTYLE
350
7A8
  3
ACAD_MLINESTYLE
350
4F
  3
ACAD_PLOTSETTINGS
350
50
  3
ACAD_PLOTSTYLENAME
350
A
  3
ACAD_SCALELIST
350
54
  3
ACAD_TABLESTYLE
350
55
  3
ACAD_VISUALSTYLE
350
15
  3
AcAec
350
3318
  3
ACDB_RECOMPOSE_DATA
350
794
  3
AcDbVariableDictionary
350
795
  3
AEC_DISP_REP_CONFIGURATIONS
350
3141
  3
AEC_DISP_REP_SETS
350
3145
  3
AEC_DISP_REPS
350
314F
  3
AEC_DISPLAY_PROPS_DEFAULTS
350
3231
  3
AEC_LAYERKEY_STYLES
350
313C
  3
AEC_PROPERTY_SET_DEFS
350
952
  3
AEC_SCHEDULE_TABLE_STYLES
350
3139
  3
AEC_VARS
350
313A
  3
ASE_INDEX_DICTIONARY
350
231D
  3
BNS_VARIABLES
350
233D
  3
DWGPROPS
350
3346
  0
DICTIONARY
  5
1E
330
1D
100
AcDbDictionary
280
     1
281
     1
  3
ACAD_LAYERSTATES
360
1F
  0
DICTIONARY
  5
7
330
6
100
AcDbDictionary
280
     1
281
     1
  3
ADSK_XREC_LAYER_RECONCILED
360
8
  0
DICTIONARY
  5
75
330
74
100
AcDbDictionary
280
     1
281
     1
  3
ADSK_XREC_LAYER_RECONCILED
360
76
  0
DICTIONARY
  5
57
330
56
100
AcDbDictionary
280
     1
281
     1
  3
ADSK_XREC_LAYER_RECONCILED
360
58
  0
DICTIONARY
  5
7F
330
7E
100
AcDbDictionary
280
     1
281
     1
  3
ADSK_XREC_LAYER_RECONCILED
360
80
  0
DICTIONARY
  5
3
330
2
100
AcDbDictionary
280
     1
281
     1
  3
ACAD_SORTENTS
360
790
  0
DICTIONARY
  5
30
330
2F
100
AcDbDictionary
280
     1
281
     1
  3
ACAD_SORTENTS
360
78F
  0
DICTIONARY
  5
53
102
{ACAD_REACTORS
330
B
102
}
330
B
100
AcDbDictionary
281
     1
  0
DICTIONARY
  5
4E
102
{ACAD_REACTORS
330
B
102
}
330
B
100
AcDbDictionary
281
     1
  0
DICTIONARY
  5
12
102
{ACAD_REACTORS
330
B
102
}
330
B
100
AcDbDictionary
281
     1
  3
Layout1
350
1943
  3
Model
350
11
  0
DICTIONARY
  5
D
102
{ACAD_REACTORS
330
B
102
}
330
B
100
AcDbDictionary
281
     1
  3
ByBlock
350
52
  3
ByLayer
350
51
  3
Global
350
C
  0
DICTIONARY
  5
7A8
102
{ACAD_REACTORS
330
B
102
}
330
B
100
AcDbDictionary
281
     1
  3
Standard
350
7A9
  0
DICTIONARY
  5
4F
102
{ACAD_REACTORS
330
B
102
}
330
B
100
AcDbDictionary
281
     1
  3
STANDARD
350
59
  0
DICTIONARY
  5
50
102
{ACAD_REACTORS
330
B
102
}
330
B
100
AcDbDictionary
281
     1
  0
ACDBDICTIONARYWDFLT
  5
A
102
{ACAD_REACTORS
330
B
102
}
330
B
100
AcDbDictionary
281
     1
  3
Full Saturation
350
3140
  3
Medium
350
1D00
  3
Normal
350
9
100
AcDbDictionaryWithDefault
340
9
  0
DICTIONARY
  5
54
102
{ACAD_REACTORS
330
B
102
}
330
B
100
AcDbDictionary
281
     1
  3
*A1
350
85B
  3
*A10
350
1693
  3
*A11
350
85E
  3
*A12
350
87C
  3
*A13
350
1694
  3
*A14
350
86F
  3
*A15
350
871
  3
*A16
350
1336
  3
*A17
350
1695
  3
*A18
350
882
  3
*A19
350
866
  3
*A2
350
168F
  3
*A20
350
86D
  3
*A21
350
876
  3
*A22
350
85D
  3
*A23
350
87D
  3
*A24
350
85F
  3
*A25
350
863
  3
*A26
350
85C
  3
*A27
350
874
  3
*A28
350
132C
  3
*A29
350
132E
  3
*A3
350
1690
  3
*A30
350
867
  3
*A31
350
1A1C
  3
*A32
350
864
  3
*A33
350
1A1D
  3
*A34
350
1331
  3
*A35
350
1333
  3
*A36
350
1A1E
  3
*A37
350
1A1F
  3
*A38
350
86C
  3
*A39
350
1A20
  3
*A4
350
1335
  3
*A40
350
1337
  3
*A41
350
1A21
  3
*A42
350
1A22
  3
*A43
350
873
  3
*A44
350
86B
  3
*A45
350
865
  3
*A46
350
87A
  3
*A47
350
86E
  3
*A48
350
879
  3
*A49
350
872
  3
*A5
350
1691
  3
*A50
350
880
  3
*A51
350
875
  3
*A52
350
87F
  3
*A53
350
1D01
  3
*A54
350
878
  3
*A55
350
1D02
  3
*A56
350
860
  3
*A57
350
1D03
  3
*A58
350
132F
  3
*A59
350
1D04
  3
*A6
350
868
  3
*A60
350
1D05
  3
*A61
350
87B
  3
*A62
350
1D06
  3
*A63
350
1D07
  3
*A64
350
881
  3
*A65
350
861
  3
*A66
350
132B
  3
*A67
350
862
  3
*A68
350
869
  3
*A69
350
1330
  3
*A7
350
86A
  3
*A70
350
870
  3
*A71
350
1334
  3
*A72
350
877
  3
*A73
350
1338
  3
*A74
350
132D
  3
*A75
350
87E
  3
*A8
350
1332
  3
*A9
350
1692
  3
A0
350
5E
  3
A1
350
5F
  3
A2
350
60
  3
A3
350
61
  3
A4
350
62
  3
A5
350
63
  3
A6
350
64
  3
A7
350
65
  3
A8
350
66
  3
A9
350
67
  3
B0
350
68
  3
B1
350
69
  3
B2
350
6A
  3
B3
350
6B
  3
B4
350
6C
  3
B5
350
6D
  3
B6
350
6E
  3
B7
350
6F
  3
B8
350
70
  3
B9
350
71
  3
C0
350
72
  0
DICTIONARY
  5
55
102
{ACAD_REACTORS
330
B
102
}
330
B
100
AcDbDictionary
281
     1
  3
Standard
350
5A
  0
DICTIONARY
  5
15
102
{ACAD_REACTORS
330
B
102
}
330
B
100
AcDbDictionary
281
     1
  3
2dWireframe
350
14
  3
3D Hidden
350
7A0
  3
3dWireframe
350
5D
  3
Basic
350
79F
  3
Brighten
350
7A3
  3
ColorChange
350
7A7
  3
Conceptual
350
7A1
  3
Dim
350
7A2
  3
Facepattern
350
7A6
  3
Flat
350
79B
  3
FlatWithEdges
350
79C
  3
Gouraud
350
79D
  3
GouraudWithEdges
350
79E
  3
Linepattern
350
7A5
  3
Phong
350
7B1
  3
PhongWithEdges
350
7B2
  3
Realistic
350
5C
  3
Thicken
350
7A4
  0
DICTIONARY
  5
3318
102
{ACAD_REACTORS
330
B
102
}
330
B
100
AcDbDictionary
281
     1
  3
AcAecLayerManager
350
3319
  0
XRECORD
  5
794
102
{ACAD_REACTORS
330
B
102
}
330
B
100
AcDbXrecord
280
     1
 90
        1
330
5A
  0
DICTIONARY
  5
795
102
{ACAD_REACTORS
330
B
102
}
330
B
100
AcDbDictionary
281
     1
  3
CANNOSCALE
350
798
  3
CMLEADERSTYLE
350
797
  3
CTABLESTYLE
350
796
  3
DIMASSOC
350
3344
  3
HIDETEXT
350
3343
  3
INDEXCTL
350
3342
  3
LAYEREVAL
350
2A32
  3
LAYERNOTIFY
350
2A33
  3
LIGHTINGUNITS
350
799
  3
MSLTSCALE
350
3340
  3
SORTENTS
350
3341
  0
DICTIONARY
  5
3141
102
{ACAD_REACTORS
330
B
102
}
330
B
100
AcDbDictionary
281
     1
  3
Medium Detail
350
3142
1001
AECBASE
1070
 10000
1005
3142
  0
DICTIONARY
  5
3145
102
{ACAD_REACTORS
330
B
102
}
330
B
100
AcDbDictionary
281
     1
  3
Elevation
350
3313
  3
Model
350
3146
  3
Model High Detail
350
3317
  3
Model Low Detail
350
3316
  3
Plan
350
3149
  3
Plan Diagnostic
350
314C
  3
Plan High Detail
350
3315
  3
Plan Low Detail
350
3314
  3
Reflected
350
3312
  0
DICTIONARY
  5
314F
102
{ACAD_REACTORS
330
B
102
}
330
B
100
AcDbDictionary
281
     1
  3
AecDbDispRep2dSection
350
3150
  3
AecDbDispRepAnchor
350
3281
  3
AecDbDispRepAnchorBubToGrid
350
3153
  3
AecDbDispRepAnchorBubToGridMdl
350
3156
  3
AecDbDispRepAnchorBubToGridRcp
350
32AA
  3
AecDbDispRepAnchorEntToNode
350
3159
  3
AecDbDispRepAnchorExtendedTagToEnt
350
3284
  3
AecDbDispRepAnchorTagToEnt
350
315C
  3
AecDbDispRepBdgElevLineModel
350
315F
  3
AecDbDispRepBdgElevLinePlan
350
3162
  3
AecDbDispRepBdgElevLinePlan100
350
32B8
  3
AecDbDispRepBdgElevLinePlan50
350
32D1
  3
AecDbDispRepBdgElevLineRcp
350
3286
  3
AecDbDispRepBdgSectionLineModel
350
3165
  3
AecDbDispRepBdgSectionLinePlan
350
3168
  3
AecDbDispRepBdgSectionLinePlan100
350
32BA
  3
AecDbDispRepBdgSectionLinePlan50
350
32D3
  3
AecDbDispRepBdgSectionLineRcp
350
3288
  3
AecDbDispRepBdgSectionModel
350
328A
  3
AecDbDispRepBdgSectionSubDiv
350
316B
  3
AecDbDispRepCeilingGrid
350
316E
  3
AecDbDispRepCeilingGridModel
350
3171
  3
AecDbDispRepCeilingGridPlan100
350
32BC
  3
AecDbDispRepCeilingGridPlan50
350
32D5
  3
AecDbDispRepCeilingGridRcp
350
3174
  3
AecDbDispRepClipVolModel
350
3177
  3
AecDbDispRepClipVolPlan
350
317A
  3
AecDbDispRepClipVolResSubDiv
350
317D
  3
AecDbDispRepClipVolResult
350
3180
  3
AecDbDispRepColumnGrid
350
3183
  3
AecDbDispRepColumnGridModel
350
3186
  3
AecDbDispRepColumnGridPlan100
350
32BE
  3
AecDbDispRepColumnGridPlan50
350
32D7
  3
AecDbDispRepColumnGridRcp
350
32AC
  3
AecDbDispRepCurtainWallLayoutModel
350
3189
  3
AecDbDispRepCurtainWallLayoutPlan
350
318C
  3
AecDbDispRepCurtainWallLayoutPlan100
350
32C0
  3
AecDbDispRepCurtainWallLayoutPlan50
350
32D9
  3
AecDbDispRepCurtainWallUnitModel
350
318F
  3
AecDbDispRepCurtainWallUnitPlan
350
3192
  3
AecDbDispRepCurtainWallUnitPlan100
350
32C2
  3
AecDbDispRepCurtainWallUnitPlan50
350
32DB
  3
AecDbDispRepDimGroupPlan
350
3195
  3
AecDbDispRepDimGroupPlan100
350
32EC
  3
AecDbDispRepDimGroupPlan50
350
32EE
  3
AecDbDispRepDisplayTheme
350
3198
  3
AecDbDispRepDoorElev
350
328B
  3
AecDbDispRepDoorModel
350
319B
  3
AecDbDispRepDoorNominal
350
319E
  3
AecDbDispRepDoorPlan
350
31A1
  3
AecDbDispRepDoorPlan50
350
32F0
  3
AecDbDispRepDoorPlanHekto
350
32F2
  3
AecDbDispRepDoorRcp
350
328D
  3
AecDbDispRepDoorThresholdPlan
350
328F
  3
AecDbDispRepDoorThresholdSymbolPlan
350
32F4
  3
AecDbDispRepEditInPlaceProfile
350
31A4
  3
AecDbDispRepEntRef
350
31A7
  3
AecDbDispRepLayoutCurve
350
31AA
  3
AecDbDispRepLayoutGrid2d
350
31AD
  3
AecDbDispRepLayoutGrid3d
350
31B0
  3
AecDbDispRepMaskBlockRef
350
31B3
  3
AecDbDispRepMaskBlockRefRcp
350
31B6
  3
AecDbDispRepMassElemModel
350
31B9
  3
AecDbDispRepMassElemPlan100
350
32F6
  3
AecDbDispRepMassElemPlan50
350
32F8
  3
AecDbDispRepMassElemRcp
350
3291
  3
AecDbDispRepMassElemSchem
350
31BC
  3
AecDbDispRepMassGroupModel
350
31BF
  3
AecDbDispRepMassGroupPlan
350
31C2
  3
AecDbDispRepMassGroupPlan100
350
32FA
  3
AecDbDispRepMassGroupPlan50
350
32FC
  3
AecDbDispRepMassGroupRcp
350
3293
  3
AecDbDispRepMaterial
350
31C5
  3
AecDbDispRepMvBlockRef
350
31C8
  3
AecDbDispRepMvBlockRef$Plan
350
31CB
  3
AecDbDispRepMvBlockRefModel
350
31CE
  3
AecDbDispRepMvBlockRefPlan100
350
32C4
  3
AecDbDispRepMvBlockRefPlan50
350
32DD
  3
AecDbDispRepMvBlockRefRcp
350
3295
  3
AecDbDispRepOpening
350
31D1
  3
AecDbDispRepOpeningModel
350
31D4
  3
AecDbDispRepOpeningPlan100
350
32FE
  3
AecDbDispRepOpeningPlan50
350
3300
  3
AecDbDispRepOpeningPlanReflected
350
3302
  3
AecDbDispRepOpeningSillPlan
350
3304
  3
AecDbDispRepPolygonModel
350
31D7
  3
AecDbDispRepPolygonTrueColour
350
3282
  3
AecDbDispRepRailingModel
350
31DA
  3
AecDbDispRepRailingPlan
350
31DD
  3
AecDbDispRepRailingPlan100
350
3306
  3
AecDbDispRepRailingPlan50
350
3308
  3
AecDbDispRepRoofModel
350
31E0
  3
AecDbDispRepRoofPlan
350
31E3
  3
AecDbDispRepRoofPlan100
350
32C5
  3
AecDbDispRepRoofPlan50
350
32DE
  3
AecDbDispRepRoofRcp
350
3296
  3
AecDbDispRepRoofSlabModel
350
31E6
  3
AecDbDispRepRoofSlabPlan
350
31E9
  3
AecDbDispRepRoofSlabPlan100
350
32C7
  3
AecDbDispRepRoofSlabPlan50
350
32E0
  3
AecDbDispRepScheduleTable
350
31EC
  3
AecDbDispRepSlabModel
350
31EF
  3
AecDbDispRepSlabPlan
350
31F2
  3
AecDbDispRepSlabPlan100
350
32C9
  3
AecDbDispRepSlabPlan50
350
32E2
  3
AecDbDispRepSlice
350
31F5
  3
AecDbDispRepSpaceDecomposed
350
31F8
  3
AecDbDispRepSpaceModel
350
31FB
  3
AecDbDispRepSpacePlan
350
31FE
  3
AecDbDispRepSpacePlan100
350
32CB
  3
AecDbDispRepSpacePlan50
350
32E4
  3
AecDbDispRepSpaceRcp
350
3298
  3
AecDbDispRepSpaceVolume
350
329A
  3
AecDbDispRepStairModel
350
3201
  3
AecDbDispRepStairPlan
350
3204
  3
AecDbDispRepStairPlan100
350
330A
  3
AecDbDispRepStairPlan50
350
330C
  3
AecDbDispRepStairPlanOverlapping
350
329C
  3
AecDbDispRepStairRcp
350
329E
  3
AecDbDispRepWallGraph
350
3207
  3
AecDbDispRepWallModel
350
320A
  3
AecDbDispRepWallPlan
350
320D
  3
AecDbDispRepWallPlan100
350
32CD
  3
AecDbDispRepWallPlan50
350
32E6
  3
AecDbDispRepWallRcp
350
32A0
  3
AecDbDispRepWallSchem
350
3210
  3
AecDbDispRepWindowAssemblyModel
350
3213
  3
AecDbDispRepWindowAssemblyPlan
350
3216
  3
AecDbDispRepWindowAssemblyPlan100
350
3219
  3
AecDbDispRepWindowAssemblyPlan50
350
32E8
  3
AecDbDispRepWindowAssemblySillPlan
350
32A2
  3
AecDbDispRepWindowElev
350
32A4
  3
AecDbDispRepWindowModel
350
321C
  3
AecDbDispRepWindowNominal
350
321F
  3
AecDbDispRepWindowPlan
350
3222
  3
AecDbDispRepWindowPlan100
350
330E
  3
AecDbDispRepWindowPlan50
350
3310
  3
AecDbDispRepWindowRcp
350
32A6
  3
AecDbDispRepWindowSillPlan
350
32A8
  3
AecDbDispRepZone
350
3225
  3
AecDbDispRepZonePlan100
350
32CF
  3
AecDbDispRepZonePlan50
350
32EA
  3
AecsDbDispRepMemberElevationDesign
350
32AE
  3
AecsDbDispRepMemberElevationDetail
350
32B0
  3
AecsDbDispRepMemberLogical
350
3228
  3
AecsDbDispRepMemberModelDesign
350
322B
  3
AecsDbDispRepMemberModelDetail
350
32B2
  3
AecsDbDispRepMemberPlanDesign
350
322E
  3
AecsDbDispRepMemberPlanDetail
350
32B4
  3
AecsDbDispRepMemberPlanSketch
350
32B6
  0
DICTIONARY
  5
3231
102
{ACAD_REACTORS
330
B
102
}
330
B
100
AcDbDictionary
281
     1
  3
*A1
350
3232
  3
*A100
350
3233
  3
*A102
350
3234
  3
*A110
350
3235
  3
*A116
350
3236
  3
*A118
350
3237
  3
*A12
350
3238
  3
*A121
350
3239
  3
*A130
350
323A
  3
*A132
350
323B
  3
*A135
350
323C
  3
*A136
350
323D
  3
*A141
350
323E
  3
*A143
350
323F
  3
*A146
350
3240
  3
*A148
350
3241
  3
*A150
350
3242
  3
*A153
350
3243
  3
*A16
350
3244
  3
*A162
350
3245
  3
*A17
350
3246
  3
*A186
350
3247
  3
*A189
350
3248
  3
*A191
350
3249
  3
*A195
350
324A
  3
*A196
350
324B
  3
*A198
350
324C
  3
*A199
350
324D
  3
*A2
350
324E
  3
*A200
350
324F
  3
*A204
350
3250
  3
*A205
350
3251
  3
*A21
350
3252
  3
*A211
350
3253
  3
*A213
350
3254
  3
*A218
350
3255
  3
*A219
350
3256
  3
*A222
350
3257
  3
*A224
350
3258
  3
*A229
350
3259
  3
*A23
350
325A
  3
*A230
350
325B
  3
*A231
350
325C
  3
*A232
350
325D
  3
*A237
350
325E
  3
*A245
350
325F
  3
*A25
350
3260
  3
*A250
350
3261
  3
*A257
350
3262
  3
*A259
350
3263
  3
*A260
350
3264
  3
*A265
350
3265
  3
*A267
350
3283
  3
*A268
350
3285
  3
*A269
350
3287
  3
*A270
350
3289
  3
*A271
350
328C
  3
*A272
350
328E
  3
*A273
350
3290
  3
*A274
350
3292
  3
*A275
350
3294
  3
*A276
350
3297
  3
*A277
350
3299
  3
*A278
350
329B
  3
*A279
350
329D
  3
*A280
350
329F
  3
*A281
350
32A1
  3
*A282
350
32A3
  3
*A283
350
32A5
  3
*A284
350
32A7
  3
*A285
350
32A9
  3
*A286
350
32AB
  3
*A287
350
32AD
  3
*A288
350
32AF
  3
*A289
350
32B1
  3
*A290
350
32B3
  3
*A291
350
32B5
  3
*A292
350
32B7
  3
*A293
350
32B9
  3
*A294
350
32BB
  3
*A295
350
32BD
  3
*A296
350
32BF
  3
*A297
350
32C1
  3
*A298
350
32C3
  3
*A299
350
32C6
  3
*A30
350
3266
  3
*A300
350
32C8
  3
*A301
350
32CA
  3
*A302
350
32CC
  3
*A303
350
32CE
  3
*A304
350
32D0
  3
*A305
350
32D2
  3
*A306
350
32D4
  3
*A307
350
32D6
  3
*A308
350
32D8
  3
*A309
350
32DA
  3
*A310
350
32DC
  3
*A311
350
32DF
  3
*A312
350
32E1
  3
*A313
350
32E3
  3
*A314
350
32E5
  3
*A315
350
32E7
  3
*A316
350
32E9
  3
*A317
350
32EB
  3
*A318
350
32ED
  3
*A319
350
32EF
  3
*A320
350
32F1
  3
*A321
350
32F3
  3
*A322
350
32F5
  3
*A323
350
32F7
  3
*A324
350
32F9
  3
*A325
350
32FB
  3
*A326
350
32FD
  3
*A327
350
32FF
  3
*A328
350
3301
  3
*A329
350
3303
  3
*A330
350
3305
  3
*A331
350
3307
  3
*A332
350
3309
  3
*A333
350
330B
  3
*A334
350
330D
  3
*A335
350
330F
  3
*A336
350
3311
  3
*A34
350
3267
  3
*A35
350
3268
  3
*A41
350
3269
  3
*A44
350
326A
  3
*A45
350
326B
  3
*A48
350
326C
  3
*A51
350
326D
  3
*A59
350
326E
  3
*A6
350
326F
  3
*A65
350
3270
  3
*A70
350
3271
  3
*A73
350
3272
  3
*A76
350
3273
  3
*A85
350
3274
  3
*A9
350
3275
  3
*A90
350
3276
  3
*A93
350
3277
  3
*A95
350
3278
  0
DICTIONARY
  5
313C
102
{ACAD_REACTORS
330
B
102
}
330
B
100
AcDbDictionary
281
     1
  3
AIA (256 Color)
350
3279
  0
DICTIONARY
  5
952
102
{ACAD_REACTORS
330
B
102
}
330
B
100
AcDbDictionary
281
     1
  0
DICTIONARY
  5
3139
102
{ACAD_REACTORS
330
B
102
}
330
B
100
AcDbDictionary
281
     1
  0
DICTIONARY
  5
313A
102
{ACAD_REACTORS
330
B
102
}
330
B
100
AcDbDictionary
281
     1
  3
AEC_VARS_ARCHBASE
350
327C
  3
AEC_VARS_DWG_SETUP
350
313B
  3
AECMX_VARS_MUNICH
350
327D
  0
DICTIONARY
  5
231D
102
{ACAD_REACTORS
330
B
102
}
330
B
100
AcDbDictionary
281
     1
  3
ASEBlockHierarchyIndexRecord
350
231F
1001
DCO15
1040
1674372802.296
  0
DICTIONARY
  5
233D
102
{ACAD_REACTORS
330
B
102
}
330
B
100
AcDbDictionary
281
     1
  3
ACET-OVERKILL-FUZZ
350
3134
  3
ACET-OVERKILL-NO-ENDTOEND
350
3137
  3
ACET-OVERKILL-NO-PARTIAL
350
3136
  3
ACET-OVERKILL-NO-PLINES
350
3135
  0
XRECORD
  5
3346
102
{ACAD_REACTORS
330
B
102
}
330
B
100
AcDbXrecord
280
     1
  1
DWGPROPS COOKIE
  2

  3

  4

  6

  7

  8
anna.bogusz
  9

300
=
301
=
302
=
303
=
304
=
305
=
306
=
307
=
308
=
309
=
 40
21.76140469907407
 41
2450817.48427118
 42
2455182.526693241
  1

 90
        0
  0
DICTIONARY
  5
1F
102
{ACAD_REACTORS
330
1E
102
}
330
1E
100
AcDbDictionary
281
     1
  0
XRECORD
  5
8
102
{ACAD_REACTORS
330
7
102
}
330
7
100
AcDbXrecord
280
     1
290
     1
  0
XRECORD
  5
76
102
{ACAD_REACTORS
330
75
102
}
330
75
100
AcDbXrecord
280
     1
290
     1
  0
XRECORD
  5
58
102
{ACAD_REACTORS
330
57
102
}
330
57
100
AcDbXrecord
280
     1
290
     1
  0
XRECORD
  5
80
102
{ACAD_REACTORS
330
7F
102
}
330
7F
100
AcDbXrecord
280
     1
290
     1
  0
SORTENTSTABLE
  5
790
102
{ACAD_REACTORS
330
3
102
}
330
3
100
AcDbSortentsTable
330
2
331
25BD
  5
25C1
331
2547
  5
254B
331
2586
  5
258A
331
25C5
  5
25C9
331
254F
  5
2553
331
258E
  5
2592
331
20E8
  5
20E8
331
25CD
  5
25F7
331
255F
  5
2563
331
259E
  5
25A2
331
278C
  5
2545
331
2567
  5
256D
331
25A6
  5
25AA
331
256F
  5
2573
331
25AE
  5
25B2
331
25B6
  5
25BA
331
2577
  5
257B
331
257F
  5
2583
331
25BE
  5
25C2
331
2548
  5
254C
331
2587
  5
258B
331
260D
  5
2669
331
25C6
  5
25CA
331
2550
  5
2554
331
258F
  5
2593
331
25CE
  5
2602
331
259F
  5
25A3
331
2560
  5
2564
331
2568
  5
256E
331
25A7
  5
25AB
331
25AF
  5
25B3
331
2570
  5
2574
331
25B7
  5
25BB
331
2578
  5
257C
331
2580
  5
2584
331
25BF
  5
25C3
331
2549
  5
254D
331
2588
  5
258C
331
25C7
  5
25CB
331
2551
  5
2555
331
2590
  5
2594
331
25CF
  5
260D
331
2598
  5
259C
331
2561
  5
2565
331
25A0
  5
25A4
331
25A8
  5
25AC
331
25B0
  5
25B4
331
2571
  5
2575
331
25F7
  5
2623
331
2579
  5
257D
331
25B8
  5
25BC
331
2581
  5
2585
331
25C0
  5
25C4
331
254A
  5
254E
331
2589
  5
258D
331
25C8
  5
25CC
331
2552
  5
255A
331
255A
  5
255E
331
2599
  5
259D
331
2562
  5
2566
331
25A1
  5
25A5
331
25A9
  5
25AD
331
25B1
  5
25B5
331
2572
  5
2576
331
257A
  5
257E
331
25B9
  5
25BD
331
2543
  5
2547
331
2582
  5
2586
331
25C1
  5
25C5
331
254B
  5
254F
331
258A
  5
258E
331
25C9
  5
25CD
331
2553
  5
255B
331
20E4
  5
20E4
331
2618
  5
266A
331
255B
  5
255F
331
259A
  5
259E
331
2563
  5
2567
331
25A2
  5
25A6
331
256B
  5
256F
331
25AA
  5
25AE
331
25B2
  5
25B6
331
2573
  5
2577
331
257B
  5
257F
331
25BA
  5
25BE
331
2544
  5
2548
331
2583
  5
2587
331
25C2
  5
25C6
331
254C
  5
2550
331
258B
  5
258F
331
25CA
  5
25CE
331
2554
  5
255C
331
20E5
  5
20E5
331
2593
  5
2598
331
255C
  5
2560
331
259B
  5
259F
331
25DA
  5
2618
331
2564
  5
2568
331
25A3
  5
25A7
331
2789
  5
2339
331
256C
  5
2570
331
25AB
  5
25AF
331
25B3
  5
25B7
331
2574
  5
2578
331
257C
  5
2580
331
2602
  5
2668
331
25BB
  5
25BF
331
2545
  5
2549
331
2584
  5
2588
331
25C3
  5
25C7
331
254D
  5
2551
331
258C
  5
2590
331
25CB
  5
25CF
331
2555
  5
255D
331
2594
  5
2599
331
259C
  5
25A0
331
278A
  5
2543
331
2565
  5
256B
331
25A4
  5
25A8
331
256D
  5
2571
331
25AC
  5
25B0
331
2575
  5
2579
331
257D
  5
2581
331
25BC
  5
25C0
331
2546
  5
254A
331
2585
  5
2589
331
25C4
  5
25C8
331
254E
  5
2552
331
258D
  5
2591
331
20E7
  5
20E7
331
25CC
  5
25DA
331
255E
  5
2562
331
259D
  5
25A1
331
2623
  5
266B
331
278B
  5
2544
331
230F
  5
2546
331
2566
  5
256C
331
25A5
  5
25A9
331
256E
  5
2572
331
25AD
  5
25B1
331
2576
  5
257A
331
257E
  5
2582
  0
SORTENTSTABLE
  5
78F
102
{ACAD_REACTORS
330
30
102
}
330
30
100
AcDbSortentsTable
330
2F
  0
LAYOUT
  5
1943
102
{ACAD_XDICTIONARY
360
3350
102
}
102
{ACAD_REACTORS
330
12
102
}
330
12
100
AcDbPlotSettings
  1

  2
CutePDF Writer
  4

  6

 40
0.0
 41
0.0
 42
0.0
 43
0.0
 44
0.0
 45
0.0
 46
0.0
 47
0.0
 48
0.0
 49
0.0
140
0.0
141
0.0
142
1.0
143
1.0
 70
   688
 72
     0
 73
     0
 74
     5
  7

 75
    16
147
1.0
148
0.0
149
0.0
100
AcDbLayout
  1
Layout1
 70
     1
 71
     1
 10
0.0
 20
0.0
 11
12.0
 21
9.0
 12
0.0
 22
0.0
 32
0.0
 14
0.0
 24
0.0
 34
0.0
 15
0.0
 25
0.0
 35
0.0
146
0.0
 13
0.0
 23
0.0
 33
0.0
 16
1.0
 26
0.0
 36
0.0
 17
0.0
 27
1.0
 37
0.0
 76
     0
330
1942
  0
LAYOUT
  5
11
102
{ACAD_XDICTIONARY
360
3349
102
}
102
{ACAD_REACTORS
330
12
102
}
330
12
100
AcDbPlotSettings
  1

  2
PDFCreator
  4
A4
  6
10-ele
 40
3.174999952316284
 41
3.174999952316284
 42
3.175003051757812
 43
3.17498779296875
 44
209.8886566162109
 45
297.0530090332031
 46
-0.230673193931878
 47
5.151510643959028
 48
67093.47064899921
 49
-12697.88942227891
140
77293.47064899924
141
1322.110577721089
142
1.0
143
50.0
 70
 11940
 72
     1
 73
     0
 74
     4
  7
monochrome_140.ctb
 75
     0
147
0.0192346895442289
148
-67093.47064899921
149
12697.88942227891
100
AcDbLayout
  1
Model
 70
     1
 71
     0
 10
0.0
 20
0.0
 11
12.0
 21
9.0
 12
0.0
 22
0.0
 32
0.0
 14
0.0
 24
0.0
 34
0.0
 15
0.0
 25
0.0
 35
0.0
146
0.0
 13
0.0
 23
0.0
 33
0.0
 16
1.0
 26
0.0
 36
0.0
 17
0.0
 27
1.0
 37
0.0
 76
     0
330
2
331
29
1001
ACAD_PSEXT
1000
PDFCreator
1000
PDFCreator
1000
PDFCreator:
1000
eDoc Printer
1070
     0
  0
MATERIAL
  5
52
102
{ACAD_XDICTIONARY
360
334D
102
}
102
{ACAD_REACTORS
330
D
102
}
330
D
100
AcDbMaterial
  1
ByBlock
 73
     1
 78
     1
172
     1
176
     1
270
     1
274
     1
  0
MATERIAL
  5
51
102
{ACAD_XDICTIONARY
360
334B
102
}
102
{ACAD_REACTORS
330
D
102
}
330
D
100
AcDbMaterial
  1
ByLayer
 73
     1
 78
     1
172
     1
176
     1
270
     1
274
     1
  0
MATERIAL
  5
C
102
{ACAD_XDICTIONARY
360
3347
102
}
102
{ACAD_REACTORS
330
D
102
}
330
D
100
AcDbMaterial
  1
Global
 73
     1
 78
     1
172
     1
176
     1
270
     1
274
     1
  0
MLEADERSTYLE
  5
7A9
102
{ACAD_REACTORS
330
7A8
102
}
330
7A8
100
AcDbMLeaderStyle
170
     2
171
     1
172
     0
 90
        2
 40
0.0
 41
0.0
173
     1
 91
-1056964608
340
24
 92
       -2
290
     1
 42
0.09
291
     1
 43
0.36
  3
Standard
 44
0.18
300

342
21
174
     1
178
     6
175
     1
176
     0
 93
-1056964608
 45
0.18
292
     0
297
     0
 46
0.18
 94
-1056964608
 47
1.0
 49
1.0
140
1.0
293
     1
141
0.0
294
     1
177
     0
142
1.0
295
     0
296
     0
143
0.125
1001
ACAD_MLEADERVER
1070
     2
  0
MLINESTYLE
  5
59
102
{ACAD_REACTORS
330
4F
102
}
330
4F
100
AcDbMlineStyle
  2
STANDARD
 70
     0
  3

 62
     0
 51
90.0
 52
90.0
 71
     2
 49
0.5
 62
   256
  6
BYLAYER
 49
-0.5
 62
   256
  6
BYLAYER
  0
ACDBPLACEHOLDER
  5
3140
102
{ACAD_REACTORS
330
A
102
}
330
A
  0
ACDBPLACEHOLDER
  5
1D00
102
{ACAD_REACTORS
330
A
102
}
330
A
  0
ACDBPLACEHOLDER
  5
9
102
{ACAD_REACTORS
330
A
102
}
330
A
  0
SCALE
  5
85B
102
{ACAD_REACTORS
330
54
102
}
330
54
100
AcDbScale
 70
     0
300
1:1_2
140
1.0
141
1.0
290
     0
  0
SCALE
  5
1693
102
{ACAD_REACTORS
330
54
102
}
330
54
100
AcDbScale
 70
     0
300
1:20_3_1
140
1.0
141
20.0
290
     0
  0
SCALE
  5
85E
102
{ACAD_REACTORS
330
54
102
}
330
54
100
AcDbScale
 70
     0
300
1:10_2
140
1.0
141
10.0
290
     0
  0
SCALE
  5
87C
102
{ACAD_REACTORS
330
54
102
}
330
54
100
AcDbScale
 70
     0
300
1/2" = 1'-0"
140
0.5
141
12.0
290
     0
  0
SCALE
  5
1694
102
{ACAD_REACTORS
330
54
102
}
330
54
100
AcDbScale
 70
     0
300
1:50_3_1
140
1.0
141
50.0
290
     0
  0
SCALE
  5
86F
102
{ACAD_REACTORS
330
54
102
}
330
54
100
AcDbScale
 70
     0
300
4:1
140
4.0
141
1.0
290
     0
  0
SCALE
  5
871
102
{ACAD_REACTORS
330
54
102
}
330
54
100
AcDbScale
 70
     0
300
10:1
140
10.0
141
1.0
290
     0
  0
SCALE
  5
1336
102
{ACAD_REACTORS
330
54
102
}
330
54
100
AcDbScale
 70
     0
300
1:20_4
140
1.0
141
20.0
290
     0
  0
SCALE
  5
1695
102
{ACAD_REACTORS
330
54
102
}
330
54
100
AcDbScale
 70
     0
300
1:100_3_1
140
1.0
141
100.0
290
     0
  0
SCALE
  5
882
102
{ACAD_REACTORS
330
54
102
}
330
54
100
AcDbScale
 70
     0
300
1'-0" = 1'-0"
140
12.0
141
12.0
290
     0
  0
SCALE
  5
866
102
{ACAD_REACTORS
330
54
102
}
330
54
100
AcDbScale
 70
     0
300
1:8
140
1.0
141
8.0
290
     0
  0
SCALE
  5
168F
102
{ACAD_REACTORS
330
54
102
}
330
54
100
AcDbScale
 70
     0
300
1:1_3_1
140
1.0
141
1.0
290
     0
  0
SCALE
  5
86D
102
{ACAD_REACTORS
330
54
102
}
330
54
100
AcDbScale
 70
     0
300
1:100_1
140
1.0
141
100.0
290
     0
  0
SCALE
  5
876
102
{ACAD_REACTORS
330
54
102
}
330
54
100
AcDbScale
 70
     0
300
1/16" = 1'-0"
140
0.0625
141
12.0
290
     0
  0
SCALE
  5
85D
102
{ACAD_REACTORS
330
54
102
}
330
54
100
AcDbScale
 70
     0
300
1:5_2
140
1.0
141
5.0
290
     0
  0
SCALE
  5
87D
102
{ACAD_REACTORS
330
54
102
}
330
54
100
AcDbScale
 70
     0
300
3/4" = 1'-0"
140
0.75
141
12.0
290
     0
  0
SCALE
  5
85F
102
{ACAD_REACTORS
330
54
102
}
330
54
100
AcDbScale
 70
     0
300
1:20_2
140
1.0
141
20.0
290
     0
  0
SCALE
  5
863
102
{ACAD_REACTORS
330
54
102
}
330
54
100
AcDbScale
 70
     0
300
1:2_1
140
1.0
141
2.0
290
     0
  0
SCALE
  5
85C
102
{ACAD_REACTORS
330
54
102
}
330
54
100
AcDbScale
 70
     0
300
1:2_2
140
1.0
141
2.0
290
     0
  0
SCALE
  5
874
102
{ACAD_REACTORS
330
54
102
}
330
54
100
AcDbScale
 70
     0
300
1/64" = 1'-0"
140
0.015625
141
12.0
290
     0
  0
SCALE
  5
132C
102
{ACAD_REACTORS
330
54
102
}
330
54
100
AcDbScale
 70
     0
300
1:10_3
140
1.0
141
1.0
290
     0
  0
SCALE
  5
132E
102
{ACAD_REACTORS
330
54
102
}
330
54
100
AcDbScale
 70
     0
300
1:50_3
140
1.0
141
5.0
290
     0
  0
SCALE
  5
1690
102
{ACAD_REACTORS
330
54
102
}
330
54
100
AcDbScale
 70
     0
300
1:2_3_1
140
1.0
141
2.0
290
     0
  0
SCALE
  5
867
102
{ACAD_REACTORS
330
54
102
}
330
54
100
AcDbScale
 70
     0
300
1:10_1
140
1.0
141
10.0
290
     0
  0
SCALE
  5
1A1C
102
{ACAD_REACTORS
330
54
102
}
330
54
100
AcDbScale
 70
     0
300
1:1_5
140
1.0
141
1.0
290
     0
  0
SCALE
  5
864
102
{ACAD_REACTORS
330
54
102
}
330
54
100
AcDbScale
 70
     0
300
1:4
140
1.0
141
4.0
290
     0
  0
SCALE
  5
1A1D
102
{ACAD_REACTORS
330
54
102
}
330
54
100
AcDbScale
 70
     0
300
1:2_5
140
1.0
141
2.0
290
     0
  0
SCALE
  5
1331
102
{ACAD_REACTORS
330
54
102
}
330
54
100
AcDbScale
 70
     0
300
1:2_3
140
1.0
141
0.2
290
     0
  0
SCALE
  5
1333
102
{ACAD_REACTORS
330
54
102
}
330
54
100
AcDbScale
 70
     0
300
1:2_4
140
1.0
141
2.0
290
     0
  0
SCALE
  5
1A1E
102
{ACAD_REACTORS
330
54
102
}
330
54
100
AcDbScale
 70
     0
300
1:5_5
140
1.0
141
5.0
290
     0
  0
SCALE
  5
1A1F
102
{ACAD_REACTORS
330
54
102
}
330
54
100
AcDbScale
 70
     0
300
1:10_5
140
1.0
141
10.0
290
     0
  0
SCALE
  5
86C
102
{ACAD_REACTORS
330
54
102
}
330
54
100
AcDbScale
 70
     0
300
1:50_1
140
1.0
141
50.0
290
     0
  0
SCALE
  5
1A20
102
{ACAD_REACTORS
330
54
102
}
330
54
100
AcDbScale
 70
     0
300
1:20_5
140
1.0
141
20.0
290
     0
  0
SCALE
  5
1335
102
{ACAD_REACTORS
330
54
102
}
330
54
100
AcDbScale
 70
     0
300
1:10_4
140
1.0
141
10.0
290
     0
  0
SCALE
  5
1337
102
{ACAD_REACTORS
330
54
102
}
330
54
100
AcDbScale
 70
     0
300
1:50_4
140
1.0
141
50.0
290
     0
  0
SCALE
  5
1A21
102
{ACAD_REACTORS
330
54
102
}
330
54
100
AcDbScale
 70
     0
300
1:50_5
140
1.0
141
50.0
290
     0
  0
SCALE
  5
1A22
102
{ACAD_REACTORS
330
54
102
}
330
54
100
AcDbScale
 70
     0
300
1:100_5
140
1.0
141
100.0
290
     0
  0
SCALE
  5
873
102
{ACAD_REACTORS
330
54
102
}
330
54
100
AcDbScale
 70
     0
300
1/128" = 1'-0"
140
0.0078125
141
12.0
290
     0
  0
SCALE
  5
86B
102
{ACAD_REACTORS
330
54
102
}
330
54
100
AcDbScale
 70
     0
300
1:40
140
1.0
141
40.0
290
     0
  0
SCALE
  5
865
102
{ACAD_REACTORS
330
54
102
}
330
54
100
AcDbScale
 70
     0
300
1:5_1
140
1.0
141
5.0
290
     0
  0
SCALE
  5
87A
102
{ACAD_REACTORS
330
54
102
}
330
54
100
AcDbScale
 70
     0
300
1/4" = 1'-0"
140
0.25
141
12.0
290
     0
  0
SCALE
  5
86E
102
{ACAD_REACTORS
330
54
102
}
330
54
100
AcDbScale
 70
     0
300
2:1
140
2.0
141
1.0
290
     0
  0
SCALE
  5
879
102
{ACAD_REACTORS
330
54
102
}
330
54
100
AcDbScale
 70
     0
300
3/16" = 1'-0"
140
0.1875
141
12.0
290
     0
  0
SCALE
  5
872
102
{ACAD_REACTORS
330
54
102
}
330
54
100
AcDbScale
 70
     0
300
100:1
140
100.0
141
1.0
290
     0
  0
SCALE
  5
1691
102
{ACAD_REACTORS
330
54
102
}
330
54
100
AcDbScale
 70
     0
300
1:5_3_1
140
1.0
141
5.0
290
     0
  0
SCALE
  5
880
102
{ACAD_REACTORS
330
54
102
}
330
54
100
AcDbScale
 70
     0
300
3" = 1'-0"
140
3.0
141
12.0
290
     0
  0
SCALE
  5
875
102
{ACAD_REACTORS
330
54
102
}
330
54
100
AcDbScale
 70
     0
300
1/32" = 1'-0"
140
0.03125
141
12.0
290
     0
  0
SCALE
  5
87F
102
{ACAD_REACTORS
330
54
102
}
330
54
100
AcDbScale
 70
     0
300
1-1/2" = 1'-0"
140
1.5
141
12.0
290
     0
  0
SCALE
  5
1D01
102
{ACAD_REACTORS
330
54
102
}
330
54
100
AcDbScale
 70
     0
300
1:1_6
140
1.0
141
1.0
290
     0
  0
SCALE
  5
878
102
{ACAD_REACTORS
330
54
102
}
330
54
100
AcDbScale
 70
     0
300
1/8" = 1'-0"
140
0.125
141
12.0
290
     0
  0
SCALE
  5
1D02
102
{ACAD_REACTORS
330
54
102
}
330
54
100
AcDbScale
 70
     0
300
1:2_6
140
1.0
141
2.0
290
     0
  0
SCALE
  5
860
102
{ACAD_REACTORS
330
54
102
}
330
54
100
AcDbScale
 70
     0
300
1:50_2
140
1.0
141
50.0
290
     0
  0
SCALE
  5
1D03
102
{ACAD_REACTORS
330
54
102
}
330
54
100
AcDbScale
 70
     0
300
1:5_6
140
1.0
141
5.0
290
     0
  0
SCALE
  5
132F
102
{ACAD_REACTORS
330
54
102
}
330
54
100
AcDbScale
 70
     0
300
1:100_3
140
1.0
141
10.0
290
     0
  0
SCALE
  5
1D04
102
{ACAD_REACTORS
330
54
102
}
330
54
100
AcDbScale
 70
     0
300
1:10_6
140
1.0
141
10.0
290
     0
  0
SCALE
  5
868
102
{ACAD_REACTORS
330
54
102
}
330
54
100
AcDbScale
 70
     0
300
1:16
140
1.0
141
16.0
290
     0
  0
SCALE
  5
1D05
102
{ACAD_REACTORS
330
54
102
}
330
54
100
AcDbScale
 70
     0
300
1:20_6
140
1.0
141
20.0
290
     0
  0
SCALE
  5
87B
102
{ACAD_REACTORS
330
54
102
}
330
54
100
AcDbScale
 70
     0
300
3/8" = 1'-0"
140
0.375
141
12.0
290
     0
  0
SCALE
  5
1D06
102
{ACAD_REACTORS
330
54
102
}
330
54
100
AcDbScale
 70
     0
300
1:50_6
140
1.0
141
50.0
290
     0
  0
SCALE
  5
1D07
102
{ACAD_REACTORS
330
54
102
}
330
54
100
AcDbScale
 70
     0
300
1:100_6
140
1.0
141
100.0
290
     0
  0
SCALE
  5
881
102
{ACAD_REACTORS
330
54
102
}
330
54
100
AcDbScale
 70
     0
300
6" = 1'-0"
140
6.0
141
12.0
290
     0
  0
SCALE
  5
861
102
{ACAD_REACTORS
330
54
102
}
330
54
100
AcDbScale
 70
     0
300
1:100_2
140
1.0
141
100.0
290
     0
  0
SCALE
  5
132B
102
{ACAD_REACTORS
330
54
102
}
330
54
100
AcDbScale
 70
     0
300
1:5_3
140
1.0
141
0.5
290
     0
  0
SCALE
  5
862
102
{ACAD_REACTORS
330
54
102
}
330
54
100
AcDbScale
 70
     0
300
1:1_1
140
1.0
141
1.0
290
     0
  0
SCALE
  5
869
102
{ACAD_REACTORS
330
54
102
}
330
54
100
AcDbScale
 70
     0
300
1:20_1
140
1.0
141
20.0
290
     0
  0
SCALE
  5
1330
102
{ACAD_REACTORS
330
54
102
}
330
54
100
AcDbScale
 70
     0
300
1:1_3
140
1.0
141
0.1
290
     0
  0
SCALE
  5
86A
102
{ACAD_REACTORS
330
54
102
}
330
54
100
AcDbScale
 70
     0
300
1:30
140
1.0
141
30.0
290
     0
  0
SCALE
  5
870
102
{ACAD_REACTORS
330
54
102
}
330
54
100
AcDbScale
 70
     0
300
8:1
140
8.0
141
1.0
290
     0
  0
SCALE
  5
1334
102
{ACAD_REACTORS
330
54
102
}
330
54
100
AcDbScale
 70
     0
300
1:5_4
140
1.0
141
5.0
290
     0
  0
SCALE
  5
877
102
{ACAD_REACTORS
330
54
102
}
330
54
100
AcDbScale
 70
     0
300
3/32" = 1'-0"
140
0.09375
141
12.0
290
     0
  0
SCALE
  5
1338
102
{ACAD_REACTORS
330
54
102
}
330
54
100
AcDbScale
 70
     0
300
1:100_4
140
1.0
141
100.0
290
     0
  0
SCALE
  5
132D
102
{ACAD_REACTORS
330
54
102
}
330
54
100
AcDbScale
 70
     0
300
1:20_3
140
1.0
141
2.0
290
     0
  0
SCALE
  5
87E
102
{ACAD_REACTORS
330
54
102
}
330
54
100
AcDbScale
 70
     0
300
1" = 1'-0"
140
1.0
141
12.0
290
     0
  0
SCALE
  5
1332
102
{ACAD_REACTORS
330
54
102
}
330
54
100
AcDbScale
 70
     0
300
1:1_4
140
1.0
141
1.0
290
     0
  0
SCALE
  5
1692
102
{ACAD_REACTORS
330
54
102
}
330
54
100
AcDbScale
 70
     0
300
1:10_3_1
140
1.0
141
10.0
290
     0
  0
SCALE
  5
5E
102
{ACAD_REACTORS
330
54
102
}
330
54
100
AcDbScale
 70
     0
300
1:1
140
1.0
141
0.1
290
     0
  0
SCALE
  5
5F
102
{ACAD_REACTORS
330
54
102
}
330
54
100
AcDbScale
 70
     0
300
1:2
140
1.0
141
0.2
290
     0
  0
SCALE
  5
60
102
{ACAD_REACTORS
330
54
102
}
330
54
100
AcDbScale
 70
     0
300
1:2.5
140
1.0
141
0.25
290
     0
  0
SCALE
  5
61
102
{ACAD_REACTORS
330
54
102
}
330
54
100
AcDbScale
 70
     0
300
1:5
140
1.0
141
0.5
290
     0
  0
SCALE
  5
62
102
{ACAD_REACTORS
330
54
102
}
330
54
100
AcDbScale
 70
     0
300
1:7.5
140
1.0
141
0.75
290
     0
  0
SCALE
  5
63
102
{ACAD_REACTORS
330
54
102
}
330
54
100
AcDbScale
 70
     0
300
1:10
140
1.0
141
1.0
290
     1
  0
SCALE
  5
64
102
{ACAD_REACTORS
330
54
102
}
330
54
100
AcDbScale
 70
     0
300
1:20
140
1.0
141
2.0
290
     0
  0
SCALE
  5
65
102
{ACAD_REACTORS
330
54
102
}
330
54
100
AcDbScale
 70
     0
300
1:25
140
1.0
141
2.5
290
     0
  0
SCALE
  5
66
102
{ACAD_REACTORS
330
54
102
}
330
54
100
AcDbScale
 70
     0
300
1:50
140
1.0
141
5.0
290
     0
  0
SCALE
  5
67
102
{ACAD_REACTORS
330
54
102
}
330
54
100
AcDbScale
 70
     0
300
1:75
140
1.0
141
7.5
290
     0
  0
SCALE
  5
68
102
{ACAD_REACTORS
330
54
102
}
330
54
100
AcDbScale
 70
     0
300
1:100
140
1.0
141
10.0
290
     0
  0
SCALE
  5
69
102
{ACAD_REACTORS
330
54
102
}
330
54
100
AcDbScale
 70
     0
300
1:150
140
1.0
141
15.0
290
     0
  0
SCALE
  5
6A
102
{ACAD_REACTORS
330
54
102
}
330
54
100
AcDbScale
 70
     0
300
1:200
140
1.0
141
20.0
290
     0
  0
SCALE
  5
6B
102
{ACAD_REACTORS
330
54
102
}
330
54
100
AcDbScale
 70
     0
300
1:250
140
1.0
141
25.0
290
     0
  0
SCALE
  5
6C
102
{ACAD_REACTORS
330
54
102
}
330
54
100
AcDbScale
 70
     0
300
1:500
140
1.0
141
50.0
290
     0
  0
SCALE
  5
6D
102
{ACAD_REACTORS
330
54
102
}
330
54
100
AcDbScale
 70
     0
300
1:750
140
1.0
141
75.0
290
     0
  0
SCALE
  5
6E
102
{ACAD_REACTORS
330
54
102
}
330
54
100
AcDbScale
 70
     0
300
1:1000
140
1.0
141
100.0
290
     0
  0
SCALE
  5
6F
102
{ACAD_REACTORS
330
54
102
}
330
54
100
AcDbScale
 70
     0
300
1:1250
140
1.0
141
125.0
290
     0
  0
SCALE
  5
70
102
{ACAD_REACTORS
330
54
102
}
330
54
100
AcDbScale
 70
     0
300
1:2000
140
1.0
141
200.0
290
     0
  0
SCALE
  5
71
102
{ACAD_REACTORS
330
54
102
}
330
54
100
AcDbScale
 70
     0
300
1:2500
140
1.0
141
250.0
290
     0
  0
SCALE
  5
72
102
{ACAD_REACTORS
330
54
102
}
330
54
100
AcDbScale
 70
     0
300
1:5000
140
1.0
141
500.0
290
     0
  0
TABLESTYLE
  5
5A
102
{ACAD_XDICTIONARY
360
5B
102
}
102
{ACAD_REACTORS
330
55
102
}
330
55
100
AcDbTableStyle
  3
Standard
 70
     0
 71
     0
 40
0.06
 41
0.06
280
     0
281
     0
  7
STANDARD
140
0.18
170
     2
 62
     0
 63
     7
283
     0
274
    -2
284
     1
 64
     0
275
    -2
285
     1
 65
     0
276
    -2
286
     1
 66
     0
277
    -2
287
     1
 67
     0
278
    -2
288
     1
 68
     0
279
    -2
289
     1
 69
     0
  7
STANDARD
140
0.25
170
     5
 62
     0
 63
     7
283
     0
274
    -2
284
     1
 64
     0
275
    -2
285
     1
 65
     0
276
    -2
286
     1
 66
     0
277
    -2
287
     1
 67
     0
278
    -2
288
     1
 68
     0
279
    -2
289
     1
 69
     0
  7
STANDARD
140
0.18
170
     5
 62
     0
 63
     7
283
     0
274
    -2
284
     1
 64
     0
275
    -2
285
     1
 65
     0
276
    -2
286
     1
 66
     0
277
    -2
287
     1
 67
     0
278
    -2
288
     1
 68
     0
279
    -2
289
     1
 69
     0
  0
VISUALSTYLE
  5
14
102
{ACAD_REACTORS
330
15
102
}
330
15
100
AcDbVisualStyle
  2
2dWireframe
 70
     4
 71
     0
 72
     2
 73
     0
 90
        0
 40
-0.6
 41
-30.0
 62
     5
 63
     7
 74
     1
 91
        4
 64
     7
 65
   257
 75
     1
175
     1
 42
1.0
 92
        0
 66
   257
 43
1.0
 76
     1
 77
     6
 78
     2
 67
     7
 79
     5
170
     0
171
     0
290
     0
174
     0
 93
        1
 44
0.0
173
     0
291
     0
 45
0.0
1001
ACAD
1000
AcDbSavedByObjectVersion
1070
     0
  0
VISUALSTYLE
  5
7A0
102
{ACAD_REACTORS
330
15
102
}
330
15
100
AcDbVisualStyle
  2
3D Hidden
 70
     6
 71
     1
 72
     2
 73
     2
 90
        0
 40
-0.6
 41
-30.0
 62
     5
 63
     7
 74
     2
 91
        2
 64
     7
 65
   257
 75
     2
175
     1
 42
40.0
 92
        0
 66
   257
 43
1.0
 76
     1
 77
     6
 78
     2
 67
     7
 79
     3
170
     0
171
     0
290
     0
174
     0
 93
        1
 44
0.0
173
     0
291
     0
 45
0.0
1001
ACAD
1000
AcDbSavedByObjectVersion
1070
     0
  0
VISUALSTYLE
  5
5D
102
{ACAD_REACTORS
330
15
102
}
330
15
100
AcDbVisualStyle
  2
3dWireframe
 70
     5
 71
     0
 72
     2
 73
     0
 90
        0
 40
-0.6
 41
-30.0
 62
     5
 63
     7
 74
     1
 91
        4
 64
     7
 65
   257
 75
     1
175
     1
 42
1.0
 92
        0
 66
   257
 43
1.0
 76
     1
 77
     6
 78
     2
 67
     7
 79
     5
170
     0
171
     0
290
     0
174
     0
 93
        1
 44
0.0
173
     0
291
     0
 45
0.0
1001
ACAD
1000
AcDbSavedByObjectVersion
1070
     0
  0
VISUALSTYLE
  5
79F
102
{ACAD_REACTORS
330
15
102
}
330
15
100
AcDbVisualStyle
  2
Basic
 70
     7
 71
     1
 72
     0
 73
     1
 90
        0
 40
-0.6
 41
-30.0
 62
     5
 63
     7
 74
     0
 91
        4
 64
     7
 65
   257
 75
     1
175
     1
 42
1.0
 92
        8
 66
     7
 43
1.0
 76
     1
 77
     6
 78
     2
 67
     7
 79
     5
170
     0
171
     0
290
     0
174
     0
 93
        1
 44
0.0
173
     0
291
     1
 45
0.0
1001
ACAD
1000
AcDbSavedByObjectVersion
1070
     0
  0
VISUALSTYLE
  5
7A3
102
{ACAD_REACTORS
330
15
102
}
330
15
100
AcDbVisualStyle
  2
Brighten
 70
    12
 71
     2
 72
     2
 73
     0
 90
        0
 40
-0.6
 41
-30.0
 62
     5
 63
     7
 74
     1
 91
        4
 64
     7
 65
   257
 75
     1
175
     1
 42
1.0
 92
        8
 66
     7
 43
1.0
 76
     1
 77
     6
 78
     2
 67
     7
 79
     5
170
     0
171
     0
290
     0
174
     0
 93
        1
 44
50.0
173
     0
291
     1
 45
0.0
1001
ACAD
1000
AcDbSavedByObjectVersion
1070
     0
  0
VISUALSTYLE
  5
7A7
102
{ACAD_REACTORS
330
15
102
}
330
15
100
AcDbVisualStyle
  2
ColorChange
 70
    16
 71
     2
 72
     2
 73
     3
 90
        0
 40
-0.6
 41
-30.0
 62
     5
 63
     8
 74
     1
 91
        4
 64
     7
 65
   257
 75
     1
175
     1
 42
1.0
 92
        8
 66
     8
 43
1.0
 76
     1
 77
     6
 78
     2
 67
     7
 79
     5
170
     0
171
     0
290
     0
174
     0
 93
        1
 44
0.0
173
     0
291
     1
 45
0.0
1001
ACAD
1000
AcDbSavedByObjectVersion
1070
     0
  0
VISUALSTYLE
  5
7A1
102
{ACAD_REACTORS
330
15
102
}
330
15
100
AcDbVisualStyle
  2
Conceptual
 70
     9
 71
     3
 72
     2
 73
     0
 90
        0
 40
-0.6
 41
-30.0
 62
     5
 63
     7
 74
     2
 91
        2
 64
     7
 65
   257
 75
     1
175
     1
 42
40.0
 92
        8
 66
     7
 43
1.0
 76
     1
 77
     6
 78
     2
 67
     7
 79
     3
170
     0
171
     0
290
     0
174
     0
 93
        1
 44
0.0
173
     0
291
     0
 45
0.0
1001
ACAD
1000
AcDbSavedByObjectVersion
1070
     0
  0
VISUALSTYLE
  5
7A2
102
{ACAD_REACTORS
330
15
102
}
330
15
100
AcDbVisualStyle
  2
Dim
 70
    11
 71
     2
 72
     2
 73
     0
 90
        0
 40
-0.6
 41
-30.0
 62
     5
 63
     7
 74
     1
 91
        4
 64
     7
 65
   257
 75
     1
175
     1
 42
1.0
 92
        8
 66
     7
 43
1.0
 76
     1
 77
     6
 78
     2
 67
     7
 79
     5
170
     0
171
     0
290
     0
174
     0
 93
        1
 44
-50.0
173
     0
291
     1
 45
0.0
1001
ACAD
1000
AcDbSavedByObjectVersion
1070
     0
  0
VISUALSTYLE
  5
7A6
102
{ACAD_REACTORS
330
15
102
}
330
15
100
AcDbVisualStyle
  2
Facepattern
 70
    15
 71
     2
 72
     2
 73
     0
 90
        0
 40
-0.6
 41
-30.0
 62
     5
 63
     7
 74
     1
 91
        4
 64
     7
 65
   257
 75
     1
175
     1
 42
1.0
 92
        8
 66
     7
 43
1.0
 76
     1
 77
     6
 78
     2
 67
     7
 79
     5
170
     0
171
     0
290
     0
174
     0
 93
        1
 44
0.0
173
     0
291
     1
 45
0.0
1001
ACAD
1000
AcDbSavedByObjectVersion
1070
     0
  0
VISUALSTYLE
  5
79B
102
{ACAD_REACTORS
330
15
102
}
330
15
100
AcDbVisualStyle
  2
Flat
 70
     0
 71
     2
 72
     1
 73
     1
 90
        2
 40
-0.6
 41
30.0
 62
     5
 63
     7
 74
     0
 91
        4
 64
     7
 65
   257
 75
     1
175
     1
 42
1.0
 92
        8
 66
     7
 43
1.0
 76
     1
 77
     6
 78
     2
 67
     7
 79
     5
170
     0
171
     0
290
     0
174
     0
 93
       13
 44
0.0
173
     0
291
     0
 45
0.0
1001
ACAD
1000
AcDbSavedByObjectVersion
1070
     0
  0
VISUALSTYLE
  5
79C
102
{ACAD_REACTORS
330
15
102
}
330
15
100
AcDbVisualStyle
  2
FlatWithEdges
 70
     1
 71
     2
 72
     1
 73
     1
 90
        2
 40
-0.6
 41
30.0
 62
     5
 63
     7
 74
     1
 91
        4
 64
     7
 65
   257
 75
     1
175
     1
 42
1.0
 92
        0
 66
   257
 43
1.0
 76
     1
 77
     6
 78
     2
 67
     7
 79
     5
170
     0
171
     0
290
     0
174
     0
 93
       13
 44
0.0
173
     0
291
     0
 45
0.0
1001
ACAD
1000
AcDbSavedByObjectVersion
1070
     0
  0
VISUALSTYLE
  5
79D
102
{ACAD_REACTORS
330
15
102
}
330
15
100
AcDbVisualStyle
  2
Gouraud
 70
     2
 71
     2
 72
     2
 73
     1
 90
        2
 40
-0.6
 41
30.0
 62
     5
 63
     7
 74
     0
 91
        4
 64
     7
 65
   257
 75
     1
175
     1
 42
1.0
 92
        0
 66
     7
 43
1.0
 76
     1
 77
     6
 78
     2
 67
     7
 79
     5
170
     0
171
     0
290
     0
174
     0
 93
       13
 44
0.0
173
     0
291
     0
 45
0.0
1001
ACAD
1000
AcDbSavedByObjectVersion
1070
     0
  0
VISUALSTYLE
  5
79E
102
{ACAD_REACTORS
330
15
102
}
330
15
100
AcDbVisualStyle
  2
GouraudWithEdges
 70
     3
 71
     2
 72
     2
 73
     1
 90
        2
 40
-0.6
 41
30.0
 62
     5
 63
     7
 74
     1
 91
        4
 64
     7
 65
   257
 75
     1
175
     1
 42
1.0
 92
        0
 66
   257
 43
1.0
 76
     1
 77
     6
 78
     2
 67
     7
 79
     5
170
     0
171
     0
290
     0
174
     0
 93
       13
 44
0.0
173
     0
291
     0
 45
0.0
1001
ACAD
1000
AcDbSavedByObjectVersion
1070
     0
  0
VISUALSTYLE
  5
7A5
102
{ACAD_REACTORS
330
15
102
}
330
15
100
AcDbVisualStyle
  2
Linepattern
 70
    14
 71
     2
 72
     2
 73
     0
 90
        0
 40
-0.6
 41
-30.0
 62
     5
 63
     7
 74
     1
 91
        4
 64
     7
 65
   257
 75
     7
175
     7
 42
1.0
 92
        8
 66
     7
 43
1.0
 76
     1
 77
     6
 78
     2
 67
     7
 79
     5
170
     0
171
     0
290
     0
174
     0
 93
        1
 44
0.0
173
     0
291
     1
 45
0.0
1001
ACAD
1000
AcDbSavedByObjectVersion
1070
     0
  0
VISUALSTYLE
  5
7B1
102
{ACAD_REACTORS
330
15
102
}
330
15
100
AcDbVisualStyle
  2

 70
     8
 71
     2
 72
     2
 73
     0
 90
        0
 40
-0.6
 41
-30.0
 62
     5
 63
     7
 74
     0
 91
        0
 64
     7
 65
   257
 75
     1
175
     1
 42
1.0
 92
        8
 66
     8
 43
1.0
 76
     1
 77
     6
 78
     2
 67
     7
 79
     5
170
     0
171
     0
290
     0
174
     0
 93
       13
 44
0.0
173
     0
291
     0
 45
0.0
1001
ACAD
1000
AcDbSavedByObjectVersion
1070
     0
  0
VISUALSTYLE
  5
7B2
102
{ACAD_REACTORS
330
15
102
}
330
15
100
AcDbVisualStyle
  2

 70
     8
 71
     2
 72
     2
 73
     0
 90
        0
 40
-0.6
 41
-30.0
 62
     5
 63
     7
 74
     1
 91
        0
 64
     7
 65
   257
 75
     1
175
     1
 42
1.0
 92
        8
 66
     8
 43
1.0
 76
     1
 77
     6
 78
     2
 67
     7
 79
     5
170
     0
171
     0
290
     0
174
     0
 93
       13
 44
0.0
173
     0
291
     0
 45
0.0
1001
ACAD
1000
AcDbSavedByObjectVersion
1070
     0
  0
VISUALSTYLE
  5
5C
102
{ACAD_REACTORS
330
15
102
}
330
15
100
AcDbVisualStyle
  2
Realistic
 70
     8
 71
     2
 72
     2
 73
     0
 90
        0
 40
-0.6
 41
-30.0
 62
     5
 63
     7
 74
     1
 91
        0
 64
     7
 65
   257
 75
     1
175
     1
 42
1.0
 92
        8
 66
     8
 43
1.0
 76
     1
 77
     6
 78
     2
 67
     7
 79
     5
170
     0
171
     0
290
     0
174
     0
 93
       13
 44
0.0
173
     0
291
     0
 45
0.0
1001
ACAD
1000
AcDbSavedByObjectVersion
1070
     0
  0
VISUALSTYLE
  5
7A4
102
{ACAD_REACTORS
330
15
102
}
330
15
100
AcDbVisualStyle
  2
Thicken
 70
    13
 71
     2
 72
     2
 73
     0
 90
        0
 40
-0.6
 41
-30.0
 62
     5
 63
     7
 74
     1
 91
        4
 64
     7
 65
   257
 75
     1
175
     1
 42
1.0
 92
       12
 66
     7
 43
1.0
 76
     1
 77
     6
 78
     2
 67
     7
 79
     5
170
     0
171
     0
290
     0
174
     0
 93
        1
 44
0.0
173
     0
291
     1
 45
0.0
1001
ACAD
1000
AcDbSavedByObjectVersion
1070
     0
  0
DICTIONARY
  5
3319
102
{ACAD_REACTORS
330
3318
102
}
330
3318
100
AcDbDictionary
280
     1
281
     1
  3
Standards
360
331A
  0
DICTIONARYVAR
  5
798
102
{ACAD_REACTORS
330
795
102
}
330
795
100
DictionaryVariables
280
     0
  1
1:1
  0
DICTIONARYVAR
  5
797
102
{ACAD_REACTORS
330
795
102
}
330
795
100
DictionaryVariables
280
     0
  1
STANDARD
  0
DICTIONARYVAR
  5
796
102
{ACAD_REACTORS
330
795
102
}
330
795
100
DictionaryVariables
280
     0
  1
STANDARD
  0
DICTIONARYVAR
  5
3344
102
{ACAD_REACTORS
330
795
102
}
330
795
100
DictionaryVariables
280
     0
  1
1
  0
DICTIONARYVAR
  5
3343
102
{ACAD_REACTORS
330
795
102
}
330
795
100
DictionaryVariables
280
     0
  1
1
  0
DICTIONARYVAR
  5
3342
102
{ACAD_REACTORS
330
795
102
}
330
795
100
DictionaryVariables
280
     0
  1
0
  0
DICTIONARYVAR
  5
2A32
102
{ACAD_REACTORS
330
795
102
}
330
795
100
DictionaryVariables
280
     0
  1
1
  0
DICTIONARYVAR
  5
2A33
102
{ACAD_REACTORS
330
795
102
}
330
795
100
DictionaryVariables
280
     0
  1
15
  0
DICTIONARYVAR
  5
799
102
{ACAD_REACTORS
330
795
102
}
330
795
100
DictionaryVariables
280
     0
  1
0
  0
DICTIONARYVAR
  5
3340
102
{ACAD_REACTORS
330
795
102
}
330
795
100
DictionaryVariables
280
     0
  1
1
  0
DICTIONARYVAR
  5
3341
102
{ACAD_REACTORS
330
795
102
}
330
795
100
DictionaryVariables
280
     0
  1
127
  0
XRECORD
  5
231F
102
{ACAD_REACTORS
330
231D
102
}
330
231D
100
AcDbXrecord
280
     1
330
312E
330
312F
330
3104
330
3105
330
30CE
330
30CF
330
30A4
330
30A5
330
307A
330
307B
330
3050
330
3051
330
3026
330
3027
330
2FFC
330
2FFD
330
2FD2
330
2FD3
330
2F9C
330
2F9D
330
2F72
330
2F73
330
2F48
330
2F49
330
2F1E
330
2F1F
330
2EF4
330
2EF5
  0
XRECORD
  5
3134
102
{ACAD_REACTORS
330
233D
102
}
330
233D
100
AcDbXrecord
280
     1
 40
0.000001
  0
XRECORD
  5
3137
102
{ACAD_REACTORS
330
233D
102
}
330
233D
100
AcDbXrecord
280
     1
 70
     0
  0
XRECORD
  5
3136
102
{ACAD_REACTORS
330
233D
102
}
330
233D
100
AcDbXrecord
280
     1
 70
     0
  0
XRECORD
  5
3135
102
{ACAD_REACTORS
330
233D
102
}
330
233D
100
AcDbXrecord
280
     1
 70
     0
  0
DICTIONARY
  5
3350
330
1943
100
AcDbDictionary
280
     1
281
     1
  3
ACAD_XREC_ROUNDTRIP
360
3351
  0
DICTIONARY
  5
3349
330
11
100
AcDbDictionary
280
     1
281
     1
  3
ACAD_XREC_ROUNDTRIP
360
334A
  0
DICTIONARY
  5
334D
330
52
100
AcDbDictionary
280
     1
281
     1
  3
ACAD_XREC_ROUNDTRIP
360
334E
  0
DICTIONARY
  5
334B
330
51
100
AcDbDictionary
280
     1
281
     1
  3
ACAD_XREC_ROUNDTRIP
360
334C
  0
DICTIONARY
  5
3347
330
C
100
AcDbDictionary
280
     1
281
     1
  3
ACAD_XREC_ROUNDTRIP
360
3348
  0
DICTIONARY
  5
5B
330
5A
100
AcDbDictionary
280
     1
281
     1
  3
ACAD_ROUNDTRIP_2008_TABLESTYLE_CELLSTYLEMAP
360
3345
  3
ACAD_XREC_ROUNDTRIP
360
334F
  0
BINRECORD
  5
331A
102
{ACAD_REACTORS
330
3319
102
}
330
3319
100
AcAecBinRecord
 90
        0
 91
    19403
 70
     0
310
0100FFFEFF0D4100490041002000560065007200730069006F006E00200033000500FFFF01001C004163416563556B4C6179657244657363726970746976654669656C64FFFEFF154400690073006300690070006C0069006E0065002000440065007300690067006E00610074006F0072000102000000007B333637354541
310
46100100002100000070BA406CD0EA76040B00FFFEFF001500FFFEFF01440002000000FFFEFF07500072006F0063006500730073000E00FFFEFF01440002000000FFFEFF12500072006F0063006500730073002000440065006D006F006C006900740069006F006E00000000000000FFFEFF01560002000000FFFEFF0E5000
310
72006F0063006500730073002000560061006300750075006D00000000000000FFFEFF01450002000000FFFEFF12500072006F006300650073007300200045006C0065006300740072006900630061006C00000000000000FFFEFF01570002000000FFFEFF0E500072006F0063006500730073002000570061007400650072
310
007300000000000000FFFEFF01580002000000FFFEFF0F500072006F00630065007300730020004500780068006100750073007400000000000000FFFEFF01470002000000FFFEFF0D500072006F006300650073007300200047006100730065007300000000000000FFFEFF014F0002000000FFFEFF0B500072006F006300
310
65007300730020004F0069006C00000000000000FFFEFF01500002000000FFFEFF0E500072006F006300650073007300200050006900700069006E006700000000000000FFFEFF01510002000000FFFEFF11500072006F0063006500730073002000450071007500690070006D0065006E007400000000000000FFFEFF0152
310
0002000000FFFEFF19500072006F006300650073007300200044007200610069006E0073002000260020005200650063006C00610069006D007300000000000000FFFEFF01410002000000FFFEFF0C500072006F00630065007300730020004100690072007300000000000000FFFEFF01530002000000FFFEFF0C50007200
310
6F00630065007300730020005300690074006500000000000000FFFEFF01540002000000FFFEFF18500072006F006300650073007300200045006E0074007200610069006E0065006400200053006F006C00690064007300000000000000FFFEFF01430002000000FFFEFF11500072006F0063006500730073002000430068
310
0065006D006900630061006C00730000000000000000000000FFFEFF01560002000000FFFEFF1053007500720076006500790020002F0020004D0061007000700069006E0067000500FFFEFF01460002000000FFFEFF0C4600690065006C0064002000530075007200760065007900000000000000FFFEFF01490002000000
310
FFFEFF0E4400690067006900740061006C002000530075007200760065007900000000000000FFFEFF014A0002000000FFFEFF1F53007500720076006500790020002F0020004D0061007000700069006E006700200028005500730065007200200044006500660069006E00650064002900000000000000FFFEFF014B0002
310
000000FFFEFF1F53007500720076006500790020002F0020004D0061007000700069006E006700200028005500730065007200200044006500660069006E00650064002900000000000000FFFEFF01410002000000FFFEFF0D410065007200690061006C00200053007500720076006500790000000000000000000000FFFE
310
FF01450002000000FFFEFF0A45006C0065006300740072006900630061006C000900FFFEFF01440002000000FFFEFF1545006C0065006300740072006900630061006C002000440065006D006F006C006900740069006F006E00000000000000FFFEFF01590002000000FFFEFF1C45006C0065006300740072006900630061
310
006C00200041007500780069006C0069006100720079002000530079007300740065006D007300000000000000FFFEFF01490002000000FFFEFF1A45006C0065006300740072006900630061006C00200049006E0073007400720075006D0065006E0074006100740069006F006E00000000000000FFFEFF014A0002000000
310
FFFEFF1945006C0065006300740072006900630061006C00200028005500730065007200200044006500660069006E00650064002900000000000000FFFEFF014B0002000000FFFEFF1945006C0065006300740072006900630061006C00200028005500730065007200200044006500660069006E00650064002900000000
310
000000FFFEFF014C0002000000FFFEFF1345006C0065006300740072006900630061006C0020004C00690067006800740069006E006700000000000000FFFEFF01500002000000FFFEFF1045006C0065006300740072006900630061006C00200050006F00770065007200000000000000FFFEFF01530002000000FFFEFF0F
310
45006C0065006300740072006900630061006C0020005300690074006500000000000000FFFEFF01540002000000FFFEFF1D45006C0065006300740072006900630061006C002000540065006C00650063006F006D006D0075006E00690063006100740069006F006E00730000000000000000000000FFFEFF015700020000
310
00FFFEFF0B43006900760069006C00200057006F0072006B0073000200FFFEFF014A0002000000FFFEFF1A43006900760069006C00200057006F0072006B007300200028005500730065007200200044006500660069006E00650064002900000000000000FFFEFF014B0002000000FFFEFF1A43006900760069006C002000
310
57006F0072006B007300200028005500730065007200200044006500660069006E0065006400290000000000000000000000FFFEFF01460002000000FFFEFF0F46006900720065002000500072006F00740065006300740069006F006E000400FFFEFF014A0002000000FFFEFF134600690072006500200028005500730065
310
007200200044006500660069006E00650064002900000000000000FFFEFF014B0002000000FFFEFF134600690072006500200028005500730065007200200044006500660069006E00650064002900000000000000FFFEFF01410002000000FFFEFF184600690072006500200044006500740065006300740069006F006E00
310
200061006E006400200041006C00610072006D00000000000000FFFEFF01530002000000FFFEFF10460069007200650020005300750070007000720065007300730069006F006E0000000000000000000000FFFEFF01470002000000FFFEFF07470065006E006500720061006C000500FFFEFF01490002000000FFFEFF1347
310
0065006E006500720061006C00200049006E0066006F0072006D006100740069006F006E00000000000000FFFEFF014A0002000000FFFEFF16470065006E006500720061006C00200028005500730065007200200044006500660069006E00650064002900000000000000FFFEFF014B0002000000FFFEFF16470065006E00
310
6500720061006C00200028005500730065007200200044006500660069006E00650064002900000000000000FFFEFF01520002000000FFFEFF10470065006E006500720061006C0020005200650073006F007500720063006500000000000000FFFEFF01430002000000FFFEFF13470065006E006500720061006C00200043
310
006F006E0074007200610063007400750061006C0000000000000000000000FFFEFF01580002000000FFFEFF114F00740068006500720020004400690073006300690070006C0069006E00650073000200FFFEFF014A0002000000FFFEFF204F00740068006500720020004400690073006300690070006C0069006E006500
310
7300200028005500730065007200200044006500660069006E00650064002900000000000000FFFEFF014B0002000000FFFEFF204F00740068006500720020004400690073006300690070006C0069006E0065007300200028005500730065007200200044006500660069006E0065006400290000000000000000000000FF
310
FEFF01480002000000FFFEFF13480061007A006100720064006F007500730020004D006100740065007200690061006C0073000700FFFEFF014A0002000000FFFEFF22480061007A006100720064006F007500730020004D006100740065007200690061006C00730020002800550073006500720020004400650066006900
310
6E00650064002900000000000000FFFEFF014B0002000000FFFEFF22480061007A006100720064006F007500730020004D006100740065007200690061006C007300200028005500730065007200200044006500660069006E00650064002900000000000000FFFEFF014C0002000000FFFEFF044C00650061006400000000
310
000000FFFEFF01500002000000FFFEFF03500043004200000000000000FFFEFF01520002000000FFFEFF0C5200650066007200690067006500720061006E0074007300000000000000FFFEFF01410002000000FFFEFF084100730062006500730074006F007300000000000000FFFEFF01430002000000FFFEFF0943006800
310
65006D006900630061006C00730000000000000000000000FFFEFF01490002000000FFFEFF0949006E0074006500720069006F00720073000600FFFEFF01440002000000FFFEFF1349006E0074006500720069006F0072002000440065006D006F006C006900740069006F006E00000000000000FFFEFF01460002000000FF
310
FEFF1149006E0074006500720069006F0072002000460069006E0069007300680065007300000000000000FFFEFF01470002000000FFFEFF1249006E0074006500720069006F0072007300200047007200610070006800690063007300000000000000FFFEFF014A0002000000FFFEFF1849006E0074006500720069006F00
310
72007300200028005500730065007200200044006500660069006E00650064002900000000000000FFFEFF014B0002000000FFFEFF1849006E0074006500720069006F0072007300200028005500730065007200200044006500660069006E00650064002900000000000000FFFEFF014E0002000000FFFEFF0F49006E0074
310
006500720069006F0072002000440065007300690067006E0000000000000000000000FFFEFF015A0002000000FFFEFF1A43006F006E00740072006100630074006F00720020002F002000530068006F0070002000440072006100770069006E00670073000200FFFEFF014A0002000000FFFEFF2943006F006E0074007200
310
6100630074006F00720020002F002000530068006F0070002000440072006100770069006E0067007300200028005500730065007200200044006500660069006E00650064002900000000000000FFFEFF014B0002000000FFFEFF2943006F006E00740072006100630074006F00720020002F002000530068006F00700020
310
00440072006100770069006E0067007300200028005500730065007200200044006500660069006E0065006400290000000000000000000000FFFEFF014C0002000000FFFEFF094C0061006E006400730063006100700065000500FFFEFF01440002000000FFFEFF144C0061006E0064007300630061007000650020004400
310
65006D006F006C006900740069006F006E00000000000000FFFEFF01490002000000FFFEFF144C0061006E006400730063006100700065002000490072007200690067006100740069006F006E00000000000000FFFEFF014A0002000000FFFEFF184C0061006E006400730063006100700065002000280055007300650072
310
00200044006500660069006E00650064002900000000000000FFFEFF014B0002000000FFFEFF184C0061006E00640073006300610070006500200028005500730065007200200044006500660069006E00650064002900000000000000FFFEFF01500002000000FFFEFF124C0061006E006400730063006100700065002000
310
50006C0061006E00740069006E00670000000000000000000000FFFEFF014D0002000000FFFEFF0A4D0065006300680061006E006900630061006C000700FFFEFF01440002000000FFFEFF154D0065006300680061006E006900630061006C002000440065006D006F006C006900740069006F006E00000000000000FFFEFF
310
01480002000000FFFEFF0F4D0065006300680061006E006900630061006C0020004800560041004300000000000000FFFEFF01490002000000FFFEFF1A4D0065006300680061006E006900630061006C00200049006E0073007400720075006D0065006E0074006100740069006F006E00000000000000FFFEFF014A000200
310
0000FFFEFF194D0065006300680061006E006900630061006C00200028005500730065007200200044006500660069006E00650064002900000000000000FFFEFF014B0002000000FFFEFF194D0065006300680061006E006900630061006C00200028005500730065007200200044006500660069006E0065006400290000
310
0000000000FFFEFF01500002000000FFFEFF114D0065006300680061006E006900630061006C00200050006900700069006E006700000000000000FFFEFF01530002000000FFFEFF0F4D0065006300680061006E006900630061006C002000530069007400650000000000000000000000FFFEFF014F0002000000FFFEFF0A
310
4F007000650072006100740069006F006E0073000200FFFEFF014A0002000000FFFEFF194F007000650072006100740069006F006E007300200028005500730065007200200044006500660069006E00650064002900000000000000FFFEFF014B0002000000FFFEFF194F007000650072006100740069006F006E00730020
310
0028005500730065007200200044006500660069006E0065006400290000000000000000000000FFFEFF01500002000000FFFEFF0850006C0075006D00620069006E0067000600FFFEFF01440002000000FFFEFF1350006C0075006D00620069006E0067002000440065006D006F006C006900740069006F006E0000000000
310
0000FFFEFF014A0002000000FFFEFF1750006C0075006D00620069006E006700200028005500730065007200200044006500660069006E00650064002900000000000000FFFEFF014B0002000000FFFEFF1750006C0075006D00620069006E006700200028005500730065007200200044006500660069006E006500640029
310
00000000000000FFFEFF01500002000000FFFEFF0F50006C0075006D00620069006E006700200050006900700069006E006700000000000000FFFEFF01510002000000FFFEFF1250006C0075006D00620069006E0067002000450071007500690070006D0065006E007400000000000000FFFEFF01530002000000FFFEFF0D
310
50006C0075006D00620069006E0067002000530069007400650000000000000000000000FFFEFF01510002000000FFFEFF09450071007500690070006D0065006E0074001100FFFEFF01440002000000FFFEFF1344006500740065006E00740069006F006E002000450071007500690070006D0065006E0074000000000000
310
00FFFEFF01560002000000FFFEFF1C56006900640065006F002F00500068006F0074006F0067007200610070006800690063002000450071007500690070006D0065006E007400000000000000FFFEFF01450002000000FFFEFF1545006400750063006100740069006F006E0061006C002000450071007500690070006D00
310
65006E007400000000000000FFFEFF01460002000000FFFEFF1646006F006F006400200053006500720076006900630065002000450071007500690070006D0065006E007400000000000000FFFEFF01590002000000FFFEFF12530065006300750072006900740079002000450071007500690070006D0065006E00740000
310
0000000000FFFEFF01480002000000FFFEFF1248006F00730070006900740061006C002000450071007500690070006D0065006E007400000000000000FFFEFF014A0002000000FFFEFF18450071007500690070006D0065006E007400200028005500730065007200200044006500660069006E0065006400290000000000
310
0000FFFEFF014B0002000000FFFEFF18450071007500690070006D0065006E007400200028005500730065007200200044006500660069006E00650064002900000000000000FFFEFF014C0002000000FFFEFF144C00610062006F007200610074006F00720079002000450071007500690070006D0065006E007400000000
310
000000FFFEFF014D0002000000FFFEFF154D00610069006E00740065006E0061006E00630065002000450071007500690070006D0065006E007400000000000000FFFEFF01500002000000FFFEFF155000610072006B0069006E00670020004C006F0074002000450071007500690070006D0065006E007400000000000000
310
FFFEFF01520002000000FFFEFF10520065007400610069006C002000450071007500690070006D0065006E007400000000000000FFFEFF01410002000000FFFEFF124100740068006C0065007400690063002000450071007500690070006D0065006E007400000000000000FFFEFF01530002000000FFFEFF0E5300690074
310
0065002000450071007500690070006D0065006E007400000000000000FFFEFF01420002000000FFFEFF0E420061006E006B002000450071007500690070006D0065006E007400000000000000FFFEFF01540002000000FFFEFF145400680065006100740072006900630061006C002000450071007500690070006D006500
310
6E007400000000000000FFFEFF01430002000000FFFEFF16440072007900200043006C00650061006E0069006E0067002000450071007500690070006D0065006E00740000000000000000000000FFFEFF01410002000000FFFEFF0D4100720063006800690074006500630074007500720061006C000A00FFFEFF01440002
310
000000FFFEFF184100720063006800690074006500630074007500720061006C002000440065006D006F006C006900740069006F006E00000000000000FFFEFF01450002000000FFFEFF164100720063006800690074006500630074007500720061006C00200045006C0065006D0065006E0074007300000000000000FFFE
310
FF01460002000000FFFEFF164100720063006800690074006500630074007500720061006C002000460069006E0069007300680065007300000000000000FFFEFF01470002000000FFFEFF164100720063006800690074006500630074007500720061006C00200047007200610070006800690063007300000000000000FF
310
FEFF01490002000000FFFEFF164100720063006800690074006500630074007500720061006C00200049006E0074006500720069006F007200000000000000FFFEFF014A0002000000FFFEFF1C4100720063006800690074006500630074007500720061006C00200028005500730065007200200044006500660069006E00
310
650064002900000000000000FFFEFF014B0002000000FFFEFF1C4100720063006800690074006500630074007500720061006C00200028005500730065007200200044006500660069006E00650064002900000000000000FFFEFF01500002000000FFFEFF144100720063006800690074006500630074007500720061006C
310
00200050006100760069006E006700000000000000FFFEFF01530002000000FFFEFF124100720063006800690074006500630074007500720061006C0020005300690074006500000000000000FFFEFF01540002000000FFFEFF1C4100720063006800690074006500630074007500720061006C0020005400720061006E00
310
730070006F00720074006100740069006F006E0000000000000001000000FFFEFF01520002000000FFFEFF085200650073006F0075007200630065000700FFFEFF01450002000000FFFEFF135200650073006F007500720063006500200045006C0065006300740072006900630061006C00000000000000FFFEFF014A0002
310
000000FFFEFF175200650073006F007500720063006500200028005500730065007200200044006500660069006E00650064002900000000000000FFFEFF014B0002000000FFFEFF175200650073006F007500720063006500200028005500730065007200200044006500660069006E00650064002900000000000000FFFE
310
FF014D0002000000FFFEFF135200650073006F00750072006300650020004D0065006300680061006E006900630061006C00000000000000FFFEFF01410002000000FFFEFF165200650073006F00750072006300650020004100720063006800690074006500630074007500720061006C00000000000000FFFEFF01530002
310
000000FFFEFF135200650073006F00750072006300650020005300740072007500630074007500720061006C00000000000000FFFEFF01430002000000FFFEFF0E5200650073006F007500720063006500200043006900760069006C0000000000000000000000FFFEFF01420002000000FFFEFF0C470065006F0074006500
310
630068006E006900630061006C000200FFFEFF014A0002000000FFFEFF1B470065006F0074006500630068006E006900630061006C00200028005500730065007200200044006500660069006E00650064002900000000000000FFFEFF014B0002000000FFFEFF1B470065006F0074006500630068006E006900630061006C
310
00200028005500730065007200200044006500660069006E0065006400290000000000000000000000FFFEFF01530002000000FFFEFF0A5300740072007500630074007500720061006C000600FFFEFF01440002000000FFFEFF155300740072007500630074007500720061006C002000440065006D006F006C0069007400
310
69006F006E00000000000000FFFEFF01460002000000FFFEFF125300740072007500630074007500720061006C0020004600720061006D0069006E006700000000000000FFFEFF014A0002000000FFFEFF195300740072007500630074007500720061006C00200028005500730065007200200044006500660069006E0065
310
0064002900000000000000FFFEFF014B0002000000FFFEFF195300740072007500630074007500720061006C00200028005500730065007200200044006500660069006E00650064002900000000000000FFFEFF01530002000000FFFEFF0F5300740072007500630074007500720061006C00200053006900740065000000
310
00000000FFFEFF01420002000000FFFEFF175300740072007500630074007500720061006C00200053007500620073007400720075006300740075007200650000000000000000000000FFFEFF01430002000000FFFEFF0543006900760069006C000900FFFEFF01440002000000FFFEFF1043006900760069006C00200044
310
0065006D006F006C006900740069006F006E00000000000000FFFEFF01550002000000FFFEFF0F43006900760069006C0020005500740069006C0069007400690065007300000000000000FFFEFF01470002000000FFFEFF0D43006900760069006C002000470072006100640069006E006700000000000000FFFEFF014900
310
02000000FFFEFF1243006900760069006C00200049006D00700072006F00760065006D0065006E0074007300000000000000FFFEFF014A0002000000FFFEFF1443006900760069006C00200028005500730065007200200044006500660069006E00650064002900000000000000FFFEFF014B0002000000FFFEFF14430069
310
00760069006C00200028005500730065007200200044006500660069006E00650064002900000000000000FFFEFF01500002000000FFFEFF0C43006900760069006C00200050006100760069006E006700000000000000FFFEFF01530002000000FFFEFF0A43006900760069006C0020005300690074006500000000000000
310
FFFEFF01540002000000FFFEFF1443006900760069006C0020005400720061006E00730070006F00720074006100740069006F006E0000000000000000000000FFFEFF01540002000000FFFEFF12540065006C00650063006F006D006D0075006E00690063006100740069006F006E0073000900FFFEFF01590002000000FF
310
FEFF0853006500630075007200690074007900000000000000FFFEFF01490002000000FFFEFF0849006E0074006500720063006F006D00000000000000FFFEFF014A0002000000FFFEFF21540065006C00650063006F006D006D0075006E00690063006100740069006F006E00730020002800550073006500720020004400
310
6500660069006E00650064002900000000000000FFFEFF014B0002000000FFFEFF21540065006C00650063006F006D006D0075006E00690063006100740069006F006E007300200028005500730065007200200044006500660069006E00650064002900000000000000FFFEFF014D0002000000FFFEFF0A4D006F006E0069
310
0074006F00720069006E006700000000000000FFFEFF014E0002000000FFFEFF0D440061007400610020004E006500740077006F0072006B007300000000000000FFFEFF01410002000000FFFEFF0E41007500640069006F0020002F002000560069007300750061006C00000000000000FFFEFF01540002000000FFFEFF09
310
540065006C006500700068006F006E006500000000000000FFFEFF01430002000000FFFEFF1143006C006F0063006B00200061006E0064002000500072006F006700720061006D00000000000000000000000180FFFEFF054D0061006A006F0072000300000000000000000000000000000000000000000000000000000000
310
000000FFFEFF002300FFFEFF052D0046006C006F00720002000000FFFEFF0546006C006F006F007200000000000000FFFEFF052D004500710070006D0002000000FFFEFF09450071007500690070006D0065006E007400000000000000FFFEFF052D00530069007400650002000000FFFEFF09530069007400650020007000
310
6C0061006E00000000000000FFFEFF052D0050006C0061006E0002000000FFFEFF154B0065007900200070006C0061006E002000280066006C006F006F007200200070006C0061006E002900000000000000FFFEFF052D004400650074006C0002000000FFFEFF06440065007400610069006C00000000000000FFFEFF052D
310
0054006F0070006F0002000000FFFEFF0A54006F0070006F00670072006100700068007900000000000000FFFEFF052D004300740072006C0002000000FFFEFF0E43006F006E00740072006F006C00200050006F0069006E0074007300000000000000FFFEFF052D004600750072006E0002000000FFFEFF0B460075007200
310
6E0069007300680069006E0067007300000000000000FFFEFF052D0053006C006100620002000000FFFEFF0553006C00610062007300000000000000FFFEFF052D0050006F006C00790002000000FFFEFF0850006F006C00790067006F006E007300000000000000FFFEFF052D0043006F006D006D0002000000FFFEFF1254
310
0065006C00650063006F006D006D0075006E00690063006100740069006F006E007300000000000000FFFEFF052D00570061006C006C0002000000FFFEFF05570061006C006C007300000000000000FFFEFF052D0047006C0061007A0002000000FFFEFF0747006C0061007A0069006E006700000000000000FFFEFF052D00
310
410072006500610002000000FFFEFF044100720065006100000000000000FFFEFF052D0043006F006400650002000000FFFEFF1443006F0064006500200063006F006D0070006C00690061006E0063006500200070006C0061006E00000000000000FFFEFF052D005300740072006D0002000000FFFEFF0844007200610069
310
006E00610067006500000000000000FFFEFF052D0044006F006F00720002000000FFFEFF0544006F006F0072007300000000000000FFFEFF052D0041006E006E006F0002000000FFFEFF0A41006E006E006F0074006100740069006F006E00000000000000FFFEFF052D004200650061006D0002000000FFFEFF0542006500
310
61006D007300000000000000FFFEFF052D004C0069007400650002000000FFFEFF114C00690067006800740069006E006700200066006900780074007500720065007300000000000000FFFEFF052D00480056004100430002000000FFFEFF044800560041004300000000000000FFFEFF052D004100630063007300020000
310
00FFFEFF0B410063006300650073007300200070006C0061006E00000000000000FFFEFF052D0043006F006C00730002000000FFFEFF0743006F006C0075006D006E007300000000000000FFFEFF052D0043006C006E00670002000000FFFEFF074300650069006C0069006E006700000000000000FFFEFF052D0045007600
310
6100630002000000FFFEFF0F450076006100630075006100740069006F006E00200070006C0061006E00000000000000FFFEFF052D0043006F006E00760002000000FFFEFF1143006F006E0076006500790069006E0067002000730079007300740065006D007300000000000000FFFEFF052D005300650063007400020000
310
00FFFEFF07530065006300740069006F006E00000000000000FFFEFF052D00500072006F00700002000000FFFEFF08500072006F0070006500720074007900000000000000FFFEFF052D0052006F006F00660002000000FFFEFF0452006F006F006600000000000000FFFEFF052D0045006C006500630002000000FFFEFF0A
310
45006C0065006300740072006900630061006C00000000000000FFFEFF052D00470072006900640002000000FFFEFF0A470072006900640020006C0069006E0065007300000000000000FFFEFF052D00540069006E006E0002000000FFFEFF1E54007200690061006E00670075006C00610074006500640020006900720072
310
006500670075006C006100720020006E006500740077006F0072006B00000000000000FFFEFF052D00500072006F00740002000000FFFEFF1646006900720065002000700072006F00740065006300740069006F006E002000730079007300740065006D00000000000000FFFEFF052D00460069007200650002000000FFFE
310
FF1446006900720065002000700072006F00740065006300740069006F006E00200070006C0061006E00000000000000FFFEFF052D0045006C006500760002000000FFFEFF0945006C00650076006100740069006F006E000000000000000180FFFEFF074D0069006E006F00720020003100040000000000000000F00E7704
310
00000000000000000000000000000000F00000FFFEFF006A00FFFEFF052D00410062006F00760002000000FFFEFF0E45006C0065006D0065006E00740073002000610062006F0076006500000000000000FFFEFF052D005400610062006C0002000000FFFEFF0B440061007400610020007400610062006C00650073000000
310
00000000FFFEFF052D00420064007200790002000000FFFEFF0842006F0075006E006400610072007900000000000000FFFEFF052D004500710070006D0002000000FFFEFF09450071007500690070006D0065006E007400000000000000FFFEFF052D0043006E007400720002000000FFFEFF0A430065006E007400650072
310
006C0069006E006500000000000000FFFEFF052D0057006B007300660002000000FFFEFF1E530079007300740065006D00200077006F0072006B0020007300750072006600610063006500200063006F006D0070006F006E0065006E0074007300000000000000FFFEFF052D00420072006E00670002000000FFFEFF1A4200
310
65006100720069006E0067007300200026002000640069007300740061006E006300650020006C006100620065006C007300000000000000FFFEFF052D00530077006300680002000000FFFEFF0853007700690074006300680065007300000000000000FFFEFF052D005400680069006E0002000000FFFEFF195400680069
310
006E0020007700650069006700680074002000670072006100700068006900630020006C0069006E0065007300000000000000FFFEFF052D00520061006900730002000000FFFEFF06520061006900730065006400000000000000FFFEFF052D004F00700065006E0002000000FFFEFF084F00700065006E0069006E006700
310
7300000000000000FFFEFF052D004E0070006C00740002000000FFFEFF204E006F006E002D0070006C006F007400740069006E00670020006700720061007000680069006300200069006E0066006F0072006D006100740069006F006E00000000000000FFFEFF052D00500072006F00660002000000FFFEFF08500072006F
310
00660069006C0065007300000000000000FFFEFF052D005200650066006C0002000000FFFEFF0E5200650066006C0065006300740065006400200050006C0061006E00000000000000FFFEFF052D00460069006E00650002000000FFFEFF19460069006E006500200077006500690067006800740020006700720061007000
310
68006900630020006C0069006E0065007300000000000000FFFEFF052D004100700070006C0002000000FFFEFF0A4100700070006C00690061006E00630065007300000000000000FFFEFF052D00440069006D00730002000000FFFEFF0A440069006D0065006E00730069006F006E007300000000000000FFFEFF052D0050
310
006F007700720002000000FFFEFF0550006F00770065007200000000000000FFFEFF052D0053006C006100620002000000FFFEFF0553006C00610062007300000000000000FFFEFF052D0043006F006E006E0002000000FFFEFF0B43006F006E006E0065006300740069006F006E007300000000000000FFFEFF052D005700
310
61006C006C0002000000FFFEFF05570061006C006C007300000000000000FFFEFF052D004100730073006D0002000000FFFEFF0A41007300730065006D0062006C00690065007300000000000000FFFEFF052D005600680063006C0002000000FFFEFF08560065006800690063006C0065007300000000000000FFFEFF052D
310
0043006F006D006D0002000000FFFEFF1A540065006C006500700068006F006E0065002C00200063006F006D006D0075006E00690063006100740069006F006E0073002000000000000000FFFEFF052D00460072006500650002000000FFFEFF0C46007200650065007300740061006E00640069006E006700000000000000
310
FFFEFF052D00530079006D00620002000000FFFEFF07530079006D0062006F006C007300000000000000FFFEFF052D00520064006D00650002000000FFFEFF1B52006500610064002D006D00650020006C006100790065007200200028006E006F007400200070006C006F0074007400650064002900000000000000FFFEFF
310
052D0053006C006300650002000000FFFEFF0653006C006900630065007300000000000000FFFEFF052D00460061007300630002000000FFFEFF074600610073006300690061007300000000000000FFFEFF052D00460069006C00650002000000FFFEFF0D460069006C006500200063006100620069006E00650074007300
310
000000000000FFFEFF052D004D00610073006B0002000000FFFEFF1241004400540020004D00610073006B0069006E00670020004F0062006A00650063007400000000000000FFFEFF052D004A0061006D00620002000000FFFEFF1544006F006F007200200061006E0064002000770069006E0064006F00770020006A0061
310
006D0062007300000000000000FFFEFF052D005300690067006E0002000000FFFEFF055300690067006E007300000000000000FFFEFF052D0046006E007300680002000000FFFEFF08460069006E0069007300680065007300000000000000FFFEFF052D00530063006800640002000000FFFEFF0953006300680065006400
310
75006C0065007300000000000000FFFEFF052D00500072006800740002000000FFFEFF0E5000610072007400690061006C002000680065006900670068007400000000000000FFFEFF052D00470072007000730002000000FFFEFF06470072006F00750070007300000000000000FFFEFF052D00540068006C006400020000
310
00FFFEFF0A5400680072006500730068006F006C0064007300000000000000FFFEFF052D005300630072006E0002000000FFFEFF14530063007200650065006E006500640020004200610063006B00670072006F0075006E0064007300000000000000FFFEFF052D0043006F006D00700002000000FFFEFF1349006E007400
310
650072006E0061006C00200063006F006D0070006F006E0065006E0074007300000000000000FFFEFF052D005400690074006C0002000000FFFEFF18440072006100770069006E00670020006F0072002000640065007400610069006C0020007400690074006C0065007300000000000000FFFEFF052D0054006500780074
310
0002000000FFFEFF045400650078007400000000000000FFFEFF052D004D00610072006B0002000000FFFEFF1D4D00610072006B006500720073002C00200062007200650061006B0020006D00610072006B0073002C0020006C00650061006400650072007300000000000000FFFEFF052D00460075006C006C0002000000
310
FFFEFF0B460075006C006C002D00680065006900670068007400000000000000FFFEFF052D00450076007400720002000000FFFEFF1B45006C0065007600610074006F00720020006300610072007300200061006E0064002000650071007500690070006D0065006E007400000000000000FFFEFF052D0053007000630065
310
0002000000FFFEFF0553007000610063006500000000000000FFFEFF052D00530075007300700002000000FFFEFF12530075007300700065006E00640065006400200065006C0065006D0065006E0074007300000000000000FFFEFF052D00540065006500730002000000FFFEFF094D00610069006E002000740065006500
310
7300000000000000FFFEFF052D00460069007800740002000000FFFEFF1170006C0075006D00620069006E006700200066006900780074007500720065007300000000000000FFFEFF052D00520065006600720002000000FFFEFF195200650066006500720065006E00630065002C002000650078007400650072006E0061
310
006C002000660069006C0065007300000000000000FFFEFF052D004C00610062006C0002000000FFFEFF064C006100620065006C007300000000000000FFFEFF052D004C0069007400650002000000FFFEFF084C00690067006800740069006E006700000000000000FFFEFF052D00480065007600790002000000FFFEFF1A
310
4800650061007600790020007700650069006700680074002000670072006100700068006900630020006C0069006E0065007300000000000000FFFEFF052D00480065006100640002000000FFFEFF1744006F006F007200200061006E0064002000770069006E0064006F0077002000680065006100640065007200730000
310
0000000000FFFEFF052D004C00650067006E0002000000FFFEFF144C006500670065006E00640073002C002000530079006D0062006F006C0020006B00650079007300000000000000FFFEFF052D004B00650079006E0002000000FFFEFF084B00650079006E006F00740065007300000000000000FFFEFF052D0046006900
310
7800640002000000FFFEFF0F460069007800650064002000650071007500690070006D0065006E007400000000000000FFFEFF052D004C00650076006C0002000000FFFEFF274C006500760065006C0020006300680061006E006700650073002C002000720061006D00700073002C00200070006900740073002C00200064
310
0065007000720065007300730069006F006E007300000000000000FFFEFF052D004D00650064006D0002000000FFFEFF1B4D0065006400690075006D0020007700650069006700680074002000670072006100700068006900630020006C0069006E0065007300000000000000FFFEFF052D0042006C006F00770002000000
310
FFFEFF0E45006C0065006D0065006E00740073002000620065006C006F007700000000000000FFFEFF052D00410063006300730002000000FFFEFF06410063006300650073007300000000000000FFFEFF052D004F0063006300700002000000FFFEFF1A4F00630063007500700061006E00740020006F007200200065006D
310
0070006C006F0079006500650020006E0061006D0065007300000000000000FFFEFF052D00430061007300650002000000FFFEFF08430061007300650077006F0072006B00000000000000FFFEFF052D00520065007600730002000000FFFEFF095200650076006900730069006F006E007300000000000000FFFEFF052D00
310
420072006300650002000000FFFEFF06420072006100630065007300000000000000FFFEFF052D00480069006400650002000000FFFEFF0E480069006400640065006E0020006F0062006A006500630074007300000000000000FFFEFF052D0043006C006E00670002000000FFFEFF074300650069006C0069006E00670000
310
0000000000FFFEFF052D005500740069006C0002000000FFFEFF095500740069006C0069007400690065007300000000000000FFFEFF052D00500061007400740002000000FFFEFF19540065007800740075007200650020006F00720020006800610074006300680020007000610074007400650072006E00730000000000
310
0000FFFEFF052D00430061007600690002000000FFFEFF06430061007600690074007900000000000000FFFEFF052D0050006C006E00740002000000FFFEFF0650006C0061006E0074007300000000000000FFFEFF052D00530074007200730002000000FFFEFF215300740061006900720020007400720065006100640073
310
002C00200065007300630061006C00610074006F00720073002C0020006C00610064006400650072007300000000000000FFFEFF052D00520065007600630002000000FFFEFF0F5200650076006900730069006F006E00200063006C006F00750064007300000000000000FFFEFF052D004D006F007600650002000000FFFE
310
FF124D006F0076006500610062006C0065002000650071007500690070006D0065006E007400000000000000FFFEFF052D005000650070006C0002000000FFFEFF06500065006F0070006C006500000000000000FFFEFF052D00440065006D006F0002000000FFFEFF0A440065006D006F006C006900740069006F006E0000
310
0000000000FFFEFF052D00430075007200740002000000FFFEFF0C4300750072007400610069006E002000570061006C006C00000000000000FFFEFF052D005700640077006B0002000000FFFEFF164100720063006800690074006500630074007500720061006C00200077006F006F00640077006F0072006B0000000000
310
0000FFFEFF052D004E006F007400650002000000FFFEFF054E006F00740065007300000000000000FFFEFF052D004F0076006800640002000000FFFEFF084F007600650072006800650061006400000000000000FFFEFF052D00530075006200740002000000FFFEFF14530075006200740072006100630074006900760065
310
00200065006C0065006D0065006E0074007300000000000000FFFEFF052D00530044004600460002000000FFFEFF1053007500700070006C0079002000640069006600660075007300650072007300000000000000FFFEFF052D00530074006F00720002000000FFFEFF19530079007300740065006D002000730074006F00
310
7200610067006500200063006F006D0070006F006E0065006E0074007300000000000000FFFEFF052D004900640065006E0002000000FFFEFF134900640065006E00740069006600690063006100740069006F006E0020005400610067007300000000000000FFFEFF052D004800720061006C0002000000FFFEFF16480061
310
006E0064007200610069006C0073002C0020006700750061007200640020007200610069006C007300000000000000FFFEFF052D00570069006400650002000000FFFEFF19570069006400650020007700650069006700680074002000670072006100700068006900630020006C0069006E0065007300000000000000FFFE
310
FF052D004D0061007300730002000000FFFEFF104D0061007300730069006E006700200045006C0065006D0065006E0074007300000000000000FFFEFF052D004C0069006E00650002000000FFFEFF0D44006500660069006E0069006E00670020004C0069006E006500000000000000FFFEFF052D00560069006500770002
310
000000FFFEFF13560069006500770070006F0072007400200044006500660069006E006900740069006F006E00000000000000FFFEFF052D0050006B006E00670002000000FFFEFF075000610072006B0069006E006700000000000000FFFEFF052D00520044004600460002000000FFFEFF14520065007400750072006E00
310
20006100690072002000640069006600660075007300650072007300000000000000FFFEFF052D00530065006100740002000000FFFEFF07530065006100740069006E006700000000000000FFFEFF052D0050006E006C00730002000000FFFEFF0D530079007300740065006D002000700061006E0065006C007300000000
310
000000FFFEFF052D004D0061007400630002000000FFFEFF0B4D00610074006300680020006C0069006E0065007300000000000000FFFEFF052D00410064007400760002000000FFFEFF1141006400640069007400690076006500200065006C0065006D0065006E0074007300000000000000FFFEFF052D00430068006100
310
730002000000FFFEFF0543006800610073006500000000000000FFFEFF052D005300700063006C0002000000FFFEFF0B5300700065006300690061006C007400690065007300000000000000FFFEFF052D00470072006900640002000000FFFEFF044700720069006400000000000000FFFEFF052D004E00690063006E0002
310
000000FFFEFF0F4E006F007400200069006E00200063006F006E0074007200610063007400000000000000FFFEFF052D004D0063007500740002000000FFFEFF164D00610069006E00200063007500740020006C0069006E006500200065006C0065006D0065006E0074007300000000000000FFFEFF052D00460069007200
310
650002000000FFFEFF0A46006900720065002000770061006C006C007300000000000000FFFEFF052D00530069006C006C0002000000FFFEFF0C570069006E0064006F0077002000730069006C006C007300000000000000FFFEFF052D005400700074006E0002000000FFFEFF1154006F0069006C00650074002000700061
310
00720074006900740069006F006E007300000000000000FFFEFF052D00520069007300720002000000FFFEFF0C530074006100690072002000720069007300650072007300000000000000FFFEFF052D004F0074006C006E0002000000FFFEFF074F00750074006C0069006E006500000000000000FFFEFF052D0054007400
310
6C00620002000000FFFEFF1642006F007200640065007200200061006E00640020007400690074006C006500200062006C006F0063006B000000000000000180FFFEFF074D0069006E006F0072002000320005000000004164642062656C6F77207468652073656C6563746564206974656DFFFEFF001600FFFEFF052D0041
310
0062006F00760002000000FFFEFF0E45006C0065006D0065006E00740073002000610062006F0076006500000000000000FFFEFF052D00420064007200790002000000FFFEFF0D4500640067006500200062006F0075006E006400610072007900000000000000FFFEFF052D005400680069006E0002000000FFFEFF0E4D00
310
69006E006F00720020006C0069006E00650077006F0072006B00000000000000FFFEFF052D004E0070006C00740002000000FFFEFF154E006F006E002D0070006C006F007400740069006E006700200065006C0065006D0065006E0074007300000000000000FFFEFF052D005200650066006C0002000000FFFEFF0F520065
310
0066006C0065006300740065006400200050006C0061006E007300000000000000FFFEFF052D00440069006D00730002000000FFFEFF0A440069006D0065006E00730069006F006E007300000000000000FFFEFF052D005300630061006C0002000000FFFEFF10470072006100700068006900630061006C00200053006300
310
61006C0065007300000000000000FFFEFF052D0053006C006300650002000000FFFEFF0653006C006900630065007300000000000000FFFEFF052D0047006C0061007A0002000000FFFEFF0747006C0061007A0069006E006700000000000000FFFEFF052D00460061007300630002000000FFFEFF06460061007300630069
310
006100000000000000FFFEFF052D00470072007000730002000000FFFEFF06470072006F00750070007300000000000000FFFEFF052D005400690074006C0002000000FFFEFF065400690074006C0065007300000000000000FFFEFF052D00530066006900740002000000FFFEFF0653006F00660066006900740000000000
310
0000FFFEFF052D00500061007400740002000000FFFEFF0E4800610074006300680020007000610074007400650072006E007300000000000000FFFEFF052D00480069006400650002000000FFFEFF0F480069006400640065006E00200065006C0065006D0065006E0074007300000000000000FFFEFF052D004E006F0074
310
00650002000000FFFEFF16470065006E006500720061006C0020005400650078007400200061006E00640020004E006F00740065007300000000000000FFFEFF052D0055006E006900740002000000FFFEFF0455006E0069007400000000000000FFFEFF052D004900640065006E0002000000FFFEFF0A4900640065006E00
310
740069006600690065007200000000000000FFFEFF052D004C0069006E00650002000000FFFEFF10470065006E006500720061006C0020006C0069006E00650077006F0072006B00000000000000FFFEFF052D00530069006C006C0002000000FFFEFF05530069006C006C007300000000000000FFFEFF052D005200690073
310
00720002000000FFFEFF06520069007300650072007300000000000000FFFEFF052D004F0074006C006E0002000000FFFEFF074F00750074006C0069006E0065000000000000000180FFFEFF06530074006100740075007300060000000000000000A434770470040000B10000005073770400000000050000FFFEFF000F00
310
FFFEFF022D00310002000000FFFEFF075000680061007300650020003100000000000000FFFEFF022D00320002000000FFFEFF075000680061007300650020003200000000000000FFFEFF022D00540002000000FFFEFF0E540065006D0070006F007200610072007900200077006F0072006B00000000000000FFFEFF022D
310
00330002000000FFFEFF075000680061007300650020003300000000000000FFFEFF022D00440002000000FFFEFF144500780069007300740069006E006700200074006F002000640065006D006F006C00690073006800000000000000FFFEFF022D00340002000000FFFEFF07500068006100730065002000340000000000
310
0000FFFEFF022D00450002000000FFFEFF124500780069007300740069006E006700200074006F002000720065006D00610069006E00000000000000FFFEFF022D00350002000000FFFEFF075000680061007300650020003500000000000000FFFEFF022D00460002000000FFFEFF0B460075007400750072006500200077
310
006F0072006B00000000000000FFFEFF022D00360002000000FFFEFF075000680061007300650020003600000000000000FFFEFF022D00370002000000FFFEFF075000680061007300650020003700000000000000FFFEFF022D00380002000000FFFEFF075000680061007300650020003800000000000000FFFEFF022D00
310
390002000000FFFEFF075000680061007300650020003900000000000000FFFEFF022D004D0002000000FFFEFF114900740065006D007300200074006F0020006200650020006D006F00760065006400000000000000FFFEFF022D004E0002000000FFFEFF084E0065007700200077006F0072006B000000000000000600FF
310
FF04001A004163416563556B4C61796572436F6D706F6E656E744669656C64FFFEFF174400690073006300690070006C0069006E0065002000440065007300690067006E00610074006F0072002000310001000000FFFEFF0440002C0040004000000000000100000000FFFEFF014100000000000780FFFEFF174400690073
310
006300690070006C0069006E0065002000440065007300690067006E00610074006F0072002000320001000000FFFEFF0440002C0040004000010000000100000000FFFEFF014400000000000780FFFEFF054D0061006A006F00720005000000FFFEFF052D00400040004000400000000000010000002DFFFEFF052D005700
310
61006C006C00000000000780FFFEFF064D0069006E006F007200310005000000FFFEFF022D002A0001000000010000002DFFFEFF052D004900640065006E00000000000780FFFEFF064D0069006E006F007200320005000000FFFEFF022D002A0001000000010000002DFFFEFF052D005400650078007400000000000780FF
310
FEFF0653007400610074007500730002000000FFFEFF022D002A0001000000010000002DFFFEFF022D004E0000000000050000010203040500FFFEFF00FFFEFF0320002D002000FFFEFF022C002000FFFEFF012000FFFEFF0320002D002000FFFEFF00
  0
XRECORD
  5
3351
102
{ACAD_REACTORS
330
3350
102
}
330
3350
100
AcDbXrecord
280
     1
102
SHADEPLOT
 70
     0
102
SHADEPLOTRESLEVEL
 70
     2
102
SHADEPLOTCUSTOMDPI
 70
   300
  0
XRECORD
  5
334A
102
{ACAD_REACTORS
330
3349
102
}
330
3349
100
AcDbXrecord
280
     1
102
SHADEPLOT
 70
     1
102
SHADEPLOTRESLEVEL
 70
     2
102
SHADEPLOTCUSTOMDPI
 70
   300
  0
XRECORD
  5
334E
102
{ACAD_REACTORS
330
334D
102
}
330
334D
100
AcDbXrecord
280
     1
102
MATERIAL
148
0.0
149
0.0
149
0.0
 93
        0
 94
       63
282
     0
 72
     1
 77
     1
171
     1
175
     1
179
     1
273
     0
  0
XRECORD
  5
334C
102
{ACAD_REACTORS
330
334B
102
}
330
334B
100
AcDbXrecord
280
     1
102
MATERIAL
148
0.0
149
0.0
149
0.0
 93
        0
 94
       63
282
     0
 72
     1
 77
     1
171
     1
175
     1
179
     1
273
     0
  0
XRECORD
  5
3348
102
{ACAD_REACTORS
330
3347
102
}
330
3347
100
AcDbXrecord
280
     1
102
MATERIAL
148
0.0
149
0.0
149
0.0
 93
        0
 94
       63
282
     0
 72
     1
 77
     1
171
     1
175
     1
179
     1
273
     0
  0
CELLSTYLEMAP
  5
3345
102
{ACAD_REACTORS
330
5B
102
}
330
5B
100
AcDbCellStyleMap
 90
        3
300
CELLSTYLE
  1
TABLEFORMAT_BEGIN
 90
        5
170
     1
 91
        0
 92
    32768
 62
   257
 93
        1
300
CONTENTFORMAT
  1
CONTENTFORMAT_BEGIN
 90
        0
 91
        0
 92
        4
 93
        0
300

 40
0.0
140
1.0
 94
        5
 62
     0
340
21
144
0.25
309
CONTENTFORMAT_END
171
     0
 94
        6
 95
        1
302
GRIDFORMAT
  1
GRIDFORMAT_BEGIN
 90
        0
 91
        1
 62
     0
 92
       -2
340
0
 93
        0
 40
0.045
309
GRIDFORMAT_END
 95
        2
302
GRIDFORMAT
  1
GRIDFORMAT_BEGIN
 90
        0
 91
        1
 62
     0
 92
       -2
340
0
 93
        0
 40
0.045
309
GRIDFORMAT_END
 95
        4
302
GRIDFORMAT
  1
GRIDFORMAT_BEGIN
 90
        0
 91
        1
 62
     0
 92
       -2
340
0
 93
        0
 40
0.045
309
GRIDFORMAT_END
 95
        8
302
GRIDFORMAT
  1
GRIDFORMAT_BEGIN
 90
        0
 91
        1
 62
     0
 92
       -2
340
0
 93
        0
 40
0.045
309
GRIDFORMAT_END
 95
       16
302
GRIDFORMAT
  1
GRIDFORMAT_BEGIN
 90
        0
 91
        1
 62
     0
 92
       -2
340
0
 93
        0
 40
0.045
309
GRIDFORMAT_END
 95
       32
302
GRIDFORMAT
  1
GRIDFORMAT_BEGIN
 90
        0
 91
        1
 62
     0
 92
       -2
340
0
 93
        0
 40
0.045
309
GRIDFORMAT_END
309
TABLEFORMAT_END
  1
CELLSTYLE_BEGIN
 90
        1
 91
        1
300
_TITLE
309
CELLSTYLE_END
300
CELLSTYLE
  1
TABLEFORMAT_BEGIN
 90
        5
170
     1
 91
        0
 92
        0
 62
   257
 93
        1
300
CONTENTFORMAT
  1
CONTENTFORMAT_BEGIN
 90
        0
 91
        0
 92
        4
 93
        0
300

 40
0.0
140
1.0
 94
        5
 62
     0
340
21
144
0.18
309
CONTENTFORMAT_END
171
     0
 94
        6
 95
        1
302
GRIDFORMAT
  1
GRIDFORMAT_BEGIN
 90
        0
 91
        1
 62
     0
 92
       -2
340
0
 93
        0
 40
0.045
309
GRIDFORMAT_END
 95
        2
302
GRIDFORMAT
  1
GRIDFORMAT_BEGIN
 90
        0
 91
        1
 62
     0
 92
       -2
340
0
 93
        0
 40
0.045
309
GRIDFORMAT_END
 95
        4
302
GRIDFORMAT
  1
GRIDFORMAT_BEGIN
 90
        0
 91
        1
 62
     0
 92
       -2
340
0
 93
        0
 40
0.045
309
GRIDFORMAT_END
 95
        8
302
GRIDFORMAT
  1
GRIDFORMAT_BEGIN
 90
        0
 91
        1
 62
     0
 92
       -2
340
0
 93
        0
 40
0.045
309
GRIDFORMAT_END
 95
       16
302
GRIDFORMAT
  1
GRIDFORMAT_BEGIN
 90
        0
 91
        1
 62
     0
 92
       -2
340
0
 93
        0
 40
0.045
309
GRIDFORMAT_END
 95
       32
302
GRIDFORMAT
  1
GRIDFORMAT_BEGIN
 90
        0
 91
        1
 62
     0
 92
       -2
340
0
 93
        0
 40
0.045
309
GRIDFORMAT_END
309
TABLEFORMAT_END
  1
CELLSTYLE_BEGIN
 90
        2
 91
        1
300
_HEADER
309
CELLSTYLE_END
300
CELLSTYLE
  1
TABLEFORMAT_BEGIN
 90
        5
170
     1
 91
        0
 92
        0
 62
   257
 93
        1
300
CONTENTFORMAT
  1
CONTENTFORMAT_BEGIN
 90
        0
 91
        0
 92
        4
 93
        0
300

 40
0.0
140
1.0
 94
        2
 62
     0
340
21
144
0.18
309
CONTENTFORMAT_END
171
     0
 94
        6
 95
        1
302
GRIDFORMAT
  1
GRIDFORMAT_BEGIN
 90
        0
 91
        1
 62
     0
 92
       -2
340
0
 93
        0
 40
0.045
309
GRIDFORMAT_END
 95
        2
302
GRIDFORMAT
  1
GRIDFORMAT_BEGIN
 90
        0
 91
        1
 62
     0
 92
       -2
340
0
 93
        0
 40
0.045
309
GRIDFORMAT_END
 95
        4
302
GRIDFORMAT
  1
GRIDFORMAT_BEGIN
 90
        0
 91
        1
 62
     0
 92
       -2
340
0
 93
        0
 40
0.045
309
GRIDFORMAT_END
 95
        8
302
GRIDFORMAT
  1
GRIDFORMAT_BEGIN
 90
        0
 91
        1
 62
     0
 92
       -2
340
0
 93
        0
 40
0.045
309
GRIDFORMAT_END
 95
       16
302
GRIDFORMAT
  1
GRIDFORMAT_BEGIN
 90
        0
 91
        1
 62
     0
 92
       -2
340
0
 93
        0
 40
0.045
309
GRIDFORMAT_END
 95
       32
302
GRIDFORMAT
  1
GRIDFORMAT_BEGIN
 90
        0
 91
        1
 62
     0
 92
       -2
340
0
 93
        0
 40
0.045
309
GRIDFORMAT_END
309
TABLEFORMAT_END
  1
CELLSTYLE_BEGIN
 90
        3
 91
        2
300
_DATA
309
CELLSTYLE_END
  0
XRECORD
  5
334F
102
{ACAD_REACTORS
330
5B
102
}
330
5B
100
AcDbXrecord
280
     1
102
ACAD_ROUNDTRIP_PRE2007_TABLESTYLE
 90
        4
 91
        0
  1

 92
        4
 93
        0
  2

 94
        4
 95
        0
  3

  0
ENDSEC
  0
EOF
