  0
SECTION
  2
HEADER
  9
$ACADVER
  1
AC1015
  9
$ACADMAINTVER
 70
    20
  9
$DWGCODEPAGE
  3
ANSI_1250
  9
$INSBASE
 10
9677.351579171606
 20
1189.596440029025
 30
0.0000000000031697
  9
$EXTMIN
 10
67217.23912229744
 20
-12830.83167067901
 30
-0.0015258207003583
  9
$EXTMAX
 10
77422.77586827148
 20
1190.024042212615
 30
0.0000000349246037
  9
$LIMMIN
 10
0.0
 20
0.0
  9
$LIMMAX
 10
12.0
 20
9.0
  9
$ORTHOMODE
 70
     1
  9
$REGENMODE
 70
     1
  9
$FILLMODE
 70
     1
  9
$QTEXTMODE
 70
     0
  9
$MIRRTEXT
 70
     0
  9
$LTSCALE
 40
75.0
  9
$ATTMODE
 70
     1
  9
$TEXTSIZE
 40
0.2
  9
$TRACEWID
 40
40.0
  9
$TEXTSTYLE
  7
STANDARD
  9
$CLAYER
  8
0Wymiary-PL
  9
$CELTYPE
  6
BYLAYER
  9
$CECOLOR
 62
   256
  9
$CELTSCALE
 40
4.0
  9
$DISPSILH
 70
     0
  9
$DIMSCALE
 40
1.0
  9
$DIMASZ
 40
30.0
  9
$DIMEXO
 40
43.0
  9
$DIMDLI
 40
0.0
  9
$DIMRND
 40
0.5
  9
$DIMDLE
 40
12.0
  9
$DIMEXE
 40
13.0
  9
$DIMTP
 40
0.0
  9
$DIMTM
 40
0.0
  9
$DIMTXT
 40
80.0
  9
$DIMCEN
 40
0.0
  9
$DIMTSZ
 40
0.0
  9
$DIMTOL
 70
     0
  9
$DIMLIM
 70
     0
  9
$DIMTIH
 70
     0
  9
$DIMTOH
 70
     0
  9
$DIMSE1
 70
     1
  9
$DIMSE2
 70
     1
  9
$DIMTAD
 70
     0
  9
$DIMZIN
 70
    12
  9
$DIMBLK
  1
B-DIM
  9
$DIMASO
 70
     1
  9
$DIMSHO
 70
     1
  9
$DIMPOST
  1

  9
$DIMAPOST
  1

  9
$DIMALT
 70
     0
  9
$DIMALTD
 70
     2
  9
$DIMALTF
 40
25.4
  9
$DIMLFAC
 40
1.0
  9
$DIMTOFL
 70
     1
  9
$DIMTVP
 40
1.0
  9
$DIMTIX
 70
     1
  9
$DIMSOXD
 70
     0
  9
$DIMSAH
 70
     0
  9
$DIMBLK1
  1

  9
$DIMBLK2
  1

  9
$DIMSTYLE
  2
500
  9
$DIMCLRD
 70
     1
  9
$DIMCLRE
 70
     1
  9
$DIMCLRT
 70
   140
  9
$DIMTFAC
 40
1.0
  9
$DIMGAP
 40
0.0
  9
$DIMJUST
 70
     0
  9
$DIMSD1
 70
     0
  9
$DIMSD2
 70
     0
  9
$DIMTOLJ
 70
     1
  9
$DIMTZIN
 70
     0
  9
$DIMALTZ
 70
     0
  9
$DIMALTTZ
 70
     0
  9
$DIMUPT
 70
     0
  9
$DIMDEC
 70
     1
  9
$DIMTDEC
 70
     1
  9
$DIMALTU
 70
     2
  9
$DIMALTTD
 70
     2
  9
$DIMTXSTY
  7
ROMANS
  9
$DIMAUNIT
 70
     0
  9
$DIMADEC
 70
     0
  9
$DIMALTRND
 40
0.0
  9
$DIMAZIN
 70
     0
  9
$DIMDSEP
 70
    46
  9
$DIMATFIT
 70
     3
  9
$DIMFRAC
 70
     0
  9
$DIMLDRBLK
  1
B-DIM
  9
$DIMLUNIT
 70
     2
  9
$DIMLWD
 70
    -2
  9
$DIMLWE
 70
    -2
  9
$DIMTMOVE
 70
     2
  9
$LUNITS
 70
     2
  9
$LUPREC
 70
     2
  9
$SKETCHINC
 40
0.1
  9
$FILLETRAD
 40
0.0
  9
$AUNITS
 70
     0
  9
$AUPREC
 70
     1
  9
$MENU
  1
acad
  9
$ELEVATION
 40
0.0
  9
$PELEVATION
 40
0.0
  9
$THICKNESS
 40
0.0
  9
$LIMCHECK
 70
     0
  9
$CHAMFERA
 40
30.0
  9
$CHAMFERB
 40
30.0
  9
$CHAMFERC
 40
0.0
  9
$CHAMFERD
 40
0.0
  9
$SKPOLY
 70
     0
  9
$TDCREATE
 40
2450817.525937848
  9
$TDUCREATE
 40
2450817.442604514
  9
$TDUPDATE
 40
2454970.504203739
  9
$TDUUPDATE
 40
2454970.420870405
  9
$TDINDWG
 40
21.7423268171
  9
$TDUSRTIMER
 40
21.7423268171
  9
$USRTIMER
 70
     1
  9
$ANGBASE
 50
0.0
  9
$ANGDIR
 70
     0
  9
$PDMODE
 70
     3
  9
$PDSIZE
 40
10.0
  9
$PLINEWID
 40
60.0
  9
$SPLFRAME
 70
     0
  9
$SPLINETYPE
 70
     6
  9
$SPLINESEGS
 70
     8
  9
$HANDSEED
  5
20C2
  9
$SURFTAB1
 70
     6
  9
$SURFTAB2
 70
     6
  9
$SURFTYPE
 70
     6
  9
$SURFU
 70
     6
  9
$SURFV
 70
     6
  9
$UCSBASE
  2

  9
$UCSNAME
  2

  9
$UCSORG
 10
0.0
 20
0.0
 30
0.0
  9
$UCSXDIR
 10
1.0
 20
0.0
 30
0.0
  9
$UCSYDIR
 10
0.0
 20
1.0
 30
0.0
  9
$UCSORTHOREF
  2

  9
$UCSORTHOVIEW
 70
     0
  9
$UCSORGTOP
 10
0.0
 20
0.0
 30
0.0
  9
$UCSORGBOTTOM
 10
0.0
 20
0.0
 30
0.0
  9
$UCSORGLEFT
 10
0.0
 20
0.0
 30
0.0
  9
$UCSORGRIGHT
 10
0.0
 20
0.0
 30
0.0
  9
$UCSORGFRONT
 10
0.0
 20
0.0
 30
0.0
  9
$UCSORGBACK
 10
0.0
 20
0.0
 30
0.0
  9
$PUCSBASE
  2

  9
$PUCSNAME
  2

  9
$PUCSORG
 10
0.0
 20
0.0
 30
0.0
  9
$PUCSXDIR
 10
1.0
 20
0.0
 30
0.0
  9
$PUCSYDIR
 10
0.0
 20
1.0
 30
0.0
  9
$PUCSORTHOREF
  2

  9
$PUCSORTHOVIEW
 70
     0
  9
$PUCSORGTOP
 10
0.0
 20
0.0
 30
0.0
  9
$PUCSORGBOTTOM
 10
0.0
 20
0.0
 30
0.0
  9
$PUCSORGLEFT
 10
0.0
 20
0.0
 30
0.0
  9
$PUCSORGRIGHT
 10
0.0
 20
0.0
 30
0.0
  9
$PUCSORGFRONT
 10
0.0
 20
0.0
 30
0.0
  9
$PUCSORGBACK
 10
0.0
 20
0.0
 30
0.0
  9
$USERI1
 70
     0
  9
$USERI2
 70
     0
  9
$USERI3
 70
     0
  9
$USERI4
 70
     0
  9
$USERI5
 70
     0
  9
$USERR1
 40
0.0
  9
$USERR2
 40
0.0
  9
$USERR3
 40
0.0
  9
$USERR4
 40
0.0
  9
$USERR5
 40
0.0
  9
$WORLDVIEW
 70
     1
  9
$SHADEDGE
 70
     3
  9
$SHADEDIF
 70
    70
  9
$TILEMODE
 70
     1
  9
$MAXACTVP
 70
    16
  9
$PINSBASE
 10
0.0
 20
0.0
 30
0.0
  9
$PLIMCHECK
 70
     0
  9
$PEXTMIN
 10
0.0
 20
0.0
 30
0.0
  9
$PEXTMAX
 10
0.0
 20
0.0
 30
0.0
  9
$PLIMMIN
 10
0.0
 20
0.0
  9
$PLIMMAX
 10
12.0
 20
9.0
  9
$UNITMODE
 70
     0
  9
$VISRETAIN
 70
     0
  9
$PLINEGEN
 70
     0
  9
$PSLTSCALE
 70
     1
  9
$TREEDEPTH
 70
  3020
  9
$CMLSTYLE
  2
STANDARD
  9
$CMLJUST
 70
     0
  9
$CMLSCALE
 40
1.0
  9
$PROXYGRAPHICS
 70
     1
  9
$MEASUREMENT
 70
     0
  9
$CELWEIGHT
370
    -1
  9
$ENDCAPS
280
     0
  9
$JOINSTYLE
280
     0
  9
$LWDISPLAY
290
     0
  9
$INSUNITS
 70
     0
  9
$HYPERLINKBASE
  1

  9
$STYLESHEET
  1
monochrome_140.ctb
  9
$XEDIT
290
     1
  9
$CEPSNTYPE
380
     0
  9
$PSTYLEMODE
290
     1
  9
$FINGERPRINTGUID
  2
{2D5E65A9-1F91-4A53-BA94-481E1C74241D}
  9
$VERSIONGUID
  2
{733B40D1-605D-48AE-AABB-B5324B3E4011}
  9
$EXTNAMES
290
     1
  9
$PSVPSCALE
 40
0.0
  9
$OLESTARTUP
290
     0
  0
ENDSEC
  0
SECTION
  2
CLASSES
  0
CLASS
  1
DICTIONARYVAR
  2
AcDbDictionaryVar
  3
ObjectDBX Classes
 90
        0
280
     0
281
     0
  0
CLASS
  1
ACDBDICTIONARYWDFLT
  2
AcDbDictionaryWithDefault
  3
ObjectDBX Classes
 90
        0
280
     0
281
     0
  0
CLASS
  1
ACDBPLACEHOLDER
  2
AcDbPlaceHolder
  3
ObjectDBX Classes
 90
        0
280
     0
281
     0
  0
CLASS
  1
LAYOUT
  2
AcDbLayout
  3
ObjectDBX Classes
 90
        0
280
     0
281
     0
  0
CLASS
  1
AEC_VARS_DWG_SETUP
  2
AecDbVarsDwgSetup
  3
AecBase50|Product Desc: Autodesk Architectural Desktop 2007 |Company: Autodesk,Inc. |WEB Address: www.autodesk.com
 90
    32897
280
     0
281
     0
  0
CLASS
  1
AEC_DISP_REP_CONFIG
  2
AecDbDispRepConfig
  3
AecBase50|Product Desc: Autodesk Architectural Desktop 2007 |Company: Autodesk,Inc. |WEB Address: www.autodesk.com
 90
    32897
280
     0
281
     0
  0
CLASS
  1
AEC_DISP_REP_SET
  2
AecDbDispRepSet
  3
AecBase50|Product Desc: Autodesk Architectural Desktop 2007 |Company: Autodesk,Inc. |WEB Address: www.autodesk.com
 90
    32897
280
     0
281
     0
  0
CLASS
  1
AEC_DISP_REP_2D_SECTION
  2
AecDbDispRep2dSection
  3
AecBase50|Product Desc: Autodesk Architectural Desktop 2007 |Company: Autodesk,Inc. |WEB Address: www.autodesk.com
 90
    32897
280
     0
281
     0
  0
CLASS
  1
AEC_DISP_REP_ANCHOR_BUB_TO_GRID
  2
AecDbDispRepAnchorBubToGrid
  3
AecStructureBase50|Product Desc: Autodesk Architectural Desktop 2007 |Company: Autodesk,Inc. |WEB Address: www.autodesk.com
 90
    32897
280
     0
281
     0
  0
CLASS
  1
AEC_DISP_REP_ANCHOR_BUB_TO_GRID_MODEL
  2
AecDbDispRepAnchorBubToGridMdl
  3
AecStructureBase50|Product Desc: Autodesk Architectural Desktop 2007 |Company: Autodesk,Inc. |WEB Address: www.autodesk.com
 90
    32897
280
     0
281
     0
  0
CLASS
  1
AEC_DISP_REP_ANCHOR_ENT_TO_NODE
  2
AecDbDispRepAnchorEntToNode
  3
AecBase50|Product Desc: Autodesk Architectural Desktop 2007 |Company: Autodesk,Inc. |WEB Address: www.autodesk.com
 90
    32897
280
     0
281
     0
  0
CLASS
  1
AEC_DISP_REP_ANCHOR_TAG_TO_ENT
  2
AecDbDispRepAnchorTagToEnt
  3
AecScheduleData50|Product Desc: Autodesk Architectural Desktop 2007 |Company: Autodesk,Inc. |WEB Address: www.autodesk.com
 90
    32897
280
     0
281
     0
  0
CLASS
  1
AEC_DISP_REP_AREA
  2
AecDbDispRepArea
  3
AecAreaCalculationBase50|Product Desc: Autodesk Architectural Desktop 2007 |Company: Autodesk,Inc. |WEB Address: www.autodesk.com
 90
    32897
280
     0
281
     0
  0
CLASS
  1
AEC_DISP_REP_AREA_DECOMPOSED
  2
AecDbDispRepAreaDecomposed
  3
AecAreaCalculationBase50|Product Desc: Autodesk Architectural Desktop 2007 |Company: Autodesk,Inc. |WEB Address: www.autodesk.com
 90
    32897
280
     0
281
     0
  0
CLASS
  1
AEC_DISP_REP_AREAGROUP
  2
AecDbDispRepAreaGroup
  3
AecAreaCalculationBase50|Product Desc: Autodesk Architectural Desktop 2007 |Company: Autodesk,Inc. |WEB Address: www.autodesk.com
 90
    32897
280
     0
281
     0
  0
CLASS
  1
AEC_DISP_REP_BDG_ELEVLINE_MODEL
  2
AecDbDispRepBdgElevLineModel
  3
AecArchBase50|Product Desc: Autodesk Architectural Desktop 2007 |Company: Autodesk,Inc. |WEB Address: www.autodesk.com
 90
    32897
280
     0
281
     0
  0
CLASS
  1
AEC_DISP_REP_BDG_SECTIONLINE_PLAN
  2
AecDbDispRepBdgElevLinePlan
  3
AecArchBase50|Product Desc: Autodesk Architectural Desktop 2007 |Company: Autodesk,Inc. |WEB Address: www.autodesk.com
 90
    32897
280
     0
281
     0
  0
CLASS
  1
AEC_DISP_REP_BDG_SECTIONLINE_MODEL
  2
AecDbDispRepBdgSectionLineModel
  3
AecArchBase50|Product Desc: Autodesk Architectural Desktop 2007 |Company: Autodesk,Inc. |WEB Address: www.autodesk.com
 90
    32897
280
     0
281
     0
  0
CLASS
  1
AEC_DISP_REP_BDG_SECTIONLINE_PLAN
  2
AecDbDispRepBdgSectionLinePlan
  3
AecArchBase50|Product Desc: Autodesk Architectural Desktop 2007 |Company: Autodesk,Inc. |WEB Address: www.autodesk.com
 90
    32897
280
     0
281
     0
  0
CLASS
  1
AEC_DISP_REP_BDG_SECTION_SUBDIV
  2
AecDbDispRepBdgSectionSubDiv
  3
AecArchBase50|Product Desc: Autodesk Architectural Desktop 2007 |Company: Autodesk,Inc. |WEB Address: www.autodesk.com
 90
    32897
280
     0
281
     0
  0
CLASS
  1
AEC_DISP_REP_CAMERA
  2
AecDbDispRepCamera
  3
AecBase50|Product Desc: Autodesk Architectural Desktop 2007 |Company: Autodesk,Inc. |WEB Address: www.autodesk.com
 90
    32897
280
     0
281
     0
  0
CLASS
  1
AEC_DISP_REP_CEILING_GRID
  2
AecDbDispRepCeilingGrid
  3
AecArchBase50|Product Desc: Autodesk Architectural Desktop 2007 |Company: Autodesk,Inc. |WEB Address: www.autodesk.com
 90
    33661
280
     0
281
     0
  0
CLASS
  1
AEC_DISP_REP_CEILING_GRID_MODEL
  2
AecDbDispRepCeilingGridModel
  3
AecArchBase50|Product Desc: Autodesk Architectural Desktop 2007 |Company: Autodesk,Inc. |WEB Address: www.autodesk.com
 90
    32897
280
     0
281
     0
  0
CLASS
  1
AEC_DISP_REP_CEILING_GRID_RCP
  2
AecDbDispRepCeilingGridRcp
  3
AecArchBase50|Product Desc: Autodesk Architectural Desktop 2007 |Company: Autodesk,Inc. |WEB Address: www.autodesk.com
 90
    32897
280
     0
281
     0
  0
CLASS
  1
AEC_DISP_REP_CLIP_VOLUME_MODEL
  2
AecDbDispRepClipVolModel
  3
AecBase50|Product Desc: Autodesk Architectural Desktop 2007 |Company: Autodesk,Inc. |WEB Address: www.autodesk.com
 90
    32897
280
     0
281
     0
  0
CLASS
  1
AEC_DISP_REP_CLIP_VOLUME_PLAN
  2
AecDbDispRepClipVolPlan
  3
AecBase50|Product Desc: Autodesk Architectural Desktop 2007 |Company: Autodesk,Inc. |WEB Address: www.autodesk.com
 90
    32897
280
     0
281
     0
  0
CLASS
  1
AEC_DISP_REP_CLIP_VOLUME_RESULT_SUBDIV
  2
AecDbDispRepClipVolResSubDiv
  3
AecBase50|Product Desc: Autodesk Architectural Desktop 2007 |Company: Autodesk,Inc. |WEB Address: www.autodesk.com
 90
    32897
280
     0
281
     0
  0
CLASS
  1
AEC_DISP_REP_CLIP_VOLUME_RESULT
  2
AecDbDispRepClipVolResult
  3
AecBase50|Product Desc: Autodesk Architectural Desktop 2007 |Company: Autodesk,Inc. |WEB Address: www.autodesk.com
 90
    32897
280
     0
281
     0
  0
CLASS
  1
AEC_DISP_REP_COLUMN_GRID
  2
AecDbDispRepColumnGrid
  3
AecStructureBase50|Product Desc: Autodesk Architectural Desktop 2007 |Company: Autodesk,Inc. |WEB Address: www.autodesk.com
 90
    32897
280
     0
281
     0
  0
CLASS
  1
AEC_DISP_REP_COLUMN_GRID_MODEL
  2
AecDbDispRepColumnGridModel
  3
AecStructureBase50|Product Desc: Autodesk Architectural Desktop 2007 |Company: Autodesk,Inc. |WEB Address: www.autodesk.com
 90
    32897
280
     0
281
     0
  0
CLASS
  1
AEC_DISP_REP_CURTAIN_WALL_LAYOUT_MODEL
  2
AecDbDispRepCurtainWallLayoutModel
  3
AecArchBase50|Product Desc: Autodesk Architectural Desktop 2007 |Company: Autodesk,Inc. |WEB Address: www.autodesk.com
 90
    32897
280
     0
281
     0
  0
CLASS
  1
AEC_DISP_REP_CURTAIN_WALL_LAYOUT_PLAN
  2
AecDbDispRepCurtainWallLayoutPlan
  3
AecArchBase50|Product Desc: Autodesk Architectural Desktop 2007 |Company: Autodesk,Inc. |WEB Address: www.autodesk.com
 90
    32897
280
     0
281
     0
  0
CLASS
  1
AEC_DISP_REP_CURTAIN_WALL_UNIT_MODEL
  2
AecDbDispRepCurtainWallUnitModel
  3
AecArchBase50|Product Desc: Autodesk Architectural Desktop 2007 |Company: Autodesk,Inc. |WEB Address: www.autodesk.com
 90
    32897
280
     0
281
     0
  0
CLASS
  1
AEC_DISP_REP_CURTAIN_WALL_UNIT_PLAN
  2
AecDbDispRepCurtainWallUnitPlan
  3
AecArchBase50|Product Desc: Autodesk Architectural Desktop 2007 |Company: Autodesk,Inc. |WEB Address: www.autodesk.com
 90
    32897
280
     0
281
     0
  0
CLASS
  1
AEC_DB_DISP_REP_DIM_GROUP_PLAN
  2
AecDbDispRepDimGroupPlan
  3
AecArchDACHBase50|Product Desc: Autodesk Architectural Desktop 2007 |Company: Autodesk,Inc. |WEB Address: www.autodesk.com
 90
    32897
280
     0
281
     0
  0
CLASS
  1
AEC_DISP_REP_DOOR_MODEL
  2
AecDbDispRepDoorModel
  3
AecArchBase50|Product Desc: Autodesk Architectural Desktop 2007 |Company: Autodesk,Inc. |WEB Address: www.autodesk.com
 90
    32897
280
     0
281
     0
  0
CLASS
  1
AEC_DISP_REP_DOOR_NOMINAL
  2
AecDbDispRepDoorNominal
  3
AecArchBase50|Product Desc: Autodesk Architectural Desktop 2007 |Company: Autodesk,Inc. |WEB Address: www.autodesk.com
 90
    32897
280
     0
281
     0
  0
CLASS
  1
AEC_DISP_REP_DOOR_PLAN
  2
AecDbDispRepDoorPlan
  3
AecArchBase50|Product Desc: Autodesk Architectural Desktop 2007 |Company: Autodesk,Inc. |WEB Address: www.autodesk.com
 90
    32897
280
     0
281
     0
  0
CLASS
  1
AEC_DISP_REP_EDITINPLACEPROFILE
  2
AecDbDispRepEditInPlaceProfile
  3
AecBase50|Product Desc: Autodesk Architectural Desktop 2007 |Company: Autodesk,Inc. |WEB Address: www.autodesk.com
 90
    32897
280
     0
281
     0
  0
CLASS
  1
AEC_DISP_REP_ENT_REF
  2
AecDbDispRepEntRef
  3
AecBase50|Product Desc: Autodesk Architectural Desktop 2007 |Company: Autodesk,Inc. |WEB Address: www.autodesk.com
 90
    32897
280
     0
281
     0
  0
CLASS
  1
AEC_DISP_REP_LAYOUT_CURVE
  2
AecDbDispRepLayoutCurve
  3
AecBase50|Product Desc: Autodesk Architectural Desktop 2007 |Company: Autodesk,Inc. |WEB Address: www.autodesk.com
 90
    32897
280
     0
281
     0
  0
CLASS
  1
AEC_DISP_REP_LAYOUT_GRID2D
  2
AecDbDispRepLayoutGrid2d
  3
AecBase50|Product Desc: Autodesk Architectural Desktop 2007 |Company: Autodesk,Inc. |WEB Address: www.autodesk.com
 90
    32897
280
     0
281
     0
  0
CLASS
  1
AEC_DISP_REP_LAYOUT_GRID3D
  2
AecDbDispRepLayoutGrid3d
  3
AecBase50|Product Desc: Autodesk Architectural Desktop 2007 |Company: Autodesk,Inc. |WEB Address: www.autodesk.com
 90
    32897
280
     0
281
     0
  0
CLASS
  1
AEC_DISP_REP_MASKBLOCK_REF
  2
AecDbDispRepMaskBlockRef
  3
AecBase50|Product Desc: Autodesk Architectural Desktop 2007 |Company: Autodesk,Inc. |WEB Address: www.autodesk.com
 90
    32897
280
     0
281
     0
  0
CLASS
  1
AEC_DISP_REP_MASKBLOCK_REF_RCP
  2
AecDbDispRepMaskBlockRefRcp
  3
AecArchBase50|Product Desc: Autodesk Architectural Desktop 2007 |Company: Autodesk,Inc. |WEB Address: www.autodesk.com
 90
    32897
280
     0
281
     0
  0
CLASS
  1
AEC_DISP_REP_MASS_ELEM_MODEL
  2
AecDbDispRepMassElemModel
  3
AecBaseEx50|Product Desc: Autodesk Architectural Desktop 2007 |Company: Autodesk,Inc. |WEB Address: www.autodesk.com
 90
    32897
280
     0
281
     0
  0
CLASS
  1
AEC_DISP_REP_MASS_ELEM_SCHEM
  2
AecDbDispRepMassElemSchem
  3
AecBaseEx50|Product Desc: Autodesk Architectural Desktop 2007 |Company: Autodesk,Inc. |WEB Address: www.autodesk.com
 90
    32897
280
     0
281
     0
  0
CLASS
  1
AEC_DISP_REP_MASS_GROUP_MODEL
  2
AecDbDispRepMassGroupModel
  3
AecBaseEx50|Product Desc: Autodesk Architectural Desktop 2007 |Company: Autodesk,Inc. |WEB Address: www.autodesk.com
 90
    32897
280
     0
281
     0
  0
CLASS
  1
AEC_DISP_REP_MASS_GROUP_PLAN
  2
AecDbDispRepMassGroupPlan
  3
AecBaseEx50|Product Desc: Autodesk Architectural Desktop 2007 |Company: Autodesk,Inc. |WEB Address: www.autodesk.com
 90
    32897
280
     0
281
     0
  0
CLASS
  1
AEC_DISP_REP_MATERIAL
  2
AecDbDispRepMaterial
  3
AecBase50|Product Desc: Autodesk Architectural Desktop 2007 |Company: Autodesk,Inc. |WEB Address: www.autodesk.com
 90
    32897
280
     0
281
     0
  0
CLASS
  1
AEC_DISP_REP_MVBLOCK_REF
  2
AecDbDispRepMvBlockRef
  3
AecBase50|Product Desc: Autodesk Architectural Desktop 2007 |Company: Autodesk,Inc. |WEB Address: www.autodesk.com
 90
    32897
280
     0
281
     0
  0
CLASS
  1
AEC_DISP_REP_MVBLOCK_REF_MODEL
  2
AecDbDispRepMvBlockRefModel
  3
AecBase50|Product Desc: Autodesk Architectural Desktop 2007 |Company: Autodesk,Inc. |WEB Address: www.autodesk.com
 90
    32897
280
     0
281
     0
  0
CLASS
  1
AEC_DISP_REP_OPENING
  2
AecDbDispRepOpening
  3
AecArchBase50|Product Desc: Autodesk Architectural Desktop 2007 |Company: Autodesk,Inc. |WEB Address: www.autodesk.com
 90
    32897
280
     0
281
     0
  0
CLASS
  1
AEC_DISP_REP_OPENING_MODEL
  2
AecDbDispRepOpeningModel
  3
AecArchBase50|Product Desc: Autodesk Architectural Desktop 2007 |Company: Autodesk,Inc. |WEB Address: www.autodesk.com
 90
    32897
280
     0
281
     0
  0
CLASS
  1
AEC_DISP_REP_POLYGON_MODEL
  2
AecDbDispRepPolygonModel
  3
AecBase50|Product Desc: Autodesk Architectural Desktop 2007 |Company: Autodesk,Inc. |WEB Address: www.autodesk.com
 90
    32897
280
     0
281
     0
  0
CLASS
  1
AEC_DISP_REP_RAILING_MODEL
  2
AecDbDispRepRailingModel
  3
AecArchBase50|Product Desc: Autodesk Architectural Desktop 2007 |Company: Autodesk,Inc. |WEB Address: www.autodesk.com
 90
    32897
280
     0
281
     0
  0
CLASS
  1
AEC_DISP_REP_RAILING_PLAN
  2
AecDbDispRepRailingPlan
  3
AecArchBase50|Product Desc: Autodesk Architectural Desktop 2007 |Company: Autodesk,Inc. |WEB Address: www.autodesk.com
 90
    32897
280
     0
281
     0
  0
CLASS
  1
AEC_DISP_REP_ROOF_MODEL
  2
AecDbDispRepRoofModel
  3
AecArchBase50|Product Desc: Autodesk Architectural Desktop 2007 |Company: Autodesk,Inc. |WEB Address: www.autodesk.com
 90
    32897
280
     0
281
     0
  0
CLASS
  1
AEC_DISP_REP_ROOF_PLAN
  2
AecDbDispRepRoofPlan
  3
AecArchBase50|Product Desc: Autodesk Architectural Desktop 2007 |Company: Autodesk,Inc. |WEB Address: www.autodesk.com
 90
    32897
280
     0
281
     0
  0
CLASS
  1
AEC_DISP_REP_ROOFSLAB_MODEL
  2
AecDbDispRepRoofSlabModel
  3
AecArchBase50|Product Desc: Autodesk Architectural Desktop 2007 |Company: Autodesk,Inc. |WEB Address: www.autodesk.com
 90
    32897
280
     0
281
     0
  0
CLASS
  1
AEC_DISP_REP_ROOFSLAB_PLAN
  2
AecDbDispRepRoofSlabPlan
  3
AecArchBase50|Product Desc: Autodesk Architectural Desktop 2007 |Company: Autodesk,Inc. |WEB Address: www.autodesk.com
 90
    32897
280
     0
281
     0
  0
CLASS
  1
AEC_DISP_REP_SCHEDULE_TABLE
  2
AecDbDispRepScheduleTable
  3
AecSchedule50|Product Desc: Autodesk Architectural Desktop 2007 |Company: Autodesk,Inc. |WEB Address: www.autodesk.com
 90
    32897
280
     0
281
     0
  0
CLASS
  1
AEC_DISP_REP_SLAB_MODEL
  2
AecDbDispRepSlabModel
  3
AecArchBase50|Product Desc: Autodesk Architectural Desktop 2007 |Company: Autodesk,Inc. |WEB Address: www.autodesk.com
 90
    32897
280
     0
281
     0
  0
CLASS
  1
AEC_DISP_REP_SLAB_PLAN
  2
AecDbDispRepSlabPlan
  3
AecArchBase50|Product Desc: Autodesk Architectural Desktop 2007 |Company: Autodesk,Inc. |WEB Address: www.autodesk.com
 90
    32897
280
     0
281
     0
  0
CLASS
  1
AEC_DISP_REP_SLICE
  2
AecDbDispRepSlice
  3
AecBase50|Product Desc: Autodesk Architectural Desktop 2007 |Company: Autodesk,Inc. |WEB Address: www.autodesk.com
 90
    32897
280
     0
281
     0
  0
CLASS
  1
AEC_DISP_REP_SPACE_BOUNDARY_MODEL
  2
AecDbDispRepSpaceBoundaryModel
  3
AecArchBase50|Product Desc: Autodesk Architectural Desktop 2007 |Company: Autodesk,Inc. |WEB Address: www.autodesk.com
 90
    32897
280
     0
281
     0
  0
CLASS
  1
AEC_DISP_REP_SPACE_BOUNDARY_PLAN
  2
AecDbDispRepSpaceBoundaryPlan
  3
AecArchBase50|Product Desc: Autodesk Architectural Desktop 2007 |Company: Autodesk,Inc. |WEB Address: www.autodesk.com
 90
    32897
280
     0
281
     0
  0
CLASS
  1
AEC_DISP_REP_SPACE_BOUNDARY_SCHEM
  2
AecDbDispRepSpaceBoundarySketch
  3
AecArchBase50|Product Desc: Autodesk Architectural Desktop 2007 |Company: Autodesk,Inc. |WEB Address: www.autodesk.com
 90
    32897
280
     0
281
     0
  0
CLASS
  1
AEC_DISP_REP_SPACE_MODEL
  2
AecDbDispRepSpaceModel
  3
AecArchBase50|Product Desc: Autodesk Architectural Desktop 2007 |Company: Autodesk,Inc. |WEB Address: www.autodesk.com
 90
    32897
280
     0
281
     0
  0
CLASS
  1
AEC_DISP_REP_SPACE_PLAN
  2
AecDbDispRepSpacePlan
  3
AecArchBase50|Product Desc: Autodesk Architectural Desktop 2007 |Company: Autodesk,Inc. |WEB Address: www.autodesk.com
 90
    32897
280
     0
281
     0
  0
CLASS
  1
AEC_DISP_REP_STAIR_MODEL
  2
AecDbDispRepStairModel
  3
AecArchBase50|Product Desc: Autodesk Architectural Desktop 2007 |Company: Autodesk,Inc. |WEB Address: www.autodesk.com
 90
    32897
280
     0
281
     0
  0
CLASS
  1
AEC_DISP_REP_STAIR_PLAN
  2
AecDbDispRepStairPlan
  3
AecArchBase50|Product Desc: Autodesk Architectural Desktop 2007 |Company: Autodesk,Inc. |WEB Address: www.autodesk.com
 90
    32897
280
     0
281
     0
  0
CLASS
  1
AEC_DISP_REP_WALL_GRAPH
  2
AecDbDispRepWallGraph
  3
AecArchBase50|Product Desc: Autodesk Architectural Desktop 2007 |Company: Autodesk,Inc. |WEB Address: www.autodesk.com
 90
    32897
280
     0
281
     0
  0
CLASS
  1
AEC_DISP_REP_WALL_MODEL
  2
AecDbDispRepWallModel
  3
AecArchBase50|Product Desc: Autodesk Architectural Desktop 2007 |Company: Autodesk,Inc. |WEB Address: www.autodesk.com
 90
    32897
280
     0
281
     0
  0
CLASS
  1
AEC_DISP_REP_WALL_PLAN
  2
AecDbDispRepWallPlan
  3
AecArchBase50|Product Desc: Autodesk Architectural Desktop 2007 |Company: Autodesk,Inc. |WEB Address: www.autodesk.com
 90
    32897
280
     0
281
     0
  0
CLASS
  1
AEC_DISP_REP_WALL_SCHEM
  2
AecDbDispRepWallSchem
  3
AecArchBase50|Product Desc: Autodesk Architectural Desktop 2007 |Company: Autodesk,Inc. |WEB Address: www.autodesk.com
 90
    32897
280
     0
281
     0
  0
CLASS
  1
AEC_DISP_REP_WINDOW_ASSEMBLY_MODEL
  2
AecDbDispRepWindowAssemblyModel
  3
AecArchBase50|Product Desc: Autodesk Architectural Desktop 2007 |Company: Autodesk,Inc. |WEB Address: www.autodesk.com
 90
    32897
280
     0
281
     0
  0
CLASS
  1
AEC_DISP_REP_WINDOW_ASSEMBLY_PLAN
  2
AecDbDispRepWindowAssemblyPlan
  3
AecArchBase50|Product Desc: Autodesk Architectural Desktop 2007 |Company: Autodesk,Inc. |WEB Address: www.autodesk.com
 90
    32897
280
     0
281
     0
  0
CLASS
  1
AEC_AECDBDISPREPWINDOWASSEMBLYPLAN100
  2
AecDbDispRepWindowAssemblyPlan100
  3
AecArchDACHBase50|Product Desc: Autodesk Architectural Desktop 2007 |Company: Autodesk,Inc. |WEB Address: www.autodesk.com
 90
    32897
280
     0
281
     0
  0
CLASS
  1
AEC_DISP_REP_WINDOW_MODEL
  2
AecDbDispRepWindowModel
  3
AecArchBase50|Product Desc: Autodesk Architectural Desktop 2007 |Company: Autodesk,Inc. |WEB Address: www.autodesk.com
 90
    32897
280
     0
281
     0
  0
CLASS
  1
AEC_DISP_REP_WINDOW_NOMINAL
  2
AecDbDispRepWindowNominal
  3
AecArchBase50|Product Desc: Autodesk Architectural Desktop 2007 |Company: Autodesk,Inc. |WEB Address: www.autodesk.com
 90
    32897
280
     0
281
     0
  0
CLASS
  1
AEC_DISP_REP_WINDOW_PLAN
  2
AecDbDispRepWindowPlan
  3
AecArchBase50|Product Desc: Autodesk Architectural Desktop 2007 |Company: Autodesk,Inc. |WEB Address: www.autodesk.com
 90
    32897
280
     0
281
     0
  0
CLASS
  1
AECS_DISP_REP_MEMBER_LOGICAL
  2
AecsDbDispRepMemberLogical
  3
AecStructureBase50|Product Desc: Autodesk Architectural Desktop 2007 |Company: Autodesk,Inc. |WEB Address: www.autodesk.com
 90
    32897
280
     0
281
     0
  0
CLASS
  1
AECS_DISP_REP_MEMBER_MODEL_DESIGN
  2
AecsDbDispRepMemberModelDesign
  3
AecStructureBase50|Product Desc: Autodesk Architectural Desktop 2007 |Company: Autodesk,Inc. |WEB Address: www.autodesk.com
 90
    32897
280
     0
281
     0
  0
CLASS
  1
AECS_DISP_REP_MEMBER_PLAN_DESIGN
  2
AecsDbDispRepMemberPlanDesign
  3
AecStructureBase50|Product Desc: Autodesk Architectural Desktop 2007 |Company: Autodesk,Inc. |WEB Address: www.autodesk.com
 90
    32897
280
     0
281
     0
  0
CLASS
  1
AEC_DISP_PROPS_ENT
  2
AecDbDispPropsEnt
  3
AecBase50|Product Desc: Autodesk Architectural Desktop 2007 |Company: Autodesk,Inc. |WEB Address: www.autodesk.com
 90
    32897
280
     0
281
     0
  0
CLASS
  1
AEC_DISP_PROPS_CLIP_VOLUME
  2
AecDbDispPropsClipVol
  3
AecBase50|Product Desc: Autodesk Architectural Desktop 2007 |Company: Autodesk,Inc. |WEB Address: www.autodesk.com
 90
    32897
280
     0
281
     0
  0
CLASS
  1
AEC_DISP_PROPS_SLICE
  2
AecDbDispPropsSlice
  3
AecBase50|Product Desc: Autodesk Architectural Desktop 2007 |Company: Autodesk,Inc. |WEB Address: www.autodesk.com
 90
    32897
280
     0
281
     0
  0
CLASS
  1
AEC_DISP_PROPS_ROOFSLAB_PLAN
  2
AecDbDispPropsRoofSlabPlan
  3
AecArchBase50|Product Desc: Autodesk Architectural Desktop 2007 |Company: Autodesk,Inc. |WEB Address: www.autodesk.com
 90
    32897
280
     0
281
     0
  0
CLASS
  1
AEC_DISP_PROPS_GRID_ASSEMBLY_MODEL
  2
AecDbDispPropsGridAssemblyModel
  3
AecArchBase50|Product Desc: Autodesk Architectural Desktop 2007 |Company: Autodesk,Inc. |WEB Address: www.autodesk.com
 90
    32897
280
     0
281
     0
  0
CLASS
  1
AEC_DISP_PROPS_ROOF
  2
AecDbDispPropsRoof
  3
AecArchBase50|Product Desc: Autodesk Architectural Desktop 2007 |Company: Autodesk,Inc. |WEB Address: www.autodesk.com
 90
    32897
280
     0
281
     0
  0
CLASS
  1
AEC_DISP_PROPS_SPACE_MODEL
  2
AecDbDispPropsSpaceModel
  3
AecArchBase50|Product Desc: Autodesk Architectural Desktop 2007 |Company: Autodesk,Inc. |WEB Address: www.autodesk.com
 90
    32897
280
     0
281
     0
  0
CLASS
  1
AEC_DISP_PROPS_EDITINPLACEPROFILE_MODEL
  2
AecDbDispPropsEditInPlaceProfile
  3
AecBase50|Product Desc: Autodesk Architectural Desktop 2007 |Company: Autodesk,Inc. |WEB Address: www.autodesk.com
 90
    32897
280
     0
281
     0
  0
CLASS
  1
AEC_DISP_PROPS_DOOR
  2
AecDbDispPropsDoor
  3
AecArchBase50|Product Desc: Autodesk Architectural Desktop 2007 |Company: Autodesk,Inc. |WEB Address: www.autodesk.com
 90
    32897
280
     0
281
     0
  0
CLASS
  1
AEC_DISP_PROPS_MASKBLOCK
  2
AecDbDispPropsMaskBlock
  3
AecBase50|Product Desc: Autodesk Architectural Desktop 2007 |Company: Autodesk,Inc. |WEB Address: www.autodesk.com
 90
    32897
280
     0
281
     0
  0
CLASS
  1
AEC_DISP_PROPS_SPACE_PLAN
  2
AecDbDispPropsSpacePlan
  3
AecArchBase50|Product Desc: Autodesk Architectural Desktop 2007 |Company: Autodesk,Inc. |WEB Address: www.autodesk.com
 90
    32897
280
     0
281
     0
  0
CLASS
  1
AEC_DISP_PROPS_RAILING_PLAN
  2
AecDbDispPropsRailingPlan
  3
AecArchBase50|Product Desc: Autodesk Architectural Desktop 2007 |Company: Autodesk,Inc. |WEB Address: www.autodesk.com
 90
    32897
280
     0
281
     0
  0
CLASS
  1
AEC_DISP_PROPS_LAYOUT_GRID2D
  2
AecDbDispPropsLayoutGrid2d
  3
AecBase50|Product Desc: Autodesk Architectural Desktop 2007 |Company: Autodesk,Inc. |WEB Address: www.autodesk.com
 90
    32897
280
     0
281
     0
  0
CLASS
  1
AEC_DISP_PROPS_CLIP_VOLUME_RESULT
  2
AecDbDispPropsClipVolResSubDiv
  3
AecBase50|Product Desc: Autodesk Architectural Desktop 2007 |Company: Autodesk,Inc. |WEB Address: www.autodesk.com
 90
    32897
280
     0
281
     0
  0
CLASS
  1
AEC_DISP_PROPS_STAIR_MODEL
  2
AecDbDispPropsStairModel
  3
AecArchBase50|Product Desc: Autodesk Architectural Desktop 2007 |Company: Autodesk,Inc. |WEB Address: www.autodesk.com
 90
    32897
280
     0
281
     0
  0
CLASS
  1
AEC_DISP_PROPS_LAYOUT_CURVE
  2
AecDbDispPropsLayoutCurve
  3
AecBase50|Product Desc: Autodesk Architectural Desktop 2007 |Company: Autodesk,Inc. |WEB Address: www.autodesk.com
 90
    32897
280
     0
281
     0
  0
CLASS
  1
AEC_DISP_PROPS_POLYGON_MODEL
  2
AecDbDispPropsPolygonModel
  3
AecBase50|Product Desc: Autodesk Architectural Desktop 2007 |Company: Autodesk,Inc. |WEB Address: www.autodesk.com
 90
    32897
280
     0
281
     0
  0
CLASS
  1
AEC_DISP_PROPS_MASS_GROUP
  2
AecDbDispPropsMassGroup
  3
AecBaseEx50|Product Desc: Autodesk Architectural Desktop 2007 |Company: Autodesk,Inc. |WEB Address: www.autodesk.com
 90
    32897
280
     0
281
     0
  0
CLASS
  1
AEC_DISP_PROPS_STAIR_PLAN
  2
AecDbDispPropsStairPlan
  3
AecArchBase50|Product Desc: Autodesk Architectural Desktop 2007 |Company: Autodesk,Inc. |WEB Address: www.autodesk.com
 90
    32897
280
     0
281
     0
  0
CLASS
  1
AEC_DISP_PROPS_OPENING
  2
AecDbDispPropsOpening
  3
AecArchBase50|Product Desc: Autodesk Architectural Desktop 2007 |Company: Autodesk,Inc. |WEB Address: www.autodesk.com
 90
    32897
280
     0
281
     0
  0
CLASS
  1
AEC_DISP_PROPS_WALL_GRAPH
  2
AecDbDispPropsWallGraph
  3
AecArchBase50|Product Desc: Autodesk Architectural Desktop 2007 |Company: Autodesk,Inc. |WEB Address: www.autodesk.com
 90
    32897
280
     0
281
     0
  0
CLASS
  1
AEC_DISP_PROPS_DOOR_NOMINAL
  2
AecDbDispPropsDoorNominal
  3
AecArchBase50|Product Desc: Autodesk Architectural Desktop 2007 |Company: Autodesk,Inc. |WEB Address: www.autodesk.com
 90
    32897
280
     0
281
     0
  0
CLASS
  1
AEC_DISP_PROPS_SLAB
  2
AecDbDispPropsSlab
  3
AecArchBase50|Product Desc: Autodesk Architectural Desktop 2007 |Company: Autodesk,Inc. |WEB Address: www.autodesk.com
 90
    32897
280
     0
281
     0
  0
CLASS
  1
AEC_DISP_PROPS_WALL_MODEL
  2
AecDbDispPropsWallModel
  3
AecArchBase50|Product Desc: Autodesk Architectural Desktop 2007 |Company: Autodesk,Inc. |WEB Address: www.autodesk.com
 90
    32897
280
     0
281
     0
  0
CLASS
  1
AEC_DISP_PROPS_MATERIAL
  2
AecDbDispPropsMaterial
  3
AecBase50|Product Desc: Autodesk Architectural Desktop 2007 |Company: Autodesk,Inc. |WEB Address: www.autodesk.com
 90
    32897
280
     0
281
     0
  0
CLASS
  1
AEC_DISP_PROPS_WINDOW
  2
AecDbDispPropsWindow
  3
AecArchBase50|Product Desc: Autodesk Architectural Desktop 2007 |Company: Autodesk,Inc. |WEB Address: www.autodesk.com
 90
    32897
280
     0
281
     0
  0
CLASS
  1
AEC_DISP_PROPS_LAYOUT_GRID3D
  2
AecDbDispPropsLayoutGrid3d
  3
AecBase50|Product Desc: Autodesk Architectural Desktop 2007 |Company: Autodesk,Inc. |WEB Address: www.autodesk.com
 90
    32897
280
     0
281
     0
  0
CLASS
  1
AEC_DISP_PROPS_GRID_ASSEMBLY_PLAN
  2
AecDbDispPropsGridAssemblyPlan
  3
AecArchBase50|Product Desc: Autodesk Architectural Desktop 2007 |Company: Autodesk,Inc. |WEB Address: www.autodesk.com
 90
    32897
280
     0
281
     0
  0
CLASS
  1
AEC_DISP_PROPS_WALL_SCHEM
  2
AecDbDispPropsWallSchem
  3
AecArchBase50|Product Desc: Autodesk Architectural Desktop 2007 |Company: Autodesk,Inc. |WEB Address: www.autodesk.com
 90
    32897
280
     0
281
     0
  0
CLASS
  1
AEC_DISP_PROPS_WALL_PLAN
  2
AecDbDispPropsWallPlan
  3
AecArchBase50|Product Desc: Autodesk Architectural Desktop 2007 |Company: Autodesk,Inc. |WEB Address: www.autodesk.com
 90
    32897
280
     0
281
     0
  0
CLASS
  1
AEC_DISP_PROPS_SPACE_BOUNDARY
  2
AecDbDispPropsSpaceBoundary
  3
AecArchBase50|Product Desc: Autodesk Architectural Desktop 2007 |Company: Autodesk,Inc. |WEB Address: www.autodesk.com
 90
    32897
280
     0
281
     0
  0
CLASS
  1
AEC_DISP_PROPS_SLAB_PLAN
  2
AecDbDispPropsSlabPlan
  3
AecArchBase50|Product Desc: Autodesk Architectural Desktop 2007 |Company: Autodesk,Inc. |WEB Address: www.autodesk.com
 90
    32897
280
     0
281
     0
  0
CLASS
  1
AEC_DISP_PROPS_RAILING_MODEL
  2
AecDbDispPropsRailingModel
  3
AecArchBase50|Product Desc: Autodesk Architectural Desktop 2007 |Company: Autodesk,Inc. |WEB Address: www.autodesk.com
 90
    32897
280
     0
281
     0
  0
CLASS
  1
AEC_DISP_PROPS_MASS_ELEM_MODEL
  2
AecDbDispPropsMassElem
  3
AecBaseEx50|Product Desc: Autodesk Architectural Desktop 2007 |Company: Autodesk,Inc. |WEB Address: www.autodesk.com
 90
    32897
280
     0
281
     0
  0
CLASS
  1
AEC_DISP_PROPS_DIM
  2
AecDbDispPropsDimGroup
  3
AecArchDACHBase50|Product Desc: Autodesk Architectural Desktop 2007 |Company: Autodesk,Inc. |WEB Address: www.autodesk.com
 90
    32897
280
     0
281
     0
  0
CLASS
  1
AEC_DISP_PROPS_ROOFSLAB
  2
AecDbDispPropsRoofSlab
  3
AecArchBase50|Product Desc: Autodesk Architectural Desktop 2007 |Company: Autodesk,Inc. |WEB Address: www.autodesk.com
 90
    32897
280
     0
281
     0
  0
CLASS
  1
AEC_DISP_PROPS_ENT_REF
  2
AecDbDispPropsEntRef
  3
AecBase50|Product Desc: Autodesk Architectural Desktop 2007 |Company: Autodesk,Inc. |WEB Address: www.autodesk.com
 90
    32897
280
     0
281
     0
  0
CLASS
  1
AEC_DISP_PROPS_2D_SECTION
  2
AecDbDispProps2dSection
  3
AecBase50|Product Desc: Autodesk Architectural Desktop 2007 |Company: Autodesk,Inc. |WEB Address: www.autodesk.com
 90
    32897
280
     0
281
     0
  0
CLASS
  1
AECS_DISP_PROPS_MEMBER_LOGICAL
  2
AecsDbDispPropsMemberLogical
  3
AecStructureBase50|Product Desc: Autodesk Architectural Desktop 2007 |Company: Autodesk,Inc. |WEB Address: www.autodesk.com
 90
    32897
280
     0
281
     0
  0
CLASS
  1
AEC_DISP_PROPS_AREA_DECOMPOSED
  2
AecDbDispPropsAreaDecomposed
  3
AecAreaCalculationBase50|Product Desc: Autodesk Architectural Desktop 2007 |Company: Autodesk,Inc. |WEB Address: www.autodesk.com
 90
    32897
280
     0
281
     0
  0
CLASS
  1
AEC_DISP_PROPS_CAMERA
  2
AecDbDispPropsCamera
  3
AecBase50|Product Desc: Autodesk Architectural Desktop 2007 |Company: Autodesk,Inc. |WEB Address: www.autodesk.com
 90
    32897
280
     0
281
     0
  0
CLASS
  1
AECS_DISP_PROPS_MEMBER
  2
AecsDbDispPropsMember
  3
AecStructureBase50|Product Desc: Autodesk Architectural Desktop 2007 |Company: Autodesk,Inc. |WEB Address: www.autodesk.com
 90
    32897
280
     0
281
     0
  0
CLASS
  1
AECS_DISP_PROPS_MEMBER_PLAN
  2
AecsDbDispPropsMemberPlan
  3
AecStructureBase50|Product Desc: Autodesk Architectural Desktop 2007 |Company: Autodesk,Inc. |WEB Address: www.autodesk.com
 90
    32897
280
     0
281
     0
  0
CLASS
  1
AEC_DISP_PROPS_AREAGROUP
  2
AecDbDispPropsAreaGroup
  3
AecAreaCalculationBase50|Product Desc: Autodesk Architectural Desktop 2007 |Company: Autodesk,Inc. |WEB Address: www.autodesk.com
 90
    32897
280
     0
281
     0
  0
CLASS
  1
AEC_DISP_PROPS_WINDOW_NOMINAL
  2
AecDbDispPropsWindowNominal
  3
AecArchBase50|Product Desc: Autodesk Architectural Desktop 2007 |Company: Autodesk,Inc. |WEB Address: www.autodesk.com
 90
    32897
280
     0
281
     0
  0
CLASS
  1
AEC_DISP_PROPS_AREA
  2
AecDbDispPropsArea
  3
AecAreaCalculationBase50|Product Desc: Autodesk Architectural Desktop 2007 |Company: Autodesk,Inc. |WEB Address: www.autodesk.com
 90
    32897
280
     0
281
     0
  0
CLASS
  1
AEC_DISP_PROPS_SCHEDULE_TABLE
  2
AecDbDispPropsScheduleTable
  3
AecSchedule50|Product Desc: Autodesk Architectural Desktop 2007 |Company: Autodesk,Inc. |WEB Address: www.autodesk.com
 90
    32897
280
     0
281
     0
  0
CLASS
  1
AEC_LAYERKEY_STYLE
  2
AecDbLayerKeyStyle
  3
AecBase50|Product Desc: Autodesk Architectural Desktop 2007 |Company: Autodesk,Inc. |WEB Address: www.autodesk.com
 90
    32897
280
     0
281
     0
  0
CLASS
  1
AEC_VARS_ARCHBASE
  2
AecDbVarsArchBase
  3
AecArchBase50|Product Desc: Autodesk Architectural Desktop 2007 |Company: Autodesk,Inc. |WEB Address: www.autodesk.com
 90
    32897
280
     0
281
     0
  0
CLASS
  1
AEC_VARS_MUNICH
  2
AecDbVarsMunich
  3
AecArchDACHBase50|Product Desc: Autodesk Architectural Desktop 2007 |Company: Autodesk,Inc. |WEB Address: www.autodesk.com
 90
    32897
280
     0
281
     0
  0
CLASS
  1
AEC_NOTIFICATION_TRACKER
  2
AecDbNotificationTracker
  3
AecBase50|Product Desc: Autodesk Architectural Desktop 2007 |Company: Autodesk,Inc. |WEB Address: www.autodesk.com
 90
    32897
280
     0
281
     0
  0
CLASS
  1
AEC_DISP_REP_ANCHOR
  2
AecDbDispRepAnchor
  3
AecBase50|Product Desc: Autodesk Architectural Desktop 2007 |Company: Autodesk,Inc. |WEB Address: www.autodesk.com
 90
    32897
280
     0
281
     0
  0
CLASS
  1
AEC_DISP_REP_POLYGON_TRUECOLOUR
  2
AecDbDispRepPolygonTrueColour
  3
AecBase50|Product Desc: Autodesk Architectural Desktop 2007 |Company: Autodesk,Inc. |WEB Address: www.autodesk.com
 90
    32897
280
     0
281
     0
  0
CLASS
  1
AEC_DISP_PROPS_POLYGON_TRUECOLOUR
  2
AecDbDispPropsPolygonTrueColour
  3
AecBase50|Product Desc: Autodesk Architectural Desktop 2007 |Company: Autodesk,Inc. |WEB Address: www.autodesk.com
 90
    32897
280
     0
281
     0
  0
CLASS
  1
AEC_DISP_REP_BDG_ELEVLINE_RCP
  2
AecDbDispRepBdgElevLineRcp
  3
AecArchBase50|Product Desc: Autodesk Architectural Desktop 2007 |Company: Autodesk,Inc. |WEB Address: www.autodesk.com
 90
    32897
280
     0
281
     0
  0
CLASS
  1
AEC_DISP_REP_BDG_SECTIONLINE_RCP
  2
AecDbDispRepBdgSectionLineRcp
  3
AecArchBase50|Product Desc: Autodesk Architectural Desktop 2007 |Company: Autodesk,Inc. |WEB Address: www.autodesk.com
 90
    32897
280
     0
281
     0
  0
CLASS
  1
AEC_DISP_REP_BDG_SECTION_MODEL
  2
AecDbDispRepBdgSectionModel
  3
AecArchBase50|Product Desc: Autodesk Architectural Desktop 2007 |Company: Autodesk,Inc. |WEB Address: www.autodesk.com
 90
    32897
280
     0
281
     0
  0
CLASS
  1
AEC_DISP_REP_DOOR_ELEV
  2
AecDbDispRepDoorElev
  3
AecArchBase50|Product Desc: Autodesk Architectural Desktop 2007 |Company: Autodesk,Inc. |WEB Address: www.autodesk.com
 90
    32897
280
     0
281
     0
  0
CLASS
  1
AEC_DISP_REP_DOOR_RCP
  2
AecDbDispRepDoorRcp
  3
AecArchBase50|Product Desc: Autodesk Architectural Desktop 2007 |Company: Autodesk,Inc. |WEB Address: www.autodesk.com
 90
    32897
280
     0
281
     0
  0
CLASS
  1
AEC_DISP_REP_DOOR_THRESHOLD_PLAN
  2
AecDbDispRepDoorThresholdPlan
  3
AecArchBase50|Product Desc: Autodesk Architectural Desktop 2007 |Company: Autodesk,Inc. |WEB Address: www.autodesk.com
 90
    32897
280
     0
281
     0
  0
CLASS
  1
AEC_DISP_PROPS_DOOR_THRESHOLD_PLAN
  2
AecDbDispPropsDoorThresholdPlan
  3
AecArchBase50|Product Desc: Autodesk Architectural Desktop 2007 |Company: Autodesk,Inc. |WEB Address: www.autodesk.com
 90
    32897
280
     0
281
     0
  0
CLASS
  1
AEC_DISP_REP_MASS_ELEM_RCP
  2
AecDbDispRepMassElemRcp
  3
AecArchBase50|Product Desc: Autodesk Architectural Desktop 2007 |Company: Autodesk,Inc. |WEB Address: www.autodesk.com
 90
    32897
280
     0
281
     0
  0
CLASS
  1
AEC_DISP_REP_MASS_GROUP_RCP
  2
AecDbDispRepMassGroupRcp
  3
AecArchBase50|Product Desc: Autodesk Architectural Desktop 2007 |Company: Autodesk,Inc. |WEB Address: www.autodesk.com
 90
    32897
280
     0
281
     0
  0
CLASS
  1
AEC_DISP_REP_MVBLOCK_REF_RCP
  2
AecDbDispRepMvBlockRefRcp
  3
AecArchBase50|Product Desc: Autodesk Architectural Desktop 2007 |Company: Autodesk,Inc. |WEB Address: www.autodesk.com
 90
    32897
280
     0
281
     0
  0
CLASS
  1
AEC_DISP_REP_ROOF_RCP
  2
AecDbDispRepRoofRcp
  3
AecArchBase50|Product Desc: Autodesk Architectural Desktop 2007 |Company: Autodesk,Inc. |WEB Address: www.autodesk.com
 90
    32897
280
     0
281
     0
  0
CLASS
  1
AEC_DISP_REP_SPACE_BOUNDARY_DIAGRAM
  2
AecDbDispRepSpaceBoundaryDgrm
  3
AecArchBase50|Product Desc: Autodesk Architectural Desktop 2007 |Company: Autodesk,Inc. |WEB Address: www.autodesk.com
 90
    32897
280
     0
281
     0
  0
CLASS
  1
AEC_DISP_REP_SPACE_RCP
  2
AecDbDispRepSpaceRcp
  3
AecArchBase50|Product Desc: Autodesk Architectural Desktop 2007 |Company: Autodesk,Inc. |WEB Address: www.autodesk.com
 90
    32897
280
     0
281
     0
  0
CLASS
  1
AEC_DISP_REP_SPACE_VOLUME
  2
AecDbDispRepSpaceVolume
  3
AecArchBase50|Product Desc: Autodesk Architectural Desktop 2007 |Company: Autodesk,Inc. |WEB Address: www.autodesk.com
 90
    32897
280
     0
281
     0
  0
CLASS
  1
AEC_DISP_REP_STAIR_PLAN_OVERLAPPING
  2
AecDbDispRepStairPlanOverlapping
  3
AecArchBase50|Product Desc: Autodesk Architectural Desktop 2007 |Company: Autodesk,Inc. |WEB Address: www.autodesk.com
 90
    32897
280
     0
281
     0
  0
CLASS
  1
AEC_DISP_PROPS_STAIR_PLAN_OVERLAPPING
  2
AecDbDispPropsStairPlanOverlapping
  3
AecArchBase50|Product Desc: Autodesk Architectural Desktop 2007 |Company: Autodesk,Inc. |WEB Address: www.autodesk.com
 90
    32897
280
     0
281
     0
  0
CLASS
  1
AEC_DISP_REP_STAIR_RCP
  2
AecDbDispRepStairRcp
  3
AecArchBase50|Product Desc: Autodesk Architectural Desktop 2007 |Company: Autodesk,Inc. |WEB Address: www.autodesk.com
 90
    32897
280
     0
281
     0
  0
CLASS
  1
AEC_DISP_REP_WALL_RCP
  2
AecDbDispRepWallRcp
  3
AecArchBase50|Product Desc: Autodesk Architectural Desktop 2007 |Company: Autodesk,Inc. |WEB Address: www.autodesk.com
 90
    32897
280
     0
281
     0
  0
CLASS
  1
AEC_DISP_REP_WINDOWASSEMBLY_SILL_PLAN
  2
AecDbDispRepWindowAssemblySillPlan
  3
AecArchBase50|Product Desc: Autodesk Architectural Desktop 2007 |Company: Autodesk,Inc. |WEB Address: www.autodesk.com
 90
    32897
280
     0
281
     0
  0
CLASS
  1
AEC_DISP_PROPS_WINDOW_ASSEMBLY_SILL_PLAN
  2
AecDbDispPropsWindowAssemblySillPlan
  3
AecArchBase50|Product Desc: Autodesk Architectural Desktop 2007 |Company: Autodesk,Inc. |WEB Address: www.autodesk.com
 90
    32897
280
     0
281
     0
  0
CLASS
  1
AEC_DISP_REP_WINDOW_ELEV
  2
AecDbDispRepWindowElev
  3
AecArchBase50|Product Desc: Autodesk Architectural Desktop 2007 |Company: Autodesk,Inc. |WEB Address: www.autodesk.com
 90
    32897
280
     0
281
     0
  0
CLASS
  1
AEC_DISP_REP_WINDOW_RCP
  2
AecDbDispRepWindowRcp
  3
AecArchBase50|Product Desc: Autodesk Architectural Desktop 2007 |Company: Autodesk,Inc. |WEB Address: www.autodesk.com
 90
    32897
280
     0
281
     0
  0
CLASS
  1
AEC_DISP_REP_WINDOW_SILL_PLAN
  2
AecDbDispRepWindowSillPlan
  3
AecArchBase50|Product Desc: Autodesk Architectural Desktop 2007 |Company: Autodesk,Inc. |WEB Address: www.autodesk.com
 90
    32897
280
     0
281
     0
  0
CLASS
  1
AEC_DISP_PROPS_WINDOW_SILL_PLAN
  2
AecDbDispPropsWindowSillPlan
  3
AecArchBase50|Product Desc: Autodesk Architectural Desktop 2007 |Company: Autodesk,Inc. |WEB Address: www.autodesk.com
 90
    32897
280
     0
281
     0
  0
CLASS
  1
AEC_DISP_REP_ANCHOR_BUB_TO_GRID_RCP
  2
AecDbDispRepAnchorBubToGridRcp
  3
AecStructureBase50|Product Desc: Autodesk Architectural Desktop 2007 |Company: Autodesk,Inc. |WEB Address: www.autodesk.com
 90
    32897
280
     0
281
     0
  0
CLASS
  1
AEC_DISP_REP_COLUMN_GRID_RCP
  2
AecDbDispRepColumnGridRcp
  3
AecStructureBase50|Product Desc: Autodesk Architectural Desktop 2007 |Company: Autodesk,Inc. |WEB Address: www.autodesk.com
 90
    32897
280
     0
281
     0
  0
CLASS
  1
AECS_DISP_REP_MEMBER_ELEVATION_DESIGN
  2
AecsDbDispRepMemberElevationDesign
  3
AecStructureBase50|Product Desc: Autodesk Architectural Desktop 2007 |Company: Autodesk,Inc. |WEB Address: www.autodesk.com
 90
    32897
280
     0
281
     0
  0
CLASS
  1
AECS_DISP_PROPS_MEMBER_PROJECTED
  2
AecsDbDispPropsMemberProjected
  3
AecStructureBase50|Product Desc: Autodesk Architectural Desktop 2007 |Company: Autodesk,Inc. |WEB Address: www.autodesk.com
 90
    32897
280
     0
281
     0
  0
CLASS
  1
AECS_DISP_REP_MEMBER_ELEVATION_DETAIL
  2
AecsDbDispRepMemberElevationDetail
  3
AecStructureBase50|Product Desc: Autodesk Architectural Desktop 2007 |Company: Autodesk,Inc. |WEB Address: www.autodesk.com
 90
    32897
280
     0
281
     0
  0
CLASS
  1
AECS_DISP_REP_MEMBER_MODEL_DETAIL
  2
AecsDbDispRepMemberModelDetail
  3
AecStructureBase50|Product Desc: Autodesk Architectural Desktop 2007 |Company: Autodesk,Inc. |WEB Address: www.autodesk.com
 90
    32897
280
     0
281
     0
  0
CLASS
  1
AECS_DISP_REP_MEMBER_PLAN_DETAIL
  2
AecsDbDispRepMemberPlanDetail
  3
AecStructureBase50|Product Desc: Autodesk Architectural Desktop 2007 |Company: Autodesk,Inc. |WEB Address: www.autodesk.com
 90
    32897
280
     0
281
     0
  0
CLASS
  1
AECS_DISP_REP_MEMBER_PLAN_SKETCH
  2
AecsDbDispRepMemberPlanSketch
  3
AecStructureBase50|Product Desc: Autodesk Architectural Desktop 2007 |Company: Autodesk,Inc. |WEB Address: www.autodesk.com
 90
    32897
280
     0
281
     0
  0
CLASS
  1
AECS_DISP_PROPS_MEMBER_PLAN_SKETCH
  2
AecsDbDispPropsMemberPlanSketch
  3
AecStructureBase50|Product Desc: Autodesk Architectural Desktop 2007 |Company: Autodesk,Inc. |WEB Address: www.autodesk.com
 90
    32897
280
     0
281
     0
  0
CLASS
  1
AEC_AECDBDISPREPAREA100
  2
AecDbDispRepArea100
  3
AecArchDACHBase50|Product Desc: Autodesk Architectural Desktop 2007 |Company: Autodesk,Inc. |WEB Address: www.autodesk.com
 90
    32897
280
     0
281
     0
  0
CLASS
  1
AEC_AECDBDISPREPAREAGROUP100
  2
AecDbDispRepAreaGroup100
  3
AecArchDACHBase50|Product Desc: Autodesk Architectural Desktop 2007 |Company: Autodesk,Inc. |WEB Address: www.autodesk.com
 90
    32897
280
     0
281
     0
  0
CLASS
  1
AEC_AECDBDISPREPBDGELEVLINEPLAN100
  2
AecDbDispRepBdgElevLinePlan100
  3
AecArchDACHBase50|Product Desc: Autodesk Architectural Desktop 2007 |Company: Autodesk,Inc. |WEB Address: www.autodesk.com
 90
    32897
280
     0
281
     0
  0
CLASS
  1
AEC_AECDBDISPREPBDGSECTIONLINEPLAN100
  2
AecDbDispRepBdgSectionLinePlan100
  3
AecArchDACHBase50|Product Desc: Autodesk Architectural Desktop 2007 |Company: Autodesk,Inc. |WEB Address: www.autodesk.com
 90
    32897
280
     0
281
     0
  0
CLASS
  1
AEC_AECDBDISPREPCEILINGGRIDPLAN100
  2
AecDbDispRepCeilingGridPlan100
  3
AecArchDACHBase50|Product Desc: Autodesk Architectural Desktop 2007 |Company: Autodesk,Inc. |WEB Address: www.autodesk.com
 90
    32897
280
     0
281
     0
  0
CLASS
  1
AEC_AECDBDISPREPCOLUMNGRIDPLAN100
  2
AecDbDispRepColumnGridPlan100
  3
AecArchDACHBase50|Product Desc: Autodesk Architectural Desktop 2007 |Company: Autodesk,Inc. |WEB Address: www.autodesk.com
 90
    32897
280
     0
281
     0
  0
CLASS
  1
AEC_AECDBDISPREPCURTAINWALLLAYOUTPLAN100
  2
AecDbDispRepCurtainWallLayoutPlan100
  3
AecArchDACHBase50|Product Desc: Autodesk Architectural Desktop 2007 |Company: Autodesk,Inc. |WEB Address: www.autodesk.com
 90
    32897
280
     0
281
     0
  0
CLASS
  1
AEC_AECDBDISPREPCURTAINWALLUNITPLAN100
  2
AecDbDispRepCurtainWallUnitPlan100
  3
AecArchDACHBase50|Product Desc: Autodesk Architectural Desktop 2007 |Company: Autodesk,Inc. |WEB Address: www.autodesk.com
 90
    32897
280
     0
281
     0
  0
CLASS
  1
AEC_AECDBDISPREPMVBLOCKREFPLAN100
  2
AecDbDispRepMvBlockRefPlan100
  3
AecArchDACHBase50|Product Desc: Autodesk Architectural Desktop 2007 |Company: Autodesk,Inc. |WEB Address: www.autodesk.com
 90
    32897
280
     0
281
     0
  0
CLASS
  1
AEC_AECDBDISPREPROOFPLAN100
  2
AecDbDispRepRoofPlan100
  3
AecArchDACHBase50|Product Desc: Autodesk Architectural Desktop 2007 |Company: Autodesk,Inc. |WEB Address: www.autodesk.com
 90
    32897
280
     0
281
     0
  0
CLASS
  1
AEC_AECDBDISPREPROOFSLABPLAN100
  2
AecDbDispRepRoofSlabPlan100
  3
AecArchDACHBase50|Product Desc: Autodesk Architectural Desktop 2007 |Company: Autodesk,Inc. |WEB Address: www.autodesk.com
 90
    32897
280
     0
281
     0
  0
CLASS
  1
AEC_AECDBDISPREPSLABPLAN100
  2
AecDbDispRepSlabPlan100
  3
AecArchDACHBase50|Product Desc: Autodesk Architectural Desktop 2007 |Company: Autodesk,Inc. |WEB Address: www.autodesk.com
 90
    32897
280
     0
281
     0
  0
CLASS
  1
AEC_AECDBDISPREPSPACEBOUNDARYPLAN100
  2
AecDbDispRepSpaceBoundaryPlan100
  3
AecArchDACHBase50|Product Desc: Autodesk Architectural Desktop 2007 |Company: Autodesk,Inc. |WEB Address: www.autodesk.com
 90
    32897
280
     0
281
     0
  0
CLASS
  1
AEC_AECDBDISPREPSPACEPLAN100
  2
AecDbDispRepSpacePlan100
  3
AecArchDACHBase50|Product Desc: Autodesk Architectural Desktop 2007 |Company: Autodesk,Inc. |WEB Address: www.autodesk.com
 90
    32897
280
     0
281
     0
  0
CLASS
  1
AEC_AECDBDISPREPWALLPLAN100
  2
AecDbDispRepWallPlan100
  3
AecArchDACHBase50|Product Desc: Autodesk Architectural Desktop 2007 |Company: Autodesk,Inc. |WEB Address: www.autodesk.com
 90
    32897
280
     0
281
     0
  0
CLASS
  1
AEC_AECDBDISPREPAREA50
  2
AecDbDispRepArea50
  3
AecArchDACHBase50|Product Desc: Autodesk Architectural Desktop 2007 |Company: Autodesk,Inc. |WEB Address: www.autodesk.com
 90
    32897
280
     0
281
     0
  0
CLASS
  1
AEC_AECDBDISPREPAREAGROUP50
  2
AecDbDispRepAreaGroup50
  3
AecArchDACHBase50|Product Desc: Autodesk Architectural Desktop 2007 |Company: Autodesk,Inc. |WEB Address: www.autodesk.com
 90
    32897
280
     0
281
     0
  0
CLASS
  1
AEC_AECDBDISPREPBDGELEVLINEPLAN50
  2
AecDbDispRepBdgElevLinePlan50
  3
AecArchDACHBase50|Product Desc: Autodesk Architectural Desktop 2007 |Company: Autodesk,Inc. |WEB Address: www.autodesk.com
 90
    32897
280
     0
281
     0
  0
CLASS
  1
AEC_AECDBDISPREPBDGSECTIONLINEPLAN50
  2
AecDbDispRepBdgSectionLinePlan50
  3
AecArchDACHBase50|Product Desc: Autodesk Architectural Desktop 2007 |Company: Autodesk,Inc. |WEB Address: www.autodesk.com
 90
    32897
280
     0
281
     0
  0
CLASS
  1
AEC_AECDBDISPREPCEILINGGRIDPLAN50
  2
AecDbDispRepCeilingGridPlan50
  3
AecArchDACHBase50|Product Desc: Autodesk Architectural Desktop 2007 |Company: Autodesk,Inc. |WEB Address: www.autodesk.com
 90
    32897
280
     0
281
     0
  0
CLASS
  1
AEC_AECDBDISPREPCOLUMNGRIDPLAN50
  2
AecDbDispRepColumnGridPlan50
  3
AecArchDACHBase50|Product Desc: Autodesk Architectural Desktop 2007 |Company: Autodesk,Inc. |WEB Address: www.autodesk.com
 90
    32897
280
     0
281
     0
  0
CLASS
  1
AEC_AECDBDISPREPCURTAINWALLLAYOUTPLAN50
  2
AecDbDispRepCurtainWallLayoutPlan50
  3
AecArchDACHBase50|Product Desc: Autodesk Architectural Desktop 2007 |Company: Autodesk,Inc. |WEB Address: www.autodesk.com
 90
    32897
280
     0
281
     0
  0
CLASS
  1
AEC_AECDBDISPREPCURTAINWALLUNITPLAN50
  2
AecDbDispRepCurtainWallUnitPlan50
  3
AecArchDACHBase50|Product Desc: Autodesk Architectural Desktop 2007 |Company: Autodesk,Inc. |WEB Address: www.autodesk.com
 90
    32897
280
     0
281
     0
  0
CLASS
  1
AEC_AECDBDISPREPMVBLOCKREFPLAN50
  2
AecDbDispRepMvBlockRefPlan50
  3
AecArchDACHBase50|Product Desc: Autodesk Architectural Desktop 2007 |Company: Autodesk,Inc. |WEB Address: www.autodesk.com
 90
    32897
280
     0
281
     0
  0
CLASS
  1
AEC_AECDBDISPREPROOFPLAN50
  2
AecDbDispRepRoofPlan50
  3
AecArchDACHBase50|Product Desc: Autodesk Architectural Desktop 2007 |Company: Autodesk,Inc. |WEB Address: www.autodesk.com
 90
    32897
280
     0
281
     0
  0
CLASS
  1
AEC_AECDBDISPREPROOFSLABPLAN50
  2
AecDbDispRepRoofSlabPlan50
  3
AecArchDACHBase50|Product Desc: Autodesk Architectural Desktop 2007 |Company: Autodesk,Inc. |WEB Address: www.autodesk.com
 90
    32897
280
     0
281
     0
  0
CLASS
  1
AEC_AECDBDISPREPSLABPLAN50
  2
AecDbDispRepSlabPlan50
  3
AecArchDACHBase50|Product Desc: Autodesk Architectural Desktop 2007 |Company: Autodesk,Inc. |WEB Address: www.autodesk.com
 90
    32897
280
     0
281
     0
  0
CLASS
  1
AEC_AECDBDISPREPSPACEBOUNDARYPLAN50
  2
AecDbDispRepSpaceBoundaryPlan50
  3
AecArchDACHBase50|Product Desc: Autodesk Architectural Desktop 2007 |Company: Autodesk,Inc. |WEB Address: www.autodesk.com
 90
    32897
280
     0
281
     0
  0
CLASS
  1
AEC_AECDBDISPREPSPACEPLAN50
  2
AecDbDispRepSpacePlan50
  3
AecArchDACHBase50|Product Desc: Autodesk Architectural Desktop 2007 |Company: Autodesk,Inc. |WEB Address: www.autodesk.com
 90
    32897
280
     0
281
     0
  0
CLASS
  1
AEC_AECDBDISPREPWALLPLAN50
  2
AecDbDispRepWallPlan50
  3
AecArchDACHBase50|Product Desc: Autodesk Architectural Desktop 2007 |Company: Autodesk,Inc. |WEB Address: www.autodesk.com
 90
    32897
280
     0
281
     0
  0
CLASS
  1
AEC_AECDBDISPREPWINDOWASSEMBLYPLAN50
  2
AecDbDispRepWindowAssemblyPlan50
  3
AecArchDACHBase50|Product Desc: Autodesk Architectural Desktop 2007 |Company: Autodesk,Inc. |WEB Address: www.autodesk.com
 90
    32897
280
     0
281
     0
  0
CLASS
  1
AEC_DB_DISP_REP_DIM_GROUP_PLAN100
  2
AecDbDispRepDimGroupPlan100
  3
AecArchDACHBase50|Product Desc: Autodesk Architectural Desktop 2007 |Company: Autodesk,Inc. |WEB Address: www.autodesk.com
 90
    32897
280
     0
281
     0
  0
CLASS
  1
AEC_DB_DISP_REP_DIM_GROUP_PLAN50
  2
AecDbDispRepDimGroupPlan50
  3
AecArchDACHBase50|Product Desc: Autodesk Architectural Desktop 2007 |Company: Autodesk,Inc. |WEB Address: www.autodesk.com
 90
    32897
280
     0
281
     0
  0
CLASS
  1
AEC_DISP_REP_DOOR_PLAN_50
  2
AecDbDispRepDoorPlan50
  3
AecArchDACHBase50|Product Desc: Autodesk Architectural Desktop 2007 |Company: Autodesk,Inc. |WEB Address: www.autodesk.com
 90
    32897
280
     0
281
     0
  0
CLASS
  1
AEC_DISP_PROPS_DOOR_PLAN_50
  2
AecDbDispPropsDoorPlan50
  3
AecArchDACHBase50|Product Desc: Autodesk Architectural Desktop 2007 |Company: Autodesk,Inc. |WEB Address: www.autodesk.com
 90
    32897
280
     0
281
     0
  0
CLASS
  1
AEC_DISP_REP_DOOR_PLAN_HEKTO
  2
AecDbDispRepDoorPlanHekto
  3
AecArchDACHBase50|Product Desc: Autodesk Architectural Desktop 2007 |Company: Autodesk,Inc. |WEB Address: www.autodesk.com
 90
    32897
280
     0
281
     0
  0
CLASS
  1
AEC_DISP_PROPS_DOOR_PLAN_100
  2
AecDbDispPropsDoorPlan100
  3
AecArchDACHBase50|Product Desc: Autodesk Architectural Desktop 2007 |Company: Autodesk,Inc. |WEB Address: www.autodesk.com
 90
    32897
280
     0
281
     0
  0
CLASS
  1
AEC_DISP_REP_DOOR_THRESHOLD_SYMBOL_PLAN
  2
AecDbDispRepDoorThresholdSymbolPlan
  3
AecArchDACHBase50|Product Desc: Autodesk Architectural Desktop 2007 |Company: Autodesk,Inc. |WEB Address: www.autodesk.com
 90
    32897
280
     0
281
     0
  0
CLASS
  1
AEC_DISP_PROPS_DOOR_THRESHOLD_SYMBOL_PLAN
  2
AecDbDispPropsDoorThresholdSymbolPlan
  3
AecArchDACHBase50|Product Desc: Autodesk Architectural Desktop 2007 |Company: Autodesk,Inc. |WEB Address: www.autodesk.com
 90
    32897
280
     0
281
     0
  0
CLASS
  1
AEC_DISPREPAECDBDISPREPMASSELEMPLAN100
  2
AecDbDispRepMassElemPlan100
  3
AecArchDACHBase50|Product Desc: Autodesk Architectural Desktop 2007 |Company: Autodesk,Inc. |WEB Address: www.autodesk.com
 90
    32897
280
     0
281
     0
  0
CLASS
  1
AEC_DISPROPSMASSELEMPLANCOMMON
  2
AecDbDispPropsMassElemPlanCommon
  3
AecArchDACHBase50|Product Desc: Autodesk Architectural Desktop 2007 |Company: Autodesk,Inc. |WEB Address: www.autodesk.com
 90
    32897
280
     0
281
     0
  0
CLASS
  1
AEC_DISPREPAECDBDISPREPMASSELEMPLAN50
  2
AecDbDispRepMassElemPlan50
  3
AecArchDACHBase50|Product Desc: Autodesk Architectural Desktop 2007 |Company: Autodesk,Inc. |WEB Address: www.autodesk.com
 90
    32897
280
     0
281
     0
  0
CLASS
  1
AEC_DISPREPAECDBDISPREPMASSGROUPPLAN100
  2
AecDbDispRepMassGroupPlan100
  3
AecArchDACHBase50|Product Desc: Autodesk Architectural Desktop 2007 |Company: Autodesk,Inc. |WEB Address: www.autodesk.com
 90
    32897
280
     0
281
     0
  0
CLASS
  1
AEC_DISPROPSMASSGROUPPLANCOMMON
  2
AecDbDispPropsMassGroupPlanCommon
  3
AecArchDACHBase50|Product Desc: Autodesk Architectural Desktop 2007 |Company: Autodesk,Inc. |WEB Address: www.autodesk.com
 90
    32897
280
     0
281
     0
  0
CLASS
  1
AEC_DISPREPAECDBDISPREPMASSGROUPPLAN50
  2
AecDbDispRepMassGroupPlan50
  3
AecArchDACHBase50|Product Desc: Autodesk Architectural Desktop 2007 |Company: Autodesk,Inc. |WEB Address: www.autodesk.com
 90
    32897
280
     0
281
     0
  0
CLASS
  1
AEC_DISPREPAECDBDISPREPOPENINGPLAN100
  2
AecDbDispRepOpeningPlan100
  3
AecArchDACHBase50|Product Desc: Autodesk Architectural Desktop 2007 |Company: Autodesk,Inc. |WEB Address: www.autodesk.com
 90
    32897
280
     0
281
     0
  0
CLASS
  1
AEC_DISPROPSOPENINGPLANCOMMONHATCHED
  2
AecDbDispPropsOpeningPlanCommonHatched
  3
AecArchDACHBase50|Product Desc: Autodesk Architectural Desktop 2007 |Company: Autodesk,Inc. |WEB Address: www.autodesk.com
 90
    32897
280
     0
281
     0
  0
CLASS
  1
AEC_DISPREPAECDBDISPREPOPENINGPLAN50
  2
AecDbDispRepOpeningPlan50
  3
AecArchDACHBase50|Product Desc: Autodesk Architectural Desktop 2007 |Company: Autodesk,Inc. |WEB Address: www.autodesk.com
 90
    32897
280
     0
281
     0
  0
CLASS
  1
AEC_DISPREPAECDBDISPREPOPENINGPLANREFLECTED
  2
AecDbDispRepOpeningPlanReflected
  3
AecArchDACHBase50|Product Desc: Autodesk Architectural Desktop 2007 |Company: Autodesk,Inc. |WEB Address: www.autodesk.com
 90
    32897
280
     0
281
     0
  0
CLASS
  1
AEC_DISPROPSOPENINGPLANCOMMON
  2
AecDbDispPropsOpeningPlanCommon
  3
AecArchDACHBase50|Product Desc: Autodesk Architectural Desktop 2007 |Company: Autodesk,Inc. |WEB Address: www.autodesk.com
 90
    32897
280
     0
281
     0
  0
CLASS
  1
AEC_DISPREPAECDBDISPREPOPENINGSILLPLAN
  2
AecDbDispRepOpeningSillPlan
  3
AecArchDACHBase50|Product Desc: Autodesk Architectural Desktop 2007 |Company: Autodesk,Inc. |WEB Address: www.autodesk.com
 90
    32897
280
     0
281
     0
  0
CLASS
  1
AEC_DISPROPSOPENINGSILLPLAN
  2
AecDbDispPropsOpeningSillPlan
  3
AecArchDACHBase50|Product Desc: Autodesk Architectural Desktop 2007 |Company: Autodesk,Inc. |WEB Address: www.autodesk.com
 90
    32897
280
     0
281
     0
  0
CLASS
  1
AEC_DISP_REP_RAILING_PLAN_100
  2
AecDbDispRepRailingPlan100
  3
AecArchDACHBase50|Product Desc: Autodesk Architectural Desktop 2007 |Company: Autodesk,Inc. |WEB Address: www.autodesk.com
 90
    32897
280
     0
281
     0
  0
CLASS
  1
AEC_DISP_ROPS_RAILING_PLAN_100
  2
AecDbDispPropsRailingPlan100
  3
AecArchDACHBase50|Product Desc: Autodesk Architectural Desktop 2007 |Company: Autodesk,Inc. |WEB Address: www.autodesk.com
 90
    32897
280
     0
281
     0
  0
CLASS
  1
AEC_DISP_REP_RAILING_PLAN_50
  2
AecDbDispRepRailingPlan50
  3
AecArchDACHBase50|Product Desc: Autodesk Architectural Desktop 2007 |Company: Autodesk,Inc. |WEB Address: www.autodesk.com
 90
    32897
280
     0
281
     0
  0
CLASS
  1
AEC_DISP_ROPS_RAILING_PLAN_50
  2
AecDbDispPropsRailingPlan50
  3
AecArchDACHBase50|Product Desc: Autodesk Architectural Desktop 2007 |Company: Autodesk,Inc. |WEB Address: www.autodesk.com
 90
    32897
280
     0
281
     0
  0
CLASS
  1
AEC_DISP_REP_STAIR_PLAN_100
  2
AecDbDispRepStairPlan100
  3
AecArchDACHBase50|Product Desc: Autodesk Architectural Desktop 2007 |Company: Autodesk,Inc. |WEB Address: www.autodesk.com
 90
    32897
280
     0
281
     0
  0
CLASS
  1
AEC_DISP_ROPS_STAIR_PLAN_100
  2
AecDbDispPropsStairPlan100
  3
AecArchDACHBase50|Product Desc: Autodesk Architectural Desktop 2007 |Company: Autodesk,Inc. |WEB Address: www.autodesk.com
 90
    32897
280
     0
281
     0
  0
CLASS
  1
AEC_DISP_REP_STAIR_PLAN_50
  2
AecDbDispRepStairPlan50
  3
AecArchDACHBase50|Product Desc: Autodesk Architectural Desktop 2007 |Company: Autodesk,Inc. |WEB Address: www.autodesk.com
 90
    32897
280
     0
281
     0
  0
CLASS
  1
AEC_DISP_ROPS_STAIR_PLAN_50
  2
AecDbDispPropsStairPlan50
  3
AecArchDACHBase50|Product Desc: Autodesk Architectural Desktop 2007 |Company: Autodesk,Inc. |WEB Address: www.autodesk.com
 90
    32897
280
     0
281
     0
  0
CLASS
  1
AEC_DISP_REP_WINDOW_PLAN_100
  2
AecDbDispRepWindowPlan100
  3
AecArchDACHBase50|Product Desc: Autodesk Architectural Desktop 2007 |Company: Autodesk,Inc. |WEB Address: www.autodesk.com
 90
    32897
280
     0
281
     0
  0
CLASS
  1
AEC_DISP_PROPS_WINDOW_PLAN_100
  2
AecDbDispPropsWindowPlan100
  3
AecArchDACHBase50|Product Desc: Autodesk Architectural Desktop 2007 |Company: Autodesk,Inc. |WEB Address: www.autodesk.com
 90
    32897
280
     0
281
     0
  0
CLASS
  1
AEC_DISP_REP_WINDOW_PLAN_50
  2
AecDbDispRepWindowPlan50
  3
AecArchDACHBase50|Product Desc: Autodesk Architectural Desktop 2007 |Company: Autodesk,Inc. |WEB Address: www.autodesk.com
 90
    32897
280
     0
281
     0
  0
CLASS
  1
AEC_DISP_PROPS_WINDOW_PLAN_50
  2
AecDbDispPropsWindowPlan50
  3
AecArchDACHBase50|Product Desc: Autodesk Architectural Desktop 2007 |Company: Autodesk,Inc. |WEB Address: www.autodesk.com
 90
    32897
280
     0
281
     0
  0
CLASS
  1
BINRECORD
  2
AcAecBinRecord
  3
AecBase50|Product Desc: Autodesk Architectural Desktop 2007 |Company: Autodesk,Inc. |WEB Address: www.autodesk.com
 90
    32897
280
     0
281
     0
  0
CLASS
  1
SORTENTSTABLE
  2
AcDbSortentsTable
  3
ObjectDBX Classes
 90
        0
280
     0
281
     0
  0
CLASS
  1
AEC_MASS_ELEM
  2
AecDbMassElem
  3
AecBaseEx50|Product Desc: Autodesk Architectural Desktop 2007 |Company: Autodesk,Inc. |WEB Address: www.autodesk.com
 90
    33661
280
     0
281
     1
  0
CLASS
  1
MATERIAL
  2
AcDbMaterial
  3
ObjectDBX Classes
 90
     1153
280
     0
281
     0
  0
CLASS
  1
AECS_MEMBER
  2
AecsDbMember
  3
AecStructureBase50|Product Desc: Autodesk Architectural Desktop 2007 |Company: Autodesk,Inc. |WEB Address: www.autodesk.com
 90
    33661
280
     0
281
     1
  0
CLASS
  1
AEC_WALL
  2
AecDbWall
  3
AecArchBase50|Product Desc: Autodesk Architectural Desktop 2007 |Company: Autodesk,Inc. |WEB Address: www.autodesk.com
 90
    33661
280
     0
281
     1
  0
CLASS
  1
AEC_DOOR
  2
AecDbDoor
  3
AecArchBase50|Product Desc: Autodesk Architectural Desktop 2007 |Company: Autodesk,Inc. |WEB Address: www.autodesk.com
 90
    33661
280
     0
281
     1
  0
CLASS
  1
AEC_ANCHOR_OPENINGBASE_TO_WALL
  2
AecDbAnchorOpeningBaseToWall
  3
AecArchBase50|Product Desc: Autodesk Architectural Desktop 2007 |Company: Autodesk,Inc. |WEB Address: www.autodesk.com
 90
    32897
280
     0
281
     0
  0
CLASS
  1
AEC_SPACE_BOUNDARY
  2
AecDbSpaceBoundary
  3
AecArchBase50|Product Desc: Autodesk Architectural Desktop 2007 |Company: Autodesk,Inc. |WEB Address: www.autodesk.com
 90
    33661
280
     0
281
     1
  0
CLASS
  1
AEC_SPACE
  2
AecDbSpace
  3
AecArchBase50|Product Desc: Autodesk Architectural Desktop 2007 |Company: Autodesk,Inc. |WEB Address: www.autodesk.com
 90
    33661
280
     0
281
     1
  0
CLASS
  1
AecDbPropertySet
  2
AecDbPropertySet
  3
AecScheduleData50|Product Desc: Autodesk Architectural Desktop 2007 |Company: Autodesk,Inc. |WEB Address: www.autodesk.com
 90
    32897
280
     0
281
     0
  0
CLASS
  1
AEC_MVBLOCK_REF
  2
AecDbMvBlockRef
  3
AecBase50|Product Desc: Autodesk Architectural Desktop 2007 |Company: Autodesk,Inc. |WEB Address: www.autodesk.com
 90
    33661
280
     0
281
     1
  0
CLASS
  1
AEC_ANCHOR_TAG_TO_ENT
  2
AecDbAnchorTagToEnt
  3
AecScheduleData50|Product Desc: Autodesk Architectural Desktop 2007 |Company: Autodesk,Inc. |WEB Address: www.autodesk.com
 90
    32897
280
     0
281
     0
  0
CLASS
  1
AEC_WINDOW
  2
AecDbWindow
  3
AecArchBase50|Product Desc: Autodesk Architectural Desktop 2007 |Company: Autodesk,Inc. |WEB Address: www.autodesk.com
 90
    33661
280
     0
281
     1
  0
CLASS
  1
AEC_OPENING
  2
AecDbOpening
  3
AecArchBase50|Product Desc: Autodesk Architectural Desktop 2007 |Company: Autodesk,Inc. |WEB Address: www.autodesk.com
 90
    33661
280
     0
281
     1
  0
CLASS
  1
AEC_CLASSIFICATION_SYSTEM_DEF
  2
AecDbClassificationSystemDef
  3
AecBase50|Product Desc: Autodesk Architectural Desktop 2007 |Company: Autodesk,Inc. |WEB Address: www.autodesk.com
 90
    32897
280
     0
281
     0
  0
CLASS
  1
AEC_CLASSIFICATION_DEF
  2
AecDbClassificationDef
  3
AecBase50|Product Desc: Autodesk Architectural Desktop 2007 |Company: Autodesk,Inc. |WEB Address: www.autodesk.com
 90
    32897
280
     0
281
     0
  0
CLASS
  1
AEC_CLEANUP_GROUP_DEF
  2
AecDbCleanupGroupDef
  3
AecArchBase50|Product Desc: Autodesk Architectural Desktop 2007 |Company: Autodesk,Inc. |WEB Address: www.autodesk.com
 90
    32897
280
     0
281
     0
  0
CLASS
  1
AEC_DOOR_STYLE
  2
AecDbDoorStyle
  3
AecArchBase50|Product Desc: Autodesk Architectural Desktop 2007 |Company: Autodesk,Inc. |WEB Address: www.autodesk.com
 90
    32897
280
     0
281
     0
  0
CLASS
  1
AEC_STDSIZE_OPENINGS
  2
AecDbStdSizeOpeningList
  3
AecArchBase50|Product Desc: Autodesk Architectural Desktop 2007 |Company: Autodesk,Inc. |WEB Address: www.autodesk.com
 90
    32897
280
     0
281
     0
  0
CLASS
  1
AEC_ENDCAP_STYLE
  2
AecDbEndcapStyle
  3
AecArchBase50|Product Desc: Autodesk Architectural Desktop 2007 |Company: Autodesk,Inc. |WEB Address: www.autodesk.com
 90
    32897
280
     0
281
     0
  0
CLASS
  1
AEC_MASS_ELEM_STYLE
  2
AecDbMassElemStyle
  3
AecBaseEx50|Product Desc: Autodesk Architectural Desktop 2007 |Company: Autodesk,Inc. |WEB Address: www.autodesk.com
 90
    32897
280
     0
281
     0
  0
CLASS
  1
AEC_MATERIAL_DEF
  2
AecDbMaterialDef
  3
AecBase50|Product Desc: Autodesk Architectural Desktop 2007 |Company: Autodesk,Inc. |WEB Address: www.autodesk.com
 90
    32897
280
     0
281
     0
  0
CLASS
  1
AEC_MVBLOCK_DEF
  2
AecDbMvBlockDef
  3
AecBase50|Product Desc: Autodesk Architectural Desktop 2007 |Company: Autodesk,Inc. |WEB Address: www.autodesk.com
 90
    32897
280
     0
281
     0
  0
CLASS
  1
AEC_FRAME_DEF
  2
AecDbOpeningEndcapStyle
  3
AecArchBase50|Product Desc: Autodesk Architectural Desktop 2007 |Company: Autodesk,Inc. |WEB Address: www.autodesk.com
 90
    32897
280
     0
281
     0
  0
CLASS
  1
AEC_PROFILE_DEF
  2
AecDbProfileDef
  3
AecBase50|Product Desc: Autodesk Architectural Desktop 2007 |Company: Autodesk,Inc. |WEB Address: www.autodesk.com
 90
    32897
280
     0
281
     0
  0
CLASS
  1
AEC_SCHEDULE_DATA_FORMAT
  2
AecDbScheduleDataFormat
  3
AecScheduleData50|Product Desc: Autodesk Architectural Desktop 2007 |Company: Autodesk,Inc. |WEB Address: www.autodesk.com
 90
    32897
280
     0
281
     0
  0
CLASS
  1
AEC_PROPERTY_SET_DEF
  2
AecDbPropertySetDef
  3
AecScheduleData50|Product Desc: Autodesk Architectural Desktop 2007 |Company: Autodesk,Inc. |WEB Address: www.autodesk.com
 90
    32897
280
     0
281
     0
  0
CLASS
  1
AEC_SPACE_STYLES
  2
AecDbSpaceStyle
  3
AecArchBase50|Product Desc: Autodesk Architectural Desktop 2007 |Company: Autodesk,Inc. |WEB Address: www.autodesk.com
 90
    32897
280
     0
281
     0
  0
CLASS
  1
AEC_TEXT_NOTE
  2
AecDbTextNote
  3
AecBase50|Product Desc: Autodesk Architectural Desktop 2007 |Company: Autodesk,Inc. |WEB Address: www.autodesk.com
 90
    32897
280
     0
281
     0
  0
CLASS
  1
AECS_MEMBER_STYLE
  2
AecsDbMemberStyle
  3
AecStructureBase50|Product Desc: Autodesk Architectural Desktop 2007 |Company: Autodesk,Inc. |WEB Address: www.autodesk.com
 90
    32897
280
     0
281
     0
  0
CLASS
  1
AEC_VARS_STRUCTUREBASE
  2
AecsDbVarsStructureBase
  3
AecStructureBase50|Product Desc: Autodesk Architectural Desktop 2007 |Company: Autodesk,Inc. |WEB Address: www.autodesk.com
 90
    32897
280
     0
281
     0
  0
CLASS
  1
AEC_WALL_STYLE
  2
AecDbWallStyle
  3
AecArchBase50|Product Desc: Autodesk Architectural Desktop 2007 |Company: Autodesk,Inc. |WEB Address: www.autodesk.com
 90
    32897
280
     0
281
     0
  0
CLASS
  1
AEC_WINDOW_STYLE
  2
AecDbWindowStyle
  3
AecArchBase50|Product Desc: Autodesk Architectural Desktop 2007 |Company: Autodesk,Inc. |WEB Address: www.autodesk.com
 90
    32897
280
     0
281
     0
  0
CLASS
  1
AECS_MEMBER_NODE_SHAPE
  2
AecsDbMemberNodeShape
  3
AecStructureBase50|Product Desc: Autodesk Architectural Desktop 2007 |Company: Autodesk,Inc. |WEB Address: www.autodesk.com
 90
    32897
280
     0
281
     0
  0
CLASS
  1
AEC_SCHEDULE_TABLE
  2
AecDbScheduleTable
  3
AecSchedule50|Product Desc: Autodesk Architectural Desktop 2007 |Company: Autodesk,Inc. |WEB Address: www.autodesk.com
 90
    33661
280
     0
281
     1
  0
CLASS
  1
AEC_SCHEDULE_TABLE_STYLE
  2
AecDbScheduleTableStyle
  3
AecSchedule50|Product Desc: Autodesk Architectural Desktop 2007 |Company: Autodesk,Inc. |WEB Address: www.autodesk.com
 90
    32897
280
     0
281
     0
  0
CLASS
  1
AEC_ANCHOR_MVB_TO_UCS
  2
AecDbAnchorMVBToUCS
  3
AecBase50|Product Desc: Autodesk Architectural Desktop 2007 |Company: Autodesk,Inc. |WEB Address: www.autodesk.com
 90
    32897
280
     0
281
     0
  0
CLASS
  1
IMAGEDEF
  2
AcDbRasterImageDef
  3
ISM
 90
    32768
280
     0
281
     0
  0
CLASS
  1
AEC_ANCHOR_ENT_TO_GRID_ASSEMBLY
  2
AecDbAnchorEntToGridAssembly
  3
AecBase50|Product Desc: Autodesk Architectural Desktop 2007 |Company: Autodesk,Inc. |WEB Address: www.autodesk.com
 90
    32897
280
     0
281
     0
  0
CLASS
  1
AEC_WINDOW_ASSEMBLY
  2
AecDbWindowAssembly
  3
AecArchBase50|Product Desc: Autodesk Architectural Desktop 2007 |Company: Autodesk,Inc. |WEB Address: www.autodesk.com
 90
    33661
280
     0
281
     1
  0
CLASS
  1
AEC_ANCHOR_WINASSEMBLY_TO_WALL
  2
AecDbAnchorWinAssemblyToWall
  3
AecArchBase50|Product Desc: Autodesk Architectural Desktop 2007 |Company: Autodesk,Inc. |WEB Address: www.autodesk.com
 90
    32897
280
     0
281
     0
  0
CLASS
  1
AEC_STAIR
  2
AecDbStair
  3
AecArchBase50|Product Desc: Autodesk Architectural Desktop 2007 |Company: Autodesk,Inc. |WEB Address: www.autodesk.com
 90
    33661
280
     0
281
     1
  0
CLASS
  1
AEC_RAILING
  2
AecDbRailing
  3
AecArchBase50|Product Desc: Autodesk Architectural Desktop 2007 |Company: Autodesk,Inc. |WEB Address: www.autodesk.com
 90
    33661
280
     0
281
     1
  0
CLASS
  1
AEC_ANCHOR_RAILING_TO_STAIR
  2
AecDbAnchorRailingToStair
  3
AecArchBase50|Product Desc: Autodesk Architectural Desktop 2007 |Company: Autodesk,Inc. |WEB Address: www.autodesk.com
 90
    32897
280
     0
281
     0
  0
CLASS
  1
AEC_RAILING_STYLE
  2
AecDbRailingStyle
  3
AecArchBase50|Product Desc: Autodesk Architectural Desktop 2007 |Company: Autodesk,Inc. |WEB Address: www.autodesk.com
 90
    32897
280
     0
281
     0
  0
CLASS
  1
AEC_STAIR_STYLE
  2
AecDbStairStyle
  3
AecArchBase50|Product Desc: Autodesk Architectural Desktop 2007 |Company: Autodesk,Inc. |WEB Address: www.autodesk.com
 90
    32897
280
     0
281
     0
  0
CLASS
  1
AEC_STAIR_WINDER_STYLE
  2
AecDbStairWinderStyle
  3
AecArchBase50|Product Desc: Autodesk Architectural Desktop 2007 |Company: Autodesk,Inc. |WEB Address: www.autodesk.com
 90
    32897
280
     0
281
     0
  0
CLASS
  1
AEC_STAIR_WINDER_TYPE_SINGLE_POINT
  2
AecDbStairWinderTypeSinglePoint
  3
AecArchBase50|Product Desc: Autodesk Architectural Desktop 2007 |Company: Autodesk,Inc. |WEB Address: www.autodesk.com
 90
    32897
280
     0
281
     0
  0
CLASS
  1
AEC_WINDOW_ASSEMBLY_STYLE
  2
AecDbWindowAssemblyStyle
  3
AecArchBase50|Product Desc: Autodesk Architectural Desktop 2007 |Company: Autodesk,Inc. |WEB Address: www.autodesk.com
 90
    32897
280
     0
281
     0
  0
CLASS
  1
AEC_AECDBAREASTYLE
  2
AecDbAreaStyle
  3
AecAreaCalculationBase50|Product Desc: Autodesk Architectural Desktop 2007 |Company: Autodesk,Inc. |WEB Address: www.autodesk.com
 90
    32897
280
     0
281
     0
  0
CLASS
  1
AEC_AECDBAREAPROPOSALNAMES
  2
AecDbAreaProposalNames
  3
AecAreaCalculationBase50|Product Desc: Autodesk Architectural Desktop 2007 |Company: Autodesk,Inc. |WEB Address: www.autodesk.com
 90
    32897
280
     0
281
     0
  0
CLASS
  1
AEC_AREA
  2
AecDbArea
  3
AecAreaCalculationBase50|Product Desc: Autodesk Architectural Desktop 2007 |Company: Autodesk,Inc. |WEB Address: www.autodesk.com
 90
    33661
280
     0
281
     1
  0
CLASS
  1
OBJECT_PTR
  2
CAseDLPNTableRecord
  3
ASE-LPNTableRecord
 90
    32769
280
     1
281
     0
  0
CLASS
  1
TABLESTYLE
  2
AcDbTableStyle
  3
ObjectDBX Classes
 90
     4095
280
     0
281
     0
  0
CLASS
  1
AEC_DISP_REP_DISPLAYTHEME
  2
AecDbDispRepDisplayTheme
  3
AecBase50|Product Desc: Autodesk Architectural Desktop 2007 |Company: Autodesk,Inc. |WEB Address: www.autodesk.com
 90
    32897
280
     0
281
     0
  0
CLASS
  1
AEC_DISP_PROPS_DISPLAYTHEME
  2
AecDbDispPropsDisplayTheme
  3
AecBase50|Product Desc: Autodesk Architectural Desktop 2007 |Company: Autodesk,Inc. |WEB Address: www.autodesk.com
 90
    32897
280
     0
281
     0
  0
CLASS
  1
AEC_DISP_REP_ANCHOR_EXT_TAG_TO_ENT
  2
AecDbDispRepAnchorExtendedTagToEnt
  3
AecScheduleData50|Product Desc: Autodesk Architectural Desktop 2007 |Company: Autodesk,Inc. |WEB Address: www.autodesk.com
 90
    32897
280
     0
281
     0
  0
CLASS
  1
VISUALSTYLE
  2
AcDbVisualStyle
  3
ObjectDBX Classes
 90
     4095
280
     0
281
     0
  0
CLASS
  1
AEC_AECDBDISPREPZONE100
  2
AecDbDispRepZonePlan100
  3
AecArchDACHBase50|Product Desc: Autodesk Architectural Desktop 2007 |Company: Autodesk,Inc. |WEB Address: www.autodesk.com
 90
    32897
280
     0
281
     0
  0
CLASS
  1
AEC_DISP_PROPS_ZONE
  2
AecDbDispPropsZone
  3
AecArchBase50|Product Desc: Autodesk Architectural Desktop 2007 |Company: Autodesk,Inc. |WEB Address: www.autodesk.com
 90
    32897
280
     0
281
     0
  0
CLASS
  1
AEC_AECDBDISPREPZONE50
  2
AecDbDispRepZonePlan50
  3
AecArchDACHBase50|Product Desc: Autodesk Architectural Desktop 2007 |Company: Autodesk,Inc. |WEB Address: www.autodesk.com
 90
    32897
280
     0
281
     0
  0
CLASS
  1
AEC_DISP_REP_SPACE_DECOMPOSED
  2
AecDbDispRepSpaceDecomposed
  3
AecArchBase50|Product Desc: Autodesk Architectural Desktop 2007 |Company: Autodesk,Inc. |WEB Address: www.autodesk.com
 90
    32897
280
     0
281
     0
  0
CLASS
  1
AEC_DISP_PROPS_SPACE_DECOMPOSED
  2
AecDbDispPropsSpaceDecomposed
  3
AecArchBase50|Product Desc: Autodesk Architectural Desktop 2007 |Company: Autodesk,Inc. |WEB Address: www.autodesk.com
 90
    32897
280
     0
281
     0
  0
CLASS
  1
AEC_DISP_REP_ZONE
  2
AecDbDispRepZone
  3
AecArchBase50|Product Desc: Autodesk Architectural Desktop 2007 |Company: Autodesk,Inc. |WEB Address: www.autodesk.com
 90
    32897
280
     0
281
     0
  0
CLASS
  1
AEC_LIST_DEF
  2
AecDbListDefinition
  3
AecBase50|Product Desc: Autodesk Architectural Desktop 2007 |Company: Autodesk,Inc. |WEB Address: www.autodesk.com
 90
    32897
280
     0
281
     0
  0
CLASS
  1
EXACXREFPANELOBJECT
  2
ExAcXREFPanelObject
  3
EXAC_ESW
 90
    33793
280
     1
281
     0
  0
CLASS
  1
NPOCOLLECTION
  2
AcDbImpNonPersistentObjectsCollection
  3
ObjectDBX Classes
 90
    33921
280
     0
281
     0
  0
CLASS
  1
ACAD_EVALUATION_GRAPH
  2
AcDbEvalGraph
  3
ObjectDBX Classes
 90
    33921
280
     0
281
     0
  0
CLASS
  1
BLOCKLINEARPARAMETER
  2
AcDbBlockLinearParameter
  3
ObjectDBX Classes
 90
    33921
280
     0
281
     0
  0
CLASS
  1
BLOCKLINEARGRIP
  2
AcDbBlockLinearGrip
  3
ObjectDBX Classes
 90
    33921
280
     0
281
     0
  0
CLASS
  1
BLOCKGRIPLOCATIONCOMPONENT
  2
AcDbBlockGripExpr
  3
ObjectDBX Classes
 90
    33921
280
     0
281
     0
  0
CLASS
  1
BLOCKSTRETCHACTION
  2
AcDbBlockStretchAction
  3
ObjectDBX Classes
 90
    33921
280
     0
281
     0
  0
CLASS
  1
BLOCKFLIPPARAMETER
  2
AcDbBlockFlipParameter
  3
ObjectDBX Classes
 90
    33921
280
     0
281
     0
  0
CLASS
  1
BLOCKFLIPGRIP
  2
AcDbBlockFlipGrip
  3
ObjectDBX Classes
 90
    33921
280
     0
281
     0
  0
CLASS
  1
BLOCKFLIPACTION
  2
AcDbBlockFlipAction
  3
ObjectDBX Classes
 90
    33921
280
     0
281
     0
  0
CLASS
  1
ACDB_DYNAMICBLOCKPURGEPREVENTER_VERSION
  2
AcDbDynamicBlockPurgePreventer
  3
ObjectDBX Classes
 90
    33921
280
     0
281
     0
  0
CLASS
  1
ACDB_BLOCKREPRESENTATION_DATA
  2
AcDbBlockRepresentationData
  3
ObjectDBX Classes
 90
    33921
280
     0
281
     0
  0
CLASS
  1
AEC_SLAB
  2
AecDbSlab
  3
AecArchBase50|Product Desc: Autodesk Architectural Desktop 2007 |Company: Autodesk,Inc. |WEB Address: www.autodesk.com
 90
    33661
280
     0
281
     1
  0
CLASS
  1
AEC_LIST_DEF
  2
AecDbListItem
  3
AecBase50|Product Desc: Autodesk Architectural Desktop 2007 |Company: Autodesk,Inc. |WEB Address: www.autodesk.com
 90
    32897
280
     0
281
     0
  0
CLASS
  1
AEC_ROOFSLAB_STYLE
  2
AecDbRoofSlabStyle
  3
AecArchBase50|Product Desc: Autodesk Architectural Desktop 2007 |Company: Autodesk,Inc. |WEB Address: www.autodesk.com
 90
    32897
280
     0
281
     0
  0
CLASS
  1
AEC_ROOFSLABEDGE_STYLE
  2
AecDbRoofSlabEdgeStyle
  3
AecArchBase50|Product Desc: Autodesk Architectural Desktop 2007 |Company: Autodesk,Inc. |WEB Address: www.autodesk.com
 90
    32897
280
     0
281
     0
  0
CLASS
  1
AEC_SLAB_STYLE
  2
AecDbSlabStyle
  3
AecArchBase50|Product Desc: Autodesk Architectural Desktop 2007 |Company: Autodesk,Inc. |WEB Address: www.autodesk.com
 90
    32897
280
     0
281
     0
  0
CLASS
  1
AEC_SLABEDGE_STYLE
  2
AecDbSlabEdgeStyle
  3
AecArchBase50|Product Desc: Autodesk Architectural Desktop 2007 |Company: Autodesk,Inc. |WEB Address: www.autodesk.com
 90
    32897
280
     0
281
     0
  0
CLASS
  1
EXACTERMXREFMAP
  2
ExAcTermXrefMap
  3
EXAC_SERVICE
 90
    33793
280
     1
281
     0
  0
CLASS
  1
AEC_AECDBZONESTYLE
  2
AecDbZoneStyle
  3
AecArchBase50|Product Desc: Autodesk Architectural Desktop 2007 |Company: Autodesk,Inc. |WEB Address: www.autodesk.com
 90
    32897
280
     0
281
     0
  0
CLASS
  1
AEC_ZONE
  2
AecDbZone
  3
AecArchBase50|Product Desc: Autodesk Architectural Desktop 2007 |Company: Autodesk,Inc. |WEB Address: www.autodesk.com
 90
    33661
280
     0
281
     1
  0
CLASS
  1
ACAD_TABLE
  2
AcDbTable
  3
ObjectDBX Classes
 90
    33793
280
     0
281
     1
  0
CLASS
  1
AEC_DISPLAYTHEME_STYLE
  2
AecDbDisplayThemeStyle
  3
AecBase50|Product Desc: Autodesk Architectural Desktop 2007 |Company: Autodesk,Inc. |WEB Address: www.autodesk.com
 90
    32897
280
     0
281
     0
  0
CLASS
  1
DIMASSOC
  2
AcDbDimAssoc
  3
"AcDbDimAssoc|Product Desc:     AcDim ARX App For Dimension|Company:          Autodesk, Inc.|WEB Address:      www.autodesk.com"
 90
    32768
280
     0
281
     0
  0
CLASS
  1
AEC_MASS_GROUP
  2
AecDbMassGroup
  3
AecBaseEx50|Product Desc: Autodesk Architectural Desktop 2007 |Company: Autodesk,Inc. |WEB Address: www.autodesk.com
 90
    33661
280
     0
281
     1
  0
CLASS
  1
AEC_ANCHOR_ENT_TO_ENT
  2
AecDbAnchorEntToEnt
  3
AecBase50|Product Desc: Autodesk Architectural Desktop 2007 |Company: Autodesk,Inc. |WEB Address: www.autodesk.com
 90
    32897
280
     0
281
     0
  0
CLASS
  1
AEC_2D_SECTION
  2
AecDb2dSection
  3
AecBase50|Product Desc: Autodesk Architectural Desktop 2007 |Company: Autodesk,Inc. |WEB Address: www.autodesk.com
 90
    33661
280
     0
281
     1
  0
CLASS
  1
AEC_2DSECTION_STYLE
  2
AecDb2dSectionStyle
  3
AecBase50|Product Desc: Autodesk Architectural Desktop 2007 |Company: Autodesk,Inc. |WEB Address: www.autodesk.com
 90
    32897
280
     0
281
     0
  0
CLASS
  1
SCALE
  2
AcDbScale
  3
ObjectDBX Classes
 90
     1153
280
     0
281
     0
  0
CLASS
  1
MLEADERSTYLE
  2
AcDbMLeaderStyle
  3
ACDB_MLEADERSTYLE_CLASS
 90
     4095
280
     0
281
     0
  0
CLASS
  1
AEC_REFEDIT_STATUS_TRACKER
  2
AecDbRefEditStatusTracker
  3
AecArchBase50|Product Desc: Autodesk Architectural Desktop 2007 |Company: Autodesk,Inc. |WEB Address: www.autodesk.com
 90
    32897
280
     0
281
     0
  0
CLASS
  1
CELLSTYLEMAP
  2
AcDbCellStyleMap
  3
ObjectDBX Classes
 90
     1152
280
     0
281
     0
  0
CLASS
  1
BLOCKARRAYACTION
  2
AcDbBlockArrayAction
  3
ObjectDBX Classes
 90
    33921
280
     0
281
     0
  0
CLASS
  1
BLOCKBASEPOINTPARAMETER
  2
AcDbBlockBasepointParameter
  3
ObjectDBX Classes
 90
    33921
280
     0
281
     0
  0
CLASS
  1
SOLID_BACKGROUND
  2
AcDbSolidBackground
  3
SCENEOE
 90
    36863
280
     0
281
     0
  0
ENDSEC
  0
SECTION
  2
TABLES
  0
TABLE
  2
VPORT
  5
28
330
0
100
AcDbSymbolTable
 70
     1
  0
VPORT
  5
29
330
28
100
AcDbSymbolTableRecord
100
AcDbViewportTableRecord
  2
*Active
 70
     0
 10
0.0
 20
0.0
 11
1.0
 21
1.0
 12
73146.04462889061
 22
-4607.575108062696
 13
-3534.953416816247
 23
4038.000000000049
 14
1.0
 24
1.0
 15
1.0
 25
1.0
 16
0.0
 26
0.0
 36
1.0
 17
0.0
 27
0.0
 37
0.0
 40
32171.32996359971
 41
1.612947658402203
 42
50.0
 43
0.0
 44
0.0
 50
0.0
 51
0.0
 71
     0
 72
  2000
 73
     1
 74
     1
 75
     0
 76
     0
 77
     0
 78
     0
281
     0
 65
     1
110
0.0
120
0.0
130
0.0
111
1.0
121
0.0
131
0.0
112
0.0
122
1.0
132
0.0
 79
     0
146
0.0
  0
ENDTAB
  0
TABLE
  2
LTYPE
  5
23
330
0
100
AcDbSymbolTable
 70
     3
  0
LTYPE
  5
24
330
23
100
AcDbSymbolTableRecord
100
AcDbLinetypeTableRecord
  2
BYBLOCK
 70
     0
  3

 72
    65
 73
     0
 40
0.0
  0
LTYPE
  5
25
330
23
100
AcDbSymbolTableRecord
100
AcDbLinetypeTableRecord
  2
BYLAYER
 70
     0
  3

 72
    65
 73
     0
 40
0.0
  0
LTYPE
  5
E
330
23
100
AcDbSymbolTableRecord
100
AcDbLinetypeTableRecord
  2
CONTINUOUS
 70
     0
  3
Solid line
 72
    65
 73
     0
 40
0.0
  0
LTYPE
  5
77
330
23
100
AcDbSymbolTableRecord
100
AcDbLinetypeTableRecord
  2
DASHED
 70
     0
  3
Dashed __ __ __ __ __ __ __ __ __ __ __ __ __ _
 72
    65
 73
     2
 40
0.75
 49
0.5
 74
     0
 49
-0.25
 74
     0
  0
ENDTAB
  0
TABLE
  2
LAYER
  5
1D
102
{ACAD_XDICTIONARY
360
1E
102
}
330
0
100
AcDbSymbolTable
 70
     9
  0
LAYER
  5
6
102
{ACAD_XDICTIONARY
360
7
102
}
330
1D
100
AcDbSymbolTableRecord
100
AcDbLayerTableRecord
  2
0
 70
     0
 62
     7
  6
CONTINUOUS
370
    -3
390
9
1001
RAK
1000
{ACET-LAYISO
1070
     0
1070
     7
1000
CONTINUOUS
1070
     1
1071
       -3
1071
        1
1005
9
1000
ACET-LAYISO}
  0
LAYER
  5
74
102
{ACAD_XDICTIONARY
360
75
102
}
330
1D
100
AcDbSymbolTableRecord
100
AcDbLayerTableRecord
  2
NAPISY
 70
     0
 62
   140
  6
CONTINUOUS
370
    -3
390
9
1001
RAK
1000
{ACET-LAYISO
1070
     0
1070
   140
1000
CONTINUOUS
1071
       -3
1071
        1
1005
9
1000
ACET-LAYISO}
  0
LAYER
  5
3B5
330
1D
100
AcDbSymbolTableRecord
100
AcDbLayerTableRecord
  2
Defpoints
 70
     0
 62
     7
  6
CONTINUOUS
290
     0
370
    -3
390
9
1001
RAK
1000
{ACET-LAYISO
1070
     0
1070
     7
1000
CONTINUOUS
1071
       -3
1071
        0
1005
9
1000
ACET-LAYISO}
  0
LAYER
  5
56
102
{ACAD_XDICTIONARY
360
57
102
}
330
1D
100
AcDbSymbolTableRecord
100
AcDbLayerTableRecord
  2
0Wymiary-PL
 70
     0
 62
     1
  6
CONTINUOUS
370
     5
390
9
  0
LAYER
  5
3A3
102
{ACAD_XDICTIONARY
360
3A4
102
}
330
1D
100
AcDbSymbolTableRecord
100
AcDbLayerTableRecord
  2
0Hatch
 70
     0
 62
   122
  6
CONTINUOUS
370
     5
390
9
  0
LAYER
  5
7E
102
{ACAD_XDICTIONARY
360
7F
102
}
330
1D
100
AcDbSymbolTableRecord
100
AcDbLayerTableRecord
  2
RAMKI-A4
 70
     0
 62
     2
  6
CONTINUOUS
290
     0
370
    -3
390
9
1001
RAK
1000
{ACET-LAYISO
1070
     0
1070
     2
1000
Continuous
1071
       -3
1071
        0
1005
9
1000
ACET-LAYISO}
  0
LAYER
  5
1326
330
1D
100
AcDbSymbolTableRecord
100
AcDbLayerTableRecord
  2
TEREN$0$A-MassElement-G
 70
     0
 62
   210
  6
CONTINUOUS
370
     9
390
9
1001
AcAecLayerStandard
1000
BS1192 - Descriptive
1001
RAK
1000
{ACET-LAYISO
1070
     0
1070
   210
1000
Continuous
1071
        9
1071
        1
1005
9
1000
ACET-LAYISO}
  0
ENDTAB
  0
TABLE
  2
STYLE
  5
20
330
0
100
AcDbSymbolTable
 70
     4
  0
STYLE
  5
21
330
20
100
AcDbSymbolTableRecord
100
AcDbTextStyleTableRecord
  2
STANDARD
 70
     0
 40
0.0
 41
1.0
 50
0.0
 71
     0
 42
0.2
  3
txt
  4

  0
STYLE
  5
2E
330
20
100
AcDbSymbolTableRecord
100
AcDbTextStyleTableRecord
  2
ROMANS
 70
     0
 40
0.0
 41
0.9
 50
0.0
 71
     0
 42
5.0
  3
romans.shx
  4

  0
STYLE
  5
79
330
20
100
AcDbSymbolTableRecord
100
AcDbTextStyleTableRecord
  2
AVA
 70
     0
 40
0.0
 41
1.0
 50
0.0
 71
     0
 42
20.0
  3
ARIAL.TTF
  4

1001
ACAD
1000
Arial CE
1071
    60962
  0
ENDTAB
  0
TABLE
  2
VIEW
  5
26
330
0
100
AcDbSymbolTable
 70
     1
  0
VIEW
  5
13
330
26
100
AcDbSymbolTableRecord
100
AcDbViewTableRecord
  2
10-ele
 70
     0
 40
2040.000000000001
 10
597.6361962217097
 20
4133.999999999996
 41
2803.999999999998
 11
0.0
 21
0.0
 31
1.0
 12
0.0
 22
0.0
 32
0.0
 42
50.0
 43
0.0
 44
0.0
 50
0.0
 71
     0
281
     0
 72
     1
110
0.0
120
0.0
130
0.0
111
1.0
121
0.0
131
0.0
112
0.0
122
1.0
132
0.0
 79
     0
146
0.0
  0
ENDTAB
  0
TABLE
  2
UCS
  5
27
330
0
100
AcDbSymbolTable
 70
     0
  0
ENDTAB
  0
TABLE
  2
APPID
  5
2A
330
0
100
AcDbSymbolTable
 70
     6
  0
APPID
  5
2B
330
2A
100
AcDbSymbolTableRecord
100
AcDbRegAppTableRecord
  2
ACAD
 70
     0
  0
APPID
  5
F
330
2A
100
AcDbSymbolTableRecord
100
AcDbRegAppTableRecord
  2
RAK
 70
     0
  0
APPID
  5
16
330
2A
100
AcDbSymbolTableRecord
100
AcDbRegAppTableRecord
  2
ACAD_PSEXT
 70
     0
  0
APPID
  5
7AA
330
2A
100
AcDbSymbolTableRecord
100
AcDbRegAppTableRecord
  2
ACAD_MLEADERVER
 70
     0
  0
APPID
  5
B8E
330
2A
100
AcDbSymbolTableRecord
100
AcDbRegAppTableRecord
  2
ACAD_EXEMPT_FROM_CAD_STANDARDS
 70
     0
  0
APPID
  5
132A
330
2A
100
AcDbSymbolTableRecord
100
AcDbRegAppTableRecord
  2
AcAecLayerStandard
 70
     0
  0
ENDTAB
  0
TABLE
  2
DIMSTYLE
  5
2C
330
0
100
AcDbSymbolTable
 70
     4
100
AcDbDimStyleTable
 71
     2
340
2D
340
4C
  0
DIMSTYLE
105
4C
330
2C
100
AcDbSymbolTableRecord
100
AcDbDimStyleTableRecord
  2
Standard
 70
     0
340
21
  0
DIMSTYLE
105
2D
102
{ACAD_REACTORS
330
1E4A
330
1E4B
330
1E4C
330
1E4D
330
1E4E
330
1E4F
330
1E50
330
2027
330
2028
330
2029
330
202A
330
202B
330
202C
330
202D
102
}
330
2C
100
AcDbSymbolTableRecord
100
AcDbDimStyleTableRecord
  2
500
 70
     0
 41
30.0
 42
43.0
 43
0.0
 44
13.0
 45
0.5
 46
12.0
 73
     0
 74
     0
 75
     1
 76
     1
 78
    12
140
80.0
141
0.0
145
1.0
147
0.0
172
     1
174
     1
176
     1
177
     1
178
   140
271
     1
272
     1
279
     2
340
2E
341
2F
342
2F
  0
ENDTAB
  0
TABLE
  2
BLOCK_RECORD
  5
1
330
0
100
AcDbSymbolTable
 70
    57
  0
BLOCK_RECORD
  5
2
102
{ACAD_XDICTIONARY
360
3
102
}
330
1
100
AcDbSymbolTableRecord
100
AcDbBlockTableRecord
  2
*MODEL_SPACE
340
11
  0
BLOCK_RECORD
  5
1942
330
1
100
AcDbSymbolTableRecord
100
AcDbBlockTableRecord
  2
*Paper_Space
340
1943
  0
BLOCK_RECORD
  5
2F
102
{ACAD_XDICTIONARY
360
30
102
}
330
1
100
AcDbSymbolTableRecord
100
AcDbBlockTableRecord
  2
B-DIM
340
0
102
{BLKREFS
331
1BB3
331
1BB4
331
1BBA
331
1BBB
331
1BC1
331
1BC2
331
1BCF
331
1BD0
331
1BD6
331
1BD7
331
1BDD
331
1BDE
331
1BE6
331
1BE7
331
1BF6
331
1BF7
331
1BFD
331
1BFE
331
1C04
331
1C05
331
1C0B
331
1C0C
331
1C14
331
1C15
331
1C22
331
1C23
331
1C29
331
1C2A
331
1C34
331
1C35
331
1C3D
331
1C3E
331
1C46
331
1C47
331
1C4D
331
1C4E
331
1C6F
331
1C70
331
1C79
331
1C7A
331
1C83
331
1C84
331
1C8C
331
1C8D
331
1C96
331
1C97
331
1CA0
331
1CA1
331
1CAA
331
1CAB
331
1CB5
331
1CB6
331
1CBF
331
1CC0
331
1CC9
331
1CCA
331
1CD2
331
1CD3
331
1CDC
331
1CDD
331
1CE6
331
1CE7
331
1CF0
331
1CF1
331
1F7B
331
1F7C
331
1F82
331
1F83
331
1F89
331
1F8A
331
1F8F
331
1F90
331
1F96
331
1F97
331
1F9D
331
1F9E
331
1FA4
331
1FA5
331
1FD8
331
1FD9
331
1FDF
331
1FE0
331
1FE6
331
1FE7
331
1FEC
331
1FED
331
1FF3
331
1FF4
331
1FFA
331
1FFB
331
200E
331
200F
331
2077
331
2078
331
207E
331
207F
331
2085
331
2086
331
208B
331
208C
331
2092
331
2093
331
2099
331
209A
331
20A0
331
20A1
102
}
  0
BLOCK_RECORD
  5
1EBC
330
1
100
AcDbSymbolTableRecord
100
AcDbBlockTableRecord
  2
*D34
340
0
  0
BLOCK_RECORD
  5
1EC6
330
1
100
AcDbSymbolTableRecord
100
AcDbBlockTableRecord
  2
*D35
340
0
  0
BLOCK_RECORD
  5
1ED0
330
1
100
AcDbSymbolTableRecord
100
AcDbBlockTableRecord
  2
*D36
340
0
  0
BLOCK_RECORD
  5
1EDA
330
1
100
AcDbSymbolTableRecord
100
AcDbBlockTableRecord
  2
*D37
340
0
  0
BLOCK_RECORD
  5
1EE4
330
1
100
AcDbSymbolTableRecord
100
AcDbBlockTableRecord
  2
*D38
340
0
  0
BLOCK_RECORD
  5
1EEE
330
1
100
AcDbSymbolTableRecord
100
AcDbBlockTableRecord
  2
*D39
340
0
  0
BLOCK_RECORD
  5
1EF8
330
1
100
AcDbSymbolTableRecord
100
AcDbBlockTableRecord
  2
*D40
340
0
  0
BLOCK_RECORD
  5
202F
330
1
100
AcDbSymbolTableRecord
100
AcDbBlockTableRecord
  2
*D49
340
0
  0
BLOCK_RECORD
  5
2039
330
1
100
AcDbSymbolTableRecord
100
AcDbBlockTableRecord
  2
*D50
340
0
  0
BLOCK_RECORD
  5
2043
330
1
100
AcDbSymbolTableRecord
100
AcDbBlockTableRecord
  2
*D51
340
0
  0
BLOCK_RECORD
  5
204D
330
1
100
AcDbSymbolTableRecord
100
AcDbBlockTableRecord
  2
*D52
340
0
  0
BLOCK_RECORD
  5
2057
330
1
100
AcDbSymbolTableRecord
100
AcDbBlockTableRecord
  2
*D53
340
0
  0
BLOCK_RECORD
  5
2061
330
1
100
AcDbSymbolTableRecord
100
AcDbBlockTableRecord
  2
*D54
340
0
  0
BLOCK_RECORD
  5
206B
330
1
100
AcDbSymbolTableRecord
100
AcDbBlockTableRecord
  2
*D55
340
0
  0
ENDTAB
  0
ENDSEC
  0
SECTION
  2
BLOCKS
  0
BLOCK
  5
5
330
2
100
AcDbEntity
  8
0
100
AcDbBlockBegin
  2
*MODEL_SPACE
 70
     0
 10
0.0
 20
0.0
 30
0.0
  3
*MODEL_SPACE
  1

  0
ENDBLK
  5
10
330
2
100
AcDbEntity
  8
0
100
AcDbBlockEnd
  0
BLOCK
  5
1944
330
1942
100
AcDbEntity
 67
     1
  8
0
 48
4.0
100
AcDbBlockBegin
  2
*Paper_Space
 70
     0
 10
0.0
 20
0.0
 30
0.0
  3
*Paper_Space
  1

  0
ENDBLK
  5
1945
330
1942
100
AcDbEntity
 67
     1
  8
0
 48
4.0
100
AcDbBlockEnd
  0
BLOCK
  5
32
330
2F
100
AcDbEntity
  8
0
100
AcDbBlockBegin
  2
B-DIM
 70
     0
 10
0.0
 20
0.0
 30
0.0
  3
B-DIM
  1

  0
LINE
  5
33
330
2F
100
AcDbEntity
  8
0
 62
     1
100
AcDbLine
 10
0.000000000000091
 20
-1.1
 30
0.0
 11
0.000000000000091
 21
1.1
 31
0.0
  0
LWPOLYLINE
  5
34
330
2F
100
AcDbEntity
  8
0
 62
     1
100
AcDbPolyline
 90
        2
 70
     0
 43
0.3
 10
-0.7071067811864851
 20
-0.7071067811864851
 10
0.707106781186576
 20
0.707106781186576
  0
LINE
  5
35
330
2F
100
AcDbEntity
  8
0
 62
     1
100
AcDbLine
 10
1.20000000000009
 20
0.0
 30
0.0
 11
-1.199999999999909
 21
0.0
 31
0.0
  0
ENDBLK
  5
36
330
2F
100
AcDbEntity
  8
0
100
AcDbBlockEnd
  0
BLOCK
  5
1EBD
330
1EBC
100
AcDbEntity
  8
0
 48
4.0
100
AcDbBlockBegin
  2
*D34
 70
     1
 10
0.0
 20
0.0
 30
0.0
  3
*D34
  1

  0
LINE
  5
1FD6
330
1EBC
100
AcDbEntity
  8
0Wymiary-PL
 62
     1
370
    -2
100
AcDbLine
 10
69590.4117020502
 20
-3768.180414655937
 30
0.0
 11
70420.41170205021
 21
-3768.180414655937
 31
0.0
  0
MTEXT
  5
1FD7
330
1EBC
100
AcDbEntity
  8
0Wymiary-PL
 62
   140
370
     5
100
AcDbMText
 10
69830.99071155431
 20
-3688.180414655937
 30
0.0
 40
80.0
 41
0.0
 71
     5
 72
     1
  1
\A1;890
  7
ROMANS
 73
     1
 44
1.0
1001
ACAD
1000
MTEXTBEGIN
1070
    73
1070
     1
1070
    44
1040
1.0
1070
    74
1070
     0
1000
MTEXTEND
  0
INSERT
  5
1FD8
330
1EBC
100
AcDbEntity
  8
0Wymiary-PL
 62
     1
370
    -2
100
AcDbBlockReference
  2
B-DIM
 10
69560.4117020502
 20
-3768.180414655937
 30
0.0
 41
30.0
 42
30.0
 43
30.0
 50
180.0
  0
INSERT
  5
1FD9
330
1EBC
100
AcDbEntity
  8
0Wymiary-PL
 62
     1
370
    -2
100
AcDbBlockReference
  2
B-DIM
 10
70450.41170205021
 20
-3768.180414655937
 30
0.0
 41
30.0
 42
30.0
 43
30.0
  0
POINT
  5
1FDA
330
1EBC
100
AcDbEntity
  8
Defpoints
 62
     0
100
AcDbPoint
 10
69560.4117020502
 20
-4123.586932864639
 30
0.0
  0
POINT
  5
1FDB
330
1EBC
100
AcDbEntity
  8
Defpoints
 62
     0
100
AcDbPoint
 10
70450.41170205021
 20
-4123.586932864646
 30
0.0
  0
POINT
  5
1FDC
330
1EBC
100
AcDbEntity
  8
Defpoints
 62
     0
100
AcDbPoint
 10
70450.41170205021
 20
-3768.180414655937
 30
0.0
  0
ENDBLK
  5
1EBE
330
1EBC
100
AcDbEntity
  8
0
 48
4.0
100
AcDbBlockEnd
  0
BLOCK
  5
1EC7
330
1EC6
100
AcDbEntity
  8
0
 48
4.0
100
AcDbBlockBegin
  2
*D35
 70
     1
 10
0.0
 20
0.0
 30
0.0
  3
*D35
  1

  0
LINE
  5
1FDD
330
1EC6
100
AcDbEntity
  8
0Wymiary-PL
 62
     1
370
    -2
100
AcDbLine
 10
70480.41170205022
 20
-3768.180414655937
 30
0.0
 11
70520.41170205021
 21
-3768.180414655937
 31
0.0
  0
MTEXT
  5
1FDE
330
1EC6
100
AcDbEntity
  8
0Wymiary-PL
 62
   140
370
     5
100
AcDbMText
 10
70519.52616987803
 20
-3688.180414655937
 30
0.0
 40
80.0
 41
0.0
 71
     5
 72
     1
  1
\A1;100
  7
ROMANS
 73
     1
 44
1.0
1001
ACAD
1000
MTEXTBEGIN
1070
    73
1070
     1
1070
    44
1040
1.0
1070
    74
1070
     0
1000
MTEXTEND
  0
INSERT
  5
1FDF
330
1EC6
100
AcDbEntity
  8
0Wymiary-PL
 62
     1
370
    -2
100
AcDbBlockReference
  2
B-DIM
 10
70450.41170205021
 20
-3768.180414655937
 30
0.0
 41
30.0
 42
30.0
 43
30.0
 50
180.0
  0
INSERT
  5
1FE0
330
1EC6
100
AcDbEntity
  8
0Wymiary-PL
 62
     1
370
    -2
100
AcDbBlockReference
  2
B-DIM
 10
70550.41170205021
 20
-3768.180414655937
 30
0.0
 41
30.0
 42
30.0
 43
30.0
  0
POINT
  5
1FE1
330
1EC6
100
AcDbEntity
  8
Defpoints
 62
     0
100
AcDbPoint
 10
70450.41170205021
 20
-4123.586932864646
 30
0.0
  0
POINT
  5
1FE2
330
1EC6
100
AcDbEntity
  8
Defpoints
 62
     0
100
AcDbPoint
 10
70550.41170205021
 20
-4478.586932864661
 30
0.0
  0
POINT
  5
1FE3
330
1EC6
100
AcDbEntity
  8
Defpoints
 62
     0
100
AcDbPoint
 10
70550.41170205021
 20
-3768.180414655937
 30
0.0
  0
ENDBLK
  5
1EC8
330
1EC6
100
AcDbEntity
  8
0
 48
4.0
100
AcDbBlockEnd
  0
BLOCK
  5
1ED1
330
1ED0
100
AcDbEntity
  8
0
 48
4.0
100
AcDbBlockBegin
  2
*D36
 70
     1
 10
0.0
 20
0.0
 30
0.0
  3
*D36
  1

  0
LINE
  5
1FE4
330
1ED0
100
AcDbEntity
  8
0Wymiary-PL
 62
     1
370
    -2
100
AcDbLine
 10
69590.4117020502
 20
-3568.382889124972
 30
0.0
 11
70520.41170205021
 21
-3568.382889124972
 31
0.0
  0
MTEXT
  5
1FE5
330
1ED0
100
AcDbEntity
  8
0Wymiary-PL
 62
   140
370
     5
100
AcDbMText
 10
70055.9977580675
 20
-3488.382889124972
 30
0.0
 40
80.0
 41
0.0
 71
     5
 72
     1
  1
\A1;990
  7
ROMANS
 73
     1
 44
1.0
1001
ACAD
1000
MTEXTBEGIN
1070
    73
1070
     1
1070
    44
1040
1.0
1070
    74
1070
     0
1000
MTEXTEND
  0
INSERT
  5
1FE6
330
1ED0
100
AcDbEntity
  8
0Wymiary-PL
 62
     1
370
    -2
100
AcDbBlockReference
  2
B-DIM
 10
69560.4117020502
 20
-3568.382889124972
 30
0.0
 41
30.0
 42
30.0
 43
30.0
 50
180.0
  0
INSERT
  5
1FE7
330
1ED0
100
AcDbEntity
  8
0Wymiary-PL
 62
     1
370
    -2
100
AcDbBlockReference
  2
B-DIM
 10
70550.41170205021
 20
-3568.382889124972
 30
0.0
 41
30.0
 42
30.0
 43
30.0
  0
POINT
  5
1FE8
330
1ED0
100
AcDbEntity
  8
Defpoints
 62
     0
100
AcDbPoint
 10
69560.4117020502
 20
-4123.58693286464
 30
0.0
  0
POINT
  5
1FE9
330
1ED0
100
AcDbEntity
  8
Defpoints
 62
     0
100
AcDbPoint
 10
70550.41170205021
 20
-4478.586932864661
 30
0.0
  0
POINT
  5
1FEA
330
1ED0
100
AcDbEntity
  8
Defpoints
 62
     0
100
AcDbPoint
 10
70550.41170205021
 20
-3568.382889124972
 30
0.0
  0
ENDBLK
  5
1ED2
330
1ED0
100
AcDbEntity
  8
0
 48
4.0
100
AcDbBlockEnd
  0
BLOCK
  5
1EDB
330
1EDA
100
AcDbEntity
  8
0
 48
4.0
100
AcDbBlockBegin
  2
*D37
 70
     1
 10
0.0
 20
0.0
 30
0.0
  3
*D37
  1

  0
LINE
  5
1FEB
330
1EDA
100
AcDbEntity
  8
0Wymiary-PL
 62
     1
370
    -2
100
AcDbLine
 10
70754.39606557319
 20
-4153.586932864646
 30
0.0
 11
70754.39606557319
 21
-4348.586932864651
 31
0.0
  0
INSERT
  5
1FEC
330
1EDA
100
AcDbEntity
  8
0Wymiary-PL
 62
     1
370
    -2
100
AcDbBlockReference
  2
B-DIM
 10
70754.39606557319
 20
-4123.586932864646
 30
0.0
 41
30.0
 42
30.0
 43
30.0
 50
90.0
  0
INSERT
  5
1FED
330
1EDA
100
AcDbEntity
  8
0Wymiary-PL
 62
     1
370
    -2
100
AcDbBlockReference
  2
B-DIM
 10
70754.39606557319
 20
-4378.586932864651
 30
0.0
 41
30.0
 42
30.0
 43
30.0
 50
270.0
  0
MTEXT
  5
1FEE
330
1EDA
100
AcDbEntity
  8
0Wymiary-PL
 62
   140
370
     5
100
AcDbMText
 10
70674.39606557319
 20
-4251.086932864637
 30
0.0
 40
80.0
 41
0.0
 71
     5
 72
     1
  1
\A1;255
  7
ROMANS
 11
0.0000000000000001
 21
1.0
 31
0.0
 73
     1
 44
1.0
1001
ACAD
1000
MTEXTBEGIN
1070
    73
1070
     1
1070
    44
1040
1.0
1070
    74
1070
     0
1000
MTEXTEND
  0
POINT
  5
1FEF
330
1EDA
100
AcDbEntity
  8
Defpoints
 62
     0
100
AcDbPoint
 10
70450.41170205021
 20
-4123.586932864646
 30
0.0
  0
POINT
  5
1FF0
330
1EDA
100
AcDbEntity
  8
Defpoints
 62
     0
100
AcDbPoint
 10
70450.4117020502
 20
-4378.586932864651
 30
0.0
  0
POINT
  5
1FF1
330
1EDA
100
AcDbEntity
  8
Defpoints
 62
     0
100
AcDbPoint
 10
70754.39606557319
 20
-4378.586932864651
 30
0.0
  0
ENDBLK
  5
1EDC
330
1EDA
100
AcDbEntity
  8
0
 48
4.0
100
AcDbBlockEnd
  0
BLOCK
  5
1EE5
330
1EE4
100
AcDbEntity
  8
0
 48
4.0
100
AcDbBlockBegin
  2
*D38
 70
     1
 10
0.0
 20
0.0
 30
0.0
  3
*D38
  1

  0
LINE
  5
1FF2
330
1EE4
100
AcDbEntity
  8
0Wymiary-PL
 62
     1
370
    -2
100
AcDbLine
 10
70754.39606557319
 20
-4408.586932864651
 30
0.0
 11
70754.39606557319
 21
-4698.586932864633
 31
0.0
  0
INSERT
  5
1FF3
330
1EE4
100
AcDbEntity
  8
0Wymiary-PL
 62
     1
370
    -2
100
AcDbBlockReference
  2
B-DIM
 10
70754.39606557319
 20
-4378.586932864651
 30
0.0
 41
30.0
 42
30.0
 43
30.0
 50
90.0
  0
INSERT
  5
1FF4
330
1EE4
100
AcDbEntity
  8
0Wymiary-PL
 62
     1
370
    -2
100
AcDbBlockReference
  2
B-DIM
 10
70754.39606557319
 20
-4728.586932864633
 30
0.0
 41
30.0
 42
30.0
 43
30.0
 50
270.0
  0
MTEXT
  5
1FF5
330
1EE4
100
AcDbEntity
  8
0Wymiary-PL
 62
   140
370
     5
100
AcDbMText
 10
70674.39606557319
 20
-4553.586932864631
 30
0.0
 40
80.0
 41
0.0
 71
     5
 72
     1
  1
\A1;350
  7
ROMANS
 11
0.0000000000000001
 21
1.0
 31
0.0
 73
     1
 44
1.0
1001
ACAD
1000
MTEXTBEGIN
1070
    73
1070
     1
1070
    44
1040
1.0
1070
    74
1070
     0
1000
MTEXTEND
  0
POINT
  5
1FF6
330
1EE4
100
AcDbEntity
  8
Defpoints
 62
     0
100
AcDbPoint
 10
70450.4117020502
 20
-4378.586932864651
 30
0.0
  0
POINT
  5
1FF7
330
1EE4
100
AcDbEntity
  8
Defpoints
 62
     0
100
AcDbPoint
 10
70450.4117020502
 20
-4728.586932864633
 30
0.0
  0
POINT
  5
1FF8
330
1EE4
100
AcDbEntity
  8
Defpoints
 62
     0
100
AcDbPoint
 10
70754.39606557319
 20
-4728.586932864633
 30
0.0
  0
ENDBLK
  5
1EE6
330
1EE4
100
AcDbEntity
  8
0
 48
4.0
100
AcDbBlockEnd
  0
BLOCK
  5
1EEF
330
1EEE
100
AcDbEntity
  8
0
 48
4.0
100
AcDbBlockBegin
  2
*D39
 70
     1
 10
0.0
 20
0.0
 30
0.0
  3
*D39
  1

  0
LINE
  5
1FF9
330
1EEE
100
AcDbEntity
  8
0Wymiary-PL
 62
     1
370
    -2
100
AcDbLine
 10
70754.39606557319
 20
-4758.586932864633
 30
0.0
 11
70754.39606557319
 21
-4953.586932864641
 31
0.0
  0
INSERT
  5
1FFA
330
1EEE
100
AcDbEntity
  8
0Wymiary-PL
 62
     1
370
    -2
100
AcDbBlockReference
  2
B-DIM
 10
70754.39606557319
 20
-4728.586932864633
 30
0.0
 41
30.0
 42
30.0
 43
30.0
 50
90.0
  0
INSERT
  5
1FFB
330
1EEE
100
AcDbEntity
  8
0Wymiary-PL
 62
     1
370
    -2
100
AcDbBlockReference
  2
B-DIM
 10
70754.39606557319
 20
-4983.58693286464
 30
0.0
 41
30.0
 42
30.0
 43
30.0
 50
270.0
  0
MTEXT
  5
1FFC
330
1EEE
100
AcDbEntity
  8
0Wymiary-PL
 62
   140
370
     5
100
AcDbMText
 10
70674.39606557319
 20
-4856.086932864626
 30
0.0
 40
80.0
 41
0.0
 71
     5
 72
     1
  1
\A1;255
  7
ROMANS
 11
0.0000000000000001
 21
1.0
 31
0.0
 73
     1
 44
1.0
1001
ACAD
1000
MTEXTBEGIN
1070
    73
1070
     1
1070
    44
1040
1.0
1070
    74
1070
     0
1000
MTEXTEND
  0
POINT
  5
1FFD
330
1EEE
100
AcDbEntity
  8
Defpoints
 62
     0
100
AcDbPoint
 10
70450.4117020502
 20
-4728.586932864633
 30
0.0
  0
POINT
  5
1FFE
330
1EEE
100
AcDbEntity
  8
Defpoints
 62
     0
100
AcDbPoint
 10
70450.4117020502
 20
-4983.58693286464
 30
0.0
  0
POINT
  5
1FFF
330
1EEE
100
AcDbEntity
  8
Defpoints
 62
     0
100
AcDbPoint
 10
70754.39606557319
 20
-4983.58693286464
 30
0.0
  0
ENDBLK
  5
1EF0
330
1EEE
100
AcDbEntity
  8
0
 48
4.0
100
AcDbBlockEnd
  0
BLOCK
  5
1EF9
330
1EF8
100
AcDbEntity
  8
0
 48
4.0
100
AcDbBlockBegin
  2
*D40
 70
     1
 10
0.0
 20
0.0
 30
0.0
  3
*D40
  1

  0
LINE
  5
200D
330
1EF8
100
AcDbEntity
  8
0Wymiary-PL
 62
     1
370
    -2
100
AcDbLine
 10
70954.34402769343
 20
-4153.586932864646
 30
0.0
 11
70954.34402769343
 21
-4953.586932864641
 31
0.0
  0
INSERT
  5
200E
330
1EF8
100
AcDbEntity
  8
0Wymiary-PL
 62
     1
370
    -2
100
AcDbBlockReference
  2
B-DIM
 10
70954.34402769343
 20
-4123.586932864646
 30
0.0
 41
30.0
 42
30.0
 43
30.0
 50
90.0
  0
INSERT
  5
200F
330
1EF8
100
AcDbEntity
  8
0Wymiary-PL
 62
     1
370
    -2
100
AcDbBlockReference
  2
B-DIM
 10
70954.34402769343
 20
-4983.58693286464
 30
0.0
 41
30.0
 42
30.0
 43
30.0
 50
270.0
  0
MTEXT
  5
2010
330
1EF8
100
AcDbEntity
  8
0Wymiary-PL
 62
   140
370
     5
100
AcDbMText
 10
70874.34402769343
 20
-4553.586932864631
 30
0.0
 40
80.0
 41
0.0
 71
     5
 72
     1
  1
\A1;860
  7
ROMANS
 11
0.0000000000000001
 21
1.0
 31
0.0
 73
     1
 44
1.0
1001
ACAD
1000
MTEXTBEGIN
1070
    73
1070
     1
1070
    44
1040
1.0
1070
    74
1070
     0
1000
MTEXTEND
  0
POINT
  5
2011
330
1EF8
100
AcDbEntity
  8
Defpoints
 62
     0
100
AcDbPoint
 10
70450.41170205021
 20
-4123.586932864646
 30
0.0
  0
POINT
  5
2012
330
1EF8
100
AcDbEntity
  8
Defpoints
 62
     0
100
AcDbPoint
 10
70450.4117020502
 20
-4983.58693286464
 30
0.0
  0
POINT
  5
2013
330
1EF8
100
AcDbEntity
  8
Defpoints
 62
     0
100
AcDbPoint
 10
70954.34402769343
 20
-4983.58693286464
 30
0.0
  0
ENDBLK
  5
1EFA
330
1EF8
100
AcDbEntity
  8
0
 48
4.0
100
AcDbBlockEnd
  0
BLOCK
  5
2030
330
202F
100
AcDbEntity
  8
0
 48
4.0
100
AcDbBlockBegin
  2
*D49
 70
     1
 10
0.0
 20
0.0
 30
0.0
  3
*D49
  1

  0
LINE
  5
2075
330
202F
100
AcDbEntity
  8
0Wymiary-PL
 62
     1
370
    -2
100
AcDbLine
 10
75050.79969761225
 20
-3768.180414655937
 30
0.0
 11
74220.79969761224
 21
-3768.180414655937
 31
0.0
  0
MTEXT
  5
2076
330
202F
100
AcDbEntity
  8
0Wymiary-PL
 62
   140
370
     5
100
AcDbMText
 10
74810.22068810815
 20
-3688.180414655937
 30
0.0
 40
80.0
 41
0.0
 71
     5
 72
     1
  1
\A1;890
  7
ROMANS
 73
     1
 44
1.0
1001
ACAD
1000
MTEXTBEGIN
1070
    73
1070
     1
1070
    44
1040
1.0
1070
    74
1070
     0
1000
MTEXTEND
  0
INSERT
  5
2077
330
202F
100
AcDbEntity
  8
0Wymiary-PL
 62
     1
370
    -2
100
AcDbBlockReference
  2
B-DIM
 10
75080.79969761225
 20
-3768.180414655937
 30
0.0
 41
30.0
 42
30.0
 43
30.0
  0
INSERT
  5
2078
330
202F
100
AcDbEntity
  8
0Wymiary-PL
 62
     1
370
    -2
100
AcDbBlockReference
  2
B-DIM
 10
74190.79969761224
 20
-3768.180414655937
 30
0.0
 41
30.0
 42
30.0
 43
30.0
 50
180.0
  0
POINT
  5
2079
330
202F
100
AcDbEntity
  8
Defpoints
 62
     0
100
AcDbPoint
 10
75080.79969761225
 20
-4123.586932864639
 30
0.0
  0
POINT
  5
207A
330
202F
100
AcDbEntity
  8
Defpoints
 62
     0
100
AcDbPoint
 10
74190.79969761224
 20
-4123.586932864646
 30
0.0
  0
POINT
  5
207B
330
202F
100
AcDbEntity
  8
Defpoints
 62
     0
100
AcDbPoint
 10
74190.79969761224
 20
-3768.180414655937
 30
0.0
  0
ENDBLK
  5
2031
330
202F
100
AcDbEntity
  8
0
 48
4.0
100
AcDbBlockEnd
  0
BLOCK
  5
203A
330
2039
100
AcDbEntity
  8
0
 48
4.0
100
AcDbBlockBegin
  2
*D50
 70
     1
 10
0.0
 20
0.0
 30
0.0
  3
*D50
  1

  0
LINE
  5
207C
330
2039
100
AcDbEntity
  8
0Wymiary-PL
 62
     1
370
    -2
100
AcDbLine
 10
74160.79969761224
 20
-3768.180414655937
 30
0.0
 11
74120.79969761224
 21
-3768.180414655937
 31
0.0
  0
MTEXT
  5
207D
330
2039
100
AcDbEntity
  8
0Wymiary-PL
 62
   140
370
     5
100
AcDbMText
 10
74121.68522978442
 20
-3688.180414655937
 30
0.0
 40
80.0
 41
0.0
 71
     5
 72
     1
  1
\A1;100
  7
ROMANS
 73
     1
 44
1.0
1001
ACAD
1000
MTEXTBEGIN
1070
    73
1070
     1
1070
    44
1040
1.0
1070
    74
1070
     0
1000
MTEXTEND
  0
INSERT
  5
207E
330
2039
100
AcDbEntity
  8
0Wymiary-PL
 62
     1
370
    -2
100
AcDbBlockReference
  2
B-DIM
 10
74190.79969761224
 20
-3768.180414655937
 30
0.0
 41
30.0
 42
30.0
 43
30.0
  0
INSERT
  5
207F
330
2039
100
AcDbEntity
  8
0Wymiary-PL
 62
     1
370
    -2
100
AcDbBlockReference
  2
B-DIM
 10
74090.79969761224
 20
-3768.180414655937
 30
0.0
 41
30.0
 42
30.0
 43
30.0
 50
180.0
  0
POINT
  5
2080
330
2039
100
AcDbEntity
  8
Defpoints
 62
     0
100
AcDbPoint
 10
74190.79969761224
 20
-4123.586932864646
 30
0.0
  0
POINT
  5
2081
330
2039
100
AcDbEntity
  8
Defpoints
 62
     0
100
AcDbPoint
 10
74090.79969761224
 20
-4478.586932864661
 30
0.0
  0
POINT
  5
2082
330
2039
100
AcDbEntity
  8
Defpoints
 62
     0
100
AcDbPoint
 10
74090.79969761224
 20
-3768.180414655937
 30
0.0
  0
ENDBLK
  5
203B
330
2039
100
AcDbEntity
  8
0
 48
4.0
100
AcDbBlockEnd
  0
BLOCK
  5
2044
330
2043
100
AcDbEntity
  8
0
 48
4.0
100
AcDbBlockBegin
  2
*D51
 70
     1
 10
0.0
 20
0.0
 30
0.0
  3
*D51
  1

  0
LINE
  5
2083
330
2043
100
AcDbEntity
  8
0Wymiary-PL
 62
     1
370
    -2
100
AcDbLine
 10
75050.79969761225
 20
-3568.382889124972
 30
0.0
 11
74120.79969761224
 21
-3568.382889124972
 31
0.0
  0
MTEXT
  5
2084
330
2043
100
AcDbEntity
  8
0Wymiary-PL
 62
   140
370
     5
100
AcDbMText
 10
74585.21364159495
 20
-3488.382889124972
 30
0.0
 40
80.0
 41
0.0
 71
     5
 72
     1
  1
\A1;990
  7
ROMANS
 73
     1
 44
1.0
1001
ACAD
1000
MTEXTBEGIN
1070
    73
1070
     1
1070
    44
1040
1.0
1070
    74
1070
     0
1000
MTEXTEND
  0
INSERT
  5
2085
330
2043
100
AcDbEntity
  8
0Wymiary-PL
 62
     1
370
    -2
100
AcDbBlockReference
  2
B-DIM
 10
75080.79969761225
 20
-3568.382889124972
 30
0.0
 41
30.0
 42
30.0
 43
30.0
  0
INSERT
  5
2086
330
2043
100
AcDbEntity
  8
0Wymiary-PL
 62
     1
370
    -2
100
AcDbBlockReference
  2
B-DIM
 10
74090.79969761224
 20
-3568.382889124972
 30
0.0
 41
30.0
 42
30.0
 43
30.0
 50
180.0
  0
POINT
  5
2087
330
2043
100
AcDbEntity
  8
Defpoints
 62
     0
100
AcDbPoint
 10
75080.79969761225
 20
-4123.58693286464
 30
0.0
  0
POINT
  5
2088
330
2043
100
AcDbEntity
  8
Defpoints
 62
     0
100
AcDbPoint
 10
74090.79969761224
 20
-4478.586932864661
 30
0.0
  0
POINT
  5
2089
330
2043
100
AcDbEntity
  8
Defpoints
 62
     0
100
AcDbPoint
 10
74090.79969761224
 20
-3568.382889124972
 30
0.0
  0
ENDBLK
  5
2045
330
2043
100
AcDbEntity
  8
0
 48
4.0
100
AcDbBlockEnd
  0
BLOCK
  5
204E
330
204D
100
AcDbEntity
  8
0
 48
4.0
100
AcDbBlockBegin
  2
*D52
 70
     1
 10
0.0
 20
0.0
 30
0.0
  3
*D52
  1

  0
LINE
  5
208A
330
204D
100
AcDbEntity
  8
0Wymiary-PL
 62
     1
370
    -2
100
AcDbLine
 10
73886.81533408925
 20
-4153.586932864646
 30
0.0
 11
73886.81533408925
 21
-4348.586932864651
 31
0.0
  0
INSERT
  5
208B
330
204D
100
AcDbEntity
  8
0Wymiary-PL
 62
     1
370
    -2
100
AcDbBlockReference
  2
B-DIM
 10
73886.81533408925
 20
-4123.586932864646
 30
0.0
 41
30.0
 42
30.0
 43
30.0
 50
90.0
  0
INSERT
  5
208C
330
204D
100
AcDbEntity
  8
0Wymiary-PL
 62
     1
370
    -2
100
AcDbBlockReference
  2
B-DIM
 10
73886.81533408925
 20
-4378.586932864651
 30
0.0
 41
30.0
 42
30.0
 43
30.0
 50
270.0
  0
MTEXT
  5
208D
330
204D
100
AcDbEntity
  8
0Wymiary-PL
 62
   140
370
     5
100
AcDbMText
 10
73806.81533408925
 20
-4251.086932864637
 30
0.0
 40
80.0
 41
0.0
 71
     5
 72
     1
  1
\A1;255
  7
ROMANS
 11
0.0000000000000001
 21
1.0
 31
0.0
 73
     1
 44
1.0
1001
ACAD
1000
MTEXTBEGIN
1070
    73
1070
     1
1070
    44
1040
1.0
1070
    74
1070
     0
1000
MTEXTEND
  0
POINT
  5
208E
330
204D
100
AcDbEntity
  8
Defpoints
 62
     0
100
AcDbPoint
 10
74190.79969761224
 20
-4123.586932864646
 30
0.0
  0
POINT
  5
208F
330
204D
100
AcDbEntity
  8
Defpoints
 62
     0
100
AcDbPoint
 10
74190.79969761225
 20
-4378.586932864651
 30
0.0
  0
POINT
  5
2090
330
204D
100
AcDbEntity
  8
Defpoints
 62
     0
100
AcDbPoint
 10
73886.81533408925
 20
-4378.586932864651
 30
0.0
  0
ENDBLK
  5
204F
330
204D
100
AcDbEntity
  8
0
 48
4.0
100
AcDbBlockEnd
  0
BLOCK
  5
2058
330
2057
100
AcDbEntity
  8
0
 48
4.0
100
AcDbBlockBegin
  2
*D53
 70
     1
 10
0.0
 20
0.0
 30
0.0
  3
*D53
  1

  0
LINE
  5
2091
330
2057
100
AcDbEntity
  8
0Wymiary-PL
 62
     1
370
    -2
100
AcDbLine
 10
73886.81533408925
 20
-4408.586932864651
 30
0.0
 11
73886.81533408925
 21
-4698.586932864633
 31
0.0
  0
INSERT
  5
2092
330
2057
100
AcDbEntity
  8
0Wymiary-PL
 62
     1
370
    -2
100
AcDbBlockReference
  2
B-DIM
 10
73886.81533408925
 20
-4378.586932864651
 30
0.0
 41
30.0
 42
30.0
 43
30.0
 50
90.0
  0
INSERT
  5
2093
330
2057
100
AcDbEntity
  8
0Wymiary-PL
 62
     1
370
    -2
100
AcDbBlockReference
  2
B-DIM
 10
73886.81533408925
 20
-4728.586932864633
 30
0.0
 41
30.0
 42
30.0
 43
30.0
 50
270.0
  0
MTEXT
  5
2094
330
2057
100
AcDbEntity
  8
0Wymiary-PL
 62
   140
370
     5
100
AcDbMText
 10
73806.81533408925
 20
-4553.586932864631
 30
0.0
 40
80.0
 41
0.0
 71
     5
 72
     1
  1
\A1;350
  7
ROMANS
 11
0.0000000000000001
 21
1.0
 31
0.0
 73
     1
 44
1.0
1001
ACAD
1000
MTEXTBEGIN
1070
    73
1070
     1
1070
    44
1040
1.0
1070
    74
1070
     0
1000
MTEXTEND
  0
POINT
  5
2095
330
2057
100
AcDbEntity
  8
Defpoints
 62
     0
100
AcDbPoint
 10
74190.79969761225
 20
-4378.586932864651
 30
0.0
  0
POINT
  5
2096
330
2057
100
AcDbEntity
  8
Defpoints
 62
     0
100
AcDbPoint
 10
74190.79969761225
 20
-4728.586932864633
 30
0.0
  0
POINT
  5
2097
330
2057
100
AcDbEntity
  8
Defpoints
 62
     0
100
AcDbPoint
 10
73886.81533408925
 20
-4728.586932864633
 30
0.0
  0
ENDBLK
  5
2059
330
2057
100
AcDbEntity
  8
0
 48
4.0
100
AcDbBlockEnd
  0
BLOCK
  5
2062
330
2061
100
AcDbEntity
  8
0
 48
4.0
100
AcDbBlockBegin
  2
*D54
 70
     1
 10
0.0
 20
0.0
 30
0.0
  3
*D54
  1

  0
LINE
  5
2098
330
2061
100
AcDbEntity
  8
0Wymiary-PL
 62
     1
370
    -2
100
AcDbLine
 10
73886.81533408925
 20
-4758.586932864633
 30
0.0
 11
73886.81533408925
 21
-4953.586932864641
 31
0.0
  0
INSERT
  5
2099
330
2061
100
AcDbEntity
  8
0Wymiary-PL
 62
     1
370
    -2
100
AcDbBlockReference
  2
B-DIM
 10
73886.81533408925
 20
-4728.586932864633
 30
0.0
 41
30.0
 42
30.0
 43
30.0
 50
90.0
  0
INSERT
  5
209A
330
2061
100
AcDbEntity
  8
0Wymiary-PL
 62
     1
370
    -2
100
AcDbBlockReference
  2
B-DIM
 10
73886.81533408925
 20
-4983.58693286464
 30
0.0
 41
30.0
 42
30.0
 43
30.0
 50
270.0
  0
MTEXT
  5
209B
330
2061
100
AcDbEntity
  8
0Wymiary-PL
 62
   140
370
     5
100
AcDbMText
 10
73806.81533408925
 20
-4856.086932864625
 30
0.0
 40
80.0
 41
0.0
 71
     5
 72
     1
  1
\A1;255
  7
ROMANS
 11
0.0000000000000001
 21
1.0
 31
0.0
 73
     1
 44
1.0
1001
ACAD
1000
MTEXTBEGIN
1070
    73
1070
     1
1070
    44
1040
1.0
1070
    74
1070
     0
1000
MTEXTEND
  0
POINT
  5
209C
330
2061
100
AcDbEntity
  8
Defpoints
 62
     0
100
AcDbPoint
 10
74190.79969761225
 20
-4728.586932864633
 30
0.0
  0
POINT
  5
209D
330
2061
100
AcDbEntity
  8
Defpoints
 62
     0
100
AcDbPoint
 10
74190.79969761225
 20
-4983.58693286464
 30
0.0
  0
POINT
  5
209E
330
2061
100
AcDbEntity
  8
Defpoints
 62
     0
100
AcDbPoint
 10
73886.81533408925
 20
-4983.58693286464
 30
0.0
  0
ENDBLK
  5
2063
330
2061
100
AcDbEntity
  8
0
 48
4.0
100
AcDbBlockEnd
  0
BLOCK
  5
206C
330
206B
100
AcDbEntity
  8
0
 48
4.0
100
AcDbBlockBegin
  2
*D55
 70
     1
 10
0.0
 20
0.0
 30
0.0
  3
*D55
  1

  0
LINE
  5
209F
330
206B
100
AcDbEntity
  8
0Wymiary-PL
 62
     1
370
    -2
100
AcDbLine
 10
73686.86737196902
 20
-4153.586932864646
 30
0.0
 11
73686.86737196902
 21
-4953.586932864641
 31
0.0
  0
INSERT
  5
20A0
330
206B
100
AcDbEntity
  8
0Wymiary-PL
 62
     1
370
    -2
100
AcDbBlockReference
  2
B-DIM
 10
73686.86737196902
 20
-4123.586932864646
 30
0.0
 41
30.0
 42
30.0
 43
30.0
 50
90.0
  0
INSERT
  5
20A1
330
206B
100
AcDbEntity
  8
0Wymiary-PL
 62
     1
370
    -2
100
AcDbBlockReference
  2
B-DIM
 10
73686.86737196902
 20
-4983.58693286464
 30
0.0
 41
30.0
 42
30.0
 43
30.0
 50
270.0
  0
MTEXT
  5
20A2
330
206B
100
AcDbEntity
  8
0Wymiary-PL
 62
   140
370
     5
100
AcDbMText
 10
73606.86737196902
 20
-4553.586932864631
 30
0.0
 40
80.0
 41
0.0
 71
     5
 72
     1
  1
\A1;860
  7
ROMANS
 11
0.0000000000000001
 21
1.0
 31
0.0
 73
     1
 44
1.0
1001
ACAD
1000
MTEXTBEGIN
1070
    73
1070
     1
1070
    44
1040
1.0
1070
    74
1070
     0
1000
MTEXTEND
  0
POINT
  5
20A3
330
206B
100
AcDbEntity
  8
Defpoints
 62
     0
100
AcDbPoint
 10
74190.79969761224
 20
-4123.586932864646
 30
0.0
  0
POINT
  5
20A4
330
206B
100
AcDbEntity
  8
Defpoints
 62
     0
100
AcDbPoint
 10
74190.79969761225
 20
-4983.58693286464
 30
0.0
  0
POINT
  5
20A5
330
206B
100
AcDbEntity
  8
Defpoints
 62
     0
100
AcDbPoint
 10
73686.86737196902
 20
-4983.58693286464
 30
0.0
  0
ENDBLK
  5
206D
330
206B
100
AcDbEntity
  8
0
 48
4.0
100
AcDbBlockEnd
  0
ENDSEC
  0
SECTION
  2
ENTITIES
  0
LINE
  5
1DE0
330
2
100
AcDbEntity
  8
NAPISY
  6
DASHED
 62
     1
 48
25.0
370
     5
100
AcDbLine
 10
72320.60569983122
 20
-6721.425291311328
 30
0.0000000000072019
 11
72320.60569983122
 21
-1918.968233833944
 31
0.0000000000114674
  0
TEXT
  5
1DE1
330
2
100
AcDbEntity
  8
NAPISY
370
     5
100
AcDbText
 10
72261.0845228379
 20
-5639.778128490795
 30
0.0000000000081626
 40
100.0
  1
OŚ ODBICIA LUSTRZANEGO
 50
90.0
  7
AVA
100
AcDbText
  0
TEXT
  5
1DE2
330
2
100
AcDbEntity
  8
NAPISY
100
AcDbText
 10
68679.95764650619
 20
-12164.84773977038
 30
0.0000000000023672
 40
100.0
  1
   O B R Y S   B U D Y N K U           S K A L A   1 : 5 0 0 
  7
AVA
100
AcDbText
  0
TEXT
  5
1DE3
330
2
100
AcDbEntity
  8
NAPISY
100
AcDbText
 10
68776.17069762409
 20
298.5175211114801
 30
0.0000000000134369
 40
150.0
  1
MOŻNA WKLEIĆ DO PROJEKTU ZAGOSPODAROWANIA TERENU
  7
AVA
100
AcDbText
  0
TEXT
  5
1DE4
330
2
100
AcDbEntity
  8
NAPISY
100
AcDbText
 10
68699.83542698895
 20
628.3859984742412
 30
0.0000000000137299
 40
150.0
  1
"DOM W JAGODACH (PD)"
  7
AVA
100
AcDbText
  0
LWPOLYLINE
  5
1DE5
330
2
100
AcDbEntity
  8
RAMKI-A4
100
AcDbPolyline
 90
        4
 70
     1
 43
0.0
 10
67220.60569983121
 20
-12830.40382267292
 10
67220.60569983121
 20
1189.596177327079
 10
77420.60569983124
 20
1189.596177327079
 10
77420.60569983124
 20
-12830.40382267292
  0
LINE
  5
1DF2
330
2
100
AcDbEntity
  8
TEREN$0$A-MassElement-G
  6
Continuous
 62
   210
370
     5
100
AcDbLine
 10
69906.4117020502
 20
-5083.586932864641
 30
0.0
 11
70212.4117020502
 21
-5083.586932864641
 31
0.0
  0
LINE
  5
1DF3
330
2
100
AcDbEntity
  8
0
370
     5
100
AcDbLine
 10
70225.4117020502
 20
-4983.58693286464
 30
0.0
 11
70114.4117020502
 21
-4983.58693286464
 31
0.0
  0
LINE
  5
1DF4
330
2
100
AcDbEntity
  8
TEREN$0$A-MassElement-G
  6
Continuous
 62
   210
370
     5
100
AcDbLine
 10
69906.4117020502
 20
-4983.58693286464
 30
0.0
 11
69906.4117020502
 21
-5115.586006304218
 31
0.0
  0
LINE
  5
1DF5
330
2
100
AcDbEntity
  8
TEREN$0$A-MassElement-G
  6
Continuous
 62
   210
370
     5
100
AcDbLine
 10
69906.35083019158
 20
-5115.586006304218
 30
0.0
 11
70212.35083019158
 21
-5115.586006304218
 31
0.0
  0
LINE
  5
1DF7
330
2
100
AcDbEntity
  8
0
370
     5
100
AcDbLine
 10
70004.4117020502
 20
-4983.58693286464
 30
0.0
 11
69855.4117020502
 21
-4983.58693286464
 31
0.0
  0
LINE
  5
1DFD
330
2
100
AcDbEntity
  8
TEREN$0$A-MassElement-G
  6
Continuous
 62
   210
370
     5
100
AcDbLine
 10
70212.4117020502
 20
-4983.58693286464
 30
0.0
 11
70212.35083019158
 21
-5115.586006304218
 31
0.0
  0
LINE
  5
1E0B
330
2
100
AcDbEntity
  8
0
370
     5
100
AcDbLine
 10
69740.4117020502
 20
-4123.58693286464
 30
0.0
 11
69560.4117020502
 21
-4123.586932864639
 31
0.0
  0
LINE
  5
1E27
330
2
100
AcDbEntity
  8
TEREN$0$A-MassElement-G
  6
Continuous
 62
   210
370
     5
100
AcDbLine
 10
70436.4117020502
 20
-4123.58693286464
 30
0.0
 11
70436.4117020502
 21
-3870.586932864641
 31
0.0
  0
LINE
  5
1E28
330
2
100
AcDbEntity
  8
TEREN$0$A-MassElement-G
  6
Continuous
 62
   210
370
     5
100
AcDbLine
 10
69933.4117020502
 20
-3989.917885306328
 30
0.0
 11
70052.7426544919
 21
-3870.586932864641
 31
0.0
  0
LINE
  5
1E29
330
2
100
AcDbEntity
  8
TEREN$0$A-MassElement-G
  6
Continuous
 62
   210
370
     5
100
AcDbLine
 10
70436.4117020502
 20
-3903.586932864641
 30
0.0
 11
70066.4117020502
 21
-3903.586932864641
 31
0.0
  0
LINE
  5
1E2A
330
2
100
AcDbEntity
  8
TEREN$0$A-MassElement-G
  6
Continuous
 62
   210
370
     5
100
AcDbLine
 10
69966.4117020502
 20
-4123.58693286464
 30
0.0
 11
69966.4117020502
 21
-4003.58693286464
 31
0.0
  0
LINE
  5
1E2B
330
2
100
AcDbEntity
  8
TEREN$0$A-MassElement-G
  6
Continuous
 62
   210
370
     5
100
AcDbLine
 10
69933.4117020502
 20
-4123.58693286464
 30
0.0
 11
69933.4117020502
 21
-3989.917885306328
 31
0.0
  0
LINE
  5
1E2C
330
2
100
AcDbEntity
  8
0Hatch
100
AcDbLine
 10
70110.4117020502
 20
-4123.58693286464
 30
0.0
 11
69890.4117020502
 21
-4123.58693286464
 31
0.0
  0
LINE
  5
1E31
330
2
100
AcDbEntity
  8
TEREN$0$A-MassElement-G
  6
Continuous
 62
   210
370
     5
100
AcDbLine
 10
69966.4117020502
 20
-4003.58693286464
 30
0.0
 11
70066.4117020502
 21
-3903.586932864641
 31
0.0
  0
LINE
  5
1E34
330
2
100
AcDbEntity
  8
TEREN$0$A-MassElement-G
  6
Continuous
 62
   210
370
     5
100
AcDbLine
 10
70436.4117020502
 20
-3870.586932864641
 30
0.0
 11
70052.7426544919
 21
-3870.586932864641
 31
0.0
  0
LWPOLYLINE
  5
1E44
330
2
100
AcDbEntity
  8
0Hatch
100
AcDbPolyline
 90
        9
 70
     0
 43
0.0
 10
70450.4117020502
 20
-4123.58693286464
 10
69560.4117020502
 20
-4123.586932864639
 10
69560.4117020502
 20
-4983.58693286464
 10
70450.4117020502
 20
-4983.58693286464
 10
70450.4117020502
 20
-4728.586932864632
 10
70550.41170205019
 20
-4628.586932864638
 10
70550.41170205021
 20
-4478.586932864661
 10
70450.4117020502
 20
-4378.586932864651
 10
70450.41170205021
 20
-4123.586932864639
  0
LWPOLYLINE
  5
1E45
330
2
100
AcDbEntity
  8
0Hatch
100
AcDbPolyline
 90
        8
 70
     1
 43
0.0
 10
70390.41170205021
 20
-4183.58693286464
 10
69620.4117020502
 20
-4183.586932864638
 10
69620.4117020502
 20
-4923.58693286464
 10
70390.4117020502
 20
-4923.58693286464
 10
70390.4117020502
 20
-4703.734119122248
 10
70490.4117020502
 20
-4603.734119122251
 10
70490.4117020502
 20
-4503.439746607042
 10
70390.4117020502
 20
-4403.439746607037
  0
LWPOLYLINE
  5
1E48
330
2
100
AcDbEntity
  8
0Hatch
100
AcDbPolyline
 90
        2
 70
     0
 43
0.0
 10
70004.4117020502
 20
-4983.58693286464
 10
70004.4117020502
 20
-4923.58693286464
  0
LWPOLYLINE
  5
1E49
330
2
100
AcDbEntity
  8
0Hatch
100
AcDbPolyline
 90
        2
 70
     0
 43
0.0
 10
70114.4117020502
 20
-4983.58693286464
 10
70114.4117020502
 20
-4923.58693286464
  0
DIMENSION
  5
1E4A
330
2
100
AcDbEntity
  8
0Wymiary-PL
370
     5
100
AcDbDimension
  2
*D34
 10
70450.41170205021
 20
-3768.180414655937
 30
0.0
 11
69830.99071155431
 21
-3688.180414655937
 31
0.0
 70
   160
 71
     5
 42
890.0000000000146
  3
500
100
AcDbAlignedDimension
 13
69560.4117020502
 23
-4123.586932864639
 33
0.0
 14
70450.41170205021
 24
-4123.586932864646
 34
0.0
100
AcDbRotatedDimension
  0
DIMENSION
  5
1E4B
330
2
100
AcDbEntity
  8
0Wymiary-PL
370
     5
100
AcDbDimension
  2
*D35
 10
70550.41170205021
 20
-3768.180414655937
 30
0.0
 11
70519.52616987803
 21
-3688.180414655937
 31
0.0
 70
   160
 71
     5
 42
100.0
  3
500
100
AcDbAlignedDimension
 13
70450.41170205021
 23
-4123.586932864646
 33
0.0
 14
70550.41170205021
 24
-4478.586932864661
 34
0.0
100
AcDbRotatedDimension
  0
DIMENSION
  5
1E4C
330
2
100
AcDbEntity
  8
0Wymiary-PL
370
     5
100
AcDbDimension
  2
*D36
 10
70550.41170205021
 20
-3568.382889124972
 30
0.0
 11
70055.9977580675
 21
-3488.382889124972
 31
0.0
 70
   160
 71
     5
 42
990.0000000000146
  3
500
100
AcDbAlignedDimension
 13
69560.4117020502
 23
-4123.58693286464
 33
0.0
 14
70550.41170205021
 24
-4478.586932864661
 34
0.0
100
AcDbRotatedDimension
  0
DIMENSION
  5
1E4D
330
2
100
AcDbEntity
  8
0Wymiary-PL
370
     5
100
AcDbDimension
  2
*D37
 10
70754.39606557319
 20
-4378.586932864651
 30
0.0
 11
70674.39606557319
 21
-4251.086932864637
 31
0.0
 70
    32
 71
     5
 42
255.0000000000054
  3
500
100
AcDbAlignedDimension
 13
70450.41170205021
 23
-4123.586932864646
 33
0.0
 14
70450.4117020502
 24
-4378.586932864651
 34
0.0
 50
90.0
100
AcDbRotatedDimension
  0
DIMENSION
  5
1E4E
330
2
100
AcDbEntity
  8
0Wymiary-PL
370
     5
100
AcDbDimension
  2
*D38
 10
70754.39606557319
 20
-4728.586932864633
 30
0.0
 11
70674.39606557319
 21
-4553.586932864631
 31
0.0
 70
    32
 71
     5
 42
349.9999999999818
  3
500
100
AcDbAlignedDimension
 13
70450.4117020502
 23
-4378.586932864651
 33
0.0
 14
70450.4117020502
 24
-4728.586932864633
 34
0.0
 50
90.0
100
AcDbRotatedDimension
  0
DIMENSION
  5
1E4F
330
2
100
AcDbEntity
  8
0Wymiary-PL
370
     5
100
AcDbDimension
  2
*D39
 10
70754.39606557319
 20
-4983.58693286464
 30
0.0
 11
70674.39606557319
 21
-4856.086932864626
 31
0.0
 70
    32
 71
     5
 42
255.0000000000073
  3
500
100
AcDbAlignedDimension
 13
70450.4117020502
 23
-4728.586932864633
 33
0.0
 14
70450.4117020502
 24
-4983.58693286464
 34
0.0
 50
90.0
100
AcDbRotatedDimension
  0
DIMENSION
  5
1E50
330
2
100
AcDbEntity
  8
0Wymiary-PL
370
     5
100
AcDbDimension
  2
*D40
 10
70954.34402769343
 20
-4983.58693286464
 30
0.0
 11
70874.34402769343
 21
-4553.586932864631
 31
0.0
 70
    32
 71
     5
 42
859.9999999999946
  3
500
100
AcDbAlignedDimension
 13
70450.41170205021
 23
-4123.586932864646
 33
0.0
 14
70450.4117020502
 24
-4983.58693286464
 34
0.0
 50
90.0
100
AcDbRotatedDimension
  0
LWPOLYLINE
  5
1FD5
330
2
100
AcDbEntity
  8
0Hatch
100
AcDbPolyline
 90
       10
 70
     0
 43
60.0
 10
70114.4117020502
 20
-4953.586932864641
 10
70420.4117020502
 20
-4953.586932864641
 10
70420.4117020502
 20
-4716.160525993442
 10
70520.4117020502
 20
-4616.160525993444
 10
70520.4117020502
 20
-4491.013339735849
 10
70420.41170205021
 20
-4391.013339735845
 10
70420.41170205021
 20
-4153.58693286464
 10
69590.4117020502
 20
-4153.58693286464
 10
69590.4117020502
 20
-4953.586932864641
 10
70005.4117020502
 20
-4953.586932864641
  0
LINE
  5
2014
330
2
100
AcDbEntity
  8
TEREN$0$A-MassElement-G
  6
Continuous
 62
   210
370
     5
100
AcDbLine
 10
74734.79969761225
 20
-5083.586932864641
 30
0.0
 11
74428.79969761225
 21
-5083.586932864641
 31
0.0
  0
LINE
  5
2015
330
2
100
AcDbEntity
  8
0
370
     5
100
AcDbLine
 10
74415.79969761225
 20
-4983.58693286464
 30
0.0
 11
74526.79969761225
 21
-4983.58693286464
 31
0.0
  0
LINE
  5
2016
330
2
100
AcDbEntity
  8
TEREN$0$A-MassElement-G
  6
Continuous
 62
   210
370
     5
100
AcDbLine
 10
74734.79969761225
 20
-4983.58693286464
 30
0.0
 11
74734.79969761225
 21
-5115.586006304218
 31
0.0
  0
LINE
  5
2017
330
2
100
AcDbEntity
  8
TEREN$0$A-MassElement-G
  6
Continuous
 62
   210
370
     5
100
AcDbLine
 10
74734.86056947087
 20
-5115.586006304218
 30
0.0
 11
74428.86056947086
 21
-5115.586006304218
 31
0.0
  0
LINE
  5
2018
330
2
100
AcDbEntity
  8
0
370
     5
100
AcDbLine
 10
74636.79969761225
 20
-4983.58693286464
 30
0.0
 11
74785.79969761225
 21
-4983.58693286464
 31
0.0
  0
LINE
  5
2019
330
2
100
AcDbEntity
  8
TEREN$0$A-MassElement-G
  6
Continuous
 62
   210
370
     5
100
AcDbLine
 10
74428.79969761225
 20
-4983.58693286464
 30
0.0
 11
74428.86056947086
 21
-5115.586006304218
 31
0.0
  0
LINE
  5
201A
330
2
100
AcDbEntity
  8
0
370
     5
100
AcDbLine
 10
74900.79969761225
 20
-4123.58693286464
 30
0.0
 11
75080.79969761225
 21
-4123.586932864639
 31
0.0
  0
LINE
  5
201B
330
2
100
AcDbEntity
  8
TEREN$0$A-MassElement-G
  6
Continuous
 62
   210
370
     5
100
AcDbLine
 10
74204.79969761225
 20
-4123.58693286464
 30
0.0
 11
74204.79969761225
 21
-3870.586932864641
 31
0.0
  0
LINE
  5
201C
330
2
100
AcDbEntity
  8
TEREN$0$A-MassElement-G
  6
Continuous
 62
   210
370
     5
100
AcDbLine
 10
74707.79969761225
 20
-3989.917885306328
 30
0.0
 11
74588.46874517055
 21
-3870.586932864641
 31
0.0
  0
LINE
  5
201D
330
2
100
AcDbEntity
  8
TEREN$0$A-MassElement-G
  6
Continuous
 62
   210
370
     5
100
AcDbLine
 10
74204.79969761225
 20
-3903.586932864641
 30
0.0
 11
74574.79969761225
 21
-3903.586932864641
 31
0.0
  0
LINE
  5
201E
330
2
100
AcDbEntity
  8
TEREN$0$A-MassElement-G
  6
Continuous
 62
   210
370
     5
100
AcDbLine
 10
74674.79969761225
 20
-4123.58693286464
 30
0.0
 11
74674.79969761225
 21
-4003.58693286464
 31
0.0
  0
LINE
  5
201F
330
2
100
AcDbEntity
  8
TEREN$0$A-MassElement-G
  6
Continuous
 62
   210
370
     5
100
AcDbLine
 10
74707.79969761225
 20
-4123.58693286464
 30
0.0
 11
74707.79969761225
 21
-3989.917885306328
 31
0.0
  0
LINE
  5
2020
330
2
100
AcDbEntity
  8
0Hatch
100
AcDbLine
 10
74530.79969761225
 20
-4123.58693286464
 30
0.0
 11
74750.79969761226
 21
-4123.58693286464
 31
0.0
  0
LINE
  5
2021
330
2
100
AcDbEntity
  8
TEREN$0$A-MassElement-G
  6
Continuous
 62
   210
370
     5
100
AcDbLine
 10
74674.79969761225
 20
-4003.58693286464
 30
0.0
 11
74574.79969761225
 21
-3903.586932864641
 31
0.0
  0
LINE
  5
2022
330
2
100
AcDbEntity
  8
TEREN$0$A-MassElement-G
  6
Continuous
 62
   210
370
     5
100
AcDbLine
 10
74204.79969761225
 20
-3870.586932864641
 30
0.0
 11
74588.46874517055
 21
-3870.586932864641
 31
0.0
  0
LWPOLYLINE
  5
2023
330
2
100
AcDbEntity
  8
0Hatch
100
AcDbPolyline
 90
        9
 70
     0
 43
0.0
 10
74190.79969761225
 20
-4123.58693286464
 10
75080.79969761225
 20
-4123.586932864639
 10
75080.79969761225
 20
-4983.58693286464
 10
74190.79969761225
 20
-4983.58693286464
 10
74190.79969761225
 20
-4728.586932864632
 10
74090.79969761227
 20
-4628.586932864638
 10
74090.79969761224
 20
-4478.586932864661
 10
74190.79969761225
 20
-4378.586932864651
 10
74190.79969761224
 20
-4123.586932864639
  0
LWPOLYLINE
  5
2024
330
2
100
AcDbEntity
  8
0Hatch
100
AcDbPolyline
 90
        8
 70
     1
 43
0.0
 10
74250.79969761224
 20
-4183.58693286464
 10
75020.79969761225
 20
-4183.586932864638
 10
75020.79969761225
 20
-4923.58693286464
 10
74250.79969761225
 20
-4923.58693286464
 10
74250.79969761225
 20
-4703.734119122248
 10
74150.79969761225
 20
-4603.734119122251
 10
74150.79969761225
 20
-4503.439746607042
 10
74250.79969761225
 20
-4403.439746607037
  0
LWPOLYLINE
  5
2025
330
2
100
AcDbEntity
  8
0Hatch
100
AcDbPolyline
 90
        2
 70
     0
 43
0.0
 10
74636.79969761225
 20
-4983.58693286464
 10
74636.79969761225
 20
-4923.58693286464
  0
LWPOLYLINE
  5
2026
330
2
100
AcDbEntity
  8
0Hatch
100
AcDbPolyline
 90
        2
 70
     0
 43
0.0
 10
74526.79969761225
 20
-4983.58693286464
 10
74526.79969761225
 20
-4923.58693286464
  0
DIMENSION
  5
2027
330
2
100
AcDbEntity
  8
0Wymiary-PL
370
     5
100
AcDbDimension
  2
*D49
 10
74190.79969761224
 20
-3768.180414655937
 30
0.0
 11
74810.22068810815
 21
-3688.180414655937
 31
0.0
 70
   160
 71
     5
 42
890.0000000000146
  3
500
100
AcDbAlignedDimension
 13
75080.79969761225
 23
-4123.586932864639
 33
0.0
 14
74190.79969761224
 24
-4123.586932864646
 34
0.0
 50
180.0
100
AcDbRotatedDimension
  0
DIMENSION
  5
2028
330
2
100
AcDbEntity
  8
0Wymiary-PL
370
     5
100
AcDbDimension
  2
*D50
 10
74090.79969761224
 20
-3768.180414655937
 30
0.0
 11
74121.68522978442
 21
-3688.180414655937
 31
0.0
 70
   160
 71
     5
 42
100.0
  3
500
100
AcDbAlignedDimension
 13
74190.79969761224
 23
-4123.586932864646
 33
0.0
 14
74090.79969761224
 24
-4478.586932864661
 34
0.0
 50
180.0
100
AcDbRotatedDimension
  0
DIMENSION
  5
2029
330
2
100
AcDbEntity
  8
0Wymiary-PL
370
     5
100
AcDbDimension
  2
*D51
 10
74090.79969761224
 20
-3568.382889124972
 30
0.0
 11
74585.21364159495
 21
-3488.382889124972
 31
0.0
 70
   160
 71
     5
 42
990.0000000000146
  3
500
100
AcDbAlignedDimension
 13
75080.79969761225
 23
-4123.58693286464
 33
0.0
 14
74090.79969761224
 24
-4478.586932864661
 34
0.0
 50
180.0
100
AcDbRotatedDimension
  0
DIMENSION
  5
202A
330
2
100
AcDbEntity
  8
0Wymiary-PL
370
     5
100
AcDbDimension
  2
*D52
 10
73886.81533408925
 20
-4378.586932864651
 30
0.0
 11
73806.81533408925
 21
-4251.086932864637
 31
0.0
 70
    32
 71
     5
 42
255.0000000000054
  3
500
100
AcDbAlignedDimension
 13
74190.79969761224
 23
-4123.586932864646
 33
0.0
 14
74190.79969761225
 24
-4378.586932864651
 34
0.0
 50
90.0
100
AcDbRotatedDimension
  0
DIMENSION
  5
202B
330
2
100
AcDbEntity
  8
0Wymiary-PL
370
     5
100
AcDbDimension
  2
*D53
 10
73886.81533408925
 20
-4728.586932864633
 30
0.0
 11
73806.81533408925
 21
-4553.586932864631
 31
0.0
 70
    32
 71
     5
 42
349.9999999999818
  3
500
100
AcDbAlignedDimension
 13
74190.79969761225
 23
-4378.586932864651
 33
0.0
 14
74190.79969761225
 24
-4728.586932864633
 34
0.0
 50
90.0
100
AcDbRotatedDimension
  0
DIMENSION
  5
202C
330
2
100
AcDbEntity
  8
0Wymiary-PL
370
     5
100
AcDbDimension
  2
*D54
 10
73886.81533408925
 20
-4983.58693286464
 30
0.0
 11
73806.81533408925
 21
-4856.086932864625
 31
0.0
 70
    32
 71
     5
 42
255.0000000000073
  3
500
100
AcDbAlignedDimension
 13
74190.79969761225
 23
-4728.586932864633
 33
0.0
 14
74190.79969761225
 24
-4983.58693286464
 34
0.0
 50
90.0
100
AcDbRotatedDimension
  0
DIMENSION
  5
202D
330
2
100
AcDbEntity
  8
0Wymiary-PL
370
     5
100
AcDbDimension
  2
*D55
 10
73686.86737196902
 20
-4983.58693286464
 30
0.0
 11
73606.86737196902
 21
-4553.586932864631
 31
0.0
 70
    32
 71
     5
 42
859.9999999999946
  3
500
100
AcDbAlignedDimension
 13
74190.79969761224
 23
-4123.586932864646
 33
0.0
 14
74190.79969761225
 24
-4983.58693286464
 34
0.0
 50
90.0
100
AcDbRotatedDimension
  0
LWPOLYLINE
  5
202E
330
2
100
AcDbEntity
  8
0Hatch
100
AcDbPolyline
 90
       10
 70
     0
 43
60.0
 10
74526.79969761225
 20
-4953.586932864641
 10
74220.79969761225
 20
-4953.586932864641
 10
74220.79969761225
 20
-4716.160525993442
 10
74120.79969761225
 20
-4616.160525993444
 10
74120.79969761225
 20
-4491.013339735849
 10
74220.79969761224
 20
-4391.013339735845
 10
74220.79969761224
 20
-4153.58693286464
 10
75050.79969761225
 20
-4153.58693286464
 10
75050.79969761225
 20
-4953.586932864641
 10
74635.79969761225
 20
-4953.586932864641
  0
ENDSEC
  0
SECTION
  2
OBJECTS
  0
DICTIONARY
  5
B
330
0
100
AcDbDictionary
281
     1
  3
ACAD_COLOR
350
53
  3
ACAD_GROUP
350
4E
  3
ACAD_LAYOUT
350
12
  3
ACAD_MATERIAL
350
D
  3
ACAD_MLEADERSTYLE
350
7A8
  3
ACAD_MLINESTYLE
350
4F
  3
ACAD_PLOTSETTINGS
350
50
  3
ACAD_PLOTSTYLENAME
350
A
  3
ACAD_SCALELIST
350
54
  3
ACAD_TABLESTYLE
350
55
  3
ACAD_VISUALSTYLE
350
15
  3
ACDB_RECOMPOSE_DATA
350
794
  3
AcDbVariableDictionary
350
795
  3
AEC_PROPERTY_SET_DEFS
350
952
  3
DWGPROPS
350
20B6
  0
DICTIONARY
  5
1E
330
1D
100
AcDbDictionary
280
     1
281
     1
  3
ACAD_LAYERSTATES
360
1F
  0
DICTIONARY
  5
7
330
6
100
AcDbDictionary
280
     1
281
     1
  3
ADSK_XREC_LAYER_RECONCILED
360
8
  0
DICTIONARY
  5
75
330
74
100
AcDbDictionary
280
     1
281
     1
  3
ADSK_XREC_LAYER_RECONCILED
360
76
  0
DICTIONARY
  5
57
330
56
100
AcDbDictionary
280
     1
281
     1
  3
ADSK_XREC_LAYER_RECONCILED
360
58
  0
DICTIONARY
  5
3A4
330
3A3
100
AcDbDictionary
280
     1
281
     1
  3
ADSK_XREC_LAYER_RECONCILED
360
3A5
  0
DICTIONARY
  5
7F
330
7E
100
AcDbDictionary
280
     1
281
     1
  3
ADSK_XREC_LAYER_RECONCILED
360
80
  0
DICTIONARY
  5
3
330
2
100
AcDbDictionary
280
     1
281
     1
  3
ACAD_SORTENTS
360
790
  0
DICTIONARY
  5
30
330
2F
100
AcDbDictionary
280
     1
281
     1
  3
ACAD_SORTENTS
360
78F
  0
DICTIONARY
  5
53
102
{ACAD_REACTORS
330
B
102
}
330
B
100
AcDbDictionary
281
     1
  0
DICTIONARY
  5
4E
102
{ACAD_REACTORS
330
B
102
}
330
B
100
AcDbDictionary
281
     1
  0
DICTIONARY
  5
12
102
{ACAD_REACTORS
330
B
102
}
330
B
100
AcDbDictionary
281
     1
  3
Layout1
350
1943
  3
Model
350
11
  0
DICTIONARY
  5
D
102
{ACAD_REACTORS
330
B
102
}
330
B
100
AcDbDictionary
281
     1
  3
ByBlock
350
52
  3
ByLayer
350
51
  3
Global
350
C
  0
DICTIONARY
  5
7A8
102
{ACAD_REACTORS
330
B
102
}
330
B
100
AcDbDictionary
281
     1
  3
Standard
350
7A9
  0
DICTIONARY
  5
4F
102
{ACAD_REACTORS
330
B
102
}
330
B
100
AcDbDictionary
281
     1
  3
STANDARD
350
59
  0
DICTIONARY
  5
50
102
{ACAD_REACTORS
330
B
102
}
330
B
100
AcDbDictionary
281
     1
  0
ACDBDICTIONARYWDFLT
  5
A
102
{ACAD_REACTORS
330
B
102
}
330
B
100
AcDbDictionary
281
     1
  3
Normal
350
9
100
AcDbDictionaryWithDefault
340
9
  0
DICTIONARY
  5
54
102
{ACAD_REACTORS
330
B
102
}
330
B
100
AcDbDictionary
281
     1
  3
*A1
350
85B
  3
*A10
350
132C
  3
*A11
350
132D
  3
*A12
350
86F
  3
*A13
350
132E
  3
*A14
350
873
  3
*A15
350
132F
  3
*A16
350
869
  3
*A17
350
1330
  3
*A18
350
1331
  3
*A19
350
1332
  3
*A2
350
876
  3
*A20
350
1333
  3
*A21
350
879
  3
*A22
350
87B
  3
*A23
350
870
  3
*A24
350
1334
  3
*A25
350
1335
  3
*A26
350
1336
  3
*A27
350
1337
  3
*A28
350
87F
  3
*A29
350
881
  3
*A3
350
877
  3
*A30
350
1338
  3
*A31
350
87C
  3
*A32
350
87D
  3
*A33
350
865
  3
*A34
350
860
  3
*A35
350
862
  3
*A36
350
87E
  3
*A37
350
168F
  3
*A38
350
1690
  3
*A39
350
1691
  3
*A4
350
868
  3
*A40
350
86A
  3
*A41
350
1692
  3
*A42
350
1693
  3
*A43
350
85E
  3
*A44
350
1694
  3
*A45
350
871
  3
*A46
350
1695
  3
*A47
350
882
  3
*A48
350
866
  3
*A49
350
86D
  3
*A5
350
85D
  3
*A50
350
85F
  3
*A51
350
863
  3
*A52
350
85C
  3
*A53
350
874
  3
*A54
350
867
  3
*A55
350
1A1C
  3
*A56
350
864
  3
*A57
350
1A1D
  3
*A58
350
1A1E
  3
*A59
350
1A1F
  3
*A6
350
86C
  3
*A60
350
1A20
  3
*A61
350
1A21
  3
*A62
350
1A22
  3
*A63
350
86B
  3
*A64
350
87A
  3
*A65
350
86E
  3
*A66
350
872
  3
*A67
350
880
  3
*A68
350
875
  3
*A69
350
1CF7
  3
*A7
350
878
  3
*A70
350
1CF8
  3
*A71
350
1CF9
  3
*A72
350
1CFA
  3
*A73
350
1CFB
  3
*A74
350
1CFC
  3
*A75
350
1CFD
  3
*A8
350
861
  3
*A9
350
132B
  3
A0
350
5E
  3
A1
350
5F
  3
A2
350
60
  3
A3
350
61
  3
A4
350
62
  3
A5
350
63
  3
A6
350
64
  3
A7
350
65
  3
A8
350
66
  3
A9
350
67
  3
B0
350
68
  3
B1
350
69
  3
B2
350
6A
  3
B3
350
6B
  3
B4
350
6C
  3
B5
350
6D
  3
B6
350
6E
  3
B7
350
6F
  3
B8
350
70
  3
B9
350
71
  3
C0
350
72
  0
DICTIONARY
  5
55
102
{ACAD_REACTORS
330
B
102
}
330
B
100
AcDbDictionary
281
     1
  3
Standard
350
5A
  0
DICTIONARY
  5
15
102
{ACAD_REACTORS
330
B
102
}
330
B
100
AcDbDictionary
281
     1
  3
2dWireframe
350
14
  3
3D Hidden
350
7A0
  3
3dWireframe
350
5D
  3
Basic
350
79F
  3
Brighten
350
7A3
  3
ColorChange
350
7A7
  3
Conceptual
350
7A1
  3
Dim
350
7A2
  3
Facepattern
350
7A6
  3
Flat
350
79B
  3
FlatWithEdges
350
79C
  3
Gouraud
350
79D
  3
GouraudWithEdges
350
79E
  3
Linepattern
350
7A5
  3
Phong
350
7B1
  3
PhongWithEdges
350
7B2
  3
Realistic
350
5C
  3
Thicken
350
7A4
  0
XRECORD
  5
794
102
{ACAD_REACTORS
330
B
102
}
330
B
100
AcDbXrecord
280
     1
 90
        1
330
5A
  0
DICTIONARY
  5
795
102
{ACAD_REACTORS
330
B
102
}
330
B
100
AcDbDictionary
281
     1
  3
CANNOSCALE
350
798
  3
CMLEADERSTYLE
350
797
  3
CTABLESTYLE
350
796
  3
DIMASSOC
350
20B4
  3
HIDETEXT
350
20B3
  3
INDEXCTL
350
20B2
  3
LIGHTINGUNITS
350
799
  3
MSLTSCALE
350
20B0
  3
SORTENTS
350
20B1
  0
DICTIONARY
  5
952
102
{ACAD_REACTORS
330
B
102
}
330
B
100
AcDbDictionary
281
     1
  0
XRECORD
  5
20B6
102
{ACAD_REACTORS
330
B
102
}
330
B
100
AcDbXrecord
280
     1
  1
DWGPROPS COOKIE
  2

  3

  4

  6

  7

  8
beata.rzonca
  9

300
=
301
=
302
=
303
=
304
=
305
=
306
=
307
=
308
=
309
=
 40
21.74232664351852
 41
2450817.525937848
 42
2454970.504203739
  1

 90
        0
  0
DICTIONARY
  5
1F
102
{ACAD_REACTORS
330
1E
102
}
330
1E
100
AcDbDictionary
281
     1
  0
XRECORD
  5
8
102
{ACAD_REACTORS
330
7
102
}
330
7
100
AcDbXrecord
280
     1
290
     1
  0
XRECORD
  5
76
102
{ACAD_REACTORS
330
75
102
}
330
75
100
AcDbXrecord
280
     1
290
     1
  0
XRECORD
  5
58
102
{ACAD_REACTORS
330
57
102
}
330
57
100
AcDbXrecord
280
     1
290
     1
  0
XRECORD
  5
3A5
102
{ACAD_REACTORS
330
3A4
102
}
330
3A4
100
AcDbXrecord
280
     1
290
     1
  0
XRECORD
  5
80
102
{ACAD_REACTORS
330
7F
102
}
330
7F
100
AcDbXrecord
280
     1
290
     1
  0
SORTENTSTABLE
  5
790
102
{ACAD_REACTORS
330
3
102
}
330
3
100
AcDbSortentsTable
330
2
331
1E31
  5
1E31
331
1DFD
  5
1DFD
331
1E45
  5
1E45
331
1E4A
  5
1E4B
331
1E27
  5
1E27
331
1E4F
  5
1E50
331
1E2C
  5
1E2C
331
1DF3
  5
1DF3
331
1DE4
  5
1DE4
331
1E4C
  5
1E4D
331
1E29
  5
1E29
331
1DF5
  5
1DF5
331
1DE1
  5
1DE1
331
1E44
  5
1E44
331
1E0B
  5
1E0B
331
1E49
  5
1E4A
331
1E4E
  5
1E4F
331
1E2B
  5
1E2B
331
1DF7
  5
1DF7
331
1DF2
  5
1DF2
331
1DE3
  5
1DE3
331
1E50
  5
1FD4
331
1E4B
  5
1E4C
331
1E28
  5
1E28
331
1DF4
  5
1DF4
331
1DE5
  5
1DE5
331
1DE0
  5
1DE0
331
1E34
  5
1E34
331
1E48
  5
1E49
331
1E4D
  5
1E4E
331
1E2A
  5
1E2A
331
1DE2
  5
1DE2
  0
SORTENTSTABLE
  5
78F
102
{ACAD_REACTORS
330
30
102
}
330
30
100
AcDbSortentsTable
330
2F
  0
LAYOUT
  5
1943
102
{ACAD_XDICTIONARY
360
20C0
102
}
102
{ACAD_REACTORS
330
12
102
}
330
12
100
AcDbPlotSettings
  1

  2
CutePDF Writer
  4

  6

 40
0.0
 41
0.0
 42
0.0
 43
0.0
 44
0.0
 45
0.0
 46
0.0
 47
0.0
 48
0.0
 49
0.0
140
0.0
141
0.0
142
1.0
143
1.0
 70
   688
 72
     0
 73
     0
 74
     5
  7

 75
    16
147
1.0
148
0.0
149
0.0
100
AcDbLayout
  1
Layout1
 70
     1
 71
     1
 10
0.0
 20
0.0
 11
12.0
 21
9.0
 12
0.0
 22
0.0
 32
0.0
 14
0.0
 24
0.0
 34
0.0
 15
0.0
 25
0.0
 35
0.0
146
0.0
 13
0.0
 23
0.0
 33
0.0
 16
1.0
 26
0.0
 36
0.0
 17
0.0
 27
1.0
 37
0.0
 76
     0
330
1942
  0
LAYOUT
  5
11
102
{ACAD_XDICTIONARY
360
20B9
102
}
102
{ACAD_REACTORS
330
12
102
}
330
12
100
AcDbPlotSettings
  1

  2
RICOH Aficio AP610N PCL 5e
  4
A4
  6
10-ele
 40
6.805083274841308
 41
5.027085781097412
 42
6.974411010742187
 43
5.027069091796875
 44
209.9733276367187
 45
296.9259948730469
 46
-3.903083324432671
 47
3.235920000076276
 48
67057.75918130524
 49
-45526.33714755503
140
77257.75918130527
141
-31506.33714755504
142
1.0
143
50.0
 70
 11940
 72
     1
 73
     0
 74
     4
  7
monochrome_140.ctb
 75
     0
147
0.0192346895442289
148
-67057.75918130524
149
45526.33714755503
100
AcDbLayout
  1
Model
 70
     1
 71
     0
 10
0.0
 20
0.0
 11
12.0
 21
9.0
 12
0.0
 22
0.0
 32
0.0
 14
0.0
 24
0.0
 34
0.0
 15
0.0
 25
0.0
 35
0.0
146
0.0
 13
0.0
 23
0.0
 33
0.0
 16
1.0
 26
0.0
 36
0.0
 17
0.0
 27
1.0
 37
0.0
 76
     0
330
2
331
29
1001
ACAD_PSEXT
1000
RICOH Aficio AP610N PCL 5e
1000
RICOH Aficio AP610N PCL 5e
1000
IP_192.168.0.252_tech
1000

1070
     0
  0
MATERIAL
  5
52
102
{ACAD_XDICTIONARY
360
20BD
102
}
102
{ACAD_REACTORS
330
D
102
}
330
D
100
AcDbMaterial
  1
ByBlock
 73
     1
 78
     1
172
     1
176
     1
270
     1
274
     1
  0
MATERIAL
  5
51
102
{ACAD_XDICTIONARY
360
20BB
102
}
102
{ACAD_REACTORS
330
D
102
}
330
D
100
AcDbMaterial
  1
ByLayer
 73
     1
 78
     1
172
     1
176
     1
270
     1
274
     1
  0
MATERIAL
  5
C
102
{ACAD_XDICTIONARY
360
20B7
102
}
102
{ACAD_REACTORS
330
D
102
}
330
D
100
AcDbMaterial
  1
Global
 73
     1
 78
     1
172
     1
176
     1
270
     1
274
     1
  0
MLEADERSTYLE
  5
7A9
102
{ACAD_REACTORS
330
7A8
102
}
330
7A8
100
AcDbMLeaderStyle
170
     2
171
     1
172
     0
 90
        2
 40
0.0
 41
0.0
173
     1
 91
-1056964608
340
24
 92
       -2
290
     1
 42
0.09
291
     1
 43
0.36
  3
Standard
 44
0.18
300

342
21
174
     1
178
     6
175
     1
176
     0
 93
-1056964608
 45
0.18
292
     0
297
     0
 46
0.18
 94
-1056964608
 47
1.0
 49
1.0
140
1.0
293
     1
141
0.0
294
     1
177
     0
142
1.0
295
     0
296
     0
143
0.125
1001
ACAD_MLEADERVER
1070
     2
  0
MLINESTYLE
  5
59
102
{ACAD_REACTORS
330
4F
102
}
330
4F
100
AcDbMlineStyle
  2
STANDARD
 70
     0
  3

 62
     0
 51
90.0
 52
90.0
 71
     2
 49
0.5
 62
   256
  6
BYLAYER
 49
-0.5
 62
   256
  6
BYLAYER
  0
ACDBPLACEHOLDER
  5
9
102
{ACAD_REACTORS
330
A
102
}
330
A
  0
SCALE
  5
85B
102
{ACAD_REACTORS
330
54
102
}
330
54
100
AcDbScale
 70
     0
300
1:1_2
140
1.0
141
1.0
290
     0
  0
SCALE
  5
132C
102
{ACAD_REACTORS
330
54
102
}
330
54
100
AcDbScale
 70
     0
300
1:10_3
140
1.0
141
1.0
290
     0
  0
SCALE
  5
132D
102
{ACAD_REACTORS
330
54
102
}
330
54
100
AcDbScale
 70
     0
300
1:20_3
140
1.0
141
2.0
290
     0
  0
SCALE
  5
86F
102
{ACAD_REACTORS
330
54
102
}
330
54
100
AcDbScale
 70
     0
300
4:1
140
4.0
141
1.0
290
     0
  0
SCALE
  5
132E
102
{ACAD_REACTORS
330
54
102
}
330
54
100
AcDbScale
 70
     0
300
1:50_3
140
1.0
141
5.0
290
     0
  0
SCALE
  5
873
102
{ACAD_REACTORS
330
54
102
}
330
54
100
AcDbScale
 70
     0
300
1/128" = 1'-0"
140
0.0078125
141
12.0
290
     0
  0
SCALE
  5
132F
102
{ACAD_REACTORS
330
54
102
}
330
54
100
AcDbScale
 70
     0
300
1:100_3
140
1.0
141
10.0
290
     0
  0
SCALE
  5
869
102
{ACAD_REACTORS
330
54
102
}
330
54
100
AcDbScale
 70
     0
300
1:20_1
140
1.0
141
20.0
290
     0
  0
SCALE
  5
1330
102
{ACAD_REACTORS
330
54
102
}
330
54
100
AcDbScale
 70
     0
300
1:1_3
140
1.0
141
0.1
290
     0
  0
SCALE
  5
1331
102
{ACAD_REACTORS
330
54
102
}
330
54
100
AcDbScale
 70
     0
300
1:2_3
140
1.0
141
0.2
290
     0
  0
SCALE
  5
1332
102
{ACAD_REACTORS
330
54
102
}
330
54
100
AcDbScale
 70
     0
300
1:1_4
140
1.0
141
1.0
290
     0
  0
SCALE
  5
876
102
{ACAD_REACTORS
330
54
102
}
330
54
100
AcDbScale
 70
     0
300
1/16" = 1'-0"
140
0.0625
141
12.0
290
     0
  0
SCALE
  5
1333
102
{ACAD_REACTORS
330
54
102
}
330
54
100
AcDbScale
 70
     0
300
1:2_4
140
1.0
141
2.0
290
     0
  0
SCALE
  5
879
102
{ACAD_REACTORS
330
54
102
}
330
54
100
AcDbScale
 70
     0
300
3/16" = 1'-0"
140
0.1875
141
12.0
290
     0
  0
SCALE
  5
87B
102
{ACAD_REACTORS
330
54
102
}
330
54
100
AcDbScale
 70
     0
300
3/8" = 1'-0"
140
0.375
141
12.0
290
     0
  0
SCALE
  5
870
102
{ACAD_REACTORS
330
54
102
}
330
54
100
AcDbScale
 70
     0
300
8:1
140
8.0
141
1.0
290
     0
  0
SCALE
  5
1334
102
{ACAD_REACTORS
330
54
102
}
330
54
100
AcDbScale
 70
     0
300
1:5_4
140
1.0
141
5.0
290
     0
  0
SCALE
  5
1335
102
{ACAD_REACTORS
330
54
102
}
330
54
100
AcDbScale
 70
     0
300
1:10_4
140
1.0
141
10.0
290
     0
  0
SCALE
  5
1336
102
{ACAD_REACTORS
330
54
102
}
330
54
100
AcDbScale
 70
     0
300
1:20_4
140
1.0
141
20.0
290
     0
  0
SCALE
  5
1337
102
{ACAD_REACTORS
330
54
102
}
330
54
100
AcDbScale
 70
     0
300
1:50_4
140
1.0
141
50.0
290
     0
  0
SCALE
  5
87F
102
{ACAD_REACTORS
330
54
102
}
330
54
100
AcDbScale
 70
     0
300
1-1/2" = 1'-0"
140
1.5
141
12.0
290
     0
  0
SCALE
  5
881
102
{ACAD_REACTORS
330
54
102
}
330
54
100
AcDbScale
 70
     0
300
6" = 1'-0"
140
6.0
141
12.0
290
     0
  0
SCALE
  5
877
102
{ACAD_REACTORS
330
54
102
}
330
54
100
AcDbScale
 70
     0
300
3/32" = 1'-0"
140
0.09375
141
12.0
290
     0
  0
SCALE
  5
1338
102
{ACAD_REACTORS
330
54
102
}
330
54
100
AcDbScale
 70
     0
300
1:100_4
140
1.0
141
100.0
290
     0
  0
SCALE
  5
87C
102
{ACAD_REACTORS
330
54
102
}
330
54
100
AcDbScale
 70
     0
300
1/2" = 1'-0"
140
0.5
141
12.0
290
     0
  0
SCALE
  5
87D
102
{ACAD_REACTORS
330
54
102
}
330
54
100
AcDbScale
 70
     0
300
3/4" = 1'-0"
140
0.75
141
12.0
290
     0
  0
SCALE
  5
865
102
{ACAD_REACTORS
330
54
102
}
330
54
100
AcDbScale
 70
     0
300
1:5_1
140
1.0
141
5.0
290
     0
  0
SCALE
  5
860
102
{ACAD_REACTORS
330
54
102
}
330
54
100
AcDbScale
 70
     0
300
1:50_2
140
1.0
141
50.0
290
     0
  0
SCALE
  5
862
102
{ACAD_REACTORS
330
54
102
}
330
54
100
AcDbScale
 70
     0
300
1:1_1
140
1.0
141
1.0
290
     0
  0
SCALE
  5
87E
102
{ACAD_REACTORS
330
54
102
}
330
54
100
AcDbScale
 70
     0
300
1" = 1'-0"
140
1.0
141
12.0
290
     0
  0
SCALE
  5
168F
102
{ACAD_REACTORS
330
54
102
}
330
54
100
AcDbScale
 70
     0
300
1:1_3_1
140
1.0
141
1.0
290
     0
  0
SCALE
  5
1690
102
{ACAD_REACTORS
330
54
102
}
330
54
100
AcDbScale
 70
     0
300
1:2_3_1
140
1.0
141
2.0
290
     0
  0
SCALE
  5
1691
102
{ACAD_REACTORS
330
54
102
}
330
54
100
AcDbScale
 70
     0
300
1:5_3_1
140
1.0
141
5.0
290
     0
  0
SCALE
  5
868
102
{ACAD_REACTORS
330
54
102
}
330
54
100
AcDbScale
 70
     0
300
1:16
140
1.0
141
16.0
290
     0
  0
SCALE
  5
86A
102
{ACAD_REACTORS
330
54
102
}
330
54
100
AcDbScale
 70
     0
300
1:30
140
1.0
141
30.0
290
     0
  0
SCALE
  5
1692
102
{ACAD_REACTORS
330
54
102
}
330
54
100
AcDbScale
 70
     0
300
1:10_3_1
140
1.0
141
10.0
290
     0
  0
SCALE
  5
1693
102
{ACAD_REACTORS
330
54
102
}
330
54
100
AcDbScale
 70
     0
300
1:20_3_1
140
1.0
141
20.0
290
     0
  0
SCALE
  5
85E
102
{ACAD_REACTORS
330
54
102
}
330
54
100
AcDbScale
 70
     0
300
1:10_2
140
1.0
141
10.0
290
     0
  0
SCALE
  5
1694
102
{ACAD_REACTORS
330
54
102
}
330
54
100
AcDbScale
 70
     0
300
1:50_3_1
140
1.0
141
50.0
290
     0
  0
SCALE
  5
871
102
{ACAD_REACTORS
330
54
102
}
330
54
100
AcDbScale
 70
     0
300
10:1
140
10.0
141
1.0
290
     0
  0
SCALE
  5
1695
102
{ACAD_REACTORS
330
54
102
}
330
54
100
AcDbScale
 70
     0
300
1:100_3_1
140
1.0
141
100.0
290
     0
  0
SCALE
  5
882
102
{ACAD_REACTORS
330
54
102
}
330
54
100
AcDbScale
 70
     0
300
1'-0" = 1'-0"
140
12.0
141
12.0
290
     0
  0
SCALE
  5
866
102
{ACAD_REACTORS
330
54
102
}
330
54
100
AcDbScale
 70
     0
300
1:8
140
1.0
141
8.0
290
     0
  0
SCALE
  5
86D
102
{ACAD_REACTORS
330
54
102
}
330
54
100
AcDbScale
 70
     0
300
1:100_1
140
1.0
141
100.0
290
     0
  0
SCALE
  5
85D
102
{ACAD_REACTORS
330
54
102
}
330
54
100
AcDbScale
 70
     0
300
1:5_2
140
1.0
141
5.0
290
     0
  0
SCALE
  5
85F
102
{ACAD_REACTORS
330
54
102
}
330
54
100
AcDbScale
 70
     0
300
1:20_2
140
1.0
141
20.0
290
     0
  0
SCALE
  5
863
102
{ACAD_REACTORS
330
54
102
}
330
54
100
AcDbScale
 70
     0
300
1:2_1
140
1.0
141
2.0
290
     0
  0
SCALE
  5
85C
102
{ACAD_REACTORS
330
54
102
}
330
54
100
AcDbScale
 70
     0
300
1:2_2
140
1.0
141
2.0
290
     0
  0
SCALE
  5
874
102
{ACAD_REACTORS
330
54
102
}
330
54
100
AcDbScale
 70
     0
300
1/64" = 1'-0"
140
0.015625
141
12.0
290
     0
  0
SCALE
  5
867
102
{ACAD_REACTORS
330
54
102
}
330
54
100
AcDbScale
 70
     0
300
1:10_1
140
1.0
141
10.0
290
     0
  0
SCALE
  5
1A1C
102
{ACAD_REACTORS
330
54
102
}
330
54
100
AcDbScale
 70
     0
300
1:1_5
140
1.0
141
1.0
290
     0
  0
SCALE
  5
864
102
{ACAD_REACTORS
330
54
102
}
330
54
100
AcDbScale
 70
     0
300
1:4
140
1.0
141
4.0
290
     0
  0
SCALE
  5
1A1D
102
{ACAD_REACTORS
330
54
102
}
330
54
100
AcDbScale
 70
     0
300
1:2_5
140
1.0
141
2.0
290
     0
  0
SCALE
  5
1A1E
102
{ACAD_REACTORS
330
54
102
}
330
54
100
AcDbScale
 70
     0
300
1:5_5
140
1.0
141
5.0
290
     0
  0
SCALE
  5
1A1F
102
{ACAD_REACTORS
330
54
102
}
330
54
100
AcDbScale
 70
     0
300
1:10_5
140
1.0
141
10.0
290
     0
  0
SCALE
  5
86C
102
{ACAD_REACTORS
330
54
102
}
330
54
100
AcDbScale
 70
     0
300
1:50_1
140
1.0
141
50.0
290
     0
  0
SCALE
  5
1A20
102
{ACAD_REACTORS
330
54
102
}
330
54
100
AcDbScale
 70
     0
300
1:20_5
140
1.0
141
20.0
290
     0
  0
SCALE
  5
1A21
102
{ACAD_REACTORS
330
54
102
}
330
54
100
AcDbScale
 70
     0
300
1:50_5
140
1.0
141
50.0
290
     0
  0
SCALE
  5
1A22
102
{ACAD_REACTORS
330
54
102
}
330
54
100
AcDbScale
 70
     0
300
1:100_5
140
1.0
141
100.0
290
     0
  0
SCALE
  5
86B
102
{ACAD_REACTORS
330
54
102
}
330
54
100
AcDbScale
 70
     0
300
1:40
140
1.0
141
40.0
290
     0
  0
SCALE
  5
87A
102
{ACAD_REACTORS
330
54
102
}
330
54
100
AcDbScale
 70
     0
300
1/4" = 1'-0"
140
0.25
141
12.0
290
     0
  0
SCALE
  5
86E
102
{ACAD_REACTORS
330
54
102
}
330
54
100
AcDbScale
 70
     0
300
2:1
140
2.0
141
1.0
290
     0
  0
SCALE
  5
872
102
{ACAD_REACTORS
330
54
102
}
330
54
100
AcDbScale
 70
     0
300
100:1
140
100.0
141
1.0
290
     0
  0
SCALE
  5
880
102
{ACAD_REACTORS
330
54
102
}
330
54
100
AcDbScale
 70
     0
300
3" = 1'-0"
140
3.0
141
12.0
290
     0
  0
SCALE
  5
875
102
{ACAD_REACTORS
330
54
102
}
330
54
100
AcDbScale
 70
     0
300
1/32" = 1'-0"
140
0.03125
141
12.0
290
     0
  0
SCALE
  5
1CF7
102
{ACAD_REACTORS
330
54
102
}
330
54
100
AcDbScale
 70
     0
300
1:1_6
140
1.0
141
1.0
290
     0
  0
SCALE
  5
878
102
{ACAD_REACTORS
330
54
102
}
330
54
100
AcDbScale
 70
     0
300
1/8" = 1'-0"
140
0.125
141
12.0
290
     0
  0
SCALE
  5
1CF8
102
{ACAD_REACTORS
330
54
102
}
330
54
100
AcDbScale
 70
     0
300
1:2_6
140
1.0
141
2.0
290
     0
  0
SCALE
  5
1CF9
102
{ACAD_REACTORS
330
54
102
}
330
54
100
AcDbScale
 70
     0
300
1:5_6
140
1.0
141
5.0
290
     0
  0
SCALE
  5
1CFA
102
{ACAD_REACTORS
330
54
102
}
330
54
100
AcDbScale
 70
     0
300
1:10_6
140
1.0
141
10.0
290
     0
  0
SCALE
  5
1CFB
102
{ACAD_REACTORS
330
54
102
}
330
54
100
AcDbScale
 70
     0
300
1:20_6
140
1.0
141
20.0
290
     0
  0
SCALE
  5
1CFC
102
{ACAD_REACTORS
330
54
102
}
330
54
100
AcDbScale
 70
     0
300
1:50_6
140
1.0
141
50.0
290
     0
  0
SCALE
  5
1CFD
102
{ACAD_REACTORS
330
54
102
}
330
54
100
AcDbScale
 70
     0
300
1:100_6
140
1.0
141
100.0
290
     0
  0
SCALE
  5
861
102
{ACAD_REACTORS
330
54
102
}
330
54
100
AcDbScale
 70
     0
300
1:100_2
140
1.0
141
100.0
290
     0
  0
SCALE
  5
132B
102
{ACAD_REACTORS
330
54
102
}
330
54
100
AcDbScale
 70
     0
300
1:5_3
140
1.0
141
0.5
290
     0
  0
SCALE
  5
5E
102
{ACAD_REACTORS
330
54
102
}
330
54
100
AcDbScale
 70
     0
300
1:1
140
1.0
141
0.1
290
     0
  0
SCALE
  5
5F
102
{ACAD_REACTORS
330
54
102
}
330
54
100
AcDbScale
 70
     0
300
1:2
140
1.0
141
0.2
290
     0
  0
SCALE
  5
60
102
{ACAD_REACTORS
330
54
102
}
330
54
100
AcDbScale
 70
     0
300
1:2.5
140
1.0
141
0.25
290
     0
  0
SCALE
  5
61
102
{ACAD_REACTORS
330
54
102
}
330
54
100
AcDbScale
 70
     0
300
1:5
140
1.0
141
0.5
290
     0
  0
SCALE
  5
62
102
{ACAD_REACTORS
330
54
102
}
330
54
100
AcDbScale
 70
     0
300
1:7.5
140
1.0
141
0.75
290
     0
  0
SCALE
  5
63
102
{ACAD_REACTORS
330
54
102
}
330
54
100
AcDbScale
 70
     0
300
1:10
140
1.0
141
1.0
290
     1
  0
SCALE
  5
64
102
{ACAD_REACTORS
330
54
102
}
330
54
100
AcDbScale
 70
     0
300
1:20
140
1.0
141
2.0
290
     0
  0
SCALE
  5
65
102
{ACAD_REACTORS
330
54
102
}
330
54
100
AcDbScale
 70
     0
300
1:25
140
1.0
141
2.5
290
     0
  0
SCALE
  5
66
102
{ACAD_REACTORS
330
54
102
}
330
54
100
AcDbScale
 70
     0
300
1:50
140
1.0
141
5.0
290
     0
  0
SCALE
  5
67
102
{ACAD_REACTORS
330
54
102
}
330
54
100
AcDbScale
 70
     0
300
1:75
140
1.0
141
7.5
290
     0
  0
SCALE
  5
68
102
{ACAD_REACTORS
330
54
102
}
330
54
100
AcDbScale
 70
     0
300
1:100
140
1.0
141
10.0
290
     0
  0
SCALE
  5
69
102
{ACAD_REACTORS
330
54
102
}
330
54
100
AcDbScale
 70
     0
300
1:150
140
1.0
141
15.0
290
     0
  0
SCALE
  5
6A
102
{ACAD_REACTORS
330
54
102
}
330
54
100
AcDbScale
 70
     0
300
1:200
140
1.0
141
20.0
290
     0
  0
SCALE
  5
6B
102
{ACAD_REACTORS
330
54
102
}
330
54
100
AcDbScale
 70
     0
300
1:250
140
1.0
141
25.0
290
     0
  0
SCALE
  5
6C
102
{ACAD_REACTORS
330
54
102
}
330
54
100
AcDbScale
 70
     0
300
1:500
140
1.0
141
50.0
290
     0
  0
SCALE
  5
6D
102
{ACAD_REACTORS
330
54
102
}
330
54
100
AcDbScale
 70
     0
300
1:750
140
1.0
141
75.0
290
     0
  0
SCALE
  5
6E
102
{ACAD_REACTORS
330
54
102
}
330
54
100
AcDbScale
 70
     0
300
1:1000
140
1.0
141
100.0
290
     0
  0
SCALE
  5
6F
102
{ACAD_REACTORS
330
54
102
}
330
54
100
AcDbScale
 70
     0
300
1:1250
140
1.0
141
125.0
290
     0
  0
SCALE
  5
70
102
{ACAD_REACTORS
330
54
102
}
330
54
100
AcDbScale
 70
     0
300
1:2000
140
1.0
141
200.0
290
     0
  0
SCALE
  5
71
102
{ACAD_REACTORS
330
54
102
}
330
54
100
AcDbScale
 70
     0
300
1:2500
140
1.0
141
250.0
290
     0
  0
SCALE
  5
72
102
{ACAD_REACTORS
330
54
102
}
330
54
100
AcDbScale
 70
     0
300
1:5000
140
1.0
141
500.0
290
     0
  0
TABLESTYLE
  5
5A
102
{ACAD_XDICTIONARY
360
5B
102
}
102
{ACAD_REACTORS
330
55
102
}
330
55
100
AcDbTableStyle
  3
Standard
 70
     0
 71
     0
 40
0.06
 41
0.06
280
     0
281
     0
  7
STANDARD
140
0.18
170
     2
 62
     0
 63
     7
283
     0
274
    -2
284
     1
 64
     0
275
    -2
285
     1
 65
     0
276
    -2
286
     1
 66
     0
277
    -2
287
     1
 67
     0
278
    -2
288
     1
 68
     0
279
    -2
289
     1
 69
     0
  7
STANDARD
140
0.25
170
     5
 62
     0
 63
     7
283
     0
274
    -2
284
     1
 64
     0
275
    -2
285
     1
 65
     0
276
    -2
286
     1
 66
     0
277
    -2
287
     1
 67
     0
278
    -2
288
     1
 68
     0
279
    -2
289
     1
 69
     0
  7
STANDARD
140
0.18
170
     5
 62
     0
 63
     7
283
     0
274
    -2
284
     1
 64
     0
275
    -2
285
     1
 65
     0
276
    -2
286
     1
 66
     0
277
    -2
287
     1
 67
     0
278
    -2
288
     1
 68
     0
279
    -2
289
     1
 69
     0
  0
VISUALSTYLE
  5
14
102
{ACAD_REACTORS
330
15
102
}
330
15
100
AcDbVisualStyle
  2
2dWireframe
 70
     4
 71
     0
 72
     2
 73
     0
 90
        0
 40
-0.6
 41
-30.0
 62
     5
 63
     7
 74
     1
 91
        4
 64
     7
 65
   257
 75
     1
175
     1
 42
1.0
 92
        0
 66
   257
 43
1.0
 76
     1
 77
     6
 78
     2
 67
     7
 79
     5
170
     0
171
     0
290
     0
174
     0
 93
        1
 44
0.0
173
     0
291
     0
 45
0.0
1001
ACAD
1000
AcDbSavedByObjectVersion
1070
     0
  0
VISUALSTYLE
  5
7A0
102
{ACAD_REACTORS
330
15
102
}
330
15
100
AcDbVisualStyle
  2
3D Hidden
 70
     6
 71
     1
 72
     2
 73
     2
 90
        0
 40
-0.6
 41
-30.0
 62
     5
 63
     7
 74
     2
 91
        2
 64
     7
 65
   257
 75
     2
175
     1
 42
40.0
 92
        0
 66
   257
 43
1.0
 76
     1
 77
     6
 78
     2
 67
     7
 79
     3
170
     0
171
     0
290
     0
174
     0
 93
        1
 44
0.0
173
     0
291
     0
 45
0.0
1001
ACAD
1000
AcDbSavedByObjectVersion
1070
     0
  0
VISUALSTYLE
  5
5D
102
{ACAD_REACTORS
330
15
102
}
330
15
100
AcDbVisualStyle
  2
3dWireframe
 70
     5
 71
     0
 72
     2
 73
     0
 90
        0
 40
-0.6
 41
-30.0
 62
     5
 63
     7
 74
     1
 91
        4
 64
     7
 65
   257
 75
     1
175
     1
 42
1.0
 92
        0
 66
   257
 43
1.0
 76
     1
 77
     6
 78
     2
 67
     7
 79
     5
170
     0
171
     0
290
     0
174
     0
 93
        1
 44
0.0
173
     0
291
     0
 45
0.0
1001
ACAD
1000
AcDbSavedByObjectVersion
1070
     0
  0
VISUALSTYLE
  5
79F
102
{ACAD_REACTORS
330
15
102
}
330
15
100
AcDbVisualStyle
  2
Basic
 70
     7
 71
     1
 72
     0
 73
     1
 90
        0
 40
-0.6
 41
-30.0
 62
     5
 63
     7
 74
     0
 91
        4
 64
     7
 65
   257
 75
     1
175
     1
 42
1.0
 92
        8
 66
     7
 43
1.0
 76
     1
 77
     6
 78
     2
 67
     7
 79
     5
170
     0
171
     0
290
     0
174
     0
 93
        1
 44
0.0
173
     0
291
     1
 45
0.0
1001
ACAD
1000
AcDbSavedByObjectVersion
1070
     0
  0
VISUALSTYLE
  5
7A3
102
{ACAD_REACTORS
330
15
102
}
330
15
100
AcDbVisualStyle
  2
Brighten
 70
    12
 71
     2
 72
     2
 73
     0
 90
        0
 40
-0.6
 41
-30.0
 62
     5
 63
     7
 74
     1
 91
        4
 64
     7
 65
   257
 75
     1
175
     1
 42
1.0
 92
        8
 66
     7
 43
1.0
 76
     1
 77
     6
 78
     2
 67
     7
 79
     5
170
     0
171
     0
290
     0
174
     0
 93
        1
 44
50.0
173
     0
291
     1
 45
0.0
1001
ACAD
1000
AcDbSavedByObjectVersion
1070
     0
  0
VISUALSTYLE
  5
7A7
102
{ACAD_REACTORS
330
15
102
}
330
15
100
AcDbVisualStyle
  2
ColorChange
 70
    16
 71
     2
 72
     2
 73
     3
 90
        0
 40
-0.6
 41
-30.0
 62
     5
 63
     8
 74
     1
 91
        4
 64
     7
 65
   257
 75
     1
175
     1
 42
1.0
 92
        8
 66
     8
 43
1.0
 76
     1
 77
     6
 78
     2
 67
     7
 79
     5
170
     0
171
     0
290
     0
174
     0
 93
        1
 44
0.0
173
     0
291
     1
 45
0.0
1001
ACAD
1000
AcDbSavedByObjectVersion
1070
     0
  0
VISUALSTYLE
  5
7A1
102
{ACAD_REACTORS
330
15
102
}
330
15
100
AcDbVisualStyle
  2
Conceptual
 70
     9
 71
     3
 72
     2
 73
     0
 90
        0
 40
-0.6
 41
-30.0
 62
     5
 63
     7
 74
     2
 91
        2
 64
     7
 65
   257
 75
     1
175
     1
 42
40.0
 92
        8
 66
     7
 43
1.0
 76
     1
 77
     6
 78
     2
 67
     7
 79
     3
170
     0
171
     0
290
     0
174
     0
 93
        1
 44
0.0
173
     0
291
     0
 45
0.0
1001
ACAD
1000
AcDbSavedByObjectVersion
1070
     0
  0
VISUALSTYLE
  5
7A2
102
{ACAD_REACTORS
330
15
102
}
330
15
100
AcDbVisualStyle
  2
Dim
 70
    11
 71
     2
 72
     2
 73
     0
 90
        0
 40
-0.6
 41
-30.0
 62
     5
 63
     7
 74
     1
 91
        4
 64
     7
 65
   257
 75
     1
175
     1
 42
1.0
 92
        8
 66
     7
 43
1.0
 76
     1
 77
     6
 78
     2
 67
     7
 79
     5
170
     0
171
     0
290
     0
174
     0
 93
        1
 44
-50.0
173
     0
291
     1
 45
0.0
1001
ACAD
1000
AcDbSavedByObjectVersion
1070
     0
  0
VISUALSTYLE
  5
7A6
102
{ACAD_REACTORS
330
15
102
}
330
15
100
AcDbVisualStyle
  2
Facepattern
 70
    15
 71
     2
 72
     2
 73
     0
 90
        0
 40
-0.6
 41
-30.0
 62
     5
 63
     7
 74
     1
 91
        4
 64
     7
 65
   257
 75
     1
175
     1
 42
1.0
 92
        8
 66
     7
 43
1.0
 76
     1
 77
     6
 78
     2
 67
     7
 79
     5
170
     0
171
     0
290
     0
174
     0
 93
        1
 44
0.0
173
     0
291
     1
 45
0.0
1001
ACAD
1000
AcDbSavedByObjectVersion
1070
     0
  0
VISUALSTYLE
  5
79B
102
{ACAD_REACTORS
330
15
102
}
330
15
100
AcDbVisualStyle
  2
Flat
 70
     0
 71
     2
 72
     1
 73
     1
 90
        2
 40
-0.6
 41
30.0
 62
     5
 63
     7
 74
     0
 91
        4
 64
     7
 65
   257
 75
     1
175
     1
 42
1.0
 92
        8
 66
     7
 43
1.0
 76
     1
 77
     6
 78
     2
 67
     7
 79
     5
170
     0
171
     0
290
     0
174
     0
 93
       13
 44
0.0
173
     0
291
     0
 45
0.0
1001
ACAD
1000
AcDbSavedByObjectVersion
1070
     0
  0
VISUALSTYLE
  5
79C
102
{ACAD_REACTORS
330
15
102
}
330
15
100
AcDbVisualStyle
  2
FlatWithEdges
 70
     1
 71
     2
 72
     1
 73
     1
 90
        2
 40
-0.6
 41
30.0
 62
     5
 63
     7
 74
     1
 91
        4
 64
     7
 65
   257
 75
     1
175
     1
 42
1.0
 92
        0
 66
   257
 43
1.0
 76
     1
 77
     6
 78
     2
 67
     7
 79
     5
170
     0
171
     0
290
     0
174
     0
 93
       13
 44
0.0
173
     0
291
     0
 45
0.0
1001
ACAD
1000
AcDbSavedByObjectVersion
1070
     0
  0
VISUALSTYLE
  5
79D
102
{ACAD_REACTORS
330
15
102
}
330
15
100
AcDbVisualStyle
  2
Gouraud
 70
     2
 71
     2
 72
     2
 73
     1
 90
        2
 40
-0.6
 41
30.0
 62
     5
 63
     7
 74
     0
 91
        4
 64
     7
 65
   257
 75
     1
175
     1
 42
1.0
 92
        0
 66
     7
 43
1.0
 76
     1
 77
     6
 78
     2
 67
     7
 79
     5
170
     0
171
     0
290
     0
174
     0
 93
       13
 44
0.0
173
     0
291
     0
 45
0.0
1001
ACAD
1000
AcDbSavedByObjectVersion
1070
     0
  0
VISUALSTYLE
  5
79E
102
{ACAD_REACTORS
330
15
102
}
330
15
100
AcDbVisualStyle
  2
GouraudWithEdges
 70
     3
 71
     2
 72
     2
 73
     1
 90
        2
 40
-0.6
 41
30.0
 62
     5
 63
     7
 74
     1
 91
        4
 64
     7
 65
   257
 75
     1
175
     1
 42
1.0
 92
        0
 66
   257
 43
1.0
 76
     1
 77
     6
 78
     2
 67
     7
 79
     5
170
     0
171
     0
290
     0
174
     0
 93
       13
 44
0.0
173
     0
291
     0
 45
0.0
1001
ACAD
1000
AcDbSavedByObjectVersion
1070
     0
  0
VISUALSTYLE
  5
7A5
102
{ACAD_REACTORS
330
15
102
}
330
15
100
AcDbVisualStyle
  2
Linepattern
 70
    14
 71
     2
 72
     2
 73
     0
 90
        0
 40
-0.6
 41
-30.0
 62
     5
 63
     7
 74
     1
 91
        4
 64
     7
 65
   257
 75
     7
175
     7
 42
1.0
 92
        8
 66
     7
 43
1.0
 76
     1
 77
     6
 78
     2
 67
     7
 79
     5
170
     0
171
     0
290
     0
174
     0
 93
        1
 44
0.0
173
     0
291
     1
 45
0.0
1001
ACAD
1000
AcDbSavedByObjectVersion
1070
     0
  0
VISUALSTYLE
  5
7B1
102
{ACAD_REACTORS
330
15
102
}
330
15
100
AcDbVisualStyle
  2

 70
     8
 71
     2
 72
     2
 73
     0
 90
        0
 40
-0.6
 41
-30.0
 62
     5
 63
     7
 74
     0
 91
        0
 64
     7
 65
   257
 75
     1
175
     1
 42
1.0
 92
        8
 66
     8
 43
1.0
 76
     1
 77
     6
 78
     2
 67
     7
 79
     5
170
     0
171
     0
290
     0
174
     0
 93
       13
 44
0.0
173
     0
291
     0
 45
0.0
1001
ACAD
1000
AcDbSavedByObjectVersion
1070
     0
  0
VISUALSTYLE
  5
7B2
102
{ACAD_REACTORS
330
15
102
}
330
15
100
AcDbVisualStyle
  2

 70
     8
 71
     2
 72
     2
 73
     0
 90
        0
 40
-0.6
 41
-30.0
 62
     5
 63
     7
 74
     1
 91
        0
 64
     7
 65
   257
 75
     1
175
     1
 42
1.0
 92
        8
 66
     8
 43
1.0
 76
     1
 77
     6
 78
     2
 67
     7
 79
     5
170
     0
171
     0
290
     0
174
     0
 93
       13
 44
0.0
173
     0
291
     0
 45
0.0
1001
ACAD
1000
AcDbSavedByObjectVersion
1070
     0
  0
VISUALSTYLE
  5
5C
102
{ACAD_REACTORS
330
15
102
}
330
15
100
AcDbVisualStyle
  2
Realistic
 70
     8
 71
     2
 72
     2
 73
     0
 90
        0
 40
-0.6
 41
-30.0
 62
     5
 63
     7
 74
     1
 91
        0
 64
     7
 65
   257
 75
     1
175
     1
 42
1.0
 92
        8
 66
     8
 43
1.0
 76
     1
 77
     6
 78
     2
 67
     7
 79
     5
170
     0
171
     0
290
     0
174
     0
 93
       13
 44
0.0
173
     0
291
     0
 45
0.0
1001
ACAD
1000
AcDbSavedByObjectVersion
1070
     0
  0
VISUALSTYLE
  5
7A4
102
{ACAD_REACTORS
330
15
102
}
330
15
100
AcDbVisualStyle
  2
Thicken
 70
    13
 71
     2
 72
     2
 73
     0
 90
        0
 40
-0.6
 41
-30.0
 62
     5
 63
     7
 74
     1
 91
        4
 64
     7
 65
   257
 75
     1
175
     1
 42
1.0
 92
       12
 66
     7
 43
1.0
 76
     1
 77
     6
 78
     2
 67
     7
 79
     5
170
     0
171
     0
290
     0
174
     0
 93
        1
 44
0.0
173
     0
291
     1
 45
0.0
1001
ACAD
1000
AcDbSavedByObjectVersion
1070
     0
  0
DICTIONARYVAR
  5
798
102
{ACAD_REACTORS
330
795
102
}
330
795
100
DictionaryVariables
280
     0
  1
1:1
  0
DICTIONARYVAR
  5
797
102
{ACAD_REACTORS
330
795
102
}
330
795
100
DictionaryVariables
280
     0
  1
STANDARD
  0
DICTIONARYVAR
  5
796
102
{ACAD_REACTORS
330
795
102
}
330
795
100
DictionaryVariables
280
     0
  1
STANDARD
  0
DICTIONARYVAR
  5
20B4
102
{ACAD_REACTORS
330
795
102
}
330
795
100
DictionaryVariables
280
     0
  1
1
  0
DICTIONARYVAR
  5
20B3
102
{ACAD_REACTORS
330
795
102
}
330
795
100
DictionaryVariables
280
     0
  1
1
  0
DICTIONARYVAR
  5
20B2
102
{ACAD_REACTORS
330
795
102
}
330
795
100
DictionaryVariables
280
     0
  1
0
  0
DICTIONARYVAR
  5
799
102
{ACAD_REACTORS
330
795
102
}
330
795
100
DictionaryVariables
280
     0
  1
0
  0
DICTIONARYVAR
  5
20B0
102
{ACAD_REACTORS
330
795
102
}
330
795
100
DictionaryVariables
280
     0
  1
1
  0
DICTIONARYVAR
  5
20B1
102
{ACAD_REACTORS
330
795
102
}
330
795
100
DictionaryVariables
280
     0
  1
127
  0
DICTIONARY
  5
20C0
330
1943
100
AcDbDictionary
280
     1
281
     1
  3
ACAD_XREC_ROUNDTRIP
360
20C1
  0
DICTIONARY
  5
20B9
330
11
100
AcDbDictionary
280
     1
281
     1
  3
ACAD_XREC_ROUNDTRIP
360
20BA
  0
DICTIONARY
  5
20BD
330
52
100
AcDbDictionary
280
     1
281
     1
  3
ACAD_XREC_ROUNDTRIP
360
20BE
  0
DICTIONARY
  5
20BB
330
51
100
AcDbDictionary
280
     1
281
     1
  3
ACAD_XREC_ROUNDTRIP
360
20BC
  0
DICTIONARY
  5
20B7
330
C
100
AcDbDictionary
280
     1
281
     1
  3
ACAD_XREC_ROUNDTRIP
360
20B8
  0
DICTIONARY
  5
5B
330
5A
100
AcDbDictionary
280
     1
281
     1
  3
ACAD_ROUNDTRIP_2008_TABLESTYLE_CELLSTYLEMAP
360
20B5
  3
ACAD_XREC_ROUNDTRIP
360
20BF
  0
XRECORD
  5
20C1
102
{ACAD_REACTORS
330
20C0
102
}
330
20C0
100
AcDbXrecord
280
     1
102
SHADEPLOT
 70
     0
102
SHADEPLOTRESLEVEL
 70
     2
102
SHADEPLOTCUSTOMDPI
 70
   300
  0
XRECORD
  5
20BA
102
{ACAD_REACTORS
330
20B9
102
}
330
20B9
100
AcDbXrecord
280
     1
102
SHADEPLOT
 70
     1
102
SHADEPLOTRESLEVEL
 70
     2
102
SHADEPLOTCUSTOMDPI
 70
   300
  0
XRECORD
  5
20BE
102
{ACAD_REACTORS
330
20BD
102
}
330
20BD
100
AcDbXrecord
280
     1
102
MATERIAL
148
0.0
149
0.0
149
0.0
 93
        0
 94
       63
282
     0
 72
     1
 77
     1
171
     1
175
     1
179
     1
273
     0
  0
XRECORD
  5
20BC
102
{ACAD_REACTORS
330
20BB
102
}
330
20BB
100
AcDbXrecord
280
     1
102
MATERIAL
148
0.0
149
0.0
149
0.0
 93
        0
 94
       63
282
     0
 72
     1
 77
     1
171
     1
175
     1
179
     1
273
     0
  0
XRECORD
  5
20B8
102
{ACAD_REACTORS
330
20B7
102
}
330
20B7
100
AcDbXrecord
280
     1
102
MATERIAL
148
0.0
149
0.0
149
0.0
 93
        0
 94
       63
282
     0
 72
     1
 77
     1
171
     1
175
     1
179
     1
273
     0
  0
CELLSTYLEMAP
  5
20B5
102
{ACAD_REACTORS
330
5B
102
}
330
5B
100
AcDbCellStyleMap
 90
        3
300
CELLSTYLE
  1
TABLEFORMAT_BEGIN
 90
        5
170
     1
 91
        0
 92
    32768
 62
   257
 93
        1
300
CONTENTFORMAT
  1
CONTENTFORMAT_BEGIN
 90
        0
 91
        0
 92
        4
 93
        0
300

 40
0.0
140
1.0
 94
        5
 62
     0
340
21
144
0.25
309
CONTENTFORMAT_END
171
     0
 94
        6
 95
        1
302
GRIDFORMAT
  1
GRIDFORMAT_BEGIN
 90
        0
 91
        1
 62
     0
 92
       -2
340
0
 93
        0
 40
0.045
309
GRIDFORMAT_END
 95
        2
302
GRIDFORMAT
  1
GRIDFORMAT_BEGIN
 90
        0
 91
        1
 62
     0
 92
       -2
340
0
 93
        0
 40
0.045
309
GRIDFORMAT_END
 95
        4
302
GRIDFORMAT
  1
GRIDFORMAT_BEGIN
 90
        0
 91
        1
 62
     0
 92
       -2
340
0
 93
        0
 40
0.045
309
GRIDFORMAT_END
 95
        8
302
GRIDFORMAT
  1
GRIDFORMAT_BEGIN
 90
        0
 91
        1
 62
     0
 92
       -2
340
0
 93
        0
 40
0.045
309
GRIDFORMAT_END
 95
       16
302
GRIDFORMAT
  1
GRIDFORMAT_BEGIN
 90
        0
 91
        1
 62
     0
 92
       -2
340
0
 93
        0
 40
0.045
309
GRIDFORMAT_END
 95
       32
302
GRIDFORMAT
  1
GRIDFORMAT_BEGIN
 90
        0
 91
        1
 62
     0
 92
       -2
340
0
 93
        0
 40
0.045
309
GRIDFORMAT_END
309
TABLEFORMAT_END
  1
CELLSTYLE_BEGIN
 90
        1
 91
        1
300
_TITLE
309
CELLSTYLE_END
300
CELLSTYLE
  1
TABLEFORMAT_BEGIN
 90
        5
170
     1
 91
        0
 92
        0
 62
   257
 93
        1
300
CONTENTFORMAT
  1
CONTENTFORMAT_BEGIN
 90
        0
 91
        0
 92
        4
 93
        0
300

 40
0.0
140
1.0
 94
        5
 62
     0
340
21
144
0.18
309
CONTENTFORMAT_END
171
     0
 94
        6
 95
        1
302
GRIDFORMAT
  1
GRIDFORMAT_BEGIN
 90
        0
 91
        1
 62
     0
 92
       -2
340
0
 93
        0
 40
0.045
309
GRIDFORMAT_END
 95
        2
302
GRIDFORMAT
  1
GRIDFORMAT_BEGIN
 90
        0
 91
        1
 62
     0
 92
       -2
340
0
 93
        0
 40
0.045
309
GRIDFORMAT_END
 95
        4
302
GRIDFORMAT
  1
GRIDFORMAT_BEGIN
 90
        0
 91
        1
 62
     0
 92
       -2
340
0
 93
        0
 40
0.045
309
GRIDFORMAT_END
 95
        8
302
GRIDFORMAT
  1
GRIDFORMAT_BEGIN
 90
        0
 91
        1
 62
     0
 92
       -2
340
0
 93
        0
 40
0.045
309
GRIDFORMAT_END
 95
       16
302
GRIDFORMAT
  1
GRIDFORMAT_BEGIN
 90
        0
 91
        1
 62
     0
 92
       -2
340
0
 93
        0
 40
0.045
309
GRIDFORMAT_END
 95
       32
302
GRIDFORMAT
  1
GRIDFORMAT_BEGIN
 90
        0
 91
        1
 62
     0
 92
       -2
340
0
 93
        0
 40
0.045
309
GRIDFORMAT_END
309
TABLEFORMAT_END
  1
CELLSTYLE_BEGIN
 90
        2
 91
        1
300
_HEADER
309
CELLSTYLE_END
300
CELLSTYLE
  1
TABLEFORMAT_BEGIN
 90
        5
170
     1
 91
        0
 92
        0
 62
   257
 93
        1
300
CONTENTFORMAT
  1
CONTENTFORMAT_BEGIN
 90
        0
 91
        0
 92
        4
 93
        0
300

 40
0.0
140
1.0
 94
        2
 62
     0
340
21
144
0.18
309
CONTENTFORMAT_END
171
     0
 94
        6
 95
        1
302
GRIDFORMAT
  1
GRIDFORMAT_BEGIN
 90
        0
 91
        1
 62
     0
 92
       -2
340
0
 93
        0
 40
0.045
309
GRIDFORMAT_END
 95
        2
302
GRIDFORMAT
  1
GRIDFORMAT_BEGIN
 90
        0
 91
        1
 62
     0
 92
       -2
340
0
 93
        0
 40
0.045
309
GRIDFORMAT_END
 95
        4
302
GRIDFORMAT
  1
GRIDFORMAT_BEGIN
 90
        0
 91
        1
 62
     0
 92
       -2
340
0
 93
        0
 40
0.045
309
GRIDFORMAT_END
 95
        8
302
GRIDFORMAT
  1
GRIDFORMAT_BEGIN
 90
        0
 91
        1
 62
     0
 92
       -2
340
0
 93
        0
 40
0.045
309
GRIDFORMAT_END
 95
       16
302
GRIDFORMAT
  1
GRIDFORMAT_BEGIN
 90
        0
 91
        1
 62
     0
 92
       -2
340
0
 93
        0
 40
0.045
309
GRIDFORMAT_END
 95
       32
302
GRIDFORMAT
  1
GRIDFORMAT_BEGIN
 90
        0
 91
        1
 62
     0
 92
       -2
340
0
 93
        0
 40
0.045
309
GRIDFORMAT_END
309
TABLEFORMAT_END
  1
CELLSTYLE_BEGIN
 90
        3
 91
        2
300
_DATA
309
CELLSTYLE_END
  0
XRECORD
  5
20BF
102
{ACAD_REACTORS
330
5B
102
}
330
5B
100
AcDbXrecord
280
     1
102
ACAD_ROUNDTRIP_PRE2007_TABLESTYLE
 90
        4
 91
        0
  1

 92
        4
 93
        0
  2

 94
        4
 95
        0
  3

  0
ENDSEC
  0
EOF
