  0
SECTION
  2
HEADER
  9
$ACADVER
  1
AC1015
  9
$ACADMAINTVER
 70
    20
  9
$DWGCODEPAGE
  3
ANSI_1250
  9
$INSBASE
 10
133587.2024529565
 20
57557.5163155559
 30
0.0
  9
$EXTMIN
 10
120630.2554952575
 20
43537.51631555589
 30
0.0
  9
$EXTMAX
 10
143787.2024529565
 20
73838.90198094989
 30
0.0
  9
$LIMMIN
 10
0.0
 20
0.0
  9
$LIMMAX
 10
420.0
 20
297.0
  9
$ORTHOMODE
 70
     1
  9
$REGENMODE
 70
     1
  9
$FILLMODE
 70
     1
  9
$QTEXTMODE
 70
     0
  9
$MIRRTEXT
 70
     0
  9
$LTSCALE
 40
75.0
  9
$ATTMODE
 70
     1
  9
$TEXTSIZE
 40
20.0
  9
$TRACEWID
 40
1.0
  9
$TEXTSTYLE
  7
ROMANS
  9
$CLAYER
  8
WYMIARY
  9
$CELTYPE
  6
ByLayer
  9
$CECOLOR
 62
   256
  9
$CELTSCALE
 40
1.0
  9
$DISPSILH
 70
     0
  9
$DIMSCALE
 40
1.0
  9
$DIMASZ
 40
30.0
  9
$DIMEXO
 40
43.0
  9
$DIMDLI
 40
0.0
  9
$DIMRND
 40
0.5
  9
$DIMDLE
 40
12.0
  9
$DIMEXE
 40
13.0
  9
$DIMTP
 40
0.0
  9
$DIMTM
 40
0.0
  9
$DIMTXT
 40
80.0
  9
$DIMCEN
 40
0.0
  9
$DIMTSZ
 40
0.0
  9
$DIMTOL
 70
     0
  9
$DIMLIM
 70
     0
  9
$DIMTIH
 70
     0
  9
$DIMTOH
 70
     0
  9
$DIMSE1
 70
     1
  9
$DIMSE2
 70
     1
  9
$DIMTAD
 70
     0
  9
$DIMZIN
 70
    12
  9
$DIMBLK
  1
B-DIM
  9
$DIMASO
 70
     1
  9
$DIMSHO
 70
     1
  9
$DIMPOST
  1

  9
$DIMAPOST
  1

  9
$DIMALT
 70
     0
  9
$DIMALTD
 70
     2
  9
$DIMALTF
 40
25.4
  9
$DIMLFAC
 40
1.0
  9
$DIMTOFL
 70
     1
  9
$DIMTVP
 40
1.0
  9
$DIMTIX
 70
     1
  9
$DIMSOXD
 70
     0
  9
$DIMSAH
 70
     0
  9
$DIMBLK1
  1

  9
$DIMBLK2
  1

  9
$DIMSTYLE
  2
500
  9
$DIMCLRD
 70
     1
  9
$DIMCLRE
 70
     1
  9
$DIMCLRT
 70
    10
  9
$DIMTFAC
 40
1.0
  9
$DIMGAP
 40
0.0
  9
$DIMJUST
 70
     0
  9
$DIMSD1
 70
     0
  9
$DIMSD2
 70
     0
  9
$DIMTOLJ
 70
     1
  9
$DIMTZIN
 70
     0
  9
$DIMALTZ
 70
     0
  9
$DIMALTTZ
 70
     0
  9
$DIMUPT
 70
     0
  9
$DIMDEC
 70
     1
  9
$DIMTDEC
 70
     1
  9
$DIMALTU
 70
     2
  9
$DIMALTTD
 70
     2
  9
$DIMTXSTY
  7
ROMANS
  9
$DIMAUNIT
 70
     0
  9
$DIMADEC
 70
     0
  9
$DIMALTRND
 40
0.0
  9
$DIMAZIN
 70
     0
  9
$DIMDSEP
 70
    46
  9
$DIMATFIT
 70
     3
  9
$DIMFRAC
 70
     0
  9
$DIMLDRBLK
  1
B-DIM
  9
$DIMLUNIT
 70
     2
  9
$DIMLWD
 70
    -2
  9
$DIMLWE
 70
    -2
  9
$DIMTMOVE
 70
     2
  9
$LUNITS
 70
     2
  9
$LUPREC
 70
     1
  9
$SKETCHINC
 40
1.0
  9
$FILLETRAD
 40
0.0
  9
$AUNITS
 70
     0
  9
$AUPREC
 70
     0
  9
$MENU
  1
.
  9
$ELEVATION
 40
0.0
  9
$PELEVATION
 40
0.0
  9
$THICKNESS
 40
0.0
  9
$LIMCHECK
 70
     0
  9
$CHAMFERA
 40
0.0
  9
$CHAMFERB
 40
0.0
  9
$CHAMFERC
 40
20.0
  9
$CHAMFERD
 40
0.0
  9
$SKPOLY
 70
     0
  9
$TDCREATE
 40
2452027.670547454
  9
$TDUCREATE
 40
2452027.587214121
  9
$TDUPDATE
 40
2454950.651068785
  9
$TDUUPDATE
 40
2454950.567735451
  9
$TDINDWG
 40
8.0638870718
  9
$TDUSRTIMER
 40
8.0638870718
  9
$USRTIMER
 70
     1
  9
$ANGBASE
 50
0.0
  9
$ANGDIR
 70
     0
  9
$PDMODE
 70
     0
  9
$PDSIZE
 40
0.0
  9
$PLINEWID
 40
60.0
  9
$SPLFRAME
 70
     0
  9
$SPLINETYPE
 70
     6
  9
$SPLINESEGS
 70
     8
  9
$HANDSEED
  5
F6B
  9
$SURFTAB1
 70
     6
  9
$SURFTAB2
 70
     6
  9
$SURFTYPE
 70
     6
  9
$SURFU
 70
     6
  9
$SURFV
 70
     6
  9
$UCSBASE
  2

  9
$UCSNAME
  2

  9
$UCSORG
 10
0.0
 20
0.0
 30
0.0
  9
$UCSXDIR
 10
1.0
 20
0.0
 30
0.0
  9
$UCSYDIR
 10
0.0
 20
1.0
 30
0.0
  9
$UCSORTHOREF
  2

  9
$UCSORTHOVIEW
 70
     0
  9
$UCSORGTOP
 10
0.0
 20
0.0
 30
0.0
  9
$UCSORGBOTTOM
 10
0.0
 20
0.0
 30
0.0
  9
$UCSORGLEFT
 10
0.0
 20
0.0
 30
0.0
  9
$UCSORGRIGHT
 10
0.0
 20
0.0
 30
0.0
  9
$UCSORGFRONT
 10
0.0
 20
0.0
 30
0.0
  9
$UCSORGBACK
 10
0.0
 20
0.0
 30
0.0
  9
$PUCSBASE
  2

  9
$PUCSNAME
  2

  9
$PUCSORG
 10
0.0
 20
0.0
 30
0.0
  9
$PUCSXDIR
 10
1.0
 20
0.0
 30
0.0
  9
$PUCSYDIR
 10
0.0
 20
1.0
 30
0.0
  9
$PUCSORTHOREF
  2

  9
$PUCSORTHOVIEW
 70
     0
  9
$PUCSORGTOP
 10
0.0
 20
0.0
 30
0.0
  9
$PUCSORGBOTTOM
 10
0.0
 20
0.0
 30
0.0
  9
$PUCSORGLEFT
 10
0.0
 20
0.0
 30
0.0
  9
$PUCSORGRIGHT
 10
0.0
 20
0.0
 30
0.0
  9
$PUCSORGFRONT
 10
0.0
 20
0.0
 30
0.0
  9
$PUCSORGBACK
 10
0.0
 20
0.0
 30
0.0
  9
$USERI1
 70
     0
  9
$USERI2
 70
     0
  9
$USERI3
 70
     0
  9
$USERI4
 70
     0
  9
$USERI5
 70
     0
  9
$USERR1
 40
0.0
  9
$USERR2
 40
0.0
  9
$USERR3
 40
0.0
  9
$USERR4
 40
0.0
  9
$USERR5
 40
0.0
  9
$WORLDVIEW
 70
     1
  9
$SHADEDGE
 70
     3
  9
$SHADEDIF
 70
    70
  9
$TILEMODE
 70
     1
  9
$MAXACTVP
 70
    64
  9
$PINSBASE
 10
0.0
 20
0.0
 30
0.0
  9
$PLIMCHECK
 70
     0
  9
$PEXTMIN
 10
1.000000000000000E+20
 20
1.000000000000000E+20
 30
1.000000000000000E+20
  9
$PEXTMAX
 10
-1.000000000000000E+20
 20
-1.000000000000000E+20
 30
-1.000000000000000E+20
  9
$PLIMMIN
 10
0.0
 20
0.0
  9
$PLIMMAX
 10
420.0
 20
297.0
  9
$UNITMODE
 70
     0
  9
$VISRETAIN
 70
     1
  9
$PLINEGEN
 70
     0
  9
$PSLTSCALE
 70
     1
  9
$TREEDEPTH
 70
  3020
  9
$CMLSTYLE
  2
Standard
  9
$CMLJUST
 70
     0
  9
$CMLSCALE
 40
20.0
  9
$PROXYGRAPHICS
 70
     1
  9
$MEASUREMENT
 70
     0
  9
$CELWEIGHT
370
    -1
  9
$ENDCAPS
280
     0
  9
$JOINSTYLE
280
     0
  9
$LWDISPLAY
290
     0
  9
$INSUNITS
 70
     1
  9
$HYPERLINKBASE
  1

  9
$STYLESHEET
  1
100.ctb
  9
$XEDIT
290
     1
  9
$CEPSNTYPE
380
     0
  9
$PSTYLEMODE
290
     1
  9
$FINGERPRINTGUID
  2
{E99B5E42-5345-47F4-9AE5-DF6414013D93}
  9
$VERSIONGUID
  2
{EA9C6E4B-E65D-4DD7-BC98-AB52E2C49FBF}
  9
$EXTNAMES
290
     1
  9
$PSVPSCALE
 40
0.0
  9
$OLESTARTUP
290
     0
  0
ENDSEC
  0
SECTION
  2
CLASSES
  0
CLASS
  1
ACDBDICTIONARYWDFLT
  2
AcDbDictionaryWithDefault
  3
ObjectDBX Classes
 90
        0
280
     0
281
     0
  0
CLASS
  1
ACDBPLACEHOLDER
  2
AcDbPlaceHolder
  3
ObjectDBX Classes
 90
        0
280
     0
281
     0
  0
CLASS
  1
LAYOUT
  2
AcDbLayout
  3
ObjectDBX Classes
 90
        0
280
     0
281
     0
  0
CLASS
  1
DICTIONARYVAR
  2
AcDbDictionaryVar
  3
ObjectDBX Classes
 90
        0
280
     0
281
     0
  0
CLASS
  1
SORTENTSTABLE
  2
AcDbSortentsTable
  3
ObjectDBX Classes
 90
        0
280
     0
281
     0
  0
CLASS
  1
AEC_VARS_DWG_SETUP
  2
AecDbVarsDwgSetup
  3
AecBase50|Product Desc: Autodesk Architectural Desktop 2007 |Company: Autodesk,Inc. |WEB Address: www.autodesk.com
 90
    32897
280
     0
281
     0
  0
CLASS
  1
AEC_DISP_REP_CONFIG
  2
AecDbDispRepConfig
  3
AecBase50|Product Desc: Autodesk Architectural Desktop 2007 |Company: Autodesk,Inc. |WEB Address: www.autodesk.com
 90
    32897
280
     0
281
     0
  0
CLASS
  1
AEC_DISP_REP_SET
  2
AecDbDispRepSet
  3
AecBase50|Product Desc: Autodesk Architectural Desktop 2007 |Company: Autodesk,Inc. |WEB Address: www.autodesk.com
 90
    32897
280
     0
281
     0
  0
CLASS
  1
AEC_DISP_REP_2D_SECTION
  2
AecDbDispRep2dSection
  3
AecBase50|Product Desc: Autodesk Architectural Desktop 2007 |Company: Autodesk,Inc. |WEB Address: www.autodesk.com
 90
    32897
280
     0
281
     0
  0
CLASS
  1
AEC_DISP_REP_ANCHOR_BUB_TO_GRID
  2
AecDbDispRepAnchorBubToGrid
  3
AecStructureBase50|Product Desc: Autodesk Architectural Desktop 2007 |Company: Autodesk,Inc. |WEB Address: www.autodesk.com
 90
    32897
280
     0
281
     0
  0
CLASS
  1
AEC_DISP_REP_ANCHOR_BUB_TO_GRID_MODEL
  2
AecDbDispRepAnchorBubToGridMdl
  3
AecStructureBase50|Product Desc: Autodesk Architectural Desktop 2007 |Company: Autodesk,Inc. |WEB Address: www.autodesk.com
 90
    32897
280
     0
281
     0
  0
CLASS
  1
AEC_DISP_REP_ANCHOR_ENT_TO_NODE
  2
AecDbDispRepAnchorEntToNode
  3
AecBase50|Product Desc: Autodesk Architectural Desktop 2007 |Company: Autodesk,Inc. |WEB Address: www.autodesk.com
 90
    32897
280
     0
281
     0
  0
CLASS
  1
AEC_DISP_REP_ANCHOR_TAG_TO_ENT
  2
AecDbDispRepAnchorTagToEnt
  3
AecScheduleData50|Product Desc: Autodesk Architectural Desktop 2007 |Company: Autodesk,Inc. |WEB Address: www.autodesk.com
 90
    32897
280
     0
281
     0
  0
CLASS
  1
AEC_DISP_REP_AREA
  2
AecDbDispRepArea
  3
AecAreaCalculationBase50|Product Desc: Autodesk Architectural Desktop 2007 |Company: Autodesk,Inc. |WEB Address: www.autodesk.com
 90
    32897
280
     0
281
     0
  0
CLASS
  1
AEC_DISP_REP_AREA_DECOMPOSED
  2
AecDbDispRepAreaDecomposed
  3
AecAreaCalculationBase50|Product Desc: Autodesk Architectural Desktop 2007 |Company: Autodesk,Inc. |WEB Address: www.autodesk.com
 90
    32897
280
     0
281
     0
  0
CLASS
  1
AEC_DISP_REP_AREAGROUP
  2
AecDbDispRepAreaGroup
  3
AecAreaCalculationBase50|Product Desc: Autodesk Architectural Desktop 2007 |Company: Autodesk,Inc. |WEB Address: www.autodesk.com
 90
    32897
280
     0
281
     0
  0
CLASS
  1
AEC_DISP_REP_BDG_ELEVLINE_MODEL
  2
AecDbDispRepBdgElevLineModel
  3
AecArchBase50|Product Desc: Autodesk Architectural Desktop 2007 |Company: Autodesk,Inc. |WEB Address: www.autodesk.com
 90
    32897
280
     0
281
     0
  0
CLASS
  1
AEC_DISP_REP_BDG_SECTIONLINE_PLAN
  2
AecDbDispRepBdgElevLinePlan
  3
AecArchBase50|Product Desc: Autodesk Architectural Desktop 2007 |Company: Autodesk,Inc. |WEB Address: www.autodesk.com
 90
    32897
280
     0
281
     0
  0
CLASS
  1
AEC_DISP_REP_BDG_SECTIONLINE_MODEL
  2
AecDbDispRepBdgSectionLineModel
  3
AecArchBase50|Product Desc: Autodesk Architectural Desktop 2007 |Company: Autodesk,Inc. |WEB Address: www.autodesk.com
 90
    32897
280
     0
281
     0
  0
CLASS
  1
AEC_DISP_REP_BDG_SECTIONLINE_PLAN
  2
AecDbDispRepBdgSectionLinePlan
  3
AecArchBase50|Product Desc: Autodesk Architectural Desktop 2007 |Company: Autodesk,Inc. |WEB Address: www.autodesk.com
 90
    32897
280
     0
281
     0
  0
CLASS
  1
AEC_DISP_REP_BDG_SECTION_SUBDIV
  2
AecDbDispRepBdgSectionSubDiv
  3
AecArchBase50|Product Desc: Autodesk Architectural Desktop 2007 |Company: Autodesk,Inc. |WEB Address: www.autodesk.com
 90
    32897
280
     0
281
     0
  0
CLASS
  1
AEC_DISP_REP_CAMERA
  2
AecDbDispRepCamera
  3
AecBase50|Product Desc: Autodesk Architectural Desktop 2007 |Company: Autodesk,Inc. |WEB Address: www.autodesk.com
 90
    32897
280
     0
281
     0
  0
CLASS
  1
AEC_DISP_REP_CEILING_GRID
  2
AecDbDispRepCeilingGrid
  3
AecArchBase50|Product Desc: Autodesk Architectural Desktop 2007 |Company: Autodesk,Inc. |WEB Address: www.autodesk.com
 90
    33661
280
     0
281
     0
  0
CLASS
  1
AEC_DISP_REP_CEILING_GRID_MODEL
  2
AecDbDispRepCeilingGridModel
  3
AecArchBase50|Product Desc: Autodesk Architectural Desktop 2007 |Company: Autodesk,Inc. |WEB Address: www.autodesk.com
 90
    32897
280
     0
281
     0
  0
CLASS
  1
AEC_DISP_REP_CEILING_GRID_RCP
  2
AecDbDispRepCeilingGridRcp
  3
AecArchBase50|Product Desc: Autodesk Architectural Desktop 2007 |Company: Autodesk,Inc. |WEB Address: www.autodesk.com
 90
    32897
280
     0
281
     0
  0
CLASS
  1
AEC_DISP_REP_CLIP_VOLUME_MODEL
  2
AecDbDispRepClipVolModel
  3
AecBase50|Product Desc: Autodesk Architectural Desktop 2007 |Company: Autodesk,Inc. |WEB Address: www.autodesk.com
 90
    32897
280
     0
281
     0
  0
CLASS
  1
AEC_DISP_REP_CLIP_VOLUME_PLAN
  2
AecDbDispRepClipVolPlan
  3
AecBase50|Product Desc: Autodesk Architectural Desktop 2007 |Company: Autodesk,Inc. |WEB Address: www.autodesk.com
 90
    32897
280
     0
281
     0
  0
CLASS
  1
AEC_DISP_REP_CLIP_VOLUME_RESULT_SUBDIV
  2
AecDbDispRepClipVolResSubDiv
  3
AecBase50|Product Desc: Autodesk Architectural Desktop 2007 |Company: Autodesk,Inc. |WEB Address: www.autodesk.com
 90
    32897
280
     0
281
     0
  0
CLASS
  1
AEC_DISP_REP_CLIP_VOLUME_RESULT
  2
AecDbDispRepClipVolResult
  3
AecBase50|Product Desc: Autodesk Architectural Desktop 2007 |Company: Autodesk,Inc. |WEB Address: www.autodesk.com
 90
    32897
280
     0
281
     0
  0
CLASS
  1
AEC_DISP_REP_COLUMN_GRID
  2
AecDbDispRepColumnGrid
  3
AecStructureBase50|Product Desc: Autodesk Architectural Desktop 2007 |Company: Autodesk,Inc. |WEB Address: www.autodesk.com
 90
    32897
280
     0
281
     0
  0
CLASS
  1
AEC_DISP_REP_COLUMN_GRID_MODEL
  2
AecDbDispRepColumnGridModel
  3
AecStructureBase50|Product Desc: Autodesk Architectural Desktop 2007 |Company: Autodesk,Inc. |WEB Address: www.autodesk.com
 90
    32897
280
     0
281
     0
  0
CLASS
  1
AEC_DISP_REP_CURTAIN_WALL_LAYOUT_MODEL
  2
AecDbDispRepCurtainWallLayoutModel
  3
AecArchBase50|Product Desc: Autodesk Architectural Desktop 2007 |Company: Autodesk,Inc. |WEB Address: www.autodesk.com
 90
    32897
280
     0
281
     0
  0
CLASS
  1
AEC_DISP_REP_CURTAIN_WALL_LAYOUT_PLAN
  2
AecDbDispRepCurtainWallLayoutPlan
  3
AecArchBase50|Product Desc: Autodesk Architectural Desktop 2007 |Company: Autodesk,Inc. |WEB Address: www.autodesk.com
 90
    32897
280
     0
281
     0
  0
CLASS
  1
AEC_DISP_REP_CURTAIN_WALL_UNIT_MODEL
  2
AecDbDispRepCurtainWallUnitModel
  3
AecArchBase50|Product Desc: Autodesk Architectural Desktop 2007 |Company: Autodesk,Inc. |WEB Address: www.autodesk.com
 90
    32897
280
     0
281
     0
  0
CLASS
  1
AEC_DISP_REP_CURTAIN_WALL_UNIT_PLAN
  2
AecDbDispRepCurtainWallUnitPlan
  3
AecArchBase50|Product Desc: Autodesk Architectural Desktop 2007 |Company: Autodesk,Inc. |WEB Address: www.autodesk.com
 90
    32897
280
     0
281
     0
  0
CLASS
  1
AEC_DB_DISP_REP_DIM_GROUP_PLAN
  2
AecDbDispRepDimGroupPlan
  3
AecArchDACHBase50|Product Desc: Autodesk Architectural Desktop 2007 |Company: Autodesk,Inc. |WEB Address: www.autodesk.com
 90
    32897
280
     0
281
     0
  0
CLASS
  1
AEC_DISP_REP_DOOR_MODEL
  2
AecDbDispRepDoorModel
  3
AecArchBase50|Product Desc: Autodesk Architectural Desktop 2007 |Company: Autodesk,Inc. |WEB Address: www.autodesk.com
 90
    32897
280
     0
281
     0
  0
CLASS
  1
AEC_DISP_REP_DOOR_NOMINAL
  2
AecDbDispRepDoorNominal
  3
AecArchBase50|Product Desc: Autodesk Architectural Desktop 2007 |Company: Autodesk,Inc. |WEB Address: www.autodesk.com
 90
    32897
280
     0
281
     0
  0
CLASS
  1
AEC_DISP_REP_DOOR_PLAN
  2
AecDbDispRepDoorPlan
  3
AecArchBase50|Product Desc: Autodesk Architectural Desktop 2007 |Company: Autodesk,Inc. |WEB Address: www.autodesk.com
 90
    32897
280
     0
281
     0
  0
CLASS
  1
AEC_DISP_REP_EDITINPLACEPROFILE
  2
AecDbDispRepEditInPlaceProfile
  3
AecBase50|Product Desc: Autodesk Architectural Desktop 2007 |Company: Autodesk,Inc. |WEB Address: www.autodesk.com
 90
    32897
280
     0
281
     0
  0
CLASS
  1
AEC_DISP_REP_ENT_REF
  2
AecDbDispRepEntRef
  3
AecBase50|Product Desc: Autodesk Architectural Desktop 2007 |Company: Autodesk,Inc. |WEB Address: www.autodesk.com
 90
    32897
280
     0
281
     0
  0
CLASS
  1
AEC_DISP_REP_LAYOUT_CURVE
  2
AecDbDispRepLayoutCurve
  3
AecBase50|Product Desc: Autodesk Architectural Desktop 2007 |Company: Autodesk,Inc. |WEB Address: www.autodesk.com
 90
    32897
280
     0
281
     0
  0
CLASS
  1
AEC_DISP_REP_LAYOUT_GRID2D
  2
AecDbDispRepLayoutGrid2d
  3
AecBase50|Product Desc: Autodesk Architectural Desktop 2007 |Company: Autodesk,Inc. |WEB Address: www.autodesk.com
 90
    32897
280
     0
281
     0
  0
CLASS
  1
AEC_DISP_REP_LAYOUT_GRID3D
  2
AecDbDispRepLayoutGrid3d
  3
AecBase50|Product Desc: Autodesk Architectural Desktop 2007 |Company: Autodesk,Inc. |WEB Address: www.autodesk.com
 90
    32897
280
     0
281
     0
  0
CLASS
  1
AEC_DISP_REP_MASKBLOCK_REF
  2
AecDbDispRepMaskBlockRef
  3
AecBase50|Product Desc: Autodesk Architectural Desktop 2007 |Company: Autodesk,Inc. |WEB Address: www.autodesk.com
 90
    32897
280
     0
281
     0
  0
CLASS
  1
AEC_DISP_REP_MASKBLOCK_REF_RCP
  2
AecDbDispRepMaskBlockRefRcp
  3
AecArchBase50|Product Desc: Autodesk Architectural Desktop 2007 |Company: Autodesk,Inc. |WEB Address: www.autodesk.com
 90
    32897
280
     0
281
     0
  0
CLASS
  1
AEC_DISP_REP_MASS_ELEM_MODEL
  2
AecDbDispRepMassElemModel
  3
AecBaseEx50|Product Desc: Autodesk Architectural Desktop 2007 |Company: Autodesk,Inc. |WEB Address: www.autodesk.com
 90
    32897
280
     0
281
     0
  0
CLASS
  1
AEC_DISP_REP_MASS_ELEM_SCHEM
  2
AecDbDispRepMassElemSchem
  3
AecBaseEx50|Product Desc: Autodesk Architectural Desktop 2007 |Company: Autodesk,Inc. |WEB Address: www.autodesk.com
 90
    32897
280
     0
281
     0
  0
CLASS
  1
AEC_DISP_REP_MASS_GROUP_MODEL
  2
AecDbDispRepMassGroupModel
  3
AecBaseEx50|Product Desc: Autodesk Architectural Desktop 2007 |Company: Autodesk,Inc. |WEB Address: www.autodesk.com
 90
    32897
280
     0
281
     0
  0
CLASS
  1
AEC_DISP_REP_MASS_GROUP_PLAN
  2
AecDbDispRepMassGroupPlan
  3
AecBaseEx50|Product Desc: Autodesk Architectural Desktop 2007 |Company: Autodesk,Inc. |WEB Address: www.autodesk.com
 90
    32897
280
     0
281
     0
  0
CLASS
  1
AEC_DISP_REP_MATERIAL
  2
AecDbDispRepMaterial
  3
AecBase50|Product Desc: Autodesk Architectural Desktop 2007 |Company: Autodesk,Inc. |WEB Address: www.autodesk.com
 90
    32897
280
     0
281
     0
  0
CLASS
  1
AEC_DISP_REP_MVBLOCK_REF
  2
AecDbDispRepMvBlockRef
  3
AecBase50|Product Desc: Autodesk Architectural Desktop 2007 |Company: Autodesk,Inc. |WEB Address: www.autodesk.com
 90
    32897
280
     0
281
     0
  0
CLASS
  1
AEC_DISP_REP_MVBLOCK_REF_MODEL
  2
AecDbDispRepMvBlockRefModel
  3
AecBase50|Product Desc: Autodesk Architectural Desktop 2007 |Company: Autodesk,Inc. |WEB Address: www.autodesk.com
 90
    32897
280
     0
281
     0
  0
CLASS
  1
AEC_DISP_REP_OPENING
  2
AecDbDispRepOpening
  3
AecArchBase50|Product Desc: Autodesk Architectural Desktop 2007 |Company: Autodesk,Inc. |WEB Address: www.autodesk.com
 90
    32897
280
     0
281
     0
  0
CLASS
  1
AEC_DISP_REP_OPENING_MODEL
  2
AecDbDispRepOpeningModel
  3
AecArchBase50|Product Desc: Autodesk Architectural Desktop 2007 |Company: Autodesk,Inc. |WEB Address: www.autodesk.com
 90
    32897
280
     0
281
     0
  0
CLASS
  1
AEC_DISP_REP_POLYGON_MODEL
  2
AecDbDispRepPolygonModel
  3
AecBase50|Product Desc: Autodesk Architectural Desktop 2007 |Company: Autodesk,Inc. |WEB Address: www.autodesk.com
 90
    32897
280
     0
281
     0
  0
CLASS
  1
AEC_DISP_REP_RAILING_MODEL
  2
AecDbDispRepRailingModel
  3
AecArchBase50|Product Desc: Autodesk Architectural Desktop 2007 |Company: Autodesk,Inc. |WEB Address: www.autodesk.com
 90
    32897
280
     0
281
     0
  0
CLASS
  1
AEC_DISP_REP_RAILING_PLAN
  2
AecDbDispRepRailingPlan
  3
AecArchBase50|Product Desc: Autodesk Architectural Desktop 2007 |Company: Autodesk,Inc. |WEB Address: www.autodesk.com
 90
    32897
280
     0
281
     0
  0
CLASS
  1
AEC_DISP_REP_ROOF_MODEL
  2
AecDbDispRepRoofModel
  3
AecArchBase50|Product Desc: Autodesk Architectural Desktop 2007 |Company: Autodesk,Inc. |WEB Address: www.autodesk.com
 90
    32897
280
     0
281
     0
  0
CLASS
  1
AEC_DISP_REP_ROOF_PLAN
  2
AecDbDispRepRoofPlan
  3
AecArchBase50|Product Desc: Autodesk Architectural Desktop 2007 |Company: Autodesk,Inc. |WEB Address: www.autodesk.com
 90
    32897
280
     0
281
     0
  0
CLASS
  1
AEC_DISP_REP_ROOFSLAB_MODEL
  2
AecDbDispRepRoofSlabModel
  3
AecArchBase50|Product Desc: Autodesk Architectural Desktop 2007 |Company: Autodesk,Inc. |WEB Address: www.autodesk.com
 90
    32897
280
     0
281
     0
  0
CLASS
  1
AEC_DISP_REP_ROOFSLAB_PLAN
  2
AecDbDispRepRoofSlabPlan
  3
AecArchBase50|Product Desc: Autodesk Architectural Desktop 2007 |Company: Autodesk,Inc. |WEB Address: www.autodesk.com
 90
    32897
280
     0
281
     0
  0
CLASS
  1
AEC_DISP_REP_SCHEDULE_TABLE
  2
AecDbDispRepScheduleTable
  3
AecSchedule50|Product Desc: Autodesk Architectural Desktop 2007 |Company: Autodesk,Inc. |WEB Address: www.autodesk.com
 90
    32897
280
     0
281
     0
  0
CLASS
  1
AEC_DISP_REP_SLAB_MODEL
  2
AecDbDispRepSlabModel
  3
AecArchBase50|Product Desc: Autodesk Architectural Desktop 2007 |Company: Autodesk,Inc. |WEB Address: www.autodesk.com
 90
    32897
280
     0
281
     0
  0
CLASS
  1
AEC_DISP_REP_SLAB_PLAN
  2
AecDbDispRepSlabPlan
  3
AecArchBase50|Product Desc: Autodesk Architectural Desktop 2007 |Company: Autodesk,Inc. |WEB Address: www.autodesk.com
 90
    32897
280
     0
281
     0
  0
CLASS
  1
AEC_DISP_REP_SLICE
  2
AecDbDispRepSlice
  3
AecBase50|Product Desc: Autodesk Architectural Desktop 2007 |Company: Autodesk,Inc. |WEB Address: www.autodesk.com
 90
    32897
280
     0
281
     0
  0
CLASS
  1
AEC_DISP_REP_SPACE_BOUNDARY_MODEL
  2
AecDbDispRepSpaceBoundaryModel
  3
AecArchBase50|Product Desc: Autodesk Architectural Desktop 2007 |Company: Autodesk,Inc. |WEB Address: www.autodesk.com
 90
    32897
280
     0
281
     0
  0
CLASS
  1
AEC_DISP_REP_SPACE_BOUNDARY_PLAN
  2
AecDbDispRepSpaceBoundaryPlan
  3
AecArchBase50|Product Desc: Autodesk Architectural Desktop 2007 |Company: Autodesk,Inc. |WEB Address: www.autodesk.com
 90
    32897
280
     0
281
     0
  0
CLASS
  1
AEC_DISP_REP_SPACE_BOUNDARY_SCHEM
  2
AecDbDispRepSpaceBoundarySketch
  3
AecArchBase50|Product Desc: Autodesk Architectural Desktop 2007 |Company: Autodesk,Inc. |WEB Address: www.autodesk.com
 90
    32897
280
     0
281
     0
  0
CLASS
  1
AEC_DISP_REP_SPACE_MODEL
  2
AecDbDispRepSpaceModel
  3
AecArchBase50|Product Desc: Autodesk Architectural Desktop 2007 |Company: Autodesk,Inc. |WEB Address: www.autodesk.com
 90
    32897
280
     0
281
     0
  0
CLASS
  1
AEC_DISP_REP_SPACE_PLAN
  2
AecDbDispRepSpacePlan
  3
AecArchBase50|Product Desc: Autodesk Architectural Desktop 2007 |Company: Autodesk,Inc. |WEB Address: www.autodesk.com
 90
    32897
280
     0
281
     0
  0
CLASS
  1
AEC_DISP_REP_STAIR_MODEL
  2
AecDbDispRepStairModel
  3
AecArchBase50|Product Desc: Autodesk Architectural Desktop 2007 |Company: Autodesk,Inc. |WEB Address: www.autodesk.com
 90
    32897
280
     0
281
     0
  0
CLASS
  1
AEC_DISP_REP_STAIR_PLAN
  2
AecDbDispRepStairPlan
  3
AecArchBase50|Product Desc: Autodesk Architectural Desktop 2007 |Company: Autodesk,Inc. |WEB Address: www.autodesk.com
 90
    32897
280
     0
281
     0
  0
CLASS
  1
AEC_DISP_REP_WALL_GRAPH
  2
AecDbDispRepWallGraph
  3
AecArchBase50|Product Desc: Autodesk Architectural Desktop 2007 |Company: Autodesk,Inc. |WEB Address: www.autodesk.com
 90
    32897
280
     0
281
     0
  0
CLASS
  1
AEC_DISP_REP_WALL_MODEL
  2
AecDbDispRepWallModel
  3
AecArchBase50|Product Desc: Autodesk Architectural Desktop 2007 |Company: Autodesk,Inc. |WEB Address: www.autodesk.com
 90
    32897
280
     0
281
     0
  0
CLASS
  1
AEC_DISP_REP_WALL_PLAN
  2
AecDbDispRepWallPlan
  3
AecArchBase50|Product Desc: Autodesk Architectural Desktop 2007 |Company: Autodesk,Inc. |WEB Address: www.autodesk.com
 90
    32897
280
     0
281
     0
  0
CLASS
  1
AEC_DISP_REP_WALL_SCHEM
  2
AecDbDispRepWallSchem
  3
AecArchBase50|Product Desc: Autodesk Architectural Desktop 2007 |Company: Autodesk,Inc. |WEB Address: www.autodesk.com
 90
    32897
280
     0
281
     0
  0
CLASS
  1
AEC_DISP_REP_WINDOW_ASSEMBLY_MODEL
  2
AecDbDispRepWindowAssemblyModel
  3
AecArchBase50|Product Desc: Autodesk Architectural Desktop 2007 |Company: Autodesk,Inc. |WEB Address: www.autodesk.com
 90
    32897
280
     0
281
     0
  0
CLASS
  1
AEC_DISP_REP_WINDOW_ASSEMBLY_PLAN
  2
AecDbDispRepWindowAssemblyPlan
  3
AecArchBase50|Product Desc: Autodesk Architectural Desktop 2007 |Company: Autodesk,Inc. |WEB Address: www.autodesk.com
 90
    32897
280
     0
281
     0
  0
CLASS
  1
AEC_AECDBDISPREPWINDOWASSEMBLYPLAN100
  2
AecDbDispRepWindowAssemblyPlan100
  3
AecArchDACHBase50|Product Desc: Autodesk Architectural Desktop 2007 |Company: Autodesk,Inc. |WEB Address: www.autodesk.com
 90
    32897
280
     0
281
     0
  0
CLASS
  1
AEC_DISP_REP_WINDOW_MODEL
  2
AecDbDispRepWindowModel
  3
AecArchBase50|Product Desc: Autodesk Architectural Desktop 2007 |Company: Autodesk,Inc. |WEB Address: www.autodesk.com
 90
    32897
280
     0
281
     0
  0
CLASS
  1
AEC_DISP_REP_WINDOW_NOMINAL
  2
AecDbDispRepWindowNominal
  3
AecArchBase50|Product Desc: Autodesk Architectural Desktop 2007 |Company: Autodesk,Inc. |WEB Address: www.autodesk.com
 90
    32897
280
     0
281
     0
  0
CLASS
  1
AEC_DISP_REP_WINDOW_PLAN
  2
AecDbDispRepWindowPlan
  3
AecArchBase50|Product Desc: Autodesk Architectural Desktop 2007 |Company: Autodesk,Inc. |WEB Address: www.autodesk.com
 90
    32897
280
     0
281
     0
  0
CLASS
  1
AECS_DISP_REP_MEMBER_LOGICAL
  2
AecsDbDispRepMemberLogical
  3
AecStructureBase50|Product Desc: Autodesk Architectural Desktop 2007 |Company: Autodesk,Inc. |WEB Address: www.autodesk.com
 90
    32897
280
     0
281
     0
  0
CLASS
  1
AECS_DISP_REP_MEMBER_MODEL_DESIGN
  2
AecsDbDispRepMemberModelDesign
  3
AecStructureBase50|Product Desc: Autodesk Architectural Desktop 2007 |Company: Autodesk,Inc. |WEB Address: www.autodesk.com
 90
    32897
280
     0
281
     0
  0
CLASS
  1
AECS_DISP_REP_MEMBER_PLAN_DESIGN
  2
AecsDbDispRepMemberPlanDesign
  3
AecStructureBase50|Product Desc: Autodesk Architectural Desktop 2007 |Company: Autodesk,Inc. |WEB Address: www.autodesk.com
 90
    32897
280
     0
281
     0
  0
CLASS
  1
AEC_DISP_PROPS_ENT
  2
AecDbDispPropsEnt
  3
AecBase50|Product Desc: Autodesk Architectural Desktop 2007 |Company: Autodesk,Inc. |WEB Address: www.autodesk.com
 90
    32897
280
     0
281
     0
  0
CLASS
  1
AEC_DISP_PROPS_CLIP_VOLUME
  2
AecDbDispPropsClipVol
  3
AecBase50|Product Desc: Autodesk Architectural Desktop 2007 |Company: Autodesk,Inc. |WEB Address: www.autodesk.com
 90
    32897
280
     0
281
     0
  0
CLASS
  1
AEC_DISP_PROPS_SLICE
  2
AecDbDispPropsSlice
  3
AecBase50|Product Desc: Autodesk Architectural Desktop 2007 |Company: Autodesk,Inc. |WEB Address: www.autodesk.com
 90
    32897
280
     0
281
     0
  0
CLASS
  1
AEC_DISP_PROPS_ROOFSLAB_PLAN
  2
AecDbDispPropsRoofSlabPlan
  3
AecArchBase50|Product Desc: Autodesk Architectural Desktop 2007 |Company: Autodesk,Inc. |WEB Address: www.autodesk.com
 90
    32897
280
     0
281
     0
  0
CLASS
  1
AEC_DISP_PROPS_GRID_ASSEMBLY_MODEL
  2
AecDbDispPropsGridAssemblyModel
  3
AecArchBase50|Product Desc: Autodesk Architectural Desktop 2007 |Company: Autodesk,Inc. |WEB Address: www.autodesk.com
 90
    32897
280
     0
281
     0
  0
CLASS
  1
AEC_DISP_PROPS_ROOF
  2
AecDbDispPropsRoof
  3
AecArchBase50|Product Desc: Autodesk Architectural Desktop 2007 |Company: Autodesk,Inc. |WEB Address: www.autodesk.com
 90
    32897
280
     0
281
     0
  0
CLASS
  1
AEC_DISP_PROPS_SPACE_MODEL
  2
AecDbDispPropsSpaceModel
  3
AecArchBase50|Product Desc: Autodesk Architectural Desktop 2007 |Company: Autodesk,Inc. |WEB Address: www.autodesk.com
 90
    32897
280
     0
281
     0
  0
CLASS
  1
AEC_DISP_PROPS_EDITINPLACEPROFILE_MODEL
  2
AecDbDispPropsEditInPlaceProfile
  3
AecBase50|Product Desc: Autodesk Architectural Desktop 2007 |Company: Autodesk,Inc. |WEB Address: www.autodesk.com
 90
    32897
280
     0
281
     0
  0
CLASS
  1
AEC_DISP_PROPS_DOOR
  2
AecDbDispPropsDoor
  3
AecArchBase50|Product Desc: Autodesk Architectural Desktop 2007 |Company: Autodesk,Inc. |WEB Address: www.autodesk.com
 90
    32897
280
     0
281
     0
  0
CLASS
  1
AEC_DISP_PROPS_MASKBLOCK
  2
AecDbDispPropsMaskBlock
  3
AecBase50|Product Desc: Autodesk Architectural Desktop 2007 |Company: Autodesk,Inc. |WEB Address: www.autodesk.com
 90
    32897
280
     0
281
     0
  0
CLASS
  1
AEC_DISP_PROPS_SPACE_PLAN
  2
AecDbDispPropsSpacePlan
  3
AecArchBase50|Product Desc: Autodesk Architectural Desktop 2007 |Company: Autodesk,Inc. |WEB Address: www.autodesk.com
 90
    32897
280
     0
281
     0
  0
CLASS
  1
AEC_DISP_PROPS_RAILING_PLAN
  2
AecDbDispPropsRailingPlan
  3
AecArchBase50|Product Desc: Autodesk Architectural Desktop 2007 |Company: Autodesk,Inc. |WEB Address: www.autodesk.com
 90
    32897
280
     0
281
     0
  0
CLASS
  1
AEC_DISP_PROPS_LAYOUT_GRID2D
  2
AecDbDispPropsLayoutGrid2d
  3
AecBase50|Product Desc: Autodesk Architectural Desktop 2007 |Company: Autodesk,Inc. |WEB Address: www.autodesk.com
 90
    32897
280
     0
281
     0
  0
CLASS
  1
AEC_DISP_PROPS_CLIP_VOLUME_RESULT
  2
AecDbDispPropsClipVolResSubDiv
  3
AecBase50|Product Desc: Autodesk Architectural Desktop 2007 |Company: Autodesk,Inc. |WEB Address: www.autodesk.com
 90
    32897
280
     0
281
     0
  0
CLASS
  1
AEC_DISP_PROPS_STAIR_MODEL
  2
AecDbDispPropsStairModel
  3
AecArchBase50|Product Desc: Autodesk Architectural Desktop 2007 |Company: Autodesk,Inc. |WEB Address: www.autodesk.com
 90
    32897
280
     0
281
     0
  0
CLASS
  1
AEC_DISP_PROPS_LAYOUT_CURVE
  2
AecDbDispPropsLayoutCurve
  3
AecBase50|Product Desc: Autodesk Architectural Desktop 2007 |Company: Autodesk,Inc. |WEB Address: www.autodesk.com
 90
    32897
280
     0
281
     0
  0
CLASS
  1
AEC_DISP_PROPS_POLYGON_MODEL
  2
AecDbDispPropsPolygonModel
  3
AecBase50|Product Desc: Autodesk Architectural Desktop 2007 |Company: Autodesk,Inc. |WEB Address: www.autodesk.com
 90
    32897
280
     0
281
     0
  0
CLASS
  1
AEC_DISP_PROPS_MASS_GROUP
  2
AecDbDispPropsMassGroup
  3
AecBaseEx50|Product Desc: Autodesk Architectural Desktop 2007 |Company: Autodesk,Inc. |WEB Address: www.autodesk.com
 90
    32897
280
     0
281
     0
  0
CLASS
  1
AEC_DISP_PROPS_STAIR_PLAN
  2
AecDbDispPropsStairPlan
  3
AecArchBase50|Product Desc: Autodesk Architectural Desktop 2007 |Company: Autodesk,Inc. |WEB Address: www.autodesk.com
 90
    32897
280
     0
281
     0
  0
CLASS
  1
AEC_DISP_PROPS_OPENING
  2
AecDbDispPropsOpening
  3
AecArchBase50|Product Desc: Autodesk Architectural Desktop 2007 |Company: Autodesk,Inc. |WEB Address: www.autodesk.com
 90
    32897
280
     0
281
     0
  0
CLASS
  1
AEC_DISP_PROPS_WALL_GRAPH
  2
AecDbDispPropsWallGraph
  3
AecArchBase50|Product Desc: Autodesk Architectural Desktop 2007 |Company: Autodesk,Inc. |WEB Address: www.autodesk.com
 90
    32897
280
     0
281
     0
  0
CLASS
  1
AEC_DISP_PROPS_DOOR_NOMINAL
  2
AecDbDispPropsDoorNominal
  3
AecArchBase50|Product Desc: Autodesk Architectural Desktop 2007 |Company: Autodesk,Inc. |WEB Address: www.autodesk.com
 90
    32897
280
     0
281
     0
  0
CLASS
  1
AEC_DISP_PROPS_SLAB
  2
AecDbDispPropsSlab
  3
AecArchBase50|Product Desc: Autodesk Architectural Desktop 2007 |Company: Autodesk,Inc. |WEB Address: www.autodesk.com
 90
    32897
280
     0
281
     0
  0
CLASS
  1
AEC_DISP_PROPS_WALL_MODEL
  2
AecDbDispPropsWallModel
  3
AecArchBase50|Product Desc: Autodesk Architectural Desktop 2007 |Company: Autodesk,Inc. |WEB Address: www.autodesk.com
 90
    32897
280
     0
281
     0
  0
CLASS
  1
AEC_DISP_PROPS_MATERIAL
  2
AecDbDispPropsMaterial
  3
AecBase50|Product Desc: Autodesk Architectural Desktop 2007 |Company: Autodesk,Inc. |WEB Address: www.autodesk.com
 90
    32897
280
     0
281
     0
  0
CLASS
  1
AEC_DISP_PROPS_WINDOW
  2
AecDbDispPropsWindow
  3
AecArchBase50|Product Desc: Autodesk Architectural Desktop 2007 |Company: Autodesk,Inc. |WEB Address: www.autodesk.com
 90
    32897
280
     0
281
     0
  0
CLASS
  1
AEC_DISP_PROPS_LAYOUT_GRID3D
  2
AecDbDispPropsLayoutGrid3d
  3
AecBase50|Product Desc: Autodesk Architectural Desktop 2007 |Company: Autodesk,Inc. |WEB Address: www.autodesk.com
 90
    32897
280
     0
281
     0
  0
CLASS
  1
AEC_DISP_PROPS_GRID_ASSEMBLY_PLAN
  2
AecDbDispPropsGridAssemblyPlan
  3
AecArchBase50|Product Desc: Autodesk Architectural Desktop 2007 |Company: Autodesk,Inc. |WEB Address: www.autodesk.com
 90
    32897
280
     0
281
     0
  0
CLASS
  1
AEC_DISP_PROPS_WALL_SCHEM
  2
AecDbDispPropsWallSchem
  3
AecArchBase50|Product Desc: Autodesk Architectural Desktop 2007 |Company: Autodesk,Inc. |WEB Address: www.autodesk.com
 90
    32897
280
     0
281
     0
  0
CLASS
  1
AEC_DISP_PROPS_WALL_PLAN
  2
AecDbDispPropsWallPlan
  3
AecArchBase50|Product Desc: Autodesk Architectural Desktop 2007 |Company: Autodesk,Inc. |WEB Address: www.autodesk.com
 90
    32897
280
     0
281
     0
  0
CLASS
  1
AEC_DISP_PROPS_SPACE_BOUNDARY
  2
AecDbDispPropsSpaceBoundary
  3
AecArchBase50|Product Desc: Autodesk Architectural Desktop 2007 |Company: Autodesk,Inc. |WEB Address: www.autodesk.com
 90
    32897
280
     0
281
     0
  0
CLASS
  1
AEC_DISP_PROPS_SLAB_PLAN
  2
AecDbDispPropsSlabPlan
  3
AecArchBase50|Product Desc: Autodesk Architectural Desktop 2007 |Company: Autodesk,Inc. |WEB Address: www.autodesk.com
 90
    32897
280
     0
281
     0
  0
CLASS
  1
AEC_DISP_PROPS_RAILING_MODEL
  2
AecDbDispPropsRailingModel
  3
AecArchBase50|Product Desc: Autodesk Architectural Desktop 2007 |Company: Autodesk,Inc. |WEB Address: www.autodesk.com
 90
    32897
280
     0
281
     0
  0
CLASS
  1
AEC_DISP_PROPS_MASS_ELEM_MODEL
  2
AecDbDispPropsMassElem
  3
AecBaseEx50|Product Desc: Autodesk Architectural Desktop 2007 |Company: Autodesk,Inc. |WEB Address: www.autodesk.com
 90
    32897
280
     0
281
     0
  0
CLASS
  1
AEC_DISP_PROPS_DIM
  2
AecDbDispPropsDimGroup
  3
AecArchDACHBase50|Product Desc: Autodesk Architectural Desktop 2007 |Company: Autodesk,Inc. |WEB Address: www.autodesk.com
 90
    32897
280
     0
281
     0
  0
CLASS
  1
AEC_DISP_PROPS_ROOFSLAB
  2
AecDbDispPropsRoofSlab
  3
AecArchBase50|Product Desc: Autodesk Architectural Desktop 2007 |Company: Autodesk,Inc. |WEB Address: www.autodesk.com
 90
    32897
280
     0
281
     0
  0
CLASS
  1
AEC_DISP_PROPS_ENT_REF
  2
AecDbDispPropsEntRef
  3
AecBase50|Product Desc: Autodesk Architectural Desktop 2007 |Company: Autodesk,Inc. |WEB Address: www.autodesk.com
 90
    32897
280
     0
281
     0
  0
CLASS
  1
AEC_DISP_PROPS_2D_SECTION
  2
AecDbDispProps2dSection
  3
AecBase50|Product Desc: Autodesk Architectural Desktop 2007 |Company: Autodesk,Inc. |WEB Address: www.autodesk.com
 90
    32897
280
     0
281
     0
  0
CLASS
  1
AECS_DISP_PROPS_MEMBER_LOGICAL
  2
AecsDbDispPropsMemberLogical
  3
AecStructureBase50|Product Desc: Autodesk Architectural Desktop 2007 |Company: Autodesk,Inc. |WEB Address: www.autodesk.com
 90
    32897
280
     0
281
     0
  0
CLASS
  1
AEC_DISP_PROPS_AREA_DECOMPOSED
  2
AecDbDispPropsAreaDecomposed
  3
AecAreaCalculationBase50|Product Desc: Autodesk Architectural Desktop 2007 |Company: Autodesk,Inc. |WEB Address: www.autodesk.com
 90
    32897
280
     0
281
     0
  0
CLASS
  1
AEC_DISP_PROPS_CAMERA
  2
AecDbDispPropsCamera
  3
AecBase50|Product Desc: Autodesk Architectural Desktop 2007 |Company: Autodesk,Inc. |WEB Address: www.autodesk.com
 90
    32897
280
     0
281
     0
  0
CLASS
  1
AECS_DISP_PROPS_MEMBER
  2
AecsDbDispPropsMember
  3
AecStructureBase50|Product Desc: Autodesk Architectural Desktop 2007 |Company: Autodesk,Inc. |WEB Address: www.autodesk.com
 90
    32897
280
     0
281
     0
  0
CLASS
  1
AECS_DISP_PROPS_MEMBER_PLAN
  2
AecsDbDispPropsMemberPlan
  3
AecStructureBase50|Product Desc: Autodesk Architectural Desktop 2007 |Company: Autodesk,Inc. |WEB Address: www.autodesk.com
 90
    32897
280
     0
281
     0
  0
CLASS
  1
AEC_DISP_PROPS_AREAGROUP
  2
AecDbDispPropsAreaGroup
  3
AecAreaCalculationBase50|Product Desc: Autodesk Architectural Desktop 2007 |Company: Autodesk,Inc. |WEB Address: www.autodesk.com
 90
    32897
280
     0
281
     0
  0
CLASS
  1
AEC_DISP_PROPS_WINDOW_NOMINAL
  2
AecDbDispPropsWindowNominal
  3
AecArchBase50|Product Desc: Autodesk Architectural Desktop 2007 |Company: Autodesk,Inc. |WEB Address: www.autodesk.com
 90
    32897
280
     0
281
     0
  0
CLASS
  1
AEC_DISP_PROPS_AREA
  2
AecDbDispPropsArea
  3
AecAreaCalculationBase50|Product Desc: Autodesk Architectural Desktop 2007 |Company: Autodesk,Inc. |WEB Address: www.autodesk.com
 90
    32897
280
     0
281
     0
  0
CLASS
  1
AEC_DISP_PROPS_SCHEDULE_TABLE
  2
AecDbDispPropsScheduleTable
  3
AecSchedule50|Product Desc: Autodesk Architectural Desktop 2007 |Company: Autodesk,Inc. |WEB Address: www.autodesk.com
 90
    32897
280
     0
281
     0
  0
CLASS
  1
AEC_LAYERKEY_STYLE
  2
AecDbLayerKeyStyle
  3
AecBase50|Product Desc: Autodesk Architectural Desktop 2007 |Company: Autodesk,Inc. |WEB Address: www.autodesk.com
 90
    32897
280
     0
281
     0
  0
CLASS
  1
AEC_VARS_ARCHBASE
  2
AecDbVarsArchBase
  3
AecArchBase50|Product Desc: Autodesk Architectural Desktop 2007 |Company: Autodesk,Inc. |WEB Address: www.autodesk.com
 90
    32897
280
     0
281
     0
  0
CLASS
  1
AEC_VARS_MUNICH
  2
AecDbVarsMunich
  3
AecArchDACHBase50|Product Desc: Autodesk Architectural Desktop 2007 |Company: Autodesk,Inc. |WEB Address: www.autodesk.com
 90
    32897
280
     0
281
     0
  0
CLASS
  1
AEC_NOTIFICATION_TRACKER
  2
AecDbNotificationTracker
  3
AecBase50|Product Desc: Autodesk Architectural Desktop 2007 |Company: Autodesk,Inc. |WEB Address: www.autodesk.com
 90
    32897
280
     0
281
     0
  0
CLASS
  1
AEC_DISP_REP_ANCHOR
  2
AecDbDispRepAnchor
  3
AecBase50|Product Desc: Autodesk Architectural Desktop 2007 |Company: Autodesk,Inc. |WEB Address: www.autodesk.com
 90
    32897
280
     0
281
     0
  0
CLASS
  1
AEC_DISP_REP_POLYGON_TRUECOLOUR
  2
AecDbDispRepPolygonTrueColour
  3
AecBase50|Product Desc: Autodesk Architectural Desktop 2007 |Company: Autodesk,Inc. |WEB Address: www.autodesk.com
 90
    32897
280
     0
281
     0
  0
CLASS
  1
AEC_DISP_PROPS_POLYGON_TRUECOLOUR
  2
AecDbDispPropsPolygonTrueColour
  3
AecBase50|Product Desc: Autodesk Architectural Desktop 2007 |Company: Autodesk,Inc. |WEB Address: www.autodesk.com
 90
    32897
280
     0
281
     0
  0
CLASS
  1
AEC_DISP_REP_BDG_ELEVLINE_RCP
  2
AecDbDispRepBdgElevLineRcp
  3
AecArchBase50|Product Desc: Autodesk Architectural Desktop 2007 |Company: Autodesk,Inc. |WEB Address: www.autodesk.com
 90
    32897
280
     0
281
     0
  0
CLASS
  1
AEC_DISP_REP_BDG_SECTIONLINE_RCP
  2
AecDbDispRepBdgSectionLineRcp
  3
AecArchBase50|Product Desc: Autodesk Architectural Desktop 2007 |Company: Autodesk,Inc. |WEB Address: www.autodesk.com
 90
    32897
280
     0
281
     0
  0
CLASS
  1
AEC_DISP_REP_BDG_SECTION_MODEL
  2
AecDbDispRepBdgSectionModel
  3
AecArchBase50|Product Desc: Autodesk Architectural Desktop 2007 |Company: Autodesk,Inc. |WEB Address: www.autodesk.com
 90
    32897
280
     0
281
     0
  0
CLASS
  1
AEC_DISP_REP_DOOR_ELEV
  2
AecDbDispRepDoorElev
  3
AecArchBase50|Product Desc: Autodesk Architectural Desktop 2007 |Company: Autodesk,Inc. |WEB Address: www.autodesk.com
 90
    32897
280
     0
281
     0
  0
CLASS
  1
AEC_DISP_REP_DOOR_RCP
  2
AecDbDispRepDoorRcp
  3
AecArchBase50|Product Desc: Autodesk Architectural Desktop 2007 |Company: Autodesk,Inc. |WEB Address: www.autodesk.com
 90
    32897
280
     0
281
     0
  0
CLASS
  1
AEC_DISP_REP_DOOR_THRESHOLD_PLAN
  2
AecDbDispRepDoorThresholdPlan
  3
AecArchBase50|Product Desc: Autodesk Architectural Desktop 2007 |Company: Autodesk,Inc. |WEB Address: www.autodesk.com
 90
    32897
280
     0
281
     0
  0
CLASS
  1
AEC_DISP_PROPS_DOOR_THRESHOLD_PLAN
  2
AecDbDispPropsDoorThresholdPlan
  3
AecArchBase50|Product Desc: Autodesk Architectural Desktop 2007 |Company: Autodesk,Inc. |WEB Address: www.autodesk.com
 90
    32897
280
     0
281
     0
  0
CLASS
  1
AEC_DISP_REP_MASS_ELEM_RCP
  2
AecDbDispRepMassElemRcp
  3
AecArchBase50|Product Desc: Autodesk Architectural Desktop 2007 |Company: Autodesk,Inc. |WEB Address: www.autodesk.com
 90
    32897
280
     0
281
     0
  0
CLASS
  1
AEC_DISP_REP_MASS_GROUP_RCP
  2
AecDbDispRepMassGroupRcp
  3
AecArchBase50|Product Desc: Autodesk Architectural Desktop 2007 |Company: Autodesk,Inc. |WEB Address: www.autodesk.com
 90
    32897
280
     0
281
     0
  0
CLASS
  1
AEC_DISP_REP_MVBLOCK_REF_RCP
  2
AecDbDispRepMvBlockRefRcp
  3
AecArchBase50|Product Desc: Autodesk Architectural Desktop 2007 |Company: Autodesk,Inc. |WEB Address: www.autodesk.com
 90
    32897
280
     0
281
     0
  0
CLASS
  1
AEC_DISP_REP_ROOF_RCP
  2
AecDbDispRepRoofRcp
  3
AecArchBase50|Product Desc: Autodesk Architectural Desktop 2007 |Company: Autodesk,Inc. |WEB Address: www.autodesk.com
 90
    32897
280
     0
281
     0
  0
CLASS
  1
AEC_DISP_REP_SPACE_BOUNDARY_DIAGRAM
  2
AecDbDispRepSpaceBoundaryDgrm
  3
AecArchBase50|Product Desc: Autodesk Architectural Desktop 2007 |Company: Autodesk,Inc. |WEB Address: www.autodesk.com
 90
    32897
280
     0
281
     0
  0
CLASS
  1
AEC_DISP_REP_SPACE_RCP
  2
AecDbDispRepSpaceRcp
  3
AecArchBase50|Product Desc: Autodesk Architectural Desktop 2007 |Company: Autodesk,Inc. |WEB Address: www.autodesk.com
 90
    32897
280
     0
281
     0
  0
CLASS
  1
AEC_DISP_REP_SPACE_VOLUME
  2
AecDbDispRepSpaceVolume
  3
AecArchBase50|Product Desc: Autodesk Architectural Desktop 2007 |Company: Autodesk,Inc. |WEB Address: www.autodesk.com
 90
    32897
280
     0
281
     0
  0
CLASS
  1
AEC_DISP_REP_STAIR_PLAN_OVERLAPPING
  2
AecDbDispRepStairPlanOverlapping
  3
AecArchBase50|Product Desc: Autodesk Architectural Desktop 2007 |Company: Autodesk,Inc. |WEB Address: www.autodesk.com
 90
    32897
280
     0
281
     0
  0
CLASS
  1
AEC_DISP_PROPS_STAIR_PLAN_OVERLAPPING
  2
AecDbDispPropsStairPlanOverlapping
  3
AecArchBase50|Product Desc: Autodesk Architectural Desktop 2007 |Company: Autodesk,Inc. |WEB Address: www.autodesk.com
 90
    32897
280
     0
281
     0
  0
CLASS
  1
AEC_DISP_REP_STAIR_RCP
  2
AecDbDispRepStairRcp
  3
AecArchBase50|Product Desc: Autodesk Architectural Desktop 2007 |Company: Autodesk,Inc. |WEB Address: www.autodesk.com
 90
    32897
280
     0
281
     0
  0
CLASS
  1
AEC_DISP_REP_WALL_RCP
  2
AecDbDispRepWallRcp
  3
AecArchBase50|Product Desc: Autodesk Architectural Desktop 2007 |Company: Autodesk,Inc. |WEB Address: www.autodesk.com
 90
    32897
280
     0
281
     0
  0
CLASS
  1
AEC_DISP_REP_WINDOWASSEMBLY_SILL_PLAN
  2
AecDbDispRepWindowAssemblySillPlan
  3
AecArchBase50|Product Desc: Autodesk Architectural Desktop 2007 |Company: Autodesk,Inc. |WEB Address: www.autodesk.com
 90
    32897
280
     0
281
     0
  0
CLASS
  1
AEC_DISP_PROPS_WINDOW_ASSEMBLY_SILL_PLAN
  2
AecDbDispPropsWindowAssemblySillPlan
  3
AecArchBase50|Product Desc: Autodesk Architectural Desktop 2007 |Company: Autodesk,Inc. |WEB Address: www.autodesk.com
 90
    32897
280
     0
281
     0
  0
CLASS
  1
AEC_DISP_REP_WINDOW_ELEV
  2
AecDbDispRepWindowElev
  3
AecArchBase50|Product Desc: Autodesk Architectural Desktop 2007 |Company: Autodesk,Inc. |WEB Address: www.autodesk.com
 90
    32897
280
     0
281
     0
  0
CLASS
  1
AEC_DISP_REP_WINDOW_RCP
  2
AecDbDispRepWindowRcp
  3
AecArchBase50|Product Desc: Autodesk Architectural Desktop 2007 |Company: Autodesk,Inc. |WEB Address: www.autodesk.com
 90
    32897
280
     0
281
     0
  0
CLASS
  1
AEC_DISP_REP_WINDOW_SILL_PLAN
  2
AecDbDispRepWindowSillPlan
  3
AecArchBase50|Product Desc: Autodesk Architectural Desktop 2007 |Company: Autodesk,Inc. |WEB Address: www.autodesk.com
 90
    32897
280
     0
281
     0
  0
CLASS
  1
AEC_DISP_PROPS_WINDOW_SILL_PLAN
  2
AecDbDispPropsWindowSillPlan
  3
AecArchBase50|Product Desc: Autodesk Architectural Desktop 2007 |Company: Autodesk,Inc. |WEB Address: www.autodesk.com
 90
    32897
280
     0
281
     0
  0
CLASS
  1
AEC_DISP_REP_ANCHOR_BUB_TO_GRID_RCP
  2
AecDbDispRepAnchorBubToGridRcp
  3
AecStructureBase50|Product Desc: Autodesk Architectural Desktop 2007 |Company: Autodesk,Inc. |WEB Address: www.autodesk.com
 90
    32897
280
     0
281
     0
  0
CLASS
  1
AEC_DISP_REP_COLUMN_GRID_RCP
  2
AecDbDispRepColumnGridRcp
  3
AecStructureBase50|Product Desc: Autodesk Architectural Desktop 2007 |Company: Autodesk,Inc. |WEB Address: www.autodesk.com
 90
    32897
280
     0
281
     0
  0
CLASS
  1
AECS_DISP_REP_MEMBER_ELEVATION_DESIGN
  2
AecsDbDispRepMemberElevationDesign
  3
AecStructureBase50|Product Desc: Autodesk Architectural Desktop 2007 |Company: Autodesk,Inc. |WEB Address: www.autodesk.com
 90
    32897
280
     0
281
     0
  0
CLASS
  1
AECS_DISP_PROPS_MEMBER_PROJECTED
  2
AecsDbDispPropsMemberProjected
  3
AecStructureBase50|Product Desc: Autodesk Architectural Desktop 2007 |Company: Autodesk,Inc. |WEB Address: www.autodesk.com
 90
    32897
280
     0
281
     0
  0
CLASS
  1
AECS_DISP_REP_MEMBER_ELEVATION_DETAIL
  2
AecsDbDispRepMemberElevationDetail
  3
AecStructureBase50|Product Desc: Autodesk Architectural Desktop 2007 |Company: Autodesk,Inc. |WEB Address: www.autodesk.com
 90
    32897
280
     0
281
     0
  0
CLASS
  1
AECS_DISP_REP_MEMBER_MODEL_DETAIL
  2
AecsDbDispRepMemberModelDetail
  3
AecStructureBase50|Product Desc: Autodesk Architectural Desktop 2007 |Company: Autodesk,Inc. |WEB Address: www.autodesk.com
 90
    32897
280
     0
281
     0
  0
CLASS
  1
AECS_DISP_REP_MEMBER_PLAN_DETAIL
  2
AecsDbDispRepMemberPlanDetail
  3
AecStructureBase50|Product Desc: Autodesk Architectural Desktop 2007 |Company: Autodesk,Inc. |WEB Address: www.autodesk.com
 90
    32897
280
     0
281
     0
  0
CLASS
  1
AECS_DISP_REP_MEMBER_PLAN_SKETCH
  2
AecsDbDispRepMemberPlanSketch
  3
AecStructureBase50|Product Desc: Autodesk Architectural Desktop 2007 |Company: Autodesk,Inc. |WEB Address: www.autodesk.com
 90
    32897
280
     0
281
     0
  0
CLASS
  1
AECS_DISP_PROPS_MEMBER_PLAN_SKETCH
  2
AecsDbDispPropsMemberPlanSketch
  3
AecStructureBase50|Product Desc: Autodesk Architectural Desktop 2007 |Company: Autodesk,Inc. |WEB Address: www.autodesk.com
 90
    32897
280
     0
281
     0
  0
CLASS
  1
AEC_AECDBDISPREPAREA100
  2
AecDbDispRepArea100
  3
AecArchDACHBase50|Product Desc: Autodesk Architectural Desktop 2007 |Company: Autodesk,Inc. |WEB Address: www.autodesk.com
 90
    32897
280
     0
281
     0
  0
CLASS
  1
AEC_AECDBDISPREPAREAGROUP100
  2
AecDbDispRepAreaGroup100
  3
AecArchDACHBase50|Product Desc: Autodesk Architectural Desktop 2007 |Company: Autodesk,Inc. |WEB Address: www.autodesk.com
 90
    32897
280
     0
281
     0
  0
CLASS
  1
AEC_AECDBDISPREPBDGELEVLINEPLAN100
  2
AecDbDispRepBdgElevLinePlan100
  3
AecArchDACHBase50|Product Desc: Autodesk Architectural Desktop 2007 |Company: Autodesk,Inc. |WEB Address: www.autodesk.com
 90
    32897
280
     0
281
     0
  0
CLASS
  1
AEC_AECDBDISPREPBDGSECTIONLINEPLAN100
  2
AecDbDispRepBdgSectionLinePlan100
  3
AecArchDACHBase50|Product Desc: Autodesk Architectural Desktop 2007 |Company: Autodesk,Inc. |WEB Address: www.autodesk.com
 90
    32897
280
     0
281
     0
  0
CLASS
  1
AEC_AECDBDISPREPCEILINGGRIDPLAN100
  2
AecDbDispRepCeilingGridPlan100
  3
AecArchDACHBase50|Product Desc: Autodesk Architectural Desktop 2007 |Company: Autodesk,Inc. |WEB Address: www.autodesk.com
 90
    32897
280
     0
281
     0
  0
CLASS
  1
AEC_AECDBDISPREPCOLUMNGRIDPLAN100
  2
AecDbDispRepColumnGridPlan100
  3
AecArchDACHBase50|Product Desc: Autodesk Architectural Desktop 2007 |Company: Autodesk,Inc. |WEB Address: www.autodesk.com
 90
    32897
280
     0
281
     0
  0
CLASS
  1
AEC_AECDBDISPREPCURTAINWALLLAYOUTPLAN100
  2
AecDbDispRepCurtainWallLayoutPlan100
  3
AecArchDACHBase50|Product Desc: Autodesk Architectural Desktop 2007 |Company: Autodesk,Inc. |WEB Address: www.autodesk.com
 90
    32897
280
     0
281
     0
  0
CLASS
  1
AEC_AECDBDISPREPCURTAINWALLUNITPLAN100
  2
AecDbDispRepCurtainWallUnitPlan100
  3
AecArchDACHBase50|Product Desc: Autodesk Architectural Desktop 2007 |Company: Autodesk,Inc. |WEB Address: www.autodesk.com
 90
    32897
280
     0
281
     0
  0
CLASS
  1
AEC_AECDBDISPREPMVBLOCKREFPLAN100
  2
AecDbDispRepMvBlockRefPlan100
  3
AecArchDACHBase50|Product Desc: Autodesk Architectural Desktop 2007 |Company: Autodesk,Inc. |WEB Address: www.autodesk.com
 90
    32897
280
     0
281
     0
  0
CLASS
  1
AEC_AECDBDISPREPROOFPLAN100
  2
AecDbDispRepRoofPlan100
  3
AecArchDACHBase50|Product Desc: Autodesk Architectural Desktop 2007 |Company: Autodesk,Inc. |WEB Address: www.autodesk.com
 90
    32897
280
     0
281
     0
  0
CLASS
  1
AEC_AECDBDISPREPROOFSLABPLAN100
  2
AecDbDispRepRoofSlabPlan100
  3
AecArchDACHBase50|Product Desc: Autodesk Architectural Desktop 2007 |Company: Autodesk,Inc. |WEB Address: www.autodesk.com
 90
    32897
280
     0
281
     0
  0
CLASS
  1
AEC_AECDBDISPREPSLABPLAN100
  2
AecDbDispRepSlabPlan100
  3
AecArchDACHBase50|Product Desc: Autodesk Architectural Desktop 2007 |Company: Autodesk,Inc. |WEB Address: www.autodesk.com
 90
    32897
280
     0
281
     0
  0
CLASS
  1
AEC_AECDBDISPREPSPACEBOUNDARYPLAN100
  2
AecDbDispRepSpaceBoundaryPlan100
  3
AecArchDACHBase50|Product Desc: Autodesk Architectural Desktop 2007 |Company: Autodesk,Inc. |WEB Address: www.autodesk.com
 90
    32897
280
     0
281
     0
  0
CLASS
  1
AEC_AECDBDISPREPSPACEPLAN100
  2
AecDbDispRepSpacePlan100
  3
AecArchDACHBase50|Product Desc: Autodesk Architectural Desktop 2007 |Company: Autodesk,Inc. |WEB Address: www.autodesk.com
 90
    32897
280
     0
281
     0
  0
CLASS
  1
AEC_AECDBDISPREPWALLPLAN100
  2
AecDbDispRepWallPlan100
  3
AecArchDACHBase50|Product Desc: Autodesk Architectural Desktop 2007 |Company: Autodesk,Inc. |WEB Address: www.autodesk.com
 90
    32897
280
     0
281
     0
  0
CLASS
  1
AEC_AECDBDISPREPAREA50
  2
AecDbDispRepArea50
  3
AecArchDACHBase50|Product Desc: Autodesk Architectural Desktop 2007 |Company: Autodesk,Inc. |WEB Address: www.autodesk.com
 90
    32897
280
     0
281
     0
  0
CLASS
  1
AEC_AECDBDISPREPAREAGROUP50
  2
AecDbDispRepAreaGroup50
  3
AecArchDACHBase50|Product Desc: Autodesk Architectural Desktop 2007 |Company: Autodesk,Inc. |WEB Address: www.autodesk.com
 90
    32897
280
     0
281
     0
  0
CLASS
  1
AEC_AECDBDISPREPBDGELEVLINEPLAN50
  2
AecDbDispRepBdgElevLinePlan50
  3
AecArchDACHBase50|Product Desc: Autodesk Architectural Desktop 2007 |Company: Autodesk,Inc. |WEB Address: www.autodesk.com
 90
    32897
280
     0
281
     0
  0
CLASS
  1
AEC_AECDBDISPREPBDGSECTIONLINEPLAN50
  2
AecDbDispRepBdgSectionLinePlan50
  3
AecArchDACHBase50|Product Desc: Autodesk Architectural Desktop 2007 |Company: Autodesk,Inc. |WEB Address: www.autodesk.com
 90
    32897
280
     0
281
     0
  0
CLASS
  1
AEC_AECDBDISPREPCEILINGGRIDPLAN50
  2
AecDbDispRepCeilingGridPlan50
  3
AecArchDACHBase50|Product Desc: Autodesk Architectural Desktop 2007 |Company: Autodesk,Inc. |WEB Address: www.autodesk.com
 90
    32897
280
     0
281
     0
  0
CLASS
  1
AEC_AECDBDISPREPCOLUMNGRIDPLAN50
  2
AecDbDispRepColumnGridPlan50
  3
AecArchDACHBase50|Product Desc: Autodesk Architectural Desktop 2007 |Company: Autodesk,Inc. |WEB Address: www.autodesk.com
 90
    32897
280
     0
281
     0
  0
CLASS
  1
AEC_AECDBDISPREPCURTAINWALLLAYOUTPLAN50
  2
AecDbDispRepCurtainWallLayoutPlan50
  3
AecArchDACHBase50|Product Desc: Autodesk Architectural Desktop 2007 |Company: Autodesk,Inc. |WEB Address: www.autodesk.com
 90
    32897
280
     0
281
     0
  0
CLASS
  1
AEC_AECDBDISPREPCURTAINWALLUNITPLAN50
  2
AecDbDispRepCurtainWallUnitPlan50
  3
AecArchDACHBase50|Product Desc: Autodesk Architectural Desktop 2007 |Company: Autodesk,Inc. |WEB Address: www.autodesk.com
 90
    32897
280
     0
281
     0
  0
CLASS
  1
AEC_AECDBDISPREPMVBLOCKREFPLAN50
  2
AecDbDispRepMvBlockRefPlan50
  3
AecArchDACHBase50|Product Desc: Autodesk Architectural Desktop 2007 |Company: Autodesk,Inc. |WEB Address: www.autodesk.com
 90
    32897
280
     0
281
     0
  0
CLASS
  1
AEC_AECDBDISPREPROOFPLAN50
  2
AecDbDispRepRoofPlan50
  3
AecArchDACHBase50|Product Desc: Autodesk Architectural Desktop 2007 |Company: Autodesk,Inc. |WEB Address: www.autodesk.com
 90
    32897
280
     0
281
     0
  0
CLASS
  1
AEC_AECDBDISPREPROOFSLABPLAN50
  2
AecDbDispRepRoofSlabPlan50
  3
AecArchDACHBase50|Product Desc: Autodesk Architectural Desktop 2007 |Company: Autodesk,Inc. |WEB Address: www.autodesk.com
 90
    32897
280
     0
281
     0
  0
CLASS
  1
AEC_AECDBDISPREPSLABPLAN50
  2
AecDbDispRepSlabPlan50
  3
AecArchDACHBase50|Product Desc: Autodesk Architectural Desktop 2007 |Company: Autodesk,Inc. |WEB Address: www.autodesk.com
 90
    32897
280
     0
281
     0
  0
CLASS
  1
AEC_AECDBDISPREPSPACEBOUNDARYPLAN50
  2
AecDbDispRepSpaceBoundaryPlan50
  3
AecArchDACHBase50|Product Desc: Autodesk Architectural Desktop 2007 |Company: Autodesk,Inc. |WEB Address: www.autodesk.com
 90
    32897
280
     0
281
     0
  0
CLASS
  1
AEC_AECDBDISPREPSPACEPLAN50
  2
AecDbDispRepSpacePlan50
  3
AecArchDACHBase50|Product Desc: Autodesk Architectural Desktop 2007 |Company: Autodesk,Inc. |WEB Address: www.autodesk.com
 90
    32897
280
     0
281
     0
  0
CLASS
  1
AEC_AECDBDISPREPWALLPLAN50
  2
AecDbDispRepWallPlan50
  3
AecArchDACHBase50|Product Desc: Autodesk Architectural Desktop 2007 |Company: Autodesk,Inc. |WEB Address: www.autodesk.com
 90
    32897
280
     0
281
     0
  0
CLASS
  1
AEC_AECDBDISPREPWINDOWASSEMBLYPLAN50
  2
AecDbDispRepWindowAssemblyPlan50
  3
AecArchDACHBase50|Product Desc: Autodesk Architectural Desktop 2007 |Company: Autodesk,Inc. |WEB Address: www.autodesk.com
 90
    32897
280
     0
281
     0
  0
CLASS
  1
AEC_DB_DISP_REP_DIM_GROUP_PLAN100
  2
AecDbDispRepDimGroupPlan100
  3
AecArchDACHBase50|Product Desc: Autodesk Architectural Desktop 2007 |Company: Autodesk,Inc. |WEB Address: www.autodesk.com
 90
    32897
280
     0
281
     0
  0
CLASS
  1
AEC_DB_DISP_REP_DIM_GROUP_PLAN50
  2
AecDbDispRepDimGroupPlan50
  3
AecArchDACHBase50|Product Desc: Autodesk Architectural Desktop 2007 |Company: Autodesk,Inc. |WEB Address: www.autodesk.com
 90
    32897
280
     0
281
     0
  0
CLASS
  1
AEC_DISP_REP_DOOR_PLAN_50
  2
AecDbDispRepDoorPlan50
  3
AecArchDACHBase50|Product Desc: Autodesk Architectural Desktop 2007 |Company: Autodesk,Inc. |WEB Address: www.autodesk.com
 90
    32897
280
     0
281
     0
  0
CLASS
  1
AEC_DISP_PROPS_DOOR_PLAN_50
  2
AecDbDispPropsDoorPlan50
  3
AecArchDACHBase50|Product Desc: Autodesk Architectural Desktop 2007 |Company: Autodesk,Inc. |WEB Address: www.autodesk.com
 90
    32897
280
     0
281
     0
  0
CLASS
  1
AEC_DISP_REP_DOOR_PLAN_HEKTO
  2
AecDbDispRepDoorPlanHekto
  3
AecArchDACHBase50|Product Desc: Autodesk Architectural Desktop 2007 |Company: Autodesk,Inc. |WEB Address: www.autodesk.com
 90
    32897
280
     0
281
     0
  0
CLASS
  1
AEC_DISP_PROPS_DOOR_PLAN_100
  2
AecDbDispPropsDoorPlan100
  3
AecArchDACHBase50|Product Desc: Autodesk Architectural Desktop 2007 |Company: Autodesk,Inc. |WEB Address: www.autodesk.com
 90
    32897
280
     0
281
     0
  0
CLASS
  1
AEC_DISP_REP_DOOR_THRESHOLD_SYMBOL_PLAN
  2
AecDbDispRepDoorThresholdSymbolPlan
  3
AecArchDACHBase50|Product Desc: Autodesk Architectural Desktop 2007 |Company: Autodesk,Inc. |WEB Address: www.autodesk.com
 90
    32897
280
     0
281
     0
  0
CLASS
  1
AEC_DISP_PROPS_DOOR_THRESHOLD_SYMBOL_PLAN
  2
AecDbDispPropsDoorThresholdSymbolPlan
  3
AecArchDACHBase50|Product Desc: Autodesk Architectural Desktop 2007 |Company: Autodesk,Inc. |WEB Address: www.autodesk.com
 90
    32897
280
     0
281
     0
  0
CLASS
  1
AEC_DISPREPAECDBDISPREPMASSELEMPLAN100
  2
AecDbDispRepMassElemPlan100
  3
AecArchDACHBase50|Product Desc: Autodesk Architectural Desktop 2007 |Company: Autodesk,Inc. |WEB Address: www.autodesk.com
 90
    32897
280
     0
281
     0
  0
CLASS
  1
AEC_DISPROPSMASSELEMPLANCOMMON
  2
AecDbDispPropsMassElemPlanCommon
  3
AecArchDACHBase50|Product Desc: Autodesk Architectural Desktop 2007 |Company: Autodesk,Inc. |WEB Address: www.autodesk.com
 90
    32897
280
     0
281
     0
  0
CLASS
  1
AEC_DISPREPAECDBDISPREPMASSELEMPLAN50
  2
AecDbDispRepMassElemPlan50
  3
AecArchDACHBase50|Product Desc: Autodesk Architectural Desktop 2007 |Company: Autodesk,Inc. |WEB Address: www.autodesk.com
 90
    32897
280
     0
281
     0
  0
CLASS
  1
AEC_DISPREPAECDBDISPREPMASSGROUPPLAN100
  2
AecDbDispRepMassGroupPlan100
  3
AecArchDACHBase50|Product Desc: Autodesk Architectural Desktop 2007 |Company: Autodesk,Inc. |WEB Address: www.autodesk.com
 90
    32897
280
     0
281
     0
  0
CLASS
  1
AEC_DISPROPSMASSGROUPPLANCOMMON
  2
AecDbDispPropsMassGroupPlanCommon
  3
AecArchDACHBase50|Product Desc: Autodesk Architectural Desktop 2007 |Company: Autodesk,Inc. |WEB Address: www.autodesk.com
 90
    32897
280
     0
281
     0
  0
CLASS
  1
AEC_DISPREPAECDBDISPREPMASSGROUPPLAN50
  2
AecDbDispRepMassGroupPlan50
  3
AecArchDACHBase50|Product Desc: Autodesk Architectural Desktop 2007 |Company: Autodesk,Inc. |WEB Address: www.autodesk.com
 90
    32897
280
     0
281
     0
  0
CLASS
  1
AEC_DISPREPAECDBDISPREPOPENINGPLAN100
  2
AecDbDispRepOpeningPlan100
  3
AecArchDACHBase50|Product Desc: Autodesk Architectural Desktop 2007 |Company: Autodesk,Inc. |WEB Address: www.autodesk.com
 90
    32897
280
     0
281
     0
  0
CLASS
  1
AEC_DISPROPSOPENINGPLANCOMMONHATCHED
  2
AecDbDispPropsOpeningPlanCommonHatched
  3
AecArchDACHBase50|Product Desc: Autodesk Architectural Desktop 2007 |Company: Autodesk,Inc. |WEB Address: www.autodesk.com
 90
    32897
280
     0
281
     0
  0
CLASS
  1
AEC_DISPREPAECDBDISPREPOPENINGPLAN50
  2
AecDbDispRepOpeningPlan50
  3
AecArchDACHBase50|Product Desc: Autodesk Architectural Desktop 2007 |Company: Autodesk,Inc. |WEB Address: www.autodesk.com
 90
    32897
280
     0
281
     0
  0
CLASS
  1
AEC_DISPREPAECDBDISPREPOPENINGPLANREFLECTED
  2
AecDbDispRepOpeningPlanReflected
  3
AecArchDACHBase50|Product Desc: Autodesk Architectural Desktop 2007 |Company: Autodesk,Inc. |WEB Address: www.autodesk.com
 90
    32897
280
     0
281
     0
  0
CLASS
  1
AEC_DISPROPSOPENINGPLANCOMMON
  2
AecDbDispPropsOpeningPlanCommon
  3
AecArchDACHBase50|Product Desc: Autodesk Architectural Desktop 2007 |Company: Autodesk,Inc. |WEB Address: www.autodesk.com
 90
    32897
280
     0
281
     0
  0
CLASS
  1
AEC_DISPREPAECDBDISPREPOPENINGSILLPLAN
  2
AecDbDispRepOpeningSillPlan
  3
AecArchDACHBase50|Product Desc: Autodesk Architectural Desktop 2007 |Company: Autodesk,Inc. |WEB Address: www.autodesk.com
 90
    32897
280
     0
281
     0
  0
CLASS
  1
AEC_DISPROPSOPENINGSILLPLAN
  2
AecDbDispPropsOpeningSillPlan
  3
AecArchDACHBase50|Product Desc: Autodesk Architectural Desktop 2007 |Company: Autodesk,Inc. |WEB Address: www.autodesk.com
 90
    32897
280
     0
281
     0
  0
CLASS
  1
AEC_DISP_REP_RAILING_PLAN_100
  2
AecDbDispRepRailingPlan100
  3
AecArchDACHBase50|Product Desc: Autodesk Architectural Desktop 2007 |Company: Autodesk,Inc. |WEB Address: www.autodesk.com
 90
    32897
280
     0
281
     0
  0
CLASS
  1
AEC_DISP_ROPS_RAILING_PLAN_100
  2
AecDbDispPropsRailingPlan100
  3
AecArchDACHBase50|Product Desc: Autodesk Architectural Desktop 2007 |Company: Autodesk,Inc. |WEB Address: www.autodesk.com
 90
    32897
280
     0
281
     0
  0
CLASS
  1
AEC_DISP_REP_RAILING_PLAN_50
  2
AecDbDispRepRailingPlan50
  3
AecArchDACHBase50|Product Desc: Autodesk Architectural Desktop 2007 |Company: Autodesk,Inc. |WEB Address: www.autodesk.com
 90
    32897
280
     0
281
     0
  0
CLASS
  1
AEC_DISP_ROPS_RAILING_PLAN_50
  2
AecDbDispPropsRailingPlan50
  3
AecArchDACHBase50|Product Desc: Autodesk Architectural Desktop 2007 |Company: Autodesk,Inc. |WEB Address: www.autodesk.com
 90
    32897
280
     0
281
     0
  0
CLASS
  1
AEC_DISP_REP_STAIR_PLAN_100
  2
AecDbDispRepStairPlan100
  3
AecArchDACHBase50|Product Desc: Autodesk Architectural Desktop 2007 |Company: Autodesk,Inc. |WEB Address: www.autodesk.com
 90
    32897
280
     0
281
     0
  0
CLASS
  1
AEC_DISP_ROPS_STAIR_PLAN_100
  2
AecDbDispPropsStairPlan100
  3
AecArchDACHBase50|Product Desc: Autodesk Architectural Desktop 2007 |Company: Autodesk,Inc. |WEB Address: www.autodesk.com
 90
    32897
280
     0
281
     0
  0
CLASS
  1
AEC_DISP_REP_STAIR_PLAN_50
  2
AecDbDispRepStairPlan50
  3
AecArchDACHBase50|Product Desc: Autodesk Architectural Desktop 2007 |Company: Autodesk,Inc. |WEB Address: www.autodesk.com
 90
    32897
280
     0
281
     0
  0
CLASS
  1
AEC_DISP_ROPS_STAIR_PLAN_50
  2
AecDbDispPropsStairPlan50
  3
AecArchDACHBase50|Product Desc: Autodesk Architectural Desktop 2007 |Company: Autodesk,Inc. |WEB Address: www.autodesk.com
 90
    32897
280
     0
281
     0
  0
CLASS
  1
AEC_DISP_REP_WINDOW_PLAN_100
  2
AecDbDispRepWindowPlan100
  3
AecArchDACHBase50|Product Desc: Autodesk Architectural Desktop 2007 |Company: Autodesk,Inc. |WEB Address: www.autodesk.com
 90
    32897
280
     0
281
     0
  0
CLASS
  1
AEC_DISP_PROPS_WINDOW_PLAN_100
  2
AecDbDispPropsWindowPlan100
  3
AecArchDACHBase50|Product Desc: Autodesk Architectural Desktop 2007 |Company: Autodesk,Inc. |WEB Address: www.autodesk.com
 90
    32897
280
     0
281
     0
  0
CLASS
  1
AEC_DISP_REP_WINDOW_PLAN_50
  2
AecDbDispRepWindowPlan50
  3
AecArchDACHBase50|Product Desc: Autodesk Architectural Desktop 2007 |Company: Autodesk,Inc. |WEB Address: www.autodesk.com
 90
    32897
280
     0
281
     0
  0
CLASS
  1
AEC_DISP_PROPS_WINDOW_PLAN_50
  2
AecDbDispPropsWindowPlan50
  3
AecArchDACHBase50|Product Desc: Autodesk Architectural Desktop 2007 |Company: Autodesk,Inc. |WEB Address: www.autodesk.com
 90
    32897
280
     0
281
     0
  0
CLASS
  1
BINRECORD
  2
AcAecBinRecord
  3
AecBase50|Product Desc: Autodesk Architectural Desktop 2007 |Company: Autodesk,Inc. |WEB Address: www.autodesk.com
 90
    32897
280
     0
281
     0
  0
CLASS
  1
SPATIAL_FILTER
  2
AcDbSpatialFilter
  3
ObjectDBX Classes
 90
    32768
280
     0
281
     0
  0
CLASS
  1
AEC_VARS_STRUCTUREBASE
  2
AecsDbVarsStructureBase
  3
AecStructureBase50|Product Desc: Autodesk Architectural Desktop 2007 |Company: Autodesk,Inc. |WEB Address: www.autodesk.com
 90
    32897
280
     0
281
     0
  0
CLASS
  1
DIMASSOC
  2
AcDbDimAssoc
  3
"AcDbDimAssoc|Product Desc:     AcDim ARX App For Dimension|Company:          Autodesk, Inc.|WEB Address:      www.autodesk.com"
 90
        0
280
     0
281
     0
  0
CLASS
  1
TABLESTYLE
  2
AcDbTableStyle
  3
ObjectDBX Classes
 90
     4095
280
     0
281
     0
  0
CLASS
  1
AEC_DISP_REP_DISPLAYTHEME
  2
AecDbDispRepDisplayTheme
  3
AecBase50|Product Desc: Autodesk Architectural Desktop 2007 |Company: Autodesk,Inc. |WEB Address: www.autodesk.com
 90
    32897
280
     0
281
     0
  0
CLASS
  1
AEC_DISP_PROPS_DISPLAYTHEME
  2
AecDbDispPropsDisplayTheme
  3
AecBase50|Product Desc: Autodesk Architectural Desktop 2007 |Company: Autodesk,Inc. |WEB Address: www.autodesk.com
 90
    32897
280
     0
281
     0
  0
CLASS
  1
AEC_DISP_REP_ANCHOR_EXT_TAG_TO_ENT
  2
AecDbDispRepAnchorExtendedTagToEnt
  3
AecScheduleData50|Product Desc: Autodesk Architectural Desktop 2007 |Company: Autodesk,Inc. |WEB Address: www.autodesk.com
 90
    32897
280
     0
281
     0
  0
CLASS
  1
MATERIAL
  2
AcDbMaterial
  3
ObjectDBX Classes
 90
     1153
280
     0
281
     0
  0
CLASS
  1
VISUALSTYLE
  2
AcDbVisualStyle
  3
ObjectDBX Classes
 90
     4095
280
     0
281
     0
  0
CLASS
  1
AEC_AECDBDISPREPZONE100
  2
AecDbDispRepZonePlan100
  3
AecArchDACHBase50|Product Desc: Autodesk Architectural Desktop 2007 |Company: Autodesk,Inc. |WEB Address: www.autodesk.com
 90
    32897
280
     0
281
     0
  0
CLASS
  1
AEC_DISP_PROPS_ZONE
  2
AecDbDispPropsZone
  3
AecArchBase50|Product Desc: Autodesk Architectural Desktop 2007 |Company: Autodesk,Inc. |WEB Address: www.autodesk.com
 90
    32897
280
     0
281
     0
  0
CLASS
  1
AEC_AECDBDISPREPZONE50
  2
AecDbDispRepZonePlan50
  3
AecArchDACHBase50|Product Desc: Autodesk Architectural Desktop 2007 |Company: Autodesk,Inc. |WEB Address: www.autodesk.com
 90
    32897
280
     0
281
     0
  0
CLASS
  1
AEC_DISP_REP_SPACE_DECOMPOSED
  2
AecDbDispRepSpaceDecomposed
  3
AecArchBase50|Product Desc: Autodesk Architectural Desktop 2007 |Company: Autodesk,Inc. |WEB Address: www.autodesk.com
 90
    32897
280
     0
281
     0
  0
CLASS
  1
AEC_DISP_PROPS_SPACE_DECOMPOSED
  2
AecDbDispPropsSpaceDecomposed
  3
AecArchBase50|Product Desc: Autodesk Architectural Desktop 2007 |Company: Autodesk,Inc. |WEB Address: www.autodesk.com
 90
    32897
280
     0
281
     0
  0
CLASS
  1
AEC_DISP_REP_ZONE
  2
AecDbDispRepZone
  3
AecArchBase50|Product Desc: Autodesk Architectural Desktop 2007 |Company: Autodesk,Inc. |WEB Address: www.autodesk.com
 90
    32897
280
     0
281
     0
  0
CLASS
  1
EXACXREFPANELOBJECT
  2
ExAcXREFPanelObject
  3
EXAC_ESW
 90
    33793
280
     1
281
     0
  0
CLASS
  1
NPOCOLLECTION
  2
AcDbImpNonPersistentObjectsCollection
  3
ObjectDBX Classes
 90
    33921
280
     0
281
     0
  0
CLASS
  1
SCALE
  2
AcDbScale
  3
ObjectDBX Classes
 90
     1153
280
     0
281
     0
  0
CLASS
  1
MLEADERSTYLE
  2
AcDbMLeaderStyle
  3
ACDB_MLEADERSTYLE_CLASS
 90
     4095
280
     0
281
     0
  0
CLASS
  1
SOLID_BACKGROUND
  2
AcDbSolidBackground
  3
SCENEOE
 90
    36863
280
     0
281
     0
  0
CLASS
  1
CELLSTYLEMAP
  2
AcDbCellStyleMap
  3
ObjectDBX Classes
 90
     1152
280
     0
281
     0
  0
ENDSEC
  0
SECTION
  2
TABLES
  0
TABLE
  2
VPORT
  5
20
330
0
100
AcDbSymbolTable
 70
     1
  0
VPORT
  5
21
330
20
100
AcDbSymbolTableRecord
100
AcDbViewportTableRecord
  2
*Active
 70
     0
 10
0.0
 20
0.0
 11
1.0
 21
1.0
 12
138334.5370852207
 22
48071.6748851811
 13
0.0
 23
0.0
 14
10.0
 24
10.0
 15
10.0
 25
10.0
 16
0.0
 26
0.0
 36
1.0
 17
0.0
 27
0.0
 37
0.0
 40
33933.53275125589
 41
1.561333333333333
 42
50.0
 43
0.0
 44
0.0
 50
0.0
 51
0.0
 71
     0
 72
  1000
 73
     1
 74
     1
 75
     0
 76
     0
 77
     0
 78
     0
281
     0
 65
     1
110
0.0
120
0.0
130
0.0
111
1.0
121
0.0
131
0.0
112
0.0
122
1.0
132
0.0
 79
     0
146
0.0
  0
ENDTAB
  0
TABLE
  2
LTYPE
  5
1B
330
0
100
AcDbSymbolTable
 70
     4
  0
LTYPE
  5
1C
330
1B
100
AcDbSymbolTableRecord
100
AcDbLinetypeTableRecord
  2
ByBlock
 70
     0
  3

 72
    65
 73
     0
 40
0.0
  0
LTYPE
  5
1D
330
1B
100
AcDbSymbolTableRecord
100
AcDbLinetypeTableRecord
  2
ByLayer
 70
     0
  3

 72
    65
 73
     0
 40
0.0
  0
LTYPE
  5
A
330
1B
100
AcDbSymbolTableRecord
100
AcDbLinetypeTableRecord
  2
Continuous
 70
     0
  3
Solid line
 72
    65
 73
     0
 40
0.0
  0
LTYPE
  5
406
330
1B
100
AcDbSymbolTableRecord
100
AcDbLinetypeTableRecord
  2
HIDDEN
 70
     0
  3
Hidden __ __ __ __ __ __ __ __ __ __ __ __ __ _
 72
    65
 73
     2
 40
0.375
 49
0.25
 74
     0
 49
-0.125
 74
     0
  0
ENDTAB
  0
TABLE
  2
LAYER
  5
15
102
{ACAD_XDICTIONARY
360
16
102
}
330
0
100
AcDbSymbolTable
 70
    10
  0
LAYER
  5
4
102
{ACAD_XDICTIONARY
360
F3E
102
}
330
15
100
AcDbSymbolTableRecord
100
AcDbLayerTableRecord
  2
0
 70
     0
 62
     7
  6
Continuous
370
    -3
390
5
  0
LAYER
  5
39
102
{ACAD_XDICTIONARY
360
F44
102
}
330
15
100
AcDbSymbolTableRecord
100
AcDbLayerTableRecord
  2
WYMIARY
 70
     0
 62
     1
  6
Continuous
370
    -3
390
5
  0
LAYER
  5
103
330
15
100
AcDbSymbolTableRecord
100
AcDbLayerTableRecord
  2
DEFPOINTS
 70
     0
 62
     7
  6
Continuous
290
     0
370
    -3
390
5
  0
LAYER
  5
516
102
{ACAD_XDICTIONARY
360
F46
102
}
330
15
100
AcDbSymbolTableRecord
100
AcDbLayerTableRecord
  2
RAMKI-A4
 70
     0
 62
     2
  6
Continuous
290
     0
370
    -3
390
5
  0
LAYER
  5
398
102
{ACAD_XDICTIONARY
360
F4A
102
}
330
15
100
AcDbSymbolTableRecord
100
AcDbLayerTableRecord
  2
NAPISY
 70
     0
 62
   140
  6
Continuous
370
    -3
390
5
  0
LAYER
  5
691
102
{ACAD_XDICTIONARY
360
692
102
}
330
15
100
AcDbSymbolTableRecord
100
AcDbLayerTableRecord
  2
0Hatch
 70
     0
 62
   122
  6
Continuous
370
     5
390
5
  0
ENDTAB
  0
TABLE
  2
STYLE
  5
18
330
0
100
AcDbSymbolTable
 70
     5
  0
STYLE
  5
19
330
18
100
AcDbSymbolTableRecord
100
AcDbTextStyleTableRecord
  2
Standard
 70
     0
 40
0.0
 41
1.0
 50
0.0
 71
     0
 42
2.5
  3
txt
  4

  0
STYLE
  5
26
330
18
100
AcDbSymbolTableRecord
100
AcDbTextStyleTableRecord
  2
ROMANS
 70
     0
 40
0.0
 41
0.9
 50
0.0
 71
     0
 42
20.0
  3
romans.shx
  4

  0
STYLE
  5
399
330
18
100
AcDbSymbolTableRecord
100
AcDbTextStyleTableRecord
  2
AVA
 70
     0
 40
0.0
 41
1.0
 50
0.0
 71
     0
 42
158.5644099714409
  3
ARIAL.TTF
  4

1001
ACAD
1000
Arial CE
1071
    60962
  0
STYLE
  5
693
330
18
100
AcDbSymbolTableRecord
100
AcDbTextStyleTableRecord
  2
ARIAL
 70
     0
 40
0.0
 41
1.0
 50
0.0
 71
     0
 42
15.0
  3
ARIAL.TTF
  4

1001
ACAD
1000
Arial CE
1071
    60962
  0
ENDTAB
  0
TABLE
  2
VIEW
  5
1E
330
0
100
AcDbSymbolTable
 70
     1
  0
VIEW
  5
E
330
1E
100
AcDbSymbolTableRecord
100
AcDbViewTableRecord
  2
DALIE_aneks
 70
     0
 40
14020.0
 10
230487.1523167869
 20
176727.5135321109
 41
10200.00000000003
 11
0.0
 21
0.0
 31
1.0
 12
0.0
 22
0.0
 32
0.0
 42
50.0
 43
0.0
 44
0.0
 50
0.0
 71
     0
281
     0
 72
     1
110
0.0
120
0.0
130
0.0
111
1.0
121
0.0
131
0.0
112
0.0
122
1.0
132
0.0
 79
     0
146
0.0
  0
ENDTAB
  0
TABLE
  2
UCS
  5
1F
330
0
100
AcDbSymbolTable
 70
     0
  0
ENDTAB
  0
TABLE
  2
APPID
  5
22
330
0
100
AcDbSymbolTable
 70
     5
  0
APPID
  5
23
330
22
100
AcDbSymbolTableRecord
100
AcDbRegAppTableRecord
  2
ACAD
 70
     0
  0
APPID
  5
5D8
330
22
100
AcDbSymbolTableRecord
100
AcDbRegAppTableRecord
  2
ACAD_MLEADERVER
 70
     0
  0
APPID
  5
695
330
22
100
AcDbSymbolTableRecord
100
AcDbRegAppTableRecord
  2
RAK
 70
     0
  0
APPID
  5
696
330
22
100
AcDbSymbolTableRecord
100
AcDbRegAppTableRecord
  2
ACAD_PSEXT
 70
     0
  0
APPID
  5
B31
330
22
100
AcDbSymbolTableRecord
100
AcDbRegAppTableRecord
  2
ACAD_EXEMPT_FROM_CAD_STANDARDS
 70
     0
  0
ENDTAB
  0
TABLE
  2
DIMSTYLE
  5
24
330
0
100
AcDbSymbolTable
 70
     5
100
AcDbDimStyleTable
 71
     2
340
25
340
2F
  0
DIMSTYLE
105
25
102
{ACAD_REACTORS
330
376
330
53B
330
530
330
525
330
4B6
330
567
330
507
330
4FA
330
4EF
330
4E2
330
4D7
330
4CC
330
4C1
330
55C
330
551
330
546
330
3CA
330
3BF
330
3FA
330
3D7
330
265
330
25A
330
270
330
3E2
330
3EF
330
407
330
293
330
2A0
330
38C
330
381
330
27B
330
2AB
330
35E
330
369
330
BB7
330
BB8
330
BB9
330
BBA
330
BBB
330
BBC
330
BBD
330
BBE
330
BC7
330
D08
330
D10
330
D11
330
D12
330
D58
330
D59
330
D5A
330
D5B
330
D5C
330
E98
330
EAE
330
EE2
330
EED
330
EF8
330
F03
330
F17
330
F23
102
}
330
24
100
AcDbSymbolTableRecord
100
AcDbDimStyleTableRecord
  2
500
 70
     0
 41
30.0
 42
43.0
 43
0.0
 44
13.0
 45
0.5
 46
12.0
 73
     0
 74
     0
 75
     1
 76
     1
 78
    12
140
80.0
141
0.0
145
1.0
147
0.0
172
     1
174
     1
176
     1
177
     1
178
    10
271
     1
272
     1
279
     2
340
26
341
27
342
27
  0
DIMSTYLE
105
2F
330
24
100
AcDbSymbolTableRecord
100
AcDbDimStyleTableRecord
  2
Standard
 70
     0
340
19
  0
ENDTAB
  0
TABLE
  2
BLOCK_RECORD
  5
1
330
0
100
AcDbSymbolTable
 70
   190
  0
BLOCK_RECORD
  5
2
102
{ACAD_XDICTIONARY
360
B3B
102
}
330
1
100
AcDbSymbolTableRecord
100
AcDbBlockTableRecord
  2
*Model_Space
340
C
  0
BLOCK_RECORD
  5
11
330
1
100
AcDbSymbolTableRecord
100
AcDbBlockTableRecord
  2
*Paper_Space
340
14
  0
BLOCK_RECORD
  5
27
102
{ACAD_XDICTIONARY
360
28
102
}
330
1
100
AcDbSymbolTableRecord
100
AcDbBlockTableRecord
  2
B-DIM
340
0
102
{BLKREFS
331
FF
331
100
331
10E
331
10F
331
118
331
119
331
126
331
127
331
1FA
331
1FB
331
204
331
205
331
20F
331
210
331
21A
331
21B
331
225
331
226
331
233
331
234
331
23D
331
23E
331
248
331
249
331
253
331
254
331
25E
331
25F
331
269
331
26A
331
274
331
275
331
27F
331
280
331
29A
331
29B
331
2A4
331
2A5
331
2AF
331
2B0
331
362
331
363
331
370
331
371
331
37A
331
37B
331
385
331
386
331
390
331
391
331
3C3
331
3C4
331
3D1
331
3D2
331
3DB
331
3DC
331
3E9
331
3EA
331
3F3
331
3F4
331
3FF
331
400
331
40B
331
40C
331
416
331
417
331
424
331
425
331
4BA
331
4BB
331
4C5
331
4C6
331
4D0
331
4D1
331
4DB
331
4DC
331
4E9
331
4EA
331
4F3
331
4F4
331
501
331
502
331
50B
331
50C
331
529
331
52A
331
534
331
535
331
53F
331
540
331
54A
331
54B
331
556
331
557
331
560
331
561
331
56B
331
56C
331
580
331
581
331
58B
331
58C
331
596
331
597
331
5A1
331
5A2
331
5AC
331
5AD
331
5B7
331
5B8
331
5ED
331
5EE
331
5F7
331
5F8
331
601
331
602
331
60B
331
60C
331
617
331
618
331
621
331
622
331
62B
331
62C
331
635
331
636
331
63F
331
640
331
649
331
64A
331
653
331
654
331
65D
331
65E
331
669
331
66A
331
673
331
674
331
67D
331
67E
331
687
331
688
331
84E
331
84F
331
858
331
859
331
864
331
865
331
86E
331
86F
331
87A
331
87B
331
884
331
885
331
88E
331
88F
331
898
331
899
331
8A4
331
8A5
331
8AE
331
8AF
331
8BA
331
8BB
331
8C4
331
8C5
331
8D0
331
8D1
331
8DA
331
8DB
331
8E4
331
8E5
331
8EE
331
8EF
331
8F8
331
8F9
331
902
331
903
331
90D
331
90E
331
916
331
917
331
920
331
921
331
92A
331
92B
331
934
331
935
331
93E
331
93F
331
94B
331
94C
331
954
331
955
331
961
331
962
331
96A
331
96B
331
974
331
975
331
97E
331
97F
331
988
331
989
331
995
331
996
331
99E
331
99F
331
9A8
331
9A9
331
9B3
331
9B4
331
9BC
331
9BD
331
9C9
331
9CA
331
9D2
331
9D3
331
9DC
331
9DD
331
9E6
331
9E7
331
9F0
331
9F1
331
9FD
331
9FE
331
A06
331
A07
331
A10
331
A11
331
A1A
331
A1B
331
A27
331
A28
331
A30
331
A31
331
A3A
331
A3B
331
A44
331
A45
331
A4E
331
A4F
331
A58
331
A59
331
A62
331
A63
331
A6C
331
A6D
331
A76
331
A77
331
A80
331
A81
331
A8A
331
A8B
331
A97
331
A98
331
AA0
331
AA1
331
AAA
331
AAB
331
AB4
331
AB5
331
ABE
331
ABF
331
ACB
331
ACC
331
AD4
331
AD5
331
ADE
331
ADF
331
AE8
331
AE9
331
AF2
331
AF3
331
AFF
331
B00
331
B0B
331
B0C
331
B14
331
B15
331
B21
331
B22
331
B2A
331
B2B
331
C90
331
C91
331
C97
331
C98
331
C9E
331
C9F
331
CA8
331
CA9
331
CAE
331
CAF
331
CB8
331
CB9
331
CBE
331
CBF
331
CCC
331
CCD
331
CD3
331
CD4
331
CDA
331
CDB
331
CE2
331
CE3
331
CE8
331
CE9
331
CEF
331
CF0
331
CF6
331
CF7
331
D00
331
D01
331
E1C
331
E1D
331
E23
331
E24
331
E2A
331
E2B
331
E3B
331
E3C
331
E41
331
E42
331
E4F
331
E50
331
E59
331
E5A
331
E5F
331
E60
331
E66
331
E67
331
E6D
331
E6E
331
E74
331
E75
331
E7E
331
E7F
331
E84
331
E85
331
E8C
331
E8D
331
E92
331
E93
331
EA9
331
EAA
331
EBF
331
EC0
331
EC7
331
EC8
331
ECE
331
ECF
331
ED5
331
ED6
331
EDC
331
EDD
331
EE7
331
EE8
331
EF2
331
EF3
331
EFD
331
EFE
331
F11
331
F12
331
F1C
331
F1D
331
F38
331
F39
102
}
  0
BLOCK_RECORD
  5
8F4
330
1
100
AcDbSymbolTableRecord
100
AcDbBlockTableRecord
  2
*D91
340
0
  0
BLOCK_RECORD
  5
8FE
330
1
100
AcDbSymbolTableRecord
100
AcDbBlockTableRecord
  2
*D92
340
0
  0
BLOCK_RECORD
  5
908
330
1
100
AcDbSymbolTableRecord
100
AcDbBlockTableRecord
  2
*D93
340
0
  0
BLOCK_RECORD
  5
912
330
1
100
AcDbSymbolTableRecord
100
AcDbBlockTableRecord
  2
*D94
340
0
  0
BLOCK_RECORD
  5
91C
330
1
100
AcDbSymbolTableRecord
100
AcDbBlockTableRecord
  2
*D95
340
0
  0
BLOCK_RECORD
  5
926
330
1
100
AcDbSymbolTableRecord
100
AcDbBlockTableRecord
  2
*D96
340
0
  0
BLOCK_RECORD
  5
930
330
1
100
AcDbSymbolTableRecord
100
AcDbBlockTableRecord
  2
*D97
340
0
  0
BLOCK_RECORD
  5
93A
330
1
100
AcDbSymbolTableRecord
100
AcDbBlockTableRecord
  2
*D98
340
0
  0
BLOCK_RECORD
  5
944
330
1
100
AcDbSymbolTableRecord
100
AcDbBlockTableRecord
  2
*D99
340
0
  0
BLOCK_RECORD
  5
950
330
1
100
AcDbSymbolTableRecord
100
AcDbBlockTableRecord
  2
*D100
340
0
  0
BLOCK_RECORD
  5
95A
330
1
100
AcDbSymbolTableRecord
100
AcDbBlockTableRecord
  2
*D101
340
0
  0
BLOCK_RECORD
  5
966
330
1
100
AcDbSymbolTableRecord
100
AcDbBlockTableRecord
  2
*D102
340
0
  0
BLOCK_RECORD
  5
970
330
1
100
AcDbSymbolTableRecord
100
AcDbBlockTableRecord
  2
*D103
340
0
  0
BLOCK_RECORD
  5
97A
330
1
100
AcDbSymbolTableRecord
100
AcDbBlockTableRecord
  2
*D104
340
0
  0
BLOCK_RECORD
  5
984
330
1
100
AcDbSymbolTableRecord
100
AcDbBlockTableRecord
  2
*D105
340
0
  0
BLOCK_RECORD
  5
98E
330
1
100
AcDbSymbolTableRecord
100
AcDbBlockTableRecord
  2
*D106
340
0
  0
BLOCK_RECORD
  5
99A
330
1
100
AcDbSymbolTableRecord
100
AcDbBlockTableRecord
  2
*D107
340
0
  0
BLOCK_RECORD
  5
9A4
330
1
100
AcDbSymbolTableRecord
100
AcDbBlockTableRecord
  2
*D108
340
0
  0
BLOCK_RECORD
  5
9AE
330
1
100
AcDbSymbolTableRecord
100
AcDbBlockTableRecord
  2
*D109
340
0
  0
BLOCK_RECORD
  5
9B8
330
1
100
AcDbSymbolTableRecord
100
AcDbBlockTableRecord
  2
*D110
340
0
  0
BLOCK_RECORD
  5
9C2
330
1
100
AcDbSymbolTableRecord
100
AcDbBlockTableRecord
  2
*D111
340
0
  0
BLOCK_RECORD
  5
9CE
330
1
100
AcDbSymbolTableRecord
100
AcDbBlockTableRecord
  2
*D112
340
0
  0
BLOCK_RECORD
  5
9D8
330
1
100
AcDbSymbolTableRecord
100
AcDbBlockTableRecord
  2
*D113
340
0
  0
BLOCK_RECORD
  5
9E2
330
1
100
AcDbSymbolTableRecord
100
AcDbBlockTableRecord
  2
*D114
340
0
  0
BLOCK_RECORD
  5
9EC
330
1
100
AcDbSymbolTableRecord
100
AcDbBlockTableRecord
  2
*D115
340
0
  0
BLOCK_RECORD
  5
9F6
330
1
100
AcDbSymbolTableRecord
100
AcDbBlockTableRecord
  2
*D116
340
0
  0
BLOCK_RECORD
  5
A02
330
1
100
AcDbSymbolTableRecord
100
AcDbBlockTableRecord
  2
*D117
340
0
  0
BLOCK_RECORD
  5
A0C
330
1
100
AcDbSymbolTableRecord
100
AcDbBlockTableRecord
  2
*D118
340
0
  0
BLOCK_RECORD
  5
A16
330
1
100
AcDbSymbolTableRecord
100
AcDbBlockTableRecord
  2
*D119
340
0
  0
BLOCK_RECORD
  5
A20
330
1
100
AcDbSymbolTableRecord
100
AcDbBlockTableRecord
  2
*D120
340
0
  0
BLOCK_RECORD
  5
A2C
330
1
100
AcDbSymbolTableRecord
100
AcDbBlockTableRecord
  2
*D121
340
0
  0
BLOCK_RECORD
  5
A36
330
1
100
AcDbSymbolTableRecord
100
AcDbBlockTableRecord
  2
*D122
340
0
  0
BLOCK_RECORD
  5
A40
330
1
100
AcDbSymbolTableRecord
100
AcDbBlockTableRecord
  2
*D123
340
0
  0
BLOCK_RECORD
  5
A4A
330
1
100
AcDbSymbolTableRecord
100
AcDbBlockTableRecord
  2
*D124
340
0
  0
BLOCK_RECORD
  5
BD8
330
1
100
AcDbSymbolTableRecord
100
AcDbBlockTableRecord
  2
*D147
340
0
  0
BLOCK_RECORD
  5
BE2
330
1
100
AcDbSymbolTableRecord
100
AcDbBlockTableRecord
  2
*D148
340
0
  0
BLOCK_RECORD
  5
BEC
330
1
100
AcDbSymbolTableRecord
100
AcDbBlockTableRecord
  2
*D149
340
0
  0
BLOCK_RECORD
  5
BF6
330
1
100
AcDbSymbolTableRecord
100
AcDbBlockTableRecord
  2
*D150
340
0
  0
BLOCK_RECORD
  5
C00
330
1
100
AcDbSymbolTableRecord
100
AcDbBlockTableRecord
  2
*D151
340
0
  0
BLOCK_RECORD
  5
C0C
330
1
100
AcDbSymbolTableRecord
100
AcDbBlockTableRecord
  2
*D152
340
0
  0
BLOCK_RECORD
  5
C16
330
1
100
AcDbSymbolTableRecord
100
AcDbBlockTableRecord
  2
*D153
340
0
  0
BLOCK_RECORD
  5
C22
330
1
100
AcDbSymbolTableRecord
100
AcDbBlockTableRecord
  2
*D154
340
0
  0
BLOCK_RECORD
  5
C2C
330
1
100
AcDbSymbolTableRecord
100
AcDbBlockTableRecord
  2
*D155
340
0
  0
BLOCK_RECORD
  5
D89
330
1
100
AcDbSymbolTableRecord
100
AcDbBlockTableRecord
  2
*D167
340
0
  0
BLOCK_RECORD
  5
D93
330
1
100
AcDbSymbolTableRecord
100
AcDbBlockTableRecord
  2
*D168
340
0
  0
BLOCK_RECORD
  5
D9F
330
1
100
AcDbSymbolTableRecord
100
AcDbBlockTableRecord
  2
*D169
340
0
  0
BLOCK_RECORD
  5
DA9
330
1
100
AcDbSymbolTableRecord
100
AcDbBlockTableRecord
  2
*D170
340
0
  0
BLOCK_RECORD
  5
DB3
330
1
100
AcDbSymbolTableRecord
100
AcDbBlockTableRecord
  2
*D171
340
0
  0
BLOCK_RECORD
  5
DBD
330
1
100
AcDbSymbolTableRecord
100
AcDbBlockTableRecord
  2
*D172
340
0
  0
BLOCK_RECORD
  5
DC9
330
1
100
AcDbSymbolTableRecord
100
AcDbBlockTableRecord
  2
*D173
340
0
  0
BLOCK_RECORD
  5
DD3
330
1
100
AcDbSymbolTableRecord
100
AcDbBlockTableRecord
  2
*D174
340
0
  0
BLOCK_RECORD
  5
DDD
330
1
100
AcDbSymbolTableRecord
100
AcDbBlockTableRecord
  2
*D175
340
0
  0
BLOCK_RECORD
  5
E99
330
1
100
AcDbSymbolTableRecord
100
AcDbBlockTableRecord
  2
*D181
340
0
  0
BLOCK_RECORD
  5
EAF
330
1
100
AcDbSymbolTableRecord
100
AcDbBlockTableRecord
  2
*D182
340
0
  0
BLOCK_RECORD
  5
EE3
330
1
100
AcDbSymbolTableRecord
100
AcDbBlockTableRecord
  2
*D183
340
0
  0
BLOCK_RECORD
  5
EEE
330
1
100
AcDbSymbolTableRecord
100
AcDbBlockTableRecord
  2
*D184
340
0
  0
BLOCK_RECORD
  5
EF9
330
1
100
AcDbSymbolTableRecord
100
AcDbBlockTableRecord
  2
*D185
340
0
  0
BLOCK_RECORD
  5
F04
330
1
100
AcDbSymbolTableRecord
100
AcDbBlockTableRecord
  2
*D186
340
0
  0
BLOCK_RECORD
  5
F18
330
1
100
AcDbSymbolTableRecord
100
AcDbBlockTableRecord
  2
*D187
340
0
  0
BLOCK_RECORD
  5
F24
330
1
100
AcDbSymbolTableRecord
100
AcDbBlockTableRecord
  2
*D188
340
0
  0
ENDTAB
  0
ENDSEC
  0
SECTION
  2
BLOCKS
  0
BLOCK
  5
3
330
2
100
AcDbEntity
  8
0
100
AcDbBlockBegin
  2
*Model_Space
 70
     0
 10
0.0
 20
0.0
 30
0.0
  3
*Model_Space
  1

  0
ENDBLK
  5
B
330
2
100
AcDbEntity
  8
0
100
AcDbBlockEnd
  0
BLOCK
  5
12
330
11
100
AcDbEntity
 67
     1
  8
0
100
AcDbBlockBegin
  2
*Paper_Space
 70
     0
 10
0.0
 20
0.0
 30
0.0
  3
*Paper_Space
  1

  0
ENDBLK
  5
13
330
11
100
AcDbEntity
 67
     1
  8
0
100
AcDbBlockEnd
  0
BLOCK
  5
2A
330
27
100
AcDbEntity
  8
0
100
AcDbBlockBegin
  2
B-DIM
 70
     0
 10
0.0
 20
0.0
 30
0.0
  3
B-DIM
  1

  0
LINE
  5
2B
330
27
100
AcDbEntity
  8
0
 62
     1
100
AcDbLine
 10
0.000000000000091
 20
-1.1
 30
0.0
 11
0.000000000000091
 21
1.1
 31
0.0
  0
LWPOLYLINE
  5
2C
330
27
100
AcDbEntity
  8
0
 62
     1
100
AcDbPolyline
 90
        2
 70
     0
 43
0.3
 10
-0.7071067811864851
 20
-0.7071067811864851
 10
0.707106781186576
 20
0.707106781186576
  0
LINE
  5
2D
330
27
100
AcDbEntity
  8
0
 62
     1
100
AcDbLine
 10
1.20000000000009
 20
0.0
 30
0.0
 11
-1.199999999999909
 21
0.0
 31
0.0
  0
ENDBLK
  5
2E
330
27
100
AcDbEntity
  8
0
100
AcDbBlockEnd
  0
BLOCK
  5
8F5
330
8F4
100
AcDbEntity
  8
0
100
AcDbBlockBegin
  2
*D91
 70
     1
 10
0.0
 20
0.0
 30
0.0
  3
*D91
  1

  0
LINE
  5
8F7
330
8F4
100
AcDbEntity
  8
0Hatch
 62
     1
370
    -2
100
AcDbLine
 10
136508.3809864197
 20
51571.14769014
 30
0.0
 11
137460.3807855392
 21
51571.14769014
 31
0.0
  0
INSERT
  5
8F8
330
8F4
100
AcDbEntity
  8
0Hatch
 62
     1
370
    -2
100
AcDbBlockReference
  2
B-DIM
 10
136478.3809864197
 20
51571.14769014
 30
0.0
 41
30.0
 42
30.0
 43
30.0
 50
180.0
  0
INSERT
  5
8F9
330
8F4
100
AcDbEntity
  8
0Hatch
 62
     1
370
    -2
100
AcDbBlockReference
  2
B-DIM
 10
137490.3807855392
 20
51571.14769014
 30
0.0
 41
30.0
 42
30.0
 43
30.0
  0
MTEXT
  5
8FA
330
8F4
100
AcDbEntity
  8
0Hatch
 62
    10
100
AcDbMText
 10
136984.3808859794
 20
51651.14769014
 30
0.0
 40
80.0
 41
0.0
 71
     5
 72
     1
  1
\A1;1012
  7
ROMANS
 73
     1
 44
1.0
1001
ACAD
1000
MTEXTBEGIN
1070
    73
1070
     1
1070
    44
1040
1.0
1070
    74
1070
     0
1000
MTEXTEND
  0
POINT
  5
8FB
330
8F4
100
AcDbEntity
  8
DEFPOINTS
 62
     0
100
AcDbPoint
 10
136478.3809864197
 20
52793.6536690427
 30
0.0
  0
POINT
  5
8FC
330
8F4
100
AcDbEntity
  8
DEFPOINTS
 62
     0
100
AcDbPoint
 10
137490.3807855392
 20
52591.65380534426
 30
0.0
  0
POINT
  5
8FD
330
8F4
100
AcDbEntity
  8
DEFPOINTS
 62
     0
100
AcDbPoint
 10
137490.3807855392
 20
51571.14769014
 30
0.0
  0
ENDBLK
  5
8F6
330
8F4
100
AcDbEntity
  8
0
100
AcDbBlockEnd
  0
BLOCK
  5
8FF
330
8FE
100
AcDbEntity
  8
0
100
AcDbBlockBegin
  2
*D92
 70
     1
 10
0.0
 20
0.0
 30
0.0
  3
*D92
  1

  0
LINE
  5
901
330
8FE
100
AcDbEntity
  8
0Hatch
 62
     1
370
    -2
100
AcDbLine
 10
137007.3809157596
 20
51761.29493751301
 30
0.0
 11
137460.3807855392
 21
51761.29493751301
 31
0.0
  0
INSERT
  5
902
330
8FE
100
AcDbEntity
  8
0Hatch
 62
     1
370
    -2
100
AcDbBlockReference
  2
B-DIM
 10
136977.3809157596
 20
51761.29493751301
 30
0.0
 41
30.0
 42
30.0
 43
30.0
 50
180.0
  0
INSERT
  5
903
330
8FE
100
AcDbEntity
  8
0Hatch
 62
     1
370
    -2
100
AcDbBlockReference
  2
B-DIM
 10
137490.3807855392
 20
51761.29493751301
 30
0.0
 41
30.0
 42
30.0
 43
30.0
  0
MTEXT
  5
904
330
8FE
100
AcDbEntity
  8
0Hatch
 62
    10
100
AcDbMText
 10
137233.8808506494
 20
51841.29493751301
 30
0.0
 40
80.0
 41
0.0
 71
     5
 72
     1
  1
\A1;513
  7
ROMANS
 73
     1
 44
1.0
1001
ACAD
1000
MTEXTBEGIN
1070
    73
1070
     1
1070
    44
1040
1.0
1070
    74
1070
     0
1000
MTEXTEND
  0
POINT
  5
905
330
8FE
100
AcDbEntity
  8
DEFPOINTS
 62
     0
100
AcDbPoint
 10
136977.3809157596
 20
52496.65375226864
 30
0.0
  0
POINT
  5
906
330
8FE
100
AcDbEntity
  8
DEFPOINTS
 62
     0
100
AcDbPoint
 10
137490.3807855392
 20
52591.65380534426
 30
0.0
  0
POINT
  5
907
330
8FE
100
AcDbEntity
  8
DEFPOINTS
 62
     0
100
AcDbPoint
 10
137490.3807855392
 20
51761.29493751301
 30
0.0
  0
ENDBLK
  5
900
330
8FE
100
AcDbEntity
  8
0
100
AcDbBlockEnd
  0
BLOCK
  5
909
330
908
100
AcDbEntity
  8
0
100
AcDbBlockBegin
  2
*D93
 70
     1
 10
0.0
 20
0.0
 30
0.0
  3
*D93
  1

  0
LINE
  5
90B
330
908
100
AcDbEntity
  8
0Hatch
 62
     1
370
    -2
100
AcDbLine
 10
137885.026726911
 20
52526.65375226865
 30
0.0
 11
137885.026726911
 21
52561.65380534426
 31
0.0
  0
MTEXT
  5
90C
330
908
100
AcDbEntity
  8
0Hatch
 62
    10
100
AcDbMText
 10
137805.0267269109
 20
52420.48255371995
 30
0.0
 40
80.0
 41
0.0
 71
     5
 72
     1
  1
\A1;95
  7
ROMANS
 11
0.0000000000000001
 21
1.0
 31
0.0
 73
     1
 44
1.0
1001
ACAD
1000
MTEXTBEGIN
1070
    73
1070
     1
1070
    44
1040
1.0
1070
    74
1070
     0
1000
MTEXTEND
  0
INSERT
  5
90D
330
908
100
AcDbEntity
  8
0Hatch
 62
     1
370
    -2
100
AcDbBlockReference
  2
B-DIM
 10
137885.026726911
 20
52496.65375226864
 30
0.0
 41
30.0
 42
30.0
 43
30.0
 50
270.0
  0
INSERT
  5
90E
330
908
100
AcDbEntity
  8
0Hatch
 62
     1
370
    -2
100
AcDbBlockReference
  2
B-DIM
 10
137885.026726911
 20
52591.65380534426
 30
0.0
 41
30.0
 42
30.0
 43
30.0
 50
90.0
  0
POINT
  5
90F
330
908
100
AcDbEntity
  8
DEFPOINTS
 62
     0
100
AcDbPoint
 10
136977.3809157596
 20
52496.65375226864
 30
0.0
  0
POINT
  5
910
330
908
100
AcDbEntity
  8
DEFPOINTS
 62
     0
100
AcDbPoint
 10
137490.3807855392
 20
52591.65380534426
 30
0.0
  0
POINT
  5
911
330
908
100
AcDbEntity
  8
DEFPOINTS
 62
     0
100
AcDbPoint
 10
137885.026726911
 20
52591.65380534426
 30
0.0
  0
ENDBLK
  5
90A
330
908
100
AcDbEntity
  8
0
100
AcDbBlockEnd
  0
BLOCK
  5
913
330
912
100
AcDbEntity
  8
0
100
AcDbBlockBegin
  2
*D94
 70
     1
 10
0.0
 20
0.0
 30
0.0
  3
*D94
  1

  0
LINE
  5
915
330
912
100
AcDbEntity
  8
0Hatch
 62
     1
370
    -2
100
AcDbLine
 10
138071.8981711356
 20
53450.65367050896
 30
0.0
 11
138071.8981711356
 21
52526.65375226865
 31
0.0
  0
INSERT
  5
916
330
912
100
AcDbEntity
  8
0Hatch
 62
     1
370
    -2
100
AcDbBlockReference
  2
B-DIM
 10
138071.8981711356
 20
53480.65367050896
 30
0.0
 41
30.0
 42
30.0
 43
30.0
 50
90.0
  0
INSERT
  5
917
330
912
100
AcDbEntity
  8
0Hatch
 62
     1
370
    -2
100
AcDbBlockReference
  2
B-DIM
 10
138071.8981711356
 20
52496.65375226864
 30
0.0
 41
30.0
 42
30.0
 43
30.0
 50
270.0
  0
MTEXT
  5
918
330
912
100
AcDbEntity
  8
0Hatch
 62
    10
100
AcDbMText
 10
137991.8981711355
 20
52988.65371138882
 30
0.0
 40
80.0
 41
0.0
 71
     5
 72
     1
  1
\A1;984
  7
ROMANS
 11
0.0000000000000001
 21
1.0
 31
0.0
 73
     1
 44
1.0
1001
ACAD
1000
MTEXTBEGIN
1070
    73
1070
     1
1070
    44
1040
1.0
1070
    74
1070
     0
1000
MTEXTEND
  0
POINT
  5
919
330
912
100
AcDbEntity
  8
DEFPOINTS
 62
     0
100
AcDbPoint
 10
137170.3807007797
 20
53480.65367050896
 30
0.0
  0
POINT
  5
91A
330
912
100
AcDbEntity
  8
DEFPOINTS
 62
     0
100
AcDbPoint
 10
136977.3809157596
 20
52496.65375226864
 30
0.0
  0
POINT
  5
91B
330
912
100
AcDbEntity
  8
DEFPOINTS
 62
     0
100
AcDbPoint
 10
138071.8981711356
 20
52496.65375226864
 30
0.0
  0
ENDBLK
  5
914
330
912
100
AcDbEntity
  8
0
100
AcDbBlockEnd
  0
BLOCK
  5
91D
330
91C
100
AcDbEntity
  8
0
100
AcDbBlockBegin
  2
*D95
 70
     1
 10
0.0
 20
0.0
 30
0.0
  3
*D95
  1

  0
LINE
  5
91F
330
91C
100
AcDbEntity
  8
0Hatch
 62
     1
370
    -2
100
AcDbLine
 10
136553.3810820769
 20
54328.07014177075
 30
0.0
 11
137460.3807855392
 21
54328.07014177075
 31
0.0
  0
INSERT
  5
920
330
91C
100
AcDbEntity
  8
0Hatch
 62
     1
370
    -2
100
AcDbBlockReference
  2
B-DIM
 10
136523.3810820769
 20
54328.07014177075
 30
0.0
 41
30.0
 42
30.0
 43
30.0
 50
180.0
  0
INSERT
  5
921
330
91C
100
AcDbEntity
  8
0Hatch
 62
     1
370
    -2
100
AcDbBlockReference
  2
B-DIM
 10
137490.3807855392
 20
54328.07014177075
 30
0.0
 41
30.0
 42
30.0
 43
30.0
  0
MTEXT
  5
922
330
91C
100
AcDbEntity
  8
0Hatch
 62
    10
100
AcDbMText
 10
137006.880933808
 20
54408.07014177075
 30
0.0
 40
80.0
 41
0.0
 71
     5
 72
     1
  1
\A1;967
  7
ROMANS
 73
     1
 44
1.0
1001
ACAD
1000
MTEXTBEGIN
1070
    73
1070
     1
1070
    44
1040
1.0
1070
    74
1070
     0
1000
MTEXTEND
  0
POINT
  5
923
330
91C
100
AcDbEntity
  8
DEFPOINTS
 62
     0
100
AcDbPoint
 10
136523.3810820769
 20
53430.65356422314
 30
0.0
  0
POINT
  5
924
330
91C
100
AcDbEntity
  8
DEFPOINTS
 62
     0
100
AcDbPoint
 10
137490.3807855392
 20
53430.65356422314
 30
0.0
  0
POINT
  5
925
330
91C
100
AcDbEntity
  8
DEFPOINTS
 62
     0
100
AcDbPoint
 10
137490.3807855392
 20
54328.07014177075
 30
0.0
  0
ENDBLK
  5
91E
330
91C
100
AcDbEntity
  8
0
100
AcDbBlockEnd
  0
BLOCK
  5
927
330
926
100
AcDbEntity
  8
0
100
AcDbBlockBegin
  2
*D96
 70
     1
 10
0.0
 20
0.0
 30
0.0
  3
*D96
  1

  0
LINE
  5
929
330
926
100
AcDbEntity
  8
0Hatch
 62
     1
370
    -2
100
AcDbLine
 10
137200.3807007797
 20
54122.4272454648
 30
0.0
 11
137460.3807855392
 21
54122.4272454648
 31
0.0
  0
INSERT
  5
92A
330
926
100
AcDbEntity
  8
0Hatch
 62
     1
370
    -2
100
AcDbBlockReference
  2
B-DIM
 10
137170.3807007797
 20
54122.4272454648
 30
0.0
 41
30.0
 42
30.0
 43
30.0
 50
180.0
  0
INSERT
  5
92B
330
926
100
AcDbEntity
  8
0Hatch
 62
     1
370
    -2
100
AcDbBlockReference
  2
B-DIM
 10
137490.3807855392
 20
54122.4272454648
 30
0.0
 41
30.0
 42
30.0
 43
30.0
  0
MTEXT
  5
92C
330
926
100
AcDbEntity
  8
0Hatch
 62
    10
100
AcDbMText
 10
137330.3807431594
 20
54202.4272454648
 30
0.0
 40
80.0
 41
0.0
 71
     5
 72
     1
  1
\A1;320
  7
ROMANS
 73
     1
 44
1.0
1001
ACAD
1000
MTEXTBEGIN
1070
    73
1070
     1
1070
    44
1040
1.0
1070
    74
1070
     0
1000
MTEXTEND
  0
POINT
  5
92D
330
926
100
AcDbEntity
  8
DEFPOINTS
 62
     0
100
AcDbPoint
 10
137170.3807007797
 20
53480.65367050896
 30
0.0
  0
POINT
  5
92E
330
926
100
AcDbEntity
  8
DEFPOINTS
 62
     0
100
AcDbPoint
 10
137490.3807855392
 20
53430.65356422314
 30
0.0
  0
POINT
  5
92F
330
926
100
AcDbEntity
  8
DEFPOINTS
 62
     0
100
AcDbPoint
 10
137490.3807855392
 20
54122.4272454648
 30
0.0
  0
ENDBLK
  5
928
330
926
100
AcDbEntity
  8
0
100
AcDbBlockEnd
  0
BLOCK
  5
931
330
930
100
AcDbEntity
  8
0
100
AcDbBlockBegin
  2
*D97
 70
     1
 10
0.0
 20
0.0
 30
0.0
  3
*D97
  1

  0
LINE
  5
933
330
930
100
AcDbEntity
  8
0Hatch
 62
     1
370
    -2
100
AcDbLine
 10
136798.3810074077
 20
54122.4272454648
 30
0.0
 11
137140.3807007797
 21
54122.4272454648
 31
0.0
  0
INSERT
  5
934
330
930
100
AcDbEntity
  8
0Hatch
 62
     1
370
    -2
100
AcDbBlockReference
  2
B-DIM
 10
136768.3810074077
 20
54122.4272454648
 30
0.0
 41
30.0
 42
30.0
 43
30.0
 50
180.0
  0
INSERT
  5
935
330
930
100
AcDbEntity
  8
0Hatch
 62
     1
370
    -2
100
AcDbBlockReference
  2
B-DIM
 10
137170.3807007797
 20
54122.4272454648
 30
0.0
 41
30.0
 42
30.0
 43
30.0
  0
MTEXT
  5
936
330
930
100
AcDbEntity
  8
0Hatch
 62
    10
100
AcDbMText
 10
136969.3808540937
 20
54202.4272454648
 30
0.0
 40
80.0
 41
0.0
 71
     5
 72
     1
  1
\A1;402
  7
ROMANS
 73
     1
 44
1.0
1001
ACAD
1000
MTEXTBEGIN
1070
    73
1070
     1
1070
    44
1040
1.0
1070
    74
1070
     0
1000
MTEXTEND
  0
POINT
  5
937
330
930
100
AcDbEntity
  8
DEFPOINTS
 62
     0
100
AcDbPoint
 10
136768.3810074077
 20
53480.65367050896
 30
0.0
  0
POINT
  5
938
330
930
100
AcDbEntity
  8
DEFPOINTS
 62
     0
100
AcDbPoint
 10
137170.3807007797
 20
53480.65367050896
 30
0.0
  0
POINT
  5
939
330
930
100
AcDbEntity
  8
DEFPOINTS
 62
     0
100
AcDbPoint
 10
137170.3807007797
 20
54122.4272454648
 30
0.0
  0
ENDBLK
  5
932
330
930
100
AcDbEntity
  8
0
100
AcDbBlockEnd
  0
BLOCK
  5
93B
330
93A
100
AcDbEntity
  8
0
100
AcDbBlockBegin
  2
*D98
 70
     1
 10
0.0
 20
0.0
 30
0.0
  3
*D98
  1

  0
LINE
  5
93D
330
93A
100
AcDbEntity
  8
0Hatch
 62
     1
370
    -2
100
AcDbLine
 10
135712.6160285653
 20
53450.65367050896
 30
0.0
 11
135712.6160285653
 21
52526.65375226865
 31
0.0
  0
INSERT
  5
93E
330
93A
100
AcDbEntity
  8
0Hatch
 62
     1
370
    -2
100
AcDbBlockReference
  2
B-DIM
 10
135712.6160285653
 20
53480.65367050896
 30
0.0
 41
30.0
 42
30.0
 43
30.0
 50
90.0
  0
INSERT
  5
93F
330
93A
100
AcDbEntity
  8
0Hatch
 62
     1
370
    -2
100
AcDbBlockReference
  2
B-DIM
 10
135712.6160285653
 20
52496.65375226864
 30
0.0
 41
30.0
 42
30.0
 43
30.0
 50
270.0
  0
MTEXT
  5
940
330
93A
100
AcDbEntity
  8
0Hatch
 62
    10
100
AcDbMText
 10
135632.6160285653
 20
52988.65371138882
 30
0.0
 40
80.0
 41
0.0
 71
     5
 72
     1
  1
\A1;984
  7
ROMANS
 11
0.0000000000000001
 21
1.0
 31
0.0
 73
     1
 44
1.0
1001
ACAD
1000
MTEXTBEGIN
1070
    73
1070
     1
1070
    44
1040
1.0
1070
    74
1070
     0
1000
MTEXTEND
  0
POINT
  5
941
330
93A
100
AcDbEntity
  8
DEFPOINTS
 62
     0
100
AcDbPoint
 10
136768.3810074077
 20
53480.65367050896
 30
0.0
  0
POINT
  5
942
330
93A
100
AcDbEntity
  8
DEFPOINTS
 62
     0
100
AcDbPoint
 10
136523.3810820769
 20
52496.65375226864
 30
0.0
  0
POINT
  5
943
330
93A
100
AcDbEntity
  8
DEFPOINTS
 62
     0
100
AcDbPoint
 10
135712.6160285653
 20
52496.65375226864
 30
0.0
  0
ENDBLK
  5
93C
330
93A
100
AcDbEntity
  8
0
100
AcDbBlockEnd
  0
BLOCK
  5
945
330
944
100
AcDbEntity
  8
0
100
AcDbBlockBegin
  2
*D99
 70
     1
 10
0.0
 20
0.0
 30
0.0
  3
*D99
  1

  0
LINE
  5
947
330
944
100
AcDbEntity
  8
0Hatch
 62
     1
370
    -2
100
AcDbLine
 10
136553.3810820769
 20
51761.29493751301
 30
0.0
 11
136583.3810820769
 21
51761.29493751301
 31
0.0
  0
LINE
  5
948
330
944
100
AcDbEntity
  8
0Hatch
 62
     1
370
    -2
100
AcDbLine
 10
136448.3809864197
 20
51761.29493751301
 30
0.0
 11
136418.3809864197
 21
51761.29493751301
 31
0.0
  0
MTEXT
  5
949
330
944
100
AcDbEntity
  8
0Hatch
 62
    10
100
AcDbMText
 10
136397.813663681
 20
51841.29493751301
 30
0.0
 40
80.0
 41
0.0
 71
     5
 72
     1
  1
\A1;45
  7
ROMANS
 73
     1
 44
1.0
1001
ACAD
1000
MTEXTBEGIN
1070
    73
1070
     1
1070
    44
1040
1.0
1070
    74
1070
     0
1000
MTEXTEND
  0
LINE
  5
94A
330
944
100
AcDbEntity
  8
0Hatch
 62
     1
370
    -2
100
AcDbLine
 10
136523.3810820769
 20
51761.29493751301
 30
0.0
 11
136478.3809864197
 21
51761.29493751301
 31
0.0
  0
INSERT
  5
94B
330
944
100
AcDbEntity
  8
0Hatch
 62
     1
370
    -2
100
AcDbBlockReference
  2
B-DIM
 10
136523.3810820769
 20
51761.29493751301
 30
0.0
 41
30.0
 42
30.0
 43
30.0
 50
180.0
  0
INSERT
  5
94C
330
944
100
AcDbEntity
  8
0Hatch
 62
     1
370
    -2
100
AcDbBlockReference
  2
B-DIM
 10
136478.3809864197
 20
51761.29493751301
 30
0.0
 41
30.0
 42
30.0
 43
30.0
  0
POINT
  5
94D
330
944
100
AcDbEntity
  8
DEFPOINTS
 62
     0
100
AcDbPoint
 10
136523.3810820769
 20
52496.65375226864
 30
0.0
  0
POINT
  5
94E
330
944
100
AcDbEntity
  8
DEFPOINTS
 62
     0
100
AcDbPoint
 10
136478.3809864197
 20
52793.6536690427
 30
0.0
  0
POINT
  5
94F
330
944
100
AcDbEntity
  8
DEFPOINTS
 62
     0
100
AcDbPoint
 10
136478.3809864197
 20
51761.29493751301
 30
0.0
  0
ENDBLK
  5
946
330
944
100
AcDbEntity
  8
0
100
AcDbBlockEnd
  0
BLOCK
  5
951
330
950
100
AcDbEntity
  8
0
100
AcDbBlockBegin
  2
*D100
 70
     1
 10
0.0
 20
0.0
 30
0.0
  3
*D100
  1

  0
LINE
  5
953
330
950
100
AcDbEntity
  8
0Hatch
 62
     1
370
    -2
100
AcDbLine
 10
136553.3810820769
 20
51761.29493751301
 30
0.0
 11
136947.3809157596
 21
51761.29493751301
 31
0.0
  0
INSERT
  5
954
330
950
100
AcDbEntity
  8
0Hatch
 62
     1
370
    -2
100
AcDbBlockReference
  2
B-DIM
 10
136523.3810820769
 20
51761.29493751301
 30
0.0
 41
30.0
 42
30.0
 43
30.0
 50
180.0
  0
INSERT
  5
955
330
950
100
AcDbEntity
  8
0Hatch
 62
     1
370
    -2
100
AcDbBlockReference
  2
B-DIM
 10
136977.3809157596
 20
51761.29493751301
 30
0.0
 41
30.0
 42
30.0
 43
30.0
  0
MTEXT
  5
956
330
950
100
AcDbEntity
  8
0Hatch
 62
    10
100
AcDbMText
 10
136750.3809989183
 20
51841.29493751301
 30
0.0
 40
80.0
 41
0.0
 71
     5
 72
     1
  1
\A1;454
  7
ROMANS
 73
     1
 44
1.0
1001
ACAD
1000
MTEXTBEGIN
1070
    73
1070
     1
1070
    44
1040
1.0
1070
    74
1070
     0
1000
MTEXTEND
  0
POINT
  5
957
330
950
100
AcDbEntity
  8
DEFPOINTS
 62
     0
100
AcDbPoint
 10
136523.3810820769
 20
52496.65375226864
 30
0.0
  0
POINT
  5
958
330
950
100
AcDbEntity
  8
DEFPOINTS
 62
     0
100
AcDbPoint
 10
136977.3809157596
 20
52496.65375226864
 30
0.0
  0
POINT
  5
959
330
950
100
AcDbEntity
  8
DEFPOINTS
 62
     0
100
AcDbPoint
 10
136977.3809157596
 20
51761.29493751301
 30
0.0
  0
ENDBLK
  5
952
330
950
100
AcDbEntity
  8
0
100
AcDbBlockEnd
  0
BLOCK
  5
95B
330
95A
100
AcDbEntity
  8
0
100
AcDbBlockBegin
  2
*D101
 70
     1
 10
0.0
 20
0.0
 30
0.0
  3
*D101
  1

  0
LINE
  5
95D
330
95A
100
AcDbEntity
  8
0Hatch
 62
     1
370
    -2
100
AcDbLine
 10
135917.2882208514
 20
53400.65356422313
 30
0.0
 11
135917.2882208514
 21
53370.65356422313
 31
0.0
  0
LINE
  5
95E
330
95A
100
AcDbEntity
  8
0Hatch
 62
     1
370
    -2
100
AcDbLine
 10
135917.2882208514
 20
53510.65367050896
 30
0.0
 11
135917.2882208514
 21
53540.65367050896
 31
0.0
  0
MTEXT
  5
95F
330
95A
100
AcDbEntity
  8
0Hatch
 62
    10
100
AcDbMText
 10
135837.2882208514
 20
53540.03936092323
 30
0.0
 40
80.0
 41
0.0
 71
     5
 72
     1
  1
\A1;50
  7
ROMANS
 11
0.0000000000000001
 21
1.0
 31
0.0
 73
     1
 44
1.0
1001
ACAD
1000
MTEXTBEGIN
1070
    73
1070
     1
1070
    44
1040
1.0
1070
    74
1070
     0
1000
MTEXTEND
  0
LINE
  5
960
330
95A
100
AcDbEntity
  8
0Hatch
 62
     1
370
    -2
100
AcDbLine
 10
135917.2882208514
 20
53430.65356422314
 30
0.0
 11
135917.2882208514
 21
53480.65367050896
 31
0.0
  0
INSERT
  5
961
330
95A
100
AcDbEntity
  8
0Hatch
 62
     1
370
    -2
100
AcDbBlockReference
  2
B-DIM
 10
135917.2882208514
 20
53430.65356422314
 30
0.0
 41
30.0
 42
30.0
 43
30.0
 50
90.0
  0
INSERT
  5
962
330
95A
100
AcDbEntity
  8
0Hatch
 62
     1
370
    -2
100
AcDbBlockReference
  2
B-DIM
 10
135917.2882208514
 20
53480.65367050896
 30
0.0
 41
30.0
 42
30.0
 43
30.0
 50
270.0
  0
POINT
  5
963
330
95A
100
AcDbEntity
  8
DEFPOINTS
 62
     0
100
AcDbPoint
 10
136523.3810820769
 20
53430.65356422314
 30
0.0
  0
POINT
  5
964
330
95A
100
AcDbEntity
  8
DEFPOINTS
 62
     0
100
AcDbPoint
 10
136768.3810074077
 20
53480.65367050896
 30
0.0
  0
POINT
  5
965
330
95A
100
AcDbEntity
  8
DEFPOINTS
 62
     0
100
AcDbPoint
 10
135917.2882208514
 20
53480.65367050896
 30
0.0
  0
ENDBLK
  5
95C
330
95A
100
AcDbEntity
  8
0
100
AcDbBlockEnd
  0
BLOCK
  5
967
330
966
100
AcDbEntity
  8
0
100
AcDbBlockBegin
  2
*D102
 70
     1
 10
0.0
 20
0.0
 30
0.0
  3
*D102
  1

  0
LINE
  5
969
330
966
100
AcDbEntity
  8
0Hatch
 62
     1
370
    -2
100
AcDbLine
 10
135917.2882208514
 20
53113.6536900307
 30
0.0
 11
135917.2882208514
 21
53400.65356422313
 31
0.0
  0
INSERT
  5
96A
330
966
100
AcDbEntity
  8
0Hatch
 62
     1
370
    -2
100
AcDbBlockReference
  2
B-DIM
 10
135917.2882208514
 20
53083.6536900307
 30
0.0
 41
30.0
 42
30.0
 43
30.0
 50
270.0
  0
INSERT
  5
96B
330
966
100
AcDbEntity
  8
0Hatch
 62
     1
370
    -2
100
AcDbBlockReference
  2
B-DIM
 10
135917.2882208514
 20
53430.65356422314
 30
0.0
 41
30.0
 42
30.0
 43
30.0
 50
90.0
  0
MTEXT
  5
96C
330
966
100
AcDbEntity
  8
0Hatch
 62
    10
100
AcDbMText
 10
135837.2882208514
 20
53257.15362712694
 30
0.0
 40
80.0
 41
0.0
 71
     5
 72
     1
  1
\A1;347
  7
ROMANS
 11
0.0000000000000001
 21
1.0
 31
0.0
 73
     1
 44
1.0
1001
ACAD
1000
MTEXTBEGIN
1070
    73
1070
     1
1070
    44
1040
1.0
1070
    74
1070
     0
1000
MTEXTEND
  0
POINT
  5
96D
330
966
100
AcDbEntity
  8
DEFPOINTS
 62
     0
100
AcDbPoint
 10
136478.3809864197
 20
53083.6536900307
 30
0.0
  0
POINT
  5
96E
330
966
100
AcDbEntity
  8
DEFPOINTS
 62
     0
100
AcDbPoint
 10
136523.3810820769
 20
53430.65356422314
 30
0.0
  0
POINT
  5
96F
330
966
100
AcDbEntity
  8
DEFPOINTS
 62
     0
100
AcDbPoint
 10
135917.2882208514
 20
53430.65356422314
 30
0.0
  0
ENDBLK
  5
968
330
966
100
AcDbEntity
  8
0
100
AcDbBlockEnd
  0
BLOCK
  5
971
330
970
100
AcDbEntity
  8
0
100
AcDbBlockBegin
  2
*D103
 70
     1
 10
0.0
 20
0.0
 30
0.0
  3
*D103
  1

  0
LINE
  5
973
330
970
100
AcDbEntity
  8
0Hatch
 62
     1
370
    -2
100
AcDbLine
 10
135917.2882208514
 20
52823.6536690427
 30
0.0
 11
135917.2882208514
 21
53053.6536900307
 31
0.0
  0
INSERT
  5
974
330
970
100
AcDbEntity
  8
0Hatch
 62
     1
370
    -2
100
AcDbBlockReference
  2
B-DIM
 10
135917.2882208514
 20
52793.6536690427
 30
0.0
 41
30.0
 42
30.0
 43
30.0
 50
270.0
  0
INSERT
  5
975
330
970
100
AcDbEntity
  8
0Hatch
 62
     1
370
    -2
100
AcDbBlockReference
  2
B-DIM
 10
135917.2882208514
 20
53083.6536900307
 30
0.0
 41
30.0
 42
30.0
 43
30.0
 50
90.0
  0
MTEXT
  5
976
330
970
100
AcDbEntity
  8
0Hatch
 62
    10
100
AcDbMText
 10
135837.2882208514
 20
52938.65367953673
 30
0.0
 40
80.0
 41
0.0
 71
     5
 72
     1
  1
\A1;290
  7
ROMANS
 11
0.0000000000000001
 21
1.0
 31
0.0
 73
     1
 44
1.0
1001
ACAD
1000
MTEXTBEGIN
1070
    73
1070
     1
1070
    44
1040
1.0
1070
    74
1070
     0
1000
MTEXTEND
  0
POINT
  5
977
330
970
100
AcDbEntity
  8
DEFPOINTS
 62
     0
100
AcDbPoint
 10
136478.3809864197
 20
52793.6536690427
 30
0.0
  0
POINT
  5
978
330
970
100
AcDbEntity
  8
DEFPOINTS
 62
     0
100
AcDbPoint
 10
136478.3809864197
 20
53083.6536900307
 30
0.0
  0
POINT
  5
979
330
970
100
AcDbEntity
  8
DEFPOINTS
 62
     0
100
AcDbPoint
 10
135917.2882208514
 20
53083.6536900307
 30
0.0
  0
ENDBLK
  5
972
330
970
100
AcDbEntity
  8
0
100
AcDbBlockEnd
  0
BLOCK
  5
97B
330
97A
100
AcDbEntity
  8
0
100
AcDbBlockBegin
  2
*D104
 70
     1
 10
0.0
 20
0.0
 30
0.0
  3
*D104
  1

  0
LINE
  5
97D
330
97A
100
AcDbEntity
  8
0Hatch
 62
     1
370
    -2
100
AcDbLine
 10
135917.2882208514
 20
52526.65375226865
 30
0.0
 11
135917.2882208514
 21
52763.65366904271
 31
0.0
  0
INSERT
  5
97E
330
97A
100
AcDbEntity
  8
0Hatch
 62
     1
370
    -2
100
AcDbBlockReference
  2
B-DIM
 10
135917.2882208514
 20
52496.65375226864
 30
0.0
 41
30.0
 42
30.0
 43
30.0
 50
270.0
  0
INSERT
  5
97F
330
97A
100
AcDbEntity
  8
0Hatch
 62
     1
370
    -2
100
AcDbBlockReference
  2
B-DIM
 10
135917.2882208514
 20
52793.6536690427
 30
0.0
 41
30.0
 42
30.0
 43
30.0
 50
90.0
  0
MTEXT
  5
980
330
97A
100
AcDbEntity
  8
0Hatch
 62
    10
100
AcDbMText
 10
135837.2882208514
 20
52645.1537106557
 30
0.0
 40
80.0
 41
0.0
 71
     5
 72
     1
  1
\A1;297
  7
ROMANS
 11
0.0000000000000001
 21
1.0
 31
0.0
 73
     1
 44
1.0
1001
ACAD
1000
MTEXTBEGIN
1070
    73
1070
     1
1070
    44
1040
1.0
1070
    74
1070
     0
1000
MTEXTEND
  0
POINT
  5
981
330
97A
100
AcDbEntity
  8
DEFPOINTS
 62
     0
100
AcDbPoint
 10
136523.3810820769
 20
52496.65375226864
 30
0.0
  0
POINT
  5
982
330
97A
100
AcDbEntity
  8
DEFPOINTS
 62
     0
100
AcDbPoint
 10
136478.3809864197
 20
52793.6536690427
 30
0.0
  0
POINT
  5
983
330
97A
100
AcDbEntity
  8
DEFPOINTS
 62
     0
100
AcDbPoint
 10
135917.2882208514
 20
52793.6536690427
 30
0.0
  0
ENDBLK
  5
97C
330
97A
100
AcDbEntity
  8
0
100
AcDbBlockEnd
  0
BLOCK
  5
985
330
984
100
AcDbEntity
  8
0
100
AcDbBlockBegin
  2
*D105
 70
     1
 10
0.0
 20
0.0
 30
0.0
  3
*D105
  1

  0
LINE
  5
987
330
984
100
AcDbEntity
  8
0Hatch
 62
     1
370
    -2
100
AcDbLine
 10
136738.3810074077
 20
54122.4272454648
 30
0.0
 11
136553.3810820769
 21
54122.4272454648
 31
0.0
  0
INSERT
  5
988
330
984
100
AcDbEntity
  8
0Hatch
 62
     1
370
    -2
100
AcDbBlockReference
  2
B-DIM
 10
136768.3810074077
 20
54122.4272454648
 30
0.0
 41
30.0
 42
30.0
 43
30.0
  0
INSERT
  5
989
330
984
100
AcDbEntity
  8
0Hatch
 62
     1
370
    -2
100
AcDbBlockReference
  2
B-DIM
 10
136523.3810820769
 20
54122.4272454648
 30
0.0
 41
30.0
 42
30.0
 43
30.0
 50
180.0
  0
MTEXT
  5
98A
330
984
100
AcDbEntity
  8
0Hatch
 62
    10
100
AcDbMText
 10
136645.8810447424
 20
54202.4272454648
 30
0.0
 40
80.0
 41
0.0
 71
     5
 72
     1
  1
\A1;245
  7
ROMANS
 73
     1
 44
1.0
1001
ACAD
1000
MTEXTBEGIN
1070
    73
1070
     1
1070
    44
1040
1.0
1070
    74
1070
     0
1000
MTEXTEND
  0
POINT
  5
98B
330
984
100
AcDbEntity
  8
DEFPOINTS
 62
     0
100
AcDbPoint
 10
136768.3810074077
 20
53480.65367050896
 30
0.0
  0
POINT
  5
98C
330
984
100
AcDbEntity
  8
DEFPOINTS
 62
     0
100
AcDbPoint
 10
136523.3810820769
 20
53430.65356422314
 30
0.0
  0
POINT
  5
98D
330
984
100
AcDbEntity
  8
DEFPOINTS
 62
     0
100
AcDbPoint
 10
136523.3810820769
 20
54122.4272454648
 30
0.0
  0
ENDBLK
  5
986
330
984
100
AcDbEntity
  8
0
100
AcDbBlockEnd
  0
BLOCK
  5
98F
330
98E
100
AcDbEntity
  8
0
100
AcDbBlockBegin
  2
*D106
 70
     1
 10
0.0
 20
0.0
 30
0.0
  3
*D106
  1

  0
LINE
  5
991
330
98E
100
AcDbEntity
  8
0Hatch
 62
     1
370
    -2
100
AcDbLine
 10
137885.026726911
 20
53400.65356422314
 30
0.0
 11
137885.026726911
 21
53370.65356422314
 31
0.0
  0
LINE
  5
992
330
98E
100
AcDbEntity
  8
0Hatch
 62
     1
370
    -2
100
AcDbLine
 10
137885.026726911
 20
53510.65367050896
 30
0.0
 11
137885.026726911
 21
53540.65367050896
 31
0.0
  0
MTEXT
  5
993
330
98E
100
AcDbEntity
  8
0Hatch
 62
    10
100
AcDbMText
 10
137805.0267269109
 20
53568.60382051611
 30
0.0
 40
80.0
 41
0.0
 71
     5
 72
     1
  1
\A1;50
  7
ROMANS
 11
0.0000000000000001
 21
1.0
 31
0.0
 73
     1
 44
1.0
1001
ACAD
1000
MTEXTBEGIN
1070
    73
1070
     1
1070
    44
1040
1.0
1070
    74
1070
     0
1000
MTEXTEND
  0
LINE
  5
994
330
98E
100
AcDbEntity
  8
0Hatch
 62
     1
370
    -2
100
AcDbLine
 10
137885.026726911
 20
53430.65356422314
 30
0.0
 11
137885.026726911
 21
53480.65367050896
 31
0.0
  0
INSERT
  5
995
330
98E
100
AcDbEntity
  8
0Hatch
 62
     1
370
    -2
100
AcDbBlockReference
  2
B-DIM
 10
137885.026726911
 20
53430.65356422314
 30
0.0
 41
30.0
 42
30.0
 43
30.0
 50
90.0
  0
INSERT
  5
996
330
98E
100
AcDbEntity
  8
0Hatch
 62
     1
370
    -2
100
AcDbBlockReference
  2
B-DIM
 10
137885.026726911
 20
53480.65367050896
 30
0.0
 41
30.0
 42
30.0
 43
30.0
 50
270.0
  0
POINT
  5
997
330
98E
100
AcDbEntity
  8
DEFPOINTS
 62
     0
100
AcDbPoint
 10
137490.3807855392
 20
53430.65356422314
 30
0.0
  0
POINT
  5
998
330
98E
100
AcDbEntity
  8
DEFPOINTS
 62
     0
100
AcDbPoint
 10
137170.3807007797
 20
53480.65367050896
 30
0.0
  0
POINT
  5
999
330
98E
100
AcDbEntity
  8
DEFPOINTS
 62
     0
100
AcDbPoint
 10
137885.026726911
 20
53480.65367050896
 30
0.0
  0
ENDBLK
  5
990
330
98E
100
AcDbEntity
  8
0
100
AcDbBlockEnd
  0
BLOCK
  5
99B
330
99A
100
AcDbEntity
  8
0
100
AcDbBlockBegin
  2
*D107
 70
     1
 10
0.0
 20
0.0
 30
0.0
  3
*D107
  1

  0
LINE
  5
99D
330
99A
100
AcDbEntity
  8
0Hatch
 62
     1
370
    -2
100
AcDbLine
 10
137885.026726911
 20
52621.65380534426
 30
0.0
 11
137885.026726911
 21
53400.65356422314
 31
0.0
  0
INSERT
  5
99E
330
99A
100
AcDbEntity
  8
0Hatch
 62
     1
370
    -2
100
AcDbBlockReference
  2
B-DIM
 10
137885.026726911
 20
52591.65380534426
 30
0.0
 41
30.0
 42
30.0
 43
30.0
 50
270.0
  0
INSERT
  5
99F
330
99A
100
AcDbEntity
  8
0Hatch
 62
     1
370
    -2
100
AcDbBlockReference
  2
B-DIM
 10
137885.026726911
 20
53430.65356422314
 30
0.0
 41
30.0
 42
30.0
 43
30.0
 50
90.0
  0
MTEXT
  5
9A0
330
99A
100
AcDbEntity
  8
0Hatch
 62
    10
100
AcDbMText
 10
137805.0267269109
 20
53011.15368478373
 30
0.0
 40
80.0
 41
0.0
 71
     5
 72
     1
  1
\A1;839
  7
ROMANS
 11
0.0000000000000001
 21
1.0
 31
0.0
 73
     1
 44
1.0
1001
ACAD
1000
MTEXTBEGIN
1070
    73
1070
     1
1070
    44
1040
1.0
1070
    74
1070
     0
1000
MTEXTEND
  0
POINT
  5
9A1
330
99A
100
AcDbEntity
  8
DEFPOINTS
 62
     0
100
AcDbPoint
 10
137490.3807855392
 20
52591.65380534426
 30
0.0
  0
POINT
  5
9A2
330
99A
100
AcDbEntity
  8
DEFPOINTS
 62
     0
100
AcDbPoint
 10
137490.3807855392
 20
53430.65356422314
 30
0.0
  0
POINT
  5
9A3
330
99A
100
AcDbEntity
  8
DEFPOINTS
 62
     0
100
AcDbPoint
 10
137885.026726911
 20
53430.65356422314
 30
0.0
  0
ENDBLK
  5
99C
330
99A
100
AcDbEntity
  8
0
100
AcDbBlockEnd
  0
BLOCK
  5
9A5
330
9A4
100
AcDbEntity
  8
0
100
AcDbBlockBegin
  2
*D108
 70
     1
 10
0.0
 20
0.0
 30
0.0
  3
*D108
  1

  0
LINE
  5
9A7
330
9A4
100
AcDbEntity
  8
0Hatch
 62
     1
370
    -2
100
AcDbLine
 10
141151.2053049738
 20
54328.07014177075
 30
0.0
 11
140244.2056015116
 21
54328.07014177075
 31
0.0
  0
INSERT
  5
9A8
330
9A4
100
AcDbEntity
  8
0Hatch
 62
     1
370
    -2
100
AcDbBlockReference
  2
B-DIM
 10
141181.2053049738
 20
54328.07014177075
 30
0.0
 41
30.0
 42
30.0
 43
30.0
  0
INSERT
  5
9A9
330
9A4
100
AcDbEntity
  8
0Hatch
 62
     1
370
    -2
100
AcDbBlockReference
  2
B-DIM
 10
140214.2056015115
 20
54328.07014177075
 30
0.0
 41
30.0
 42
30.0
 43
30.0
 50
180.0
  0
MTEXT
  5
9AA
330
9A4
100
AcDbEntity
  8
0Hatch
 62
    10
100
AcDbMText
 10
140697.7054532426
 20
54408.07014177075
 30
0.0
 40
80.0
 41
0.0
 71
     5
 72
     1
  1
\A1;967
  7
ROMANS
 73
     1
 44
1.0
1001
ACAD
1000
MTEXTBEGIN
1070
    73
1070
     1
1070
    44
1040
1.0
1070
    74
1070
     0
1000
MTEXTEND
  0
POINT
  5
9AB
330
9A4
100
AcDbEntity
  8
DEFPOINTS
 62
     0
100
AcDbPoint
 10
141181.2053049738
 20
53430.65356422314
 30
0.0
  0
POINT
  5
9AC
330
9A4
100
AcDbEntity
  8
DEFPOINTS
 62
     0
100
AcDbPoint
 10
140214.2056015115
 20
53430.65356422314
 30
0.0
  0
POINT
  5
9AD
330
9A4
100
AcDbEntity
  8
DEFPOINTS
 62
     0
100
AcDbPoint
 10
140214.2056015115
 20
54328.07014177075
 30
0.0
  0
ENDBLK
  5
9A6
330
9A4
100
AcDbEntity
  8
0
100
AcDbBlockEnd
  0
BLOCK
  5
9AF
330
9AE
100
AcDbEntity
  8
0
100
AcDbBlockBegin
  2
*D109
 70
     1
 10
0.0
 20
0.0
 30
0.0
  3
*D109
  1

  0
LINE
  5
9B1
330
9AE
100
AcDbEntity
  8
0Hatch
 62
     1
370
    -2
100
AcDbLine
 10
139819.5596601397
 20
52526.65375226865
 30
0.0
 11
139819.5596601397
 21
52561.65380534426
 31
0.0
  0
MTEXT
  5
9B2
330
9AE
100
AcDbEntity
  8
0Hatch
 62
    10
100
AcDbMText
 10
139746.8012550572
 20
52420.48255371995
 30
0.0
 40
80.0
 41
0.0
 71
     5
 72
     1
  1
\A1;95
  7
ROMANS
 11
0.0000000000000001
 21
1.0
 31
0.0
 73
     1
 44
1.0
1001
ACAD
1000
MTEXTBEGIN
1070
    73
1070
     1
1070
    44
1040
1.0
1070
    74
1070
     0
1000
MTEXTEND
  0
INSERT
  5
9B3
330
9AE
100
AcDbEntity
  8
0Hatch
 62
     1
370
    -2
100
AcDbBlockReference
  2
B-DIM
 10
139819.5596601397
 20
52496.65375226864
 30
0.0
 41
30.0
 42
30.0
 43
30.0
 50
270.0
  0
INSERT
  5
9B4
330
9AE
100
AcDbEntity
  8
0Hatch
 62
     1
370
    -2
100
AcDbBlockReference
  2
B-DIM
 10
139819.5596601397
 20
52591.65380534426
 30
0.0
 41
30.0
 42
30.0
 43
30.0
 50
90.0
  0
POINT
  5
9B5
330
9AE
100
AcDbEntity
  8
DEFPOINTS
 62
     0
100
AcDbPoint
 10
140727.205471291
 20
52496.65375226864
 30
0.0
  0
POINT
  5
9B6
330
9AE
100
AcDbEntity
  8
DEFPOINTS
 62
     0
100
AcDbPoint
 10
140214.2056015115
 20
52591.65380534426
 30
0.0
  0
POINT
  5
9B7
330
9AE
100
AcDbEntity
  8
DEFPOINTS
 62
     0
100
AcDbPoint
 10
139819.5596601397
 20
52591.65380534426
 30
0.0
  0
ENDBLK
  5
9B0
330
9AE
100
AcDbEntity
  8
0
100
AcDbBlockEnd
  0
BLOCK
  5
9B9
330
9B8
100
AcDbEntity
  8
0
100
AcDbBlockBegin
  2
*D110
 70
     1
 10
0.0
 20
0.0
 30
0.0
  3
*D110
  1

  0
LINE
  5
9BB
330
9B8
100
AcDbEntity
  8
0Hatch
 62
     1
370
    -2
100
AcDbLine
 10
139819.5596601397
 20
52621.65380534426
 30
0.0
 11
139819.5596601397
 21
53400.65356422314
 31
0.0
  0
INSERT
  5
9BC
330
9B8
100
AcDbEntity
  8
0Hatch
 62
     1
370
    -2
100
AcDbBlockReference
  2
B-DIM
 10
139819.5596601397
 20
52591.65380534426
 30
0.0
 41
30.0
 42
30.0
 43
30.0
 50
270.0
  0
INSERT
  5
9BD
330
9B8
100
AcDbEntity
  8
0Hatch
 62
     1
370
    -2
100
AcDbBlockReference
  2
B-DIM
 10
139819.5596601397
 20
53430.65356422314
 30
0.0
 41
30.0
 42
30.0
 43
30.0
 50
90.0
  0
MTEXT
  5
9BE
330
9B8
100
AcDbEntity
  8
0Hatch
 62
    10
100
AcDbMText
 10
139739.5596601398
 20
53011.15368478373
 30
0.0
 40
80.0
 41
0.0
 71
     5
 72
     1
  1
\A1;839
  7
ROMANS
 11
0.0000000000000001
 21
1.0
 31
0.0
 73
     1
 44
1.0
1001
ACAD
1000
MTEXTBEGIN
1070
    73
1070
     1
1070
    44
1040
1.0
1070
    74
1070
     0
1000
MTEXTEND
  0
POINT
  5
9BF
330
9B8
100
AcDbEntity
  8
DEFPOINTS
 62
     0
100
AcDbPoint
 10
140214.2056015115
 20
52591.65380534426
 30
0.0
  0
POINT
  5
9C0
330
9B8
100
AcDbEntity
  8
DEFPOINTS
 62
     0
100
AcDbPoint
 10
140214.2056015115
 20
53430.65356422314
 30
0.0
  0
POINT
  5
9C1
330
9B8
100
AcDbEntity
  8
DEFPOINTS
 62
     0
100
AcDbPoint
 10
139819.5596601397
 20
53430.65356422314
 30
0.0
  0
ENDBLK
  5
9BA
330
9B8
100
AcDbEntity
  8
0
100
AcDbBlockEnd
  0
BLOCK
  5
9C3
330
9C2
100
AcDbEntity
  8
0
100
AcDbBlockBegin
  2
*D111
 70
     1
 10
0.0
 20
0.0
 30
0.0
  3
*D111
  1

  0
LINE
  5
9C5
330
9C2
100
AcDbEntity
  8
0Hatch
 62
     1
370
    -2
100
AcDbLine
 10
139819.5596601397
 20
53400.65356422314
 30
0.0
 11
139819.5596601397
 21
53370.65356422314
 31
0.0
  0
LINE
  5
9C6
330
9C2
100
AcDbEntity
  8
0Hatch
 62
     1
370
    -2
100
AcDbLine
 10
139819.5596601397
 20
53510.65367050896
 30
0.0
 11
139819.5596601397
 21
53540.65367050896
 31
0.0
  0
MTEXT
  5
9C7
330
9C2
100
AcDbEntity
  8
0Hatch
 62
    10
100
AcDbMText
 10
139739.5596601398
 20
53598.08873677049
 30
0.0
 40
80.0
 41
0.0
 71
     5
 72
     1
  1
\A1;50
  7
ROMANS
 11
0.0000000000000001
 21
1.0
 31
0.0
 73
     1
 44
1.0
1001
ACAD
1000
MTEXTBEGIN
1070
    73
1070
     1
1070
    44
1040
1.0
1070
    74
1070
     0
1000
MTEXTEND
  0
LINE
  5
9C8
330
9C2
100
AcDbEntity
  8
0Hatch
 62
     1
370
    -2
100
AcDbLine
 10
139819.5596601397
 20
53430.65356422314
 30
0.0
 11
139819.5596601397
 21
53480.65367050896
 31
0.0
  0
INSERT
  5
9C9
330
9C2
100
AcDbEntity
  8
0Hatch
 62
     1
370
    -2
100
AcDbBlockReference
  2
B-DIM
 10
139819.5596601397
 20
53430.65356422314
 30
0.0
 41
30.0
 42
30.0
 43
30.0
 50
90.0
  0
INSERT
  5
9CA
330
9C2
100
AcDbEntity
  8
0Hatch
 62
     1
370
    -2
100
AcDbBlockReference
  2
B-DIM
 10
139819.5596601397
 20
53480.65367050896
 30
0.0
 41
30.0
 42
30.0
 43
30.0
 50
270.0
  0
POINT
  5
9CB
330
9C2
100
AcDbEntity
  8
DEFPOINTS
 62
     0
100
AcDbPoint
 10
140214.2056015115
 20
53430.65356422314
 30
0.0
  0
POINT
  5
9CC
330
9C2
100
AcDbEntity
  8
DEFPOINTS
 62
     0
100
AcDbPoint
 10
140534.205686271
 20
53480.65367050896
 30
0.0
  0
POINT
  5
9CD
330
9C2
100
AcDbEntity
  8
DEFPOINTS
 62
     0
100
AcDbPoint
 10
139819.5596601397
 20
53480.65367050896
 30
0.0
  0
ENDBLK
  5
9C4
330
9C2
100
AcDbEntity
  8
0
100
AcDbBlockEnd
  0
BLOCK
  5
9CF
330
9CE
100
AcDbEntity
  8
0
100
AcDbBlockBegin
  2
*D112
 70
     1
 10
0.0
 20
0.0
 30
0.0
  3
*D112
  1

  0
LINE
  5
9D1
330
9CE
100
AcDbEntity
  8
0Hatch
 62
     1
370
    -2
100
AcDbLine
 10
139632.6882159151
 20
53450.65367050896
 30
0.0
 11
139632.6882159151
 21
52526.65375226865
 31
0.0
  0
INSERT
  5
9D2
330
9CE
100
AcDbEntity
  8
0Hatch
 62
     1
370
    -2
100
AcDbBlockReference
  2
B-DIM
 10
139632.6882159151
 20
53480.65367050896
 30
0.0
 41
30.0
 42
30.0
 43
30.0
 50
90.0
  0
INSERT
  5
9D3
330
9CE
100
AcDbEntity
  8
0Hatch
 62
     1
370
    -2
100
AcDbBlockReference
  2
B-DIM
 10
139632.6882159151
 20
52496.65375226864
 30
0.0
 41
30.0
 42
30.0
 43
30.0
 50
270.0
  0
MTEXT
  5
9D4
330
9CE
100
AcDbEntity
  8
0Hatch
 62
    10
100
AcDbMText
 10
139552.6882159151
 20
52988.65371138882
 30
0.0
 40
80.0
 41
0.0
 71
     5
 72
     1
  1
\A1;984
  7
ROMANS
 11
0.0000000000000001
 21
1.0
 31
0.0
 73
     1
 44
1.0
1001
ACAD
1000
MTEXTBEGIN
1070
    73
1070
     1
1070
    44
1040
1.0
1070
    74
1070
     0
1000
MTEXTEND
  0
POINT
  5
9D5
330
9CE
100
AcDbEntity
  8
DEFPOINTS
 62
     0
100
AcDbPoint
 10
140534.205686271
 20
53480.65367050896
 30
0.0
  0
POINT
  5
9D6
330
9CE
100
AcDbEntity
  8
DEFPOINTS
 62
     0
100
AcDbPoint
 10
140727.205471291
 20
52496.65375226864
 30
0.0
  0
POINT
  5
9D7
330
9CE
100
AcDbEntity
  8
DEFPOINTS
 62
     0
100
AcDbPoint
 10
139632.6882159151
 20
52496.65375226864
 30
0.0
  0
ENDBLK
  5
9D0
330
9CE
100
AcDbEntity
  8
0
100
AcDbBlockEnd
  0
BLOCK
  5
9D9
330
9D8
100
AcDbEntity
  8
0
100
AcDbBlockBegin
  2
*D113
 70
     1
 10
0.0
 20
0.0
 30
0.0
  3
*D113
  1

  0
LINE
  5
9DB
330
9D8
100
AcDbEntity
  8
0Hatch
 62
     1
370
    -2
100
AcDbLine
 10
141787.2981661993
 20
52526.65375226865
 30
0.0
 11
141787.2981661993
 21
52763.65366904271
 31
0.0
  0
INSERT
  5
9DC
330
9D8
100
AcDbEntity
  8
0Hatch
 62
     1
370
    -2
100
AcDbBlockReference
  2
B-DIM
 10
141787.2981661993
 20
52496.65375226864
 30
0.0
 41
30.0
 42
30.0
 43
30.0
 50
270.0
  0
INSERT
  5
9DD
330
9D8
100
AcDbEntity
  8
0Hatch
 62
     1
370
    -2
100
AcDbBlockReference
  2
B-DIM
 10
141787.2981661993
 20
52793.6536690427
 30
0.0
 41
30.0
 42
30.0
 43
30.0
 50
90.0
  0
MTEXT
  5
9DE
330
9D8
100
AcDbEntity
  8
0Hatch
 62
    10
100
AcDbMText
 10
141707.2981661992
 20
52645.1537106557
 30
0.0
 40
80.0
 41
0.0
 71
     5
 72
     1
  1
\A1;297
  7
ROMANS
 11
0.0000000000000001
 21
1.0
 31
0.0
 73
     1
 44
1.0
1001
ACAD
1000
MTEXTBEGIN
1070
    73
1070
     1
1070
    44
1040
1.0
1070
    74
1070
     0
1000
MTEXTEND
  0
POINT
  5
9DF
330
9D8
100
AcDbEntity
  8
DEFPOINTS
 62
     0
100
AcDbPoint
 10
141181.2053049738
 20
52496.65375226864
 30
0.0
  0
POINT
  5
9E0
330
9D8
100
AcDbEntity
  8
DEFPOINTS
 62
     0
100
AcDbPoint
 10
141226.2054006309
 20
52793.6536690427
 30
0.0
  0
POINT
  5
9E1
330
9D8
100
AcDbEntity
  8
DEFPOINTS
 62
     0
100
AcDbPoint
 10
141787.2981661993
 20
52793.6536690427
 30
0.0
  0
ENDBLK
  5
9DA
330
9D8
100
AcDbEntity
  8
0
100
AcDbBlockEnd
  0
BLOCK
  5
9E3
330
9E2
100
AcDbEntity
  8
0
100
AcDbBlockBegin
  2
*D114
 70
     1
 10
0.0
 20
0.0
 30
0.0
  3
*D114
  1

  0
LINE
  5
9E5
330
9E2
100
AcDbEntity
  8
0Hatch
 62
     1
370
    -2
100
AcDbLine
 10
141787.2981661993
 20
52823.6536690427
 30
0.0
 11
141787.2981661993
 21
53053.6536900307
 31
0.0
  0
INSERT
  5
9E6
330
9E2
100
AcDbEntity
  8
0Hatch
 62
     1
370
    -2
100
AcDbBlockReference
  2
B-DIM
 10
141787.2981661993
 20
52793.6536690427
 30
0.0
 41
30.0
 42
30.0
 43
30.0
 50
270.0
  0
INSERT
  5
9E7
330
9E2
100
AcDbEntity
  8
0Hatch
 62
     1
370
    -2
100
AcDbBlockReference
  2
B-DIM
 10
141787.2981661993
 20
53083.6536900307
 30
0.0
 41
30.0
 42
30.0
 43
30.0
 50
90.0
  0
MTEXT
  5
9E8
330
9E2
100
AcDbEntity
  8
0Hatch
 62
    10
100
AcDbMText
 10
141707.2981661992
 20
52938.65367953673
 30
0.0
 40
80.0
 41
0.0
 71
     5
 72
     1
  1
\A1;290
  7
ROMANS
 11
0.0000000000000001
 21
1.0
 31
0.0
 73
     1
 44
1.0
1001
ACAD
1000
MTEXTBEGIN
1070
    73
1070
     1
1070
    44
1040
1.0
1070
    74
1070
     0
1000
MTEXTEND
  0
POINT
  5
9E9
330
9E2
100
AcDbEntity
  8
DEFPOINTS
 62
     0
100
AcDbPoint
 10
141226.2054006309
 20
52793.6536690427
 30
0.0
  0
POINT
  5
9EA
330
9E2
100
AcDbEntity
  8
DEFPOINTS
 62
     0
100
AcDbPoint
 10
141226.2054006309
 20
53083.6536900307
 30
0.0
  0
POINT
  5
9EB
330
9E2
100
AcDbEntity
  8
DEFPOINTS
 62
     0
100
AcDbPoint
 10
141787.2981661993
 20
53083.6536900307
 30
0.0
  0
ENDBLK
  5
9E4
330
9E2
100
AcDbEntity
  8
0
100
AcDbBlockEnd
  0
BLOCK
  5
9ED
330
9EC
100
AcDbEntity
  8
0
100
AcDbBlockBegin
  2
*D115
 70
     1
 10
0.0
 20
0.0
 30
0.0
  3
*D115
  1

  0
LINE
  5
9EF
330
9EC
100
AcDbEntity
  8
0Hatch
 62
     1
370
    -2
100
AcDbLine
 10
141787.2981661993
 20
53113.6536900307
 30
0.0
 11
141787.2981661993
 21
53400.65356422313
 31
0.0
  0
INSERT
  5
9F0
330
9EC
100
AcDbEntity
  8
0Hatch
 62
     1
370
    -2
100
AcDbBlockReference
  2
B-DIM
 10
141787.2981661993
 20
53083.6536900307
 30
0.0
 41
30.0
 42
30.0
 43
30.0
 50
270.0
  0
INSERT
  5
9F1
330
9EC
100
AcDbEntity
  8
0Hatch
 62
     1
370
    -2
100
AcDbBlockReference
  2
B-DIM
 10
141787.2981661993
 20
53430.65356422314
 30
0.0
 41
30.0
 42
30.0
 43
30.0
 50
90.0
  0
MTEXT
  5
9F2
330
9EC
100
AcDbEntity
  8
0Hatch
 62
    10
100
AcDbMText
 10
141707.2981661992
 20
53257.15362712694
 30
0.0
 40
80.0
 41
0.0
 71
     5
 72
     1
  1
\A1;347
  7
ROMANS
 11
0.0000000000000001
 21
1.0
 31
0.0
 73
     1
 44
1.0
1001
ACAD
1000
MTEXTBEGIN
1070
    73
1070
     1
1070
    44
1040
1.0
1070
    74
1070
     0
1000
MTEXTEND
  0
POINT
  5
9F3
330
9EC
100
AcDbEntity
  8
DEFPOINTS
 62
     0
100
AcDbPoint
 10
141226.2054006309
 20
53083.6536900307
 30
0.0
  0
POINT
  5
9F4
330
9EC
100
AcDbEntity
  8
DEFPOINTS
 62
     0
100
AcDbPoint
 10
141181.2053049738
 20
53430.65356422314
 30
0.0
  0
POINT
  5
9F5
330
9EC
100
AcDbEntity
  8
DEFPOINTS
 62
     0
100
AcDbPoint
 10
141787.2981661993
 20
53430.65356422314
 30
0.0
  0
ENDBLK
  5
9EE
330
9EC
100
AcDbEntity
  8
0
100
AcDbBlockEnd
  0
BLOCK
  5
9F7
330
9F6
100
AcDbEntity
  8
0
100
AcDbBlockBegin
  2
*D116
 70
     1
 10
0.0
 20
0.0
 30
0.0
  3
*D116
  1

  0
LINE
  5
9F9
330
9F6
100
AcDbEntity
  8
0Hatch
 62
     1
370
    -2
100
AcDbLine
 10
141787.2981661993
 20
53400.65356422313
 30
0.0
 11
141787.2981661993
 21
53370.65356422313
 31
0.0
  0
LINE
  5
9FA
330
9F6
100
AcDbEntity
  8
0Hatch
 62
     1
370
    -2
100
AcDbLine
 10
141787.2981661993
 20
53510.65367050896
 30
0.0
 11
141787.2981661993
 21
53540.65367050896
 31
0.0
  0
MTEXT
  5
9FB
330
9F6
100
AcDbEntity
  8
0Hatch
 62
    10
100
AcDbMText
 10
141721.7995038201
 20
53595.50556429222
 30
0.0
 40
80.0
 41
0.0
 71
     5
 72
     1
  1
\A1;50
  7
ROMANS
 11
0.0000000000000001
 21
1.0
 31
0.0
 73
     1
 44
1.0
1001
ACAD
1000
MTEXTBEGIN
1070
    73
1070
     1
1070
    44
1040
1.0
1070
    74
1070
     0
1000
MTEXTEND
  0
LINE
  5
9FC
330
9F6
100
AcDbEntity
  8
0Hatch
 62
     1
370
    -2
100
AcDbLine
 10
141787.2981661993
 20
53430.65356422314
 30
0.0
 11
141787.2981661993
 21
53480.65367050896
 31
0.0
  0
INSERT
  5
9FD
330
9F6
100
AcDbEntity
  8
0Hatch
 62
     1
370
    -2
100
AcDbBlockReference
  2
B-DIM
 10
141787.2981661993
 20
53430.65356422314
 30
0.0
 41
30.0
 42
30.0
 43
30.0
 50
90.0
  0
INSERT
  5
9FE
330
9F6
100
AcDbEntity
  8
0Hatch
 62
     1
370
    -2
100
AcDbBlockReference
  2
B-DIM
 10
141787.2981661993
 20
53480.65367050896
 30
0.0
 41
30.0
 42
30.0
 43
30.0
 50
270.0
  0
POINT
  5
9FF
330
9F6
100
AcDbEntity
  8
DEFPOINTS
 62
     0
100
AcDbPoint
 10
141181.2053049738
 20
53430.65356422314
 30
0.0
  0
POINT
  5
A00
330
9F6
100
AcDbEntity
  8
DEFPOINTS
 62
     0
100
AcDbPoint
 10
140936.205379643
 20
53480.65367050896
 30
0.0
  0
POINT
  5
A01
330
9F6
100
AcDbEntity
  8
DEFPOINTS
 62
     0
100
AcDbPoint
 10
141787.2981661993
 20
53480.65367050896
 30
0.0
  0
ENDBLK
  5
9F8
330
9F6
100
AcDbEntity
  8
0
100
AcDbBlockEnd
  0
BLOCK
  5
A03
330
A02
100
AcDbEntity
  8
0
100
AcDbBlockBegin
  2
*D117
 70
     1
 10
0.0
 20
0.0
 30
0.0
  3
*D117
  1

  0
LINE
  5
A05
330
A02
100
AcDbEntity
  8
0Hatch
 62
     1
370
    -2
100
AcDbLine
 10
141991.9703584854
 20
53450.65367050896
 30
0.0
 11
141991.9703584854
 21
52526.65375226865
 31
0.0
  0
INSERT
  5
A06
330
A02
100
AcDbEntity
  8
0Hatch
 62
     1
370
    -2
100
AcDbBlockReference
  2
B-DIM
 10
141991.9703584854
 20
53480.65367050896
 30
0.0
 41
30.0
 42
30.0
 43
30.0
 50
90.0
  0
INSERT
  5
A07
330
A02
100
AcDbEntity
  8
0Hatch
 62
     1
370
    -2
100
AcDbBlockReference
  2
B-DIM
 10
141991.9703584854
 20
52496.65375226864
 30
0.0
 41
30.0
 42
30.0
 43
30.0
 50
270.0
  0
MTEXT
  5
A08
330
A02
100
AcDbEntity
  8
0Hatch
 62
    10
100
AcDbMText
 10
141911.9703584854
 20
52988.65371138882
 30
0.0
 40
80.0
 41
0.0
 71
     5
 72
     1
  1
\A1;984
  7
ROMANS
 11
0.0000000000000001
 21
1.0
 31
0.0
 73
     1
 44
1.0
1001
ACAD
1000
MTEXTBEGIN
1070
    73
1070
     1
1070
    44
1040
1.0
1070
    74
1070
     0
1000
MTEXTEND
  0
POINT
  5
A09
330
A02
100
AcDbEntity
  8
DEFPOINTS
 62
     0
100
AcDbPoint
 10
140936.205379643
 20
53480.65367050896
 30
0.0
  0
POINT
  5
A0A
330
A02
100
AcDbEntity
  8
DEFPOINTS
 62
     0
100
AcDbPoint
 10
141181.2053049738
 20
52496.65375226864
 30
0.0
  0
POINT
  5
A0B
330
A02
100
AcDbEntity
  8
DEFPOINTS
 62
     0
100
AcDbPoint
 10
141991.9703584854
 20
52496.65375226864
 30
0.0
  0
ENDBLK
  5
A04
330
A02
100
AcDbEntity
  8
0
100
AcDbBlockEnd
  0
BLOCK
  5
A0D
330
A0C
100
AcDbEntity
  8
0
100
AcDbBlockBegin
  2
*D118
 70
     1
 10
0.0
 20
0.0
 30
0.0
  3
*D118
  1

  0
LINE
  5
A0F
330
A0C
100
AcDbEntity
  8
0Hatch
 62
     1
370
    -2
100
AcDbLine
 10
140966.205379643
 20
54122.4272454648
 30
0.0
 11
141151.2053049738
 21
54122.4272454648
 31
0.0
  0
INSERT
  5
A10
330
A0C
100
AcDbEntity
  8
0Hatch
 62
     1
370
    -2
100
AcDbBlockReference
  2
B-DIM
 10
140936.205379643
 20
54122.4272454648
 30
0.0
 41
30.0
 42
30.0
 43
30.0
 50
180.0
  0
INSERT
  5
A11
330
A0C
100
AcDbEntity
  8
0Hatch
 62
     1
370
    -2
100
AcDbBlockReference
  2
B-DIM
 10
141181.2053049738
 20
54122.4272454648
 30
0.0
 41
30.0
 42
30.0
 43
30.0
  0
MTEXT
  5
A12
330
A0C
100
AcDbEntity
  8
0Hatch
 62
    10
100
AcDbMText
 10
141058.7053423084
 20
54202.4272454648
 30
0.0
 40
80.0
 41
0.0
 71
     5
 72
     1
  1
\A1;245
  7
ROMANS
 73
     1
 44
1.0
1001
ACAD
1000
MTEXTBEGIN
1070
    73
1070
     1
1070
    44
1040
1.0
1070
    74
1070
     0
1000
MTEXTEND
  0
POINT
  5
A13
330
A0C
100
AcDbEntity
  8
DEFPOINTS
 62
     0
100
AcDbPoint
 10
140936.205379643
 20
53480.65367050896
 30
0.0
  0
POINT
  5
A14
330
A0C
100
AcDbEntity
  8
DEFPOINTS
 62
     0
100
AcDbPoint
 10
141181.2053049738
 20
53430.65356422314
 30
0.0
  0
POINT
  5
A15
330
A0C
100
AcDbEntity
  8
DEFPOINTS
 62
     0
100
AcDbPoint
 10
141181.2053049738
 20
54122.4272454648
 30
0.0
  0
ENDBLK
  5
A0E
330
A0C
100
AcDbEntity
  8
0
100
AcDbBlockEnd
  0
BLOCK
  5
A17
330
A16
100
AcDbEntity
  8
0
100
AcDbBlockBegin
  2
*D119
 70
     1
 10
0.0
 20
0.0
 30
0.0
  3
*D119
  1

  0
LINE
  5
A19
330
A16
100
AcDbEntity
  8
0Hatch
 62
     1
370
    -2
100
AcDbLine
 10
141151.2053049738
 20
51761.29493751301
 30
0.0
 11
140757.205471291
 21
51761.29493751301
 31
0.0
  0
INSERT
  5
A1A
330
A16
100
AcDbEntity
  8
0Hatch
 62
     1
370
    -2
100
AcDbBlockReference
  2
B-DIM
 10
141181.2053049738
 20
51761.29493751301
 30
0.0
 41
30.0
 42
30.0
 43
30.0
  0
INSERT
  5
A1B
330
A16
100
AcDbEntity
  8
0Hatch
 62
     1
370
    -2
100
AcDbBlockReference
  2
B-DIM
 10
140727.205471291
 20
51761.29493751301
 30
0.0
 41
30.0
 42
30.0
 43
30.0
 50
180.0
  0
MTEXT
  5
A1C
330
A16
100
AcDbEntity
  8
0Hatch
 62
    10
100
AcDbMText
 10
140954.2053881324
 20
51841.29493751301
 30
0.0
 40
80.0
 41
0.0
 71
     5
 72
     1
  1
\A1;454
  7
ROMANS
 73
     1
 44
1.0
1001
ACAD
1000
MTEXTBEGIN
1070
    73
1070
     1
1070
    44
1040
1.0
1070
    74
1070
     0
1000
MTEXTEND
  0
POINT
  5
A1D
330
A16
100
AcDbEntity
  8
DEFPOINTS
 62
     0
100
AcDbPoint
 10
141181.2053049738
 20
52496.65375226864
 30
0.0
  0
POINT
  5
A1E
330
A16
100
AcDbEntity
  8
DEFPOINTS
 62
     0
100
AcDbPoint
 10
140727.205471291
 20
52496.65375226864
 30
0.0
  0
POINT
  5
A1F
330
A16
100
AcDbEntity
  8
DEFPOINTS
 62
     0
100
AcDbPoint
 10
140727.205471291
 20
51761.29493751301
 30
0.0
  0
ENDBLK
  5
A18
330
A16
100
AcDbEntity
  8
0
100
AcDbBlockEnd
  0
BLOCK
  5
A21
330
A20
100
AcDbEntity
  8
0
100
AcDbBlockBegin
  2
*D120
 70
     1
 10
0.0
 20
0.0
 30
0.0
  3
*D120
  1

  0
LINE
  5
A23
330
A20
100
AcDbEntity
  8
0Hatch
 62
     1
370
    -2
100
AcDbLine
 10
141151.2053049738
 20
51761.29493751301
 30
0.0
 11
141121.2053049738
 21
51761.29493751301
 31
0.0
  0
LINE
  5
A24
330
A20
100
AcDbEntity
  8
0Hatch
 62
     1
370
    -2
100
AcDbLine
 10
141256.205400631
 20
51761.29493751301
 30
0.0
 11
141286.205400631
 21
51761.29493751301
 31
0.0
  0
MTEXT
  5
A25
330
A20
100
AcDbEntity
  8
0Hatch
 62
    10
100
AcDbMText
 10
141306.7727233697
 20
51841.29493751301
 30
0.0
 40
80.0
 41
0.0
 71
     5
 72
     1
  1
\A1;45
  7
ROMANS
 73
     1
 44
1.0
1001
ACAD
1000
MTEXTBEGIN
1070
    73
1070
     1
1070
    44
1040
1.0
1070
    74
1070
     0
1000
MTEXTEND
  0
LINE
  5
A26
330
A20
100
AcDbEntity
  8
0Hatch
 62
     1
370
    -2
100
AcDbLine
 10
141181.2053049738
 20
51761.29493751301
 30
0.0
 11
141226.2054006309
 21
51761.29493751301
 31
0.0
  0
INSERT
  5
A27
330
A20
100
AcDbEntity
  8
0Hatch
 62
     1
370
    -2
100
AcDbBlockReference
  2
B-DIM
 10
141181.2053049738
 20
51761.29493751301
 30
0.0
 41
30.0
 42
30.0
 43
30.0
  0
INSERT
  5
A28
330
A20
100
AcDbEntity
  8
0Hatch
 62
     1
370
    -2
100
AcDbBlockReference
  2
B-DIM
 10
141226.2054006309
 20
51761.29493751301
 30
0.0
 41
30.0
 42
30.0
 43
30.0
 50
180.0
  0
POINT
  5
A29
330
A20
100
AcDbEntity
  8
DEFPOINTS
 62
     0
100
AcDbPoint
 10
141181.2053049738
 20
52496.65375226864
 30
0.0
  0
POINT
  5
A2A
330
A20
100
AcDbEntity
  8
DEFPOINTS
 62
     0
100
AcDbPoint
 10
141226.2054006309
 20
52793.6536690427
 30
0.0
  0
POINT
  5
A2B
330
A20
100
AcDbEntity
  8
DEFPOINTS
 62
     0
100
AcDbPoint
 10
141226.2054006309
 20
51761.29493751301
 30
0.0
  0
ENDBLK
  5
A22
330
A20
100
AcDbEntity
  8
0
100
AcDbBlockEnd
  0
BLOCK
  5
A2D
330
A2C
100
AcDbEntity
  8
0
100
AcDbBlockBegin
  2
*D121
 70
     1
 10
0.0
 20
0.0
 30
0.0
  3
*D121
  1

  0
LINE
  5
A2F
330
A2C
100
AcDbEntity
  8
0Hatch
 62
     1
370
    -2
100
AcDbLine
 10
140906.205379643
 20
54122.4272454648
 30
0.0
 11
140564.205686271
 21
54122.4272454648
 31
0.0
  0
INSERT
  5
A30
330
A2C
100
AcDbEntity
  8
0Hatch
 62
     1
370
    -2
100
AcDbBlockReference
  2
B-DIM
 10
140936.205379643
 20
54122.4272454648
 30
0.0
 41
30.0
 42
30.0
 43
30.0
  0
INSERT
  5
A31
330
A2C
100
AcDbEntity
  8
0Hatch
 62
     1
370
    -2
100
AcDbBlockReference
  2
B-DIM
 10
140534.205686271
 20
54122.4272454648
 30
0.0
 41
30.0
 42
30.0
 43
30.0
 50
180.0
  0
MTEXT
  5
A32
330
A2C
100
AcDbEntity
  8
0Hatch
 62
    10
100
AcDbMText
 10
140735.205532957
 20
54202.4272454648
 30
0.0
 40
80.0
 41
0.0
 71
     5
 72
     1
  1
\A1;402
  7
ROMANS
 73
     1
 44
1.0
1001
ACAD
1000
MTEXTBEGIN
1070
    73
1070
     1
1070
    44
1040
1.0
1070
    74
1070
     0
1000
MTEXTEND
  0
POINT
  5
A33
330
A2C
100
AcDbEntity
  8
DEFPOINTS
 62
     0
100
AcDbPoint
 10
140936.205379643
 20
53480.65367050896
 30
0.0
  0
POINT
  5
A34
330
A2C
100
AcDbEntity
  8
DEFPOINTS
 62
     0
100
AcDbPoint
 10
140534.205686271
 20
53480.65367050896
 30
0.0
  0
POINT
  5
A35
330
A2C
100
AcDbEntity
  8
DEFPOINTS
 62
     0
100
AcDbPoint
 10
140534.205686271
 20
54122.4272454648
 30
0.0
  0
ENDBLK
  5
A2E
330
A2C
100
AcDbEntity
  8
0
100
AcDbBlockEnd
  0
BLOCK
  5
A37
330
A36
100
AcDbEntity
  8
0
100
AcDbBlockBegin
  2
*D122
 70
     1
 10
0.0
 20
0.0
 30
0.0
  3
*D122
  1

  0
LINE
  5
A39
330
A36
100
AcDbEntity
  8
0Hatch
 62
     1
370
    -2
100
AcDbLine
 10
140504.205686271
 20
54122.4272454648
 30
0.0
 11
140244.2056015116
 21
54122.4272454648
 31
0.0
  0
INSERT
  5
A3A
330
A36
100
AcDbEntity
  8
0Hatch
 62
     1
370
    -2
100
AcDbBlockReference
  2
B-DIM
 10
140534.205686271
 20
54122.4272454648
 30
0.0
 41
30.0
 42
30.0
 43
30.0
  0
INSERT
  5
A3B
330
A36
100
AcDbEntity
  8
0Hatch
 62
     1
370
    -2
100
AcDbBlockReference
  2
B-DIM
 10
140214.2056015115
 20
54122.4272454648
 30
0.0
 41
30.0
 42
30.0
 43
30.0
 50
180.0
  0
MTEXT
  5
A3C
330
A36
100
AcDbEntity
  8
0Hatch
 62
    10
100
AcDbMText
 10
140374.2056438913
 20
54202.4272454648
 30
0.0
 40
80.0
 41
0.0
 71
     5
 72
     1
  1
\A1;320
  7
ROMANS
 73
     1
 44
1.0
1001
ACAD
1000
MTEXTBEGIN
1070
    73
1070
     1
1070
    44
1040
1.0
1070
    74
1070
     0
1000
MTEXTEND
  0
POINT
  5
A3D
330
A36
100
AcDbEntity
  8
DEFPOINTS
 62
     0
100
AcDbPoint
 10
140534.205686271
 20
53480.65367050896
 30
0.0
  0
POINT
  5
A3E
330
A36
100
AcDbEntity
  8
DEFPOINTS
 62
     0
100
AcDbPoint
 10
140214.2056015115
 20
53430.65356422314
 30
0.0
  0
POINT
  5
A3F
330
A36
100
AcDbEntity
  8
DEFPOINTS
 62
     0
100
AcDbPoint
 10
140214.2056015115
 20
54122.4272454648
 30
0.0
  0
ENDBLK
  5
A38
330
A36
100
AcDbEntity
  8
0
100
AcDbBlockEnd
  0
BLOCK
  5
A41
330
A40
100
AcDbEntity
  8
0
100
AcDbBlockBegin
  2
*D123
 70
     1
 10
0.0
 20
0.0
 30
0.0
  3
*D123
  1

  0
LINE
  5
A43
330
A40
100
AcDbEntity
  8
0Hatch
 62
     1
370
    -2
100
AcDbLine
 10
140697.2054712911
 20
51761.29493751301
 30
0.0
 11
140244.2056015116
 21
51761.29493751301
 31
0.0
  0
INSERT
  5
A44
330
A40
100
AcDbEntity
  8
0Hatch
 62
     1
370
    -2
100
AcDbBlockReference
  2
B-DIM
 10
140727.205471291
 20
51761.29493751301
 30
0.0
 41
30.0
 42
30.0
 43
30.0
  0
INSERT
  5
A45
330
A40
100
AcDbEntity
  8
0Hatch
 62
     1
370
    -2
100
AcDbBlockReference
  2
B-DIM
 10
140214.2056015115
 20
51761.29493751301
 30
0.0
 41
30.0
 42
30.0
 43
30.0
 50
180.0
  0
MTEXT
  5
A46
330
A40
100
AcDbEntity
  8
0Hatch
 62
    10
100
AcDbMText
 10
140470.7055364013
 20
51841.29493751301
 30
0.0
 40
80.0
 41
0.0
 71
     5
 72
     1
  1
\A1;513
  7
ROMANS
 73
     1
 44
1.0
1001
ACAD
1000
MTEXTBEGIN
1070
    73
1070
     1
1070
    44
1040
1.0
1070
    74
1070
     0
1000
MTEXTEND
  0
POINT
  5
A47
330
A40
100
AcDbEntity
  8
DEFPOINTS
 62
     0
100
AcDbPoint
 10
140727.205471291
 20
52496.65375226864
 30
0.0
  0
POINT
  5
A48
330
A40
100
AcDbEntity
  8
DEFPOINTS
 62
     0
100
AcDbPoint
 10
140214.2056015115
 20
52591.65380534426
 30
0.0
  0
POINT
  5
A49
330
A40
100
AcDbEntity
  8
DEFPOINTS
 62
     0
100
AcDbPoint
 10
140214.2056015115
 20
51761.29493751301
 30
0.0
  0
ENDBLK
  5
A42
330
A40
100
AcDbEntity
  8
0
100
AcDbBlockEnd
  0
BLOCK
  5
A4B
330
A4A
100
AcDbEntity
  8
0
100
AcDbBlockBegin
  2
*D124
 70
     1
 10
0.0
 20
0.0
 30
0.0
  3
*D124
  1

  0
LINE
  5
A4D
330
A4A
100
AcDbEntity
  8
0Hatch
 62
     1
370
    -2
100
AcDbLine
 10
141196.205400631
 20
51571.14769014
 30
0.0
 11
140244.2056015116
 21
51571.14769014
 31
0.0
  0
INSERT
  5
A4E
330
A4A
100
AcDbEntity
  8
0Hatch
 62
     1
370
    -2
100
AcDbBlockReference
  2
B-DIM
 10
141226.2054006309
 20
51571.14769014
 30
0.0
 41
30.0
 42
30.0
 43
30.0
  0
INSERT
  5
A4F
330
A4A
100
AcDbEntity
  8
0Hatch
 62
     1
370
    -2
100
AcDbBlockReference
  2
B-DIM
 10
140214.2056015115
 20
51571.14769014
 30
0.0
 41
30.0
 42
30.0
 43
30.0
 50
180.0
  0
MTEXT
  5
A50
330
A4A
100
AcDbEntity
  8
0Hatch
 62
    10
100
AcDbMText
 10
140720.2055010712
 20
51651.14769014
 30
0.0
 40
80.0
 41
0.0
 71
     5
 72
     1
  1
\A1;1012
  7
ROMANS
 73
     1
 44
1.0
1001
ACAD
1000
MTEXTBEGIN
1070
    73
1070
     1
1070
    44
1040
1.0
1070
    74
1070
     0
1000
MTEXTEND
  0
POINT
  5
A51
330
A4A
100
AcDbEntity
  8
DEFPOINTS
 62
     0
100
AcDbPoint
 10
141226.2054006309
 20
52793.6536690427
 30
0.0
  0
POINT
  5
A52
330
A4A
100
AcDbEntity
  8
DEFPOINTS
 62
     0
100
AcDbPoint
 10
140214.2056015115
 20
52591.65380534426
 30
0.0
  0
POINT
  5
A53
330
A4A
100
AcDbEntity
  8
DEFPOINTS
 62
     0
100
AcDbPoint
 10
140214.2056015115
 20
51571.14769014
 30
0.0
  0
ENDBLK
  5
A4C
330
A4A
100
AcDbEntity
  8
0
100
AcDbBlockEnd
  0
BLOCK
  5
BD9
330
BD8
100
AcDbEntity
  8
0
100
AcDbBlockBegin
  2
*D147
 70
     1
 10
0.0
 20
0.0
 30
0.0
  3
*D147
  1

  0
LINE
  5
EC6
330
BD8
100
AcDbEntity
  8
0Hatch
 62
     1
370
    -2
100
AcDbLine
 10
138097.7934845134
 20
49046.73760558217
 30
0.0
 11
137912.7935591826
 21
49046.73760558217
 31
0.0
  0
INSERT
  5
EC7
330
BD8
100
AcDbEntity
  8
0Hatch
 62
     1
370
    -2
100
AcDbBlockReference
  2
B-DIM
 10
138127.7934845134
 20
49046.73760558217
 30
0.0
 41
30.0
 42
30.0
 43
30.0
  0
INSERT
  5
EC8
330
BD8
100
AcDbEntity
  8
0Hatch
 62
     1
370
    -2
100
AcDbBlockReference
  2
B-DIM
 10
137882.7935591826
 20
49046.73760558217
 30
0.0
 41
30.0
 42
30.0
 43
30.0
 50
180.0
  0
MTEXT
  5
EC9
330
BD8
100
AcDbEntity
  8
0Hatch
 62
    10
100
AcDbMText
 10
138005.293521848
 20
49126.73760558217
 30
0.0
 40
80.0
 41
0.0
 71
     5
 72
     1
  1
\A1;245
  7
ROMANS
 73
     1
 44
1.0
1001
ACAD
1000
MTEXTBEGIN
1070
    73
1070
     1
1070
    44
1040
1.0
1070
    74
1070
     0
1000
MTEXTEND
  0
POINT
  5
ECA
330
BD8
100
AcDbEntity
  8
DEFPOINTS
 62
     0
100
AcDbPoint
 10
138127.7934845134
 20
48404.96403062632
 30
0.0
  0
POINT
  5
ECB
330
BD8
100
AcDbEntity
  8
DEFPOINTS
 62
     0
100
AcDbPoint
 10
137882.7935591826
 20
48354.9639243405
 30
0.0
  0
POINT
  5
ECC
330
BD8
100
AcDbEntity
  8
DEFPOINTS
 62
     0
100
AcDbPoint
 10
137882.7935591826
 20
49046.73760558217
 30
0.0
  0
ENDBLK
  5
BDA
330
BD8
100
AcDbEntity
  8
0
100
AcDbBlockEnd
  0
BLOCK
  5
BE3
330
BE2
100
AcDbEntity
  8
0
100
AcDbBlockBegin
  2
*D148
 70
     1
 10
0.0
 20
0.0
 30
0.0
  3
*D148
  1

  0
LINE
  5
C8F
330
BE2
100
AcDbEntity
  8
0Hatch
 62
     1
370
    -2
100
AcDbLine
 10
137276.7006979571
 20
47655.96411238601
 30
0.0
 11
137276.7006979571
 21
47892.96402916007
 31
0.0
  0
INSERT
  5
C90
330
BE2
100
AcDbEntity
  8
0Hatch
 62
     1
370
    -2
100
AcDbBlockReference
  2
B-DIM
 10
137276.7006979571
 20
47625.96411238601
 30
0.0
 41
30.0
 42
30.0
 43
30.0
 50
270.0
  0
INSERT
  5
C91
330
BE2
100
AcDbEntity
  8
0Hatch
 62
     1
370
    -2
100
AcDbBlockReference
  2
B-DIM
 10
137276.7006979571
 20
47922.96402916007
 30
0.0
 41
30.0
 42
30.0
 43
30.0
 50
90.0
  0
MTEXT
  5
C92
330
BE2
100
AcDbEntity
  8
0Hatch
 62
    10
100
AcDbMText
 10
137196.7006979571
 20
47774.46407077306
 30
0.0
 40
80.0
 41
0.0
 71
     5
 72
     1
  1
\A1;297
  7
ROMANS
 11
0.0000000000000001
 21
1.0
 31
0.0
 73
     1
 44
1.0
1001
ACAD
1000
MTEXTBEGIN
1070
    73
1070
     1
1070
    44
1040
1.0
1070
    74
1070
     0
1000
MTEXTEND
  0
POINT
  5
C93
330
BE2
100
AcDbEntity
  8
DEFPOINTS
 62
     0
100
AcDbPoint
 10
137882.7935591826
 20
47625.96411238601
 30
0.0
  0
POINT
  5
C94
330
BE2
100
AcDbEntity
  8
DEFPOINTS
 62
     0
100
AcDbPoint
 10
137837.7934635254
 20
47922.96402916007
 30
0.0
  0
POINT
  5
C95
330
BE2
100
AcDbEntity
  8
DEFPOINTS
 62
     0
100
AcDbPoint
 10
137276.7006979571
 20
47922.96402916007
 30
0.0
  0
ENDBLK
  5
BE4
330
BE2
100
AcDbEntity
  8
0
100
AcDbBlockEnd
  0
BLOCK
  5
BED
330
BEC
100
AcDbEntity
  8
0
100
AcDbBlockBegin
  2
*D149
 70
     1
 10
0.0
 20
0.0
 30
0.0
  3
*D149
  1

  0
LINE
  5
C96
330
BEC
100
AcDbEntity
  8
0Hatch
 62
     1
370
    -2
100
AcDbLine
 10
137276.7006979571
 20
47952.96402916007
 30
0.0
 11
137276.7006979571
 21
48182.96405014806
 31
0.0
  0
INSERT
  5
C97
330
BEC
100
AcDbEntity
  8
0Hatch
 62
     1
370
    -2
100
AcDbBlockReference
  2
B-DIM
 10
137276.7006979571
 20
47922.96402916007
 30
0.0
 41
30.0
 42
30.0
 43
30.0
 50
270.0
  0
INSERT
  5
C98
330
BEC
100
AcDbEntity
  8
0Hatch
 62
     1
370
    -2
100
AcDbBlockReference
  2
B-DIM
 10
137276.7006979571
 20
48212.96405014806
 30
0.0
 41
30.0
 42
30.0
 43
30.0
 50
90.0
  0
MTEXT
  5
C99
330
BEC
100
AcDbEntity
  8
0Hatch
 62
    10
100
AcDbMText
 10
137196.7006979571
 20
48067.96403965409
 30
0.0
 40
80.0
 41
0.0
 71
     5
 72
     1
  1
\A1;290
  7
ROMANS
 11
0.0000000000000001
 21
1.0
 31
0.0
 73
     1
 44
1.0
1001
ACAD
1000
MTEXTBEGIN
1070
    73
1070
     1
1070
    44
1040
1.0
1070
    74
1070
     0
1000
MTEXTEND
  0
POINT
  5
C9A
330
BEC
100
AcDbEntity
  8
DEFPOINTS
 62
     0
100
AcDbPoint
 10
137837.7934635254
 20
47922.96402916007
 30
0.0
  0
POINT
  5
C9B
330
BEC
100
AcDbEntity
  8
DEFPOINTS
 62
     0
100
AcDbPoint
 10
137837.7934635254
 20
48212.96405014806
 30
0.0
  0
POINT
  5
C9C
330
BEC
100
AcDbEntity
  8
DEFPOINTS
 62
     0
100
AcDbPoint
 10
137276.7006979571
 20
48212.96405014806
 30
0.0
  0
ENDBLK
  5
BEE
330
BEC
100
AcDbEntity
  8
0
100
AcDbBlockEnd
  0
BLOCK
  5
BF7
330
BF6
100
AcDbEntity
  8
0
100
AcDbBlockBegin
  2
*D150
 70
     1
 10
0.0
 20
0.0
 30
0.0
  3
*D150
  1

  0
LINE
  5
C9D
330
BF6
100
AcDbEntity
  8
0Hatch
 62
     1
370
    -2
100
AcDbLine
 10
137276.7006979571
 20
48242.96405014806
 30
0.0
 11
137276.7006979571
 21
48529.9639243405
 31
0.0
  0
INSERT
  5
C9E
330
BF6
100
AcDbEntity
  8
0Hatch
 62
     1
370
    -2
100
AcDbBlockReference
  2
B-DIM
 10
137276.7006979571
 20
48212.96405014806
 30
0.0
 41
30.0
 42
30.0
 43
30.0
 50
270.0
  0
INSERT
  5
C9F
330
BF6
100
AcDbEntity
  8
0Hatch
 62
     1
370
    -2
100
AcDbBlockReference
  2
B-DIM
 10
137276.7006979571
 20
48559.9639243405
 30
0.0
 41
30.0
 42
30.0
 43
30.0
 50
90.0
  0
MTEXT
  5
CA0
330
BF6
100
AcDbEntity
  8
0Hatch
 62
    10
100
AcDbMText
 10
137196.7006979571
 20
48386.46398724431
 30
0.0
 40
80.0
 41
0.0
 71
     5
 72
     1
  1
\A1;347
  7
ROMANS
 11
0.0000000000000001
 21
1.0
 31
0.0
 73
     1
 44
1.0
1001
ACAD
1000
MTEXTBEGIN
1070
    73
1070
     1
1070
    44
1040
1.0
1070
    74
1070
     0
1000
MTEXTEND
  0
POINT
  5
CA1
330
BF6
100
AcDbEntity
  8
DEFPOINTS
 62
     0
100
AcDbPoint
 10
137837.7934635254
 20
48212.96405014806
 30
0.0
  0
POINT
  5
CA2
330
BF6
100
AcDbEntity
  8
DEFPOINTS
 62
     0
100
AcDbPoint
 10
137882.7935591826
 20
48559.9639243405
 30
0.0
  0
POINT
  5
CA3
330
BF6
100
AcDbEntity
  8
DEFPOINTS
 62
     0
100
AcDbPoint
 10
137276.7006979571
 20
48559.9639243405
 30
0.0
  0
ENDBLK
  5
BF8
330
BF6
100
AcDbEntity
  8
0
100
AcDbBlockEnd
  0
BLOCK
  5
C01
330
C00
100
AcDbEntity
  8
0
100
AcDbBlockBegin
  2
*D151
 70
     1
 10
0.0
 20
0.0
 30
0.0
  3
*D151
  1

  0
LINE
  5
CA4
330
C00
100
AcDbEntity
  8
0Hatch
 62
     1
370
    -2
100
AcDbLine
 10
137276.7006979571
 20
48529.9639243405
 30
0.0
 11
137276.7006979571
 21
48499.9639243405
 31
0.0
  0
LINE
  5
CA5
330
C00
100
AcDbEntity
  8
0Hatch
 62
     1
370
    -2
100
AcDbLine
 10
137276.7006979571
 20
48639.96403062632
 30
0.0
 11
137276.7006979571
 21
48669.96403062632
 31
0.0
  0
MTEXT
  5
CA6
330
C00
100
AcDbEntity
  8
0Hatch
 62
    10
100
AcDbMText
 10
137196.7006979571
 20
48669.34972104059
 30
0.0
 40
80.0
 41
0.0
 71
     5
 72
     1
  1
\A1;50
  7
ROMANS
 11
0.0000000000000001
 21
1.0
 31
0.0
 73
     1
 44
1.0
1001
ACAD
1000
MTEXTBEGIN
1070
    73
1070
     1
1070
    44
1040
1.0
1070
    74
1070
     0
1000
MTEXTEND
  0
LINE
  5
CA7
330
C00
100
AcDbEntity
  8
0Hatch
 62
     1
370
    -2
100
AcDbLine
 10
137276.7006979571
 20
48559.9639243405
 30
0.0
 11
137276.7006979571
 21
48609.96403062632
 31
0.0
  0
INSERT
  5
CA8
330
C00
100
AcDbEntity
  8
0Hatch
 62
     1
370
    -2
100
AcDbBlockReference
  2
B-DIM
 10
137276.7006979571
 20
48559.9639243405
 30
0.0
 41
30.0
 42
30.0
 43
30.0
 50
90.0
  0
INSERT
  5
CA9
330
C00
100
AcDbEntity
  8
0Hatch
 62
     1
370
    -2
100
AcDbBlockReference
  2
B-DIM
 10
137276.7006979571
 20
48609.96403062632
 30
0.0
 41
30.0
 42
30.0
 43
30.0
 50
270.0
  0
POINT
  5
CAA
330
C00
100
AcDbEntity
  8
DEFPOINTS
 62
     0
100
AcDbPoint
 10
137882.7935591826
 20
48559.9639243405
 30
0.0
  0
POINT
  5
CAB
330
C00
100
AcDbEntity
  8
DEFPOINTS
 62
     0
100
AcDbPoint
 10
138127.7934845134
 20
48609.96403062632
 30
0.0
  0
POINT
  5
CAC
330
C00
100
AcDbEntity
  8
DEFPOINTS
 62
     0
100
AcDbPoint
 10
137276.7006979571
 20
48609.96403062632
 30
0.0
  0
ENDBLK
  5
C02
330
C00
100
AcDbEntity
  8
0
100
AcDbBlockEnd
  0
BLOCK
  5
C0D
330
C0C
100
AcDbEntity
  8
0
100
AcDbBlockBegin
  2
*D152
 70
     1
 10
0.0
 20
0.0
 30
0.0
  3
*D152
  1

  0
LINE
  5
CAD
330
C0C
100
AcDbEntity
  8
0Hatch
 62
     1
370
    -2
100
AcDbLine
 10
137912.7935591826
 20
46890.60529763037
 30
0.0
 11
138306.7933928653
 21
46890.60529763037
 31
0.0
  0
INSERT
  5
CAE
330
C0C
100
AcDbEntity
  8
0Hatch
 62
     1
370
    -2
100
AcDbBlockReference
  2
B-DIM
 10
137882.7935591826
 20
46890.60529763037
 30
0.0
 41
30.0
 42
30.0
 43
30.0
 50
180.0
  0
INSERT
  5
CAF
330
C0C
100
AcDbEntity
  8
0Hatch
 62
     1
370
    -2
100
AcDbBlockReference
  2
B-DIM
 10
138336.7933928653
 20
46890.60529763037
 30
0.0
 41
30.0
 42
30.0
 43
30.0
  0
MTEXT
  5
CB0
330
C0C
100
AcDbEntity
  8
0Hatch
 62
    10
100
AcDbMText
 10
138109.7934760239
 20
46970.60529763037
 30
0.0
 40
80.0
 41
0.0
 71
     5
 72
     1
  1
\A1;454
  7
ROMANS
 73
     1
 44
1.0
1001
ACAD
1000
MTEXTBEGIN
1070
    73
1070
     1
1070
    44
1040
1.0
1070
    74
1070
     0
1000
MTEXTEND
  0
POINT
  5
CB1
330
C0C
100
AcDbEntity
  8
DEFPOINTS
 62
     0
100
AcDbPoint
 10
137882.7935591826
 20
47625.96411238601
 30
0.0
  0
POINT
  5
CB2
330
C0C
100
AcDbEntity
  8
DEFPOINTS
 62
     0
100
AcDbPoint
 10
138336.7933928653
 20
47625.96411238601
 30
0.0
  0
POINT
  5
CB3
330
C0C
100
AcDbEntity
  8
DEFPOINTS
 62
     0
100
AcDbPoint
 10
138336.7933928653
 20
46890.60529763037
 30
0.0
  0
ENDBLK
  5
C0E
330
C0C
100
AcDbEntity
  8
0
100
AcDbBlockEnd
  0
BLOCK
  5
C17
330
C16
100
AcDbEntity
  8
0
100
AcDbBlockBegin
  2
*D153
 70
     1
 10
0.0
 20
0.0
 30
0.0
  3
*D153
  1

  0
LINE
  5
CB4
330
C16
100
AcDbEntity
  8
0Hatch
 62
     1
370
    -2
100
AcDbLine
 10
137912.7935591826
 20
46890.60529763037
 30
0.0
 11
137942.7935591826
 21
46890.60529763037
 31
0.0
  0
LINE
  5
CB5
330
C16
100
AcDbEntity
  8
0Hatch
 62
     1
370
    -2
100
AcDbLine
 10
137807.7934635254
 20
46890.60529763037
 30
0.0
 11
137777.7934635254
 21
46890.60529763037
 31
0.0
  0
MTEXT
  5
CB6
330
C16
100
AcDbEntity
  8
0Hatch
 62
    10
100
AcDbMText
 10
137757.2261407867
 20
46970.60529763037
 30
0.0
 40
80.0
 41
0.0
 71
     5
 72
     1
  1
\A1;45
  7
ROMANS
 73
     1
 44
1.0
1001
ACAD
1000
MTEXTBEGIN
1070
    73
1070
     1
1070
    44
1040
1.0
1070
    74
1070
     0
1000
MTEXTEND
  0
LINE
  5
CB7
330
C16
100
AcDbEntity
  8
0Hatch
 62
     1
370
    -2
100
AcDbLine
 10
137882.7935591826
 20
46890.60529763037
 30
0.0
 11
137837.7934635254
 21
46890.60529763037
 31
0.0
  0
INSERT
  5
CB8
330
C16
100
AcDbEntity
  8
0Hatch
 62
     1
370
    -2
100
AcDbBlockReference
  2
B-DIM
 10
137882.7935591826
 20
46890.60529763037
 30
0.0
 41
30.0
 42
30.0
 43
30.0
 50
180.0
  0
INSERT
  5
CB9
330
C16
100
AcDbEntity
  8
0Hatch
 62
     1
370
    -2
100
AcDbBlockReference
  2
B-DIM
 10
137837.7934635254
 20
46890.60529763037
 30
0.0
 41
30.0
 42
30.0
 43
30.0
  0
POINT
  5
CBA
330
C16
100
AcDbEntity
  8
DEFPOINTS
 62
     0
100
AcDbPoint
 10
137882.7935591826
 20
47625.96411238601
 30
0.0
  0
POINT
  5
CBB
330
C16
100
AcDbEntity
  8
DEFPOINTS
 62
     0
100
AcDbPoint
 10
137837.7934635254
 20
47922.96402916007
 30
0.0
  0
POINT
  5
CBC
330
C16
100
AcDbEntity
  8
DEFPOINTS
 62
     0
100
AcDbPoint
 10
137837.7934635254
 20
46890.60529763037
 30
0.0
  0
ENDBLK
  5
C18
330
C16
100
AcDbEntity
  8
0
100
AcDbBlockEnd
  0
BLOCK
  5
C23
330
C22
100
AcDbEntity
  8
0
100
AcDbBlockBegin
  2
*D154
 70
     1
 10
0.0
 20
0.0
 30
0.0
  3
*D154
  1

  0
LINE
  5
CBD
330
C22
100
AcDbEntity
  8
0Hatch
 62
     1
370
    -2
100
AcDbLine
 10
137072.028505671
 20
48579.96403062633
 30
0.0
 11
137072.028505671
 21
47655.96411238601
 31
0.0
  0
INSERT
  5
CBE
330
C22
100
AcDbEntity
  8
0Hatch
 62
     1
370
    -2
100
AcDbBlockReference
  2
B-DIM
 10
137072.028505671
 20
48609.96403062632
 30
0.0
 41
30.0
 42
30.0
 43
30.0
 50
90.0
  0
INSERT
  5
CBF
330
C22
100
AcDbEntity
  8
0Hatch
 62
     1
370
    -2
100
AcDbBlockReference
  2
B-DIM
 10
137072.028505671
 20
47625.96411238601
 30
0.0
 41
30.0
 42
30.0
 43
30.0
 50
270.0
  0
MTEXT
  5
CC0
330
C22
100
AcDbEntity
  8
0Hatch
 62
    10
100
AcDbMText
 10
136992.028505671
 20
48117.96407150619
 30
0.0
 40
80.0
 41
0.0
 71
     5
 72
     1
  1
\A1;984
  7
ROMANS
 11
0.0000000000000001
 21
1.0
 31
0.0
 73
     1
 44
1.0
1001
ACAD
1000
MTEXTBEGIN
1070
    73
1070
     1
1070
    44
1040
1.0
1070
    74
1070
     0
1000
MTEXTEND
  0
POINT
  5
CC1
330
C22
100
AcDbEntity
  8
DEFPOINTS
 62
     0
100
AcDbPoint
 10
138127.7934845134
 20
48609.96403062632
 30
0.0
  0
POINT
  5
CC2
330
C22
100
AcDbEntity
  8
DEFPOINTS
 62
     0
100
AcDbPoint
 10
137882.7935591826
 20
47625.96411238601
 30
0.0
  0
POINT
  5
CC3
330
C22
100
AcDbEntity
  8
DEFPOINTS
 62
     0
100
AcDbPoint
 10
137072.028505671
 20
47625.96411238601
 30
0.0
  0
ENDBLK
  5
C24
330
C22
100
AcDbEntity
  8
0
100
AcDbBlockEnd
  0
BLOCK
  5
C2D
330
C2C
100
AcDbEntity
  8
0
100
AcDbBlockBegin
  2
*D155
 70
     1
 10
0.0
 20
0.0
 30
0.0
  3
*D155
  1

  0
LINE
  5
ECD
330
C2C
100
AcDbEntity
  8
0Hatch
 62
     1
370
    -2
100
AcDbLine
 10
138157.7934845134
 20
49046.73760558217
 30
0.0
 11
138499.7931778853
 21
49046.73760558217
 31
0.0
  0
INSERT
  5
ECE
330
C2C
100
AcDbEntity
  8
0Hatch
 62
     1
370
    -2
100
AcDbBlockReference
  2
B-DIM
 10
138127.7934845134
 20
49046.73760558217
 30
0.0
 41
30.0
 42
30.0
 43
30.0
 50
180.0
  0
INSERT
  5
ECF
330
C2C
100
AcDbEntity
  8
0Hatch
 62
     1
370
    -2
100
AcDbBlockReference
  2
B-DIM
 10
138529.7931778853
 20
49046.73760558217
 30
0.0
 41
30.0
 42
30.0
 43
30.0
  0
MTEXT
  5
ED0
330
C2C
100
AcDbEntity
  8
0Hatch
 62
    10
100
AcDbMText
 10
138328.7933311994
 20
49126.73760558217
 30
0.0
 40
80.0
 41
0.0
 71
     5
 72
     1
  1
\A1;402
  7
ROMANS
 73
     1
 44
1.0
1001
ACAD
1000
MTEXTBEGIN
1070
    73
1070
     1
1070
    44
1040
1.0
1070
    74
1070
     0
1000
MTEXTEND
  0
POINT
  5
ED1
330
C2C
100
AcDbEntity
  8
DEFPOINTS
 62
     0
100
AcDbPoint
 10
138127.7934845134
 20
48404.96403062632
 30
0.0
  0
POINT
  5
ED2
330
C2C
100
AcDbEntity
  8
DEFPOINTS
 62
     0
100
AcDbPoint
 10
138529.7931778853
 20
48404.96403062632
 30
0.0
  0
POINT
  5
ED3
330
C2C
100
AcDbEntity
  8
DEFPOINTS
 62
     0
100
AcDbPoint
 10
138529.7931778853
 20
49046.73760558217
 30
0.0
  0
ENDBLK
  5
C2E
330
C2C
100
AcDbEntity
  8
0
100
AcDbBlockEnd
  0
BLOCK
  5
D8A
330
D89
100
AcDbEntity
  8
0
100
AcDbBlockBegin
  2
*D167
 70
     1
 10
0.0
 20
0.0
 30
0.0
  3
*D167
  1

  0
LINE
  5
ED4
330
D89
100
AcDbEntity
  8
0Hatch
 62
     1
370
    -2
100
AcDbLine
 10
139546.7929025373
 20
49046.73760558217
 30
0.0
 11
139204.7932091654
 21
49046.73760558217
 31
0.0
  0
INSERT
  5
ED5
330
D89
100
AcDbEntity
  8
0Hatch
 62
     1
370
    -2
100
AcDbBlockReference
  2
B-DIM
 10
139576.7929025373
 20
49046.73760558217
 30
0.0
 41
30.0
 42
30.0
 43
30.0
  0
INSERT
  5
ED6
330
D89
100
AcDbEntity
  8
0Hatch
 62
     1
370
    -2
100
AcDbBlockReference
  2
B-DIM
 10
139174.7932091654
 20
49046.73760558217
 30
0.0
 41
30.0
 42
30.0
 43
30.0
 50
180.0
  0
MTEXT
  5
ED7
330
D89
100
AcDbEntity
  8
0Hatch
 62
    10
100
AcDbMText
 10
139375.7930558513
 20
49126.73760558217
 30
0.0
 40
80.0
 41
0.0
 71
     5
 72
     1
  1
\A1;402
  7
ROMANS
 73
     1
 44
1.0
1001
ACAD
1000
MTEXTBEGIN
1070
    73
1070
     1
1070
    44
1040
1.0
1070
    74
1070
     0
1000
MTEXTEND
  0
POINT
  5
ED8
330
D89
100
AcDbEntity
  8
DEFPOINTS
 62
     0
100
AcDbPoint
 10
139576.7929025373
 20
48404.96403062632
 30
0.0
  0
POINT
  5
ED9
330
D89
100
AcDbEntity
  8
DEFPOINTS
 62
     0
100
AcDbPoint
 10
139174.7932091654
 20
48404.96403062632
 30
0.0
  0
POINT
  5
EDA
330
D89
100
AcDbEntity
  8
DEFPOINTS
 62
     0
100
AcDbPoint
 10
139174.7932091654
 20
49046.73760558217
 30
0.0
  0
ENDBLK
  5
D8B
330
D89
100
AcDbEntity
  8
0
100
AcDbBlockEnd
  0
BLOCK
  5
D94
330
D93
100
AcDbEntity
  8
0
100
AcDbBlockBegin
  2
*D168
 70
     1
 10
0.0
 20
0.0
 30
0.0
  3
*D168
  1

  0
LINE
  5
E37
330
D93
100
AcDbEntity
  8
0Hatch
 62
     1
370
    -2
100
AcDbLine
 10
139791.7928278681
 20
46890.60529763037
 30
0.0
 11
139761.7928278681
 21
46890.60529763037
 31
0.0
  0
LINE
  5
E38
330
D93
100
AcDbEntity
  8
0Hatch
 62
     1
370
    -2
100
AcDbLine
 10
139896.7929235253
 20
46890.60529763037
 30
0.0
 11
139926.7929235253
 21
46890.60529763037
 31
0.0
  0
MTEXT
  5
E39
330
D93
100
AcDbEntity
  8
0Hatch
 62
    10
100
AcDbMText
 10
139947.360246264
 20
46970.60529763037
 30
0.0
 40
80.0
 41
0.0
 71
     5
 72
     1
  1
\A1;45
  7
ROMANS
 73
     1
 44
1.0
1001
ACAD
1000
MTEXTBEGIN
1070
    73
1070
     1
1070
    44
1040
1.0
1070
    74
1070
     0
1000
MTEXTEND
  0
LINE
  5
E3A
330
D93
100
AcDbEntity
  8
0Hatch
 62
     1
370
    -2
100
AcDbLine
 10
139821.7928278681
 20
46890.60529763037
 30
0.0
 11
139866.7929235253
 21
46890.60529763037
 31
0.0
  0
INSERT
  5
E3B
330
D93
100
AcDbEntity
  8
0Hatch
 62
     1
370
    -2
100
AcDbBlockReference
  2
B-DIM
 10
139821.7928278681
 20
46890.60529763037
 30
0.0
 41
30.0
 42
30.0
 43
30.0
  0
INSERT
  5
E3C
330
D93
100
AcDbEntity
  8
0Hatch
 62
     1
370
    -2
100
AcDbBlockReference
  2
B-DIM
 10
139866.7929235253
 20
46890.60529763037
 30
0.0
 41
30.0
 42
30.0
 43
30.0
 50
180.0
  0
POINT
  5
E3D
330
D93
100
AcDbEntity
  8
DEFPOINTS
 62
     0
100
AcDbPoint
 10
139821.7928278681
 20
47625.96411238601
 30
0.0
  0
POINT
  5
E3E
330
D93
100
AcDbEntity
  8
DEFPOINTS
 62
     0
100
AcDbPoint
 10
139866.7929235253
 20
47922.96402916007
 30
0.0
  0
POINT
  5
E3F
330
D93
100
AcDbEntity
  8
DEFPOINTS
 62
     0
100
AcDbPoint
 10
139866.7929235253
 20
46890.60529763037
 30
0.0
  0
ENDBLK
  5
D95
330
D93
100
AcDbEntity
  8
0
100
AcDbBlockEnd
  0
BLOCK
  5
DA0
330
D9F
100
AcDbEntity
  8
0
100
AcDbBlockBegin
  2
*D169
 70
     1
 10
0.0
 20
0.0
 30
0.0
  3
*D169
  1

  0
LINE
  5
E40
330
D9F
100
AcDbEntity
  8
0Hatch
 62
     1
370
    -2
100
AcDbLine
 10
139791.7928278681
 20
46890.60529763037
 30
0.0
 11
139397.7929941854
 21
46890.60529763037
 31
0.0
  0
INSERT
  5
E41
330
D9F
100
AcDbEntity
  8
0Hatch
 62
     1
370
    -2
100
AcDbBlockReference
  2
B-DIM
 10
139821.7928278681
 20
46890.60529763037
 30
0.0
 41
30.0
 42
30.0
 43
30.0
  0
INSERT
  5
E42
330
D9F
100
AcDbEntity
  8
0Hatch
 62
     1
370
    -2
100
AcDbBlockReference
  2
B-DIM
 10
139367.7929941854
 20
46890.60529763037
 30
0.0
 41
30.0
 42
30.0
 43
30.0
 50
180.0
  0
MTEXT
  5
E43
330
D9F
100
AcDbEntity
  8
0Hatch
 62
    10
100
AcDbMText
 10
139594.7929110268
 20
46970.60529763037
 30
0.0
 40
80.0
 41
0.0
 71
     5
 72
     1
  1
\A1;454
  7
ROMANS
 73
     1
 44
1.0
1001
ACAD
1000
MTEXTBEGIN
1070
    73
1070
     1
1070
    44
1040
1.0
1070
    74
1070
     0
1000
MTEXTEND
  0
POINT
  5
E44
330
D9F
100
AcDbEntity
  8
DEFPOINTS
 62
     0
100
AcDbPoint
 10
139821.7928278681
 20
47625.96411238601
 30
0.0
  0
POINT
  5
E45
330
D9F
100
AcDbEntity
  8
DEFPOINTS
 62
     0
100
AcDbPoint
 10
139367.7929941854
 20
47625.96411238601
 30
0.0
  0
POINT
  5
E46
330
D9F
100
AcDbEntity
  8
DEFPOINTS
 62
     0
100
AcDbPoint
 10
139367.7929941854
 20
46890.60529763037
 30
0.0
  0
ENDBLK
  5
DA1
330
D9F
100
AcDbEntity
  8
0
100
AcDbBlockEnd
  0
BLOCK
  5
DAA
330
DA9
100
AcDbEntity
  8
0
100
AcDbBlockBegin
  2
*D170
 70
     1
 10
0.0
 20
0.0
 30
0.0
  3
*D170
  1

  0
LINE
  5
EDB
330
DA9
100
AcDbEntity
  8
0Hatch
 62
     1
370
    -2
100
AcDbLine
 10
139606.7929025373
 20
49046.73760558217
 30
0.0
 11
139791.7928278681
 21
49046.73760558217
 31
0.0
  0
INSERT
  5
EDC
330
DA9
100
AcDbEntity
  8
0Hatch
 62
     1
370
    -2
100
AcDbBlockReference
  2
B-DIM
 10
139576.7929025373
 20
49046.73760558217
 30
0.0
 41
30.0
 42
30.0
 43
30.0
 50
180.0
  0
INSERT
  5
EDD
330
DA9
100
AcDbEntity
  8
0Hatch
 62
     1
370
    -2
100
AcDbBlockReference
  2
B-DIM
 10
139821.7928278681
 20
49046.73760558217
 30
0.0
 41
30.0
 42
30.0
 43
30.0
  0
MTEXT
  5
EDE
330
DA9
100
AcDbEntity
  8
0Hatch
 62
    10
100
AcDbMText
 10
139699.2928652027
 20
49126.73760558217
 30
0.0
 40
80.0
 41
0.0
 71
     5
 72
     1
  1
\A1;245
  7
ROMANS
 73
     1
 44
1.0
1001
ACAD
1000
MTEXTBEGIN
1070
    73
1070
     1
1070
    44
1040
1.0
1070
    74
1070
     0
1000
MTEXTEND
  0
POINT
  5
EDF
330
DA9
100
AcDbEntity
  8
DEFPOINTS
 62
     0
100
AcDbPoint
 10
139576.7929025373
 20
48404.96403062632
 30
0.0
  0
POINT
  5
EE0
330
DA9
100
AcDbEntity
  8
DEFPOINTS
 62
     0
100
AcDbPoint
 10
139821.7928278681
 20
48354.9639243405
 30
0.0
  0
POINT
  5
EE1
330
DA9
100
AcDbEntity
  8
DEFPOINTS
 62
     0
100
AcDbPoint
 10
139821.7928278681
 20
49046.73760558217
 30
0.0
  0
ENDBLK
  5
DAB
330
DA9
100
AcDbEntity
  8
0
100
AcDbBlockEnd
  0
BLOCK
  5
DB4
330
DB3
100
AcDbEntity
  8
0
100
AcDbBlockBegin
  2
*D171
 70
     1
 10
0.0
 20
0.0
 30
0.0
  3
*D171
  1

  0
LINE
  5
E4E
330
DB3
100
AcDbEntity
  8
0Hatch
 62
     1
370
    -2
100
AcDbLine
 10
140632.5578813797
 20
48579.96403062633
 30
0.0
 11
140632.5578813797
 21
47655.96411238601
 31
0.0
  0
INSERT
  5
E4F
330
DB3
100
AcDbEntity
  8
0Hatch
 62
     1
370
    -2
100
AcDbBlockReference
  2
B-DIM
 10
140632.5578813797
 20
48609.96403062632
 30
0.0
 41
30.0
 42
30.0
 43
30.0
 50
90.0
  0
INSERT
  5
E50
330
DB3
100
AcDbEntity
  8
0Hatch
 62
     1
370
    -2
100
AcDbBlockReference
  2
B-DIM
 10
140632.5578813797
 20
47625.96411238601
 30
0.0
 41
30.0
 42
30.0
 43
30.0
 50
270.0
  0
MTEXT
  5
E51
330
DB3
100
AcDbEntity
  8
0Hatch
 62
    10
100
AcDbMText
 10
140552.5578813797
 20
48117.96407150619
 30
0.0
 40
80.0
 41
0.0
 71
     5
 72
     1
  1
\A1;984
  7
ROMANS
 11
0.0000000000000001
 21
1.0
 31
0.0
 73
     1
 44
1.0
1001
ACAD
1000
MTEXTBEGIN
1070
    73
1070
     1
1070
    44
1040
1.0
1070
    74
1070
     0
1000
MTEXTEND
  0
POINT
  5
E52
330
DB3
100
AcDbEntity
  8
DEFPOINTS
 62
     0
100
AcDbPoint
 10
139576.7929025373
 20
48609.96403062632
 30
0.0
  0
POINT
  5
E53
330
DB3
100
AcDbEntity
  8
DEFPOINTS
 62
     0
100
AcDbPoint
 10
139821.7928278681
 20
47625.96411238601
 30
0.0
  0
POINT
  5
E54
330
DB3
100
AcDbEntity
  8
DEFPOINTS
 62
     0
100
AcDbPoint
 10
140632.5578813797
 20
47625.96411238601
 30
0.0
  0
ENDBLK
  5
DB5
330
DB3
100
AcDbEntity
  8
0
100
AcDbBlockEnd
  0
BLOCK
  5
DBE
330
DBD
100
AcDbEntity
  8
0
100
AcDbBlockBegin
  2
*D172
 70
     1
 10
0.0
 20
0.0
 30
0.0
  3
*D172
  1

  0
LINE
  5
E55
330
DBD
100
AcDbEntity
  8
0Hatch
 62
     1
370
    -2
100
AcDbLine
 10
140427.8856890936
 20
48529.9639243405
 30
0.0
 11
140427.8856890936
 21
48499.9639243405
 31
0.0
  0
LINE
  5
E56
330
DBD
100
AcDbEntity
  8
0Hatch
 62
     1
370
    -2
100
AcDbLine
 10
140427.8856890936
 20
48639.96403062632
 30
0.0
 11
140427.8856890936
 21
48669.96403062632
 31
0.0
  0
MTEXT
  5
E57
330
DBD
100
AcDbEntity
  8
0Hatch
 62
    10
100
AcDbMText
 10
140362.3870267144
 20
48724.81592440959
 30
0.0
 40
80.0
 41
0.0
 71
     5
 72
     1
  1
\A1;50
  7
ROMANS
 11
0.0000000000000001
 21
1.0
 31
0.0
 73
     1
 44
1.0
1001
ACAD
1000
MTEXTBEGIN
1070
    73
1070
     1
1070
    44
1040
1.0
1070
    74
1070
     0
1000
MTEXTEND
  0
LINE
  5
E58
330
DBD
100
AcDbEntity
  8
0Hatch
 62
     1
370
    -2
100
AcDbLine
 10
140427.8856890936
 20
48559.9639243405
 30
0.0
 11
140427.8856890936
 21
48609.96403062632
 31
0.0
  0
INSERT
  5
E59
330
DBD
100
AcDbEntity
  8
0Hatch
 62
     1
370
    -2
100
AcDbBlockReference
  2
B-DIM
 10
140427.8856890936
 20
48559.9639243405
 30
0.0
 41
30.0
 42
30.0
 43
30.0
 50
90.0
  0
INSERT
  5
E5A
330
DBD
100
AcDbEntity
  8
0Hatch
 62
     1
370
    -2
100
AcDbBlockReference
  2
B-DIM
 10
140427.8856890936
 20
48609.96403062632
 30
0.0
 41
30.0
 42
30.0
 43
30.0
 50
270.0
  0
POINT
  5
E5B
330
DBD
100
AcDbEntity
  8
DEFPOINTS
 62
     0
100
AcDbPoint
 10
139821.7928278681
 20
48559.9639243405
 30
0.0
  0
POINT
  5
E5C
330
DBD
100
AcDbEntity
  8
DEFPOINTS
 62
     0
100
AcDbPoint
 10
139576.7929025373
 20
48609.96403062632
 30
0.0
  0
POINT
  5
E5D
330
DBD
100
AcDbEntity
  8
DEFPOINTS
 62
     0
100
AcDbPoint
 10
140427.8856890936
 20
48609.96403062632
 30
0.0
  0
ENDBLK
  5
DBF
330
DBD
100
AcDbEntity
  8
0
100
AcDbBlockEnd
  0
BLOCK
  5
DCA
330
DC9
100
AcDbEntity
  8
0
100
AcDbBlockBegin
  2
*D173
 70
     1
 10
0.0
 20
0.0
 30
0.0
  3
*D173
  1

  0
LINE
  5
E5E
330
DC9
100
AcDbEntity
  8
0Hatch
 62
     1
370
    -2
100
AcDbLine
 10
140427.8856890936
 20
48242.96405014806
 30
0.0
 11
140427.8856890936
 21
48529.9639243405
 31
0.0
  0
INSERT
  5
E5F
330
DC9
100
AcDbEntity
  8
0Hatch
 62
     1
370
    -2
100
AcDbBlockReference
  2
B-DIM
 10
140427.8856890936
 20
48212.96405014806
 30
0.0
 41
30.0
 42
30.0
 43
30.0
 50
270.0
  0
INSERT
  5
E60
330
DC9
100
AcDbEntity
  8
0Hatch
 62
     1
370
    -2
100
AcDbBlockReference
  2
B-DIM
 10
140427.8856890936
 20
48559.9639243405
 30
0.0
 41
30.0
 42
30.0
 43
30.0
 50
90.0
  0
MTEXT
  5
E61
330
DC9
100
AcDbEntity
  8
0Hatch
 62
    10
100
AcDbMText
 10
140347.8856890936
 20
48386.46398724431
 30
0.0
 40
80.0
 41
0.0
 71
     5
 72
     1
  1
\A1;347
  7
ROMANS
 11
0.0000000000000001
 21
1.0
 31
0.0
 73
     1
 44
1.0
1001
ACAD
1000
MTEXTBEGIN
1070
    73
1070
     1
1070
    44
1040
1.0
1070
    74
1070
     0
1000
MTEXTEND
  0
POINT
  5
E62
330
DC9
100
AcDbEntity
  8
DEFPOINTS
 62
     0
100
AcDbPoint
 10
139866.7929235253
 20
48212.96405014806
 30
0.0
  0
POINT
  5
E63
330
DC9
100
AcDbEntity
  8
DEFPOINTS
 62
     0
100
AcDbPoint
 10
139821.7928278681
 20
48559.9639243405
 30
0.0
  0
POINT
  5
E64
330
DC9
100
AcDbEntity
  8
DEFPOINTS
 62
     0
100
AcDbPoint
 10
140427.8856890936
 20
48559.9639243405
 30
0.0
  0
ENDBLK
  5
DCB
330
DC9
100
AcDbEntity
  8
0
100
AcDbBlockEnd
  0
BLOCK
  5
DD4
330
DD3
100
AcDbEntity
  8
0
100
AcDbBlockBegin
  2
*D174
 70
     1
 10
0.0
 20
0.0
 30
0.0
  3
*D174
  1

  0
LINE
  5
E65
330
DD3
100
AcDbEntity
  8
0Hatch
 62
     1
370
    -2
100
AcDbLine
 10
140427.8856890936
 20
47952.96402916007
 30
0.0
 11
140427.8856890936
 21
48182.96405014806
 31
0.0
  0
INSERT
  5
E66
330
DD3
100
AcDbEntity
  8
0Hatch
 62
     1
370
    -2
100
AcDbBlockReference
  2
B-DIM
 10
140427.8856890936
 20
47922.96402916007
 30
0.0
 41
30.0
 42
30.0
 43
30.0
 50
270.0
  0
INSERT
  5
E67
330
DD3
100
AcDbEntity
  8
0Hatch
 62
     1
370
    -2
100
AcDbBlockReference
  2
B-DIM
 10
140427.8856890936
 20
48212.96405014806
 30
0.0
 41
30.0
 42
30.0
 43
30.0
 50
90.0
  0
MTEXT
  5
E68
330
DD3
100
AcDbEntity
  8
0Hatch
 62
    10
100
AcDbMText
 10
140347.8856890936
 20
48067.96403965409
 30
0.0
 40
80.0
 41
0.0
 71
     5
 72
     1
  1
\A1;290
  7
ROMANS
 11
0.0000000000000001
 21
1.0
 31
0.0
 73
     1
 44
1.0
1001
ACAD
1000
MTEXTBEGIN
1070
    73
1070
     1
1070
    44
1040
1.0
1070
    74
1070
     0
1000
MTEXTEND
  0
POINT
  5
E69
330
DD3
100
AcDbEntity
  8
DEFPOINTS
 62
     0
100
AcDbPoint
 10
139866.7929235253
 20
47922.96402916007
 30
0.0
  0
POINT
  5
E6A
330
DD3
100
AcDbEntity
  8
DEFPOINTS
 62
     0
100
AcDbPoint
 10
139866.7929235253
 20
48212.96405014806
 30
0.0
  0
POINT
  5
E6B
330
DD3
100
AcDbEntity
  8
DEFPOINTS
 62
     0
100
AcDbPoint
 10
140427.8856890936
 20
48212.96405014806
 30
0.0
  0
ENDBLK
  5
DD5
330
DD3
100
AcDbEntity
  8
0
100
AcDbBlockEnd
  0
BLOCK
  5
DDE
330
DDD
100
AcDbEntity
  8
0
100
AcDbBlockBegin
  2
*D175
 70
     1
 10
0.0
 20
0.0
 30
0.0
  3
*D175
  1

  0
LINE
  5
E6C
330
DDD
100
AcDbEntity
  8
0Hatch
 62
     1
370
    -2
100
AcDbLine
 10
140427.8856890936
 20
47655.96411238601
 30
0.0
 11
140427.8856890936
 21
47892.96402916007
 31
0.0
  0
INSERT
  5
E6D
330
DDD
100
AcDbEntity
  8
0Hatch
 62
     1
370
    -2
100
AcDbBlockReference
  2
B-DIM
 10
140427.8856890936
 20
47625.96411238601
 30
0.0
 41
30.0
 42
30.0
 43
30.0
 50
270.0
  0
INSERT
  5
E6E
330
DDD
100
AcDbEntity
  8
0Hatch
 62
     1
370
    -2
100
AcDbBlockReference
  2
B-DIM
 10
140427.8856890936
 20
47922.96402916007
 30
0.0
 41
30.0
 42
30.0
 43
30.0
 50
90.0
  0
MTEXT
  5
E6F
330
DDD
100
AcDbEntity
  8
0Hatch
 62
    10
100
AcDbMText
 10
140347.8856890936
 20
47774.46407077306
 30
0.0
 40
80.0
 41
0.0
 71
     5
 72
     1
  1
\A1;297
  7
ROMANS
 11
0.0000000000000001
 21
1.0
 31
0.0
 73
     1
 44
1.0
1001
ACAD
1000
MTEXTBEGIN
1070
    73
1070
     1
1070
    44
1040
1.0
1070
    74
1070
     0
1000
MTEXTEND
  0
POINT
  5
E70
330
DDD
100
AcDbEntity
  8
DEFPOINTS
 62
     0
100
AcDbPoint
 10
139821.7928278681
 20
47625.96411238601
 30
0.0
  0
POINT
  5
E71
330
DDD
100
AcDbEntity
  8
DEFPOINTS
 62
     0
100
AcDbPoint
 10
139866.7929235253
 20
47922.96402916007
 30
0.0
  0
POINT
  5
E72
330
DDD
100
AcDbEntity
  8
DEFPOINTS
 62
     0
100
AcDbPoint
 10
140427.8856890936
 20
47922.96402916007
 30
0.0
  0
ENDBLK
  5
DDF
330
DDD
100
AcDbEntity
  8
0
100
AcDbBlockEnd
  0
BLOCK
  5
E9A
330
E99
100
AcDbEntity
  8
0
100
AcDbBlockBegin
  2
*D181
 70
     1
 10
0.0
 20
0.0
 30
0.0
  3
*D181
  1

  0
LINE
  5
EA5
330
E99
100
AcDbEntity
  8
WYMIARY
 62
     1
370
    -2
100
AcDbLine
 10
137807.7934635254
 20
49251.73760558216
 30
0.0
 11
137777.7934635254
 21
49251.73760558216
 31
0.0
  0
LINE
  5
EA6
330
E99
100
AcDbEntity
  8
WYMIARY
 62
     1
370
    -2
100
AcDbLine
 10
137912.7935591826
 20
49251.73760558216
 30
0.0
 11
137942.7935591826
 21
49251.73760558216
 31
0.0
  0
MTEXT
  5
EA7
330
E99
100
AcDbEntity
  8
WYMIARY
 62
    10
100
AcDbMText
 10
137823.7477534368
 20
49331.73760558216
 30
0.0
 40
80.0
 41
0.0
 71
     5
 72
     1
  1
\A1;45
  7
ROMANS
 73
     1
 44
1.0
1001
ACAD
1000
MTEXTBEGIN
1070
    73
1070
     1
1070
    44
1040
1.0
1070
    74
1070
     0
1000
MTEXTEND
  0
LINE
  5
EA8
330
E99
100
AcDbEntity
  8
WYMIARY
 62
     1
370
    -2
100
AcDbLine
 10
137837.7934635254
 20
49251.73760558216
 30
0.0
 11
137882.7935591826
 21
49251.73760558216
 31
0.0
  0
INSERT
  5
EA9
330
E99
100
AcDbEntity
  8
WYMIARY
 62
     1
370
    -2
100
AcDbBlockReference
  2
B-DIM
 10
137837.7934635254
 20
49251.73760558216
 30
0.0
 41
30.0
 42
30.0
 43
30.0
  0
INSERT
  5
EAA
330
E99
100
AcDbEntity
  8
WYMIARY
 62
     1
370
    -2
100
AcDbBlockReference
  2
B-DIM
 10
137882.7935591826
 20
49251.73760558216
 30
0.0
 41
30.0
 42
30.0
 43
30.0
 50
180.0
  0
POINT
  5
EAB
330
E99
100
AcDbEntity
  8
DEFPOINTS
 62
     0
100
AcDbPoint
 10
137837.7934635254
 20
48212.96405014806
 30
0.0
  0
POINT
  5
EAC
330
E99
100
AcDbEntity
  8
DEFPOINTS
 62
     0
100
AcDbPoint
 10
137882.7935591826
 20
48212.96405014806
 30
0.0
  0
POINT
  5
EAD
330
E99
100
AcDbEntity
  8
DEFPOINTS
 62
     0
100
AcDbPoint
 10
137882.7935591826
 20
49251.73760558216
 30
0.0
  0
ENDBLK
  5
E9B
330
E99
100
AcDbEntity
  8
0
100
AcDbBlockEnd
  0
BLOCK
  5
EB0
330
EAF
100
AcDbEntity
  8
0
100
AcDbBlockBegin
  2
*D182
 70
     1
 10
0.0
 20
0.0
 30
0.0
  3
*D182
  1

  0
LINE
  5
EBB
330
EAF
100
AcDbEntity
  8
WYMIARY
 62
     1
370
    -2
100
AcDbLine
 10
139791.7928278681
 20
49251.73760558216
 30
0.0
 11
139761.7928278682
 21
49251.73760558216
 31
0.0
  0
LINE
  5
EBC
330
EAF
100
AcDbEntity
  8
WYMIARY
 62
     1
370
    -2
100
AcDbLine
 10
139896.7929235254
 20
49251.73760558216
 30
0.0
 11
139926.7929235254
 21
49251.73760558216
 31
0.0
  0
MTEXT
  5
EBD
330
EAF
100
AcDbEntity
  8
WYMIARY
 62
    10
100
AcDbMText
 10
139886.2381195292
 20
49331.73760558216
 30
0.0
 40
80.0
 41
0.0
 71
     5
 72
     1
  1
\A1;45
  7
ROMANS
 73
     1
 44
1.0
1001
ACAD
1000
MTEXTBEGIN
1070
    73
1070
     1
1070
    44
1040
1.0
1070
    74
1070
     0
1000
MTEXTEND
  0
LINE
  5
EBE
330
EAF
100
AcDbEntity
  8
WYMIARY
 62
     1
370
    -2
100
AcDbLine
 10
139821.7928278681
 20
49251.73760558216
 30
0.0
 11
139866.7929235254
 21
49251.73760558216
 31
0.0
  0
INSERT
  5
EBF
330
EAF
100
AcDbEntity
  8
WYMIARY
 62
     1
370
    -2
100
AcDbBlockReference
  2
B-DIM
 10
139821.7928278681
 20
49251.73760558216
 30
0.0
 41
30.0
 42
30.0
 43
30.0
  0
INSERT
  5
EC0
330
EAF
100
AcDbEntity
  8
WYMIARY
 62
     1
370
    -2
100
AcDbBlockReference
  2
B-DIM
 10
139866.7929235254
 20
49251.73760558216
 30
0.0
 41
30.0
 42
30.0
 43
30.0
 50
180.0
  0
POINT
  5
EC1
330
EAF
100
AcDbEntity
  8
DEFPOINTS
 62
     0
100
AcDbPoint
 10
139821.7928278681
 20
48212.96405014806
 30
0.0
  0
POINT
  5
EC2
330
EAF
100
AcDbEntity
  8
DEFPOINTS
 62
     0
100
AcDbPoint
 10
139866.7929235254
 20
48212.96405014806
 30
0.0
  0
POINT
  5
EC3
330
EAF
100
AcDbEntity
  8
DEFPOINTS
 62
     0
100
AcDbPoint
 10
139866.7929235254
 20
49251.73760558216
 30
0.0
  0
ENDBLK
  5
EB1
330
EAF
100
AcDbEntity
  8
0
100
AcDbBlockEnd
  0
BLOCK
  5
EE4
330
EE3
100
AcDbEntity
  8
0
100
AcDbBlockBegin
  2
*D183
 70
     1
 10
0.0
 20
0.0
 30
0.0
  3
*D183
  1

  0
LINE
  5
EE6
330
EE3
100
AcDbEntity
  8
WYMIARY
 62
     1
370
    -2
100
AcDbLine
 10
137912.7935591826
 20
49251.73760558216
 30
0.0
 11
138499.7931778853
 21
49251.73760558216
 31
0.0
  0
INSERT
  5
EE7
330
EE3
100
AcDbEntity
  8
WYMIARY
 62
     1
370
    -2
100
AcDbBlockReference
  2
B-DIM
 10
137882.7935591826
 20
49251.73760558216
 30
0.0
 41
30.0
 42
30.0
 43
30.0
 50
180.0
  0
INSERT
  5
EE8
330
EE3
100
AcDbEntity
  8
WYMIARY
 62
     1
370
    -2
100
AcDbBlockReference
  2
B-DIM
 10
138529.7931778853
 20
49251.73760558216
 30
0.0
 41
30.0
 42
30.0
 43
30.0
  0
MTEXT
  5
EE9
330
EE3
100
AcDbEntity
  8
WYMIARY
 62
    10
100
AcDbMText
 10
138206.293368534
 20
49331.73760558216
 30
0.0
 40
80.0
 41
0.0
 71
     5
 72
     1
  1
\A1;647
  7
ROMANS
 73
     1
 44
1.0
1001
ACAD
1000
MTEXTBEGIN
1070
    73
1070
     1
1070
    44
1040
1.0
1070
    74
1070
     0
1000
MTEXTEND
  0
POINT
  5
EEA
330
EE3
100
AcDbEntity
  8
DEFPOINTS
 62
     0
100
AcDbPoint
 10
137882.7935591826
 20
49251.73760558216
 30
0.0
  0
POINT
  5
EEB
330
EE3
100
AcDbEntity
  8
DEFPOINTS
 62
     0
100
AcDbPoint
 10
138529.7931778853
 20
49251.73760558216
 30
0.0
  0
POINT
  5
EEC
330
EE3
100
AcDbEntity
  8
DEFPOINTS
 62
     0
100
AcDbPoint
 10
138529.7931778853
 20
49251.73760558216
 30
0.0
  0
ENDBLK
  5
EE5
330
EE3
100
AcDbEntity
  8
0
100
AcDbBlockEnd
  0
BLOCK
  5
EEF
330
EEE
100
AcDbEntity
  8
0
100
AcDbBlockBegin
  2
*D184
 70
     1
 10
0.0
 20
0.0
 30
0.0
  3
*D184
  1

  0
LINE
  5
EF1
330
EEE
100
AcDbEntity
  8
WYMIARY
 62
     1
370
    -2
100
AcDbLine
 10
139204.7932091654
 20
49251.73760558216
 30
0.0
 11
139791.7928278681
 21
49251.73760558216
 31
0.0
  0
INSERT
  5
EF2
330
EEE
100
AcDbEntity
  8
WYMIARY
 62
     1
370
    -2
100
AcDbBlockReference
  2
B-DIM
 10
139174.7932091654
 20
49251.73760558216
 30
0.0
 41
30.0
 42
30.0
 43
30.0
 50
180.0
  0
INSERT
  5
EF3
330
EEE
100
AcDbEntity
  8
WYMIARY
 62
     1
370
    -2
100
AcDbBlockReference
  2
B-DIM
 10
139821.7928278681
 20
49251.73760558216
 30
0.0
 41
30.0
 42
30.0
 43
30.0
  0
MTEXT
  5
EF4
330
EEE
100
AcDbEntity
  8
WYMIARY
 62
    10
100
AcDbMText
 10
139498.2930185168
 20
49331.73760558216
 30
0.0
 40
80.0
 41
0.0
 71
     5
 72
     1
  1
\A1;647
  7
ROMANS
 73
     1
 44
1.0
1001
ACAD
1000
MTEXTBEGIN
1070
    73
1070
     1
1070
    44
1040
1.0
1070
    74
1070
     0
1000
MTEXTEND
  0
POINT
  5
EF5
330
EEE
100
AcDbEntity
  8
DEFPOINTS
 62
     0
100
AcDbPoint
 10
139174.7932091654
 20
49251.73760558216
 30
0.0
  0
POINT
  5
EF6
330
EEE
100
AcDbEntity
  8
DEFPOINTS
 62
     0
100
AcDbPoint
 10
139821.7928278681
 20
49251.73760558216
 30
0.0
  0
POINT
  5
EF7
330
EEE
100
AcDbEntity
  8
DEFPOINTS
 62
     0
100
AcDbPoint
 10
139821.7928278681
 20
49251.73760558216
 30
0.0
  0
ENDBLK
  5
EF0
330
EEE
100
AcDbEntity
  8
0
100
AcDbBlockEnd
  0
BLOCK
  5
EFA
330
EF9
100
AcDbEntity
  8
0
100
AcDbBlockBegin
  2
*D185
 70
     1
 10
0.0
 20
0.0
 30
0.0
  3
*D185
  1

  0
LINE
  5
EFC
330
EF9
100
AcDbEntity
  8
WYMIARY
 62
     1
370
    -2
100
AcDbLine
 10
138366.7933928653
 20
46890.60529763037
 30
0.0
 11
139337.7929941854
 21
46890.60529763037
 31
0.0
  0
INSERT
  5
EFD
330
EF9
100
AcDbEntity
  8
WYMIARY
 62
     1
370
    -2
100
AcDbBlockReference
  2
B-DIM
 10
138336.7933928653
 20
46890.60529763037
 30
0.0
 41
30.0
 42
30.0
 43
30.0
 50
180.0
  0
INSERT
  5
EFE
330
EF9
100
AcDbEntity
  8
WYMIARY
 62
     1
370
    -2
100
AcDbBlockReference
  2
B-DIM
 10
139367.7929941854
 20
46890.60529763037
 30
0.0
 41
30.0
 42
30.0
 43
30.0
  0
MTEXT
  5
EFF
330
EF9
100
AcDbEntity
  8
WYMIARY
 62
    10
100
AcDbMText
 10
138852.2931935254
 20
46970.60529763037
 30
0.0
 40
80.0
 41
0.0
 71
     5
 72
     1
  1
\A1;1031
  7
ROMANS
 73
     1
 44
1.0
1001
ACAD
1000
MTEXTBEGIN
1070
    73
1070
     1
1070
    44
1040
1.0
1070
    74
1070
     0
1000
MTEXTEND
  0
POINT
  5
F00
330
EF9
100
AcDbEntity
  8
DEFPOINTS
 62
     0
100
AcDbPoint
 10
138336.7933928653
 20
47625.96411238601
 30
0.0
  0
POINT
  5
F01
330
EF9
100
AcDbEntity
  8
DEFPOINTS
 62
     0
100
AcDbPoint
 10
139367.7929941854
 20
47610.96415493399
 30
0.0
  0
POINT
  5
F02
330
EF9
100
AcDbEntity
  8
DEFPOINTS
 62
     0
100
AcDbPoint
 10
139367.7929941854
 20
46890.60529763037
 30
0.0
  0
ENDBLK
  5
EFB
330
EF9
100
AcDbEntity
  8
0
100
AcDbBlockEnd
  0
BLOCK
  5
F05
330
F04
100
AcDbEntity
  8
0
100
AcDbBlockBegin
  2
*D186
 70
     1
 10
0.0
 20
0.0
 30
0.0
  3
*D186
  1

  0
LINE
  5
F10
330
F04
100
AcDbEntity
  8
WYMIARY
 62
     1
370
    -2
100
AcDbLine
 10
137867.7934635254
 20
46685.60529763038
 30
0.0
 11
139836.7929235254
 21
46685.60529763038
 31
0.0
  0
INSERT
  5
F11
330
F04
100
AcDbEntity
  8
WYMIARY
 62
     1
370
    -2
100
AcDbBlockReference
  2
B-DIM
 10
137837.7934635254
 20
46685.60529763038
 30
0.0
 41
30.0
 42
30.0
 43
30.0
 50
180.0
  0
INSERT
  5
F12
330
F04
100
AcDbEntity
  8
WYMIARY
 62
     1
370
    -2
100
AcDbBlockReference
  2
B-DIM
 10
139866.7929235254
 20
46685.60529763038
 30
0.0
 41
30.0
 42
30.0
 43
30.0
  0
MTEXT
  5
F13
330
F04
100
AcDbEntity
  8
WYMIARY
 62
    10
100
AcDbMText
 10
138852.2931935254
 20
46765.60529763038
 30
0.0
 40
80.0
 41
0.0
 71
     5
 72
     1
  1
\A1;2029
  7
ROMANS
 73
     1
 44
1.0
1001
ACAD
1000
MTEXTBEGIN
1070
    73
1070
     1
1070
    44
1040
1.0
1070
    74
1070
     0
1000
MTEXTEND
  0
POINT
  5
F14
330
F04
100
AcDbEntity
  8
DEFPOINTS
 62
     0
100
AcDbPoint
 10
137837.7934635254
 20
47952.95014471099
 30
0.0
  0
POINT
  5
F15
330
F04
100
AcDbEntity
  8
DEFPOINTS
 62
     0
100
AcDbPoint
 10
139866.7929235254
 20
47952.95014471099
 30
0.0
  0
POINT
  5
F16
330
F04
100
AcDbEntity
  8
DEFPOINTS
 62
     0
100
AcDbPoint
 10
139866.7929235254
 20
46685.60529763038
 30
0.0
  0
ENDBLK
  5
F06
330
F04
100
AcDbEntity
  8
0
100
AcDbBlockEnd
  0
BLOCK
  5
F19
330
F18
100
AcDbEntity
  8
0
100
AcDbBlockBegin
  2
*D187
 70
     1
 10
0.0
 20
0.0
 30
0.0
  3
*D187
  1

  0
LINE
  5
F1B
330
F18
100
AcDbEntity
  8
WYMIARY
 62
     1
370
    -2
100
AcDbLine
 10
138559.7931778854
 20
49251.73760558216
 30
0.0
 11
139144.7932091654
 21
49251.73760558216
 31
0.0
  0
INSERT
  5
F1C
330
F18
100
AcDbEntity
  8
WYMIARY
 62
     1
370
    -2
100
AcDbBlockReference
  2
B-DIM
 10
138529.7931778853
 20
49251.73760558216
 30
0.0
 41
30.0
 42
30.0
 43
30.0
 50
180.0
  0
INSERT
  5
F1D
330
F18
100
AcDbEntity
  8
WYMIARY
 62
     1
370
    -2
100
AcDbBlockReference
  2
B-DIM
 10
139174.7932091654
 20
49251.73760558216
 30
0.0
 41
30.0
 42
30.0
 43
30.0
  0
MTEXT
  5
F1E
330
F18
100
AcDbEntity
  8
WYMIARY
 62
    10
100
AcDbMText
 10
138852.2931935254
 20
49331.73760558216
 30
0.0
 40
80.0
 41
0.0
 71
     5
 72
     1
  1
\A1;645
  7
ROMANS
 73
     1
 44
1.0
1001
ACAD
1000
MTEXTBEGIN
1070
    73
1070
     1
1070
    44
1040
1.0
1070
    74
1070
     0
1000
MTEXTEND
  0
POINT
  5
F1F
330
F18
100
AcDbEntity
  8
DEFPOINTS
 62
     0
100
AcDbPoint
 10
138529.7931778853
 20
48609.96403062632
 30
0.0
  0
POINT
  5
F20
330
F18
100
AcDbEntity
  8
DEFPOINTS
 62
     0
100
AcDbPoint
 10
139174.7932091654
 20
48609.96403062632
 30
0.0
  0
POINT
  5
F21
330
F18
100
AcDbEntity
  8
DEFPOINTS
 62
     0
100
AcDbPoint
 10
139174.7932091654
 20
49251.73760558216
 30
0.0
  0
ENDBLK
  5
F1A
330
F18
100
AcDbEntity
  8
0
100
AcDbBlockEnd
  0
BLOCK
  5
F25
330
F24
100
AcDbEntity
  8
0
100
AcDbBlockBegin
  2
*D188
 70
     1
 10
0.0
 20
0.0
 30
0.0
  3
*D188
  1

  0
LINE
  5
F37
330
F24
100
AcDbEntity
  8
WYMIARY
 62
     1
370
    -2
100
AcDbLine
 10
137867.7934635254
 20
49456.73760558216
 30
0.0
 11
139836.7929235254
 21
49456.73760558216
 31
0.0
  0
INSERT
  5
F38
330
F24
100
AcDbEntity
  8
WYMIARY
 62
     1
370
    -2
100
AcDbBlockReference
  2
B-DIM
 10
137837.7934635254
 20
49456.73760558216
 30
0.0
 41
30.0
 42
30.0
 43
30.0
 50
180.0
  0
INSERT
  5
F39
330
F24
100
AcDbEntity
  8
WYMIARY
 62
     1
370
    -2
100
AcDbBlockReference
  2
B-DIM
 10
139866.7929235254
 20
49456.73760558216
 30
0.0
 41
30.0
 42
30.0
 43
30.0
  0
MTEXT
  5
F3A
330
F24
100
AcDbEntity
  8
WYMIARY
 62
    10
100
AcDbMText
 10
138852.2931935254
 20
49536.73760558216
 30
0.0
 40
80.0
 41
0.0
 71
     5
 72
     1
  1
\A1;2029
  7
ROMANS
 73
     1
 44
1.0
1001
ACAD
1000
MTEXTBEGIN
1070
    73
1070
     1
1070
    44
1040
1.0
1070
    74
1070
     0
1000
MTEXTEND
  0
POINT
  5
F3B
330
F24
100
AcDbEntity
  8
DEFPOINTS
 62
     0
100
AcDbPoint
 10
137837.7934635254
 20
48212.96405014806
 30
0.0
  0
POINT
  5
F3C
330
F24
100
AcDbEntity
  8
DEFPOINTS
 62
     0
100
AcDbPoint
 10
139866.7929235254
 20
48212.96405014806
 30
0.0
  0
POINT
  5
F3D
330
F24
100
AcDbEntity
  8
DEFPOINTS
 62
     0
100
AcDbPoint
 10
139866.7929235254
 20
49456.73760558216
 30
0.0
  0
ENDBLK
  5
F26
330
F24
100
AcDbEntity
  8
0
100
AcDbBlockEnd
  0
ENDSEC
  0
SECTION
  2
ENTITIES
  0
LINE
  5
C6
330
2
100
AcDbEntity
  8
0Hatch
380
     2
100
AcDbLine
 10
139776.7928810784
 20
48559.96392434051
 30
0.0
 11
139821.7928278681
 21
48559.96392434051
 31
0.0
  0
LINE
  5
CF
330
2
100
AcDbEntity
  8
0Hatch
380
     2
100
AcDbLine
 10
139576.7930514048
 20
48559.96392434051
 30
0.0
 11
139626.7928599558
 21
48559.96392434051
 31
0.0
  0
LINE
  5
D7
330
2
100
AcDbEntity
  8
0Hatch
380
     2
100
AcDbLine
 10
139626.7928599558
 20
48559.96392434051
 30
0.0
 11
139776.7928810784
 21
48559.96392434051
 31
0.0
  0
LINE
  5
1A9
330
2
100
AcDbEntity
  8
0Hatch
380
     2
100
AcDbLine
 10
137882.7935591826
 20
48559.96392434051
 30
0.0
 11
137927.7935059724
 21
48559.96392434051
 31
0.0
  0
LINE
  5
1AA
330
2
100
AcDbEntity
  8
0Hatch
380
     2
100
AcDbLine
 10
137927.7935059724
 20
48559.96392434051
 30
0.0
 11
138077.7933782275
 21
48559.96392434051
 31
0.0
  0
LINE
  5
1AD
330
2
100
AcDbEntity
  8
0Hatch
380
     2
100
AcDbLine
 10
138077.7933782275
 20
48559.96392434051
 30
0.0
 11
138127.7934845134
 21
48559.96392434051
 31
0.0
  0
LINE
  5
1AF
330
2
100
AcDbEntity
  8
0Hatch
380
     2
100
AcDbLine
 10
138854.7931244059
 20
48326.96390542439
 30
0.0
 11
138854.7931244059
 21
48529.96400943646
 31
0.0
  0
LINE
  5
1B2
330
2
100
AcDbEntity
  8
0Hatch
380
     2
100
AcDbLine
 10
138849.7932626448
 20
48326.96390542439
 30
0.0
 11
138849.7932626448
 21
48529.96400943646
 31
0.0
  0
LINE
  5
1B4
330
2
100
AcDbEntity
  8
0Hatch
380
     2
100
AcDbLine
 10
138735.8132067377
 20
48559.96392434051
 30
0.0
 11
138850.793354091
 21
48559.96392434051
 31
0.0
  0
LINE
  5
1C9
330
2
100
AcDbEntity
  8
0Hatch
380
     2
100
AcDbLine
 10
138529.7931778853
 20
48559.96392434051
 30
0.0
 11
138645.8133131581
 21
48559.96392434051
 31
0.0
  0
LINE
  5
1CC
330
2
100
AcDbEntity
  8
0Hatch
380
     2
100
AcDbLine
 10
138645.8133131581
 20
48559.96392434051
 30
0.0
 11
138735.8132067377
 21
48559.96392434051
 31
0.0
  0
LINE
  5
1E2
330
2
100
AcDbEntity
  8
0Hatch
380
     2
100
AcDbLine
 10
138967.2731920112
 20
48559.96392434051
 30
0.0
 11
139057.2730855909
 21
48559.96392434051
 31
0.0
  0
LINE
  5
1E3
330
2
100
AcDbEntity
  8
0Hatch
380
     2
100
AcDbLine
 10
138850.793354091
 20
48559.96392434051
 30
0.0
 11
138967.2731920112
 21
48559.96392434051
 31
0.0
  0
LINE
  5
1E6
330
2
100
AcDbEntity
  8
0Hatch
380
     2
100
AcDbLine
 10
138854.7931244059
 20
47750.96408036568
 30
0.0
 11
138854.7931244059
 21
48326.96390542439
 31
0.0
  0
LINE
  5
1E7
330
2
100
AcDbEntity
  8
0Hatch
380
     2
100
AcDbLine
 10
138849.7932626448
 20
47750.96408036568
 30
0.0
 11
138849.7932626448
 21
48326.96390542439
 31
0.0
  0
DIMENSION
  5
25A
330
2
100
AcDbEntity
  8
0Hatch
100
AcDbDimension
  2
*D124
 10
140214.2056015115
 20
51571.14769014
 30
0.0
 11
140720.2055010712
 21
51651.14769014
 31
0.0
 70
    32
 71
     5
 42
1011.999799119425
  3
500
100
AcDbAlignedDimension
 13
141226.2054006309
 23
52793.6536690427
 33
0.0
 14
140214.2056015115
 24
52591.65380534426
 34
0.0
 50
180.0
100
AcDbRotatedDimension
  0
DIMENSION
  5
265
330
2
100
AcDbEntity
  8
0Hatch
100
AcDbDimension
  2
*D123
 10
140214.2056015115
 20
51761.29493751301
 30
0.0
 11
140470.7055364013
 21
51841.29493751301
 31
0.0
 70
    32
 71
     5
 42
512.999869779509
  3
500
100
AcDbAlignedDimension
 13
140727.205471291
 23
52496.65375226864
 33
0.0
 14
140214.2056015115
 24
52591.65380534426
 34
0.0
 50
180.0
100
AcDbRotatedDimension
  0
DIMENSION
  5
270
330
2
100
AcDbEntity
  8
0Hatch
100
AcDbDimension
  2
*D122
 10
140214.2056015115
 20
54122.4272454648
 30
0.0
 11
140374.2056438913
 21
54202.4272454648
 31
0.0
 70
    32
 71
     5
 42
320.0000847594638
  3
500
100
AcDbAlignedDimension
 13
140534.205686271
 23
53480.65367050896
 33
0.0
 14
140214.2056015115
 24
53430.65356422314
 34
0.0
100
AcDbRotatedDimension
  0
DIMENSION
  5
27B
330
2
100
AcDbEntity
  8
0Hatch
100
AcDbDimension
  2
*D121
 10
140534.205686271
 20
54122.4272454648
 30
0.0
 11
140735.205532957
 21
54202.4272454648
 31
0.0
 70
    32
 71
     5
 42
401.9996933719666
  3
500
100
AcDbAlignedDimension
 13
140936.205379643
 23
53480.65367050896
 33
0.0
 14
140534.205686271
 24
53480.65367050896
 34
0.0
100
AcDbRotatedDimension
  0
LINE
  5
28A
330
2
100
AcDbEntity
  8
0Hatch
380
     2
100
AcDbLine
 10
140727.205471291
 20
52496.65375226864
 30
0.0
 11
140524.2056650139
 21
52496.65375226864
 31
0.0
  0
LINE
  5
28B
330
2
100
AcDbEntity
  8
0Hatch
380
     2
100
AcDbLine
 10
140585.2055862682
 20
52591.65380534426
 30
0.0
 11
140551.7056490374
 21
52591.65380534426
 31
0.0
  0
HATCH
  5
28C
330
2
100
AcDbEntity
  8
0Hatch
100
AcDbHatch
 10
0.0
 20
0.0
 30
0.0
210
0.0
220
0.0
230
1.0
  2
SOLID
 70
     1
 71
     0
 91
        1
 92
        7
 72
     0
 73
     1
 93
        4
 10
140539.2055480321
 20
52526.65381604014
 10
140564.2054523077
 20
52526.65381604014
 10
140564.2054523077
 20
52501.65376289722
 10
140539.2055480321
 20
52501.65376289722
 97
        0
 75
     0
 76
     1
 47
4.11719990528551
 98
        1
 10
140546.3706362844
 20
52509.23943940507
  0
LINE
  5
28D
330
2
100
AcDbEntity
  8
0Hatch
380
     2
100
AcDbLine
 10
140564.2054523077
 20
52501.65376289722
 30
0.0
 11
140539.2055480321
 21
52501.65376289722
 31
0.0
  0
LINE
  5
28E
330
2
100
AcDbEntity
  8
0Hatch
380
     2
100
AcDbLine
 10
140564.2054523077
 20
52526.65381604014
 30
0.0
 11
140539.2055480321
 21
52526.65381604014
 31
0.0
  0
LINE
  5
28F
330
2
100
AcDbEntity
  8
0Hatch
380
     2
100
AcDbLine
 10
140727.205471291
 20
52466.65383736459
 30
0.0
 11
140214.2056015115
 21
52466.65383736459
 31
0.0
  0
LINE
  5
292
330
2
100
AcDbEntity
  8
0Hatch
380
     2
100
AcDbLine
 10
141181.2053049738
 20
53770.65339376208
 30
0.0
 11
140534.205686271
 21
53770.65339376208
 31
0.0
  0
DIMENSION
  5
293
330
2
100
AcDbEntity
  8
0Hatch
100
AcDbDimension
  2
*D120
 10
141226.2054006309
 20
51761.29493751301
 30
0.0
 11
141306.7727233697
 21
51841.29493751301
 31
0.0
 70
   160
 71
     5
 42
45.00009565721848
  3
500
100
AcDbAlignedDimension
 13
141181.2053049738
 23
52496.65375226864
 33
0.0
 14
141226.2054006309
 24
52793.6536690427
 34
0.0
 50
180.0
100
AcDbRotatedDimension
  0
DIMENSION
  5
2A0
330
2
100
AcDbEntity
  8
0Hatch
100
AcDbDimension
  2
*D119
 10
140727.205471291
 20
51761.29493751301
 30
0.0
 11
140954.2053881324
 21
51841.29493751301
 31
0.0
 70
    32
 71
     5
 42
453.9998336826974
  3
500
100
AcDbAlignedDimension
 13
141181.2053049738
 23
52496.65375226864
 33
0.0
 14
140727.205471291
 24
52496.65375226864
 34
0.0
 50
180.0
100
AcDbRotatedDimension
  0
DIMENSION
  5
2AB
330
2
100
AcDbEntity
  8
0Hatch
100
AcDbDimension
  2
*D118
 10
141181.2053049738
 20
54122.4272454648
 30
0.0
 11
141058.7053423084
 21
54202.4272454648
 31
0.0
 70
    32
 71
     5
 42
244.999925330776
  3
500
100
AcDbAlignedDimension
 13
140936.205379643
 23
53480.65367050896
 33
0.0
 14
141181.2053049738
 24
53430.65356422314
 34
0.0
100
AcDbRotatedDimension
  0
LINE
  5
2DB
330
2
100
AcDbEntity
  8
0Hatch
380
     2
100
AcDbLine
 10
140564.2054523077
 20
53480.65367050896
 30
0.0
 11
140564.2054523077
 21
53740.65362772546
 31
0.0
  0
LINE
  5
2DF
330
2
100
AcDbEntity
  8
0Hatch
380
     2
100
AcDbLine
 10
140695.2055223621
 20
52591.65380534426
 30
0.0
 11
140585.2055862682
 21
52591.65380534426
 31
0.0
  0
LINE
  5
2E0
330
2
100
AcDbEntity
  8
0Hatch
380
     2
100
AcDbLine
 10
140727.205471291
 20
52466.65383736459
 30
0.0
 11
140727.205471291
 21
52496.65375226864
 31
0.0
  0
LINE
  5
2E3
330
2
100
AcDbEntity
  8
0Hatch
380
     2
100
AcDbLine
 10
140757.2055350625
 20
52526.65381604014
 30
0.0
 11
140757.2055350625
 21
52527.13138278014
 31
0.0
  0
LINE
  5
2E8
330
2
100
AcDbEntity
  8
0Hatch
380
     2
100
AcDbLine
 10
140727.205471291
 20
52591.65380534426
 30
0.0
 11
140695.2055223621
 21
52591.65380534426
 31
0.0
  0
LINE
  5
2E9
330
2
100
AcDbEntity
  8
0Hatch
380
     2
100
AcDbLine
 10
140727.205471291
 20
52587.13136145568
 30
0.0
 11
140727.205471291
 21
52591.65380534426
 31
0.0
  0
LINE
  5
2EA
330
2
100
AcDbEntity
  8
0Hatch
380
     2
100
AcDbLine
 10
140727.205471291
 20
52527.13138278014
 30
0.0
 11
140727.205471291
 21
52587.13136145568
 31
0.0
  0
LINE
  5
2EB
330
2
100
AcDbEntity
  8
0Hatch
380
     2
100
AcDbLine
 10
140727.205471291
 20
52496.65375226864
 30
0.0
 11
140727.205471291
 21
52527.13138278014
 31
0.0
  0
LINE
  5
2EF
330
2
100
AcDbEntity
  8
0Hatch
380
     2
100
AcDbLine
 10
140564.2054523077
 20
52501.65376289722
 30
0.0
 11
140564.2054523077
 21
52526.65381604014
 31
0.0
  0
LINE
  5
2F1
330
2
100
AcDbEntity
  8
0Hatch
380
     2
100
AcDbLine
 10
141207.3105499738
 20
53768.94260916852
 30
0.0
 11
141181.2053049738
 21
53770.65339376208
 31
0.0
  0
LINE
  5
2F2
330
2
100
AcDbEntity
  8
0Hatch
380
     2
100
AcDbLine
 10
141232.9691926609
 20
53763.8388379359
 30
0.0
 11
141207.3105499738
 21
53768.94260916852
 31
0.0
  0
LINE
  5
2F3
330
2
100
AcDbEntity
  8
0Hatch
380
     2
100
AcDbLine
 10
141257.7420740939
 20
53755.42931638266
 30
0.0
 11
141232.9691926609
 21
53763.8388379359
 31
0.0
  0
LINE
  5
2F4
330
2
100
AcDbEntity
  8
0Hatch
380
     2
100
AcDbLine
 10
141281.2053686779
 20
53743.85874365821
 30
0.0
 11
141257.7420740939
 21
53755.42931638266
 31
0.0
  0
LINE
  5
2F5
330
2
100
AcDbEntity
  8
0Hatch
380
     2
100
AcDbLine
 10
141302.9575809335
 20
53729.32422025002
 30
0.0
 11
141281.2053686779
 21
53743.85874365821
 31
0.0
  0
LINE
  5
2F6
330
2
100
AcDbEntity
  8
0Hatch
380
     2
100
AcDbLine
 10
141322.6266911339
 20
53712.07495024871
 30
0.0
 11
141302.9575809335
 21
53729.32422025002
 31
0.0
  0
LINE
  5
2F7
330
2
100
AcDbEntity
  8
0Hatch
380
     2
100
AcDbLine
 10
141205.3989432069
 20
53738.92319263014
 30
0.0
 11
141181.2053049738
 21
53740.65362772546
 31
0.0
  0
LINE
  5
2F8
330
2
100
AcDbEntity
  8
0Hatch
380
     2
100
AcDbLine
 10
141229.0998302214
 20
53733.76731779432
 30
0.0
 11
141205.3989432069
 21
53738.92319263014
 31
0.0
  0
LINE
  5
2F9
330
2
100
AcDbEntity
  8
0Hatch
380
     2
100
AcDbLine
 10
141251.825933254
 20
53725.29110362902
 30
0.0
 11
141229.0998302214
 21
53733.76731779432
 31
0.0
  0
LINE
  5
2FA
330
2
100
AcDbEntity
  8
0Hatch
380
     2
100
AcDbLine
 10
141273.1142745738
 20
53713.66664089214
 30
0.0
 11
141251.825933254
 21
53725.29110362902
 31
0.0
  0
LINE
  5
2FB
330
2
100
AcDbEntity
  8
0Hatch
380
     2
100
AcDbLine
 10
141292.5316499372
 20
53699.13092654446
 30
0.0
 11
141273.1142745738
 21
53713.66664089214
 31
0.0
  0
LINE
  5
2FC
330
2
100
AcDbEntity
  8
0Hatch
380
     2
100
AcDbLine
 10
141339.8759611352
 20
53692.40569118086
 30
0.0
 11
141322.6266911339
 21
53712.07495024871
 31
0.0
  0
LINE
  5
2FD
330
2
100
AcDbEntity
  8
0Hatch
380
     2
100
AcDbLine
 10
141354.4103356759
 20
53670.65347892531
 30
0.0
 11
141339.8759611352
 21
53692.40569118086
 31
0.0
  0
LINE
  5
2FE
330
2
100
AcDbEntity
  8
0Hatch
380
     2
100
AcDbLine
 10
141365.9812061353
 20
53647.19018434134
 30
0.0
 11
141354.4103356759
 21
53670.65347892531
 31
0.0
  0
LINE
  5
2FF
330
2
100
AcDbEntity
  8
0Hatch
380
     2
100
AcDbLine
 10
141374.3904299536
 20
53622.41745177573
 30
0.0
 11
141365.9812061353
 21
53647.19018434134
 31
0.0
  0
LINE
  5
300
330
2
100
AcDbEntity
  8
0Hatch
380
     2
100
AcDbLine
 10
141379.4943500537
 20
53596.75895795606
 30
0.0
 11
141374.3904299536
 21
53622.41745177573
 31
0.0
  0
LINE
  5
301
330
2
100
AcDbEntity
  8
0Hatch
380
     2
100
AcDbLine
 10
141309.6828162971
 20
53681.979909052
 30
0.0
 11
141292.5316499372
 21
53699.13092654446
 31
0.0
  0
LINE
  5
302
330
2
100
AcDbEntity
  8
0Hatch
380
     2
100
AcDbLine
 10
141324.2183817773
 20
53662.56253368867
 30
0.0
 11
141309.6828162971
 21
53681.979909052
 31
0.0
  0
LINE
  5
303
330
2
100
AcDbEntity
  8
0Hatch
380
     2
100
AcDbLine
 10
141335.8428445142
 20
53641.27419236885
 30
0.0
 11
141324.2183817773
 21
53662.56253368867
 31
0.0
  0
LINE
  5
304
330
2
100
AcDbEntity
  8
0Hatch
380
     2
100
AcDbLine
 10
141344.3190586795
 20
53618.54808933615
 30
0.0
 11
141335.8428445142
 21
53641.27419236885
 31
0.0
  0
LINE
  5
305
330
2
100
AcDbEntity
  8
0Hatch
380
     2
100
AcDbLine
 10
141349.4749335153
 20
53594.84720232167
 30
0.0
 11
141344.3190586795
 21
53618.54808933615
 31
0.0
  0
LINE
  5
308
330
2
100
AcDbEntity
  8
0Hatch
380
     2
100
AcDbLine
 10
141251.825933254
 20
53309.01606505782
 30
0.0
 11
141229.0998302214
 21
53300.53985089252
 31
0.0
  0
LINE
  5
309
330
2
100
AcDbEntity
  8
0Hatch
380
     2
100
AcDbLine
 10
141281.2053686779
 20
53290.44842502863
 30
0.0
 11
141257.7420740939
 21
53278.87770343675
 31
0.0
  0
LINE
  5
30A
330
2
100
AcDbEntity
  8
0Hatch
380
     2
100
AcDbLine
 10
141257.7420740939
 20
53278.87770343675
 30
0.0
 11
141232.9691926609
 21
53270.46847961839
 31
0.0
  0
LINE
  5
30B
330
2
100
AcDbEntity
  8
0Hatch
380
     2
100
AcDbLine
 10
141381.2052835147
 20
53463.65360459829
 30
0.0
 11
141381.2052835147
 21
53570.65356408855
 31
0.0
  0
LINE
  5
30C
330
2
100
AcDbEntity
  8
0Hatch
380
     2
100
AcDbLine
 10
141351.2053686106
 20
53463.65360459829
 30
0.0
 11
141351.2053686106
 21
53570.65356408855
 31
0.0
  0
LINE
  5
30D
330
2
100
AcDbEntity
  8
0Hatch
380
     2
100
AcDbLine
 10
141292.5316499372
 20
53335.17624214239
 30
0.0
 11
141273.1142745738
 21
53320.64067666213
 31
0.0
  0
LINE
  5
30E
330
2
100
AcDbEntity
  8
0Hatch
380
     2
100
AcDbLine
 10
141273.1142745738
 20
53320.64067666213
 30
0.0
 11
141251.825933254
 21
53309.01606505783
 31
0.0
  0
LINE
  5
30F
330
2
100
AcDbEntity
  8
0Hatch
380
     2
100
AcDbLine
 10
141322.6266911339
 20
53322.23221843813
 30
0.0
 11
141302.9575809335
 21
53304.98294843682
 31
0.0
  0
LINE
  5
310
330
2
100
AcDbEntity
  8
0Hatch
380
     2
100
AcDbLine
 10
141302.9575809335
 20
53304.98294843682
 30
0.0
 11
141281.2053686779
 21
53290.44842502863
 31
0.0
  0
LINE
  5
311
330
2
100
AcDbEntity
  8
0Hatch
380
     2
100
AcDbLine
 10
141349.4749335153
 20
53439.45996636517
 30
0.0
 11
141351.2053686106
 21
53463.65360459829
 31
0.0
  0
LINE
  5
312
330
2
100
AcDbEntity
  8
0Hatch
380
     2
100
AcDbLine
 10
141344.3190586795
 20
53415.75907935069
 30
0.0
 11
141349.4749335153
 21
53439.45996636517
 31
0.0
  0
LINE
  5
313
330
2
100
AcDbEntity
  8
0Hatch
380
     2
100
AcDbLine
 10
141335.8428445142
 20
53393.03297631799
 30
0.0
 11
141344.3190586795
 21
53415.75907935069
 31
0.0
  0
LINE
  5
314
330
2
100
AcDbEntity
  8
0Hatch
380
     2
100
AcDbLine
 10
141324.2183817773
 20
53371.74478386562
 30
0.0
 11
141335.8428445142
 21
53393.03297631799
 31
0.0
  0
LINE
  5
315
330
2
100
AcDbEntity
  8
0Hatch
380
     2
100
AcDbLine
 10
141309.6828162971
 20
53352.32725963485
 30
0.0
 11
141324.2183817773
 21
53371.74478386562
 31
0.0
  0
LINE
  5
316
330
2
100
AcDbEntity
  8
0Hatch
380
     2
100
AcDbLine
 10
141292.5316499372
 20
53335.17624214239
 30
0.0
 11
141309.6828162971
 21
53352.32725963485
 31
0.0
  0
LINE
  5
317
330
2
100
AcDbEntity
  8
0Hatch
380
     2
100
AcDbLine
 10
141379.4943500537
 20
53437.54835959822
 30
0.0
 11
141381.2052835147
 21
53463.65360459829
 31
0.0
  0
LINE
  5
318
330
2
100
AcDbEntity
  8
0Hatch
380
     2
100
AcDbLine
 10
141374.3904299536
 20
53411.88986577855
 30
0.0
 11
141379.4943500537
 21
53437.54835959822
 31
0.0
  0
LINE
  5
319
330
2
100
AcDbEntity
  8
0Hatch
380
     2
100
AcDbLine
 10
141365.9812061353
 20
53387.11683547807
 30
0.0
 11
141374.3904299536
 21
53411.88986577855
 31
0.0
  0
LINE
  5
31A
330
2
100
AcDbEntity
  8
0Hatch
380
     2
100
AcDbLine
 10
141354.4103356759
 20
53363.65368976153
 30
0.0
 11
141365.9812061353
 21
53387.11683547807
 31
0.0
  0
LINE
  5
31B
330
2
100
AcDbEntity
  8
0Hatch
380
     2
100
AcDbLine
 10
141339.8759611352
 20
53341.90132863854
 30
0.0
 11
141354.4103356759
 21
53363.65368976153
 31
0.0
  0
LINE
  5
31C
330
2
100
AcDbEntity
  8
0Hatch
380
     2
100
AcDbLine
 10
141322.6266911339
 20
53322.23221843813
 30
0.0
 11
141339.8759611352
 21
53341.90132863854
 31
0.0
  0
LINE
  5
31D
330
2
100
AcDbEntity
  8
0Hatch
380
     2
100
AcDbLine
 10
141229.0998302214
 20
53300.53985089252
 30
0.0
 11
141205.3989432069
 21
53295.38397605671
 31
0.0
  0
LINE
  5
31E
330
2
100
AcDbEntity
  8
0Hatch
380
     2
100
AcDbLine
 10
141205.3989432069
 20
53295.38397605671
 30
0.0
 11
141181.2053049738
 21
53293.65354096139
 31
0.0
  0
LINE
  5
31F
330
2
100
AcDbEntity
  8
0Hatch
380
     2
100
AcDbLine
 10
141232.9691926609
 20
53270.46847961839
 30
0.0
 11
141207.3105499738
 21
53265.36470838576
 31
0.0
  0
LINE
  5
320
330
2
100
AcDbEntity
  8
0Hatch
380
     2
100
AcDbLine
 10
141207.3105499738
 20
53265.36470838576
 30
0.0
 11
141181.2053049738
 21
53263.65362605733
 31
0.0
  0
LINE
  5
336
330
2
100
AcDbEntity
  8
0Hatch
380
     2
100
AcDbLine
 10
141381.2052835147
 20
53570.65356408855
 30
0.0
 11
141379.4943500537
 21
53596.75895795606
 31
0.0
  0
LINE
  5
337
330
2
100
AcDbEntity
  8
0Hatch
380
     2
100
AcDbLine
 10
141351.2053686106
 20
53570.65356408855
 30
0.0
 11
141349.4749335153
 21
53594.84720232167
 31
0.0
  0
LINE
  5
33C
330
2
100
AcDbEntity
  8
0Hatch
380
     2
100
AcDbLine
 10
141181.2053049738
 20
53740.65362772546
 30
0.0
 11
140564.2054523077
 21
53740.65362772546
 31
0.0
  0
LINE
  5
346
330
2
100
AcDbEntity
  8
0Hatch
380
     2
100
AcDbLine
 10
140534.205686271
 20
53430.65356422314
 30
0.0
 11
140534.205686271
 21
53480.65367050896
 31
0.0
  0
LINE
  5
34A
330
2
100
AcDbEntity
  8
0Hatch
380
     2
100
AcDbLine
 10
140534.205686271
 20
53480.65367050896
 30
0.0
 11
140534.205686271
 21
53770.65339376208
 31
0.0
  0
LINE
  5
34C
330
2
100
AcDbEntity
  8
0Hatch
380
     2
100
AcDbLine
 10
140214.2056015115
 20
52278.65383967199
 30
0.0
 11
140214.2056015115
 21
52591.65380534426
 31
0.0
  0
LINE
  5
34D
330
2
100
AcDbEntity
  8
0Hatch
380
     2
100
AcDbLine
 10
140214.2056015115
 20
52278.65383967199
 30
0.0
 11
140364.1841857231
 21
52466.65383736459
 31
0.0
  0
LINE
  5
34E
330
2
100
AcDbEntity
  8
0Hatch
380
     2
100
AcDbLine
 10
140257.2056631439
 20
52591.65380534426
 30
0.0
 11
140214.2056015115
 21
52591.65380534426
 31
0.0
  0
LINE
  5
352
330
2
100
AcDbEntity
  8
0Hatch
380
     2
100
AcDbLine
 10
140524.2056650139
 20
52278.65383967199
 30
0.0
 11
140524.2056650139
 21
52591.65380534426
 31
0.0
  0
LINE
  5
354
330
2
100
AcDbEntity
  8
0Hatch
380
     2
100
AcDbLine
 10
140551.7056490374
 20
52591.65380534426
 30
0.0
 11
140497.205577846
 21
52591.65380534426
 31
0.0
  0
LINE
  5
356
330
2
100
AcDbEntity
  8
0Hatch
380
     2
100
AcDbLine
 10
140539.2055480321
 20
52501.65376289722
 30
0.0
 11
140539.2055480321
 21
52526.65381604014
 31
0.0
  0
LINE
  5
358
330
2
100
AcDbEntity
  8
0Hatch
380
     2
100
AcDbLine
 10
140497.205577846
 20
52591.65380534426
 30
0.0
 11
140257.2056631439
 21
52591.65380534426
 31
0.0
  0
LINE
  5
359
330
2
100
AcDbEntity
  8
0Hatch
380
     2
100
AcDbLine
 10
140524.2056650139
 20
52278.65383967199
 30
0.0
 11
140364.1841857231
 21
52466.65383736459
 31
0.0
  0
LINE
  5
35A
330
2
100
AcDbEntity
  8
0Hatch
380
     2
100
AcDbLine
 10
140524.2056650139
 20
52278.65383967199
 30
0.0
 11
140214.2056015115
 21
52278.65383967199
 31
0.0
  0
DIMENSION
  5
35E
330
2
100
AcDbEntity
  8
0Hatch
100
AcDbDimension
  2
*D117
 10
141991.9703584854
 20
52496.65375226864
 30
0.0
 11
141911.9703584854
 21
52988.65371138882
 31
0.0
 70
    32
 71
     5
 42
983.9999182403117
  3
500
100
AcDbAlignedDimension
 13
140936.205379643
 23
53480.65367050896
 33
0.0
 14
141181.2053049738
 24
52496.65375226864
 34
0.0
 50
90.0
100
AcDbRotatedDimension
  0
DIMENSION
  5
369
330
2
100
AcDbEntity
  8
0Hatch
100
AcDbDimension
  2
*D116
 10
141787.2981661993
 20
53480.65367050896
 30
0.0
 11
141721.7995038201
 21
53595.50556429222
 31
0.0
 70
   160
 71
     5
 42
50.00010628582095
  3
500
100
AcDbAlignedDimension
 13
141181.2053049738
 23
53430.65356422314
 33
0.0
 14
140936.205379643
 24
53480.65367050896
 34
0.0
 50
90.0
100
AcDbRotatedDimension
  0
DIMENSION
  5
376
330
2
100
AcDbEntity
  8
0Hatch
100
AcDbDimension
  2
*D115
 10
141787.2981661993
 20
53430.65356422314
 30
0.0
 11
141707.2981661992
 21
53257.15362712694
 31
0.0
 70
    32
 71
     5
 42
346.9998741924355
  3
500
100
AcDbAlignedDimension
 13
141226.2054006309
 23
53083.6536900307
 33
0.0
 14
141181.2053049738
 24
53430.65356422314
 34
0.0
 50
90.0
100
AcDbRotatedDimension
  0
DIMENSION
  5
381
330
2
100
AcDbEntity
  8
0Hatch
100
AcDbDimension
  2
*D114
 10
141787.2981661993
 20
53083.6536900307
 30
0.0
 11
141707.2981661992
 21
52938.65367953673
 31
0.0
 70
    32
 71
     5
 42
290.0000209879945
  3
500
100
AcDbAlignedDimension
 13
141226.2054006309
 23
52793.6536690427
 33
0.0
 14
141226.2054006309
 24
53083.6536900307
 34
0.0
 50
90.0
100
AcDbRotatedDimension
  0
DIMENSION
  5
38C
330
2
100
AcDbEntity
  8
0Hatch
100
AcDbDimension
  2
*D113
 10
141787.2981661993
 20
52793.6536690427
 30
0.0
 11
141707.2981661992
 21
52645.1537106557
 31
0.0
 70
    32
 71
     5
 42
296.9999167740607
  3
500
100
AcDbAlignedDimension
 13
141181.2053049738
 23
52496.65375226864
 33
0.0
 14
141226.2054006309
 24
52793.6536690427
 34
0.0
 50
90.0
100
AcDbRotatedDimension
  0
TEXT
  5
3A2
330
2
100
AcDbEntity
  8
NAPISY
100
AcDbText
 10
138792.7720165321
 20
52092.24521581639
 30
0.0
 40
100.0
  1
OŚ ODBICIA LUSTRZANEGO
 50
90.0
  7
AVA
100
AcDbText
  0
LINE
  5
3A4
330
2
100
AcDbEntity
  8
0Hatch
380
     2
100
AcDbLine
 10
137490.3807855392
 20
52591.65380534426
 30
0.0
 11
137490.3807855392
 21
53430.65356422314
 31
0.0
  0
LINE
  5
3A6
330
2
100
AcDbEntity
  8
0Hatch
380
     2
100
AcDbLine
 10
137180.3807220368
 20
52278.65383967199
 30
0.0
 11
137490.3807855392
 21
52278.65383967199
 31
0.0
  0
LINE
  5
3A7
330
2
100
AcDbEntity
  8
0Hatch
380
     2
100
AcDbLine
 10
137180.3807220368
 20
52278.65383967199
 30
0.0
 11
137340.4022013276
 21
52466.65383736459
 31
0.0
  0
LINE
  5
3A8
330
2
100
AcDbEntity
  8
0Hatch
380
     2
100
AcDbLine
 10
137207.3808092047
 20
52591.65380534426
 30
0.0
 11
137447.3807239068
 21
52591.65380534426
 31
0.0
  0
LINE
  5
3AA
330
2
100
AcDbEntity
  8
0Hatch
380
     2
100
AcDbLine
 10
137165.3808390185
 20
52501.65376289722
 30
0.0
 11
137165.3808390185
 21
52526.65381604014
 31
0.0
  0
LINE
  5
3AC
330
2
100
AcDbEntity
  8
0Hatch
380
     2
100
AcDbLine
 10
137152.8807380134
 20
52591.65380534426
 30
0.0
 11
137207.3808092047
 21
52591.65380534426
 31
0.0
  0
LINE
  5
3AE
330
2
100
AcDbEntity
  8
0Hatch
380
     2
100
AcDbLine
 10
137180.3807220368
 20
52278.65383967199
 30
0.0
 11
137180.3807220368
 21
52591.65380534426
 31
0.0
  0
LINE
  5
3B1
330
2
100
AcDbEntity
  8
0Hatch
380
     2
100
AcDbLine
 10
137447.3807239068
 20
52591.65380534426
 30
0.0
 11
137447.3807239068
 21
52621.65372024831
 31
0.0
  0
LINE
  5
3B2
330
2
100
AcDbEntity
  8
0Hatch
380
     2
100
AcDbLine
 10
137447.3807239068
 20
52591.65380534426
 30
0.0
 11
137490.3807855392
 21
52591.65380534426
 31
0.0
  0
LINE
  5
3B3
330
2
100
AcDbEntity
  8
0Hatch
380
     2
100
AcDbLine
 10
137490.3807855392
 20
52278.65383967199
 30
0.0
 11
137340.4022013276
 21
52466.65383736459
 31
0.0
  0
LINE
  5
3B4
330
2
100
AcDbEntity
  8
0Hatch
380
     2
100
AcDbLine
 10
137490.3807855392
 20
52278.65383967199
 30
0.0
 11
137490.3807855392
 21
52591.65380534426
 31
0.0
  0
LINE
  5
3B5
330
2
100
AcDbEntity
  8
0Hatch
380
     2
100
AcDbLine
 10
137447.3807239068
 20
52591.65380534426
 30
0.0
 11
137447.3807239068
 21
52617.73731569844
 31
0.0
  0
LINE
  5
3B6
330
2
100
AcDbEntity
  8
0Hatch
380
     2
100
AcDbLine
 10
137170.3807007797
 20
53480.65367050896
 30
0.0
 11
137170.3807007797
 21
53770.65339376208
 31
0.0
  0
LINE
  5
3B7
330
2
100
AcDbEntity
  8
0Hatch
380
     2
100
AcDbLine
 10
137286.4008360525
 20
53430.65356422314
 30
0.0
 11
137376.4007296321
 21
53430.65356422314
 31
0.0
  0
LINE
  5
3B9
330
2
100
AcDbEntity
  8
0Hatch
380
     2
100
AcDbLine
 10
137170.3807007797
 20
53430.65356422314
 30
0.0
 11
137286.4008360525
 21
53430.65356422314
 31
0.0
  0
LINE
  5
3BA
330
2
100
AcDbEntity
  8
0Hatch
380
     2
100
AcDbLine
 10
137170.3807007797
 20
53430.65356422314
 30
0.0
 11
137170.3807007797
 21
53480.65367050896
 31
0.0
  0
LINE
  5
3BD
330
2
100
AcDbEntity
  8
0Hatch
380
     2
100
AcDbLine
 10
137376.4007296321
 20
53430.65356422314
 30
0.0
 11
137490.3807855392
 21
53430.65356422314
 31
0.0
  0
DIMENSION
  5
3BF
330
2
100
AcDbEntity
  8
0Hatch
100
AcDbDimension
  2
*D107
 10
137885.026726911
 20
53430.65356422314
 30
0.0
 11
137805.0267269109
 21
53011.15368478373
 31
0.0
 70
    32
 71
     5
 42
838.9997588788828
  3
500
100
AcDbAlignedDimension
 13
137490.3807855392
 23
52591.65380534426
 33
0.0
 14
137490.3807855392
 24
53430.65356422314
 34
0.0
 50
90.0
100
AcDbRotatedDimension
  0
DIMENSION
  5
3CA
330
2
100
AcDbEntity
  8
0Hatch
100
AcDbDimension
  2
*D106
 10
137885.026726911
 20
53480.65367050896
 30
0.0
 11
137805.0267269109
 21
53568.60382051611
 31
0.0
 70
   160
 71
     5
 42
50.00010628581367
  3
500
100
AcDbAlignedDimension
 13
137490.3807855392
 23
53430.65356422314
 33
0.0
 14
137170.3807007797
 24
53480.65367050896
 34
0.0
 50
90.0
100
AcDbRotatedDimension
  0
DIMENSION
  5
3D7
330
2
100
AcDbEntity
  8
0Hatch
100
AcDbDimension
  2
*D112
 10
139632.6882159151
 20
52496.65375226864
 30
0.0
 11
139552.6882159151
 21
52988.65371138882
 31
0.0
 70
    32
 71
     5
 42
983.9999182403117
  3
500
100
AcDbAlignedDimension
 13
140534.205686271
 23
53480.65367050896
 33
0.0
 14
140727.205471291
 24
52496.65375226864
 34
0.0
 50
90.0
100
AcDbRotatedDimension
  0
DIMENSION
  5
3E2
330
2
100
AcDbEntity
  8
0Hatch
100
AcDbDimension
  2
*D111
 10
139819.5596601397
 20
53480.65367050896
 30
0.0
 11
139739.5596601398
 21
53598.08873677049
 31
0.0
 70
   160
 71
     5
 42
50.00010628581367
  3
500
100
AcDbAlignedDimension
 13
140214.2056015115
 23
53430.65356422314
 33
0.0
 14
140534.205686271
 24
53480.65367050896
 34
0.0
 50
90.0
100
AcDbRotatedDimension
  0
DIMENSION
  5
3EF
330
2
100
AcDbEntity
  8
0Hatch
100
AcDbDimension
  2
*D110
 10
139819.5596601397
 20
53430.65356422314
 30
0.0
 11
139739.5596601398
 21
53011.15368478373
 31
0.0
 70
    32
 71
     5
 42
838.9997588788828
  3
500
100
AcDbAlignedDimension
 13
140214.2056015115
 23
52591.65380534426
 33
0.0
 14
140214.2056015115
 24
53430.65356422314
 34
0.0
 50
90.0
100
AcDbRotatedDimension
  0
DIMENSION
  5
3FA
330
2
100
AcDbEntity
  8
0Hatch
100
AcDbDimension
  2
*D109
 10
139819.5596601397
 20
52591.65380534426
 30
0.0
 11
139746.8012550572
 21
52420.48255371995
 31
0.0
 70
   160
 71
     5
 42
95.00005307561513
  3
500
100
AcDbAlignedDimension
 13
140727.205471291
 23
52496.65375226864
 33
0.0
 14
140214.2056015115
 24
52591.65380534426
 34
0.0
 50
90.0
100
AcDbRotatedDimension
  0
LINE
  5
405
330
2
100
AcDbEntity
  8
NAPISY
  6
HIDDEN
 62
     1
 48
0.05
100
AcDbLine
 10
138852.2931935254
 20
51010.59805299588
 30
0.0
 11
138852.2931935254
 21
54996.13328145589
 31
0.0
  0
DIMENSION
  5
407
330
2
100
AcDbEntity
  8
0Hatch
100
AcDbDimension
  2
*D108
 10
140214.2056015115
 20
54328.07014177075
 30
0.0
 11
140697.7054532426
 21
54408.07014177075
 31
0.0
 70
    32
 71
     5
 42
966.9997034622065
  3
500
100
AcDbAlignedDimension
 13
141181.2053049738
 23
53430.65356422314
 33
0.0
 14
140214.2056015115
 24
53430.65356422314
 34
0.0
100
AcDbRotatedDimension
  0
LINE
  5
42B
330
2
100
AcDbEntity
  8
0Hatch
380
     2
100
AcDbLine
 10
136718.3809011219
 20
53430.65356422314
 30
0.0
 11
136768.3810074077
 21
53430.65356422314
 31
0.0
  0
LINE
  5
42C
330
2
100
AcDbEntity
  8
0Hatch
380
     2
100
AcDbLine
 10
136625.3810309386
 20
52496.65375226864
 30
0.0
 11
136775.3809031938
 21
52496.65375226864
 31
0.0
  0
LINE
  5
42F
330
2
100
AcDbEntity
  8
0Hatch
380
     2
100
AcDbLine
 10
136523.3810820769
 20
53740.65362772546
 30
0.0
 11
137140.3809347431
 21
53740.65362772546
 31
0.0
  0
LINE
  5
430
330
2
100
AcDbEntity
  8
0Hatch
380
     2
100
AcDbLine
 10
136523.3810820769
 20
52496.65375226864
 30
0.0
 11
136523.3810820769
 21
52793.6536690427
 31
0.0
  0
LINE
  5
432
330
2
100
AcDbEntity
  8
0Hatch
380
     2
100
AcDbLine
 10
136523.3810820769
 20
52496.65375226864
 30
0.0
 11
136625.3810309386
 21
52496.65375226864
 31
0.0
  0
LINE
  5
434
330
2
100
AcDbEntity
  8
0Hatch
380
     2
100
AcDbLine
 10
136353.3810184401
 20
53570.65356408855
 30
0.0
 11
136355.1114535354
 21
53594.84720232167
 31
0.0
  0
LINE
  5
435
330
2
100
AcDbEntity
  8
0Hatch
380
     2
100
AcDbLine
 10
136323.381103536
 20
53570.65356408855
 30
0.0
 11
136325.092036997
 21
53596.75895795606
 31
0.0
  0
LINE
  5
436
330
2
100
AcDbEntity
  8
0Hatch
380
     2
100
AcDbLine
 10
136553.380996981
 20
53400.65364931908
 30
0.0
 11
136568.3810288668
 21
53400.65364931908
 31
0.0
  0
LINE
  5
438
330
2
100
AcDbEntity
  8
0Hatch
380
     2
100
AcDbLine
 10
136568.3810288668
 20
53430.65356422314
 30
0.0
 11
136718.3809011219
 21
53430.65356422314
 31
0.0
  0
LINE
  5
439
330
2
100
AcDbEntity
  8
0Hatch
380
     2
100
AcDbLine
 10
136523.3810820769
 20
53430.65356422314
 30
0.0
 11
136568.3810288668
 21
53430.65356422314
 31
0.0
  0
LINE
  5
43A
330
2
100
AcDbEntity
  8
0Hatch
380
     2
100
AcDbLine
 10
136523.3810820769
 20
53083.6536900307
 30
0.0
 11
136523.3810820769
 21
53430.65356422314
 31
0.0
  0
LINE
  5
43B
330
2
100
AcDbEntity
  8
0Hatch
380
     2
100
AcDbLine
 10
136478.3809864197
 20
53083.6536900307
 30
0.0
 11
136523.3810820769
 21
53083.6536900307
 31
0.0
  0
LINE
  5
43C
330
2
100
AcDbEntity
  8
0Hatch
380
     2
100
AcDbLine
 10
136478.3809864197
 20
53028.6535731163
 30
0.0
 11
136478.3809864197
 21
53083.6536900307
 31
0.0
  0
LINE
  5
43D
330
2
100
AcDbEntity
  8
0Hatch
380
     2
100
AcDbLine
 10
136478.3809864197
 20
52848.65363708967
 30
0.0
 11
136478.3809864197
 21
53028.6535731163
 31
0.0
  0
LINE
  5
43E
330
2
100
AcDbEntity
  8
0Hatch
380
     2
100
AcDbLine
 10
136478.3809864197
 20
52793.6536690427
 30
0.0
 11
136478.3809864197
 21
52848.65363708967
 31
0.0
  0
LINE
  5
43F
330
2
100
AcDbEntity
  8
0Hatch
380
     2
100
AcDbLine
 10
136478.3809864197
 20
52793.6536690427
 30
0.0
 11
136523.3810820769
 21
52793.6536690427
 31
0.0
  0
LINE
  5
44B
330
2
100
AcDbEntity
  8
0Hatch
380
     2
100
AcDbLine
 10
136497.2758370769
 20
53265.36470838576
 30
0.0
 11
136523.3810820769
 21
53263.65362605733
 31
0.0
  0
LINE
  5
44C
330
2
100
AcDbEntity
  8
0Hatch
380
     2
100
AcDbLine
 10
136471.6171943898
 20
53270.46847961839
 30
0.0
 11
136497.2758370769
 21
53265.36470838576
 31
0.0
  0
LINE
  5
44D
330
2
100
AcDbEntity
  8
0Hatch
380
     2
100
AcDbLine
 10
136499.1874438438
 20
53295.38397605671
 30
0.0
 11
136523.3810820769
 21
53293.65354096139
 31
0.0
  0
LINE
  5
44E
330
2
100
AcDbEntity
  8
0Hatch
380
     2
100
AcDbLine
 10
136475.4865568293
 20
53300.53985089252
 30
0.0
 11
136499.1874438438
 21
53295.38397605671
 31
0.0
  0
LINE
  5
44F
330
2
100
AcDbEntity
  8
0Hatch
380
     2
100
AcDbLine
 10
136381.9596959168
 20
53322.23221843813
 30
0.0
 11
136364.7104259155
 21
53341.90132863854
 31
0.0
  0
LINE
  5
450
330
2
100
AcDbEntity
  8
0Hatch
380
     2
100
AcDbLine
 10
136364.7104259155
 20
53341.90132863854
 30
0.0
 11
136350.1760513747
 21
53363.65368976153
 31
0.0
  0
LINE
  5
451
330
2
100
AcDbEntity
  8
0Hatch
380
     2
100
AcDbLine
 10
136350.1760513747
 20
53363.65368976153
 30
0.0
 11
136338.6051809154
 21
53387.11683547807
 31
0.0
  0
LINE
  5
452
330
2
100
AcDbEntity
  8
0Hatch
380
     2
100
AcDbLine
 10
136338.6051809154
 20
53387.11683547807
 30
0.0
 11
136330.1959570971
 21
53411.88986577855
 31
0.0
  0
LINE
  5
453
330
2
100
AcDbEntity
  8
0Hatch
380
     2
100
AcDbLine
 10
136330.1959570971
 20
53411.88986577855
 30
0.0
 11
136325.092036997
 21
53437.54835959822
 31
0.0
  0
LINE
  5
454
330
2
100
AcDbEntity
  8
0Hatch
380
     2
100
AcDbLine
 10
136325.092036997
 20
53437.54835959822
 30
0.0
 11
136323.381103536
 21
53463.65360459829
 31
0.0
  0
LINE
  5
455
330
2
100
AcDbEntity
  8
0Hatch
380
     2
100
AcDbLine
 10
136412.0547371135
 20
53335.17624214239
 30
0.0
 11
136394.9035707536
 21
53352.32725963485
 31
0.0
  0
LINE
  5
456
330
2
100
AcDbEntity
  8
0Hatch
380
     2
100
AcDbLine
 10
136394.9035707536
 20
53352.32725963485
 30
0.0
 11
136380.3680052734
 21
53371.74478386562
 31
0.0
  0
LINE
  5
457
330
2
100
AcDbEntity
  8
0Hatch
380
     2
100
AcDbLine
 10
136380.3680052734
 20
53371.74478386562
 30
0.0
 11
136368.7435425365
 21
53393.03297631799
 31
0.0
  0
LINE
  5
458
330
2
100
AcDbEntity
  8
0Hatch
380
     2
100
AcDbLine
 10
136368.7435425365
 20
53393.03297631799
 30
0.0
 11
136360.2673283712
 21
53415.75907935069
 31
0.0
  0
LINE
  5
459
330
2
100
AcDbEntity
  8
0Hatch
380
     2
100
AcDbLine
 10
136360.2673283712
 20
53415.75907935069
 30
0.0
 11
136355.1114535354
 21
53439.45996636517
 31
0.0
  0
LINE
  5
45A
330
2
100
AcDbEntity
  8
0Hatch
380
     2
100
AcDbLine
 10
136355.1114535354
 20
53439.45996636517
 30
0.0
 11
136353.3810184401
 21
53463.65360459829
 31
0.0
  0
LINE
  5
45B
330
2
100
AcDbEntity
  8
0Hatch
380
     2
100
AcDbLine
 10
136401.6288061172
 20
53304.98294843682
 30
0.0
 11
136423.3810183728
 21
53290.44842502863
 31
0.0
  0
LINE
  5
45C
330
2
100
AcDbEntity
  8
0Hatch
380
     2
100
AcDbLine
 10
136381.9596959168
 20
53322.23221843813
 30
0.0
 11
136401.6288061172
 21
53304.98294843682
 31
0.0
  0
LINE
  5
45D
330
2
100
AcDbEntity
  8
0Hatch
380
     2
100
AcDbLine
 10
136431.4721124769
 20
53320.64067666213
 30
0.0
 11
136452.7604537967
 21
53309.01606505783
 31
0.0
  0
LINE
  5
45E
330
2
100
AcDbEntity
  8
0Hatch
380
     2
100
AcDbLine
 10
136412.0547371135
 20
53335.17624214239
 30
0.0
 11
136431.4721124769
 21
53320.64067666213
 31
0.0
  0
LINE
  5
45F
330
2
100
AcDbEntity
  8
0Hatch
380
     2
100
AcDbLine
 10
136353.3810184401
 20
53463.65360459829
 30
0.0
 11
136353.3810184401
 21
53570.65356408855
 31
0.0
  0
LINE
  5
460
330
2
100
AcDbEntity
  8
0Hatch
380
     2
100
AcDbLine
 10
136323.381103536
 20
53463.65360459829
 30
0.0
 11
136323.381103536
 21
53570.65356408855
 31
0.0
  0
LINE
  5
461
330
2
100
AcDbEntity
  8
0Hatch
380
     2
100
AcDbLine
 10
136446.8443129567
 20
53278.87770343675
 30
0.0
 11
136471.6171943898
 21
53270.46847961839
 31
0.0
  0
LINE
  5
462
330
2
100
AcDbEntity
  8
0Hatch
380
     2
100
AcDbLine
 10
136423.3810183728
 20
53290.44842502863
 30
0.0
 11
136446.8443129567
 21
53278.87770343675
 31
0.0
  0
LINE
  5
463
330
2
100
AcDbEntity
  8
0Hatch
380
     2
100
AcDbLine
 10
136452.7604537967
 20
53309.01606505782
 30
0.0
 11
136475.4865568293
 21
53300.53985089252
 31
0.0
  0
LINE
  5
466
330
2
100
AcDbEntity
  8
0Hatch
380
     2
100
AcDbLine
 10
136355.1114535354
 20
53594.84720232167
 30
0.0
 11
136360.2673283712
 21
53618.54808933615
 31
0.0
  0
LINE
  5
467
330
2
100
AcDbEntity
  8
0Hatch
380
     2
100
AcDbLine
 10
136360.2673283712
 20
53618.54808933615
 30
0.0
 11
136368.7435425365
 21
53641.27419236885
 31
0.0
  0
LINE
  5
468
330
2
100
AcDbEntity
  8
0Hatch
380
     2
100
AcDbLine
 10
136368.7435425365
 20
53641.27419236885
 30
0.0
 11
136380.3680052734
 21
53662.56253368867
 31
0.0
  0
LINE
  5
469
330
2
100
AcDbEntity
  8
0Hatch
380
     2
100
AcDbLine
 10
136380.3680052734
 20
53662.56253368867
 30
0.0
 11
136394.9035707536
 21
53681.979909052
 31
0.0
  0
LINE
  5
46A
330
2
100
AcDbEntity
  8
0Hatch
380
     2
100
AcDbLine
 10
136394.9035707536
 20
53681.979909052
 30
0.0
 11
136412.0547371135
 21
53699.13092654446
 31
0.0
  0
LINE
  5
46B
330
2
100
AcDbEntity
  8
0Hatch
380
     2
100
AcDbLine
 10
136325.092036997
 20
53596.75895795606
 30
0.0
 11
136330.1959570971
 21
53622.41745177573
 31
0.0
  0
LINE
  5
46C
330
2
100
AcDbEntity
  8
0Hatch
380
     2
100
AcDbLine
 10
136330.1959570971
 20
53622.41745177573
 30
0.0
 11
136338.6051809154
 21
53647.19018434134
 31
0.0
  0
LINE
  5
46D
330
2
100
AcDbEntity
  8
0Hatch
380
     2
100
AcDbLine
 10
136338.6051809154
 20
53647.19018434134
 30
0.0
 11
136350.1760513747
 21
53670.65347892531
 31
0.0
  0
LINE
  5
46E
330
2
100
AcDbEntity
  8
0Hatch
380
     2
100
AcDbLine
 10
136350.1760513747
 20
53670.65347892531
 30
0.0
 11
136364.7104259155
 21
53692.40569118086
 31
0.0
  0
LINE
  5
46F
330
2
100
AcDbEntity
  8
0Hatch
380
     2
100
AcDbLine
 10
136364.7104259155
 20
53692.40569118086
 30
0.0
 11
136381.9596959168
 21
53712.07495024871
 31
0.0
  0
LINE
  5
470
330
2
100
AcDbEntity
  8
0Hatch
380
     2
100
AcDbLine
 10
136412.0547371135
 20
53699.13092654446
 30
0.0
 11
136431.4721124769
 21
53713.66664089214
 31
0.0
  0
LINE
  5
471
330
2
100
AcDbEntity
  8
0Hatch
380
     2
100
AcDbLine
 10
136431.4721124769
 20
53713.66664089214
 30
0.0
 11
136452.7604537967
 21
53725.29110362902
 31
0.0
  0
LINE
  5
472
330
2
100
AcDbEntity
  8
0Hatch
380
     2
100
AcDbLine
 10
136452.7604537967
 20
53725.29110362902
 30
0.0
 11
136475.4865568293
 21
53733.76731779432
 31
0.0
  0
LINE
  5
473
330
2
100
AcDbEntity
  8
0Hatch
380
     2
100
AcDbLine
 10
136475.4865568293
 20
53733.76731779432
 30
0.0
 11
136499.1874438438
 21
53738.92319263014
 31
0.0
  0
LINE
  5
474
330
2
100
AcDbEntity
  8
0Hatch
380
     2
100
AcDbLine
 10
136499.1874438438
 20
53738.92319263014
 30
0.0
 11
136523.3810820769
 21
53740.65362772546
 31
0.0
  0
LINE
  5
475
330
2
100
AcDbEntity
  8
0Hatch
380
     2
100
AcDbLine
 10
136381.9596959168
 20
53712.07495024871
 30
0.0
 11
136401.6288061172
 21
53729.32422025002
 31
0.0
  0
LINE
  5
476
330
2
100
AcDbEntity
  8
0Hatch
380
     2
100
AcDbLine
 10
136401.6288061172
 20
53729.32422025002
 30
0.0
 11
136423.3810183728
 21
53743.85874365821
 31
0.0
  0
LINE
  5
477
330
2
100
AcDbEntity
  8
0Hatch
380
     2
100
AcDbLine
 10
136423.3810183728
 20
53743.85874365821
 30
0.0
 11
136446.8443129567
 21
53755.42931638266
 31
0.0
  0
LINE
  5
478
330
2
100
AcDbEntity
  8
0Hatch
380
     2
100
AcDbLine
 10
136446.8443129567
 20
53755.42931638266
 30
0.0
 11
136471.6171943898
 21
53763.8388379359
 31
0.0
  0
LINE
  5
479
330
2
100
AcDbEntity
  8
0Hatch
380
     2
100
AcDbLine
 10
136471.6171943898
 20
53763.8388379359
 30
0.0
 11
136497.2758370769
 21
53768.94260916852
 31
0.0
  0
LINE
  5
47A
330
2
100
AcDbEntity
  8
0Hatch
380
     2
100
AcDbLine
 10
136497.2758370769
 20
53768.94260916852
 30
0.0
 11
136523.3810820769
 21
53770.65339376208
 31
0.0
  0
LINE
  5
47C
330
2
100
AcDbEntity
  8
0Hatch
380
     2
100
AcDbLine
 10
137140.3809347431
 20
52501.65376289722
 30
0.0
 11
137140.3809347431
 21
52526.65381604014
 31
0.0
  0
LINE
  5
47F
330
2
100
AcDbEntity
  8
0Hatch
380
     2
100
AcDbLine
 10
136775.3809031938
 20
52496.65375226864
 30
0.0
 11
136977.3809157596
 21
52496.65375226864
 31
0.0
  0
LINE
  5
480
330
2
100
AcDbEntity
  8
0Hatch
380
     2
100
AcDbLine
 10
136977.3809157596
 20
52496.65375226864
 30
0.0
 11
136977.3809157596
 21
52527.13138278014
 31
0.0
  0
LINE
  5
481
330
2
100
AcDbEntity
  8
0Hatch
380
     2
100
AcDbLine
 10
136977.3809157596
 20
52527.13138278014
 30
0.0
 11
136977.3809157596
 21
52587.13136145568
 31
0.0
  0
LINE
  5
482
330
2
100
AcDbEntity
  8
0Hatch
380
     2
100
AcDbLine
 10
136977.3809157596
 20
52587.13136145568
 30
0.0
 11
136977.3809157596
 21
52591.65380534426
 31
0.0
  0
LINE
  5
483
330
2
100
AcDbEntity
  8
0Hatch
380
     2
100
AcDbLine
 10
136977.3809157596
 20
52591.65380534426
 30
0.0
 11
137009.3808646886
 21
52591.65380534426
 31
0.0
  0
LINE
  5
484
330
2
100
AcDbEntity
  8
0Hatch
380
     2
100
AcDbLine
 10
137009.3808646886
 20
52591.65380534426
 30
0.0
 11
137009.3808646886
 21
52621.65372024831
 31
0.0
  0
LINE
  5
48B
330
2
100
AcDbEntity
  8
0Hatch
380
     2
100
AcDbLine
 10
136977.3809157596
 20
52466.65383736459
 30
0.0
 11
136977.3809157596
 21
52496.65375226864
 31
0.0
  0
LINE
  5
48C
330
2
100
AcDbEntity
  8
0Hatch
380
     2
100
AcDbLine
 10
137009.3808646886
 20
52591.65380534426
 30
0.0
 11
137119.3808007826
 21
52591.65380534426
 31
0.0
  0
LINE
  5
48E
330
2
100
AcDbEntity
  8
0Hatch
380
     2
100
AcDbLine
 10
137009.3808646886
 20
52591.65380534426
 30
0.0
 11
137009.3808646886
 21
52603.65371175891
 31
0.0
  0
LINE
  5
490
330
2
100
AcDbEntity
  8
0Hatch
380
     2
100
AcDbLine
 10
137140.3809347431
 20
53480.65367050896
 30
0.0
 11
137140.3809347431
 21
53740.65362772546
 31
0.0
  0
LINE
  5
4AE
330
2
100
AcDbEntity
  8
0Hatch
380
     2
100
AcDbLine
 10
136768.3810074077
 20
53480.65367050896
 30
0.0
 11
136879.3808860804
 21
53480.65367050896
 31
0.0
  0
LINE
  5
4AF
330
2
100
AcDbEntity
  8
0Hatch
380
     2
100
AcDbLine
 10
136768.3810074077
 20
53430.65356422314
 30
0.0
 11
136768.3810074077
 21
53480.65367050896
 31
0.0
  0
LINE
  5
4B1
330
2
100
AcDbEntity
  8
0Hatch
380
     2
100
AcDbLine
 10
136879.3808860804
 20
53480.65367050896
 30
0.0
 11
137059.3809709744
 21
53480.65367050896
 31
0.0
  0
DIMENSION
  5
4B6
330
2
100
AcDbEntity
  8
0Hatch
100
AcDbDimension
  2
*D105
 10
136523.3810820769
 20
54122.4272454648
 30
0.0
 11
136645.8810447424
 21
54202.4272454648
 31
0.0
 70
    32
 71
     5
 42
244.999925330776
  3
500
100
AcDbAlignedDimension
 13
136768.3810074077
 23
53480.65367050896
 33
0.0
 14
136523.3810820769
 24
53430.65356422314
 34
0.0
 50
180.0
100
AcDbRotatedDimension
  0
DIMENSION
  5
4C1
330
2
100
AcDbEntity
  8
0Hatch
100
AcDbDimension
  2
*D104
 10
135917.2882208514
 20
52793.6536690427
 30
0.0
 11
135837.2882208514
 21
52645.1537106557
 31
0.0
 70
    32
 71
     5
 42
296.9999167740607
  3
500
100
AcDbAlignedDimension
 13
136523.3810820769
 23
52496.65375226864
 33
0.0
 14
136478.3809864197
 24
52793.6536690427
 34
0.0
 50
90.0
100
AcDbRotatedDimension
  0
DIMENSION
  5
4CC
330
2
100
AcDbEntity
  8
0Hatch
100
AcDbDimension
  2
*D103
 10
135917.2882208514
 20
53083.6536900307
 30
0.0
 11
135837.2882208514
 21
52938.65367953673
 31
0.0
 70
    32
 71
     5
 42
290.0000209879945
  3
500
100
AcDbAlignedDimension
 13
136478.3809864197
 23
52793.6536690427
 33
0.0
 14
136478.3809864197
 24
53083.6536900307
 34
0.0
 50
90.0
100
AcDbRotatedDimension
  0
DIMENSION
  5
4D7
330
2
100
AcDbEntity
  8
0Hatch
100
AcDbDimension
  2
*D102
 10
135917.2882208514
 20
53430.65356422314
 30
0.0
 11
135837.2882208514
 21
53257.15362712694
 31
0.0
 70
    32
 71
     5
 42
346.9998741924355
  3
500
100
AcDbAlignedDimension
 13
136478.3809864197
 23
53083.6536900307
 33
0.0
 14
136523.3810820769
 24
53430.65356422314
 34
0.0
 50
90.0
100
AcDbRotatedDimension
  0
DIMENSION
  5
4E2
330
2
100
AcDbEntity
  8
0Hatch
100
AcDbDimension
  2
*D101
 10
135917.2882208514
 20
53480.65367050896
 30
0.0
 11
135837.2882208514
 21
53540.03936092323
 31
0.0
 70
   160
 71
     5
 42
50.00010628582095
  3
500
100
AcDbAlignedDimension
 13
136523.3810820769
 23
53430.65356422314
 33
0.0
 14
136768.3810074077
 24
53480.65367050896
 34
0.0
 50
90.0
100
AcDbRotatedDimension
  0
DIMENSION
  5
4EF
330
2
100
AcDbEntity
  8
0Hatch
100
AcDbDimension
  2
*D100
 10
136977.3809157596
 20
51761.29493751301
 30
0.0
 11
136750.3809989183
 21
51841.29493751301
 31
0.0
 70
    32
 71
     5
 42
453.9998336826974
  3
500
100
AcDbAlignedDimension
 13
136523.3810820769
 23
52496.65375226864
 33
0.0
 14
136977.3809157596
 24
52496.65375226864
 34
0.0
100
AcDbRotatedDimension
  0
DIMENSION
  5
4FA
330
2
100
AcDbEntity
  8
0Hatch
100
AcDbDimension
  2
*D99
 10
136478.3809864197
 20
51761.29493751301
 30
0.0
 11
136397.813663681
 21
51841.29493751301
 31
0.0
 70
   160
 71
     5
 42
45.00009565721848
  3
500
100
AcDbAlignedDimension
 13
136523.3810820769
 23
52496.65375226864
 33
0.0
 14
136478.3809864197
 24
52793.6536690427
 34
0.0
100
AcDbRotatedDimension
  0
DIMENSION
  5
507
330
2
100
AcDbEntity
  8
0Hatch
100
AcDbDimension
  2
*D98
 10
135712.6160285653
 20
52496.65375226864
 30
0.0
 11
135632.6160285653
 21
52988.65371138882
 31
0.0
 70
    32
 71
     5
 42
983.9999182403117
  3
500
100
AcDbAlignedDimension
 13
136768.3810074077
 23
53480.65367050896
 33
0.0
 14
136523.3810820769
 24
52496.65375226864
 34
0.0
 50
90.0
100
AcDbRotatedDimension
  0
TEXT
  5
512
330
2
100
AcDbEntity
  8
NAPISY
100
AcDbText
 10
135046.5544048182
 20
44203.07239845843
 30
0.0
 40
150.0
  1
   O B R Y S   B U D Y N K U           S K A L A   1 : 5 0 0 
  7
ARIAL
100
AcDbText
  0
TEXT
  5
513
330
2
100
AcDbEntity
  8
NAPISY
100
AcDbText
 10
135142.7674507493
 20
56666.43765934032
 30
0.0
 40
150.0
  1
MOŻNA WKLEIĆ DO PROJEKTU ZAGOSPODAROWANIA TERENU
  7
ARIAL
100
AcDbText
  0
LWPOLYLINE
  5
515
330
2
100
AcDbEntity
  8
RAMKI-A4
100
AcDbPolyline
 90
        4
 70
     1
 43
0.0
 10
133587.2024529565
 20
43537.51631555589
 10
133587.2024529565
 20
57557.5163155559
 10
143787.2024529565
 20
57557.5163155559
 10
143787.2024529565
 20
43537.51631555589
  0
TEXT
  5
517
330
2
100
AcDbEntity
  8
NAPISY
100
AcDbText
 10
135057.2283706267
 20
56996.30613670306
 30
0.0
 40
150.0
  1
"D O M  W  C Y K L A M E N A C H"
  7
ARIAL
100
AcDbText
  0
LINE
  5
518
330
2
100
AcDbEntity
  8
0Hatch
380
     2
100
AcDbLine
 10
136523.3810820769
 20
53770.65339376208
 30
0.0
 11
137170.3807007797
 21
53770.65339376208
 31
0.0
  0
LINE
  5
51B
330
2
100
AcDbEntity
  8
0Hatch
380
     2
100
AcDbLine
 10
136977.3809157596
 20
52466.65383736459
 30
0.0
 11
137490.3807855392
 21
52466.65383736459
 31
0.0
  0
LINE
  5
51C
330
2
100
AcDbEntity
  8
0Hatch
380
     2
100
AcDbLine
 10
137140.3809347431
 20
52526.65381604014
 30
0.0
 11
137165.3808390185
 21
52526.65381604014
 31
0.0
  0
LINE
  5
51D
330
2
100
AcDbEntity
  8
0Hatch
380
     2
100
AcDbLine
 10
137140.3809347431
 20
52501.65376289722
 30
0.0
 11
137165.3808390185
 21
52501.65376289722
 31
0.0
  0
HATCH
  5
51E
330
2
100
AcDbEntity
  8
0Hatch
100
AcDbHatch
 10
0.0
 20
0.0
 30
0.0
210
0.0
220
0.0
230
1.0
  2
SOLID
 70
     1
 71
     0
 91
        1
 92
        7
 72
     0
 73
     1
 93
        4
 10
137165.3808390185
 20
52526.65381604014
 10
137140.3809347431
 20
52526.65381604014
 10
137140.3809347431
 20
52501.65376289722
 10
137165.3808390185
 20
52501.65376289722
 97
        0
 75
     0
 76
     1
 47
4.11719990528551
 98
        1
 10
137158.2157507663
 20
52509.23943940507
  0
LINE
  5
51F
330
2
100
AcDbEntity
  8
0Hatch
380
     2
100
AcDbLine
 10
137119.3808007826
 20
52591.65380534426
 30
0.0
 11
137152.8807380134
 21
52591.65380534426
 31
0.0
  0
LINE
  5
520
330
2
100
AcDbEntity
  8
0Hatch
380
     2
100
AcDbLine
 10
136977.3809157596
 20
52496.65375226864
 30
0.0
 11
137180.3807220368
 21
52496.65375226864
 31
0.0
  0
LINE
  5
521
330
2
100
AcDbEntity
  8
0Hatch
380
     2
100
AcDbLine
 10
137059.3809709744
 20
53480.65367050896
 30
0.0
 11
137170.3807007797
 21
53480.65367050896
 31
0.0
  0
DIMENSION
  5
525
330
2
100
AcDbEntity
  8
0Hatch
100
AcDbDimension
  2
*D97
 10
137170.3807007797
 20
54122.4272454648
 30
0.0
 11
136969.3808540937
 21
54202.4272454648
 31
0.0
 70
    32
 71
     5
 42
401.9996933719666
  3
500
100
AcDbAlignedDimension
 13
136768.3810074077
 23
53480.65367050896
 33
0.0
 14
137170.3807007797
 24
53480.65367050896
 34
0.0
 50
180.0
100
AcDbRotatedDimension
  0
DIMENSION
  5
530
330
2
100
AcDbEntity
  8
0Hatch
100
AcDbDimension
  2
*D96
 10
137490.3807855392
 20
54122.4272454648
 30
0.0
 11
137330.3807431594
 21
54202.4272454648
 31
0.0
 70
    32
 71
     5
 42
320.0000847594638
  3
500
100
AcDbAlignedDimension
 13
137170.3807007797
 23
53480.65367050896
 33
0.0
 14
137490.3807855392
 24
53430.65356422314
 34
0.0
 50
180.0
100
AcDbRotatedDimension
  0
DIMENSION
  5
53B
330
2
100
AcDbEntity
  8
0Hatch
100
AcDbDimension
  2
*D95
 10
137490.3807855392
 20
54328.07014177075
 30
0.0
 11
137006.880933808
 21
54408.07014177075
 31
0.0
 70
    32
 71
     5
 42
966.9997034622065
  3
500
100
AcDbAlignedDimension
 13
136523.3810820769
 23
53430.65356422314
 33
0.0
 14
137490.3807855392
 24
53430.65356422314
 34
0.0
 50
180.0
100
AcDbRotatedDimension
  0
DIMENSION
  5
546
330
2
100
AcDbEntity
  8
0Hatch
100
AcDbDimension
  2
*D94
 10
138071.8981711356
 20
52496.65375226864
 30
0.0
 11
137991.8981711355
 21
52988.65371138882
 31
0.0
 70
    32
 71
     5
 42
983.9999182403117
  3
500
100
AcDbAlignedDimension
 13
137170.3807007797
 23
53480.65367050896
 33
0.0
 14
136977.3809157596
 24
52496.65375226864
 34
0.0
 50
90.0
100
AcDbRotatedDimension
  0
DIMENSION
  5
551
330
2
100
AcDbEntity
  8
0Hatch
100
AcDbDimension
  2
*D93
 10
137885.026726911
 20
52591.65380534426
 30
0.0
 11
137805.0267269109
 21
52420.48255371995
 31
0.0
 70
   160
 71
     5
 42
95.00005307561513
  3
500
100
AcDbAlignedDimension
 13
136977.3809157596
 23
52496.65375226864
 33
0.0
 14
137490.3807855392
 24
52591.65380534426
 34
0.0
 50
90.0
100
AcDbRotatedDimension
  0
DIMENSION
  5
55C
330
2
100
AcDbEntity
  8
0Hatch
100
AcDbDimension
  2
*D92
 10
137490.3807855392
 20
51761.29493751301
 30
0.0
 11
137233.8808506494
 21
51841.29493751301
 31
0.0
 70
    32
 71
     5
 42
512.999869779509
  3
500
100
AcDbAlignedDimension
 13
136977.3809157596
 23
52496.65375226864
 33
0.0
 14
137490.3807855392
 24
52591.65380534426
 34
0.0
100
AcDbRotatedDimension
  0
DIMENSION
  5
567
330
2
100
AcDbEntity
  8
0Hatch
100
AcDbDimension
  2
*D91
 10
137490.3807855392
 20
51571.14769014
 30
0.0
 11
136984.3808859794
 21
51651.14769014
 31
0.0
 70
    32
 71
     5
 42
1011.999799119425
  3
500
100
AcDbAlignedDimension
 13
136478.3809864197
 23
52793.6536690427
 33
0.0
 14
137490.3807855392
 24
52591.65380534426
 34
0.0
100
AcDbRotatedDimension
  0
LINE
  5
577
330
2
100
AcDbEntity
  8
0Hatch
380
     2
100
AcDbLine
 10
139057.2730855909
 20
48559.96392434051
 30
0.0
 11
139174.7932091654
 21
48559.96392434051
 31
0.0
  0
LWPOLYLINE
  5
B39
330
2
100
AcDbEntity
  8
0Hatch
100
AcDbPolyline
 90
       15
 70
     0
 43
0.0
 10
137490.3807855392
 20
52591.65380534426
 10
136977.3809157596
 20
52591.65380534426
 10
136977.3809157596
 20
52496.65375226864
 10
136523.3810820769
 20
52496.65375226864
 10
136523.3810820769
 20
52793.6536690427
 10
136478.3809864197
 20
52793.6536690427
 10
136478.3809864197
 20
53083.6536900307
 10
136523.3810820769
 20
53083.6536900307
 10
136523.3810820769
 20
53430.65356422314
 10
136768.3810074077
 20
53430.65356422314
 10
136768.3810074077
 20
53480.65367050896
 10
137170.3807007797
 20
53480.65367050895
 10
137170.3807007797
 20
53430.65356422314
 10
137490.3807855392
 20
53430.65356422314
 10
137490.3807855392
 20
52591.65380534426
  0
LWPOLYLINE
  5
B3A
330
2
100
AcDbEntity
  8
0Hatch
100
AcDbPolyline
 90
       14
 70
     1
 43
0.0
 10
137430.3807855391
 20
52651.65380534426
 10
136917.3809157596
 20
52651.65380534426
 10
136917.3809157596
 20
52556.65375226865
 10
136583.3810820769
 20
52556.65375226865
 10
136583.3810820769
 20
52853.65366904271
 10
136538.3809864197
 20
52853.65366904271
 10
136538.3809864197
 20
53023.6536900307
 10
136583.3810820769
 20
53023.6536900307
 10
136583.3810820769
 20
53370.65356422313
 10
136828.3810074077
 20
53370.65356422313
 10
136828.3810074077
 20
53420.65367050896
 10
137110.3807007797
 20
53420.65367050895
 10
137110.3807007797
 20
53370.65356422313
 10
137430.3807855391
 20
53370.65356422314
  0
LINE
  5
B3D
330
2
100
AcDbEntity
  8
WYMIARY
100
AcDbLine
 10
137207.3808092047
 20
52591.65380534426
 30
0.0
 11
137207.3808092047
 21
52651.65380534426
 31
0.0
  0
LINE
  5
B3E
330
2
100
AcDbEntity
  8
WYMIARY
100
AcDbLine
 10
137119.3808007826
 20
52591.65380534426
 30
0.0
 11
137119.3808007826
 21
52651.65380534426
 31
0.0
  0
LINE
  5
B40
330
2
100
AcDbEntity
  8
WYMIARY
100
AcDbLine
 10
137009.3808646886
 20
52591.65380534426
 30
0.0
 11
137009.3808646886
 21
52651.65380534426
 31
0.0
  0
LINE
  5
B41
330
2
100
AcDbEntity
  8
WYMIARY
100
AcDbLine
 10
137447.3808092047
 20
52591.65380534426
 30
0.0
 11
137447.3808092047
 21
52651.65380534426
 31
0.0
  0
LINE
  5
B42
330
2
100
AcDbEntity
  8
WYMIARY
100
AcDbLine
 10
137447.3808092047
 20
52651.65380534426
 30
0.0
 11
137430.3807855391
 21
52651.65380534426
 31
0.0
  0
LWPOLYLINE
  5
B44
330
2
100
AcDbEntity
  8
0Hatch
100
AcDbPolyline
 90
        2
 70
     0
 43
60.0
 10
137207.3808092047
 20
52621.65380534426
 10
137119.3808007826
 20
52621.65380534426
  0
LWPOLYLINE
  5
B45
330
2
100
AcDbEntity
  8
0Hatch
100
AcDbPolyline
 90
       15
 70
     0
 43
60.0
 10
137009.3808646886
 20
52621.65380534426
 10
136947.3809157596
 20
52621.65380534426
 10
136947.3809157596
 20
52526.65375226865
 10
136553.3810820769
 20
52526.65375226865
 10
136553.3810820769
 20
52823.6536690427
 10
136508.3809864197
 20
52823.6536690427
 10
136508.3809864197
 20
53053.6536900307
 10
136553.3810820769
 20
53053.6536900307
 10
136553.380996981
 20
53400.65364931908
 10
136798.3810074077
 20
53400.65356422313
 10
136798.3810074077
 20
53450.65367050896
 10
137140.3807007797
 20
53450.65367050895
 10
137140.3807007797
 20
53400.65356422313
 10
137460.3807855392
 20
53400.65356422313
 10
137460.3807855392
 20
52651.49392702377
  0
LWPOLYLINE
  5
B46
330
2
100
AcDbEntity
  8
0Hatch
100
AcDbPolyline
 90
        2
 70
     0
 43
60.0
 10
137447.3808092047
 20
52621.65380534426
 10
137490.3807855392
 20
52621.65380534426
  0
LINE
  5
B47
330
2
100
AcDbEntity
  8
0Hatch
380
     2
100
AcDbLine
 10
140257.2056631439
 20
52591.65380534426
 30
0.0
 11
140257.2056631439
 21
52621.65372024831
 31
0.0
  0
LWPOLYLINE
  5
B48
330
2
100
AcDbEntity
  8
0Hatch
100
AcDbPolyline
 90
       15
 70
     0
 43
0.0
 10
140214.2056015116
 20
52591.65380534426
 10
140727.2054712911
 20
52591.65380534426
 10
140727.2054712911
 20
52496.65375226864
 10
141181.2053049738
 20
52496.65375226864
 10
141181.2053049738
 20
52793.6536690427
 10
141226.205400631
 20
52793.6536690427
 10
141226.205400631
 20
53083.6536900307
 10
141181.2053049738
 20
53083.6536900307
 10
141181.2053049738
 20
53430.65356422314
 10
140936.205379643
 20
53430.65356422314
 10
140936.205379643
 20
53480.65367050896
 10
140534.205686271
 20
53480.65367050895
 10
140534.205686271
 20
53430.65356422314
 10
140214.2056015116
 20
53430.65356422314
 10
140214.2056015116
 20
52591.65380534426
  0
LWPOLYLINE
  5
B49
330
2
100
AcDbEntity
  8
0Hatch
100
AcDbPolyline
 90
       14
 70
     1
 43
0.0
 10
140274.2056015116
 20
52651.65380534426
 10
140787.2054712911
 20
52651.65380534426
 10
140787.2054712911
 20
52556.65375226865
 10
141121.2053049738
 20
52556.65375226865
 10
141121.2053049738
 20
52853.65366904271
 10
141166.205400631
 20
52853.65366904271
 10
141166.205400631
 20
53023.6536900307
 10
141121.2053049738
 20
53023.6536900307
 10
141121.2053049738
 20
53370.65356422313
 10
140876.205379643
 20
53370.65356422313
 10
140876.205379643
 20
53420.65367050896
 10
140594.205686271
 20
53420.65367050895
 10
140594.205686271
 20
53370.65356422313
 10
140274.2056015116
 20
53370.65356422314
  0
LINE
  5
B4A
330
2
100
AcDbEntity
  8
WYMIARY
100
AcDbLine
 10
140497.2055778461
 20
52591.65380534426
 30
0.0
 11
140497.2055778461
 21
52651.65380534426
 31
0.0
  0
LINE
  5
B4B
330
2
100
AcDbEntity
  8
WYMIARY
100
AcDbLine
 10
140257.2055778461
 20
52591.65380534426
 30
0.0
 11
140257.2055778461
 21
52651.65380534426
 31
0.0
  0
LINE
  5
B4C
330
2
100
AcDbEntity
  8
WYMIARY
100
AcDbLine
 10
140695.2055223621
 20
52591.65380534426
 30
0.0
 11
140695.2055223621
 21
52651.65380534426
 31
0.0
  0
LWPOLYLINE
  5
B4D
330
2
100
AcDbEntity
  8
0Hatch
100
AcDbPolyline
 90
        2
 70
     0
 43
60.0
 10
140497.2055778461
 20
52621.65380534426
 10
140585.2055862682
 20
52621.65380534426
  0
LWPOLYLINE
  5
B4E
330
2
100
AcDbEntity
  8
0Hatch
100
AcDbPolyline
 90
       15
 70
     0
 43
60.0
 10
140695.2055223621
 20
52621.65380534426
 10
140757.2054712911
 20
52621.65380534426
 10
140757.2054712911
 20
52526.65375226865
 10
141151.2053049738
 20
52526.65375226865
 10
141151.2053049738
 20
52823.6536690427
 10
141196.205400631
 20
52823.6536690427
 10
141196.205400631
 20
53053.6536900307
 10
141151.2053049738
 20
53053.6536900307
 10
141151.2053900697
 20
53400.65364931908
 10
140906.205379643
 20
53400.65356422313
 10
140906.205379643
 20
53450.65367050896
 10
140564.205686271
 20
53450.65367050895
 10
140564.205686271
 20
53400.65356422313
 10
140244.2056015116
 20
53400.65356422313
 10
140244.2056015116
 20
52651.49392702377
  0
LWPOLYLINE
  5
B4F
330
2
100
AcDbEntity
  8
0Hatch
100
AcDbPolyline
 90
        2
 70
     0
 43
60.0
 10
140257.2055778461
 20
52621.65380534426
 10
140214.2056015116
 20
52621.65380534426
  0
LINE
  5
B58
330
2
100
AcDbEntity
  8
0Hatch
380
     2
100
AcDbLine
 10
138849.7932626448
 20
47720.96416546163
 30
0.0
 11
138849.7932626448
 21
48559.96392434051
 31
0.0
  0
LINE
  5
B59
330
2
100
AcDbEntity
  8
0Hatch
380
     2
100
AcDbLine
 10
138539.7931991425
 20
47407.96419978936
 30
0.0
 11
138849.7932626448
 21
47407.96419978936
 31
0.0
  0
LINE
  5
B5A
330
2
100
AcDbEntity
  8
0Hatch
380
     2
100
AcDbLine
 10
138539.7931991425
 20
47407.96419978936
 30
0.0
 11
138699.8146784333
 21
47595.96419748196
 31
0.0
  0
LINE
  5
B5B
330
2
100
AcDbEntity
  8
0Hatch
380
     2
100
AcDbLine
 10
138566.7932863103
 20
47720.96416546163
 30
0.0
 11
138806.7932010125
 21
47720.96416546163
 31
0.0
  0
LINE
  5
B5C
330
2
100
AcDbEntity
  8
0Hatch
380
     2
100
AcDbLine
 10
138524.7933161242
 20
47630.96412301459
 30
0.0
 11
138524.7933161242
 21
47655.9641761575
 31
0.0
  0
LINE
  5
B5D
330
2
100
AcDbEntity
  8
0Hatch
380
     2
100
AcDbLine
 10
138512.293215119
 20
47720.96416546163
 30
0.0
 11
138566.7932863103
 21
47720.96416546163
 31
0.0
  0
LINE
  5
B5E
330
2
100
AcDbEntity
  8
0Hatch
380
     2
100
AcDbLine
 10
138539.7931991425
 20
47407.96419978936
 30
0.0
 11
138539.7931991425
 21
47720.96416546163
 31
0.0
  0
LINE
  5
B5F
330
2
100
AcDbEntity
  8
0Hatch
380
     2
100
AcDbLine
 10
138806.7932010125
 20
47720.96416546163
 30
0.0
 11
138806.7932010125
 21
47750.96408036568
 31
0.0
  0
LINE
  5
B60
330
2
100
AcDbEntity
  8
0Hatch
380
     2
100
AcDbLine
 10
138806.7932010125
 20
47720.96416546163
 30
0.0
 11
138849.7932626448
 21
47720.96416546163
 31
0.0
  0
LINE
  5
B61
330
2
100
AcDbEntity
  8
0Hatch
380
     2
100
AcDbLine
 10
138849.7932626448
 20
47407.96419978936
 30
0.0
 11
138699.8146784333
 21
47595.96419748196
 31
0.0
  0
LINE
  5
B62
330
2
100
AcDbEntity
  8
0Hatch
380
     2
100
AcDbLine
 10
138849.7932626448
 20
47407.96419978936
 30
0.0
 11
138849.7932626448
 21
47720.96416546163
 31
0.0
  0
LINE
  5
B63
330
2
100
AcDbEntity
  8
0Hatch
380
     2
100
AcDbLine
 10
138806.7932010125
 20
47720.96416546163
 30
0.0
 11
138806.7932010125
 21
47747.0476758158
 31
0.0
  0
LINE
  5
B64
330
2
100
AcDbEntity
  8
0Hatch
380
     2
100
AcDbLine
 10
138529.7931778853
 20
48609.96403062632
 30
0.0
 11
138529.7931778853
 21
48899.96375387944
 31
0.0
  0
LINE
  5
B65
330
2
100
AcDbEntity
  8
0Hatch
380
     2
100
AcDbLine
 10
138645.8133131581
 20
48559.9639243405
 30
0.0
 11
138735.8132067377
 21
48559.9639243405
 31
0.0
  0
LINE
  5
B66
330
2
100
AcDbEntity
  8
0Hatch
380
     2
100
AcDbLine
 10
138529.7931778853
 20
48559.9639243405
 30
0.0
 11
138645.8133131581
 21
48559.9639243405
 31
0.0
  0
LINE
  5
B67
330
2
100
AcDbEntity
  8
0Hatch
380
     2
100
AcDbLine
 10
138529.7931778853
 20
48559.9639243405
 30
0.0
 11
138529.7931778853
 21
48609.96403062632
 31
0.0
  0
LINE
  5
B68
330
2
100
AcDbEntity
  8
0Hatch
380
     2
100
AcDbLine
 10
138735.8132067377
 20
48559.9639243405
 30
0.0
 11
138849.7932626448
 21
48559.96392434051
 31
0.0
  0
LINE
  5
B6B
330
2
100
AcDbEntity
  8
0Hatch
380
     2
100
AcDbLine
 10
138077.7933782275
 20
48559.9639243405
 30
0.0
 11
138127.7934845134
 21
48559.9639243405
 31
0.0
  0
LINE
  5
B6C
330
2
100
AcDbEntity
  8
0Hatch
380
     2
100
AcDbLine
 10
137984.7935080443
 20
47625.96411238601
 30
0.0
 11
138134.7933802994
 21
47625.96411238601
 31
0.0
  0
LINE
  5
B6D
330
2
100
AcDbEntity
  8
0Hatch
380
     2
100
AcDbLine
 10
137882.7935591826
 20
48869.96398784282
 30
0.0
 11
138499.7934118487
 21
48869.96398784282
 31
0.0
  0
LINE
  5
B6E
330
2
100
AcDbEntity
  8
0Hatch
380
     2
100
AcDbLine
 10
137882.7935591826
 20
47625.96411238601
 30
0.0
 11
137882.7935591826
 21
47922.96402916007
 31
0.0
  0
LINE
  5
B6F
330
2
100
AcDbEntity
  8
0Hatch
380
     2
100
AcDbLine
 10
137882.7935591826
 20
47625.96411238601
 30
0.0
 11
137984.7935080443
 21
47625.96411238601
 31
0.0
  0
LINE
  5
B70
330
2
100
AcDbEntity
  8
0Hatch
380
     2
100
AcDbLine
 10
137712.7934955457
 20
48699.96392420592
 30
0.0
 11
137714.523930641
 21
48724.15756243904
 31
0.0
  0
LINE
  5
B71
330
2
100
AcDbEntity
  8
0Hatch
380
     2
100
AcDbLine
 10
137682.7935806417
 20
48699.96392420592
 30
0.0
 11
137684.5045141026
 21
48726.06931807343
 31
0.0
  0
LINE
  5
B72
330
2
100
AcDbEntity
  8
0Hatch
380
     2
100
AcDbLine
 10
137912.7934740867
 20
48529.96400943645
 30
0.0
 11
137927.7935059724
 21
48529.96400943645
 31
0.0
  0
LINE
  5
B73
330
2
100
AcDbEntity
  8
0Hatch
380
     2
100
AcDbLine
 10
137927.7935059724
 20
48559.9639243405
 30
0.0
 11
138077.7933782275
 21
48559.9639243405
 31
0.0
  0
LINE
  5
B74
330
2
100
AcDbEntity
  8
0Hatch
380
     2
100
AcDbLine
 10
137882.7935591826
 20
48559.9639243405
 30
0.0
 11
137927.7935059724
 21
48559.9639243405
 31
0.0
  0
LINE
  5
B75
330
2
100
AcDbEntity
  8
0Hatch
380
     2
100
AcDbLine
 10
137882.7935591826
 20
48212.96405014806
 30
0.0
 11
137882.7935591826
 21
48559.9639243405
 31
0.0
  0
LINE
  5
B76
330
2
100
AcDbEntity
  8
0Hatch
380
     2
100
AcDbLine
 10
137837.7934635254
 20
48212.96405014806
 30
0.0
 11
137882.7935591826
 21
48212.96405014806
 31
0.0
  0
LINE
  5
B77
330
2
100
AcDbEntity
  8
0Hatch
380
     2
100
AcDbLine
 10
137837.7934635254
 20
48157.96393323366
 30
0.0
 11
137837.7934635254
 21
48212.96405014806
 31
0.0
  0
LINE
  5
B78
330
2
100
AcDbEntity
  8
0Hatch
380
     2
100
AcDbLine
 10
137837.7934635254
 20
47977.96399720703
 30
0.0
 11
137837.7934635254
 21
48157.96393323366
 31
0.0
  0
LINE
  5
B79
330
2
100
AcDbEntity
  8
0Hatch
380
     2
100
AcDbLine
 10
137837.7934635254
 20
47922.96402916007
 30
0.0
 11
137837.7934635254
 21
47977.96399720703
 31
0.0
  0
LINE
  5
B7A
330
2
100
AcDbEntity
  8
0Hatch
380
     2
100
AcDbLine
 10
137837.7934635254
 20
47922.96402916007
 30
0.0
 11
137882.7935591826
 21
47922.96402916007
 31
0.0
  0
LINE
  5
B7B
330
2
100
AcDbEntity
  8
0Hatch
380
     2
100
AcDbLine
 10
137856.6883141825
 20
48394.67506850312
 30
0.0
 11
137882.7935591826
 21
48392.96398617469
 31
0.0
  0
LINE
  5
B7C
330
2
100
AcDbEntity
  8
0Hatch
380
     2
100
AcDbLine
 10
137831.0296714954
 20
48399.77883973576
 30
0.0
 11
137856.6883141825
 21
48394.67506850312
 31
0.0
  0
LINE
  5
B7D
330
2
100
AcDbEntity
  8
0Hatch
380
     2
100
AcDbLine
 10
137858.5999209495
 20
48424.69433617408
 30
0.0
 11
137882.7935591826
 21
48422.96390107875
 31
0.0
  0
LINE
  5
B7E
330
2
100
AcDbEntity
  8
0Hatch
380
     2
100
AcDbLine
 10
137834.899033935
 20
48429.85021100989
 30
0.0
 11
137858.5999209495
 21
48424.69433617408
 31
0.0
  0
LINE
  5
B7F
330
2
100
AcDbEntity
  8
0Hatch
380
     2
100
AcDbLine
 10
137741.3721730224
 20
48451.5425785555
 30
0.0
 11
137724.1229030211
 21
48471.21168875591
 31
0.0
  0
LINE
  5
B80
330
2
100
AcDbEntity
  8
0Hatch
380
     2
100
AcDbLine
 10
137724.1229030211
 20
48471.21168875591
 30
0.0
 11
137709.5885284804
 21
48492.96404987889
 31
0.0
  0
LINE
  5
B81
330
2
100
AcDbEntity
  8
0Hatch
380
     2
100
AcDbLine
 10
137709.5885284804
 20
48492.96404987889
 30
0.0
 11
137698.017658021
 21
48516.42719559544
 31
0.0
  0
LINE
  5
B82
330
2
100
AcDbEntity
  8
0Hatch
380
     2
100
AcDbLine
 10
137698.017658021
 20
48516.42719559544
 30
0.0
 11
137689.6084342027
 21
48541.20022589592
 31
0.0
  0
LINE
  5
B83
330
2
100
AcDbEntity
  8
0Hatch
380
     2
100
AcDbLine
 10
137689.6084342027
 20
48541.20022589592
 30
0.0
 11
137684.5045141026
 21
48566.85871971558
 31
0.0
  0
LINE
  5
B84
330
2
100
AcDbEntity
  8
0Hatch
380
     2
100
AcDbLine
 10
137684.5045141026
 20
48566.85871971558
 30
0.0
 11
137682.7935806417
 21
48592.96396471566
 31
0.0
  0
LINE
  5
B85
330
2
100
AcDbEntity
  8
0Hatch
380
     2
100
AcDbLine
 10
137771.4672142192
 20
48464.48660225976
 30
0.0
 11
137754.3160478593
 21
48481.63761975221
 31
0.0
  0
LINE
  5
B86
330
2
100
AcDbEntity
  8
0Hatch
380
     2
100
AcDbLine
 10
137754.3160478593
 20
48481.63761975221
 30
0.0
 11
137739.780482379
 21
48501.05514398299
 31
0.0
  0
LINE
  5
B87
330
2
100
AcDbEntity
  8
0Hatch
380
     2
100
AcDbLine
 10
137739.780482379
 20
48501.05514398299
 30
0.0
 11
137728.1560196421
 21
48522.34333643536
 31
0.0
  0
LINE
  5
B88
330
2
100
AcDbEntity
  8
0Hatch
380
     2
100
AcDbLine
 10
137728.1560196421
 20
48522.34333643536
 30
0.0
 11
137719.6798054768
 21
48545.06943946806
 31
0.0
  0
LINE
  5
B89
330
2
100
AcDbEntity
  8
0Hatch
380
     2
100
AcDbLine
 10
137719.6798054768
 20
48545.06943946806
 30
0.0
 11
137714.523930641
 21
48568.77032648253
 31
0.0
  0
LINE
  5
B8A
330
2
100
AcDbEntity
  8
0Hatch
380
     2
100
AcDbLine
 10
137714.523930641
 20
48568.77032648253
 30
0.0
 11
137712.7934955457
 21
48592.96396471566
 31
0.0
  0
LINE
  5
B8B
330
2
100
AcDbEntity
  8
0Hatch
380
     2
100
AcDbLine
 10
137761.0412832229
 20
48434.29330855419
 30
0.0
 11
137782.7934954784
 21
48419.758785146
 31
0.0
  0
LINE
  5
B8C
330
2
100
AcDbEntity
  8
0Hatch
380
     2
100
AcDbLine
 10
137741.3721730224
 20
48451.5425785555
 30
0.0
 11
137761.0412832229
 21
48434.29330855419
 31
0.0
  0
LINE
  5
B8D
330
2
100
AcDbEntity
  8
0Hatch
380
     2
100
AcDbLine
 10
137790.8845895825
 20
48449.9510367795
 30
0.0
 11
137812.1729309023
 21
48438.32642517519
 31
0.0
  0
LINE
  5
B8E
330
2
100
AcDbEntity
  8
0Hatch
380
     2
100
AcDbLine
 10
137771.4672142192
 20
48464.48660225976
 30
0.0
 11
137790.8845895825
 21
48449.9510367795
 31
0.0
  0
LINE
  5
B8F
330
2
100
AcDbEntity
  8
0Hatch
380
     2
100
AcDbLine
 10
137712.7934955457
 20
48592.96396471566
 30
0.0
 11
137712.7934955457
 21
48699.96392420592
 31
0.0
  0
LINE
  5
B90
330
2
100
AcDbEntity
  8
0Hatch
380
     2
100
AcDbLine
 10
137682.7935806417
 20
48592.96396471566
 30
0.0
 11
137682.7935806417
 21
48699.96392420592
 31
0.0
  0
LINE
  5
B91
330
2
100
AcDbEntity
  8
0Hatch
380
     2
100
AcDbLine
 10
137806.2567900624
 20
48408.18806355412
 30
0.0
 11
137831.0296714954
 21
48399.77883973576
 31
0.0
  0
LINE
  5
B92
330
2
100
AcDbEntity
  8
0Hatch
380
     2
100
AcDbLine
 10
137782.7934954784
 20
48419.758785146
 30
0.0
 11
137806.2567900624
 21
48408.18806355412
 31
0.0
  0
LINE
  5
B93
330
2
100
AcDbEntity
  8
0Hatch
380
     2
100
AcDbLine
 10
137812.1729309023
 20
48438.32642517519
 30
0.0
 11
137834.899033935
 21
48429.85021100989
 31
0.0
  0
LINE
  5
B94
330
2
100
AcDbEntity
  8
0Hatch
380
     2
100
AcDbLine
 10
137714.523930641
 20
48724.15756243904
 30
0.0
 11
137719.6798054768
 21
48747.85844945352
 31
0.0
  0
LINE
  5
B95
330
2
100
AcDbEntity
  8
0Hatch
380
     2
100
AcDbLine
 10
137719.6798054768
 20
48747.85844945352
 30
0.0
 11
137728.1560196421
 21
48770.58455248622
 31
0.0
  0
LINE
  5
B96
330
2
100
AcDbEntity
  8
0Hatch
380
     2
100
AcDbLine
 10
137728.1560196421
 20
48770.58455248622
 30
0.0
 11
137739.780482379
 21
48791.87289380602
 31
0.0
  0
LINE
  5
B97
330
2
100
AcDbEntity
  8
0Hatch
380
     2
100
AcDbLine
 10
137739.780482379
 20
48791.87289380602
 30
0.0
 11
137754.3160478593
 21
48811.29026916936
 31
0.0
  0
LINE
  5
B98
330
2
100
AcDbEntity
  8
0Hatch
380
     2
100
AcDbLine
 10
137754.3160478593
 20
48811.29026916936
 30
0.0
 11
137771.4672142192
 21
48828.44128666182
 31
0.0
  0
LINE
  5
B99
330
2
100
AcDbEntity
  8
0Hatch
380
     2
100
AcDbLine
 10
137684.5045141026
 20
48726.06931807343
 30
0.0
 11
137689.6084342027
 21
48751.72781189309
 31
0.0
  0
LINE
  5
B9A
330
2
100
AcDbEntity
  8
0Hatch
380
     2
100
AcDbLine
 10
137689.6084342027
 20
48751.72781189309
 30
0.0
 11
137698.017658021
 21
48776.5005444587
 31
0.0
  0
LINE
  5
B9B
330
2
100
AcDbEntity
  8
0Hatch
380
     2
100
AcDbLine
 10
137698.017658021
 20
48776.5005444587
 30
0.0
 11
137709.5885284804
 21
48799.96383904268
 31
0.0
  0
LINE
  5
B9C
330
2
100
AcDbEntity
  8
0Hatch
380
     2
100
AcDbLine
 10
137709.5885284804
 20
48799.96383904268
 30
0.0
 11
137724.1229030211
 21
48821.71605129823
 31
0.0
  0
LINE
  5
B9D
330
2
100
AcDbEntity
  8
0Hatch
380
     2
100
AcDbLine
 10
137724.1229030211
 20
48821.71605129823
 30
0.0
 11
137741.3721730224
 21
48841.38531036608
 31
0.0
  0
LINE
  5
B9E
330
2
100
AcDbEntity
  8
0Hatch
380
     2
100
AcDbLine
 10
137771.4672142192
 20
48828.44128666182
 30
0.0
 11
137790.8845895825
 21
48842.97700100951
 31
0.0
  0
LINE
  5
B9F
330
2
100
AcDbEntity
  8
0Hatch
380
     2
100
AcDbLine
 10
137790.8845895825
 20
48842.97700100951
 30
0.0
 11
137812.1729309023
 21
48854.60146374638
 31
0.0
  0
LINE
  5
BA0
330
2
100
AcDbEntity
  8
0Hatch
380
     2
100
AcDbLine
 10
137812.1729309023
 20
48854.60146374638
 30
0.0
 11
137834.899033935
 21
48863.07767791169
 31
0.0
  0
LINE
  5
BA1
330
2
100
AcDbEntity
  8
0Hatch
380
     2
100
AcDbLine
 10
137834.899033935
 20
48863.07767791169
 30
0.0
 11
137858.5999209495
 21
48868.2335527475
 31
0.0
  0
LINE
  5
BA2
330
2
100
AcDbEntity
  8
0Hatch
380
     2
100
AcDbLine
 10
137858.5999209495
 20
48868.2335527475
 30
0.0
 11
137882.7935591826
 21
48869.96398784282
 31
0.0
  0
LINE
  5
BA3
330
2
100
AcDbEntity
  8
0Hatch
380
     2
100
AcDbLine
 10
137741.3721730224
 20
48841.38531036608
 30
0.0
 11
137761.0412832229
 21
48858.63458036738
 31
0.0
  0
LINE
  5
BA4
330
2
100
AcDbEntity
  8
0Hatch
380
     2
100
AcDbLine
 10
137761.0412832229
 20
48858.63458036738
 30
0.0
 11
137782.7934954784
 21
48873.16910377558
 31
0.0
  0
LINE
  5
BA5
330
2
100
AcDbEntity
  8
0Hatch
380
     2
100
AcDbLine
 10
137782.7934954784
 20
48873.16910377558
 30
0.0
 11
137806.2567900624
 21
48884.73967650002
 31
0.0
  0
LINE
  5
BA6
330
2
100
AcDbEntity
  8
0Hatch
380
     2
100
AcDbLine
 10
137806.2567900624
 20
48884.73967650002
 30
0.0
 11
137831.0296714954
 21
48893.14919805325
 31
0.0
  0
LINE
  5
BA7
330
2
100
AcDbEntity
  8
0Hatch
380
     2
100
AcDbLine
 10
137831.0296714954
 20
48893.14919805325
 30
0.0
 11
137856.6883141825
 21
48898.25296928589
 31
0.0
  0
LINE
  5
BA8
330
2
100
AcDbEntity
  8
0Hatch
380
     2
100
AcDbLine
 10
137856.6883141825
 20
48898.25296928589
 30
0.0
 11
137882.7935591826
 21
48899.96375387944
 31
0.0
  0
LINE
  5
BA9
330
2
100
AcDbEntity
  8
0Hatch
380
     2
100
AcDbLine
 10
138499.7934118487
 20
47630.96412301459
 30
0.0
 11
138499.7934118487
 21
47655.9641761575
 31
0.0
  0
LINE
  5
BAA
330
2
100
AcDbEntity
  8
0Hatch
380
     2
100
AcDbLine
 10
138134.7933802994
 20
47625.96411238601
 30
0.0
 11
138336.7933928653
 21
47625.96411238601
 31
0.0
  0
LINE
  5
BAB
330
2
100
AcDbEntity
  8
0Hatch
380
     2
100
AcDbLine
 10
138336.7933928653
 20
47625.96411238601
 30
0.0
 11
138336.7933928653
 21
47656.4417428975
 31
0.0
  0
LINE
  5
BAC
330
2
100
AcDbEntity
  8
0Hatch
380
     2
100
AcDbLine
 10
138336.7933928653
 20
47656.44174289751
 30
0.0
 11
138336.7933928653
 21
47716.44172157305
 31
0.0
  0
LINE
  5
BAD
330
2
100
AcDbEntity
  8
0Hatch
380
     2
100
AcDbLine
 10
138336.7933928653
 20
47716.44172157305
 30
0.0
 11
138336.7933928653
 21
47720.96416546163
 31
0.0
  0
LINE
  5
BAE
330
2
100
AcDbEntity
  8
0Hatch
380
     2
100
AcDbLine
 10
138336.7933928653
 20
47720.96416546163
 30
0.0
 11
138368.7933417943
 21
47720.96416546163
 31
0.0
  0
LINE
  5
BAF
330
2
100
AcDbEntity
  8
0Hatch
380
     2
100
AcDbLine
 10
138368.7933417943
 20
47720.96416546163
 30
0.0
 11
138368.7933417943
 21
47750.96408036568
 31
0.0
  0
LINE
  5
BB0
330
2
100
AcDbEntity
  8
0Hatch
380
     2
100
AcDbLine
 10
138336.7933928653
 20
47595.96419748196
 30
0.0
 11
138336.7933928653
 21
47625.96411238601
 31
0.0
  0
LINE
  5
BB1
330
2
100
AcDbEntity
  8
0Hatch
380
     2
100
AcDbLine
 10
138368.7933417943
 20
47720.96416546163
 30
0.0
 11
138478.7932778882
 21
47720.96416546163
 31
0.0
  0
LINE
  5
BB2
330
2
100
AcDbEntity
  8
0Hatch
380
     2
100
AcDbLine
 10
138368.7933417943
 20
47720.96416546163
 30
0.0
 11
138368.7933417943
 21
47732.96407187628
 31
0.0
  0
LINE
  5
BB3
330
2
100
AcDbEntity
  8
0Hatch
380
     2
100
AcDbLine
 10
138499.7934118487
 20
48609.96403062632
 30
0.0
 11
138499.7934118487
 21
48869.96398784282
 31
0.0
  0
LINE
  5
BB4
330
2
100
AcDbEntity
  8
0Hatch
380
     2
100
AcDbLine
 10
138127.7934845134
 20
48609.96403062632
 30
0.0
 11
138238.793363186
 21
48609.96403062632
 31
0.0
  0
LINE
  5
BB5
330
2
100
AcDbEntity
  8
0Hatch
380
     2
100
AcDbLine
 10
138127.7934845134
 20
48559.9639243405
 30
0.0
 11
138127.7934845134
 21
48609.96403062632
 31
0.0
  0
LINE
  5
BB6
330
2
100
AcDbEntity
  8
0Hatch
380
     2
100
AcDbLine
 10
138238.793363186
 20
48609.96403062632
 30
0.0
 11
138418.7934480801
 21
48609.96403062632
 31
0.0
  0
DIMENSION
  5
BB7
330
2
100
AcDbEntity
  8
0Hatch
100
AcDbDimension
  2
*D147
 10
137882.7935591826
 20
49046.73760558217
 30
0.0
 11
138005.293521848
 21
49126.73760558217
 31
0.0
 70
    32
 71
     5
 42
244.999925330776
  3
500
100
AcDbAlignedDimension
 13
138127.7934845134
 23
48404.96403062632
 33
0.0
 14
137882.7935591826
 24
48354.9639243405
 34
0.0
 50
180.0
100
AcDbRotatedDimension
  0
DIMENSION
  5
BB8
330
2
100
AcDbEntity
  8
0Hatch
100
AcDbDimension
  2
*D148
 10
137276.7006979571
 20
47922.96402916007
 30
0.0
 11
137196.7006979571
 21
47774.46407077306
 31
0.0
 70
    32
 71
     5
 42
296.9999167740607
  3
500
100
AcDbAlignedDimension
 13
137882.7935591826
 23
47625.96411238601
 33
0.0
 14
137837.7934635254
 24
47922.96402916007
 34
0.0
 50
90.0
100
AcDbRotatedDimension
  0
DIMENSION
  5
BB9
330
2
100
AcDbEntity
  8
0Hatch
100
AcDbDimension
  2
*D149
 10
137276.7006979571
 20
48212.96405014806
 30
0.0
 11
137196.7006979571
 21
48067.96403965409
 31
0.0
 70
    32
 71
     5
 42
290.0000209879945
  3
500
100
AcDbAlignedDimension
 13
137837.7934635254
 23
47922.96402916007
 33
0.0
 14
137837.7934635254
 24
48212.96405014806
 34
0.0
 50
90.0
100
AcDbRotatedDimension
  0
DIMENSION
  5
BBA
330
2
100
AcDbEntity
  8
0Hatch
100
AcDbDimension
  2
*D150
 10
137276.7006979571
 20
48559.9639243405
 30
0.0
 11
137196.7006979571
 21
48386.46398724431
 31
0.0
 70
    32
 71
     5
 42
346.9998741924355
  3
500
100
AcDbAlignedDimension
 13
137837.7934635254
 23
48212.96405014806
 33
0.0
 14
137882.7935591826
 24
48559.9639243405
 34
0.0
 50
90.0
100
AcDbRotatedDimension
  0
DIMENSION
  5
BBB
330
2
100
AcDbEntity
  8
0Hatch
100
AcDbDimension
  2
*D151
 10
137276.7006979571
 20
48609.96403062632
 30
0.0
 11
137196.7006979571
 21
48669.34972104059
 31
0.0
 70
   160
 71
     5
 42
50.00010628582095
  3
500
100
AcDbAlignedDimension
 13
137882.7935591826
 23
48559.9639243405
 33
0.0
 14
138127.7934845134
 24
48609.96403062632
 34
0.0
 50
90.0
100
AcDbRotatedDimension
  0
DIMENSION
  5
BBC
330
2
100
AcDbEntity
  8
0Hatch
100
AcDbDimension
  2
*D152
 10
138336.7933928653
 20
46890.60529763037
 30
0.0
 11
138109.7934760239
 21
46970.60529763037
 31
0.0
 70
    32
 71
     5
 42
453.9998336826974
  3
500
100
AcDbAlignedDimension
 13
137882.7935591826
 23
47625.96411238601
 33
0.0
 14
138336.7933928653
 24
47625.96411238601
 34
0.0
100
AcDbRotatedDimension
  0
DIMENSION
  5
BBD
330
2
100
AcDbEntity
  8
0Hatch
100
AcDbDimension
  2
*D153
 10
137837.7934635254
 20
46890.60529763037
 30
0.0
 11
137757.2261407867
 21
46970.60529763037
 31
0.0
 70
   160
 71
     5
 42
45.00009565721848
  3
500
100
AcDbAlignedDimension
 13
137882.7935591826
 23
47625.96411238601
 33
0.0
 14
137837.7934635254
 24
47922.96402916007
 34
0.0
100
AcDbRotatedDimension
  0
DIMENSION
  5
BBE
330
2
100
AcDbEntity
  8
0Hatch
100
AcDbDimension
  2
*D154
 10
137072.028505671
 20
47625.96411238601
 30
0.0
 11
136992.028505671
 21
48117.96407150619
 31
0.0
 70
    32
 71
     5
 42
983.9999182403117
  3
500
100
AcDbAlignedDimension
 13
138127.7934845134
 23
48609.96403062632
 33
0.0
 14
137882.7935591826
 24
47625.96411238601
 34
0.0
 50
90.0
100
AcDbRotatedDimension
  0
LINE
  5
BBF
330
2
100
AcDbEntity
  8
0Hatch
380
     2
100
AcDbLine
 10
137882.7935591826
 20
48899.96375387944
 30
0.0
 11
138529.7931778853
 21
48899.96375387944
 31
0.0
  0
LINE
  5
BC0
330
2
100
AcDbEntity
  8
0Hatch
380
     2
100
AcDbLine
 10
138336.7933928653
 20
47595.96419748196
 30
0.0
 11
138849.7932626448
 21
47595.96419748196
 31
0.0
  0
LINE
  5
BC1
330
2
100
AcDbEntity
  8
0Hatch
380
     2
100
AcDbLine
 10
138499.7934118487
 20
47655.9641761575
 30
0.0
 11
138524.7933161242
 21
47655.9641761575
 31
0.0
  0
LINE
  5
BC2
330
2
100
AcDbEntity
  8
0Hatch
380
     2
100
AcDbLine
 10
138499.7934118487
 20
47630.96412301459
 30
0.0
 11
138524.7933161242
 21
47630.96412301459
 31
0.0
  0
HATCH
  5
BC3
330
2
100
AcDbEntity
  8
0Hatch
100
AcDbHatch
 10
0.0
 20
0.0
 30
0.0
210
0.0
220
0.0
230
1.0
  2
SOLID
 70
     1
 71
     0
 91
        1
 92
        7
 72
     0
 73
     1
 93
        4
 10
138524.7933161242
 20
47655.9641761575
 10
138499.7934118487
 20
47655.9641761575
 10
138499.7934118487
 20
47630.96412301459
 10
138524.7933161242
 20
47630.96412301459
 97
        0
 75
     0
 76
     1
 47
4.11719990528551
 98
        1
 10
138517.628227872
 20
47638.54979952244
  0
LINE
  5
BC4
330
2
100
AcDbEntity
  8
0Hatch
380
     2
100
AcDbLine
 10
138478.7932778882
 20
47720.96416546163
 30
0.0
 11
138512.293215119
 21
47720.96416546163
 31
0.0
  0
LINE
  5
BC5
330
2
100
AcDbEntity
  8
0Hatch
380
     2
100
AcDbLine
 10
138336.7933928653
 20
47625.96411238601
 30
0.0
 11
138539.7931991425
 21
47625.96411238601
 31
0.0
  0
LINE
  5
BC6
330
2
100
AcDbEntity
  8
0Hatch
380
     2
100
AcDbLine
 10
138418.7934480801
 20
48609.96403062632
 30
0.0
 11
138529.7931778853
 21
48609.96403062632
 31
0.0
  0
DIMENSION
  5
BC7
330
2
100
AcDbEntity
  8
0Hatch
100
AcDbDimension
  2
*D155
 10
138529.7931778853
 20
49046.73760558217
 30
0.0
 11
138328.7933311994
 21
49126.73760558217
 31
0.0
 70
    32
 71
     5
 42
401.9996933719666
  3
500
100
AcDbAlignedDimension
 13
138127.7934845134
 23
48404.96403062632
 33
0.0
 14
138529.7931778853
 24
48404.96403062632
 34
0.0
 50
180.0
100
AcDbRotatedDimension
  0
LWPOLYLINE
  5
BCE
330
2
100
AcDbEntity
  8
0Hatch
100
AcDbPolyline
 90
       15
 70
     0
 43
0.0
 10
138849.7932626448
 20
47720.96416546163
 10
138336.7933928653
 20
47720.96416546163
 10
138336.7933928653
 20
47625.96411238601
 10
137882.7935591826
 20
47625.96411238601
 10
137882.7935591826
 20
47922.96402916007
 10
137837.7934635254
 20
47922.96402916007
 10
137837.7934635254
 20
48212.96405014806
 10
137882.7935591826
 20
48212.96405014806
 10
137882.7935591826
 20
48559.9639243405
 10
138127.7934845134
 20
48559.9639243405
 10
138127.7934845134
 20
48609.96403062632
 10
138529.7931778853
 20
48609.96403062632
 10
138529.7931778853
 20
48559.9639243405
 10
138849.7932626448
 20
48559.96392434051
 10
138849.7932626448
 20
47720.96416546163
  0
LWPOLYLINE
  5
BCF
330
2
100
AcDbEntity
  8
0Hatch
100
AcDbPolyline
 90
       14
 70
     1
 43
0.0
 10
138789.7932626448
 20
47780.96416546163
 10
138276.7933928653
 20
47780.96416546163
 10
138276.7933928653
 20
47685.96411238601
 10
137942.7935591826
 20
47685.96411238601
 10
137942.7935591826
 20
47982.96402916007
 10
137897.7934635254
 20
47982.96402916007
 10
137897.7934635254
 20
48152.96405014806
 10
137942.7935591826
 20
48152.96405014806
 10
137942.7935591826
 20
48499.9639243405
 10
138187.7934845134
 20
48499.9639243405
 10
138187.7934845134
 20
48549.96403062632
 10
138469.7931778853
 20
48549.96403062632
 10
138469.7931778853
 20
48499.9639243405
 10
138789.7932626448
 20
48499.96392434051
  0
LINE
  5
BD0
330
2
100
AcDbEntity
  8
WYMIARY
100
AcDbLine
 10
138566.7932863103
 20
47720.96416546163
 30
0.0
 11
138566.7932863103
 21
47780.96416546163
 31
0.0
  0
LINE
  5
BD1
330
2
100
AcDbEntity
  8
WYMIARY
100
AcDbLine
 10
138806.7932863103
 20
47720.96416546163
 30
0.0
 11
138806.7932863103
 21
47780.96416546163
 31
0.0
  0
LINE
  5
BD2
330
2
100
AcDbEntity
  8
WYMIARY
100
AcDbLine
 10
138478.7932778882
 20
47720.96416546163
 30
0.0
 11
138478.7932778882
 21
47780.96416546163
 31
0.0
  0
LINE
  5
BD3
330
2
100
AcDbEntity
  8
WYMIARY
100
AcDbLine
 10
138368.7933417943
 20
47720.96416546163
 30
0.0
 11
138368.7933417943
 21
47780.96416546163
 31
0.0
  0
LINE
  5
BD4
330
2
100
AcDbEntity
  8
WYMIARY
100
AcDbLine
 10
138806.7932863103
 20
47780.96416546163
 30
0.0
 11
138789.7932626448
 21
47780.96416546163
 31
0.0
  0
LWPOLYLINE
  5
BD5
330
2
100
AcDbEntity
  8
0Hatch
100
AcDbPolyline
 90
        2
 70
     0
 43
60.0
 10
138566.7932863103
 20
47750.96416546163
 10
138478.7932778882
 20
47750.96416546163
  0
LWPOLYLINE
  5
BD6
330
2
100
AcDbEntity
  8
0Hatch
100
AcDbPolyline
 90
       15
 70
     0
 43
60.0
 10
138368.7933417943
 20
47750.96416546163
 10
138306.7933928653
 20
47750.96416546163
 10
138306.7933928653
 20
47655.96411238601
 10
137912.7935591826
 20
47655.96411238601
 10
137912.7935591826
 20
47952.96402916007
 10
137867.7934635254
 20
47952.96402916007
 10
137867.7934635254
 20
48182.96405014806
 10
137912.7935591826
 20
48182.96405014806
 10
137912.7934740867
 20
48529.96400943645
 10
138157.7934845134
 20
48529.9639243405
 10
138157.7934845134
 20
48579.96403062633
 10
138499.7931778853
 20
48579.96403062632
 10
138499.7931778853
 20
48529.9639243405
 10
138819.7932626448
 20
48529.9639243405
 10
138819.7932626448
 20
47780.80428714114
  0
LWPOLYLINE
  5
BD7
330
2
100
AcDbEntity
  8
0Hatch
100
AcDbPolyline
 90
        2
 70
     0
 43
60.0
 10
138806.7932863103
 20
47750.96416546163
 10
138849.7932626448
 20
47750.96416546163
  0
DIMENSION
  5
D08
330
2
100
AcDbEntity
  8
0Hatch
100
AcDbDimension
  2
*D167
 10
139174.7932091654
 20
49046.73760558217
 30
0.0
 11
139375.7930558513
 21
49126.73760558217
 31
0.0
 70
    32
 71
     5
 42
401.9996933719666
  3
500
100
AcDbAlignedDimension
 13
139576.7929025373
 23
48404.96403062632
 33
0.0
 14
139174.7932091654
 24
48404.96403062632
 34
0.0
100
AcDbRotatedDimension
  0
LINE
  5
D09
330
2
100
AcDbEntity
  8
0Hatch
380
     2
100
AcDbLine
 10
139367.7929941854
 20
47625.96411238601
 30
0.0
 11
139164.7931879082
 21
47625.96411238601
 31
0.0
  0
LINE
  5
D0A
330
2
100
AcDbEntity
  8
0Hatch
380
     2
100
AcDbLine
 10
139225.7931091625
 20
47720.96416546163
 30
0.0
 11
139192.2931719317
 21
47720.96416546163
 31
0.0
  0
HATCH
  5
D0B
330
2
100
AcDbEntity
  8
0Hatch
100
AcDbHatch
 10
0.0
 20
0.0
 30
0.0
210
0.0
220
0.0
230
1.0
  2
SOLID
 70
     1
 71
     0
 91
        1
 92
        7
 72
     0
 73
     1
 93
        4
 10
139179.7930709265
 20
47655.9641761575
 10
139204.792975202
 20
47655.9641761575
 10
139204.792975202
 20
47630.96412301459
 10
139179.7930709265
 20
47630.96412301459
 97
        0
 75
     0
 76
     1
 47
4.11719990528551
 98
        1
 10
139186.9581591788
 20
47638.54979952244
  0
LINE
  5
D0C
330
2
100
AcDbEntity
  8
0Hatch
380
     2
100
AcDbLine
 10
139204.792975202
 20
47630.96412301459
 30
0.0
 11
139179.7930709265
 21
47630.96412301459
 31
0.0
  0
LINE
  5
D0D
330
2
100
AcDbEntity
  8
0Hatch
380
     2
100
AcDbLine
 10
139204.792975202
 20
47655.9641761575
 30
0.0
 11
139179.7930709265
 21
47655.9641761575
 31
0.0
  0
LINE
  5
D0E
330
2
100
AcDbEntity
  8
0Hatch
380
     2
100
AcDbLine
 10
139367.7929941854
 20
47595.96419748196
 30
0.0
 11
138854.7931244059
 21
47595.96419748196
 31
0.0
  0
LINE
  5
D0F
330
2
100
AcDbEntity
  8
0Hatch
380
     2
100
AcDbLine
 10
139821.7928278681
 20
48899.96375387944
 30
0.0
 11
139174.7932091654
 21
48899.96375387944
 31
0.0
  0
DIMENSION
  5
D10
330
2
100
AcDbEntity
  8
0Hatch
100
AcDbDimension
  2
*D168
 10
139866.7929235253
 20
46890.60529763037
 30
0.0
 11
139947.360246264
 21
46970.60529763037
 31
0.0
 70
   160
 71
     5
 42
45.00009565721848
  3
500
100
AcDbAlignedDimension
 13
139821.7928278681
 23
47625.96411238601
 33
0.0
 14
139866.7929235253
 24
47922.96402916007
 34
0.0
 50
180.0
100
AcDbRotatedDimension
  0
DIMENSION
  5
D11
330
2
100
AcDbEntity
  8
0Hatch
100
AcDbDimension
  2
*D169
 10
139367.7929941854
 20
46890.60529763037
 30
0.0
 11
139594.7929110268
 21
46970.60529763037
 31
0.0
 70
    32
 71
     5
 42
453.9998336826974
  3
500
100
AcDbAlignedDimension
 13
139821.7928278681
 23
47625.96411238601
 33
0.0
 14
139367.7929941854
 24
47625.96411238601
 34
0.0
 50
180.0
100
AcDbRotatedDimension
  0
DIMENSION
  5
D12
330
2
100
AcDbEntity
  8
0Hatch
100
AcDbDimension
  2
*D170
 10
139821.7928278681
 20
49046.73760558217
 30
0.0
 11
139699.2928652027
 21
49126.73760558217
 31
0.0
 70
    32
 71
     5
 42
244.999925330776
  3
500
100
AcDbAlignedDimension
 13
139576.7929025373
 23
48404.96403062632
 33
0.0
 14
139821.7928278681
 24
48354.9639243405
 34
0.0
100
AcDbRotatedDimension
  0
LINE
  5
D13
330
2
100
AcDbEntity
  8
0Hatch
380
     2
100
AcDbLine
 10
139204.792975202
 20
48609.96403062632
 30
0.0
 11
139204.792975202
 21
48869.96398784282
 31
0.0
  0
LINE
  5
D14
330
2
100
AcDbEntity
  8
0Hatch
380
     2
100
AcDbLine
 10
139335.7930452564
 20
47720.96416546163
 30
0.0
 11
139225.7931091625
 21
47720.96416546163
 31
0.0
  0
LINE
  5
D15
330
2
100
AcDbEntity
  8
0Hatch
380
     2
100
AcDbLine
 10
139367.7929941854
 20
47595.96419748196
 30
0.0
 11
139367.7929941854
 21
47625.96411238601
 31
0.0
  0
LINE
  5
D16
330
2
100
AcDbEntity
  8
0Hatch
380
     2
100
AcDbLine
 10
139397.7930579569
 20
47655.9641761575
 30
0.0
 11
139397.7930579569
 21
47656.4417428975
 31
0.0
  0
LINE
  5
D17
330
2
100
AcDbEntity
  8
0Hatch
380
     2
100
AcDbLine
 10
139367.7929941854
 20
47720.96416546163
 30
0.0
 11
139335.7930452564
 21
47720.96416546163
 31
0.0
  0
LINE
  5
D18
330
2
100
AcDbEntity
  8
0Hatch
380
     2
100
AcDbLine
 10
139367.7929941854
 20
47716.44172157305
 30
0.0
 11
139367.7929941854
 21
47720.96416546163
 31
0.0
  0
LINE
  5
D19
330
2
100
AcDbEntity
  8
0Hatch
380
     2
100
AcDbLine
 10
139367.7929941854
 20
47656.44174289751
 30
0.0
 11
139367.7929941854
 21
47716.44172157305
 31
0.0
  0
LINE
  5
D1A
330
2
100
AcDbEntity
  8
0Hatch
380
     2
100
AcDbLine
 10
139367.7929941854
 20
47625.96411238601
 30
0.0
 11
139367.7929941854
 21
47656.4417428975
 31
0.0
  0
LINE
  5
D1B
330
2
100
AcDbEntity
  8
0Hatch
380
     2
100
AcDbLine
 10
139204.792975202
 20
47630.96412301459
 30
0.0
 11
139204.792975202
 21
47655.9641761575
 31
0.0
  0
LINE
  5
D1C
330
2
100
AcDbEntity
  8
0Hatch
380
     2
100
AcDbLine
 10
139847.8980728682
 20
48898.25296928589
 30
0.0
 11
139821.7928278681
 21
48899.96375387944
 31
0.0
  0
LINE
  5
D1D
330
2
100
AcDbEntity
  8
0Hatch
380
     2
100
AcDbLine
 10
139873.5567155553
 20
48893.14919805325
 30
0.0
 11
139847.8980728682
 21
48898.25296928589
 31
0.0
  0
LINE
  5
D1E
330
2
100
AcDbEntity
  8
0Hatch
380
     2
100
AcDbLine
 10
139898.3295969883
 20
48884.73967650002
 30
0.0
 11
139873.5567155553
 21
48893.14919805325
 31
0.0
  0
LINE
  5
D1F
330
2
100
AcDbEntity
  8
0Hatch
380
     2
100
AcDbLine
 10
139921.7928915723
 20
48873.16910377558
 30
0.0
 11
139898.3295969883
 21
48884.73967650002
 31
0.0
  0
LINE
  5
D20
330
2
100
AcDbEntity
  8
0Hatch
380
     2
100
AcDbLine
 10
139943.5451038279
 20
48858.63458036738
 30
0.0
 11
139921.7928915723
 21
48873.16910377558
 31
0.0
  0
LINE
  5
D21
330
2
100
AcDbEntity
  8
0Hatch
380
     2
100
AcDbLine
 10
139963.2142140283
 20
48841.38531036608
 30
0.0
 11
139943.5451038279
 21
48858.63458036738
 31
0.0
  0
LINE
  5
D22
330
2
100
AcDbEntity
  8
0Hatch
380
     2
100
AcDbLine
 10
139845.9864661012
 20
48868.2335527475
 30
0.0
 11
139821.7928278681
 21
48869.96398784282
 31
0.0
  0
LINE
  5
D23
330
2
100
AcDbEntity
  8
0Hatch
380
     2
100
AcDbLine
 10
139869.6873531157
 20
48863.07767791169
 30
0.0
 11
139845.9864661012
 21
48868.2335527475
 31
0.0
  0
LINE
  5
D24
330
2
100
AcDbEntity
  8
0Hatch
380
     2
100
AcDbLine
 10
139892.4134561484
 20
48854.60146374638
 30
0.0
 11
139869.6873531157
 21
48863.07767791169
 31
0.0
  0
LINE
  5
D25
330
2
100
AcDbEntity
  8
0Hatch
380
     2
100
AcDbLine
 10
139913.7017974682
 20
48842.97700100951
 30
0.0
 11
139892.4134561484
 21
48854.60146374638
 31
0.0
  0
LINE
  5
D26
330
2
100
AcDbEntity
  8
0Hatch
380
     2
100
AcDbLine
 10
139933.1191728315
 20
48828.44128666182
 30
0.0
 11
139913.7017974682
 21
48842.97700100951
 31
0.0
  0
LINE
  5
D27
330
2
100
AcDbEntity
  8
0Hatch
380
     2
100
AcDbLine
 10
139980.4634840296
 20
48821.71605129823
 30
0.0
 11
139963.2142140283
 21
48841.38531036608
 31
0.0
  0
LINE
  5
D28
330
2
100
AcDbEntity
  8
0Hatch
380
     2
100
AcDbLine
 10
139994.9978585703
 20
48799.96383904268
 30
0.0
 11
139980.4634840296
 21
48821.71605129823
 31
0.0
  0
LINE
  5
D29
330
2
100
AcDbEntity
  8
0Hatch
380
     2
100
AcDbLine
 10
140006.5687290297
 20
48776.5005444587
 30
0.0
 11
139994.9978585703
 21
48799.96383904268
 31
0.0
  0
LINE
  5
D2A
330
2
100
AcDbEntity
  8
0Hatch
380
     2
100
AcDbLine
 10
140014.977952848
 20
48751.72781189309
 30
0.0
 11
140006.5687290297
 21
48776.5005444587
 31
0.0
  0
LINE
  5
D2B
330
2
100
AcDbEntity
  8
0Hatch
380
     2
100
AcDbLine
 10
140020.0818729481
 20
48726.06931807343
 30
0.0
 11
140014.977952848
 21
48751.72781189309
 31
0.0
  0
LINE
  5
D2C
330
2
100
AcDbEntity
  8
0Hatch
380
     2
100
AcDbLine
 10
139950.2703391914
 20
48811.29026916936
 30
0.0
 11
139933.1191728315
 21
48828.44128666182
 31
0.0
  0
LINE
  5
D2D
330
2
100
AcDbEntity
  8
0Hatch
380
     2
100
AcDbLine
 10
139964.8059046717
 20
48791.87289380602
 30
0.0
 11
139950.2703391914
 21
48811.29026916936
 31
0.0
  0
LINE
  5
D2E
330
2
100
AcDbEntity
  8
0Hatch
380
     2
100
AcDbLine
 10
139976.4303674086
 20
48770.58455248622
 30
0.0
 11
139964.8059046717
 21
48791.87289380602
 31
0.0
  0
LINE
  5
D2F
330
2
100
AcDbEntity
  8
0Hatch
380
     2
100
AcDbLine
 10
139984.9065815739
 20
48747.85844945352
 30
0.0
 11
139976.4303674086
 21
48770.58455248622
 31
0.0
  0
LINE
  5
D30
330
2
100
AcDbEntity
  8
0Hatch
380
     2
100
AcDbLine
 10
139990.0624564097
 20
48724.15756243904
 30
0.0
 11
139984.9065815739
 21
48747.85844945352
 31
0.0
  0
LINE
  5
D31
330
2
100
AcDbEntity
  8
0Hatch
380
     2
100
AcDbLine
 10
139892.4134561484
 20
48438.32642517519
 30
0.0
 11
139869.6873531157
 21
48429.85021100989
 31
0.0
  0
LINE
  5
D32
330
2
100
AcDbEntity
  8
0Hatch
380
     2
100
AcDbLine
 10
139921.7928915723
 20
48419.758785146
 30
0.0
 11
139898.3295969883
 21
48408.18806355412
 31
0.0
  0
LINE
  5
D33
330
2
100
AcDbEntity
  8
0Hatch
380
     2
100
AcDbLine
 10
139898.3295969883
 20
48408.18806355412
 30
0.0
 11
139873.5567155553
 21
48399.77883973576
 31
0.0
  0
LINE
  5
D34
330
2
100
AcDbEntity
  8
0Hatch
380
     2
100
AcDbLine
 10
140021.7928064091
 20
48592.96396471566
 30
0.0
 11
140021.7928064091
 21
48699.96392420592
 31
0.0
  0
LINE
  5
D35
330
2
100
AcDbEntity
  8
0Hatch
380
     2
100
AcDbLine
 10
139991.792891505
 20
48592.96396471566
 30
0.0
 11
139991.792891505
 21
48699.96392420592
 31
0.0
  0
LINE
  5
D36
330
2
100
AcDbEntity
  8
0Hatch
380
     2
100
AcDbLine
 10
139933.1191728315
 20
48464.48660225976
 30
0.0
 11
139913.7017974682
 21
48449.9510367795
 31
0.0
  0
LINE
  5
D37
330
2
100
AcDbEntity
  8
0Hatch
380
     2
100
AcDbLine
 10
139913.7017974682
 20
48449.9510367795
 30
0.0
 11
139892.4134561484
 21
48438.32642517519
 31
0.0
  0
LINE
  5
D38
330
2
100
AcDbEntity
  8
0Hatch
380
     2
100
AcDbLine
 10
139963.2142140283
 20
48451.5425785555
 30
0.0
 11
139943.5451038279
 21
48434.29330855419
 31
0.0
  0
LINE
  5
D39
330
2
100
AcDbEntity
  8
0Hatch
380
     2
100
AcDbLine
 10
139943.5451038279
 20
48434.29330855419
 30
0.0
 11
139921.7928915723
 21
48419.758785146
 31
0.0
  0
LINE
  5
D3A
330
2
100
AcDbEntity
  8
0Hatch
380
     2
100
AcDbLine
 10
139990.0624564097
 20
48568.77032648253
 30
0.0
 11
139991.792891505
 21
48592.96396471566
 31
0.0
  0
LINE
  5
D3B
330
2
100
AcDbEntity
  8
0Hatch
380
     2
100
AcDbLine
 10
139984.9065815739
 20
48545.06943946806
 30
0.0
 11
139990.0624564097
 21
48568.77032648253
 31
0.0
  0
LINE
  5
D3C
330
2
100
AcDbEntity
  8
0Hatch
380
     2
100
AcDbLine
 10
139976.4303674086
 20
48522.34333643536
 30
0.0
 11
139984.9065815739
 21
48545.06943946806
 31
0.0
  0
LINE
  5
D3D
330
2
100
AcDbEntity
  8
0Hatch
380
     2
100
AcDbLine
 10
139964.8059046717
 20
48501.05514398299
 30
0.0
 11
139976.4303674086
 21
48522.34333643536
 31
0.0
  0
LINE
  5
D3E
330
2
100
AcDbEntity
  8
0Hatch
380
     2
100
AcDbLine
 10
139950.2703391914
 20
48481.63761975221
 30
0.0
 11
139964.8059046717
 21
48501.05514398299
 31
0.0
  0
LINE
  5
D3F
330
2
100
AcDbEntity
  8
0Hatch
380
     2
100
AcDbLine
 10
139933.1191728315
 20
48464.48660225976
 30
0.0
 11
139950.2703391914
 21
48481.63761975221
 31
0.0
  0
LINE
  5
D40
330
2
100
AcDbEntity
  8
0Hatch
380
     2
100
AcDbLine
 10
140020.0818729481
 20
48566.85871971558
 30
0.0
 11
140021.7928064091
 21
48592.96396471566
 31
0.0
  0
LINE
  5
D41
330
2
100
AcDbEntity
  8
0Hatch
380
     2
100
AcDbLine
 10
140014.977952848
 20
48541.20022589592
 30
0.0
 11
140020.0818729481
 21
48566.85871971558
 31
0.0
  0
LINE
  5
D42
330
2
100
AcDbEntity
  8
0Hatch
380
     2
100
AcDbLine
 10
140006.5687290297
 20
48516.42719559544
 30
0.0
 11
140014.977952848
 21
48541.20022589592
 31
0.0
  0
LINE
  5
D43
330
2
100
AcDbEntity
  8
0Hatch
380
     2
100
AcDbLine
 10
139994.9978585703
 20
48492.96404987889
 30
0.0
 11
140006.5687290297
 21
48516.42719559544
 31
0.0
  0
LINE
  5
D44
330
2
100
AcDbEntity
  8
0Hatch
380
     2
100
AcDbLine
 10
139980.4634840296
 20
48471.21168875591
 30
0.0
 11
139994.9978585703
 21
48492.96404987889
 31
0.0
  0
LINE
  5
D45
330
2
100
AcDbEntity
  8
0Hatch
380
     2
100
AcDbLine
 10
139963.2142140283
 20
48451.5425785555
 30
0.0
 11
139980.4634840296
 21
48471.21168875591
 31
0.0
  0
LINE
  5
D46
330
2
100
AcDbEntity
  8
0Hatch
380
     2
100
AcDbLine
 10
139869.6873531157
 20
48429.85021100989
 30
0.0
 11
139845.9864661012
 21
48424.69433617408
 31
0.0
  0
LINE
  5
D47
330
2
100
AcDbEntity
  8
0Hatch
380
     2
100
AcDbLine
 10
139845.9864661012
 20
48424.69433617408
 30
0.0
 11
139821.7928278681
 21
48422.96390107875
 31
0.0
  0
LINE
  5
D48
330
2
100
AcDbEntity
  8
0Hatch
380
     2
100
AcDbLine
 10
139873.5567155553
 20
48399.77883973576
 30
0.0
 11
139847.8980728682
 21
48394.67506850312
 31
0.0
  0
LINE
  5
D49
330
2
100
AcDbEntity
  8
0Hatch
380
     2
100
AcDbLine
 10
139847.8980728682
 20
48394.67506850312
 30
0.0
 11
139821.7928278681
 21
48392.96398617469
 31
0.0
  0
LINE
  5
D4A
330
2
100
AcDbEntity
  8
0Hatch
380
     2
100
AcDbLine
 10
140021.7928064091
 20
48699.96392420592
 30
0.0
 11
140020.0818729481
 21
48726.06931807343
 31
0.0
  0
LINE
  5
D4B
330
2
100
AcDbEntity
  8
0Hatch
380
     2
100
AcDbLine
 10
139991.792891505
 20
48699.96392420592
 30
0.0
 11
139990.0624564097
 21
48724.15756243904
 31
0.0
  0
LINE
  5
D4C
330
2
100
AcDbEntity
  8
0Hatch
380
     2
100
AcDbLine
 10
139821.7928278681
 20
48869.96398784282
 30
0.0
 11
139204.792975202
 21
48869.96398784282
 31
0.0
  0
LINE
  5
D4D
330
2
100
AcDbEntity
  8
0Hatch
380
     2
100
AcDbLine
 10
139174.7932091654
 20
48559.9639243405
 30
0.0
 11
139174.7932091654
 21
48609.96403062632
 31
0.0
  0
LINE
  5
D4E
330
2
100
AcDbEntity
  8
0Hatch
380
     2
100
AcDbLine
 10
139174.7932091654
 20
48609.96403062632
 30
0.0
 11
139174.7932091654
 21
48899.96375387944
 31
0.0
  0
LINE
  5
D4F
330
2
100
AcDbEntity
  8
0Hatch
380
     2
100
AcDbLine
 10
138854.7931244059
 20
47407.96419978936
 30
0.0
 11
138854.7931244059
 21
47720.96416546163
 31
0.0
  0
LINE
  5
D50
330
2
100
AcDbEntity
  8
0Hatch
380
     2
100
AcDbLine
 10
138854.7931244059
 20
47407.96419978936
 30
0.0
 11
139004.7717086175
 21
47595.96419748196
 31
0.0
  0
LINE
  5
D51
330
2
100
AcDbEntity
  8
0Hatch
380
     2
100
AcDbLine
 10
138897.7931860382
 20
47720.96416546163
 30
0.0
 11
138854.7931244059
 21
47720.96416546163
 31
0.0
  0
LINE
  5
D52
330
2
100
AcDbEntity
  8
0Hatch
380
     2
100
AcDbLine
 10
139164.7931879082
 20
47407.96419978936
 30
0.0
 11
139164.7931879082
 21
47720.96416546163
 31
0.0
  0
LINE
  5
D53
330
2
100
AcDbEntity
  8
0Hatch
380
     2
100
AcDbLine
 10
139192.2931719317
 20
47720.96416546163
 30
0.0
 11
139137.7931007404
 21
47720.96416546163
 31
0.0
  0
LINE
  5
D54
330
2
100
AcDbEntity
  8
0Hatch
380
     2
100
AcDbLine
 10
139179.7930709265
 20
47630.96412301459
 30
0.0
 11
139179.7930709265
 21
47655.9641761575
 31
0.0
  0
LINE
  5
D55
330
2
100
AcDbEntity
  8
0Hatch
380
     2
100
AcDbLine
 10
139137.7931007404
 20
47720.96416546163
 30
0.0
 11
138897.7931860382
 21
47720.96416546163
 31
0.0
  0
LINE
  5
D56
330
2
100
AcDbEntity
  8
0Hatch
380
     2
100
AcDbLine
 10
139164.7931879082
 20
47407.96419978936
 30
0.0
 11
139004.7717086175
 21
47595.96419748196
 31
0.0
  0
LINE
  5
D57
330
2
100
AcDbEntity
  8
0Hatch
380
     2
100
AcDbLine
 10
139164.7931879082
 20
47407.96419978936
 30
0.0
 11
138854.7931244059
 21
47407.96419978936
 31
0.0
  0
DIMENSION
  5
D58
330
2
100
AcDbEntity
  8
0Hatch
100
AcDbDimension
  2
*D171
 10
140632.5578813797
 20
47625.96411238601
 30
0.0
 11
140552.5578813797
 21
48117.96407150619
 31
0.0
 70
    32
 71
     5
 42
983.9999182403117
  3
500
100
AcDbAlignedDimension
 13
139576.7929025373
 23
48609.96403062632
 33
0.0
 14
139821.7928278681
 24
47625.96411238601
 34
0.0
 50
90.0
100
AcDbRotatedDimension
  0
DIMENSION
  5
D59
330
2
100
AcDbEntity
  8
0Hatch
100
AcDbDimension
  2
*D172
 10
140427.8856890936
 20
48609.96403062632
 30
0.0
 11
140362.3870267144
 21
48724.81592440959
 31
0.0
 70
   160
 71
     5
 42
50.00010628582095
  3
500
100
AcDbAlignedDimension
 13
139821.7928278681
 23
48559.9639243405
 33
0.0
 14
139576.7929025373
 24
48609.96403062632
 34
0.0
 50
90.0
100
AcDbRotatedDimension
  0
DIMENSION
  5
D5A
330
2
100
AcDbEntity
  8
0Hatch
100
AcDbDimension
  2
*D173
 10
140427.8856890936
 20
48559.9639243405
 30
0.0
 11
140347.8856890936
 21
48386.46398724431
 31
0.0
 70
    32
 71
     5
 42
346.9998741924355
  3
500
100
AcDbAlignedDimension
 13
139866.7929235253
 23
48212.96405014806
 33
0.0
 14
139821.7928278681
 24
48559.9639243405
 34
0.0
 50
90.0
100
AcDbRotatedDimension
  0
DIMENSION
  5
D5B
330
2
100
AcDbEntity
  8
0Hatch
100
AcDbDimension
  2
*D174
 10
140427.8856890936
 20
48212.96405014806
 30
0.0
 11
140347.8856890936
 21
48067.96403965409
 31
0.0
 70
    32
 71
     5
 42
290.0000209879945
  3
500
100
AcDbAlignedDimension
 13
139866.7929235253
 23
47922.96402916007
 33
0.0
 14
139866.7929235253
 24
48212.96405014806
 34
0.0
 50
90.0
100
AcDbRotatedDimension
  0
DIMENSION
  5
D5C
330
2
100
AcDbEntity
  8
0Hatch
100
AcDbDimension
  2
*D175
 10
140427.8856890936
 20
47922.96402916007
 30
0.0
 11
140347.8856890936
 21
47774.46407077306
 31
0.0
 70
    32
 71
     5
 42
296.9999167740607
  3
500
100
AcDbAlignedDimension
 13
139821.7928278681
 23
47625.96411238601
 33
0.0
 14
139866.7929235253
 24
47922.96402916007
 34
0.0
 50
90.0
100
AcDbRotatedDimension
  0
LINE
  5
D62
330
2
100
AcDbEntity
  8
0Hatch
380
     2
100
AcDbLine
 10
138897.7931860382
 20
47720.96416546163
 30
0.0
 11
138897.7931860382
 21
47750.96408036568
 31
0.0
  0
LWPOLYLINE
  5
D63
330
2
100
AcDbEntity
  8
0Hatch
100
AcDbPolyline
 90
       15
 70
     0
 43
0.0
 10
138854.7931244059
 20
47720.96416546163
 10
139367.7929941855
 20
47720.96416546163
 10
139367.7929941855
 20
47625.96411238601
 10
139821.7928278681
 20
47625.96411238601
 10
139821.7928278681
 20
47922.96402916007
 10
139866.7929235254
 20
47922.96402916007
 10
139866.7929235254
 20
48212.96405014806
 10
139821.7928278681
 20
48212.96405014806
 10
139821.7928278681
 20
48559.9639243405
 10
139576.7929025374
 20
48559.9639243405
 10
139576.7929025374
 20
48609.96403062632
 10
139174.7932091654
 20
48609.96403062632
 10
139174.7932091654
 20
48559.9639243405
 10
138854.7931244059
 20
48559.96392434051
 10
138854.7931244059
 20
47720.96416546163
  0
LWPOLYLINE
  5
D64
330
2
100
AcDbEntity
  8
0Hatch
100
AcDbPolyline
 90
       14
 70
     1
 43
0.0
 10
138914.7931244059
 20
47780.96416546163
 10
139427.7929941855
 20
47780.96416546163
 10
139427.7929941855
 20
47685.96411238601
 10
139761.7928278682
 20
47685.96411238601
 10
139761.7928278682
 20
47982.96402916007
 10
139806.7929235254
 20
47982.96402916007
 10
139806.7929235254
 20
48152.96405014806
 10
139761.7928278682
 20
48152.96405014806
 10
139761.7928278682
 20
48499.9639243405
 10
139516.7929025374
 20
48499.9639243405
 10
139516.7929025374
 20
48549.96403062632
 10
139234.7932091654
 20
48549.96403062632
 10
139234.7932091654
 20
48499.9639243405
 10
138914.7931244059
 20
48499.96392434051
  0
LINE
  5
D65
330
2
100
AcDbEntity
  8
WYMIARY
100
AcDbLine
 10
139137.7931007404
 20
47720.96416546163
 30
0.0
 11
139137.7931007404
 21
47780.96416546163
 31
0.0
  0
LINE
  5
D66
330
2
100
AcDbEntity
  8
WYMIARY
100
AcDbLine
 10
138897.7931007404
 20
47720.96416546163
 30
0.0
 11
138897.7931007404
 21
47780.96416546163
 31
0.0
  0
LINE
  5
D67
330
2
100
AcDbEntity
  8
WYMIARY
100
AcDbLine
 10
139335.7930452565
 20
47720.96416546163
 30
0.0
 11
139335.7930452565
 21
47780.96416546163
 31
0.0
  0
LWPOLYLINE
  5
D68
330
2
100
AcDbEntity
  8
0Hatch
100
AcDbPolyline
 90
        2
 70
     0
 43
60.0
 10
139137.7931007404
 20
47750.96416546163
 10
139225.7931091626
 20
47750.96416546163
  0
LWPOLYLINE
  5
D69
330
2
100
AcDbEntity
  8
0Hatch
100
AcDbPolyline
 90
       15
 70
     0
 43
60.0
 10
139335.7930452565
 20
47750.96416546163
 10
139397.7929941854
 20
47750.96416546163
 10
139397.7929941854
 20
47655.96411238601
 10
139791.7928278681
 20
47655.96411238601
 10
139791.7928278681
 20
47952.96402916007
 10
139836.7929235254
 20
47952.96402916007
 10
139836.7929235254
 20
48182.96405014806
 10
139791.7928278681
 20
48182.96405014806
 10
139791.7929129641
 20
48529.96400943645
 10
139546.7929025374
 20
48529.9639243405
 10
139546.7929025374
 20
48579.96403062633
 10
139204.7932091654
 20
48579.96403062632
 10
139204.7932091654
 20
48529.9639243405
 10
138884.793124406
 20
48529.9639243405
 10
138884.793124406
 20
47780.80428714114
  0
LWPOLYLINE
  5
D6A
330
2
100
AcDbEntity
  8
0Hatch
100
AcDbPolyline
 90
        2
 70
     0
 43
60.0
 10
138897.7931007404
 20
47750.96416546163
 10
138854.7931244059
 20
47750.96416546163
  0
DIMENSION
  5
E98
330
2
100
AcDbEntity
  8
WYMIARY
100
AcDbDimension
  2
*D181
 10
137882.7935591826
 20
49251.73760558216
 30
0.0
 11
137823.7477534368
 21
49331.73760558216
 31
0.0
 70
   160
 71
     5
 42
45.00009565721848
  3
500
100
AcDbAlignedDimension
 13
137837.7934635254
 23
48212.96405014806
 33
0.0
 14
137882.7935591826
 24
48212.96405014806
 34
0.0
100
AcDbRotatedDimension
  0
DIMENSION
  5
EAE
330
2
100
AcDbEntity
  8
WYMIARY
100
AcDbDimension
  2
*D182
 10
139866.7929235254
 20
49251.73760558216
 30
0.0
 11
139886.2381195292
 21
49331.73760558216
 31
0.0
 70
   160
 71
     5
 42
45.00009565721848
  3
500
100
AcDbAlignedDimension
 13
139821.7928278681
 23
48212.96405014806
 33
0.0
 14
139866.7929235254
 24
48212.96405014806
 34
0.0
100
AcDbRotatedDimension
  0
DIMENSION
  5
EE2
330
2
100
AcDbEntity
  8
WYMIARY
100
AcDbDimension
  2
*D183
 10
138529.7931778853
 20
49251.73760558216
 30
0.0
 11
138206.293368534
 21
49331.73760558216
 31
0.0
 70
    32
 71
     5
 42
646.9996187027427
  3
500
100
AcDbAlignedDimension
 13
137882.7935591826
 23
49251.73760558216
 33
0.0
 14
138529.7931778853
 24
49251.73760558216
 34
0.0
100
AcDbRotatedDimension
  0
DIMENSION
  5
EED
330
2
100
AcDbEntity
  8
WYMIARY
100
AcDbDimension
  2
*D184
 10
139821.7928278681
 20
49251.73760558216
 30
0.0
 11
139498.2930185168
 21
49331.73760558216
 31
0.0
 70
    32
 71
     5
 42
646.9996187027718
  3
500
100
AcDbAlignedDimension
 13
139174.7932091654
 23
49251.73760558216
 33
0.0
 14
139821.7928278681
 24
49251.73760558216
 34
0.0
100
AcDbRotatedDimension
  0
DIMENSION
  5
EF8
330
2
100
AcDbEntity
  8
WYMIARY
100
AcDbDimension
  2
*D185
 10
139367.7929941854
 20
46890.60529763037
 30
0.0
 11
138852.2931935254
 21
46970.60529763037
 31
0.0
 70
    32
 71
     5
 42
1030.999601320131
  3
500
100
AcDbAlignedDimension
 13
138336.7933928653
 23
47625.96411238601
 33
0.0
 14
139367.7929941854
 24
47610.96415493399
 34
0.0
100
AcDbRotatedDimension
  0
DIMENSION
  5
F03
330
2
100
AcDbEntity
  8
WYMIARY
100
AcDbDimension
  2
*D186
 10
139866.7929235254
 20
46685.60529763038
 30
0.0
 11
138852.2931935254
 21
46765.60529763038
 31
0.0
 70
    32
 71
     5
 42
2028.999459999992
  3
500
100
AcDbAlignedDimension
 13
137837.7934635254
 23
47952.95014471099
 33
0.0
 14
139866.7929235254
 24
47952.95014471099
 34
0.0
100
AcDbRotatedDimension
  0
DIMENSION
  5
F17
330
2
100
AcDbEntity
  8
WYMIARY
100
AcDbDimension
  2
*D187
 10
139174.7932091654
 20
49251.73760558216
 30
0.0
 11
138852.2931935254
 21
49331.73760558216
 31
0.0
 70
    32
 71
     5
 42
645.0000312800693
  3
500
100
AcDbAlignedDimension
 13
138529.7931778853
 23
48609.96403062632
 33
0.0
 14
139174.7932091654
 24
48609.96403062632
 34
0.0
100
AcDbRotatedDimension
  0
DIMENSION
  5
F23
330
2
100
AcDbEntity
  8
WYMIARY
100
AcDbDimension
  2
*D188
 10
139866.7929235254
 20
49456.73760558216
 30
0.0
 11
138852.2931935254
 21
49536.73760558216
 31
0.0
 70
    32
 71
     5
 42
2028.999459999992
  3
500
100
AcDbAlignedDimension
 13
137837.7934635254
 23
48212.96405014806
 33
0.0
 14
139866.7929235254
 24
48212.96405014806
 34
0.0
100
AcDbRotatedDimension
  0
ENDSEC
  0
SECTION
  2
OBJECTS
  0
DICTIONARY
  5
7
330
0
100
AcDbDictionary
281
     1
  3
ACAD_COLOR
350
36
  3
ACAD_GROUP
350
31
  3
ACAD_LAYOUT
350
D
  3
ACAD_MATERIAL
350
9
  3
ACAD_MLEADERSTYLE
350
5D6
  3
ACAD_MLINESTYLE
350
32
  3
ACAD_PLOTSETTINGS
350
33
  3
ACAD_PLOTSTYLENAME
350
6
  3
ACAD_SCALELIST
350
37
  3
ACAD_TABLESTYLE
350
38
  3
ACAD_VISUALSTYLE
350
10
  3
ACDB_RECOMPOSE_DATA
350
5C2
  3
AcDbVariableDictionary
350
5C3
  3
AEC_PROPERTY_SET_DEFS
350
77C
  3
DWGPROPS
350
F5F
  0
DICTIONARY
  5
16
330
15
100
AcDbDictionary
280
     1
281
     1
  3
ACAD_LAYERSTATES
360
17
  0
DICTIONARY
  5
F3E
330
4
100
AcDbDictionary
280
     1
281
     1
  3
ADSK_XREC_LAYER_RECONCILED
360
F3F
  0
DICTIONARY
  5
F44
330
39
100
AcDbDictionary
280
     1
281
     1
  3
ADSK_XREC_LAYER_RECONCILED
360
F45
  0
DICTIONARY
  5
F46
330
516
100
AcDbDictionary
280
     1
281
     1
  3
ADSK_XREC_LAYER_RECONCILED
360
F47
  0
DICTIONARY
  5
F4A
330
398
100
AcDbDictionary
280
     1
281
     1
  3
ADSK_XREC_LAYER_RECONCILED
360
F4B
  0
DICTIONARY
  5
692
330
691
100
AcDbDictionary
280
     1
281
     1
  3
ADSK_XREC_LAYER_RECONCILED
360
F4D
  0
DICTIONARY
  5
B3B
330
2
100
AcDbDictionary
280
     1
281
     1
  3
ACAD_SORTENTS
360
B3C
  0
DICTIONARY
  5
28
330
27
100
AcDbDictionary
280
     1
281
     1
  3
ACAD_SORTENTS
360
29
  0
DICTIONARY
  5
36
102
{ACAD_REACTORS
330
7
102
}
330
7
100
AcDbDictionary
281
     1
  0
DICTIONARY
  5
31
102
{ACAD_REACTORS
330
7
102
}
330
7
100
AcDbDictionary
281
     1
  0
DICTIONARY
  5
D
102
{ACAD_REACTORS
330
7
102
}
330
7
100
AcDbDictionary
281
     1
  3
Layout1
350
14
  3
Model
350
C
  0
DICTIONARY
  5
9
102
{ACAD_REACTORS
330
7
102
}
330
7
100
AcDbDictionary
281
     1
  3
ByBlock
350
35
  3
ByLayer
350
34
  3
Global
350
8
  0
DICTIONARY
  5
5D6
102
{ACAD_REACTORS
330
7
102
}
330
7
100
AcDbDictionary
281
     1
  3
Standard
350
5D7
  0
DICTIONARY
  5
32
102
{ACAD_REACTORS
330
7
102
}
330
7
100
AcDbDictionary
281
     1
  3
Standard
350
3A
  0
DICTIONARY
  5
33
102
{ACAD_REACTORS
330
7
102
}
330
7
100
AcDbDictionary
281
     1
  0
ACDBDICTIONARYWDFLT
  5
6
102
{ACAD_REACTORS
330
7
102
}
330
7
100
AcDbDictionary
281
     1
  3
Normal
350
5
100
AcDbDictionaryWithDefault
340
5
  0
DICTIONARY
  5
37
102
{ACAD_REACTORS
330
7
102
}
330
7
100
AcDbDictionary
281
     1
  3
*A1
350
698
  3
*A10
350
6A1
  3
*A11
350
6A2
  3
*A12
350
6A3
  3
*A13
350
6A4
  3
*A14
350
6A5
  3
*A15
350
6A6
  3
*A16
350
6A7
  3
*A17
350
6A8
  3
*A18
350
6A9
  3
*A19
350
6AA
  3
*A2
350
699
  3
*A20
350
6AB
  3
*A21
350
6AC
  3
*A3
350
69A
  3
*A4
350
69B
  3
*A5
350
69C
  3
*A6
350
69D
  3
*A7
350
69E
  3
*A8
350
69F
  3
*A9
350
6A0
  3
A0
350
3E
  3
A1
350
3F
  3
A2
350
40
  3
A3
350
41
  3
A4
350
42
  3
A5
350
43
  3
A6
350
44
  3
A7
350
45
  3
A8
350
46
  3
A9
350
47
  3
B0
350
48
  3
B1
350
49
  3
B2
350
4A
  3
B3
350
4B
  3
B4
350
4C
  3
B5
350
4D
  3
B6
350
4E
  3
B7
350
4F
  3
B8
350
50
  3
B9
350
51
  3
C0
350
52
  3
C1
350
53
  3
C2
350
54
  3
C3
350
55
  3
C4
350
56
  3
C5
350
57
  3
C6
350
58
  3
C7
350
59
  3
C8
350
5A
  3
C9
350
5B
  3
D0
350
5C
  3
D1
350
5D
  3
D2
350
5E
  0
DICTIONARY
  5
38
102
{ACAD_REACTORS
330
7
102
}
330
7
100
AcDbDictionary
281
     1
  3
Standard
350
3B
  0
DICTIONARY
  5
10
102
{ACAD_REACTORS
330
7
102
}
330
7
100
AcDbDictionary
281
     1
  3
2dWireframe
350
F
  3
3D Hidden
350
5CE
  3
3dWireframe
350
3D
  3
Basic
350
5CD
  3
Brighten
350
5D1
  3
ColorChange
350
5D5
  3
Conceptual
350
5CF
  3
Dim
350
5D0
  3
Facepattern
350
5D4
  3
Flat
350
5C9
  3
FlatWithEdges
350
5CA
  3
Gouraud
350
5CB
  3
GouraudWithEdges
350
5CC
  3
Linepattern
350
5D3
  3
Phong
350
5DF
  3
PhongWithEdges
350
5E0
  3
Realistic
350
3C
  3
Thicken
350
5D2
  0
XRECORD
  5
5C2
102
{ACAD_REACTORS
330
7
102
}
330
7
100
AcDbXrecord
280
     1
 90
        1
330
3B
  0
DICTIONARY
  5
5C3
102
{ACAD_REACTORS
330
7
102
}
330
7
100
AcDbDictionary
281
     1
  3
CANNOSCALE
350
5C6
  3
CMLEADERSTYLE
350
5C5
  3
CTABLESTYLE
350
5C4
  3
DIMASSOC
350
F5D
  3
HIDETEXT
350
F5C
  3
INDEXCTL
350
F5B
  3
LIGHTINGUNITS
350
5C7
  3
MSLTSCALE
350
F59
  3
SORTENTS
350
F5A
  0
DICTIONARY
  5
77C
102
{ACAD_REACTORS
330
7
102
}
330
7
100
AcDbDictionary
281
     1
  0
XRECORD
  5
F5F
102
{ACAD_REACTORS
330
7
102
}
330
7
100
AcDbXrecord
280
     1
  1
DWGPROPS COOKIE
  2

  3

  4

  6

  7

  8
beata.rzonca
  9

300
=
301
=
302
=
303
=
304
=
305
=
306
=
307
=
308
=
309
=
 40
8.063886886574074
 41
2452027.670547454
 42
2454950.651068785
  1

 90
        0
  0
DICTIONARY
  5
17
102
{ACAD_REACTORS
330
16
102
}
330
16
100
AcDbDictionary
281
     1
  0
XRECORD
  5
F3F
102
{ACAD_REACTORS
330
F3E
102
}
330
F3E
100
AcDbXrecord
280
     1
290
     1
  0
XRECORD
  5
F45
102
{ACAD_REACTORS
330
F44
102
}
330
F44
100
AcDbXrecord
280
     1
290
     1
  0
XRECORD
  5
F47
102
{ACAD_REACTORS
330
F46
102
}
330
F46
100
AcDbXrecord
280
     1
290
     1
  0
XRECORD
  5
F4B
102
{ACAD_REACTORS
330
F4A
102
}
330
F4A
100
AcDbXrecord
280
     1
290
     1
  0
XRECORD
  5
F4D
102
{ACAD_REACTORS
330
692
102
}
330
692
100
AcDbXrecord
280
     1
290
     1
  0
SORTENTSTABLE
  5
B3C
102
{ACAD_REACTORS
330
B3B
102
}
330
B3B
100
AcDbSortentsTable
330
2
331
BA0
  5
BA0
331
EED
  5
EED
331
BBF
  5
BBF
331
2F7
  5
2F7
331
B4B
  5
B4B
331
D14
  5
D14
331
B6D
  5
B6D
331
D2E
  5
D2E
331
E98
  5
E98
331
B8F
  5
B8F
331
577
  5
577
331
D50
  5
D50
331
BB1
  5
BB1
331
466
  5
466
331
319
  5
319
331
3AA
  5
3AA
331
BD0
  5
BD0
331
B5C
  5
B5C
331
B7E
  5
B7E
331
D3F
  5
D3F
331
477
  5
477
331
455
  5
455
331
308
  5
308
331
3A8
  5
3A8
331
4B1
  5
4B1
331
BBD
  5
BBD
331
2F5
  5
2F5
331
1CC
  5
1CC
331
517
  5
517
331
317
  5
317
331
B49
  5
B49
331
D12
  5
D12
331
D2C
  5
D2C
331
B8D
  5
B8D
331
B6B
  5
B6B
331
D4E
  5
D4E
331
BAF
  5
BAF
331
1E6
  5
1E6
331
1AA
  5
1AA
331
BCE
  5
BCE
331
B5A
  5
B5A
331
B7C
  5
B7C
331
453
  5
453
331
D3D
  5
D3D
331
B9E
  5
B9E
331
475
  5
475
331
3B9
  5
3B9
331
F03
  5
F03
331
BBB
  5
BBB
331
2F3
  5
2F3
331
315
  5
315
331
B47
  5
B47
331
D10
  5
D10
331
551
  5
551
331
337
  5
337
331
D2A
  5
D2A
331
B8B
  5
B8B
331
D4C
  5
D4C
331
BAD
  5
BAD
331
484
  5
484
331
462
  5
462
331
515
  5
515
331
3E2
  5
3E2
331
304
  5
304
331
B58
  5
B58
331
B7A
  5
B7A
331
451
  5
451
331
D3B
  5
D3B
331
B9C
  5
B9C
331
3A6
  5
3A6
331
473
  5
473
331
B3E
  5
B41
331
4E2
  5
4E2
331
3B7
  5
3B7
331
BB9
  5
BB9
331
2F1
  5
2F1
331
F23
  5
F23
331
513
  5
513
331
313
  5
313
331
B45
  5
B45
331
D0E
  5
D0E
331
B67
  5
B67
331
43E
  5
43E
331
D28
  5
D28
331
B89
  5
B89
331
D4A
  5
D4A
331
BAB
  5
BAB
331
482
  5
482
331
460
  5
460
331
1E2
  5
1E2
331
EF8
  5
EF8
331
302
  5
302
331
435
  5
435
331
D1F
  5
D1F
331
B78
  5
B78
331
44F
  5
44F
331
346
  5
346
331
D39
  5
D39
331
B9A
  5
B9A
331
D5B
  5
D5B
331
3A4
  5
3A4
331
293
  5
293
331
471
  5
471
331
2E0
  5
2E0
331
3B5
  5
3B5
331
311
  5
311
331
D0C
  5
D0C
331
B65
  5
B65
331
34D
  5
34D
331
43C
  5
43C
331
D26
  5
D26
331
B87
  5
B87
331
D48
  5
D48
331
BA9
  5
BA9
331
D6A
  5
D6A
331
480
  5
480
331
45E
  5
45E
331
3EF
  5
3EF
331
300
  5
300
331
D1D
  5
D1D
331
B76
  5
B76
331
35E
  5
35E
331
44D
  5
44D
331
D37
  5
D37
331
D59
  5
D59
331
B98
  5
B98
331
3A2
  5
3A2
331
46F
  5
46F
331
B3A
  5
B3D
331
C6
  5
C6
331
2EF
  5
2EF
331
D7
  5
D7
331
4EF
  5
4EF
331
3B3
  5
3B3
331
D0A
  5
D0A
331
B63
  5
B63
331
43A
  5
43A
331
B41
  5
B40
331
D24
  5
D24
331
B85
  5
B85
331
D46
  5
D46
331
BA7
  5
BA7
331
D68
  5
D68
331
2A0
  5
2A0
331
45C
  5
45C
331
BC6
  5
BC6
331
2FE
  5
2FE
331
D1B
  5
D1B
331
B74
  5
B74
331
55C
  5
55C
331
44B
  5
44B
331
320
  5
320
331
D35
  5
D35
331
B96
  5
B96
331
D57
  5
D57
331
28F
  5
28F
331
46D
  5
46D
331
520
  5
520
331
BD7
  5
BD7
331
30F
  5
30F
331
3B1
  5
3B1
331
D08
  5
D08
331
B61
  5
B61
331
438
  5
438
331
D22
  5
D22
331
B83
  5
B83
331
25A
  5
25A
331
D44
  5
D44
331
EAE
  5
EAE
331
BA5
  5
BA5
331
D66
  5
D66
331
47C
  5
47C
331
45A
  5
45A
331
BC4
  5
BC4
331
2FC
  5
2FC
331
42F
  5
42F
331
D19
  5
D19
331
B72
  5
B72
331
35A
  5
35A
331
31E
  5
31E
331
D33
  5
D33
331
B94
  5
B94
331
D55
  5
D55
331
BB6
  5
BB6
331
28D
  5
28D
331
4AF
  5
4AF
331
46B
  5
46B
331
51E
  5
51E
331
2EB
  5
2EB
331
BD5
  5
BD5
331
30D
  5
30D
331
D20
  5
D20
331
458
  5
458
331
B81
  5
B81
331
369
  5
369
331
D42
  5
D42
331
BA3
  5
BA3
331
D64
  5
D64
331
47A
  5
47A
331
BC2
  5
BC2
331
2FA
  5
2FA
331
B4E
  5
B4E
331
D17
  5
D17
331
B70
  5
B70
331
358
  5
358
331
31C
  5
31C
331
D31
  5
D31
331
B92
  5
B92
331
D53
  5
D53
331
BB4
  5
BB4
331
28B
  5
28B
331
48B
  5
48B
331
469
  5
469
331
51C
  5
51C
331
4FA
  5
4FA
331
1AF
  5
1AF
331
BD3
  5
BD3
331
B5F
  5
B5F
331
30B
  5
30B
331
3FA
  5
3FA
331
2E9
  5
2E9
331
4B6
  5
4B6
331
D40
  5
D40
331
BA1
  5
BA1
331
478
  5
478
331
D62
  5
D62
331
BC0
  5
BC0
331
2F8
  5
2F8
331
42B
  5
42B
331
B4C
  5
B4C
331
D15
  5
D15
331
B6E
  5
B6E
331
356
  5
356
331
33C
  5
33C
331
D2F
  5
D2F
331
B90
  5
B90
331
D51
  5
D51
331
BB2
  5
BB2
331
2AB
  5
2AB
331
467
  5
467
331
31A
  5
31A
331
1AD
  5
1AD
331
BD1
  5
BD1
331
B5D
  5
B5D
331
309
  5
309
331
B7F
  5
B7F
331
567
  5
567
331
456
  5
456
331
CF
  5
CF
331
BBE
  5
BBE
331
2F6
  5
2F6
331
518
  5
518
331
318
  5
318
331
1E7
  5
1E7
331
B4A
  5
B4A
331
D13
  5
D13
331
B6C
  5
B6C
331
354
  5
354
331
D2D
  5
D2D
331
B8E
  5
B8E
331
376
  5
376
331
265
  5
265
331
D4F
  5
D4F
331
BB0
  5
BB0
331
407
  5
407
331
F17
  5
F17
331
BCF
  5
BCF
331
B5B
  5
B5B
331
B7D
  5
B7D
331
454
  5
454
331
D3E
  5
D3E
331
B9F
  5
B9F
331
476
  5
476
331
507
  5
507
331
3BA
  5
3BA
331
BBC
  5
BBC
331
316
  5
316
331
B48
  5
B48
331
530
  5
530
331
D11
  5
D11
331
352
  5
352
331
D2B
  5
D2B
331
B8C
  5
B8C
331
D4D
  5
D4D
331
BAE
  5
BAE
331
463
  5
463
331
405
  5
405
331
2F4
  5
2F4
331
1A9
  5
1A9
331
305
  5
305
331
B59
  5
B59
331
B7B
  5
B7B
331
452
  5
452
331
D3C
  5
D3C
331
B9D
  5
B9D
331
474
  5
474
331
2E3
  5
2E3
331
4C1
  5
4C1
331
3A7
  5
3A7
331
BBA
  5
BBA
331
2F2
  5
2F2
331
1C9
  5
1C9
331
314
  5
314
331
B46
  5
B46
331
D0F
  5
D0F
331
B68
  5
B68
331
43F
  5
43F
331
336
  5
336
331
D29
  5
D29
331
B8A
  5
B8A
331
D4B
  5
D4B
331
BAC
  5
BAC
331
483
  5
483
331
461
  5
461
331
1E3
  5
1E3
331
436
  5
436
331
B3D
  5
B3E
331
B79
  5
B79
331
450
  5
450
331
D3A
  5
D3A
331
D5C
  5
D5C
331
B9B
  5
B9B
331
472
  5
472
331
525
  5
525
331
303
  5
303
331
3B6
  5
3B6
331
BB8
  5
BB8
331
512
  5
512
331
312
  5
312
331
B44
  5
B44
331
D0D
  5
D0D
331
B66
  5
B66
331
34E
  5
34E
331
D27
  5
D27
331
B88
  5
B88
331
D49
  5
D49
331
BAA
  5
BAA
331
481
  5
481
331
45F
  5
45F
331
43D
  5
43D
331
2DF
  5
2DF
331
434
  5
434
331
D1E
  5
D1E
331
B77
  5
B77
331
44E
  5
44E
331
D38
  5
D38
331
B99
  5
B99
331
381
  5
381
331
D5A
  5
D5A
331
292
  5
292
331
270
  5
270
331
470
  5
470
331
301
  5
301
331
3B4
  5
3B4
331
310
  5
310
331
D0B
  5
D0B
331
43B
  5
43B
331
B64
  5
B64
331
34C
  5
34C
331
B42
  5
B43
331
D25
  5
D25
331
B86
  5
B86
331
D47
  5
D47
331
BA8
  5
BA8
331
D69
  5
D69
331
47F
  5
47F
331
45D
  5
45D
331
BC7
  5
BC7
331
521
  5
521
331
53B
  5
53B
331
432
  5
432
331
D1C
  5
D1C
331
B75
  5
B75
331
44C
  5
44C
331
B39
  5
B39
331
D36
  5
D36
331
B97
  5
B97
331
D58
  5
D58
331
490
  5
490
331
46E
  5
46E
331
2FF
  5
2FF
331
1B4
  5
1B4
331
4CC
  5
4CC
331
3B2
  5
3B2
331
B40
  5
B42
331
D09
  5
D09
331
439
  5
439
331
B62
  5
B62
331
34A
  5
34A
331
D23
  5
D23
331
B84
  5
B84
331
D45
  5
D45
331
BA6
  5
BA6
331
D67
  5
D67
331
45B
  5
45B
331
2DB
  5
2DB
331
1B2
  5
1B2
331
BC5
  5
BC5
331
51F
  5
51F
331
430
  5
430
331
D1A
  5
D1A
331
B73
  5
B73
331
31F
  5
31F
331
D34
  5
D34
331
B95
  5
B95
331
48E
  5
48E
331
D56
  5
D56
331
BB7
  5
BB7
331
28E
  5
28E
331
EE2
  5
EE2
331
46C
  5
46C
331
2FD
  5
2FD
331
3CA
  5
3CA
331
BD6
  5
BD6
331
30E
  5
30E
331
B60
  5
B60
331
D21
  5
D21
331
B82
  5
B82
331
459
  5
459
331
D43
  5
D43
331
BA4
  5
BA4
331
38C
  5
38C
331
27B
  5
27B
331
D65
  5
D65
331
BC3
  5
BC3
331
51D
  5
51D
331
B4F
  5
B4F
331
31D
  5
31D
331
D18
  5
D18
331
B71
  5
B71
331
359
  5
359
331
D32
  5
D32
331
B93
  5
B93
331
D54
  5
D54
331
BB5
  5
BB5
331
28C
  5
28C
331
4AE
  5
4AE
331
48C
  5
48C
331
46A
  5
46A
331
2FB
  5
2FB
331
2EA
  5
2EA
331
BD4
  5
BD4
331
30C
  5
30C
331
3BF
  5
3BF
331
3AE
  5
3AE
331
B80
  5
B80
331
D41
  5
D41
331
BA2
  5
BA2
331
479
  5
479
331
D63
  5
D63
331
BC1
  5
BC1
331
2F9
  5
2F9
331
31B
  5
31B
331
B4D
  5
B4D
331
42C
  5
42C
331
D16
  5
D16
331
B6F
  5
B6F
331
D30
  5
D30
331
B91
  5
B91
331
D52
  5
D52
331
BB3
  5
BB3
331
28A
  5
28A
331
468
  5
468
331
51B
  5
51B
331
4D7
  5
4D7
331
2E8
  5
2E8
331
BD2
  5
BD2
331
B5E
  5
B5E
331
546
  5
546
331
457
  5
457
331
30A
  5
30A
331
3D7
  5
3D7
331
3BD
  5
3BD
331
3AC
  5
3AC
  0
SORTENTSTABLE
  5
29
102
{ACAD_REACTORS
330
28
102
}
330
28
100
AcDbSortentsTable
330
27
  0
LAYOUT
  5
14
102
{ACAD_XDICTIONARY
360
F64
102
}
102
{ACAD_REACTORS
330
D
102
}
330
D
100
AcDbPlotSettings
  1

  2
C:\PROGRAM FILES\AUTOCAD LT 2000\plotters\DWF ePlot.pc3
  4

  6

 40
0.0
 41
0.0
 42
0.0
 43
0.0
 44
0.0
 45
0.0
 46
0.0
 47
0.0
 48
0.0
 49
0.0
140
0.0
141
0.0
142
1.0
143
1.0
 70
   688
 72
     0
 73
     0
 74
     5
  7
100.ctb
 75
    16
147
1.0
148
0.0
149
0.0
100
AcDbLayout
  1
Layout1
 70
     1
 71
     1
 10
0.0
 20
0.0
 11
420.0
 21
297.0
 12
0.0
 22
0.0
 32
0.0
 14
1.000000000000000E+20
 24
1.000000000000000E+20
 34
1.000000000000000E+20
 15
-1.000000000000000E+20
 25
-1.000000000000000E+20
 35
-1.000000000000000E+20
146
0.0
 13
0.0
 23
0.0
 33
0.0
 16
1.0
 26
0.0
 36
0.0
 17
0.0
 27
1.0
 37
0.0
 76
     0
330
11
  0
LAYOUT
  5
C
102
{ACAD_XDICTIONARY
360
F62
102
}
102
{ACAD_REACTORS
330
D
102
}
330
D
100
AcDbPlotSettings
  1

  2
CutePDF Writer
  4
A4
  6
DALIE_aneks
 40
3.174999952316284
 41
3.174999952316284
 42
3.175003051757812
 43
3.17498779296875
 44
209.8886566162109
 45
297.0530090332031
 46
0.0
 47
4.0
 48
153987.1987714436
 49
-40582.48303453432
140
164187.2021885476
141
-26562.48354589837
142
1.0
143
50.0
 70
 11952
 72
     1
 73
     0
 74
     3
  7
100.ctb
 75
    25
147
0.02
148
-225387.1523167869
149
-169717.5135321109
100
AcDbLayout
  1
Model
 70
     1
 71
     0
 10
0.0
 20
0.0
 11
12.0
 21
9.0
 12
0.0
 22
0.0
 32
0.0
 14
0.0
 24
0.0
 34
0.0
 15
0.0
 25
0.0
 35
0.0
146
0.0
 13
0.0
 23
0.0
 33
0.0
 16
1.0
 26
0.0
 36
0.0
 17
0.0
 27
1.0
 37
0.0
 76
     0
330
2
331
21
  0
MATERIAL
  5
35
102
{ACAD_XDICTIONARY
360
F68
102
}
102
{ACAD_REACTORS
330
9
102
}
330
9
100
AcDbMaterial
  1
ByBlock
 73
     1
 78
     1
172
     1
176
     1
270
     1
274
     1
  0
MATERIAL
  5
34
102
{ACAD_XDICTIONARY
360
F66
102
}
102
{ACAD_REACTORS
330
9
102
}
330
9
100
AcDbMaterial
  1
ByLayer
 73
     1
 78
     1
172
     1
176
     1
270
     1
274
     1
  0
MATERIAL
  5
8
102
{ACAD_XDICTIONARY
360
F60
102
}
102
{ACAD_REACTORS
330
9
102
}
330
9
100
AcDbMaterial
  1
Global
 73
     1
 78
     1
172
     1
176
     1
270
     1
274
     1
  0
MLEADERSTYLE
  5
5D7
102
{ACAD_REACTORS
330
5D6
102
}
330
5D6
100
AcDbMLeaderStyle
170
     2
171
     1
172
     0
 90
        2
 40
0.0
 41
0.0
173
     1
 91
-1056964608
340
1C
 92
       -2
290
     1
 42
0.09
291
     1
 43
0.36
  3
Standard
 44
0.18
300

342
19
174
     1
178
     6
175
     1
176
     0
 93
-1056964608
 45
0.18
292
     0
297
     0
 46
0.18
 94
-1056964608
 47
1.0
 49
1.0
140
1.0
293
     1
141
0.0
294
     1
177
     0
142
1.0
295
     0
296
     0
143
0.125
1001
ACAD_MLEADERVER
1070
     2
  0
MLINESTYLE
  5
3A
102
{ACAD_REACTORS
330
32
102
}
330
32
100
AcDbMlineStyle
  2
STANDARD
 70
     0
  3

 62
   256
 51
90.0
 52
90.0
 71
     2
 49
0.5
 62
   256
  6
BYLAYER
 49
-0.5
 62
   256
  6
BYLAYER
  0
ACDBPLACEHOLDER
  5
5
102
{ACAD_REACTORS
330
6
102
}
330
6
  0
SCALE
  5
698
102
{ACAD_REACTORS
330
37
102
}
330
37
100
AcDbScale
 70
     0
300
1:10_1
140
1.0
141
1.0
290
     0
  0
SCALE
  5
6A1
102
{ACAD_REACTORS
330
37
102
}
330
37
100
AcDbScale
 70
     0
300
1:1_2
140
1.0
141
1.0
290
     0
  0
SCALE
  5
6A2
102
{ACAD_REACTORS
330
37
102
}
330
37
100
AcDbScale
 70
     0
300
1:2_2
140
1.0
141
2.0
290
     0
  0
SCALE
  5
6A3
102
{ACAD_REACTORS
330
37
102
}
330
37
100
AcDbScale
 70
     0
300
1:5_2
140
1.0
141
5.0
290
     0
  0
SCALE
  5
6A4
102
{ACAD_REACTORS
330
37
102
}
330
37
100
AcDbScale
 70
     0
300
1:10_2
140
1.0
141
10.0
290
     0
  0
SCALE
  5
6A5
102
{ACAD_REACTORS
330
37
102
}
330
37
100
AcDbScale
 70
     0
300
1:20_2
140
1.0
141
20.0
290
     0
  0
SCALE
  5
6A6
102
{ACAD_REACTORS
330
37
102
}
330
37
100
AcDbScale
 70
     0
300
1:1_1_1
140
1.0
141
1.0
290
     0
  0
SCALE
  5
6A7
102
{ACAD_REACTORS
330
37
102
}
330
37
100
AcDbScale
 70
     0
300
1:2_1_1
140
1.0
141
2.0
290
     0
  0
SCALE
  5
6A8
102
{ACAD_REACTORS
330
37
102
}
330
37
100
AcDbScale
 70
     0
300
1:5_1_1
140
1.0
141
5.0
290
     0
  0
SCALE
  5
6A9
102
{ACAD_REACTORS
330
37
102
}
330
37
100
AcDbScale
 70
     0
300
1:10_1_1
140
1.0
141
10.0
290
     0
  0
SCALE
  5
6AA
102
{ACAD_REACTORS
330
37
102
}
330
37
100
AcDbScale
 70
     0
300
1:20_1_1
140
1.0
141
20.0
290
     0
  0
SCALE
  5
699
102
{ACAD_REACTORS
330
37
102
}
330
37
100
AcDbScale
 70
     0
300
1:50_2
140
1.0
141
50.0
290
     0
  0
SCALE
  5
6AB
102
{ACAD_REACTORS
330
37
102
}
330
37
100
AcDbScale
 70
     0
300
1:50_1_1
140
1.0
141
50.0
290
     0
  0
SCALE
  5
6AC
102
{ACAD_REACTORS
330
37
102
}
330
37
100
AcDbScale
 70
     0
300
1:100_1_1
140
1.0
141
100.0
290
     0
  0
SCALE
  5
69A
102
{ACAD_REACTORS
330
37
102
}
330
37
100
AcDbScale
 70
     0
300
1:100_2
140
1.0
141
100.0
290
     0
  0
SCALE
  5
69B
102
{ACAD_REACTORS
330
37
102
}
330
37
100
AcDbScale
 70
     0
300
1:1_1
140
1.0
141
0.1
290
     0
  0
SCALE
  5
69C
102
{ACAD_REACTORS
330
37
102
}
330
37
100
AcDbScale
 70
     0
300
1:2_1
140
1.0
141
0.2
290
     0
  0
SCALE
  5
69D
102
{ACAD_REACTORS
330
37
102
}
330
37
100
AcDbScale
 70
     0
300
1:5_1
140
1.0
141
0.5
290
     0
  0
SCALE
  5
69E
102
{ACAD_REACTORS
330
37
102
}
330
37
100
AcDbScale
 70
     0
300
1:20_1
140
1.0
141
2.0
290
     0
  0
SCALE
  5
69F
102
{ACAD_REACTORS
330
37
102
}
330
37
100
AcDbScale
 70
     0
300
1:50_1
140
1.0
141
5.0
290
     0
  0
SCALE
  5
6A0
102
{ACAD_REACTORS
330
37
102
}
330
37
100
AcDbScale
 70
     0
300
1:100_1
140
1.0
141
10.0
290
     0
  0
SCALE
  5
3E
102
{ACAD_REACTORS
330
37
102
}
330
37
100
AcDbScale
 70
     0
300
1:1
140
1.0
141
1.0
290
     0
  0
SCALE
  5
3F
102
{ACAD_REACTORS
330
37
102
}
330
37
100
AcDbScale
 70
     0
300
1:2
140
1.0
141
2.0
290
     0
  0
SCALE
  5
40
102
{ACAD_REACTORS
330
37
102
}
330
37
100
AcDbScale
 70
     0
300
1:4
140
1.0
141
4.0
290
     0
  0
SCALE
  5
41
102
{ACAD_REACTORS
330
37
102
}
330
37
100
AcDbScale
 70
     0
300
1:5
140
1.0
141
5.0
290
     0
  0
SCALE
  5
42
102
{ACAD_REACTORS
330
37
102
}
330
37
100
AcDbScale
 70
     0
300
1:8
140
1.0
141
8.0
290
     0
  0
SCALE
  5
43
102
{ACAD_REACTORS
330
37
102
}
330
37
100
AcDbScale
 70
     0
300
1:10
140
1.0
141
10.0
290
     0
  0
SCALE
  5
44
102
{ACAD_REACTORS
330
37
102
}
330
37
100
AcDbScale
 70
     0
300
1:16
140
1.0
141
16.0
290
     0
  0
SCALE
  5
45
102
{ACAD_REACTORS
330
37
102
}
330
37
100
AcDbScale
 70
     0
300
1:20
140
1.0
141
20.0
290
     0
  0
SCALE
  5
46
102
{ACAD_REACTORS
330
37
102
}
330
37
100
AcDbScale
 70
     0
300
1:30
140
1.0
141
30.0
290
     0
  0
SCALE
  5
47
102
{ACAD_REACTORS
330
37
102
}
330
37
100
AcDbScale
 70
     0
300
1:40
140
1.0
141
40.0
290
     0
  0
SCALE
  5
48
102
{ACAD_REACTORS
330
37
102
}
330
37
100
AcDbScale
 70
     0
300
1:50
140
1.0
141
50.0
290
     0
  0
SCALE
  5
49
102
{ACAD_REACTORS
330
37
102
}
330
37
100
AcDbScale
 70
     0
300
1:100
140
1.0
141
100.0
290
     0
  0
SCALE
  5
4A
102
{ACAD_REACTORS
330
37
102
}
330
37
100
AcDbScale
 70
     0
300
2:1
140
2.0
141
1.0
290
     0
  0
SCALE
  5
4B
102
{ACAD_REACTORS
330
37
102
}
330
37
100
AcDbScale
 70
     0
300
4:1
140
4.0
141
1.0
290
     0
  0
SCALE
  5
4C
102
{ACAD_REACTORS
330
37
102
}
330
37
100
AcDbScale
 70
     0
300
8:1
140
8.0
141
1.0
290
     0
  0
SCALE
  5
4D
102
{ACAD_REACTORS
330
37
102
}
330
37
100
AcDbScale
 70
     0
300
10:1
140
10.0
141
1.0
290
     0
  0
SCALE
  5
4E
102
{ACAD_REACTORS
330
37
102
}
330
37
100
AcDbScale
 70
     0
300
100:1
140
100.0
141
1.0
290
     0
  0
SCALE
  5
4F
102
{ACAD_REACTORS
330
37
102
}
330
37
100
AcDbScale
 70
     0
300
1/128" = 1'-0"
140
0.0078125
141
12.0
290
     0
  0
SCALE
  5
50
102
{ACAD_REACTORS
330
37
102
}
330
37
100
AcDbScale
 70
     0
300
1/64" = 1'-0"
140
0.015625
141
12.0
290
     0
  0
SCALE
  5
51
102
{ACAD_REACTORS
330
37
102
}
330
37
100
AcDbScale
 70
     0
300
1/32" = 1'-0"
140
0.03125
141
12.0
290
     0
  0
SCALE
  5
52
102
{ACAD_REACTORS
330
37
102
}
330
37
100
AcDbScale
 70
     0
300
1/16" = 1'-0"
140
0.0625
141
12.0
290
     0
  0
SCALE
  5
53
102
{ACAD_REACTORS
330
37
102
}
330
37
100
AcDbScale
 70
     0
300
3/32" = 1'-0"
140
0.09375
141
12.0
290
     0
  0
SCALE
  5
54
102
{ACAD_REACTORS
330
37
102
}
330
37
100
AcDbScale
 70
     0
300
1/8" = 1'-0"
140
0.125
141
12.0
290
     0
  0
SCALE
  5
55
102
{ACAD_REACTORS
330
37
102
}
330
37
100
AcDbScale
 70
     0
300
3/16" = 1'-0"
140
0.1875
141
12.0
290
     0
  0
SCALE
  5
56
102
{ACAD_REACTORS
330
37
102
}
330
37
100
AcDbScale
 70
     0
300
1/4" = 1'-0"
140
0.25
141
12.0
290
     0
  0
SCALE
  5
57
102
{ACAD_REACTORS
330
37
102
}
330
37
100
AcDbScale
 70
     0
300
3/8" = 1'-0"
140
0.375
141
12.0
290
     0
  0
SCALE
  5
58
102
{ACAD_REACTORS
330
37
102
}
330
37
100
AcDbScale
 70
     0
300
1/2" = 1'-0"
140
0.5
141
12.0
290
     0
  0
SCALE
  5
59
102
{ACAD_REACTORS
330
37
102
}
330
37
100
AcDbScale
 70
     0
300
3/4" = 1'-0"
140
0.75
141
12.0
290
     0
  0
SCALE
  5
5A
102
{ACAD_REACTORS
330
37
102
}
330
37
100
AcDbScale
 70
     0
300
1" = 1'-0"
140
1.0
141
12.0
290
     0
  0
SCALE
  5
5B
102
{ACAD_REACTORS
330
37
102
}
330
37
100
AcDbScale
 70
     0
300
1-1/2" = 1'-0"
140
1.5
141
12.0
290
     0
  0
SCALE
  5
5C
102
{ACAD_REACTORS
330
37
102
}
330
37
100
AcDbScale
 70
     0
300
3" = 1'-0"
140
3.0
141
12.0
290
     0
  0
SCALE
  5
5D
102
{ACAD_REACTORS
330
37
102
}
330
37
100
AcDbScale
 70
     0
300
6" = 1'-0"
140
6.0
141
12.0
290
     0
  0
SCALE
  5
5E
102
{ACAD_REACTORS
330
37
102
}
330
37
100
AcDbScale
 70
     0
300
1'-0" = 1'-0"
140
12.0
141
12.0
290
     1
  0
TABLESTYLE
  5
3B
102
{ACAD_XDICTIONARY
360
5C0
102
}
102
{ACAD_REACTORS
330
38
102
}
330
38
100
AcDbTableStyle
  3
Standard
 70
     0
 71
     0
 40
0.06
 41
0.06
280
     0
281
     0
  7
Standard
140
0.18
170
     2
 62
     0
 63
     7
283
     0
274
    -2
284
     1
 64
     0
275
    -2
285
     1
 65
     0
276
    -2
286
     1
 66
     0
277
    -2
287
     1
 67
     0
278
    -2
288
     1
 68
     0
279
    -2
289
     1
 69
     0
  7
Standard
140
0.25
170
     5
 62
     0
 63
     7
283
     0
274
    -2
284
     1
 64
     0
275
    -2
285
     1
 65
     0
276
    -2
286
     1
 66
     0
277
    -2
287
     1
 67
     0
278
    -2
288
     1
 68
     0
279
    -2
289
     1
 69
     0
  7
Standard
140
0.18
170
     5
 62
     0
 63
     7
283
     0
274
    -2
284
     1
 64
     0
275
    -2
285
     1
 65
     0
276
    -2
286
     1
 66
     0
277
    -2
287
     1
 67
     0
278
    -2
288
     1
 68
     0
279
    -2
289
     1
 69
     0
  0
VISUALSTYLE
  5
F
102
{ACAD_REACTORS
330
10
102
}
330
10
100
AcDbVisualStyle
  2
2dWireframe
 70
     4
 71
     0
 72
     2
 73
     0
 90
        0
 40
-0.6
 41
-30.0
 62
     5
 63
     7
 74
     1
 91
        4
 64
     7
 65
   257
 75
     1
175
     1
 42
1.0
 92
        0
 66
   257
 43
1.0
 76
     1
 77
     6
 78
     2
 67
     7
 79
     5
170
     0
171
     0
290
     0
174
     0
 93
        1
 44
0.0
173
     0
291
     0
 45
0.0
1001
ACAD
1000
AcDbSavedByObjectVersion
1070
     0
  0
VISUALSTYLE
  5
5CE
102
{ACAD_REACTORS
330
10
102
}
330
10
100
AcDbVisualStyle
  2
3D Hidden
 70
     6
 71
     1
 72
     2
 73
     2
 90
        0
 40
-0.6
 41
-30.0
 62
     5
 63
     7
 74
     2
 91
        2
 64
     7
 65
   257
 75
     2
175
     1
 42
40.0
 92
        0
 66
   257
 43
1.0
 76
     1
 77
     6
 78
     2
 67
     7
 79
     3
170
     0
171
     0
290
     0
174
     0
 93
        1
 44
0.0
173
     0
291
     0
 45
0.0
1001
ACAD
1000
AcDbSavedByObjectVersion
1070
     0
  0
VISUALSTYLE
  5
3D
102
{ACAD_REACTORS
330
10
102
}
330
10
100
AcDbVisualStyle
  2
3dWireframe
 70
     5
 71
     0
 72
     2
 73
     0
 90
        0
 40
-0.6
 41
-30.0
 62
     5
 63
     7
 74
     1
 91
        4
 64
     7
 65
   257
 75
     1
175
     1
 42
1.0
 92
        0
 66
   257
 43
1.0
 76
     1
 77
     6
 78
     2
 67
     7
 79
     5
170
     0
171
     0
290
     0
174
     0
 93
        1
 44
0.0
173
     0
291
     0
 45
0.0
1001
ACAD
1000
AcDbSavedByObjectVersion
1070
     0
  0
VISUALSTYLE
  5
5CD
102
{ACAD_REACTORS
330
10
102
}
330
10
100
AcDbVisualStyle
  2
Basic
 70
     7
 71
     1
 72
     0
 73
     1
 90
        0
 40
-0.6
 41
-30.0
 62
     5
 63
     7
 74
     0
 91
        4
 64
     7
 65
   257
 75
     1
175
     1
 42
1.0
 92
        8
 66
     7
 43
1.0
 76
     1
 77
     6
 78
     2
 67
     7
 79
     5
170
     0
171
     0
290
     0
174
     0
 93
        1
 44
0.0
173
     0
291
     1
 45
0.0
1001
ACAD
1000
AcDbSavedByObjectVersion
1070
     0
  0
VISUALSTYLE
  5
5D1
102
{ACAD_REACTORS
330
10
102
}
330
10
100
AcDbVisualStyle
  2
Brighten
 70
    12
 71
     2
 72
     2
 73
     0
 90
        0
 40
-0.6
 41
-30.0
 62
     5
 63
     7
 74
     1
 91
        4
 64
     7
 65
   257
 75
     1
175
     1
 42
1.0
 92
        8
 66
     7
 43
1.0
 76
     1
 77
     6
 78
     2
 67
     7
 79
     5
170
     0
171
     0
290
     0
174
     0
 93
        1
 44
50.0
173
     0
291
     1
 45
0.0
1001
ACAD
1000
AcDbSavedByObjectVersion
1070
     0
  0
VISUALSTYLE
  5
5D5
102
{ACAD_REACTORS
330
10
102
}
330
10
100
AcDbVisualStyle
  2
ColorChange
 70
    16
 71
     2
 72
     2
 73
     3
 90
        0
 40
-0.6
 41
-30.0
 62
     5
 63
     8
 74
     1
 91
        4
 64
     7
 65
   257
 75
     1
175
     1
 42
1.0
 92
        8
 66
     8
 43
1.0
 76
     1
 77
     6
 78
     2
 67
     7
 79
     5
170
     0
171
     0
290
     0
174
     0
 93
        1
 44
0.0
173
     0
291
     1
 45
0.0
1001
ACAD
1000
AcDbSavedByObjectVersion
1070
     0
  0
VISUALSTYLE
  5
5CF
102
{ACAD_REACTORS
330
10
102
}
330
10
100
AcDbVisualStyle
  2
Conceptual
 70
     9
 71
     3
 72
     2
 73
     0
 90
        0
 40
-0.6
 41
-30.0
 62
     5
 63
     7
 74
     2
 91
        2
 64
     7
 65
   257
 75
     1
175
     1
 42
40.0
 92
        8
 66
     7
 43
1.0
 76
     1
 77
     6
 78
     2
 67
     7
 79
     3
170
     0
171
     0
290
     0
174
     0
 93
        1
 44
0.0
173
     0
291
     0
 45
0.0
1001
ACAD
1000
AcDbSavedByObjectVersion
1070
     0
  0
VISUALSTYLE
  5
5D0
102
{ACAD_REACTORS
330
10
102
}
330
10
100
AcDbVisualStyle
  2
Dim
 70
    11
 71
     2
 72
     2
 73
     0
 90
        0
 40
-0.6
 41
-30.0
 62
     5
 63
     7
 74
     1
 91
        4
 64
     7
 65
   257
 75
     1
175
     1
 42
1.0
 92
        8
 66
     7
 43
1.0
 76
     1
 77
     6
 78
     2
 67
     7
 79
     5
170
     0
171
     0
290
     0
174
     0
 93
        1
 44
-50.0
173
     0
291
     1
 45
0.0
1001
ACAD
1000
AcDbSavedByObjectVersion
1070
     0
  0
VISUALSTYLE
  5
5D4
102
{ACAD_REACTORS
330
10
102
}
330
10
100
AcDbVisualStyle
  2
Facepattern
 70
    15
 71
     2
 72
     2
 73
     0
 90
        0
 40
-0.6
 41
-30.0
 62
     5
 63
     7
 74
     1
 91
        4
 64
     7
 65
   257
 75
     1
175
     1
 42
1.0
 92
        8
 66
     7
 43
1.0
 76
     1
 77
     6
 78
     2
 67
     7
 79
     5
170
     0
171
     0
290
     0
174
     0
 93
        1
 44
0.0
173
     0
291
     1
 45
0.0
1001
ACAD
1000
AcDbSavedByObjectVersion
1070
     0
  0
VISUALSTYLE
  5
5C9
102
{ACAD_REACTORS
330
10
102
}
330
10
100
AcDbVisualStyle
  2
Flat
 70
     0
 71
     2
 72
     1
 73
     1
 90
        2
 40
-0.6
 41
30.0
 62
     5
 63
     7
 74
     0
 91
        4
 64
     7
 65
   257
 75
     1
175
     1
 42
1.0
 92
        8
 66
     7
 43
1.0
 76
     1
 77
     6
 78
     2
 67
     7
 79
     5
170
     0
171
     0
290
     0
174
     0
 93
       13
 44
0.0
173
     0
291
     0
 45
0.0
1001
ACAD
1000
AcDbSavedByObjectVersion
1070
     0
  0
VISUALSTYLE
  5
5CA
102
{ACAD_REACTORS
330
10
102
}
330
10
100
AcDbVisualStyle
  2
FlatWithEdges
 70
     1
 71
     2
 72
     1
 73
     1
 90
        2
 40
-0.6
 41
30.0
 62
     5
 63
     7
 74
     1
 91
        4
 64
     7
 65
   257
 75
     1
175
     1
 42
1.0
 92
        0
 66
   257
 43
1.0
 76
     1
 77
     6
 78
     2
 67
     7
 79
     5
170
     0
171
     0
290
     0
174
     0
 93
       13
 44
0.0
173
     0
291
     0
 45
0.0
1001
ACAD
1000
AcDbSavedByObjectVersion
1070
     0
  0
VISUALSTYLE
  5
5CB
102
{ACAD_REACTORS
330
10
102
}
330
10
100
AcDbVisualStyle
  2
Gouraud
 70
     2
 71
     2
 72
     2
 73
     1
 90
        2
 40
-0.6
 41
30.0
 62
     5
 63
     7
 74
     0
 91
        4
 64
     7
 65
   257
 75
     1
175
     1
 42
1.0
 92
        0
 66
     7
 43
1.0
 76
     1
 77
     6
 78
     2
 67
     7
 79
     5
170
     0
171
     0
290
     0
174
     0
 93
       13
 44
0.0
173
     0
291
     0
 45
0.0
1001
ACAD
1000
AcDbSavedByObjectVersion
1070
     0
  0
VISUALSTYLE
  5
5CC
102
{ACAD_REACTORS
330
10
102
}
330
10
100
AcDbVisualStyle
  2
GouraudWithEdges
 70
     3
 71
     2
 72
     2
 73
     1
 90
        2
 40
-0.6
 41
30.0
 62
     5
 63
     7
 74
     1
 91
        4
 64
     7
 65
   257
 75
     1
175
     1
 42
1.0
 92
        0
 66
   257
 43
1.0
 76
     1
 77
     6
 78
     2
 67
     7
 79
     5
170
     0
171
     0
290
     0
174
     0
 93
       13
 44
0.0
173
     0
291
     0
 45
0.0
1001
ACAD
1000
AcDbSavedByObjectVersion
1070
     0
  0
VISUALSTYLE
  5
5D3
102
{ACAD_REACTORS
330
10
102
}
330
10
100
AcDbVisualStyle
  2
Linepattern
 70
    14
 71
     2
 72
     2
 73
     0
 90
        0
 40
-0.6
 41
-30.0
 62
     5
 63
     7
 74
     1
 91
        4
 64
     7
 65
   257
 75
     7
175
     7
 42
1.0
 92
        8
 66
     7
 43
1.0
 76
     1
 77
     6
 78
     2
 67
     7
 79
     5
170
     0
171
     0
290
     0
174
     0
 93
        1
 44
0.0
173
     0
291
     1
 45
0.0
1001
ACAD
1000
AcDbSavedByObjectVersion
1070
     0
  0
VISUALSTYLE
  5
5DF
102
{ACAD_REACTORS
330
10
102
}
330
10
100
AcDbVisualStyle
  2

 70
     8
 71
     2
 72
     2
 73
     0
 90
        0
 40
-0.6
 41
-30.0
 62
     5
 63
     7
 74
     0
 91
        0
 64
     7
 65
   257
 75
     1
175
     1
 42
1.0
 92
        8
 66
     8
 43
1.0
 76
     1
 77
     6
 78
     2
 67
     7
 79
     5
170
     0
171
     0
290
     0
174
     0
 93
       13
 44
0.0
173
     0
291
     0
 45
0.0
1001
ACAD
1000
AcDbSavedByObjectVersion
1070
     0
  0
VISUALSTYLE
  5
5E0
102
{ACAD_REACTORS
330
10
102
}
330
10
100
AcDbVisualStyle
  2

 70
     8
 71
     2
 72
     2
 73
     0
 90
        0
 40
-0.6
 41
-30.0
 62
     5
 63
     7
 74
     1
 91
        0
 64
     7
 65
   257
 75
     1
175
     1
 42
1.0
 92
        8
 66
     8
 43
1.0
 76
     1
 77
     6
 78
     2
 67
     7
 79
     5
170
     0
171
     0
290
     0
174
     0
 93
       13
 44
0.0
173
     0
291
     0
 45
0.0
1001
ACAD
1000
AcDbSavedByObjectVersion
1070
     0
  0
VISUALSTYLE
  5
3C
102
{ACAD_REACTORS
330
10
102
}
330
10
100
AcDbVisualStyle
  2
Realistic
 70
     8
 71
     2
 72
     2
 73
     0
 90
        0
 40
-0.6
 41
-30.0
 62
     5
 63
     7
 74
     1
 91
        0
 64
     7
 65
   257
 75
     1
175
     1
 42
1.0
 92
        8
 66
     8
 43
1.0
 76
     1
 77
     6
 78
     2
 67
     7
 79
     5
170
     0
171
     0
290
     0
174
     0
 93
       13
 44
0.0
173
     0
291
     0
 45
0.0
1001
ACAD
1000
AcDbSavedByObjectVersion
1070
     0
  0
VISUALSTYLE
  5
5D2
102
{ACAD_REACTORS
330
10
102
}
330
10
100
AcDbVisualStyle
  2
Thicken
 70
    13
 71
     2
 72
     2
 73
     0
 90
        0
 40
-0.6
 41
-30.0
 62
     5
 63
     7
 74
     1
 91
        4
 64
     7
 65
   257
 75
     1
175
     1
 42
1.0
 92
       12
 66
     7
 43
1.0
 76
     1
 77
     6
 78
     2
 67
     7
 79
     5
170
     0
171
     0
290
     0
174
     0
 93
        1
 44
0.0
173
     0
291
     1
 45
0.0
1001
ACAD
1000
AcDbSavedByObjectVersion
1070
     0
  0
DICTIONARYVAR
  5
5C6
102
{ACAD_REACTORS
330
5C3
102
}
330
5C3
100
DictionaryVariables
280
     0
  1
1/8" = 1'-0"
  0
DICTIONARYVAR
  5
5C5
102
{ACAD_REACTORS
330
5C3
102
}
330
5C3
100
DictionaryVariables
280
     0
  1
STANDARD
  0
DICTIONARYVAR
  5
5C4
102
{ACAD_REACTORS
330
5C3
102
}
330
5C3
100
DictionaryVariables
280
     0
  1
STANDARD
  0
DICTIONARYVAR
  5
F5D
102
{ACAD_REACTORS
330
5C3
102
}
330
5C3
100
DictionaryVariables
280
     0
  1
1
  0
DICTIONARYVAR
  5
F5C
102
{ACAD_REACTORS
330
5C3
102
}
330
5C3
100
DictionaryVariables
280
     0
  1
1
  0
DICTIONARYVAR
  5
F5B
102
{ACAD_REACTORS
330
5C3
102
}
330
5C3
100
DictionaryVariables
280
     0
  1
0
  0
DICTIONARYVAR
  5
5C7
102
{ACAD_REACTORS
330
5C3
102
}
330
5C3
100
DictionaryVariables
280
     0
  1
0
  0
DICTIONARYVAR
  5
F59
102
{ACAD_REACTORS
330
5C3
102
}
330
5C3
100
DictionaryVariables
280
     0
  1
1
  0
DICTIONARYVAR
  5
F5A
102
{ACAD_REACTORS
330
5C3
102
}
330
5C3
100
DictionaryVariables
280
     0
  1
127
  0
DICTIONARY
  5
F64
330
14
100
AcDbDictionary
280
     1
281
     1
  3
ACAD_XREC_ROUNDTRIP
360
F65
  0
DICTIONARY
  5
F62
330
C
100
AcDbDictionary
280
     1
281
     1
  3
ACAD_XREC_ROUNDTRIP
360
F63
  0
DICTIONARY
  5
F68
330
35
100
AcDbDictionary
280
     1
281
     1
  3
ACAD_XREC_ROUNDTRIP
360
F69
  0
DICTIONARY
  5
F66
330
34
100
AcDbDictionary
280
     1
281
     1
  3
ACAD_XREC_ROUNDTRIP
360
F67
  0
DICTIONARY
  5
F60
330
8
100
AcDbDictionary
280
     1
281
     1
  3
ACAD_XREC_ROUNDTRIP
360
F61
  0
DICTIONARY
  5
5C0
330
3B
100
AcDbDictionary
280
     1
281
     1
  3
ACAD_ROUNDTRIP_2008_TABLESTYLE_CELLSTYLEMAP
360
F5E
  3
ACAD_XREC_ROUNDTRIP
360
F6A
  0
XRECORD
  5
F65
102
{ACAD_REACTORS
330
F64
102
}
330
F64
100
AcDbXrecord
280
     1
102
SHADEPLOT
 70
     0
102
SHADEPLOTRESLEVEL
 70
     2
102
SHADEPLOTCUSTOMDPI
 70
   300
  0
XRECORD
  5
F63
102
{ACAD_REACTORS
330
F62
102
}
330
F62
100
AcDbXrecord
280
     1
102
SHADEPLOT
 70
     1
102
SHADEPLOTRESLEVEL
 70
     2
102
SHADEPLOTCUSTOMDPI
 70
   300
  0
XRECORD
  5
F69
102
{ACAD_REACTORS
330
F68
102
}
330
F68
100
AcDbXrecord
280
     1
102
MATERIAL
148
0.0
149
0.0
149
0.0
 93
        0
 94
       63
282
     0
 72
     1
 77
     1
171
     1
175
     1
179
     1
273
     0
  0
XRECORD
  5
F67
102
{ACAD_REACTORS
330
F66
102
}
330
F66
100
AcDbXrecord
280
     1
102
MATERIAL
148
0.0
149
0.0
149
0.0
 93
        0
 94
       63
282
     0
 72
     1
 77
     1
171
     1
175
     1
179
     1
273
     0
  0
XRECORD
  5
F61
102
{ACAD_REACTORS
330
F60
102
}
330
F60
100
AcDbXrecord
280
     1
102
MATERIAL
148
0.0
149
0.0
149
0.0
 93
        0
 94
       63
282
     0
 72
     1
 77
     1
171
     1
175
     1
179
     1
273
     0
  0
CELLSTYLEMAP
  5
F5E
102
{ACAD_REACTORS
330
5C0
102
}
330
5C0
100
AcDbCellStyleMap
 90
        3
300
CELLSTYLE
  1
TABLEFORMAT_BEGIN
 90
        5
170
     1
 91
        0
 92
    32768
 62
   257
 93
        1
300
CONTENTFORMAT
  1
CONTENTFORMAT_BEGIN
 90
        0
 91
        0
 92
        4
 93
        0
300

 40
0.0
140
1.0
 94
        5
 62
     0
340
19
144
0.25
309
CONTENTFORMAT_END
171
     0
 94
        6
 95
        1
302
GRIDFORMAT
  1
GRIDFORMAT_BEGIN
 90
        0
 91
        1
 62
     0
 92
       -2
340
0
 93
        0
 40
0.045
309
GRIDFORMAT_END
 95
        2
302
GRIDFORMAT
  1
GRIDFORMAT_BEGIN
 90
        0
 91
        1
 62
     0
 92
       -2
340
0
 93
        0
 40
0.045
309
GRIDFORMAT_END
 95
        4
302
GRIDFORMAT
  1
GRIDFORMAT_BEGIN
 90
        0
 91
        1
 62
     0
 92
       -2
340
0
 93
        0
 40
0.045
309
GRIDFORMAT_END
 95
        8
302
GRIDFORMAT
  1
GRIDFORMAT_BEGIN
 90
        0
 91
        1
 62
     0
 92
       -2
340
0
 93
        0
 40
0.045
309
GRIDFORMAT_END
 95
       16
302
GRIDFORMAT
  1
GRIDFORMAT_BEGIN
 90
        0
 91
        1
 62
     0
 92
       -2
340
0
 93
        0
 40
0.045
309
GRIDFORMAT_END
 95
       32
302
GRIDFORMAT
  1
GRIDFORMAT_BEGIN
 90
        0
 91
        1
 62
     0
 92
       -2
340
0
 93
        0
 40
0.045
309
GRIDFORMAT_END
309
TABLEFORMAT_END
  1
CELLSTYLE_BEGIN
 90
        1
 91
        1
300
_TITLE
309
CELLSTYLE_END
300
CELLSTYLE
  1
TABLEFORMAT_BEGIN
 90
        5
170
     1
 91
        0
 92
        0
 62
   257
 93
        1
300
CONTENTFORMAT
  1
CONTENTFORMAT_BEGIN
 90
        0
 91
        0
 92
        4
 93
        0
300

 40
0.0
140
1.0
 94
        5
 62
     0
340
19
144
0.18
309
CONTENTFORMAT_END
171
     0
 94
        6
 95
        1
302
GRIDFORMAT
  1
GRIDFORMAT_BEGIN
 90
        0
 91
        1
 62
     0
 92
       -2
340
0
 93
        0
 40
0.045
309
GRIDFORMAT_END
 95
        2
302
GRIDFORMAT
  1
GRIDFORMAT_BEGIN
 90
        0
 91
        1
 62
     0
 92
       -2
340
0
 93
        0
 40
0.045
309
GRIDFORMAT_END
 95
        4
302
GRIDFORMAT
  1
GRIDFORMAT_BEGIN
 90
        0
 91
        1
 62
     0
 92
       -2
340
0
 93
        0
 40
0.045
309
GRIDFORMAT_END
 95
        8
302
GRIDFORMAT
  1
GRIDFORMAT_BEGIN
 90
        0
 91
        1
 62
     0
 92
       -2
340
0
 93
        0
 40
0.045
309
GRIDFORMAT_END
 95
       16
302
GRIDFORMAT
  1
GRIDFORMAT_BEGIN
 90
        0
 91
        1
 62
     0
 92
       -2
340
0
 93
        0
 40
0.045
309
GRIDFORMAT_END
 95
       32
302
GRIDFORMAT
  1
GRIDFORMAT_BEGIN
 90
        0
 91
        1
 62
     0
 92
       -2
340
0
 93
        0
 40
0.045
309
GRIDFORMAT_END
309
TABLEFORMAT_END
  1
CELLSTYLE_BEGIN
 90
        2
 91
        1
300
_HEADER
309
CELLSTYLE_END
300
CELLSTYLE
  1
TABLEFORMAT_BEGIN
 90
        5
170
     1
 91
        0
 92
        0
 62
   257
 93
        1
300
CONTENTFORMAT
  1
CONTENTFORMAT_BEGIN
 90
        0
 91
        0
 92
        4
 93
        0
300

 40
0.0
140
1.0
 94
        2
 62
     0
340
19
144
0.18
309
CONTENTFORMAT_END
171
     0
 94
        6
 95
        1
302
GRIDFORMAT
  1
GRIDFORMAT_BEGIN
 90
        0
 91
        1
 62
     0
 92
       -2
340
0
 93
        0
 40
0.045
309
GRIDFORMAT_END
 95
        2
302
GRIDFORMAT
  1
GRIDFORMAT_BEGIN
 90
        0
 91
        1
 62
     0
 92
       -2
340
0
 93
        0
 40
0.045
309
GRIDFORMAT_END
 95
        4
302
GRIDFORMAT
  1
GRIDFORMAT_BEGIN
 90
        0
 91
        1
 62
     0
 92
       -2
340
0
 93
        0
 40
0.045
309
GRIDFORMAT_END
 95
        8
302
GRIDFORMAT
  1
GRIDFORMAT_BEGIN
 90
        0
 91
        1
 62
     0
 92
       -2
340
0
 93
        0
 40
0.045
309
GRIDFORMAT_END
 95
       16
302
GRIDFORMAT
  1
GRIDFORMAT_BEGIN
 90
        0
 91
        1
 62
     0
 92
       -2
340
0
 93
        0
 40
0.045
309
GRIDFORMAT_END
 95
       32
302
GRIDFORMAT
  1
GRIDFORMAT_BEGIN
 90
        0
 91
        1
 62
     0
 92
       -2
340
0
 93
        0
 40
0.045
309
GRIDFORMAT_END
309
TABLEFORMAT_END
  1
CELLSTYLE_BEGIN
 90
        3
 91
        2
300
_DATA
309
CELLSTYLE_END
  0
XRECORD
  5
F6A
102
{ACAD_REACTORS
330
5C0
102
}
330
5C0
100
AcDbXrecord
280
     1
102
ACAD_ROUNDTRIP_PRE2007_TABLESTYLE
 90
        4
 91
        0
  1

 92
        4
 93
        0
  2

 94
        4
 95
        0
  3

  0
ENDSEC
  0
EOF
