  0
SECTION
  2
HEADER
  9
$ACADVER
  1
AC1015
  9
$ACADMAINTVER
 70
    20
  9
$DWGCODEPAGE
  3
ANSI_1250
  9
$INSBASE
 10
-19638.75239243206
 20
22729.75959659139
 30
0.0
  9
$EXTMIN
 10
-33491.53702571367
 20
8709.759596591394
 30
0.0
  9
$EXTMAX
 10
-9438.752392432034
 20
38291.03955274444
 30
0.0
  9
$LIMMIN
 10
0.0
 20
0.0
  9
$LIMMAX
 10
12.0
 20
9.0
  9
$ORTHOMODE
 70
     1
  9
$REGENMODE
 70
     1
  9
$FILLMODE
 70
     1
  9
$QTEXTMODE
 70
     0
  9
$MIRRTEXT
 70
     0
  9
$LTSCALE
 40
75.0
  9
$ATTMODE
 70
     1
  9
$TEXTSIZE
 40
5.0
  9
$TRACEWID
 40
40.0
  9
$TEXTSTYLE
  7
ROMANS
  9
$CLAYER
  8
0Wymiary-PL
  9
$CELTYPE
  6
BYLAYER
  9
$CECOLOR
 62
   256
  9
$CELTSCALE
 40
4.0
  9
$DISPSILH
 70
     0
  9
$DIMSCALE
 40
0.1
  9
$DIMASZ
 40
15.0
  9
$DIMEXO
 40
43.0
  9
$DIMDLI
 40
24.0
  9
$DIMRND
 40
0.5
  9
$DIMDLE
 40
12.0
  9
$DIMEXE
 40
13.0
  9
$DIMTP
 40
0.0
  9
$DIMTM
 40
0.0
  9
$DIMTXT
 40
30.0
  9
$DIMCEN
 40
0.0
  9
$DIMTSZ
 40
0.0
  9
$DIMTOL
 70
     0
  9
$DIMLIM
 70
     0
  9
$DIMTIH
 70
     0
  9
$DIMTOH
 70
     0
  9
$DIMSE1
 70
     1
  9
$DIMSE2
 70
     1
  9
$DIMTAD
 70
     1
  9
$DIMZIN
 70
     8
  9
$DIMBLK
  1
B-DIM_K
  9
$DIMASO
 70
     1
  9
$DIMSHO
 70
     1
  9
$DIMPOST
  1

  9
$DIMAPOST
  1

  9
$DIMALT
 70
     0
  9
$DIMALTD
 70
     2
  9
$DIMALTF
 40
25.4
  9
$DIMLFAC
 40
1.0
  9
$DIMTOFL
 70
     1
  9
$DIMTVP
 40
1.0
  9
$DIMTIX
 70
     1
  9
$DIMSOXD
 70
     0
  9
$DIMSAH
 70
     0
  9
$DIMBLK1
  1

  9
$DIMBLK2
  1

  9
$DIMSTYLE
  2
100-PR
  9
$DIMCLRD
 70
     7
  9
$DIMCLRE
 70
     1
  9
$DIMCLRT
 70
   140
  9
$DIMTFAC
 40
1.0
  9
$DIMGAP
 40
12.0
  9
$DIMJUST
 70
     0
  9
$DIMSD1
 70
     0
  9
$DIMSD2
 70
     0
  9
$DIMTOLJ
 70
     1
  9
$DIMTZIN
 70
     0
  9
$DIMALTZ
 70
     0
  9
$DIMALTTZ
 70
     0
  9
$DIMUPT
 70
     0
  9
$DIMDEC
 70
     1
  9
$DIMTDEC
 70
     1
  9
$DIMALTU
 70
     2
  9
$DIMALTTD
 70
     2
  9
$DIMTXSTY
  7
ROMANS
  9
$DIMAUNIT
 70
     0
  9
$DIMADEC
 70
     0
  9
$DIMALTRND
 40
0.0
  9
$DIMAZIN
 70
     0
  9
$DIMDSEP
 70
    46
  9
$DIMATFIT
 70
     3
  9
$DIMFRAC
 70
     0
  9
$DIMLDRBLK
  1
Dot
  9
$DIMLUNIT
 70
     2
  9
$DIMLWD
 70
     5
  9
$DIMLWE
 70
    -2
  9
$DIMTMOVE
 70
     2
  9
$LUNITS
 70
     2
  9
$LUPREC
 70
     2
  9
$SKETCHINC
 40
0.1
  9
$FILLETRAD
 40
0.0
  9
$AUNITS
 70
     0
  9
$AUPREC
 70
     1
  9
$MENU
  1
acad
  9
$ELEVATION
 40
0.0
  9
$PELEVATION
 40
0.0
  9
$THICKNESS
 40
0.0
  9
$LIMCHECK
 70
     0
  9
$CHAMFERA
 40
30.0
  9
$CHAMFERB
 40
30.0
  9
$CHAMFERC
 40
0.0
  9
$CHAMFERD
 40
0.0
  9
$SKPOLY
 70
     0
  9
$TDCREATE
 40
2450817.525937848
  9
$TDUCREATE
 40
2450817.442604514
  9
$TDUPDATE
 40
2454951.525285729
  9
$TDUUPDATE
 40
2454951.441952396
  9
$TDINDWG
 40
19.4660664931
  9
$TDUSRTIMER
 40
19.4660664931
  9
$USRTIMER
 70
     1
  9
$ANGBASE
 50
0.0
  9
$ANGDIR
 70
     0
  9
$PDMODE
 70
     3
  9
$PDSIZE
 40
10.0
  9
$PLINEWID
 40
0.0
  9
$SPLFRAME
 70
     0
  9
$SPLINETYPE
 70
     6
  9
$SPLINESEGS
 70
     8
  9
$HANDSEED
  5
551
  9
$SURFTAB1
 70
     6
  9
$SURFTAB2
 70
     6
  9
$SURFTYPE
 70
     6
  9
$SURFU
 70
     6
  9
$SURFV
 70
     6
  9
$UCSBASE
  2

  9
$UCSNAME
  2

  9
$UCSORG
 10
0.0
 20
0.0
 30
0.0
  9
$UCSXDIR
 10
1.0
 20
0.0
 30
0.0
  9
$UCSYDIR
 10
0.0
 20
1.0
 30
0.0
  9
$UCSORTHOREF
  2

  9
$UCSORTHOVIEW
 70
     0
  9
$UCSORGTOP
 10
0.0
 20
0.0
 30
0.0
  9
$UCSORGBOTTOM
 10
0.0
 20
0.0
 30
0.0
  9
$UCSORGLEFT
 10
0.0
 20
0.0
 30
0.0
  9
$UCSORGRIGHT
 10
0.0
 20
0.0
 30
0.0
  9
$UCSORGFRONT
 10
0.0
 20
0.0
 30
0.0
  9
$UCSORGBACK
 10
0.0
 20
0.0
 30
0.0
  9
$PUCSBASE
  2

  9
$PUCSNAME
  2

  9
$PUCSORG
 10
0.0
 20
0.0
 30
0.0
  9
$PUCSXDIR
 10
1.0
 20
0.0
 30
0.0
  9
$PUCSYDIR
 10
0.0
 20
1.0
 30
0.0
  9
$PUCSORTHOREF
  2

  9
$PUCSORTHOVIEW
 70
     0
  9
$PUCSORGTOP
 10
0.0
 20
0.0
 30
0.0
  9
$PUCSORGBOTTOM
 10
0.0
 20
0.0
 30
0.0
  9
$PUCSORGLEFT
 10
0.0
 20
0.0
 30
0.0
  9
$PUCSORGRIGHT
 10
0.0
 20
0.0
 30
0.0
  9
$PUCSORGFRONT
 10
0.0
 20
0.0
 30
0.0
  9
$PUCSORGBACK
 10
0.0
 20
0.0
 30
0.0
  9
$USERI1
 70
     0
  9
$USERI2
 70
     0
  9
$USERI3
 70
     0
  9
$USERI4
 70
     0
  9
$USERI5
 70
     0
  9
$USERR1
 40
0.0
  9
$USERR2
 40
0.0
  9
$USERR3
 40
0.0
  9
$USERR4
 40
0.0
  9
$USERR5
 40
0.0
  9
$WORLDVIEW
 70
     1
  9
$SHADEDGE
 70
     3
  9
$SHADEDIF
 70
    70
  9
$TILEMODE
 70
     1
  9
$MAXACTVP
 70
    16
  9
$PINSBASE
 10
5931.669543547489
 20
-50.0
 30
10705.17123084718
  9
$PLIMCHECK
 70
     0
  9
$PEXTMIN
 10
-0.7963446452747008
 20
-0.8075380466295882
 30
-0.0015258207003583
  9
$PEXTMAX
 10
209.2128431109218
 20
296.2154446811023
 30
0.0000000349246037
  9
$PLIMMIN
 10
-6.805083274841308
 20
-5.027085781097412
  9
$PLIMMAX
 10
203.1682443618775
 20
291.9412369728089
  9
$UNITMODE
 70
     0
  9
$VISRETAIN
 70
     0
  9
$PLINEGEN
 70
     0
  9
$PSLTSCALE
 70
     0
  9
$TREEDEPTH
 70
  3020
  9
$CMLSTYLE
  2
STANDARD
  9
$CMLJUST
 70
     0
  9
$CMLSCALE
 40
1.0
  9
$PROXYGRAPHICS
 70
     1
  9
$MEASUREMENT
 70
     0
  9
$CELWEIGHT
370
    -1
  9
$ENDCAPS
280
     0
  9
$JOINSTYLE
280
     0
  9
$LWDISPLAY
290
     0
  9
$INSUNITS
 70
     0
  9
$HYPERLINKBASE
  1

  9
$STYLESHEET
  1
monochrome_140.ctb
  9
$XEDIT
290
     1
  9
$CEPSNTYPE
380
     0
  9
$PSTYLEMODE
290
     1
  9
$FINGERPRINTGUID
  2
{BFF0F196-0D00-4F73-B170-90FE15F7A1C0}
  9
$VERSIONGUID
  2
{0B7A65B4-B181-4ACF-AFAF-4332366B9BAE}
  9
$EXTNAMES
290
     1
  9
$PSVPSCALE
 40
0.0
  9
$OLESTARTUP
290
     0
  0
ENDSEC
  0
SECTION
  2
CLASSES
  0
CLASS
  1
DICTIONARYVAR
  2
AcDbDictionaryVar
  3
ObjectDBX Classes
 90
        0
280
     0
281
     0
  0
CLASS
  1
ACDBDICTIONARYWDFLT
  2
AcDbDictionaryWithDefault
  3
ObjectDBX Classes
 90
        0
280
     0
281
     0
  0
CLASS
  1
ACDBPLACEHOLDER
  2
AcDbPlaceHolder
  3
ObjectDBX Classes
 90
        0
280
     0
281
     0
  0
CLASS
  1
LAYOUT
  2
AcDbLayout
  3
ObjectDBX Classes
 90
        0
280
     0
281
     0
  0
CLASS
  1
AEC_VARS_DWG_SETUP
  2
AecDbVarsDwgSetup
  3
AecBase50|Product Desc: Autodesk Architectural Desktop 2007 |Company: Autodesk,Inc. |WEB Address: www.autodesk.com
 90
    32897
280
     0
281
     0
  0
CLASS
  1
AEC_DISP_REP_CONFIG
  2
AecDbDispRepConfig
  3
AecBase50|Product Desc: Autodesk Architectural Desktop 2007 |Company: Autodesk,Inc. |WEB Address: www.autodesk.com
 90
    32897
280
     0
281
     0
  0
CLASS
  1
AEC_DISP_REP_SET
  2
AecDbDispRepSet
  3
AecBase50|Product Desc: Autodesk Architectural Desktop 2007 |Company: Autodesk,Inc. |WEB Address: www.autodesk.com
 90
    32897
280
     0
281
     0
  0
CLASS
  1
AEC_DISP_REP_2D_SECTION
  2
AecDbDispRep2dSection
  3
AecBase50|Product Desc: Autodesk Architectural Desktop 2007 |Company: Autodesk,Inc. |WEB Address: www.autodesk.com
 90
    32897
280
     0
281
     0
  0
CLASS
  1
AEC_DISP_REP_ANCHOR_BUB_TO_GRID
  2
AecDbDispRepAnchorBubToGrid
  3
AecStructureBase50|Product Desc: Autodesk Architectural Desktop 2007 |Company: Autodesk,Inc. |WEB Address: www.autodesk.com
 90
    32897
280
     0
281
     0
  0
CLASS
  1
AEC_DISP_REP_ANCHOR_BUB_TO_GRID_MODEL
  2
AecDbDispRepAnchorBubToGridMdl
  3
AecStructureBase50|Product Desc: Autodesk Architectural Desktop 2007 |Company: Autodesk,Inc. |WEB Address: www.autodesk.com
 90
    32897
280
     0
281
     0
  0
CLASS
  1
AEC_DISP_REP_ANCHOR_ENT_TO_NODE
  2
AecDbDispRepAnchorEntToNode
  3
AecBase50|Product Desc: Autodesk Architectural Desktop 2007 |Company: Autodesk,Inc. |WEB Address: www.autodesk.com
 90
    32897
280
     0
281
     0
  0
CLASS
  1
AEC_DISP_REP_ANCHOR_TAG_TO_ENT
  2
AecDbDispRepAnchorTagToEnt
  3
AecScheduleData50|Product Desc: Autodesk Architectural Desktop 2007 |Company: Autodesk,Inc. |WEB Address: www.autodesk.com
 90
    32897
280
     0
281
     0
  0
CLASS
  1
AEC_DISP_REP_AREA
  2
AecDbDispRepArea
  3
AecAreaCalculationBase50|Product Desc: Autodesk Architectural Desktop 2007 |Company: Autodesk,Inc. |WEB Address: www.autodesk.com
 90
    32897
280
     0
281
     0
  0
CLASS
  1
AEC_DISP_REP_AREA_DECOMPOSED
  2
AecDbDispRepAreaDecomposed
  3
AecAreaCalculationBase50|Product Desc: Autodesk Architectural Desktop 2007 |Company: Autodesk,Inc. |WEB Address: www.autodesk.com
 90
    32897
280
     0
281
     0
  0
CLASS
  1
AEC_DISP_REP_AREAGROUP
  2
AecDbDispRepAreaGroup
  3
AecAreaCalculationBase50|Product Desc: Autodesk Architectural Desktop 2007 |Company: Autodesk,Inc. |WEB Address: www.autodesk.com
 90
    32897
280
     0
281
     0
  0
CLASS
  1
AEC_DISP_REP_BDG_ELEVLINE_MODEL
  2
AecDbDispRepBdgElevLineModel
  3
AecArchBase50|Product Desc: Autodesk Architectural Desktop 2007 |Company: Autodesk,Inc. |WEB Address: www.autodesk.com
 90
    32897
280
     0
281
     0
  0
CLASS
  1
AEC_DISP_REP_BDG_SECTIONLINE_PLAN
  2
AecDbDispRepBdgElevLinePlan
  3
AecArchBase50|Product Desc: Autodesk Architectural Desktop 2007 |Company: Autodesk,Inc. |WEB Address: www.autodesk.com
 90
    32897
280
     0
281
     0
  0
CLASS
  1
AEC_DISP_REP_BDG_SECTIONLINE_MODEL
  2
AecDbDispRepBdgSectionLineModel
  3
AecArchBase50|Product Desc: Autodesk Architectural Desktop 2007 |Company: Autodesk,Inc. |WEB Address: www.autodesk.com
 90
    32897
280
     0
281
     0
  0
CLASS
  1
AEC_DISP_REP_BDG_SECTIONLINE_PLAN
  2
AecDbDispRepBdgSectionLinePlan
  3
AecArchBase50|Product Desc: Autodesk Architectural Desktop 2007 |Company: Autodesk,Inc. |WEB Address: www.autodesk.com
 90
    32897
280
     0
281
     0
  0
CLASS
  1
AEC_DISP_REP_BDG_SECTION_SUBDIV
  2
AecDbDispRepBdgSectionSubDiv
  3
AecArchBase50|Product Desc: Autodesk Architectural Desktop 2007 |Company: Autodesk,Inc. |WEB Address: www.autodesk.com
 90
    32897
280
     0
281
     0
  0
CLASS
  1
AEC_DISP_REP_CAMERA
  2
AecDbDispRepCamera
  3
AecBase50|Product Desc: Autodesk Architectural Desktop 2007 |Company: Autodesk,Inc. |WEB Address: www.autodesk.com
 90
    32897
280
     0
281
     0
  0
CLASS
  1
AEC_DISP_REP_CEILING_GRID
  2
AecDbDispRepCeilingGrid
  3
AecArchBase50|Product Desc: Autodesk Architectural Desktop 2007 |Company: Autodesk,Inc. |WEB Address: www.autodesk.com
 90
    33661
280
     0
281
     0
  0
CLASS
  1
AEC_DISP_REP_CEILING_GRID_MODEL
  2
AecDbDispRepCeilingGridModel
  3
AecArchBase50|Product Desc: Autodesk Architectural Desktop 2007 |Company: Autodesk,Inc. |WEB Address: www.autodesk.com
 90
    32897
280
     0
281
     0
  0
CLASS
  1
AEC_DISP_REP_CEILING_GRID_RCP
  2
AecDbDispRepCeilingGridRcp
  3
AecArchBase50|Product Desc: Autodesk Architectural Desktop 2007 |Company: Autodesk,Inc. |WEB Address: www.autodesk.com
 90
    32897
280
     0
281
     0
  0
CLASS
  1
AEC_DISP_REP_CLIP_VOLUME_MODEL
  2
AecDbDispRepClipVolModel
  3
AecBase50|Product Desc: Autodesk Architectural Desktop 2007 |Company: Autodesk,Inc. |WEB Address: www.autodesk.com
 90
    32897
280
     0
281
     0
  0
CLASS
  1
AEC_DISP_REP_CLIP_VOLUME_PLAN
  2
AecDbDispRepClipVolPlan
  3
AecBase50|Product Desc: Autodesk Architectural Desktop 2007 |Company: Autodesk,Inc. |WEB Address: www.autodesk.com
 90
    32897
280
     0
281
     0
  0
CLASS
  1
AEC_DISP_REP_CLIP_VOLUME_RESULT_SUBDIV
  2
AecDbDispRepClipVolResSubDiv
  3
AecBase50|Product Desc: Autodesk Architectural Desktop 2007 |Company: Autodesk,Inc. |WEB Address: www.autodesk.com
 90
    32897
280
     0
281
     0
  0
CLASS
  1
AEC_DISP_REP_CLIP_VOLUME_RESULT
  2
AecDbDispRepClipVolResult
  3
AecBase50|Product Desc: Autodesk Architectural Desktop 2007 |Company: Autodesk,Inc. |WEB Address: www.autodesk.com
 90
    32897
280
     0
281
     0
  0
CLASS
  1
AEC_DISP_REP_COLUMN_GRID
  2
AecDbDispRepColumnGrid
  3
AecStructureBase50|Product Desc: Autodesk Architectural Desktop 2007 |Company: Autodesk,Inc. |WEB Address: www.autodesk.com
 90
    32897
280
     0
281
     0
  0
CLASS
  1
AEC_DISP_REP_COLUMN_GRID_MODEL
  2
AecDbDispRepColumnGridModel
  3
AecStructureBase50|Product Desc: Autodesk Architectural Desktop 2007 |Company: Autodesk,Inc. |WEB Address: www.autodesk.com
 90
    32897
280
     0
281
     0
  0
CLASS
  1
AEC_DISP_REP_CURTAIN_WALL_LAYOUT_MODEL
  2
AecDbDispRepCurtainWallLayoutModel
  3
AecArchBase50|Product Desc: Autodesk Architectural Desktop 2007 |Company: Autodesk,Inc. |WEB Address: www.autodesk.com
 90
    32897
280
     0
281
     0
  0
CLASS
  1
AEC_DISP_REP_CURTAIN_WALL_LAYOUT_PLAN
  2
AecDbDispRepCurtainWallLayoutPlan
  3
AecArchBase50|Product Desc: Autodesk Architectural Desktop 2007 |Company: Autodesk,Inc. |WEB Address: www.autodesk.com
 90
    32897
280
     0
281
     0
  0
CLASS
  1
AEC_DISP_REP_CURTAIN_WALL_UNIT_MODEL
  2
AecDbDispRepCurtainWallUnitModel
  3
AecArchBase50|Product Desc: Autodesk Architectural Desktop 2007 |Company: Autodesk,Inc. |WEB Address: www.autodesk.com
 90
    32897
280
     0
281
     0
  0
CLASS
  1
AEC_DISP_REP_CURTAIN_WALL_UNIT_PLAN
  2
AecDbDispRepCurtainWallUnitPlan
  3
AecArchBase50|Product Desc: Autodesk Architectural Desktop 2007 |Company: Autodesk,Inc. |WEB Address: www.autodesk.com
 90
    32897
280
     0
281
     0
  0
CLASS
  1
AEC_DB_DISP_REP_DIM_GROUP_PLAN
  2
AecDbDispRepDimGroupPlan
  3
AecArchDACHBase50|Product Desc: Autodesk Architectural Desktop 2007 |Company: Autodesk,Inc. |WEB Address: www.autodesk.com
 90
    32897
280
     0
281
     0
  0
CLASS
  1
AEC_DISP_REP_DOOR_MODEL
  2
AecDbDispRepDoorModel
  3
AecArchBase50|Product Desc: Autodesk Architectural Desktop 2007 |Company: Autodesk,Inc. |WEB Address: www.autodesk.com
 90
    32897
280
     0
281
     0
  0
CLASS
  1
AEC_DISP_REP_DOOR_NOMINAL
  2
AecDbDispRepDoorNominal
  3
AecArchBase50|Product Desc: Autodesk Architectural Desktop 2007 |Company: Autodesk,Inc. |WEB Address: www.autodesk.com
 90
    32897
280
     0
281
     0
  0
CLASS
  1
AEC_DISP_REP_DOOR_PLAN
  2
AecDbDispRepDoorPlan
  3
AecArchBase50|Product Desc: Autodesk Architectural Desktop 2007 |Company: Autodesk,Inc. |WEB Address: www.autodesk.com
 90
    32897
280
     0
281
     0
  0
CLASS
  1
AEC_DISP_REP_EDITINPLACEPROFILE
  2
AecDbDispRepEditInPlaceProfile
  3
AecBase50|Product Desc: Autodesk Architectural Desktop 2007 |Company: Autodesk,Inc. |WEB Address: www.autodesk.com
 90
    32897
280
     0
281
     0
  0
CLASS
  1
AEC_DISP_REP_ENT_REF
  2
AecDbDispRepEntRef
  3
AecBase50|Product Desc: Autodesk Architectural Desktop 2007 |Company: Autodesk,Inc. |WEB Address: www.autodesk.com
 90
    32897
280
     0
281
     0
  0
CLASS
  1
AEC_DISP_REP_LAYOUT_CURVE
  2
AecDbDispRepLayoutCurve
  3
AecBase50|Product Desc: Autodesk Architectural Desktop 2007 |Company: Autodesk,Inc. |WEB Address: www.autodesk.com
 90
    32897
280
     0
281
     0
  0
CLASS
  1
AEC_DISP_REP_LAYOUT_GRID2D
  2
AecDbDispRepLayoutGrid2d
  3
AecBase50|Product Desc: Autodesk Architectural Desktop 2007 |Company: Autodesk,Inc. |WEB Address: www.autodesk.com
 90
    32897
280
     0
281
     0
  0
CLASS
  1
AEC_DISP_REP_LAYOUT_GRID3D
  2
AecDbDispRepLayoutGrid3d
  3
AecBase50|Product Desc: Autodesk Architectural Desktop 2007 |Company: Autodesk,Inc. |WEB Address: www.autodesk.com
 90
    32897
280
     0
281
     0
  0
CLASS
  1
AEC_DISP_REP_MASKBLOCK_REF
  2
AecDbDispRepMaskBlockRef
  3
AecBase50|Product Desc: Autodesk Architectural Desktop 2007 |Company: Autodesk,Inc. |WEB Address: www.autodesk.com
 90
    32897
280
     0
281
     0
  0
CLASS
  1
AEC_DISP_REP_MASKBLOCK_REF_RCP
  2
AecDbDispRepMaskBlockRefRcp
  3
AecArchBase50|Product Desc: Autodesk Architectural Desktop 2007 |Company: Autodesk,Inc. |WEB Address: www.autodesk.com
 90
    32897
280
     0
281
     0
  0
CLASS
  1
AEC_DISP_REP_MASS_ELEM_MODEL
  2
AecDbDispRepMassElemModel
  3
AecBaseEx50|Product Desc: Autodesk Architectural Desktop 2007 |Company: Autodesk,Inc. |WEB Address: www.autodesk.com
 90
    32897
280
     0
281
     0
  0
CLASS
  1
AEC_DISP_REP_MASS_ELEM_SCHEM
  2
AecDbDispRepMassElemSchem
  3
AecBaseEx50|Product Desc: Autodesk Architectural Desktop 2007 |Company: Autodesk,Inc. |WEB Address: www.autodesk.com
 90
    32897
280
     0
281
     0
  0
CLASS
  1
AEC_DISP_REP_MASS_GROUP_MODEL
  2
AecDbDispRepMassGroupModel
  3
AecBaseEx50|Product Desc: Autodesk Architectural Desktop 2007 |Company: Autodesk,Inc. |WEB Address: www.autodesk.com
 90
    32897
280
     0
281
     0
  0
CLASS
  1
AEC_DISP_REP_MASS_GROUP_PLAN
  2
AecDbDispRepMassGroupPlan
  3
AecBaseEx50|Product Desc: Autodesk Architectural Desktop 2007 |Company: Autodesk,Inc. |WEB Address: www.autodesk.com
 90
    32897
280
     0
281
     0
  0
CLASS
  1
AEC_DISP_REP_MATERIAL
  2
AecDbDispRepMaterial
  3
AecBase50|Product Desc: Autodesk Architectural Desktop 2007 |Company: Autodesk,Inc. |WEB Address: www.autodesk.com
 90
    32897
280
     0
281
     0
  0
CLASS
  1
AEC_DISP_REP_MVBLOCK_REF
  2
AecDbDispRepMvBlockRef
  3
AecBase50|Product Desc: Autodesk Architectural Desktop 2007 |Company: Autodesk,Inc. |WEB Address: www.autodesk.com
 90
    32897
280
     0
281
     0
  0
CLASS
  1
AEC_DISP_REP_MVBLOCK_REF_MODEL
  2
AecDbDispRepMvBlockRefModel
  3
AecBase50|Product Desc: Autodesk Architectural Desktop 2007 |Company: Autodesk,Inc. |WEB Address: www.autodesk.com
 90
    32897
280
     0
281
     0
  0
CLASS
  1
AEC_DISP_REP_OPENING
  2
AecDbDispRepOpening
  3
AecArchBase50|Product Desc: Autodesk Architectural Desktop 2007 |Company: Autodesk,Inc. |WEB Address: www.autodesk.com
 90
    32897
280
     0
281
     0
  0
CLASS
  1
AEC_DISP_REP_OPENING_MODEL
  2
AecDbDispRepOpeningModel
  3
AecArchBase50|Product Desc: Autodesk Architectural Desktop 2007 |Company: Autodesk,Inc. |WEB Address: www.autodesk.com
 90
    32897
280
     0
281
     0
  0
CLASS
  1
AEC_DISP_REP_POLYGON_MODEL
  2
AecDbDispRepPolygonModel
  3
AecBase50|Product Desc: Autodesk Architectural Desktop 2007 |Company: Autodesk,Inc. |WEB Address: www.autodesk.com
 90
    32897
280
     0
281
     0
  0
CLASS
  1
AEC_DISP_REP_RAILING_MODEL
  2
AecDbDispRepRailingModel
  3
AecArchBase50|Product Desc: Autodesk Architectural Desktop 2007 |Company: Autodesk,Inc. |WEB Address: www.autodesk.com
 90
    32897
280
     0
281
     0
  0
CLASS
  1
AEC_DISP_REP_RAILING_PLAN
  2
AecDbDispRepRailingPlan
  3
AecArchBase50|Product Desc: Autodesk Architectural Desktop 2007 |Company: Autodesk,Inc. |WEB Address: www.autodesk.com
 90
    32897
280
     0
281
     0
  0
CLASS
  1
AEC_DISP_REP_ROOF_MODEL
  2
AecDbDispRepRoofModel
  3
AecArchBase50|Product Desc: Autodesk Architectural Desktop 2007 |Company: Autodesk,Inc. |WEB Address: www.autodesk.com
 90
    32897
280
     0
281
     0
  0
CLASS
  1
AEC_DISP_REP_ROOF_PLAN
  2
AecDbDispRepRoofPlan
  3
AecArchBase50|Product Desc: Autodesk Architectural Desktop 2007 |Company: Autodesk,Inc. |WEB Address: www.autodesk.com
 90
    32897
280
     0
281
     0
  0
CLASS
  1
AEC_DISP_REP_ROOFSLAB_MODEL
  2
AecDbDispRepRoofSlabModel
  3
AecArchBase50|Product Desc: Autodesk Architectural Desktop 2007 |Company: Autodesk,Inc. |WEB Address: www.autodesk.com
 90
    32897
280
     0
281
     0
  0
CLASS
  1
AEC_DISP_REP_ROOFSLAB_PLAN
  2
AecDbDispRepRoofSlabPlan
  3
AecArchBase50|Product Desc: Autodesk Architectural Desktop 2007 |Company: Autodesk,Inc. |WEB Address: www.autodesk.com
 90
    32897
280
     0
281
     0
  0
CLASS
  1
AEC_DISP_REP_SCHEDULE_TABLE
  2
AecDbDispRepScheduleTable
  3
AecSchedule50|Product Desc: Autodesk Architectural Desktop 2007 |Company: Autodesk,Inc. |WEB Address: www.autodesk.com
 90
    32897
280
     0
281
     0
  0
CLASS
  1
AEC_DISP_REP_SLAB_MODEL
  2
AecDbDispRepSlabModel
  3
AecArchBase50|Product Desc: Autodesk Architectural Desktop 2007 |Company: Autodesk,Inc. |WEB Address: www.autodesk.com
 90
    32897
280
     0
281
     0
  0
CLASS
  1
AEC_DISP_REP_SLAB_PLAN
  2
AecDbDispRepSlabPlan
  3
AecArchBase50|Product Desc: Autodesk Architectural Desktop 2007 |Company: Autodesk,Inc. |WEB Address: www.autodesk.com
 90
    32897
280
     0
281
     0
  0
CLASS
  1
AEC_DISP_REP_SLICE
  2
AecDbDispRepSlice
  3
AecBase50|Product Desc: Autodesk Architectural Desktop 2007 |Company: Autodesk,Inc. |WEB Address: www.autodesk.com
 90
    32897
280
     0
281
     0
  0
CLASS
  1
AEC_DISP_REP_SPACE_BOUNDARY_MODEL
  2
AecDbDispRepSpaceBoundaryModel
  3
AecArchBase50|Product Desc: Autodesk Architectural Desktop 2007 |Company: Autodesk,Inc. |WEB Address: www.autodesk.com
 90
    32897
280
     0
281
     0
  0
CLASS
  1
AEC_DISP_REP_SPACE_BOUNDARY_PLAN
  2
AecDbDispRepSpaceBoundaryPlan
  3
AecArchBase50|Product Desc: Autodesk Architectural Desktop 2007 |Company: Autodesk,Inc. |WEB Address: www.autodesk.com
 90
    32897
280
     0
281
     0
  0
CLASS
  1
AEC_DISP_REP_SPACE_BOUNDARY_SCHEM
  2
AecDbDispRepSpaceBoundarySketch
  3
AecArchBase50|Product Desc: Autodesk Architectural Desktop 2007 |Company: Autodesk,Inc. |WEB Address: www.autodesk.com
 90
    32897
280
     0
281
     0
  0
CLASS
  1
AEC_DISP_REP_SPACE_MODEL
  2
AecDbDispRepSpaceModel
  3
AecArchBase50|Product Desc: Autodesk Architectural Desktop 2007 |Company: Autodesk,Inc. |WEB Address: www.autodesk.com
 90
    32897
280
     0
281
     0
  0
CLASS
  1
AEC_DISP_REP_SPACE_PLAN
  2
AecDbDispRepSpacePlan
  3
AecArchBase50|Product Desc: Autodesk Architectural Desktop 2007 |Company: Autodesk,Inc. |WEB Address: www.autodesk.com
 90
    32897
280
     0
281
     0
  0
CLASS
  1
AEC_DISP_REP_STAIR_MODEL
  2
AecDbDispRepStairModel
  3
AecArchBase50|Product Desc: Autodesk Architectural Desktop 2007 |Company: Autodesk,Inc. |WEB Address: www.autodesk.com
 90
    32897
280
     0
281
     0
  0
CLASS
  1
AEC_DISP_REP_STAIR_PLAN
  2
AecDbDispRepStairPlan
  3
AecArchBase50|Product Desc: Autodesk Architectural Desktop 2007 |Company: Autodesk,Inc. |WEB Address: www.autodesk.com
 90
    32897
280
     0
281
     0
  0
CLASS
  1
AEC_DISP_REP_WALL_GRAPH
  2
AecDbDispRepWallGraph
  3
AecArchBase50|Product Desc: Autodesk Architectural Desktop 2007 |Company: Autodesk,Inc. |WEB Address: www.autodesk.com
 90
    32897
280
     0
281
     0
  0
CLASS
  1
AEC_DISP_REP_WALL_MODEL
  2
AecDbDispRepWallModel
  3
AecArchBase50|Product Desc: Autodesk Architectural Desktop 2007 |Company: Autodesk,Inc. |WEB Address: www.autodesk.com
 90
    32897
280
     0
281
     0
  0
CLASS
  1
AEC_DISP_REP_WALL_PLAN
  2
AecDbDispRepWallPlan
  3
AecArchBase50|Product Desc: Autodesk Architectural Desktop 2007 |Company: Autodesk,Inc. |WEB Address: www.autodesk.com
 90
    32897
280
     0
281
     0
  0
CLASS
  1
AEC_DISP_REP_WALL_SCHEM
  2
AecDbDispRepWallSchem
  3
AecArchBase50|Product Desc: Autodesk Architectural Desktop 2007 |Company: Autodesk,Inc. |WEB Address: www.autodesk.com
 90
    32897
280
     0
281
     0
  0
CLASS
  1
AEC_DISP_REP_WINDOW_ASSEMBLY_MODEL
  2
AecDbDispRepWindowAssemblyModel
  3
AecArchBase50|Product Desc: Autodesk Architectural Desktop 2007 |Company: Autodesk,Inc. |WEB Address: www.autodesk.com
 90
    32897
280
     0
281
     0
  0
CLASS
  1
AEC_DISP_REP_WINDOW_ASSEMBLY_PLAN
  2
AecDbDispRepWindowAssemblyPlan
  3
AecArchBase50|Product Desc: Autodesk Architectural Desktop 2007 |Company: Autodesk,Inc. |WEB Address: www.autodesk.com
 90
    32897
280
     0
281
     0
  0
CLASS
  1
AEC_AECDBDISPREPWINDOWASSEMBLYPLAN100
  2
AecDbDispRepWindowAssemblyPlan100
  3
AecArchDACHBase50|Product Desc: Autodesk Architectural Desktop 2007 |Company: Autodesk,Inc. |WEB Address: www.autodesk.com
 90
    32897
280
     0
281
     0
  0
CLASS
  1
AEC_DISP_REP_WINDOW_MODEL
  2
AecDbDispRepWindowModel
  3
AecArchBase50|Product Desc: Autodesk Architectural Desktop 2007 |Company: Autodesk,Inc. |WEB Address: www.autodesk.com
 90
    32897
280
     0
281
     0
  0
CLASS
  1
AEC_DISP_REP_WINDOW_NOMINAL
  2
AecDbDispRepWindowNominal
  3
AecArchBase50|Product Desc: Autodesk Architectural Desktop 2007 |Company: Autodesk,Inc. |WEB Address: www.autodesk.com
 90
    32897
280
     0
281
     0
  0
CLASS
  1
AEC_DISP_REP_WINDOW_PLAN
  2
AecDbDispRepWindowPlan
  3
AecArchBase50|Product Desc: Autodesk Architectural Desktop 2007 |Company: Autodesk,Inc. |WEB Address: www.autodesk.com
 90
    32897
280
     0
281
     0
  0
CLASS
  1
AECS_DISP_REP_MEMBER_LOGICAL
  2
AecsDbDispRepMemberLogical
  3
AecStructureBase50|Product Desc: Autodesk Architectural Desktop 2007 |Company: Autodesk,Inc. |WEB Address: www.autodesk.com
 90
    32897
280
     0
281
     0
  0
CLASS
  1
AECS_DISP_REP_MEMBER_MODEL_DESIGN
  2
AecsDbDispRepMemberModelDesign
  3
AecStructureBase50|Product Desc: Autodesk Architectural Desktop 2007 |Company: Autodesk,Inc. |WEB Address: www.autodesk.com
 90
    32897
280
     0
281
     0
  0
CLASS
  1
AECS_DISP_REP_MEMBER_PLAN_DESIGN
  2
AecsDbDispRepMemberPlanDesign
  3
AecStructureBase50|Product Desc: Autodesk Architectural Desktop 2007 |Company: Autodesk,Inc. |WEB Address: www.autodesk.com
 90
    32897
280
     0
281
     0
  0
CLASS
  1
AEC_DISP_PROPS_ENT
  2
AecDbDispPropsEnt
  3
AecBase50|Product Desc: Autodesk Architectural Desktop 2007 |Company: Autodesk,Inc. |WEB Address: www.autodesk.com
 90
    32897
280
     0
281
     0
  0
CLASS
  1
AEC_DISP_PROPS_CLIP_VOLUME
  2
AecDbDispPropsClipVol
  3
AecBase50|Product Desc: Autodesk Architectural Desktop 2007 |Company: Autodesk,Inc. |WEB Address: www.autodesk.com
 90
    32897
280
     0
281
     0
  0
CLASS
  1
AEC_DISP_PROPS_SLICE
  2
AecDbDispPropsSlice
  3
AecBase50|Product Desc: Autodesk Architectural Desktop 2007 |Company: Autodesk,Inc. |WEB Address: www.autodesk.com
 90
    32897
280
     0
281
     0
  0
CLASS
  1
AEC_DISP_PROPS_ROOFSLAB_PLAN
  2
AecDbDispPropsRoofSlabPlan
  3
AecArchBase50|Product Desc: Autodesk Architectural Desktop 2007 |Company: Autodesk,Inc. |WEB Address: www.autodesk.com
 90
    32897
280
     0
281
     0
  0
CLASS
  1
AEC_DISP_PROPS_GRID_ASSEMBLY_MODEL
  2
AecDbDispPropsGridAssemblyModel
  3
AecArchBase50|Product Desc: Autodesk Architectural Desktop 2007 |Company: Autodesk,Inc. |WEB Address: www.autodesk.com
 90
    32897
280
     0
281
     0
  0
CLASS
  1
AEC_DISP_PROPS_ROOF
  2
AecDbDispPropsRoof
  3
AecArchBase50|Product Desc: Autodesk Architectural Desktop 2007 |Company: Autodesk,Inc. |WEB Address: www.autodesk.com
 90
    32897
280
     0
281
     0
  0
CLASS
  1
AEC_DISP_PROPS_SPACE_MODEL
  2
AecDbDispPropsSpaceModel
  3
AecArchBase50|Product Desc: Autodesk Architectural Desktop 2007 |Company: Autodesk,Inc. |WEB Address: www.autodesk.com
 90
    32897
280
     0
281
     0
  0
CLASS
  1
AEC_DISP_PROPS_EDITINPLACEPROFILE_MODEL
  2
AecDbDispPropsEditInPlaceProfile
  3
AecBase50|Product Desc: Autodesk Architectural Desktop 2007 |Company: Autodesk,Inc. |WEB Address: www.autodesk.com
 90
    32897
280
     0
281
     0
  0
CLASS
  1
AEC_DISP_PROPS_DOOR
  2
AecDbDispPropsDoor
  3
AecArchBase50|Product Desc: Autodesk Architectural Desktop 2007 |Company: Autodesk,Inc. |WEB Address: www.autodesk.com
 90
    32897
280
     0
281
     0
  0
CLASS
  1
AEC_DISP_PROPS_MASKBLOCK
  2
AecDbDispPropsMaskBlock
  3
AecBase50|Product Desc: Autodesk Architectural Desktop 2007 |Company: Autodesk,Inc. |WEB Address: www.autodesk.com
 90
    32897
280
     0
281
     0
  0
CLASS
  1
AEC_DISP_PROPS_SPACE_PLAN
  2
AecDbDispPropsSpacePlan
  3
AecArchBase50|Product Desc: Autodesk Architectural Desktop 2007 |Company: Autodesk,Inc. |WEB Address: www.autodesk.com
 90
    32897
280
     0
281
     0
  0
CLASS
  1
AEC_DISP_PROPS_RAILING_PLAN
  2
AecDbDispPropsRailingPlan
  3
AecArchBase50|Product Desc: Autodesk Architectural Desktop 2007 |Company: Autodesk,Inc. |WEB Address: www.autodesk.com
 90
    32897
280
     0
281
     0
  0
CLASS
  1
AEC_DISP_PROPS_LAYOUT_GRID2D
  2
AecDbDispPropsLayoutGrid2d
  3
AecBase50|Product Desc: Autodesk Architectural Desktop 2007 |Company: Autodesk,Inc. |WEB Address: www.autodesk.com
 90
    32897
280
     0
281
     0
  0
CLASS
  1
AEC_DISP_PROPS_CLIP_VOLUME_RESULT
  2
AecDbDispPropsClipVolResSubDiv
  3
AecBase50|Product Desc: Autodesk Architectural Desktop 2007 |Company: Autodesk,Inc. |WEB Address: www.autodesk.com
 90
    32897
280
     0
281
     0
  0
CLASS
  1
AEC_DISP_PROPS_STAIR_MODEL
  2
AecDbDispPropsStairModel
  3
AecArchBase50|Product Desc: Autodesk Architectural Desktop 2007 |Company: Autodesk,Inc. |WEB Address: www.autodesk.com
 90
    32897
280
     0
281
     0
  0
CLASS
  1
AEC_DISP_PROPS_LAYOUT_CURVE
  2
AecDbDispPropsLayoutCurve
  3
AecBase50|Product Desc: Autodesk Architectural Desktop 2007 |Company: Autodesk,Inc. |WEB Address: www.autodesk.com
 90
    32897
280
     0
281
     0
  0
CLASS
  1
AEC_DISP_PROPS_POLYGON_MODEL
  2
AecDbDispPropsPolygonModel
  3
AecBase50|Product Desc: Autodesk Architectural Desktop 2007 |Company: Autodesk,Inc. |WEB Address: www.autodesk.com
 90
    32897
280
     0
281
     0
  0
CLASS
  1
AEC_DISP_PROPS_MASS_GROUP
  2
AecDbDispPropsMassGroup
  3
AecBaseEx50|Product Desc: Autodesk Architectural Desktop 2007 |Company: Autodesk,Inc. |WEB Address: www.autodesk.com
 90
    32897
280
     0
281
     0
  0
CLASS
  1
AEC_DISP_PROPS_STAIR_PLAN
  2
AecDbDispPropsStairPlan
  3
AecArchBase50|Product Desc: Autodesk Architectural Desktop 2007 |Company: Autodesk,Inc. |WEB Address: www.autodesk.com
 90
    32897
280
     0
281
     0
  0
CLASS
  1
AEC_DISP_PROPS_OPENING
  2
AecDbDispPropsOpening
  3
AecArchBase50|Product Desc: Autodesk Architectural Desktop 2007 |Company: Autodesk,Inc. |WEB Address: www.autodesk.com
 90
    32897
280
     0
281
     0
  0
CLASS
  1
AEC_DISP_PROPS_WALL_GRAPH
  2
AecDbDispPropsWallGraph
  3
AecArchBase50|Product Desc: Autodesk Architectural Desktop 2007 |Company: Autodesk,Inc. |WEB Address: www.autodesk.com
 90
    32897
280
     0
281
     0
  0
CLASS
  1
AEC_DISP_PROPS_DOOR_NOMINAL
  2
AecDbDispPropsDoorNominal
  3
AecArchBase50|Product Desc: Autodesk Architectural Desktop 2007 |Company: Autodesk,Inc. |WEB Address: www.autodesk.com
 90
    32897
280
     0
281
     0
  0
CLASS
  1
AEC_DISP_PROPS_SLAB
  2
AecDbDispPropsSlab
  3
AecArchBase50|Product Desc: Autodesk Architectural Desktop 2007 |Company: Autodesk,Inc. |WEB Address: www.autodesk.com
 90
    32897
280
     0
281
     0
  0
CLASS
  1
AEC_DISP_PROPS_WALL_MODEL
  2
AecDbDispPropsWallModel
  3
AecArchBase50|Product Desc: Autodesk Architectural Desktop 2007 |Company: Autodesk,Inc. |WEB Address: www.autodesk.com
 90
    32897
280
     0
281
     0
  0
CLASS
  1
AEC_DISP_PROPS_MATERIAL
  2
AecDbDispPropsMaterial
  3
AecBase50|Product Desc: Autodesk Architectural Desktop 2007 |Company: Autodesk,Inc. |WEB Address: www.autodesk.com
 90
    32897
280
     0
281
     0
  0
CLASS
  1
AEC_DISP_PROPS_WINDOW
  2
AecDbDispPropsWindow
  3
AecArchBase50|Product Desc: Autodesk Architectural Desktop 2007 |Company: Autodesk,Inc. |WEB Address: www.autodesk.com
 90
    32897
280
     0
281
     0
  0
CLASS
  1
AEC_DISP_PROPS_LAYOUT_GRID3D
  2
AecDbDispPropsLayoutGrid3d
  3
AecBase50|Product Desc: Autodesk Architectural Desktop 2007 |Company: Autodesk,Inc. |WEB Address: www.autodesk.com
 90
    32897
280
     0
281
     0
  0
CLASS
  1
AEC_DISP_PROPS_GRID_ASSEMBLY_PLAN
  2
AecDbDispPropsGridAssemblyPlan
  3
AecArchBase50|Product Desc: Autodesk Architectural Desktop 2007 |Company: Autodesk,Inc. |WEB Address: www.autodesk.com
 90
    32897
280
     0
281
     0
  0
CLASS
  1
AEC_DISP_PROPS_WALL_SCHEM
  2
AecDbDispPropsWallSchem
  3
AecArchBase50|Product Desc: Autodesk Architectural Desktop 2007 |Company: Autodesk,Inc. |WEB Address: www.autodesk.com
 90
    32897
280
     0
281
     0
  0
CLASS
  1
AEC_DISP_PROPS_WALL_PLAN
  2
AecDbDispPropsWallPlan
  3
AecArchBase50|Product Desc: Autodesk Architectural Desktop 2007 |Company: Autodesk,Inc. |WEB Address: www.autodesk.com
 90
    32897
280
     0
281
     0
  0
CLASS
  1
AEC_DISP_PROPS_SPACE_BOUNDARY
  2
AecDbDispPropsSpaceBoundary
  3
AecArchBase50|Product Desc: Autodesk Architectural Desktop 2007 |Company: Autodesk,Inc. |WEB Address: www.autodesk.com
 90
    32897
280
     0
281
     0
  0
CLASS
  1
AEC_DISP_PROPS_SLAB_PLAN
  2
AecDbDispPropsSlabPlan
  3
AecArchBase50|Product Desc: Autodesk Architectural Desktop 2007 |Company: Autodesk,Inc. |WEB Address: www.autodesk.com
 90
    32897
280
     0
281
     0
  0
CLASS
  1
AEC_DISP_PROPS_RAILING_MODEL
  2
AecDbDispPropsRailingModel
  3
AecArchBase50|Product Desc: Autodesk Architectural Desktop 2007 |Company: Autodesk,Inc. |WEB Address: www.autodesk.com
 90
    32897
280
     0
281
     0
  0
CLASS
  1
AEC_DISP_PROPS_MASS_ELEM_MODEL
  2
AecDbDispPropsMassElem
  3
AecBaseEx50|Product Desc: Autodesk Architectural Desktop 2007 |Company: Autodesk,Inc. |WEB Address: www.autodesk.com
 90
    32897
280
     0
281
     0
  0
CLASS
  1
AEC_DISP_PROPS_DIM
  2
AecDbDispPropsDimGroup
  3
AecArchDACHBase50|Product Desc: Autodesk Architectural Desktop 2007 |Company: Autodesk,Inc. |WEB Address: www.autodesk.com
 90
    32897
280
     0
281
     0
  0
CLASS
  1
AEC_DISP_PROPS_ROOFSLAB
  2
AecDbDispPropsRoofSlab
  3
AecArchBase50|Product Desc: Autodesk Architectural Desktop 2007 |Company: Autodesk,Inc. |WEB Address: www.autodesk.com
 90
    32897
280
     0
281
     0
  0
CLASS
  1
AEC_DISP_PROPS_ENT_REF
  2
AecDbDispPropsEntRef
  3
AecBase50|Product Desc: Autodesk Architectural Desktop 2007 |Company: Autodesk,Inc. |WEB Address: www.autodesk.com
 90
    32897
280
     0
281
     0
  0
CLASS
  1
AEC_DISP_PROPS_2D_SECTION
  2
AecDbDispProps2dSection
  3
AecBase50|Product Desc: Autodesk Architectural Desktop 2007 |Company: Autodesk,Inc. |WEB Address: www.autodesk.com
 90
    32897
280
     0
281
     0
  0
CLASS
  1
AECS_DISP_PROPS_MEMBER_LOGICAL
  2
AecsDbDispPropsMemberLogical
  3
AecStructureBase50|Product Desc: Autodesk Architectural Desktop 2007 |Company: Autodesk,Inc. |WEB Address: www.autodesk.com
 90
    32897
280
     0
281
     0
  0
CLASS
  1
AEC_DISP_PROPS_AREA_DECOMPOSED
  2
AecDbDispPropsAreaDecomposed
  3
AecAreaCalculationBase50|Product Desc: Autodesk Architectural Desktop 2007 |Company: Autodesk,Inc. |WEB Address: www.autodesk.com
 90
    32897
280
     0
281
     0
  0
CLASS
  1
AEC_DISP_PROPS_CAMERA
  2
AecDbDispPropsCamera
  3
AecBase50|Product Desc: Autodesk Architectural Desktop 2007 |Company: Autodesk,Inc. |WEB Address: www.autodesk.com
 90
    32897
280
     0
281
     0
  0
CLASS
  1
AECS_DISP_PROPS_MEMBER
  2
AecsDbDispPropsMember
  3
AecStructureBase50|Product Desc: Autodesk Architectural Desktop 2007 |Company: Autodesk,Inc. |WEB Address: www.autodesk.com
 90
    32897
280
     0
281
     0
  0
CLASS
  1
AECS_DISP_PROPS_MEMBER_PLAN
  2
AecsDbDispPropsMemberPlan
  3
AecStructureBase50|Product Desc: Autodesk Architectural Desktop 2007 |Company: Autodesk,Inc. |WEB Address: www.autodesk.com
 90
    32897
280
     0
281
     0
  0
CLASS
  1
AEC_DISP_PROPS_AREAGROUP
  2
AecDbDispPropsAreaGroup
  3
AecAreaCalculationBase50|Product Desc: Autodesk Architectural Desktop 2007 |Company: Autodesk,Inc. |WEB Address: www.autodesk.com
 90
    32897
280
     0
281
     0
  0
CLASS
  1
AEC_DISP_PROPS_WINDOW_NOMINAL
  2
AecDbDispPropsWindowNominal
  3
AecArchBase50|Product Desc: Autodesk Architectural Desktop 2007 |Company: Autodesk,Inc. |WEB Address: www.autodesk.com
 90
    32897
280
     0
281
     0
  0
CLASS
  1
AEC_DISP_PROPS_AREA
  2
AecDbDispPropsArea
  3
AecAreaCalculationBase50|Product Desc: Autodesk Architectural Desktop 2007 |Company: Autodesk,Inc. |WEB Address: www.autodesk.com
 90
    32897
280
     0
281
     0
  0
CLASS
  1
AEC_DISP_PROPS_SCHEDULE_TABLE
  2
AecDbDispPropsScheduleTable
  3
AecSchedule50|Product Desc: Autodesk Architectural Desktop 2007 |Company: Autodesk,Inc. |WEB Address: www.autodesk.com
 90
    32897
280
     0
281
     0
  0
CLASS
  1
AEC_LAYERKEY_STYLE
  2
AecDbLayerKeyStyle
  3
AecBase50|Product Desc: Autodesk Architectural Desktop 2007 |Company: Autodesk,Inc. |WEB Address: www.autodesk.com
 90
    32897
280
     0
281
     0
  0
CLASS
  1
AEC_VARS_ARCHBASE
  2
AecDbVarsArchBase
  3
AecArchBase50|Product Desc: Autodesk Architectural Desktop 2007 |Company: Autodesk,Inc. |WEB Address: www.autodesk.com
 90
    32897
280
     0
281
     0
  0
CLASS
  1
AEC_VARS_MUNICH
  2
AecDbVarsMunich
  3
AecArchDACHBase50|Product Desc: Autodesk Architectural Desktop 2007 |Company: Autodesk,Inc. |WEB Address: www.autodesk.com
 90
    32897
280
     0
281
     0
  0
CLASS
  1
AEC_NOTIFICATION_TRACKER
  2
AecDbNotificationTracker
  3
AecBase50|Product Desc: Autodesk Architectural Desktop 2007 |Company: Autodesk,Inc. |WEB Address: www.autodesk.com
 90
    32897
280
     0
281
     0
  0
CLASS
  1
AEC_DISP_REP_ANCHOR
  2
AecDbDispRepAnchor
  3
AecBase50|Product Desc: Autodesk Architectural Desktop 2007 |Company: Autodesk,Inc. |WEB Address: www.autodesk.com
 90
    32897
280
     0
281
     0
  0
CLASS
  1
AEC_DISP_REP_POLYGON_TRUECOLOUR
  2
AecDbDispRepPolygonTrueColour
  3
AecBase50|Product Desc: Autodesk Architectural Desktop 2007 |Company: Autodesk,Inc. |WEB Address: www.autodesk.com
 90
    32897
280
     0
281
     0
  0
CLASS
  1
AEC_DISP_PROPS_POLYGON_TRUECOLOUR
  2
AecDbDispPropsPolygonTrueColour
  3
AecBase50|Product Desc: Autodesk Architectural Desktop 2007 |Company: Autodesk,Inc. |WEB Address: www.autodesk.com
 90
    32897
280
     0
281
     0
  0
CLASS
  1
AEC_DISP_REP_BDG_ELEVLINE_RCP
  2
AecDbDispRepBdgElevLineRcp
  3
AecArchBase50|Product Desc: Autodesk Architectural Desktop 2007 |Company: Autodesk,Inc. |WEB Address: www.autodesk.com
 90
    32897
280
     0
281
     0
  0
CLASS
  1
AEC_DISP_REP_BDG_SECTIONLINE_RCP
  2
AecDbDispRepBdgSectionLineRcp
  3
AecArchBase50|Product Desc: Autodesk Architectural Desktop 2007 |Company: Autodesk,Inc. |WEB Address: www.autodesk.com
 90
    32897
280
     0
281
     0
  0
CLASS
  1
AEC_DISP_REP_BDG_SECTION_MODEL
  2
AecDbDispRepBdgSectionModel
  3
AecArchBase50|Product Desc: Autodesk Architectural Desktop 2007 |Company: Autodesk,Inc. |WEB Address: www.autodesk.com
 90
    32897
280
     0
281
     0
  0
CLASS
  1
AEC_DISP_REP_DOOR_ELEV
  2
AecDbDispRepDoorElev
  3
AecArchBase50|Product Desc: Autodesk Architectural Desktop 2007 |Company: Autodesk,Inc. |WEB Address: www.autodesk.com
 90
    32897
280
     0
281
     0
  0
CLASS
  1
AEC_DISP_REP_DOOR_RCP
  2
AecDbDispRepDoorRcp
  3
AecArchBase50|Product Desc: Autodesk Architectural Desktop 2007 |Company: Autodesk,Inc. |WEB Address: www.autodesk.com
 90
    32897
280
     0
281
     0
  0
CLASS
  1
AEC_DISP_REP_DOOR_THRESHOLD_PLAN
  2
AecDbDispRepDoorThresholdPlan
  3
AecArchBase50|Product Desc: Autodesk Architectural Desktop 2007 |Company: Autodesk,Inc. |WEB Address: www.autodesk.com
 90
    32897
280
     0
281
     0
  0
CLASS
  1
AEC_DISP_PROPS_DOOR_THRESHOLD_PLAN
  2
AecDbDispPropsDoorThresholdPlan
  3
AecArchBase50|Product Desc: Autodesk Architectural Desktop 2007 |Company: Autodesk,Inc. |WEB Address: www.autodesk.com
 90
    32897
280
     0
281
     0
  0
CLASS
  1
AEC_DISP_REP_MASS_ELEM_RCP
  2
AecDbDispRepMassElemRcp
  3
AecArchBase50|Product Desc: Autodesk Architectural Desktop 2007 |Company: Autodesk,Inc. |WEB Address: www.autodesk.com
 90
    32897
280
     0
281
     0
  0
CLASS
  1
AEC_DISP_REP_MASS_GROUP_RCP
  2
AecDbDispRepMassGroupRcp
  3
AecArchBase50|Product Desc: Autodesk Architectural Desktop 2007 |Company: Autodesk,Inc. |WEB Address: www.autodesk.com
 90
    32897
280
     0
281
     0
  0
CLASS
  1
AEC_DISP_REP_MVBLOCK_REF_RCP
  2
AecDbDispRepMvBlockRefRcp
  3
AecArchBase50|Product Desc: Autodesk Architectural Desktop 2007 |Company: Autodesk,Inc. |WEB Address: www.autodesk.com
 90
    32897
280
     0
281
     0
  0
CLASS
  1
AEC_DISP_REP_ROOF_RCP
  2
AecDbDispRepRoofRcp
  3
AecArchBase50|Product Desc: Autodesk Architectural Desktop 2007 |Company: Autodesk,Inc. |WEB Address: www.autodesk.com
 90
    32897
280
     0
281
     0
  0
CLASS
  1
AEC_DISP_REP_SPACE_BOUNDARY_DIAGRAM
  2
AecDbDispRepSpaceBoundaryDgrm
  3
AecArchBase50|Product Desc: Autodesk Architectural Desktop 2007 |Company: Autodesk,Inc. |WEB Address: www.autodesk.com
 90
    32897
280
     0
281
     0
  0
CLASS
  1
AEC_DISP_REP_SPACE_RCP
  2
AecDbDispRepSpaceRcp
  3
AecArchBase50|Product Desc: Autodesk Architectural Desktop 2007 |Company: Autodesk,Inc. |WEB Address: www.autodesk.com
 90
    32897
280
     0
281
     0
  0
CLASS
  1
AEC_DISP_REP_SPACE_VOLUME
  2
AecDbDispRepSpaceVolume
  3
AecArchBase50|Product Desc: Autodesk Architectural Desktop 2007 |Company: Autodesk,Inc. |WEB Address: www.autodesk.com
 90
    32897
280
     0
281
     0
  0
CLASS
  1
AEC_DISP_REP_STAIR_PLAN_OVERLAPPING
  2
AecDbDispRepStairPlanOverlapping
  3
AecArchBase50|Product Desc: Autodesk Architectural Desktop 2007 |Company: Autodesk,Inc. |WEB Address: www.autodesk.com
 90
    32897
280
     0
281
     0
  0
CLASS
  1
AEC_DISP_PROPS_STAIR_PLAN_OVERLAPPING
  2
AecDbDispPropsStairPlanOverlapping
  3
AecArchBase50|Product Desc: Autodesk Architectural Desktop 2007 |Company: Autodesk,Inc. |WEB Address: www.autodesk.com
 90
    32897
280
     0
281
     0
  0
CLASS
  1
AEC_DISP_REP_STAIR_RCP
  2
AecDbDispRepStairRcp
  3
AecArchBase50|Product Desc: Autodesk Architectural Desktop 2007 |Company: Autodesk,Inc. |WEB Address: www.autodesk.com
 90
    32897
280
     0
281
     0
  0
CLASS
  1
AEC_DISP_REP_WALL_RCP
  2
AecDbDispRepWallRcp
  3
AecArchBase50|Product Desc: Autodesk Architectural Desktop 2007 |Company: Autodesk,Inc. |WEB Address: www.autodesk.com
 90
    32897
280
     0
281
     0
  0
CLASS
  1
AEC_DISP_REP_WINDOWASSEMBLY_SILL_PLAN
  2
AecDbDispRepWindowAssemblySillPlan
  3
AecArchBase50|Product Desc: Autodesk Architectural Desktop 2007 |Company: Autodesk,Inc. |WEB Address: www.autodesk.com
 90
    32897
280
     0
281
     0
  0
CLASS
  1
AEC_DISP_PROPS_WINDOW_ASSEMBLY_SILL_PLAN
  2
AecDbDispPropsWindowAssemblySillPlan
  3
AecArchBase50|Product Desc: Autodesk Architectural Desktop 2007 |Company: Autodesk,Inc. |WEB Address: www.autodesk.com
 90
    32897
280
     0
281
     0
  0
CLASS
  1
AEC_DISP_REP_WINDOW_ELEV
  2
AecDbDispRepWindowElev
  3
AecArchBase50|Product Desc: Autodesk Architectural Desktop 2007 |Company: Autodesk,Inc. |WEB Address: www.autodesk.com
 90
    32897
280
     0
281
     0
  0
CLASS
  1
AEC_DISP_REP_WINDOW_RCP
  2
AecDbDispRepWindowRcp
  3
AecArchBase50|Product Desc: Autodesk Architectural Desktop 2007 |Company: Autodesk,Inc. |WEB Address: www.autodesk.com
 90
    32897
280
     0
281
     0
  0
CLASS
  1
AEC_DISP_REP_WINDOW_SILL_PLAN
  2
AecDbDispRepWindowSillPlan
  3
AecArchBase50|Product Desc: Autodesk Architectural Desktop 2007 |Company: Autodesk,Inc. |WEB Address: www.autodesk.com
 90
    32897
280
     0
281
     0
  0
CLASS
  1
AEC_DISP_PROPS_WINDOW_SILL_PLAN
  2
AecDbDispPropsWindowSillPlan
  3
AecArchBase50|Product Desc: Autodesk Architectural Desktop 2007 |Company: Autodesk,Inc. |WEB Address: www.autodesk.com
 90
    32897
280
     0
281
     0
  0
CLASS
  1
AEC_DISP_REP_ANCHOR_BUB_TO_GRID_RCP
  2
AecDbDispRepAnchorBubToGridRcp
  3
AecStructureBase50|Product Desc: Autodesk Architectural Desktop 2007 |Company: Autodesk,Inc. |WEB Address: www.autodesk.com
 90
    32897
280
     0
281
     0
  0
CLASS
  1
AEC_DISP_REP_COLUMN_GRID_RCP
  2
AecDbDispRepColumnGridRcp
  3
AecStructureBase50|Product Desc: Autodesk Architectural Desktop 2007 |Company: Autodesk,Inc. |WEB Address: www.autodesk.com
 90
    32897
280
     0
281
     0
  0
CLASS
  1
AECS_DISP_REP_MEMBER_ELEVATION_DESIGN
  2
AecsDbDispRepMemberElevationDesign
  3
AecStructureBase50|Product Desc: Autodesk Architectural Desktop 2007 |Company: Autodesk,Inc. |WEB Address: www.autodesk.com
 90
    32897
280
     0
281
     0
  0
CLASS
  1
AECS_DISP_PROPS_MEMBER_PROJECTED
  2
AecsDbDispPropsMemberProjected
  3
AecStructureBase50|Product Desc: Autodesk Architectural Desktop 2007 |Company: Autodesk,Inc. |WEB Address: www.autodesk.com
 90
    32897
280
     0
281
     0
  0
CLASS
  1
AECS_DISP_REP_MEMBER_ELEVATION_DETAIL
  2
AecsDbDispRepMemberElevationDetail
  3
AecStructureBase50|Product Desc: Autodesk Architectural Desktop 2007 |Company: Autodesk,Inc. |WEB Address: www.autodesk.com
 90
    32897
280
     0
281
     0
  0
CLASS
  1
AECS_DISP_REP_MEMBER_MODEL_DETAIL
  2
AecsDbDispRepMemberModelDetail
  3
AecStructureBase50|Product Desc: Autodesk Architectural Desktop 2007 |Company: Autodesk,Inc. |WEB Address: www.autodesk.com
 90
    32897
280
     0
281
     0
  0
CLASS
  1
AECS_DISP_REP_MEMBER_PLAN_DETAIL
  2
AecsDbDispRepMemberPlanDetail
  3
AecStructureBase50|Product Desc: Autodesk Architectural Desktop 2007 |Company: Autodesk,Inc. |WEB Address: www.autodesk.com
 90
    32897
280
     0
281
     0
  0
CLASS
  1
AECS_DISP_REP_MEMBER_PLAN_SKETCH
  2
AecsDbDispRepMemberPlanSketch
  3
AecStructureBase50|Product Desc: Autodesk Architectural Desktop 2007 |Company: Autodesk,Inc. |WEB Address: www.autodesk.com
 90
    32897
280
     0
281
     0
  0
CLASS
  1
AECS_DISP_PROPS_MEMBER_PLAN_SKETCH
  2
AecsDbDispPropsMemberPlanSketch
  3
AecStructureBase50|Product Desc: Autodesk Architectural Desktop 2007 |Company: Autodesk,Inc. |WEB Address: www.autodesk.com
 90
    32897
280
     0
281
     0
  0
CLASS
  1
AEC_AECDBDISPREPAREA100
  2
AecDbDispRepArea100
  3
AecArchDACHBase50|Product Desc: Autodesk Architectural Desktop 2007 |Company: Autodesk,Inc. |WEB Address: www.autodesk.com
 90
    32897
280
     0
281
     0
  0
CLASS
  1
AEC_AECDBDISPREPAREAGROUP100
  2
AecDbDispRepAreaGroup100
  3
AecArchDACHBase50|Product Desc: Autodesk Architectural Desktop 2007 |Company: Autodesk,Inc. |WEB Address: www.autodesk.com
 90
    32897
280
     0
281
     0
  0
CLASS
  1
AEC_AECDBDISPREPBDGELEVLINEPLAN100
  2
AecDbDispRepBdgElevLinePlan100
  3
AecArchDACHBase50|Product Desc: Autodesk Architectural Desktop 2007 |Company: Autodesk,Inc. |WEB Address: www.autodesk.com
 90
    32897
280
     0
281
     0
  0
CLASS
  1
AEC_AECDBDISPREPBDGSECTIONLINEPLAN100
  2
AecDbDispRepBdgSectionLinePlan100
  3
AecArchDACHBase50|Product Desc: Autodesk Architectural Desktop 2007 |Company: Autodesk,Inc. |WEB Address: www.autodesk.com
 90
    32897
280
     0
281
     0
  0
CLASS
  1
AEC_AECDBDISPREPCEILINGGRIDPLAN100
  2
AecDbDispRepCeilingGridPlan100
  3
AecArchDACHBase50|Product Desc: Autodesk Architectural Desktop 2007 |Company: Autodesk,Inc. |WEB Address: www.autodesk.com
 90
    32897
280
     0
281
     0
  0
CLASS
  1
AEC_AECDBDISPREPCOLUMNGRIDPLAN100
  2
AecDbDispRepColumnGridPlan100
  3
AecArchDACHBase50|Product Desc: Autodesk Architectural Desktop 2007 |Company: Autodesk,Inc. |WEB Address: www.autodesk.com
 90
    32897
280
     0
281
     0
  0
CLASS
  1
AEC_AECDBDISPREPCURTAINWALLLAYOUTPLAN100
  2
AecDbDispRepCurtainWallLayoutPlan100
  3
AecArchDACHBase50|Product Desc: Autodesk Architectural Desktop 2007 |Company: Autodesk,Inc. |WEB Address: www.autodesk.com
 90
    32897
280
     0
281
     0
  0
CLASS
  1
AEC_AECDBDISPREPCURTAINWALLUNITPLAN100
  2
AecDbDispRepCurtainWallUnitPlan100
  3
AecArchDACHBase50|Product Desc: Autodesk Architectural Desktop 2007 |Company: Autodesk,Inc. |WEB Address: www.autodesk.com
 90
    32897
280
     0
281
     0
  0
CLASS
  1
AEC_AECDBDISPREPMVBLOCKREFPLAN100
  2
AecDbDispRepMvBlockRefPlan100
  3
AecArchDACHBase50|Product Desc: Autodesk Architectural Desktop 2007 |Company: Autodesk,Inc. |WEB Address: www.autodesk.com
 90
    32897
280
     0
281
     0
  0
CLASS
  1
AEC_AECDBDISPREPROOFPLAN100
  2
AecDbDispRepRoofPlan100
  3
AecArchDACHBase50|Product Desc: Autodesk Architectural Desktop 2007 |Company: Autodesk,Inc. |WEB Address: www.autodesk.com
 90
    32897
280
     0
281
     0
  0
CLASS
  1
AEC_AECDBDISPREPROOFSLABPLAN100
  2
AecDbDispRepRoofSlabPlan100
  3
AecArchDACHBase50|Product Desc: Autodesk Architectural Desktop 2007 |Company: Autodesk,Inc. |WEB Address: www.autodesk.com
 90
    32897
280
     0
281
     0
  0
CLASS
  1
AEC_AECDBDISPREPSLABPLAN100
  2
AecDbDispRepSlabPlan100
  3
AecArchDACHBase50|Product Desc: Autodesk Architectural Desktop 2007 |Company: Autodesk,Inc. |WEB Address: www.autodesk.com
 90
    32897
280
     0
281
     0
  0
CLASS
  1
AEC_AECDBDISPREPSPACEBOUNDARYPLAN100
  2
AecDbDispRepSpaceBoundaryPlan100
  3
AecArchDACHBase50|Product Desc: Autodesk Architectural Desktop 2007 |Company: Autodesk,Inc. |WEB Address: www.autodesk.com
 90
    32897
280
     0
281
     0
  0
CLASS
  1
AEC_AECDBDISPREPSPACEPLAN100
  2
AecDbDispRepSpacePlan100
  3
AecArchDACHBase50|Product Desc: Autodesk Architectural Desktop 2007 |Company: Autodesk,Inc. |WEB Address: www.autodesk.com
 90
    32897
280
     0
281
     0
  0
CLASS
  1
AEC_AECDBDISPREPWALLPLAN100
  2
AecDbDispRepWallPlan100
  3
AecArchDACHBase50|Product Desc: Autodesk Architectural Desktop 2007 |Company: Autodesk,Inc. |WEB Address: www.autodesk.com
 90
    32897
280
     0
281
     0
  0
CLASS
  1
AEC_AECDBDISPREPAREA50
  2
AecDbDispRepArea50
  3
AecArchDACHBase50|Product Desc: Autodesk Architectural Desktop 2007 |Company: Autodesk,Inc. |WEB Address: www.autodesk.com
 90
    32897
280
     0
281
     0
  0
CLASS
  1
AEC_AECDBDISPREPAREAGROUP50
  2
AecDbDispRepAreaGroup50
  3
AecArchDACHBase50|Product Desc: Autodesk Architectural Desktop 2007 |Company: Autodesk,Inc. |WEB Address: www.autodesk.com
 90
    32897
280
     0
281
     0
  0
CLASS
  1
AEC_AECDBDISPREPBDGELEVLINEPLAN50
  2
AecDbDispRepBdgElevLinePlan50
  3
AecArchDACHBase50|Product Desc: Autodesk Architectural Desktop 2007 |Company: Autodesk,Inc. |WEB Address: www.autodesk.com
 90
    32897
280
     0
281
     0
  0
CLASS
  1
AEC_AECDBDISPREPBDGSECTIONLINEPLAN50
  2
AecDbDispRepBdgSectionLinePlan50
  3
AecArchDACHBase50|Product Desc: Autodesk Architectural Desktop 2007 |Company: Autodesk,Inc. |WEB Address: www.autodesk.com
 90
    32897
280
     0
281
     0
  0
CLASS
  1
AEC_AECDBDISPREPCEILINGGRIDPLAN50
  2
AecDbDispRepCeilingGridPlan50
  3
AecArchDACHBase50|Product Desc: Autodesk Architectural Desktop 2007 |Company: Autodesk,Inc. |WEB Address: www.autodesk.com
 90
    32897
280
     0
281
     0
  0
CLASS
  1
AEC_AECDBDISPREPCOLUMNGRIDPLAN50
  2
AecDbDispRepColumnGridPlan50
  3
AecArchDACHBase50|Product Desc: Autodesk Architectural Desktop 2007 |Company: Autodesk,Inc. |WEB Address: www.autodesk.com
 90
    32897
280
     0
281
     0
  0
CLASS
  1
AEC_AECDBDISPREPCURTAINWALLLAYOUTPLAN50
  2
AecDbDispRepCurtainWallLayoutPlan50
  3
AecArchDACHBase50|Product Desc: Autodesk Architectural Desktop 2007 |Company: Autodesk,Inc. |WEB Address: www.autodesk.com
 90
    32897
280
     0
281
     0
  0
CLASS
  1
AEC_AECDBDISPREPCURTAINWALLUNITPLAN50
  2
AecDbDispRepCurtainWallUnitPlan50
  3
AecArchDACHBase50|Product Desc: Autodesk Architectural Desktop 2007 |Company: Autodesk,Inc. |WEB Address: www.autodesk.com
 90
    32897
280
     0
281
     0
  0
CLASS
  1
AEC_AECDBDISPREPMVBLOCKREFPLAN50
  2
AecDbDispRepMvBlockRefPlan50
  3
AecArchDACHBase50|Product Desc: Autodesk Architectural Desktop 2007 |Company: Autodesk,Inc. |WEB Address: www.autodesk.com
 90
    32897
280
     0
281
     0
  0
CLASS
  1
AEC_AECDBDISPREPROOFPLAN50
  2
AecDbDispRepRoofPlan50
  3
AecArchDACHBase50|Product Desc: Autodesk Architectural Desktop 2007 |Company: Autodesk,Inc. |WEB Address: www.autodesk.com
 90
    32897
280
     0
281
     0
  0
CLASS
  1
AEC_AECDBDISPREPROOFSLABPLAN50
  2
AecDbDispRepRoofSlabPlan50
  3
AecArchDACHBase50|Product Desc: Autodesk Architectural Desktop 2007 |Company: Autodesk,Inc. |WEB Address: www.autodesk.com
 90
    32897
280
     0
281
     0
  0
CLASS
  1
AEC_AECDBDISPREPSLABPLAN50
  2
AecDbDispRepSlabPlan50
  3
AecArchDACHBase50|Product Desc: Autodesk Architectural Desktop 2007 |Company: Autodesk,Inc. |WEB Address: www.autodesk.com
 90
    32897
280
     0
281
     0
  0
CLASS
  1
AEC_AECDBDISPREPSPACEBOUNDARYPLAN50
  2
AecDbDispRepSpaceBoundaryPlan50
  3
AecArchDACHBase50|Product Desc: Autodesk Architectural Desktop 2007 |Company: Autodesk,Inc. |WEB Address: www.autodesk.com
 90
    32897
280
     0
281
     0
  0
CLASS
  1
AEC_AECDBDISPREPSPACEPLAN50
  2
AecDbDispRepSpacePlan50
  3
AecArchDACHBase50|Product Desc: Autodesk Architectural Desktop 2007 |Company: Autodesk,Inc. |WEB Address: www.autodesk.com
 90
    32897
280
     0
281
     0
  0
CLASS
  1
AEC_AECDBDISPREPWALLPLAN50
  2
AecDbDispRepWallPlan50
  3
AecArchDACHBase50|Product Desc: Autodesk Architectural Desktop 2007 |Company: Autodesk,Inc. |WEB Address: www.autodesk.com
 90
    32897
280
     0
281
     0
  0
CLASS
  1
AEC_AECDBDISPREPWINDOWASSEMBLYPLAN50
  2
AecDbDispRepWindowAssemblyPlan50
  3
AecArchDACHBase50|Product Desc: Autodesk Architectural Desktop 2007 |Company: Autodesk,Inc. |WEB Address: www.autodesk.com
 90
    32897
280
     0
281
     0
  0
CLASS
  1
AEC_DB_DISP_REP_DIM_GROUP_PLAN100
  2
AecDbDispRepDimGroupPlan100
  3
AecArchDACHBase50|Product Desc: Autodesk Architectural Desktop 2007 |Company: Autodesk,Inc. |WEB Address: www.autodesk.com
 90
    32897
280
     0
281
     0
  0
CLASS
  1
AEC_DB_DISP_REP_DIM_GROUP_PLAN50
  2
AecDbDispRepDimGroupPlan50
  3
AecArchDACHBase50|Product Desc: Autodesk Architectural Desktop 2007 |Company: Autodesk,Inc. |WEB Address: www.autodesk.com
 90
    32897
280
     0
281
     0
  0
CLASS
  1
AEC_DISP_REP_DOOR_PLAN_50
  2
AecDbDispRepDoorPlan50
  3
AecArchDACHBase50|Product Desc: Autodesk Architectural Desktop 2007 |Company: Autodesk,Inc. |WEB Address: www.autodesk.com
 90
    32897
280
     0
281
     0
  0
CLASS
  1
AEC_DISP_PROPS_DOOR_PLAN_50
  2
AecDbDispPropsDoorPlan50
  3
AecArchDACHBase50|Product Desc: Autodesk Architectural Desktop 2007 |Company: Autodesk,Inc. |WEB Address: www.autodesk.com
 90
    32897
280
     0
281
     0
  0
CLASS
  1
AEC_DISP_REP_DOOR_PLAN_HEKTO
  2
AecDbDispRepDoorPlanHekto
  3
AecArchDACHBase50|Product Desc: Autodesk Architectural Desktop 2007 |Company: Autodesk,Inc. |WEB Address: www.autodesk.com
 90
    32897
280
     0
281
     0
  0
CLASS
  1
AEC_DISP_PROPS_DOOR_PLAN_100
  2
AecDbDispPropsDoorPlan100
  3
AecArchDACHBase50|Product Desc: Autodesk Architectural Desktop 2007 |Company: Autodesk,Inc. |WEB Address: www.autodesk.com
 90
    32897
280
     0
281
     0
  0
CLASS
  1
AEC_DISP_REP_DOOR_THRESHOLD_SYMBOL_PLAN
  2
AecDbDispRepDoorThresholdSymbolPlan
  3
AecArchDACHBase50|Product Desc: Autodesk Architectural Desktop 2007 |Company: Autodesk,Inc. |WEB Address: www.autodesk.com
 90
    32897
280
     0
281
     0
  0
CLASS
  1
AEC_DISP_PROPS_DOOR_THRESHOLD_SYMBOL_PLAN
  2
AecDbDispPropsDoorThresholdSymbolPlan
  3
AecArchDACHBase50|Product Desc: Autodesk Architectural Desktop 2007 |Company: Autodesk,Inc. |WEB Address: www.autodesk.com
 90
    32897
280
     0
281
     0
  0
CLASS
  1
AEC_DISPREPAECDBDISPREPMASSELEMPLAN100
  2
AecDbDispRepMassElemPlan100
  3
AecArchDACHBase50|Product Desc: Autodesk Architectural Desktop 2007 |Company: Autodesk,Inc. |WEB Address: www.autodesk.com
 90
    32897
280
     0
281
     0
  0
CLASS
  1
AEC_DISPROPSMASSELEMPLANCOMMON
  2
AecDbDispPropsMassElemPlanCommon
  3
AecArchDACHBase50|Product Desc: Autodesk Architectural Desktop 2007 |Company: Autodesk,Inc. |WEB Address: www.autodesk.com
 90
    32897
280
     0
281
     0
  0
CLASS
  1
AEC_DISPREPAECDBDISPREPMASSELEMPLAN50
  2
AecDbDispRepMassElemPlan50
  3
AecArchDACHBase50|Product Desc: Autodesk Architectural Desktop 2007 |Company: Autodesk,Inc. |WEB Address: www.autodesk.com
 90
    32897
280
     0
281
     0
  0
CLASS
  1
AEC_DISPREPAECDBDISPREPMASSGROUPPLAN100
  2
AecDbDispRepMassGroupPlan100
  3
AecArchDACHBase50|Product Desc: Autodesk Architectural Desktop 2007 |Company: Autodesk,Inc. |WEB Address: www.autodesk.com
 90
    32897
280
     0
281
     0
  0
CLASS
  1
AEC_DISPROPSMASSGROUPPLANCOMMON
  2
AecDbDispPropsMassGroupPlanCommon
  3
AecArchDACHBase50|Product Desc: Autodesk Architectural Desktop 2007 |Company: Autodesk,Inc. |WEB Address: www.autodesk.com
 90
    32897
280
     0
281
     0
  0
CLASS
  1
AEC_DISPREPAECDBDISPREPMASSGROUPPLAN50
  2
AecDbDispRepMassGroupPlan50
  3
AecArchDACHBase50|Product Desc: Autodesk Architectural Desktop 2007 |Company: Autodesk,Inc. |WEB Address: www.autodesk.com
 90
    32897
280
     0
281
     0
  0
CLASS
  1
AEC_DISPREPAECDBDISPREPOPENINGPLAN100
  2
AecDbDispRepOpeningPlan100
  3
AecArchDACHBase50|Product Desc: Autodesk Architectural Desktop 2007 |Company: Autodesk,Inc. |WEB Address: www.autodesk.com
 90
    32897
280
     0
281
     0
  0
CLASS
  1
AEC_DISPROPSOPENINGPLANCOMMONHATCHED
  2
AecDbDispPropsOpeningPlanCommonHatched
  3
AecArchDACHBase50|Product Desc: Autodesk Architectural Desktop 2007 |Company: Autodesk,Inc. |WEB Address: www.autodesk.com
 90
    32897
280
     0
281
     0
  0
CLASS
  1
AEC_DISPREPAECDBDISPREPOPENINGPLAN50
  2
AecDbDispRepOpeningPlan50
  3
AecArchDACHBase50|Product Desc: Autodesk Architectural Desktop 2007 |Company: Autodesk,Inc. |WEB Address: www.autodesk.com
 90
    32897
280
     0
281
     0
  0
CLASS
  1
AEC_DISPREPAECDBDISPREPOPENINGPLANREFLECTED
  2
AecDbDispRepOpeningPlanReflected
  3
AecArchDACHBase50|Product Desc: Autodesk Architectural Desktop 2007 |Company: Autodesk,Inc. |WEB Address: www.autodesk.com
 90
    32897
280
     0
281
     0
  0
CLASS
  1
AEC_DISPROPSOPENINGPLANCOMMON
  2
AecDbDispPropsOpeningPlanCommon
  3
AecArchDACHBase50|Product Desc: Autodesk Architectural Desktop 2007 |Company: Autodesk,Inc. |WEB Address: www.autodesk.com
 90
    32897
280
     0
281
     0
  0
CLASS
  1
AEC_DISPREPAECDBDISPREPOPENINGSILLPLAN
  2
AecDbDispRepOpeningSillPlan
  3
AecArchDACHBase50|Product Desc: Autodesk Architectural Desktop 2007 |Company: Autodesk,Inc. |WEB Address: www.autodesk.com
 90
    32897
280
     0
281
     0
  0
CLASS
  1
AEC_DISPROPSOPENINGSILLPLAN
  2
AecDbDispPropsOpeningSillPlan
  3
AecArchDACHBase50|Product Desc: Autodesk Architectural Desktop 2007 |Company: Autodesk,Inc. |WEB Address: www.autodesk.com
 90
    32897
280
     0
281
     0
  0
CLASS
  1
AEC_DISP_REP_RAILING_PLAN_100
  2
AecDbDispRepRailingPlan100
  3
AecArchDACHBase50|Product Desc: Autodesk Architectural Desktop 2007 |Company: Autodesk,Inc. |WEB Address: www.autodesk.com
 90
    32897
280
     0
281
     0
  0
CLASS
  1
AEC_DISP_ROPS_RAILING_PLAN_100
  2
AecDbDispPropsRailingPlan100
  3
AecArchDACHBase50|Product Desc: Autodesk Architectural Desktop 2007 |Company: Autodesk,Inc. |WEB Address: www.autodesk.com
 90
    32897
280
     0
281
     0
  0
CLASS
  1
AEC_DISP_REP_RAILING_PLAN_50
  2
AecDbDispRepRailingPlan50
  3
AecArchDACHBase50|Product Desc: Autodesk Architectural Desktop 2007 |Company: Autodesk,Inc. |WEB Address: www.autodesk.com
 90
    32897
280
     0
281
     0
  0
CLASS
  1
AEC_DISP_ROPS_RAILING_PLAN_50
  2
AecDbDispPropsRailingPlan50
  3
AecArchDACHBase50|Product Desc: Autodesk Architectural Desktop 2007 |Company: Autodesk,Inc. |WEB Address: www.autodesk.com
 90
    32897
280
     0
281
     0
  0
CLASS
  1
AEC_DISP_REP_STAIR_PLAN_100
  2
AecDbDispRepStairPlan100
  3
AecArchDACHBase50|Product Desc: Autodesk Architectural Desktop 2007 |Company: Autodesk,Inc. |WEB Address: www.autodesk.com
 90
    32897
280
     0
281
     0
  0
CLASS
  1
AEC_DISP_ROPS_STAIR_PLAN_100
  2
AecDbDispPropsStairPlan100
  3
AecArchDACHBase50|Product Desc: Autodesk Architectural Desktop 2007 |Company: Autodesk,Inc. |WEB Address: www.autodesk.com
 90
    32897
280
     0
281
     0
  0
CLASS
  1
AEC_DISP_REP_STAIR_PLAN_50
  2
AecDbDispRepStairPlan50
  3
AecArchDACHBase50|Product Desc: Autodesk Architectural Desktop 2007 |Company: Autodesk,Inc. |WEB Address: www.autodesk.com
 90
    32897
280
     0
281
     0
  0
CLASS
  1
AEC_DISP_ROPS_STAIR_PLAN_50
  2
AecDbDispPropsStairPlan50
  3
AecArchDACHBase50|Product Desc: Autodesk Architectural Desktop 2007 |Company: Autodesk,Inc. |WEB Address: www.autodesk.com
 90
    32897
280
     0
281
     0
  0
CLASS
  1
AEC_DISP_REP_WINDOW_PLAN_100
  2
AecDbDispRepWindowPlan100
  3
AecArchDACHBase50|Product Desc: Autodesk Architectural Desktop 2007 |Company: Autodesk,Inc. |WEB Address: www.autodesk.com
 90
    32897
280
     0
281
     0
  0
CLASS
  1
AEC_DISP_PROPS_WINDOW_PLAN_100
  2
AecDbDispPropsWindowPlan100
  3
AecArchDACHBase50|Product Desc: Autodesk Architectural Desktop 2007 |Company: Autodesk,Inc. |WEB Address: www.autodesk.com
 90
    32897
280
     0
281
     0
  0
CLASS
  1
AEC_DISP_REP_WINDOW_PLAN_50
  2
AecDbDispRepWindowPlan50
  3
AecArchDACHBase50|Product Desc: Autodesk Architectural Desktop 2007 |Company: Autodesk,Inc. |WEB Address: www.autodesk.com
 90
    32897
280
     0
281
     0
  0
CLASS
  1
AEC_DISP_PROPS_WINDOW_PLAN_50
  2
AecDbDispPropsWindowPlan50
  3
AecArchDACHBase50|Product Desc: Autodesk Architectural Desktop 2007 |Company: Autodesk,Inc. |WEB Address: www.autodesk.com
 90
    32897
280
     0
281
     0
  0
CLASS
  1
BINRECORD
  2
AcAecBinRecord
  3
AecBase50|Product Desc: Autodesk Architectural Desktop 2007 |Company: Autodesk,Inc. |WEB Address: www.autodesk.com
 90
    32897
280
     0
281
     0
  0
CLASS
  1
SORTENTSTABLE
  2
AcDbSortentsTable
  3
ObjectDBX Classes
 90
        0
280
     0
281
     0
  0
CLASS
  1
AEC_MASS_ELEM
  2
AecDbMassElem
  3
AecBaseEx50|Product Desc: Autodesk Architectural Desktop 2007 |Company: Autodesk,Inc. |WEB Address: www.autodesk.com
 90
    33661
280
     0
281
     1
  0
CLASS
  1
MATERIAL
  2
AcDbMaterial
  3
ObjectDBX Classes
 90
     1153
280
     0
281
     0
  0
CLASS
  1
AECS_MEMBER
  2
AecsDbMember
  3
AecStructureBase50|Product Desc: Autodesk Architectural Desktop 2007 |Company: Autodesk,Inc. |WEB Address: www.autodesk.com
 90
    33661
280
     0
281
     1
  0
CLASS
  1
AEC_WALL
  2
AecDbWall
  3
AecArchBase50|Product Desc: Autodesk Architectural Desktop 2007 |Company: Autodesk,Inc. |WEB Address: www.autodesk.com
 90
    33661
280
     0
281
     1
  0
CLASS
  1
AEC_DOOR
  2
AecDbDoor
  3
AecArchBase50|Product Desc: Autodesk Architectural Desktop 2007 |Company: Autodesk,Inc. |WEB Address: www.autodesk.com
 90
    33661
280
     0
281
     1
  0
CLASS
  1
AEC_ANCHOR_OPENINGBASE_TO_WALL
  2
AecDbAnchorOpeningBaseToWall
  3
AecArchBase50|Product Desc: Autodesk Architectural Desktop 2007 |Company: Autodesk,Inc. |WEB Address: www.autodesk.com
 90
    32897
280
     0
281
     0
  0
CLASS
  1
AEC_SPACE_BOUNDARY
  2
AecDbSpaceBoundary
  3
AecArchBase50|Product Desc: Autodesk Architectural Desktop 2007 |Company: Autodesk,Inc. |WEB Address: www.autodesk.com
 90
    33661
280
     0
281
     1
  0
CLASS
  1
AEC_SPACE
  2
AecDbSpace
  3
AecArchBase50|Product Desc: Autodesk Architectural Desktop 2007 |Company: Autodesk,Inc. |WEB Address: www.autodesk.com
 90
    33661
280
     0
281
     1
  0
CLASS
  1
AecDbPropertySet
  2
AecDbPropertySet
  3
AecScheduleData50|Product Desc: Autodesk Architectural Desktop 2007 |Company: Autodesk,Inc. |WEB Address: www.autodesk.com
 90
    32897
280
     0
281
     0
  0
CLASS
  1
AEC_MVBLOCK_REF
  2
AecDbMvBlockRef
  3
AecBase50|Product Desc: Autodesk Architectural Desktop 2007 |Company: Autodesk,Inc. |WEB Address: www.autodesk.com
 90
    33661
280
     0
281
     1
  0
CLASS
  1
AEC_ANCHOR_TAG_TO_ENT
  2
AecDbAnchorTagToEnt
  3
AecScheduleData50|Product Desc: Autodesk Architectural Desktop 2007 |Company: Autodesk,Inc. |WEB Address: www.autodesk.com
 90
    32897
280
     0
281
     0
  0
CLASS
  1
AEC_WINDOW
  2
AecDbWindow
  3
AecArchBase50|Product Desc: Autodesk Architectural Desktop 2007 |Company: Autodesk,Inc. |WEB Address: www.autodesk.com
 90
    33661
280
     0
281
     1
  0
CLASS
  1
AEC_OPENING
  2
AecDbOpening
  3
AecArchBase50|Product Desc: Autodesk Architectural Desktop 2007 |Company: Autodesk,Inc. |WEB Address: www.autodesk.com
 90
    33661
280
     0
281
     1
  0
CLASS
  1
AEC_CLASSIFICATION_SYSTEM_DEF
  2
AecDbClassificationSystemDef
  3
AecBase50|Product Desc: Autodesk Architectural Desktop 2007 |Company: Autodesk,Inc. |WEB Address: www.autodesk.com
 90
    32897
280
     0
281
     0
  0
CLASS
  1
AEC_CLASSIFICATION_DEF
  2
AecDbClassificationDef
  3
AecBase50|Product Desc: Autodesk Architectural Desktop 2007 |Company: Autodesk,Inc. |WEB Address: www.autodesk.com
 90
    32897
280
     0
281
     0
  0
CLASS
  1
AEC_CLEANUP_GROUP_DEF
  2
AecDbCleanupGroupDef
  3
AecArchBase50|Product Desc: Autodesk Architectural Desktop 2007 |Company: Autodesk,Inc. |WEB Address: www.autodesk.com
 90
    32897
280
     0
281
     0
  0
CLASS
  1
AEC_DOOR_STYLE
  2
AecDbDoorStyle
  3
AecArchBase50|Product Desc: Autodesk Architectural Desktop 2007 |Company: Autodesk,Inc. |WEB Address: www.autodesk.com
 90
    32897
280
     0
281
     0
  0
CLASS
  1
AEC_STDSIZE_OPENINGS
  2
AecDbStdSizeOpeningList
  3
AecArchBase50|Product Desc: Autodesk Architectural Desktop 2007 |Company: Autodesk,Inc. |WEB Address: www.autodesk.com
 90
    32897
280
     0
281
     0
  0
CLASS
  1
AEC_ENDCAP_STYLE
  2
AecDbEndcapStyle
  3
AecArchBase50|Product Desc: Autodesk Architectural Desktop 2007 |Company: Autodesk,Inc. |WEB Address: www.autodesk.com
 90
    32897
280
     0
281
     0
  0
CLASS
  1
AEC_MASS_ELEM_STYLE
  2
AecDbMassElemStyle
  3
AecBaseEx50|Product Desc: Autodesk Architectural Desktop 2007 |Company: Autodesk,Inc. |WEB Address: www.autodesk.com
 90
    32897
280
     0
281
     0
  0
CLASS
  1
AEC_MATERIAL_DEF
  2
AecDbMaterialDef
  3
AecBase50|Product Desc: Autodesk Architectural Desktop 2007 |Company: Autodesk,Inc. |WEB Address: www.autodesk.com
 90
    32897
280
     0
281
     0
  0
CLASS
  1
AEC_MVBLOCK_DEF
  2
AecDbMvBlockDef
  3
AecBase50|Product Desc: Autodesk Architectural Desktop 2007 |Company: Autodesk,Inc. |WEB Address: www.autodesk.com
 90
    32897
280
     0
281
     0
  0
CLASS
  1
AEC_FRAME_DEF
  2
AecDbOpeningEndcapStyle
  3
AecArchBase50|Product Desc: Autodesk Architectural Desktop 2007 |Company: Autodesk,Inc. |WEB Address: www.autodesk.com
 90
    32897
280
     0
281
     0
  0
CLASS
  1
AEC_PROFILE_DEF
  2
AecDbProfileDef
  3
AecBase50|Product Desc: Autodesk Architectural Desktop 2007 |Company: Autodesk,Inc. |WEB Address: www.autodesk.com
 90
    32897
280
     0
281
     0
  0
CLASS
  1
AEC_SCHEDULE_DATA_FORMAT
  2
AecDbScheduleDataFormat
  3
AecScheduleData50|Product Desc: Autodesk Architectural Desktop 2007 |Company: Autodesk,Inc. |WEB Address: www.autodesk.com
 90
    32897
280
     0
281
     0
  0
CLASS
  1
AEC_PROPERTY_SET_DEF
  2
AecDbPropertySetDef
  3
AecScheduleData50|Product Desc: Autodesk Architectural Desktop 2007 |Company: Autodesk,Inc. |WEB Address: www.autodesk.com
 90
    32897
280
     0
281
     0
  0
CLASS
  1
AEC_SPACE_STYLES
  2
AecDbSpaceStyle
  3
AecArchBase50|Product Desc: Autodesk Architectural Desktop 2007 |Company: Autodesk,Inc. |WEB Address: www.autodesk.com
 90
    32897
280
     0
281
     0
  0
CLASS
  1
AEC_TEXT_NOTE
  2
AecDbTextNote
  3
AecBase50|Product Desc: Autodesk Architectural Desktop 2007 |Company: Autodesk,Inc. |WEB Address: www.autodesk.com
 90
    32897
280
     0
281
     0
  0
CLASS
  1
AECS_MEMBER_STYLE
  2
AecsDbMemberStyle
  3
AecStructureBase50|Product Desc: Autodesk Architectural Desktop 2007 |Company: Autodesk,Inc. |WEB Address: www.autodesk.com
 90
    32897
280
     0
281
     0
  0
CLASS
  1
AEC_VARS_STRUCTUREBASE
  2
AecsDbVarsStructureBase
  3
AecStructureBase50|Product Desc: Autodesk Architectural Desktop 2007 |Company: Autodesk,Inc. |WEB Address: www.autodesk.com
 90
    32897
280
     0
281
     0
  0
CLASS
  1
AEC_WALL_STYLE
  2
AecDbWallStyle
  3
AecArchBase50|Product Desc: Autodesk Architectural Desktop 2007 |Company: Autodesk,Inc. |WEB Address: www.autodesk.com
 90
    32897
280
     0
281
     0
  0
CLASS
  1
AEC_WINDOW_STYLE
  2
AecDbWindowStyle
  3
AecArchBase50|Product Desc: Autodesk Architectural Desktop 2007 |Company: Autodesk,Inc. |WEB Address: www.autodesk.com
 90
    32897
280
     0
281
     0
  0
CLASS
  1
AECS_MEMBER_NODE_SHAPE
  2
AecsDbMemberNodeShape
  3
AecStructureBase50|Product Desc: Autodesk Architectural Desktop 2007 |Company: Autodesk,Inc. |WEB Address: www.autodesk.com
 90
    32897
280
     0
281
     0
  0
CLASS
  1
AEC_SCHEDULE_TABLE
  2
AecDbScheduleTable
  3
AecSchedule50|Product Desc: Autodesk Architectural Desktop 2007 |Company: Autodesk,Inc. |WEB Address: www.autodesk.com
 90
    33661
280
     0
281
     1
  0
CLASS
  1
AEC_SCHEDULE_TABLE_STYLE
  2
AecDbScheduleTableStyle
  3
AecSchedule50|Product Desc: Autodesk Architectural Desktop 2007 |Company: Autodesk,Inc. |WEB Address: www.autodesk.com
 90
    32897
280
     0
281
     0
  0
CLASS
  1
AEC_ANCHOR_MVB_TO_UCS
  2
AecDbAnchorMVBToUCS
  3
AecBase50|Product Desc: Autodesk Architectural Desktop 2007 |Company: Autodesk,Inc. |WEB Address: www.autodesk.com
 90
    32897
280
     0
281
     0
  0
CLASS
  1
IMAGEDEF
  2
AcDbRasterImageDef
  3
ISM
 90
    32768
280
     0
281
     0
  0
CLASS
  1
AEC_ANCHOR_ENT_TO_GRID_ASSEMBLY
  2
AecDbAnchorEntToGridAssembly
  3
AecBase50|Product Desc: Autodesk Architectural Desktop 2007 |Company: Autodesk,Inc. |WEB Address: www.autodesk.com
 90
    32897
280
     0
281
     0
  0
CLASS
  1
AEC_WINDOW_ASSEMBLY
  2
AecDbWindowAssembly
  3
AecArchBase50|Product Desc: Autodesk Architectural Desktop 2007 |Company: Autodesk,Inc. |WEB Address: www.autodesk.com
 90
    33661
280
     0
281
     1
  0
CLASS
  1
AEC_ANCHOR_WINASSEMBLY_TO_WALL
  2
AecDbAnchorWinAssemblyToWall
  3
AecArchBase50|Product Desc: Autodesk Architectural Desktop 2007 |Company: Autodesk,Inc. |WEB Address: www.autodesk.com
 90
    32897
280
     0
281
     0
  0
CLASS
  1
AEC_STAIR
  2
AecDbStair
  3
AecArchBase50|Product Desc: Autodesk Architectural Desktop 2007 |Company: Autodesk,Inc. |WEB Address: www.autodesk.com
 90
    33661
280
     0
281
     1
  0
CLASS
  1
AEC_RAILING
  2
AecDbRailing
  3
AecArchBase50|Product Desc: Autodesk Architectural Desktop 2007 |Company: Autodesk,Inc. |WEB Address: www.autodesk.com
 90
    33661
280
     0
281
     1
  0
CLASS
  1
AEC_ANCHOR_RAILING_TO_STAIR
  2
AecDbAnchorRailingToStair
  3
AecArchBase50|Product Desc: Autodesk Architectural Desktop 2007 |Company: Autodesk,Inc. |WEB Address: www.autodesk.com
 90
    32897
280
     0
281
     0
  0
CLASS
  1
AEC_RAILING_STYLE
  2
AecDbRailingStyle
  3
AecArchBase50|Product Desc: Autodesk Architectural Desktop 2007 |Company: Autodesk,Inc. |WEB Address: www.autodesk.com
 90
    32897
280
     0
281
     0
  0
CLASS
  1
AEC_STAIR_STYLE
  2
AecDbStairStyle
  3
AecArchBase50|Product Desc: Autodesk Architectural Desktop 2007 |Company: Autodesk,Inc. |WEB Address: www.autodesk.com
 90
    32897
280
     0
281
     0
  0
CLASS
  1
AEC_STAIR_WINDER_STYLE
  2
AecDbStairWinderStyle
  3
AecArchBase50|Product Desc: Autodesk Architectural Desktop 2007 |Company: Autodesk,Inc. |WEB Address: www.autodesk.com
 90
    32897
280
     0
281
     0
  0
CLASS
  1
AEC_STAIR_WINDER_TYPE_SINGLE_POINT
  2
AecDbStairWinderTypeSinglePoint
  3
AecArchBase50|Product Desc: Autodesk Architectural Desktop 2007 |Company: Autodesk,Inc. |WEB Address: www.autodesk.com
 90
    32897
280
     0
281
     0
  0
CLASS
  1
AEC_WINDOW_ASSEMBLY_STYLE
  2
AecDbWindowAssemblyStyle
  3
AecArchBase50|Product Desc: Autodesk Architectural Desktop 2007 |Company: Autodesk,Inc. |WEB Address: www.autodesk.com
 90
    32897
280
     0
281
     0
  0
CLASS
  1
AEC_AECDBAREASTYLE
  2
AecDbAreaStyle
  3
AecAreaCalculationBase50|Product Desc: Autodesk Architectural Desktop 2007 |Company: Autodesk,Inc. |WEB Address: www.autodesk.com
 90
    32897
280
     0
281
     0
  0
CLASS
  1
AEC_AECDBAREAPROPOSALNAMES
  2
AecDbAreaProposalNames
  3
AecAreaCalculationBase50|Product Desc: Autodesk Architectural Desktop 2007 |Company: Autodesk,Inc. |WEB Address: www.autodesk.com
 90
    32897
280
     0
281
     0
  0
CLASS
  1
AEC_AREA
  2
AecDbArea
  3
AecAreaCalculationBase50|Product Desc: Autodesk Architectural Desktop 2007 |Company: Autodesk,Inc. |WEB Address: www.autodesk.com
 90
    33661
280
     0
281
     1
  0
CLASS
  1
OBJECT_PTR
  2
CAseDLPNTableRecord
  3
ASE-LPNTableRecord
 90
    32769
280
     1
281
     0
  0
CLASS
  1
TABLESTYLE
  2
AcDbTableStyle
  3
ObjectDBX Classes
 90
     4095
280
     0
281
     0
  0
CLASS
  1
AEC_DISP_REP_DISPLAYTHEME
  2
AecDbDispRepDisplayTheme
  3
AecBase50|Product Desc: Autodesk Architectural Desktop 2007 |Company: Autodesk,Inc. |WEB Address: www.autodesk.com
 90
    32897
280
     0
281
     0
  0
CLASS
  1
AEC_DISP_PROPS_DISPLAYTHEME
  2
AecDbDispPropsDisplayTheme
  3
AecBase50|Product Desc: Autodesk Architectural Desktop 2007 |Company: Autodesk,Inc. |WEB Address: www.autodesk.com
 90
    32897
280
     0
281
     0
  0
CLASS
  1
AEC_DISP_REP_ANCHOR_EXT_TAG_TO_ENT
  2
AecDbDispRepAnchorExtendedTagToEnt
  3
AecScheduleData50|Product Desc: Autodesk Architectural Desktop 2007 |Company: Autodesk,Inc. |WEB Address: www.autodesk.com
 90
    32897
280
     0
281
     0
  0
CLASS
  1
VISUALSTYLE
  2
AcDbVisualStyle
  3
ObjectDBX Classes
 90
     4095
280
     0
281
     0
  0
CLASS
  1
AEC_AECDBDISPREPZONE100
  2
AecDbDispRepZonePlan100
  3
AecArchDACHBase50|Product Desc: Autodesk Architectural Desktop 2007 |Company: Autodesk,Inc. |WEB Address: www.autodesk.com
 90
    32897
280
     0
281
     0
  0
CLASS
  1
AEC_DISP_PROPS_ZONE
  2
AecDbDispPropsZone
  3
AecArchBase50|Product Desc: Autodesk Architectural Desktop 2007 |Company: Autodesk,Inc. |WEB Address: www.autodesk.com
 90
    32897
280
     0
281
     0
  0
CLASS
  1
AEC_AECDBDISPREPZONE50
  2
AecDbDispRepZonePlan50
  3
AecArchDACHBase50|Product Desc: Autodesk Architectural Desktop 2007 |Company: Autodesk,Inc. |WEB Address: www.autodesk.com
 90
    32897
280
     0
281
     0
  0
CLASS
  1
AEC_DISP_REP_SPACE_DECOMPOSED
  2
AecDbDispRepSpaceDecomposed
  3
AecArchBase50|Product Desc: Autodesk Architectural Desktop 2007 |Company: Autodesk,Inc. |WEB Address: www.autodesk.com
 90
    32897
280
     0
281
     0
  0
CLASS
  1
AEC_DISP_PROPS_SPACE_DECOMPOSED
  2
AecDbDispPropsSpaceDecomposed
  3
AecArchBase50|Product Desc: Autodesk Architectural Desktop 2007 |Company: Autodesk,Inc. |WEB Address: www.autodesk.com
 90
    32897
280
     0
281
     0
  0
CLASS
  1
AEC_DISP_REP_ZONE
  2
AecDbDispRepZone
  3
AecArchBase50|Product Desc: Autodesk Architectural Desktop 2007 |Company: Autodesk,Inc. |WEB Address: www.autodesk.com
 90
    32897
280
     0
281
     0
  0
CLASS
  1
AEC_LIST_DEF
  2
AecDbListDefinition
  3
AecBase50|Product Desc: Autodesk Architectural Desktop 2007 |Company: Autodesk,Inc. |WEB Address: www.autodesk.com
 90
    32897
280
     0
281
     0
  0
CLASS
  1
EXACXREFPANELOBJECT
  2
ExAcXREFPanelObject
  3
EXAC_ESW
 90
    33793
280
     1
281
     0
  0
CLASS
  1
NPOCOLLECTION
  2
AcDbImpNonPersistentObjectsCollection
  3
ObjectDBX Classes
 90
    33921
280
     0
281
     0
  0
CLASS
  1
ACSH_HISTORY_CLASS
  2
AcDbShHistory
  3
ObjectDBX Classes
 90
    33921
280
     0
281
     0
  0
CLASS
  1
ACAD_EVALUATION_GRAPH
  2
AcDbEvalGraph
  3
ObjectDBX Classes
 90
    33921
280
     0
281
     0
  0
CLASS
  1
ACSH_EXTRUSION_CLASS
  2
AcDbShExtrusion
  3
ObjectDBX Classes
 90
    33921
280
     0
281
     0
  0
CLASS
  1
ACSH_BOOLEAN_CLASS
  2
AcDbShBoolean
  3
ObjectDBX Classes
 90
    33921
280
     0
281
     0
  0
CLASS
  1
ACDBPERSSUBENTMANAGER
  2
AcDbPersSubentManager
  3
AcDbPersSubentManager
 90
    33792
280
     0
281
     0
  0
CLASS
  1
SURFACE
  2
AcDbSurface
  3
ObjectDBX Classes
 90
    36863
280
     0
281
     1
  0
CLASS
  1
DIMASSOC
  2
AcDbDimAssoc
  3
"AcDbDimAssoc|Product Desc:     AcDim ARX App For Dimension|Company:          Autodesk, Inc.|WEB Address:      www.autodesk.com"
 90
        0
280
     0
281
     0
  0
CLASS
  1
AEC_SLABEDGE_STYLE
  2
AecDbSlabEdgeStyle
  3
AecArchBase50|Product Desc: Autodesk Architectural Desktop 2007 |Company: Autodesk,Inc. |WEB Address: www.autodesk.com
 90
    32897
280
     0
281
     0
  0
CLASS
  1
AEC_SLAB_STYLE
  2
AecDbSlabStyle
  3
AecArchBase50|Product Desc: Autodesk Architectural Desktop 2007 |Company: Autodesk,Inc. |WEB Address: www.autodesk.com
 90
    32897
280
     0
281
     0
  0
CLASS
  1
AEC_ROOFSLABEDGE_STYLE
  2
AecDbRoofSlabEdgeStyle
  3
AecArchBase50|Product Desc: Autodesk Architectural Desktop 2007 |Company: Autodesk,Inc. |WEB Address: www.autodesk.com
 90
    32897
280
     0
281
     0
  0
CLASS
  1
AEC_ROOFSLAB_STYLE
  2
AecDbRoofSlabStyle
  3
AecArchBase50|Product Desc: Autodesk Architectural Desktop 2007 |Company: Autodesk,Inc. |WEB Address: www.autodesk.com
 90
    32897
280
     0
281
     0
  0
CLASS
  1
AEC_LIST_DEF
  2
AecDbListItem
  3
AecBase50|Product Desc: Autodesk Architectural Desktop 2007 |Company: Autodesk,Inc. |WEB Address: www.autodesk.com
 90
    32897
280
     0
281
     0
  0
CLASS
  1
SOLID_BACKGROUND
  2
AcDbSolidBackground
  3
SCENEOE
 90
    36863
280
     0
281
     0
  0
CLASS
  1
SCALE
  2
AcDbScale
  3
ObjectDBX Classes
 90
     1153
280
     0
281
     0
  0
CLASS
  1
MLEADERSTYLE
  2
AcDbMLeaderStyle
  3
ACDB_MLEADERSTYLE_CLASS
 90
     4095
280
     0
281
     0
  0
CLASS
  1
CELLSTYLEMAP
  2
AcDbCellStyleMap
  3
ObjectDBX Classes
 90
     1152
280
     0
281
     0
  0
ENDSEC
  0
SECTION
  2
TABLES
  0
TABLE
  2
VPORT
  5
27
330
0
100
AcDbSymbolTable
 70
     1
  0
VPORT
  5
28
330
27
100
AcDbSymbolTableRecord
100
AcDbViewportTableRecord
  2
*Active
 70
     0
 10
0.0
 20
0.0
 11
1.0
 21
1.0
 12
-23986.60766452541
 22
10402.42136552695
 13
-3534.953416816247
 23
4038.000000000049
 14
1.0
 24
1.0
 15
1.0
 25
1.0
 16
0.0
 26
0.0
 36
1.0
 17
0.0
 27
0.0
 37
0.0
 40
80488.3357644587
 41
1.561333333333333
 42
50.0
 43
0.0
 44
0.0
 50
0.0
 51
0.0
 71
     0
 72
  2000
 73
     1
 74
     1
 75
     0
 76
     0
 77
     0
 78
     0
281
     0
 65
     1
110
0.0
120
0.0
130
0.0
111
1.0
121
0.0
131
0.0
112
0.0
122
1.0
132
0.0
 79
     0
146
0.0
  0
ENDTAB
  0
TABLE
  2
LTYPE
  5
22
330
0
100
AcDbSymbolTable
 70
     2
  0
LTYPE
  5
23
330
22
100
AcDbSymbolTableRecord
100
AcDbLinetypeTableRecord
  2
BYBLOCK
 70
     0
  3

 72
    65
 73
     0
 40
0.0
  0
LTYPE
  5
24
330
22
100
AcDbSymbolTableRecord
100
AcDbLinetypeTableRecord
  2
BYLAYER
 70
     0
  3

 72
    65
 73
     0
 40
0.0
  0
LTYPE
  5
C
330
22
100
AcDbSymbolTableRecord
100
AcDbLinetypeTableRecord
  2
CONTINUOUS
 70
     0
  3
Solid line
 72
    65
 73
     0
 40
0.0
  0
LTYPE
  5
BA
330
22
100
AcDbSymbolTableRecord
100
AcDbLinetypeTableRecord
  2
DASHED
 70
     0
  3
Dashed __ __ __ __ __ __ __ __ __ __ __ __ __ _
 72
    65
 73
     2
 40
0.75
 49
0.5
 74
     0
 49
-0.25
 74
     0
  0
ENDTAB
  0
TABLE
  2
LAYER
  5
1B
102
{ACAD_XDICTIONARY
360
1C
102
}
330
0
100
AcDbSymbolTable
 70
    11
  0
LAYER
  5
6
102
{ACAD_XDICTIONARY
360
526
102
}
330
1B
100
AcDbSymbolTableRecord
100
AcDbLayerTableRecord
  2
0
 70
     0
 62
     7
  6
CONTINUOUS
370
    -3
390
7
1001
RAK
1000
{ACET-LAYISO
1070
     0
1070
     7
1000
CONTINUOUS
1070
     1
1071
       -3
1071
        1
1005
7
1000
ACET-LAYISO}
  0
LAYER
  5
AD
102
{ACAD_XDICTIONARY
360
528
102
}
330
1B
100
AcDbSymbolTableRecord
100
AcDbLayerTableRecord
  2
NAPISY
 70
     0
 62
   140
  6
CONTINUOUS
370
    -3
390
7
1001
RAK
1000
{ACET-LAYISO
1070
     0
1070
   140
1000
CONTINUOUS
1071
       -3
1071
        1
1005
7
1000
ACET-LAYISO}
  0
LAYER
  5
D5
330
1B
100
AcDbSymbolTableRecord
100
AcDbLayerTableRecord
  2
Defpoints
 70
     0
 62
     7
  6
CONTINUOUS
290
     0
370
    -3
390
7
1001
RAK
1000
{ACET-LAYISO
1070
     0
1070
     7
1000
CONTINUOUS
1071
       -3
1071
        0
1005
7
1000
ACET-LAYISO}
  0
LAYER
  5
81
102
{ACAD_XDICTIONARY
360
52A
102
}
330
1B
100
AcDbSymbolTableRecord
100
AcDbLayerTableRecord
  2
0Hatch
 70
     0
 62
   122
  6
CONTINUOUS
370
     5
390
7
  0
LAYER
  5
53
102
{ACAD_XDICTIONARY
360
52C
102
}
330
1B
100
AcDbSymbolTableRecord
100
AcDbLayerTableRecord
  2
0Wymiary-PL
 70
     0
 62
     1
  6
CONTINUOUS
370
     5
390
7
  0
LAYER
  5
CD
102
{ACAD_XDICTIONARY
360
52E
102
}
330
1B
100
AcDbSymbolTableRecord
100
AcDbLayerTableRecord
  2
-wymiary
 70
     0
 62
     1
  6
CONTINUOUS
370
     5
390
7
1001
RAK
1000
{ACET-LAYISO
1070
     0
1070
     1
1000
Continuous
1070
     1
1071
        5
1071
        1
1005
7
1000
ACET-LAYISO}
  0
LAYER
  5
C7
102
{ACAD_XDICTIONARY
360
530
102
}
330
1B
100
AcDbSymbolTableRecord
100
AcDbLayerTableRecord
  2
RAMKI-A4
 70
     0
 62
     2
  6
CONTINUOUS
290
     0
370
    -3
390
7
1001
RAK
1000
{ACET-LAYISO
1070
     0
1070
     2
1000
CONTINUOUS
1071
       -3
1071
        0
1005
7
1000
ACET-LAYISO}
  0
ENDTAB
  0
TABLE
  2
STYLE
  5
1F
330
0
100
AcDbSymbolTable
 70
     5
  0
STYLE
  5
20
330
1F
100
AcDbSymbolTableRecord
100
AcDbTextStyleTableRecord
  2
STANDARD
 70
     0
 40
0.0
 41
1.0
 50
0.0
 71
     0
 42
0.2
  3
txt
  4

  0
STYLE
  5
2D
330
1F
100
AcDbSymbolTableRecord
100
AcDbTextStyleTableRecord
  2
ROMANS
 70
     0
 40
0.0
 41
0.9
 50
0.0
 71
     0
 42
5.0
  3
romans.shx
  4

  0
STYLE
  5
B0
330
1F
100
AcDbSymbolTableRecord
100
AcDbTextStyleTableRecord
  2
ARIAL
 70
     0
 40
0.0
 41
1.0
 50
0.0
 71
     0
 42
20.0
  3
ARIAL.TTF
  4

1001
ACAD
1000
Arial CE
1071
    60962
  0
STYLE
  5
B8
330
1F
100
AcDbSymbolTableRecord
100
AcDbTextStyleTableRecord
  2
AVA
 70
     0
 40
0.0
 41
1.0
 50
0.0
 71
     0
 42
15.0
  3

  4

1001
ACAD
1000
Avalon
1071
        2
  0
ENDTAB
  0
TABLE
  2
VIEW
  5
25
330
0
100
AcDbSymbolTable
 70
     1
  0
VIEW
  5
11
330
25
100
AcDbSymbolTableRecord
100
AcDbViewTableRecord
  2
10-ele
 70
     0
 40
2040.000000000001
 10
597.6361962217097
 20
4133.999999999996
 41
2803.999999999998
 11
0.0
 21
0.0
 31
1.0
 12
0.0
 22
0.0
 32
0.0
 42
50.0
 43
0.0
 44
0.0
 50
0.0
 71
     0
281
     0
 72
     1
110
0.0
120
0.0
130
0.0
111
1.0
121
0.0
131
0.0
112
0.0
122
1.0
132
0.0
 79
     0
146
0.0
  0
ENDTAB
  0
TABLE
  2
UCS
  5
26
330
0
100
AcDbSymbolTable
 70
     0
  0
ENDTAB
  0
TABLE
  2
APPID
  5
29
330
0
100
AcDbSymbolTable
 70
     5
  0
APPID
  5
2A
330
29
100
AcDbSymbolTableRecord
100
AcDbRegAppTableRecord
  2
ACAD
 70
     0
  0
APPID
  5
D
330
29
100
AcDbSymbolTableRecord
100
AcDbRegAppTableRecord
  2
RAK
 70
     0
  0
APPID
  5
14
330
29
100
AcDbSymbolTableRecord
100
AcDbRegAppTableRecord
  2
ACAD_PSEXT
 70
     0
  0
APPID
  5
1E
330
29
100
AcDbSymbolTableRecord
100
AcDbRegAppTableRecord
  2
AcLayerTools
 70
     0
  0
APPID
  5
229
330
29
100
AcDbSymbolTableRecord
100
AcDbRegAppTableRecord
  2
ACAD_MLEADERVER
 70
     0
  0
ENDTAB
  0
TABLE
  2
DIMSTYLE
  5
2B
330
0
100
AcDbSymbolTable
 70
     6
100
AcDbDimStyleTable
 71
     2
340
2C
340
3F
  0
DIMSTYLE
105
2C
330
2B
100
AcDbSymbolTableRecord
100
AcDbDimStyleTableRecord
  2
100-PR
 70
     0
 41
15.0
 42
43.0
 43
24.0
 44
13.0
 45
0.5
 46
12.0
 73
     0
 74
     0
 75
     1
 76
     1
 77
     1
 78
     8
140
30.0
141
0.0
145
1.0
147
12.0
172
     1
174
     1
176
     7
177
     1
178
   140
271
     1
272
     1
279
     2
340
2D
341
2E
342
33
371
     5
  0
DIMSTYLE
105
3F
102
{ACAD_REACTORS
330
E4
330
D9
330
CC
330
EF
330
112
330
107
330
FA
330
145
330
150
330
15B
330
166
330
171
330
17E
330
189
102
}
330
2B
100
AcDbSymbolTableRecord
100
AcDbDimStyleTableRecord
  2
500
 70
     0
 41
30.0
 42
43.0
 43
0.0
 44
13.0
 45
0.5
 46
12.0
 73
     0
 74
     0
 75
     1
 76
     1
 78
    12
140
80.0
141
0.0
145
1.0
147
0.0
172
     1
174
     1
176
     1
177
     1
178
    10
271
     1
272
     1
279
     2
340
2D
341
40
342
40
  0
ENDTAB
  0
TABLE
  2
BLOCK_RECORD
  5
1
330
0
100
AcDbSymbolTable
 70
    52
  0
BLOCK_RECORD
  5
2
102
{ACAD_XDICTIONARY
360
3
102
}
330
1
100
AcDbSymbolTableRecord
100
AcDbBlockTableRecord
  2
*MODEL_SPACE
340
F
  0
BLOCK_RECORD
  5
15
330
1
100
AcDbSymbolTableRecord
100
AcDbBlockTableRecord
  2
*Paper_Space
340
18
  0
BLOCK_RECORD
  5
40
102
{ACAD_XDICTIONARY
360
41
102
}
330
1
100
AcDbSymbolTableRecord
100
AcDbBlockTableRecord
  2
B-DIM
340
0
102
{BLKREFS
331
E8
331
E9
331
DD
331
DE
331
D1
331
D2
331
F3
331
F4
331
116
331
117
331
10B
331
10C
331
100
331
101
331
149
331
14A
331
154
331
155
331
15F
331
160
331
16A
331
16B
331
177
331
178
331
182
331
183
331
18D
331
18E
331
235
331
236
331
23F
331
240
331
249
331
24A
331
253
331
254
331
25F
331
260
331
269
331
26A
331
273
331
274
331
27D
331
27E
331
287
331
288
331
291
331
292
331
29B
331
29C
331
2A5
331
2A6
331
2B1
331
2B2
331
2BB
331
2BC
331
2C5
331
2C6
331
2CF
331
2D0
331
480
331
481
331
48A
331
48B
331
496
331
497
331
4A0
331
4A1
331
4AC
331
4AD
331
4B6
331
4B7
331
4C0
331
4C1
331
4CA
331
4CB
331
4D6
331
4D7
331
4E0
331
4E1
331
4EC
331
4ED
331
4F6
331
4F7
331
502
331
503
331
50C
331
50D
331
516
331
517
331
520
331
521
102
}
  0
BLOCK_RECORD
  5
2E
330
1
100
AcDbSymbolTableRecord
100
AcDbBlockTableRecord
  2
_Dot
340
0
  0
BLOCK_RECORD
  5
33
330
1
100
AcDbSymbolTableRecord
100
AcDbBlockTableRecord
  2
B-DIM_K
340
0
310
2800000020000000200000000100080000000000000400000000000000000000000000000000000000000000000080000080000000808000800000008000800080800000C0C0C000C0DCC000F0CAA6000020400000206000002080000020A0000020C0000020E00000400000004020000040400000406000004080000040A0
310
000040C0000040E00000600000006020000060400000606000006080000060A0000060C0000060E00000800000008020000080400000806000008080000080A0000080C0000080E00000A0000000A0200000A0400000A0600000A0800000A0A00000A0C00000A0E00000C0000000C0200000C0400000C0600000C0800000C0
310
A00000C0C00000C0E00000E0000000E0200000E0400000E0600000E0800000E0A00000E0C00000E0E00040000000400020004000400040006000400080004000A0004000C0004000E00040200000402020004020400040206000402080004020A0004020C0004020E000404000004040200040404000404060004040800040
310
40A0004040C0004040E00040600000406020004060400040606000406080004060A0004060C0004060E00040800000408020004080400040806000408080004080A0004080C0004080E00040A0000040A0200040A0400040A0600040A0800040A0A00040A0C00040A0E00040C0000040C0200040C0400040C0600040C08000
310
40C0A00040C0C00040C0E00040E0000040E0200040E0400040E0600040E0800040E0A00040E0C00040E0E00080000000800020008000400080006000800080008000A0008000C0008000E00080200000802020008020400080206000802080008020A0008020C0008020E00080400000804020008040400080406000804080
310
008040A0008040C0008040E00080600000806020008060400080606000806080008060A0008060C0008060E00080800000808020008080400080806000808080008080A0008080C0008080E00080A0000080A0200080A0400080A0600080A0800080A0A00080A0C00080A0E00080C0000080C0200080C0400080C0600080C0
310
800080C0A00080C0C00080C0E00080E0000080E0200080E0400080E0600080E0800080E0A00080E0C00080E0E000C0000000C0002000C0004000C0006000C0008000C000A000C000C000C000E000C0200000C0202000C0204000C0206000C0208000C020A000C020C000C020E000C0400000C0402000C0404000C0406000C0
310
408000C040A000C040C000C040E000C0600000C0602000C0604000C0606000C0608000C060A000C060C000C060E000C0800000C0802000C0804000C0806000C0808000C080A000C080C000C080E000C0A00000C0A02000C0A04000C0A06000C0A08000C0A0A000C0A0C000C0A0E000C0C00000C0C02000C0C04000C0C06000
310
C0C08000C0C0A000F0FBFF00A4A0A000808080000000FF0000FF000000FFFF00FF000000FF00FF00FFFF0000FFFFFF0000000000000000000000000000000000000000000000000000000000000000000000000000000000000000000000000000000000000000000000000000000000000000000000000000000000000000
310
0000000000000000000000000000000000000000000000000000000000000000FF00000000000000000000000000000000000000000000000000000000000000FF00000000000000000000000000000000000000000000000000000000000000FF000000000000000000000000000000000000000000000000000000000000
310
00FF0000000000000000000000000000000000000000000000FF00000000000000FF000000000000000000000000000000000000000000000000FF000000000000FF00000000000000000000000000000000000000000000000000FF0000000000FF0000000000000000000000000000000000000000000000000000FF0000
310
0000FF000000000000000000000000000000000000000000000000000000FF000000FF00000000000000000000000000000000000000000000000000000000FF0000FF0000000000000000000000000000000000000000000000000000000000FF00FF00000000000000000000000000000000000000000000000000000000
310
0000FFFF00000000000000000000000000000000000000000000000000000000000000FF0000000000000000000000000000000000FFFFFFFFFFFFFFFFFFFFFFFFFFFFFFFFFFFFFFFFFFFFFFFFFFFFFFFFFF0000000000000000000000000000000000FF00FF00000000000000000000000000000000000000000000000000
310
00000000FF0000FF00000000000000000000000000000000000000000000000000000000FF000000FF000000000000000000000000000000000000000000000000000000FF00000000FF0000000000000000000000000000000000000000000000000000FF0000000000FF0000000000000000000000000000000000000000
310
0000000000FF000000000000FF000000000000000000000000000000000000000000000000FF00000000000000FF0000000000000000000000000000000000000000000000FF00000000000000000000000000000000000000000000000000000000000000FF00000000000000000000000000000000000000000000000000
310
000000000000FF00000000000000000000000000000000000000000000000000000000000000FF00000000000000000000000000000000000000000000000000000000000000000000000000000000000000000000000000000000000000000000000000000000000000000000000000000000000000000000000000000000
310
0000000000000000000000000000000000000000000000000000000000000000000000000000000000000000000000000000000000000000
1001
ACAD
1000
DesignCenter Data
1002
{
1070
     1
1070
     1
1002
}
  0
BLOCK_RECORD
  5
CE
330
1
100
AcDbSymbolTableRecord
100
AcDbBlockTableRecord
  2
*D4
340
0
  0
BLOCK_RECORD
  5
DA
330
1
100
AcDbSymbolTableRecord
100
AcDbBlockTableRecord
  2
*D5
340
0
  0
BLOCK_RECORD
  5
E5
330
1
100
AcDbSymbolTableRecord
100
AcDbBlockTableRecord
  2
*D6
340
0
  0
BLOCK_RECORD
  5
F0
330
1
100
AcDbSymbolTableRecord
100
AcDbBlockTableRecord
  2
*D7
340
0
  0
BLOCK_RECORD
  5
FB
330
1
100
AcDbSymbolTableRecord
100
AcDbBlockTableRecord
  2
*D8
340
0
  0
BLOCK_RECORD
  5
108
330
1
100
AcDbSymbolTableRecord
100
AcDbBlockTableRecord
  2
*D9
340
0
  0
BLOCK_RECORD
  5
113
330
1
100
AcDbSymbolTableRecord
100
AcDbBlockTableRecord
  2
*D10
340
0
  0
BLOCK_RECORD
  5
146
330
1
100
AcDbSymbolTableRecord
100
AcDbBlockTableRecord
  2
*D11
340
0
  0
BLOCK_RECORD
  5
151
330
1
100
AcDbSymbolTableRecord
100
AcDbBlockTableRecord
  2
*D12
340
0
  0
BLOCK_RECORD
  5
15C
330
1
100
AcDbSymbolTableRecord
100
AcDbBlockTableRecord
  2
*D13
340
0
  0
BLOCK_RECORD
  5
167
330
1
100
AcDbSymbolTableRecord
100
AcDbBlockTableRecord
  2
*D14
340
0
  0
BLOCK_RECORD
  5
172
330
1
100
AcDbSymbolTableRecord
100
AcDbBlockTableRecord
  2
*D15
340
0
  0
BLOCK_RECORD
  5
17F
330
1
100
AcDbSymbolTableRecord
100
AcDbBlockTableRecord
  2
*D16
340
0
  0
BLOCK_RECORD
  5
18A
330
1
100
AcDbSymbolTableRecord
100
AcDbBlockTableRecord
  2
*D17
340
0
  0
ENDTAB
  0
ENDSEC
  0
SECTION
  2
BLOCKS
  0
BLOCK
  5
5
330
2
100
AcDbEntity
  8
0
100
AcDbBlockBegin
  2
*MODEL_SPACE
 70
     0
 10
0.0
 20
0.0
 30
0.0
  3
*MODEL_SPACE
  1

  0
ENDBLK
  5
E
330
2
100
AcDbEntity
  8
0
100
AcDbBlockEnd
  0
BLOCK
  5
16
330
15
100
AcDbEntity
 67
     1
  8
0
 48
4.0
100
AcDbBlockBegin
  2
*Paper_Space
 70
     0
 10
0.0
 20
0.0
 30
0.0
  3
*Paper_Space
  1

  0
ENDBLK
  5
17
330
15
100
AcDbEntity
 67
     1
  8
0
 48
4.0
100
AcDbBlockEnd
  0
BLOCK
  5
43
330
40
100
AcDbEntity
  8
0
100
AcDbBlockBegin
  2
B-DIM
 70
     0
 10
0.0
 20
0.0
 30
0.0
  3
B-DIM
  1

  0
LINE
  5
44
330
40
100
AcDbEntity
  8
0
 62
     1
100
AcDbLine
 10
0.000000000000091
 20
-1.1
 30
0.0
 11
0.000000000000091
 21
1.1
 31
0.0
  0
LWPOLYLINE
  5
45
330
40
100
AcDbEntity
  8
0
 62
     1
100
AcDbPolyline
 90
        2
 70
     0
 43
0.3
 10
-0.7071067811864851
 20
-0.7071067811864851
 10
0.707106781186576
 20
0.707106781186576
  0
LINE
  5
46
330
40
100
AcDbEntity
  8
0
 62
     1
100
AcDbLine
 10
1.20000000000009
 20
0.0
 30
0.0
 11
-1.199999999999909
 21
0.0
 31
0.0
  0
ENDBLK
  5
47
330
40
100
AcDbEntity
  8
0
100
AcDbBlockEnd
  0
BLOCK
  5
2F
330
2E
100
AcDbEntity
  8
0
100
AcDbBlockBegin
  2
_Dot
 70
     0
 10
0.0
 20
0.0
 30
0.0
  3
_Dot
  1

  0
LWPOLYLINE
  5
30
330
2E
100
AcDbEntity
  8
0
  6
ByBlock
 62
     0
100
AcDbPolyline
 90
        2
 70
     1
 43
0.5
 10
-0.25
 20
0.0
 42
1.0
 10
0.25
 20
0.0
 42
1.0
  0
LINE
  5
31
330
2E
100
AcDbEntity
  8
0
  6
ByBlock
 62
     0
370
    -2
100
AcDbLine
 10
-0.5
 20
0.0
 30
0.0
 11
-1.0
 21
0.0
 31
0.0
  0
ENDBLK
  5
32
330
2E
100
AcDbEntity
  8
0
100
AcDbBlockEnd
  0
BLOCK
  5
34
330
33
100
AcDbEntity
  8
0
 48
4.0
100
AcDbBlockBegin
  2
B-DIM_K
 70
     0
 10
0.0
 20
0.0
 30
0.0
  3
B-DIM_K
  1

  0
LINE
  5
35
330
33
100
AcDbEntity
  8
0
 62
     7
100
AcDbLine
 10
-0.0000000000002274
 20
-1.100000000000363
 30
0.0
 11
-0.0000000000002274
 21
1.100000000000363
 31
0.0
  0
LWPOLYLINE
  5
36
330
33
100
AcDbEntity
  8
0
 62
     7
100
AcDbPolyline
 90
        2
 70
     0
 43
0.0
 10
-0.7071067811868943
 20
-0.707106781186667
 10
0.7071067811864396
 20
0.707106781186667
  0
LINE
  5
37
330
33
100
AcDbEntity
  8
0
 62
     7
100
AcDbLine
 10
1.200000000000045
 20
0.0
 30
0.0
 11
-1.200000000000045
 21
0.0
 31
0.0
  0
ENDBLK
  5
38
330
33
100
AcDbEntity
  8
0
 48
4.0
100
AcDbBlockEnd
  0
BLOCK
  5
CF
330
CE
100
AcDbEntity
  8
0
 48
4.0
100
AcDbBlockBegin
  2
*D4
 70
     1
 10
0.0
 20
0.0
 30
0.0
  3
*D4
  1

  0
LINE
  5
D0
330
CE
100
AcDbEntity
  8
-wymiary
 62
     1
370
    -2
100
AcDbLine
 10
-17819.74434558143
 20
18615.77140371891
 30
0.0
 11
-17616.73434558142
 21
18615.77140371891
 31
0.0
  0
INSERT
  5
D1
330
CE
100
AcDbEntity
  8
-wymiary
 62
     1
370
    -2
100
AcDbBlockReference
  2
B-DIM
 10
-17849.74434558143
 20
18615.77140371891
 30
0.0
 41
30.0
 42
30.0
 43
30.0
 50
180.0
  0
INSERT
  5
D2
330
CE
100
AcDbEntity
  8
-wymiary
 62
     1
370
    -2
100
AcDbBlockReference
  2
B-DIM
 10
-17586.73434558143
 20
18615.77140371891
 30
0.0
 41
30.0
 42
30.0
 43
30.0
  0
MTEXT
  5
D3
330
CE
100
AcDbEntity
  8
-wymiary
 62
    10
370
     5
100
AcDbMText
 10
-17718.23934558143
 20
18695.77140371891
 30
0.0
 40
80.0
 41
0.0
 71
     5
 72
     1
  1
\A1;263
  7
ROMANS
 73
     1
 44
1.0
1001
ACAD
1000
MTEXTBEGIN
1070
    73
1070
     1
1070
    44
1040
1.0
1070
    74
1070
     0
1000
MTEXTEND
  0
POINT
  5
D4
330
CE
100
AcDbEntity
  8
Defpoints
 62
     0
100
AcDbPoint
 10
-17849.74434558143
 20
18218.80769476327
 30
0.0
  0
POINT
  5
D6
330
CE
100
AcDbEntity
  8
Defpoints
 62
     0
100
AcDbPoint
 10
-17586.73434558143
 20
18218.80769476327
 30
0.0
  0
POINT
  5
D7
330
CE
100
AcDbEntity
  8
Defpoints
 62
     0
100
AcDbPoint
 10
-17586.73434558143
 20
18615.77140371891
 30
0.0
  0
ENDBLK
  5
D8
330
CE
100
AcDbEntity
  8
0
 48
4.0
100
AcDbBlockEnd
  0
BLOCK
  5
DB
330
DA
100
AcDbEntity
  8
0
 48
4.0
100
AcDbBlockBegin
  2
*D5
 70
     1
 10
0.0
 20
0.0
 30
0.0
  3
*D5
  1

  0
LINE
  5
DC
330
DA
100
AcDbEntity
  8
-wymiary
 62
     1
370
    -2
100
AcDbLine
 10
-17556.73434558142
 20
18615.77140371891
 30
0.0
 11
-16524.74220229256
 21
18615.77140371891
 31
0.0
  0
INSERT
  5
DD
330
DA
100
AcDbEntity
  8
-wymiary
 62
     1
370
    -2
100
AcDbBlockReference
  2
B-DIM
 10
-17586.73434558143
 20
18615.77140371891
 30
0.0
 41
30.0
 42
30.0
 43
30.0
 50
180.0
  0
INSERT
  5
DE
330
DA
100
AcDbEntity
  8
-wymiary
 62
     1
370
    -2
100
AcDbBlockReference
  2
B-DIM
 10
-16494.74220229256
 20
18615.77140371891
 30
0.0
 41
30.0
 42
30.0
 43
30.0
  0
MTEXT
  5
DF
330
DA
100
AcDbEntity
  8
-wymiary
 62
    10
370
     5
100
AcDbMText
 10
-17040.73827393699
 20
18695.77140371891
 30
0.0
 40
80.0
 41
0.0
 71
     5
 72
     1
  1
\A1;1092
  7
ROMANS
 73
     1
 44
1.0
1001
ACAD
1000
MTEXTBEGIN
1070
    73
1070
     1
1070
    44
1040
1.0
1070
    74
1070
     0
1000
MTEXTEND
  0
POINT
  5
E0
330
DA
100
AcDbEntity
  8
Defpoints
 62
     0
100
AcDbPoint
 10
-17586.73434558143
 20
18218.80769476327
 30
0.0
  0
POINT
  5
E1
330
DA
100
AcDbEntity
  8
Defpoints
 62
     0
100
AcDbPoint
 10
-16494.74220229256
 20
18318.80769476329
 30
0.0
  0
POINT
  5
E2
330
DA
100
AcDbEntity
  8
Defpoints
 62
     0
100
AcDbPoint
 10
-16494.74220229256
 20
18615.77140371891
 30
0.0
  0
ENDBLK
  5
E3
330
DA
100
AcDbEntity
  8
0
 48
4.0
100
AcDbBlockEnd
  0
BLOCK
  5
E6
330
E5
100
AcDbEntity
  8
0
 48
4.0
100
AcDbBlockBegin
  2
*D6
 70
     1
 10
0.0
 20
0.0
 30
0.0
  3
*D6
  1

  0
LINE
  5
E7
330
E5
100
AcDbEntity
  8
-wymiary
 62
     1
370
    -2
100
AcDbLine
 10
-16464.74220229256
 20
18615.77140371891
 30
0.0
 11
-16261.73220229252
 21
18615.77140371891
 31
0.0
  0
INSERT
  5
E8
330
E5
100
AcDbEntity
  8
-wymiary
 62
     1
370
    -2
100
AcDbBlockReference
  2
B-DIM
 10
-16494.74220229256
 20
18615.77140371891
 30
0.0
 41
30.0
 42
30.0
 43
30.0
 50
180.0
  0
INSERT
  5
E9
330
E5
100
AcDbEntity
  8
-wymiary
 62
     1
370
    -2
100
AcDbBlockReference
  2
B-DIM
 10
-16231.73220229253
 20
18615.77140371891
 30
0.0
 41
30.0
 42
30.0
 43
30.0
  0
MTEXT
  5
EA
330
E5
100
AcDbEntity
  8
-wymiary
 62
    10
370
     5
100
AcDbMText
 10
-16363.23720229254
 20
18695.77140371891
 30
0.0
 40
80.0
 41
0.0
 71
     5
 72
     1
  1
\A1;263
  7
ROMANS
 73
     1
 44
1.0
1001
ACAD
1000
MTEXTBEGIN
1070
    73
1070
     1
1070
    44
1040
1.0
1070
    74
1070
     0
1000
MTEXTEND
  0
POINT
  5
EB
330
E5
100
AcDbEntity
  8
Defpoints
 62
     0
100
AcDbPoint
 10
-16494.74220229256
 20
18318.80769476329
 30
0.0
  0
POINT
  5
EC
330
E5
100
AcDbEntity
  8
Defpoints
 62
     0
100
AcDbPoint
 10
-16231.73220229253
 20
18218.80769476326
 30
0.0
  0
POINT
  5
ED
330
E5
100
AcDbEntity
  8
Defpoints
 62
     0
100
AcDbPoint
 10
-16231.73220229253
 20
18615.77140371891
 30
0.0
  0
ENDBLK
  5
EE
330
E5
100
AcDbEntity
  8
0
 48
4.0
100
AcDbBlockEnd
  0
BLOCK
  5
F1
330
F0
100
AcDbEntity
  8
0
 48
4.0
100
AcDbBlockBegin
  2
*D7
 70
     1
 10
0.0
 20
0.0
 30
0.0
  3
*D7
  1

  0
LINE
  5
F2
330
F0
100
AcDbEntity
  8
-wymiary
 62
     1
370
    -2
100
AcDbLine
 10
-17819.74434558143
 20
18814.93059405246
 30
0.0
 11
-16261.73220229252
 21
18814.93059405246
 31
0.0
  0
INSERT
  5
F3
330
F0
100
AcDbEntity
  8
-wymiary
 62
     1
370
    -2
100
AcDbBlockReference
  2
B-DIM
 10
-17849.74434558143
 20
18814.93059405246
 30
0.0
 41
30.0
 42
30.0
 43
30.0
 50
180.0
  0
INSERT
  5
F4
330
F0
100
AcDbEntity
  8
-wymiary
 62
     1
370
    -2
100
AcDbBlockReference
  2
B-DIM
 10
-16231.73220229253
 20
18814.93059405246
 30
0.0
 41
30.0
 42
30.0
 43
30.0
  0
MTEXT
  5
F5
330
F0
100
AcDbEntity
  8
-wymiary
 62
    10
370
     5
100
AcDbMText
 10
-17040.73827393698
 20
18894.93059405246
 30
0.0
 40
80.0
 41
0.0
 71
     5
 72
     1
  1
\A1;1618
  7
ROMANS
 73
     1
 44
1.0
1001
ACAD
1000
MTEXTBEGIN
1070
    73
1070
     1
1070
    44
1040
1.0
1070
    74
1070
     0
1000
MTEXTEND
  0
POINT
  5
F6
330
F0
100
AcDbEntity
  8
Defpoints
 62
     0
100
AcDbPoint
 10
-17849.74434558143
 20
18218.8076947632
 30
0.0
  0
POINT
  5
F7
330
F0
100
AcDbEntity
  8
Defpoints
 62
     0
100
AcDbPoint
 10
-16231.73220229253
 20
18218.80769476315
 30
0.0
  0
POINT
  5
F8
330
F0
100
AcDbEntity
  8
Defpoints
 62
     0
100
AcDbPoint
 10
-16231.73220229253
 20
18814.93059405246
 30
0.0
  0
ENDBLK
  5
F9
330
F0
100
AcDbEntity
  8
0
 48
4.0
100
AcDbBlockEnd
  0
BLOCK
  5
FC
330
FB
100
AcDbEntity
  8
0
 48
4.0
100
AcDbBlockBegin
  2
*D8
 70
     1
 10
0.0
 20
0.0
 30
0.0
  3
*D8
  1

  0
LINE
  5
FD
330
FB
100
AcDbEntity
  8
-wymiary
 62
     1
370
    -2
100
AcDbLine
 10
-15849.92422685748
 20
18348.80769476328
 30
0.0
 11
-15849.92422685748
 21
18378.80769476329
 31
0.0
  0
LINE
  5
FE
330
FB
100
AcDbEntity
  8
-wymiary
 62
     1
370
    -2
100
AcDbLine
 10
-15849.92422685748
 20
18188.80769476328
 30
0.0
 11
-15849.92422685748
 21
18158.80769476328
 31
0.0
  0
LINE
  5
FF
330
FB
100
AcDbEntity
  8
-wymiary
 62
     1
370
    -2
100
AcDbLine
 10
-15849.92422685748
 20
18318.80769476329
 30
0.0
 11
-15849.92422685748
 21
18218.80769476328
 31
0.0
  0
INSERT
  5
100
330
FB
100
AcDbEntity
  8
-wymiary
 62
     1
370
    -2
100
AcDbBlockReference
  2
B-DIM
 10
-15849.92422685748
 20
18318.80769476329
 30
0.0
 41
30.0
 42
30.0
 43
30.0
 50
270.0
  0
INSERT
  5
101
330
FB
100
AcDbEntity
  8
-wymiary
 62
     1
370
    -2
100
AcDbBlockReference
  2
B-DIM
 10
-15849.92422685748
 20
18218.80769476328
 30
0.0
 41
30.0
 42
30.0
 43
30.0
 50
90.0
  0
MTEXT
  5
102
330
FB
100
AcDbEntity
  8
-wymiary
 62
    10
370
     5
100
AcDbMText
 10
-15929.92422685748
 20
18268.80769476328
 30
0.0
 40
80.0
 41
0.0
 71
     5
 72
     1
  1
\A1;100
  7
ROMANS
 11
0.0000000000000001
 21
1.0
 31
0.0
 73
     1
 44
1.0
1001
ACAD
1000
MTEXTBEGIN
1070
    73
1070
     1
1070
    44
1040
1.0
1070
    74
1070
     0
1000
MTEXTEND
  0
POINT
  5
103
330
FB
100
AcDbEntity
  8
Defpoints
 62
     0
100
AcDbPoint
 10
-16530.43548827836
 20
18318.80769476329
 30
0.0
  0
POINT
  5
104
330
FB
100
AcDbEntity
  8
Defpoints
 62
     0
100
AcDbPoint
 10
-16494.74220229256
 20
18218.80769476328
 30
0.0
  0
POINT
  5
105
330
FB
100
AcDbEntity
  8
Defpoints
 62
     0
100
AcDbPoint
 10
-15849.92422685748
 20
18218.80769476328
 30
0.0
  0
ENDBLK
  5
106
330
FB
100
AcDbEntity
  8
0
 48
4.0
100
AcDbBlockEnd
  0
BLOCK
  5
109
330
108
100
AcDbEntity
  8
0
 48
4.0
100
AcDbBlockBegin
  2
*D9
 70
     1
 10
0.0
 20
0.0
 30
0.0
  3
*D9
  1

  0
LINE
  5
10A
330
108
100
AcDbEntity
  8
-wymiary
 62
     1
370
    -2
100
AcDbLine
 10
-15849.92422685748
 20
18188.80769476328
 30
0.0
 11
-15849.92422685748
 21
17135.8076947633
 31
0.0
  0
INSERT
  5
10B
330
108
100
AcDbEntity
  8
-wymiary
 62
     1
370
    -2
100
AcDbBlockReference
  2
B-DIM
 10
-15849.92422685748
 20
18218.80769476328
 30
0.0
 41
30.0
 42
30.0
 43
30.0
 50
90.0
  0
INSERT
  5
10C
330
108
100
AcDbEntity
  8
-wymiary
 62
     1
370
    -2
100
AcDbBlockReference
  2
B-DIM
 10
-15849.92422685748
 20
17105.8076947633
 30
0.0
 41
30.0
 42
30.0
 43
30.0
 50
270.0
  0
MTEXT
  5
10D
330
108
100
AcDbEntity
  8
-wymiary
 62
    10
370
     5
100
AcDbMText
 10
-15929.92422685748
 20
17662.30769476329
 30
0.0
 40
80.0
 41
0.0
 71
     5
 72
     1
  1
\A1;1113
  7
ROMANS
 11
0.0000000000000001
 21
1.0
 31
0.0
 73
     1
 44
1.0
1001
ACAD
1000
MTEXTBEGIN
1070
    73
1070
     1
1070
    44
1040
1.0
1070
    74
1070
     0
1000
MTEXTEND
  0
POINT
  5
10E
330
108
100
AcDbEntity
  8
Defpoints
 62
     0
100
AcDbPoint
 10
-16494.74220229256
 20
18218.80769476328
 30
0.0
  0
POINT
  5
10F
330
108
100
AcDbEntity
  8
Defpoints
 62
     0
100
AcDbPoint
 10
-16231.73220229256
 20
17105.8076947633
 30
0.0
  0
POINT
  5
110
330
108
100
AcDbEntity
  8
Defpoints
 62
     0
100
AcDbPoint
 10
-15849.92422685748
 20
17105.8076947633
 30
0.0
  0
ENDBLK
  5
111
330
108
100
AcDbEntity
  8
0
 48
4.0
100
AcDbBlockEnd
  0
BLOCK
  5
114
330
113
100
AcDbEntity
  8
0
 48
4.0
100
AcDbBlockBegin
  2
*D10
 70
     1
 10
0.0
 20
0.0
 30
0.0
  3
*D10
  1

  0
LINE
  5
115
330
113
100
AcDbEntity
  8
-wymiary
 62
     1
370
    -2
100
AcDbLine
 10
-15670.20637596532
 20
18288.80769476328
 30
0.0
 11
-15670.20637596532
 21
17135.8076947633
 31
0.0
  0
INSERT
  5
116
330
113
100
AcDbEntity
  8
-wymiary
 62
     1
370
    -2
100
AcDbBlockReference
  2
B-DIM
 10
-15670.20637596532
 20
18318.80769476329
 30
0.0
 41
30.0
 42
30.0
 43
30.0
 50
90.0
  0
INSERT
  5
117
330
113
100
AcDbEntity
  8
-wymiary
 62
     1
370
    -2
100
AcDbBlockReference
  2
B-DIM
 10
-15670.20637596532
 20
17105.8076947633
 30
0.0
 41
30.0
 42
30.0
 43
30.0
 50
270.0
  0
MTEXT
  5
118
330
113
100
AcDbEntity
  8
-wymiary
 62
    10
370
     5
100
AcDbMText
 10
-15750.20637596532
 20
17712.30769476329
 30
0.0
 40
80.0
 41
0.0
 71
     5
 72
     1
  1
\A1;1213
  7
ROMANS
 11
0.0000000000000001
 21
1.0
 31
0.0
 73
     1
 44
1.0
1001
ACAD
1000
MTEXTBEGIN
1070
    73
1070
     1
1070
    44
1040
1.0
1070
    74
1070
     0
1000
MTEXTEND
  0
POINT
  5
119
330
113
100
AcDbEntity
  8
Defpoints
 62
     0
100
AcDbPoint
 10
-16622.9848269871
 20
18318.80769476329
 30
0.0
  0
POINT
  5
11A
330
113
100
AcDbEntity
  8
Defpoints
 62
     0
100
AcDbPoint
 10
-16231.73220229256
 20
17105.8076947633
 30
0.0
  0
POINT
  5
11B
330
113
100
AcDbEntity
  8
Defpoints
 62
     0
100
AcDbPoint
 10
-15670.20637596532
 20
17105.8076947633
 30
0.0
  0
ENDBLK
  5
11C
330
113
100
AcDbEntity
  8
0
 48
4.0
100
AcDbBlockEnd
  0
BLOCK
  5
147
330
146
100
AcDbEntity
  8
0
 48
4.0
100
AcDbBlockBegin
  2
*D11
 70
     1
 10
0.0
 20
0.0
 30
0.0
  3
*D11
  1

  0
LINE
  5
148
330
146
100
AcDbEntity
  8
-wymiary
 62
     1
370
    -2
100
AcDbLine
 10
-11032.38205872727
 20
18615.77140371891
 30
0.0
 11
-11235.39205872727
 21
18615.77140371891
 31
0.0
  0
INSERT
  5
149
330
146
100
AcDbEntity
  8
-wymiary
 62
     1
370
    -2
100
AcDbBlockReference
  2
B-DIM
 10
-11002.38205872727
 20
18615.77140371891
 30
0.0
 41
30.0
 42
30.0
 43
30.0
  0
INSERT
  5
14A
330
146
100
AcDbEntity
  8
-wymiary
 62
     1
370
    -2
100
AcDbBlockReference
  2
B-DIM
 10
-11265.39205872727
 20
18615.77140371891
 30
0.0
 41
30.0
 42
30.0
 43
30.0
 50
180.0
  0
MTEXT
  5
14B
330
146
100
AcDbEntity
  8
-wymiary
 62
    10
370
     5
100
AcDbMText
 10
-11133.88705872727
 20
18695.77140371891
 30
0.0
 40
80.0
 41
0.0
 71
     5
 72
     1
  1
\A1;263
  7
ROMANS
 73
     1
 44
1.0
1001
ACAD
1000
MTEXTBEGIN
1070
    73
1070
     1
1070
    44
1040
1.0
1070
    74
1070
     0
1000
MTEXTEND
  0
POINT
  5
14C
330
146
100
AcDbEntity
  8
Defpoints
 62
     0
100
AcDbPoint
 10
-11002.38205872727
 20
18218.80769476327
 30
0.0
  0
POINT
  5
14D
330
146
100
AcDbEntity
  8
Defpoints
 62
     0
100
AcDbPoint
 10
-11265.39205872727
 20
18218.80769476327
 30
0.0
  0
POINT
  5
14E
330
146
100
AcDbEntity
  8
Defpoints
 62
     0
100
AcDbPoint
 10
-11265.39205872727
 20
18615.77140371891
 30
0.0
  0
ENDBLK
  5
14F
330
146
100
AcDbEntity
  8
0
 48
4.0
100
AcDbBlockEnd
  0
BLOCK
  5
152
330
151
100
AcDbEntity
  8
0
 48
4.0
100
AcDbBlockBegin
  2
*D12
 70
     1
 10
0.0
 20
0.0
 30
0.0
  3
*D12
  1

  0
LINE
  5
153
330
151
100
AcDbEntity
  8
-wymiary
 62
     1
370
    -2
100
AcDbLine
 10
-11295.39205872727
 20
18615.77140371891
 30
0.0
 11
-12327.38420201613
 21
18615.77140371891
 31
0.0
  0
INSERT
  5
154
330
151
100
AcDbEntity
  8
-wymiary
 62
     1
370
    -2
100
AcDbBlockReference
  2
B-DIM
 10
-11265.39205872727
 20
18615.77140371891
 30
0.0
 41
30.0
 42
30.0
 43
30.0
  0
INSERT
  5
155
330
151
100
AcDbEntity
  8
-wymiary
 62
     1
370
    -2
100
AcDbBlockReference
  2
B-DIM
 10
-12357.38420201613
 20
18615.77140371891
 30
0.0
 41
30.0
 42
30.0
 43
30.0
 50
180.0
  0
MTEXT
  5
156
330
151
100
AcDbEntity
  8
-wymiary
 62
    10
370
     5
100
AcDbMText
 10
-11811.3881303717
 20
18695.77140371891
 30
0.0
 40
80.0
 41
0.0
 71
     5
 72
     1
  1
\A1;1092
  7
ROMANS
 73
     1
 44
1.0
1001
ACAD
1000
MTEXTBEGIN
1070
    73
1070
     1
1070
    44
1040
1.0
1070
    74
1070
     0
1000
MTEXTEND
  0
POINT
  5
157
330
151
100
AcDbEntity
  8
Defpoints
 62
     0
100
AcDbPoint
 10
-11265.39205872727
 20
18218.80769476327
 30
0.0
  0
POINT
  5
158
330
151
100
AcDbEntity
  8
Defpoints
 62
     0
100
AcDbPoint
 10
-12357.38420201613
 20
18318.80769476329
 30
0.0
  0
POINT
  5
159
330
151
100
AcDbEntity
  8
Defpoints
 62
     0
100
AcDbPoint
 10
-12357.38420201613
 20
18615.77140371891
 30
0.0
  0
ENDBLK
  5
15A
330
151
100
AcDbEntity
  8
0
 48
4.0
100
AcDbBlockEnd
  0
BLOCK
  5
15D
330
15C
100
AcDbEntity
  8
0
 48
4.0
100
AcDbBlockBegin
  2
*D13
 70
     1
 10
0.0
 20
0.0
 30
0.0
  3
*D13
  1

  0
LINE
  5
15E
330
15C
100
AcDbEntity
  8
-wymiary
 62
     1
370
    -2
100
AcDbLine
 10
-12387.38420201613
 20
18615.77140371891
 30
0.0
 11
-12590.39420201617
 21
18615.77140371891
 31
0.0
  0
INSERT
  5
15F
330
15C
100
AcDbEntity
  8
-wymiary
 62
     1
370
    -2
100
AcDbBlockReference
  2
B-DIM
 10
-12357.38420201613
 20
18615.77140371891
 30
0.0
 41
30.0
 42
30.0
 43
30.0
  0
INSERT
  5
160
330
15C
100
AcDbEntity
  8
-wymiary
 62
     1
370
    -2
100
AcDbBlockReference
  2
B-DIM
 10
-12620.39420201617
 20
18615.77140371891
 30
0.0
 41
30.0
 42
30.0
 43
30.0
 50
180.0
  0
MTEXT
  5
161
330
15C
100
AcDbEntity
  8
-wymiary
 62
    10
370
     5
100
AcDbMText
 10
-12488.88920201615
 20
18695.77140371891
 30
0.0
 40
80.0
 41
0.0
 71
     5
 72
     1
  1
\A1;263
  7
ROMANS
 73
     1
 44
1.0
1001
ACAD
1000
MTEXTBEGIN
1070
    73
1070
     1
1070
    44
1040
1.0
1070
    74
1070
     0
1000
MTEXTEND
  0
POINT
  5
162
330
15C
100
AcDbEntity
  8
Defpoints
 62
     0
100
AcDbPoint
 10
-12357.38420201613
 20
18318.80769476329
 30
0.0
  0
POINT
  5
163
330
15C
100
AcDbEntity
  8
Defpoints
 62
     0
100
AcDbPoint
 10
-12620.39420201617
 20
18218.80769476326
 30
0.0
  0
POINT
  5
164
330
15C
100
AcDbEntity
  8
Defpoints
 62
     0
100
AcDbPoint
 10
-12620.39420201617
 20
18615.77140371891
 30
0.0
  0
ENDBLK
  5
165
330
15C
100
AcDbEntity
  8
0
 48
4.0
100
AcDbBlockEnd
  0
BLOCK
  5
168
330
167
100
AcDbEntity
  8
0
 48
4.0
100
AcDbBlockBegin
  2
*D14
 70
     1
 10
0.0
 20
0.0
 30
0.0
  3
*D14
  1

  0
LINE
  5
169
330
167
100
AcDbEntity
  8
-wymiary
 62
     1
370
    -2
100
AcDbLine
 10
-11032.38205872727
 20
18814.93059405246
 30
0.0
 11
-12590.39420201617
 21
18814.93059405246
 31
0.0
  0
INSERT
  5
16A
330
167
100
AcDbEntity
  8
-wymiary
 62
     1
370
    -2
100
AcDbBlockReference
  2
B-DIM
 10
-11002.38205872727
 20
18814.93059405246
 30
0.0
 41
30.0
 42
30.0
 43
30.0
  0
INSERT
  5
16B
330
167
100
AcDbEntity
  8
-wymiary
 62
     1
370
    -2
100
AcDbBlockReference
  2
B-DIM
 10
-12620.39420201617
 20
18814.93059405246
 30
0.0
 41
30.0
 42
30.0
 43
30.0
 50
180.0
  0
MTEXT
  5
16C
330
167
100
AcDbEntity
  8
-wymiary
 62
    10
370
     5
100
AcDbMText
 10
-11811.38813037172
 20
18894.93059405246
 30
0.0
 40
80.0
 41
0.0
 71
     5
 72
     1
  1
\A1;1618
  7
ROMANS
 73
     1
 44
1.0
1001
ACAD
1000
MTEXTBEGIN
1070
    73
1070
     1
1070
    44
1040
1.0
1070
    74
1070
     0
1000
MTEXTEND
  0
POINT
  5
16D
330
167
100
AcDbEntity
  8
Defpoints
 62
     0
100
AcDbPoint
 10
-11002.38205872727
 20
18218.8076947632
 30
0.0
  0
POINT
  5
16E
330
167
100
AcDbEntity
  8
Defpoints
 62
     0
100
AcDbPoint
 10
-12620.39420201617
 20
18218.80769476315
 30
0.0
  0
POINT
  5
16F
330
167
100
AcDbEntity
  8
Defpoints
 62
     0
100
AcDbPoint
 10
-12620.39420201617
 20
18814.93059405246
 30
0.0
  0
ENDBLK
  5
170
330
167
100
AcDbEntity
  8
0
 48
4.0
100
AcDbBlockEnd
  0
BLOCK
  5
173
330
172
100
AcDbEntity
  8
0
 48
4.0
100
AcDbBlockBegin
  2
*D15
 70
     1
 10
0.0
 20
0.0
 30
0.0
  3
*D15
  1

  0
LINE
  5
174
330
172
100
AcDbEntity
  8
-wymiary
 62
     1
370
    -2
100
AcDbLine
 10
-13002.20217745122
 20
18348.80769476328
 30
0.0
 11
-13002.20217745122
 21
18378.80769476329
 31
0.0
  0
LINE
  5
175
330
172
100
AcDbEntity
  8
-wymiary
 62
     1
370
    -2
100
AcDbLine
 10
-13002.20217745122
 20
18188.80769476328
 30
0.0
 11
-13002.20217745122
 21
18158.80769476328
 31
0.0
  0
LINE
  5
176
330
172
100
AcDbEntity
  8
-wymiary
 62
     1
370
    -2
100
AcDbLine
 10
-13002.20217745122
 20
18318.80769476329
 30
0.0
 11
-13002.20217745122
 21
18218.80769476328
 31
0.0
  0
INSERT
  5
177
330
172
100
AcDbEntity
  8
-wymiary
 62
     1
370
    -2
100
AcDbBlockReference
  2
B-DIM
 10
-13002.20217745122
 20
18318.80769476329
 30
0.0
 41
30.0
 42
30.0
 43
30.0
 50
270.0
  0
INSERT
  5
178
330
172
100
AcDbEntity
  8
-wymiary
 62
     1
370
    -2
100
AcDbBlockReference
  2
B-DIM
 10
-13002.20217745122
 20
18218.80769476328
 30
0.0
 41
30.0
 42
30.0
 43
30.0
 50
90.0
  0
MTEXT
  5
179
330
172
100
AcDbEntity
  8
-wymiary
 62
    10
370
     5
100
AcDbMText
 10
-13082.20217745122
 20
18268.80769476328
 30
0.0
 40
80.0
 41
0.0
 71
     5
 72
     1
  1
\A1;100
  7
ROMANS
 11
0.0000000000000001
 21
1.0
 31
0.0
 73
     1
 44
1.0
1001
ACAD
1000
MTEXTBEGIN
1070
    73
1070
     1
1070
    44
1040
1.0
1070
    74
1070
     0
1000
MTEXTEND
  0
POINT
  5
17A
330
172
100
AcDbEntity
  8
Defpoints
 62
     0
100
AcDbPoint
 10
-12321.69091603034
 20
18318.80769476329
 30
0.0
  0
POINT
  5
17B
330
172
100
AcDbEntity
  8
Defpoints
 62
     0
100
AcDbPoint
 10
-12357.38420201613
 20
18218.80769476328
 30
0.0
  0
POINT
  5
17C
330
172
100
AcDbEntity
  8
Defpoints
 62
     0
100
AcDbPoint
 10
-13002.20217745122
 20
18218.80769476328
 30
0.0
  0
ENDBLK
  5
17D
330
172
100
AcDbEntity
  8
0
 48
4.0
100
AcDbBlockEnd
  0
BLOCK
  5
180
330
17F
100
AcDbEntity
  8
0
 48
4.0
100
AcDbBlockBegin
  2
*D16
 70
     1
 10
0.0
 20
0.0
 30
0.0
  3
*D16
  1

  0
LINE
  5
181
330
17F
100
AcDbEntity
  8
-wymiary
 62
     1
370
    -2
100
AcDbLine
 10
-13002.20217745122
 20
18188.80769476328
 30
0.0
 11
-13002.20217745122
 21
17135.8076947633
 31
0.0
  0
INSERT
  5
182
330
17F
100
AcDbEntity
  8
-wymiary
 62
     1
370
    -2
100
AcDbBlockReference
  2
B-DIM
 10
-13002.20217745122
 20
18218.80769476328
 30
0.0
 41
30.0
 42
30.0
 43
30.0
 50
90.0
  0
INSERT
  5
183
330
17F
100
AcDbEntity
  8
-wymiary
 62
     1
370
    -2
100
AcDbBlockReference
  2
B-DIM
 10
-13002.20217745122
 20
17105.8076947633
 30
0.0
 41
30.0
 42
30.0
 43
30.0
 50
270.0
  0
MTEXT
  5
184
330
17F
100
AcDbEntity
  8
-wymiary
 62
    10
370
     5
100
AcDbMText
 10
-13082.20217745122
 20
17662.30769476329
 30
0.0
 40
80.0
 41
0.0
 71
     5
 72
     1
  1
\A1;1113
  7
ROMANS
 11
0.0000000000000001
 21
1.0
 31
0.0
 73
     1
 44
1.0
1001
ACAD
1000
MTEXTBEGIN
1070
    73
1070
     1
1070
    44
1040
1.0
1070
    74
1070
     0
1000
MTEXTEND
  0
POINT
  5
185
330
17F
100
AcDbEntity
  8
Defpoints
 62
     0
100
AcDbPoint
 10
-12357.38420201613
 20
18218.80769476328
 30
0.0
  0
POINT
  5
186
330
17F
100
AcDbEntity
  8
Defpoints
 62
     0
100
AcDbPoint
 10
-12620.39420201613
 20
17105.8076947633
 30
0.0
  0
POINT
  5
187
330
17F
100
AcDbEntity
  8
Defpoints
 62
     0
100
AcDbPoint
 10
-13002.20217745122
 20
17105.8076947633
 30
0.0
  0
ENDBLK
  5
188
330
17F
100
AcDbEntity
  8
0
 48
4.0
100
AcDbBlockEnd
  0
BLOCK
  5
18B
330
18A
100
AcDbEntity
  8
0
 48
4.0
100
AcDbBlockBegin
  2
*D17
 70
     1
 10
0.0
 20
0.0
 30
0.0
  3
*D17
  1

  0
LINE
  5
18C
330
18A
100
AcDbEntity
  8
-wymiary
 62
     1
370
    -2
100
AcDbLine
 10
-13181.92002834338
 20
18288.80769476328
 30
0.0
 11
-13181.92002834338
 21
17135.8076947633
 31
0.0
  0
INSERT
  5
18D
330
18A
100
AcDbEntity
  8
-wymiary
 62
     1
370
    -2
100
AcDbBlockReference
  2
B-DIM
 10
-13181.92002834338
 20
18318.80769476329
 30
0.0
 41
30.0
 42
30.0
 43
30.0
 50
90.0
  0
INSERT
  5
18E
330
18A
100
AcDbEntity
  8
-wymiary
 62
     1
370
    -2
100
AcDbBlockReference
  2
B-DIM
 10
-13181.92002834338
 20
17105.8076947633
 30
0.0
 41
30.0
 42
30.0
 43
30.0
 50
270.0
  0
MTEXT
  5
18F
330
18A
100
AcDbEntity
  8
-wymiary
 62
    10
370
     5
100
AcDbMText
 10
-13261.92002834338
 20
17712.30769476329
 30
0.0
 40
80.0
 41
0.0
 71
     5
 72
     1
  1
\A1;1213
  7
ROMANS
 11
0.0000000000000001
 21
1.0
 31
0.0
 73
     1
 44
1.0
1001
ACAD
1000
MTEXTBEGIN
1070
    73
1070
     1
1070
    44
1040
1.0
1070
    74
1070
     0
1000
MTEXTEND
  0
POINT
  5
190
330
18A
100
AcDbEntity
  8
Defpoints
 62
     0
100
AcDbPoint
 10
-12229.1415773216
 20
18318.80769476329
 30
0.0
  0
POINT
  5
191
330
18A
100
AcDbEntity
  8
Defpoints
 62
     0
100
AcDbPoint
 10
-12620.39420201613
 20
17105.8076947633
 30
0.0
  0
POINT
  5
192
330
18A
100
AcDbEntity
  8
Defpoints
 62
     0
100
AcDbPoint
 10
-13181.92002834338
 20
17105.8076947633
 30
0.0
  0
ENDBLK
  5
193
330
18A
100
AcDbEntity
  8
0
 48
4.0
100
AcDbBlockEnd
  0
ENDSEC
  0
SECTION
  2
ENTITIES
  0
HATCH
  5
80
330
2
100
AcDbEntity
  8
0Hatch
370
     5
100
AcDbHatch
 10
0.0
 20
0.0
 30
0.0
210
0.0
220
0.0
230
1.0
  2
SOLID
 70
     1
 71
     1
 91
        1
 92
        7
 72
     0
 73
     1
 93
       28
 10
-17544.24434558143
 20
17230.8076947633
 10
-17544.24434558143
 20
17165.8076947633
 10
-17789.74434558138
 20
17165.80769476329
 10
-17789.74434558142
 20
18158.80769476327
 10
-17526.73434558142
 20
18158.80769476327
 10
-17526.73434558142
 20
18258.80769476329
 10
-16554.74220229256
 20
18258.80769476329
 10
-16554.74220229256
 20
18158.80769476328
 10
-16291.73220229253
 20
18158.80769476326
 10
-16291.73220229256
 20
17165.8076947633
 10
-16537.23220229256
 20
17165.8076947633
 10
-16537.23220229255
 20
17230.80769476326
 10
-16910.73747450404
 20
17230.80769476327
 10
-16910.73747450404
 20
17170.80769476327
 10
-16597.23220229256
 20
17170.80769476326
 10
-16597.23220229256
 20
17105.8076947633
 10
-16231.73220229256
 20
17105.8076947633
 10
-16231.73220229253
 20
18218.80769476326
 10
-16494.74220229256
 20
18218.80769476328
 10
-16494.74220229256
 20
18318.80769476329
 10
-17586.73434558143
 20
18318.80769476328
 10
-17586.73434558143
 20
18218.80769476327
 10
-17849.74434558142
 20
18218.80769476327
 10
-17849.74434558138
 20
17105.80769476329
 10
-17484.24434558143
 20
17105.8076947633
 10
-17484.24434558143
 20
17170.8076947633
 10
-17170.73747450403
 20
17170.80769476329
 10
-17170.73747450404
 20
17230.80769476329
 97
        4
330
85
330
82
330
84
330
83
 75
     0
 76
     1
 47
1.718358882480216
 98
        1
 10
-17339.18474227339
 20
17204.3378682552
1001
ACAD
1010
0.0
1020
0.0
1030
0.0
  0
LINE
  5
82
102
{ACAD_REACTORS
330
80
102
}
330
2
100
AcDbEntity
  8
0Hatch
370
     5
100
AcDbLine
 10
-16910.73747450404
 20
17230.80769476327
 30
0.0
 11
-16910.73747450403
 21
17170.80769476333
 31
0.0
  0
LINE
  5
83
102
{ACAD_REACTORS
330
80
102
}
330
2
100
AcDbEntity
  8
0Hatch
370
     5
100
AcDbLine
 10
-17170.73747450403
 20
17170.80769476332
 30
0.0
 11
-17170.73747450404
 21
17230.80769476329
 31
0.0
  0
LWPOLYLINE
  5
84
102
{ACAD_REACTORS
330
80
102
}
330
2
100
AcDbEntity
  8
0Hatch
370
     5
100
AcDbPolyline
 90
       12
 70
     1
 43
0.0
 10
-16494.74220229256
 20
18318.80769476329
 10
-17586.73434558143
 20
18318.80769476329
 10
-17586.73434558143
 20
18218.80769476327
 10
-17849.74434558143
 20
18218.80769476327
 10
-17849.74434558138
 20
17105.80769476329
 10
-17484.24434558143
 20
17105.8076947633
 10
-17484.24434558143
 20
17170.8076947633
 10
-16597.23220229256
 20
17170.80769476326
 10
-16597.23220229256
 20
17105.8076947633
 10
-16231.73220229256
 20
17105.8076947633
 10
-16231.73220229253
 20
18218.80769476326
 10
-16494.74220229256
 20
18218.80769476328
  0
LWPOLYLINE
  5
85
102
{ACAD_REACTORS
330
80
102
}
330
2
100
AcDbEntity
  8
0Hatch
370
     5
100
AcDbPolyline
 90
       12
 70
     1
 43
0.0
 10
-16554.74220229256
 20
18258.80769476329
 10
-17526.73434558142
 20
18258.80769476329
 10
-17526.73434558142
 20
18158.80769476327
 10
-17789.74434558142
 20
18158.80769476327
 10
-17789.74434558138
 20
17165.80769476329
 10
-17544.24434558143
 20
17165.8076947633
 10
-17544.24434558143
 20
17230.8076947633
 10
-16537.23220229255
 20
17230.80769476326
 10
-16537.23220229256
 20
17165.8076947633
 10
-16291.73220229256
 20
17165.8076947633
 10
-16291.73220229253
 20
18158.80769476327
 10
-16554.74220229256
 20
18158.80769476328
  0
LINE
  5
86
330
2
100
AcDbEntity
  8
0Hatch
370
     5
100
AcDbLine
 10
-17405.74014501438
 20
17020.8076947635
 30
0.0
 11
-17235.74014501437
 21
17020.8076947635
 31
0.0
  0
LINE
  5
87
330
2
100
AcDbEntity
  8
0Hatch
370
     5
100
AcDbLine
 10
-17235.74014501437
 20
17020.8076947635
 30
0.0
 11
-17235.74014501437
 21
17170.8076947635
 31
0.0
  0
LINE
  5
88
330
2
100
AcDbEntity
  8
0Hatch
370
     5
100
AcDbLine
 10
-17405.74014501438
 20
17170.8076947635
 30
0.0
 11
-17405.74014501438
 21
17020.8076947635
 31
0.0
  0
LINE
  5
89
330
2
100
AcDbEntity
  8
0Hatch
370
     5
100
AcDbLine
 10
-17383.74014501438
 20
17028.94794301629
 30
0.0
 11
-17383.74014501438
 21
17029.94794301629
 31
0.0
  0
LINE
  5
8A
330
2
100
AcDbEntity
  8
0Hatch
370
     5
100
AcDbLine
 10
-16106.74534678404
 20
17020.8076947635
 30
0.0
 11
-16270.74534678404
 21
17020.8076947635
 31
0.0
  0
LINE
  5
8B
330
2
100
AcDbEntity
  8
0Hatch
370
     5
100
AcDbLine
 10
-16231.73220229255
 20
17470.80300201335
 30
0.0
 11
-16106.74534678404
 21
17470.80300201335
 31
0.0
  0
LINE
  5
8C
330
2
100
AcDbEntity
  8
0Hatch
370
     5
100
AcDbLine
 10
-16106.74534678404
 20
17470.80300201335
 30
0.0
 11
-16106.74534678404
 21
17042.8076947635
 31
0.0
  0
LINE
  5
8D
330
2
100
AcDbEntity
  8
0Hatch
370
     5
100
AcDbLine
 10
-17974.73120108995
 20
17020.8076947635
 30
0.0
 11
-17810.73120108995
 21
17020.8076947635
 31
0.0
  0
LINE
  5
8E
330
2
100
AcDbEntity
  8
0Hatch
370
     5
100
AcDbLine
 10
-17810.73120108995
 20
17470.80300201335
 30
0.0
 11
-17974.73120108995
 21
17470.80300201335
 31
0.0
  0
LINE
  5
8F
330
2
100
AcDbEntity
  8
0Hatch
370
     5
100
AcDbLine
 10
-17974.73120108995
 20
17470.80300201335
 30
0.0
 11
-17974.73120108995
 21
17042.80769476351
 31
0.0
  0
LINE
  5
90
330
2
100
AcDbEntity
  8
0Hatch
370
     5
100
AcDbLine
 10
-16114.73701880896
 20
17042.80769476351
 30
0.0
 11
-16110.73701880896
 21
17042.80769476351
 31
0.0
  0
LINE
  5
91
330
2
100
AcDbEntity
  8
0Hatch
370
     5
100
AcDbLine
 10
-17970.73952906503
 20
17042.80769476351
 30
0.0
 11
-17966.73952906503
 21
17042.80769476351
 31
0.0
  0
LINE
  5
92
330
2
100
AcDbEntity
  8
0Hatch
370
     5
390
93
100
AcDbLine
 10
-17405.74014501438
 20
17170.8076947635
 30
0.0
 11
-17405.74014501438
 21
17020.80769476351
 31
0.0
  0
LINE
  5
94
330
2
100
AcDbEntity
  8
0Hatch
370
     5
390
93
100
AcDbLine
 10
-17405.74014501438
 20
17020.80769476351
 30
0.0
 11
-17383.74014501437
 21
17020.80769476351
 31
0.0
  0
LINE
  5
95
330
2
100
AcDbEntity
  8
0Hatch
370
     5
390
93
100
AcDbLine
 10
-17383.74014501437
 20
17020.80769476351
 30
0.0
 11
-17383.74014501439
 21
17170.8076947635
 31
0.0
  0
LINE
  5
96
330
2
100
AcDbEntity
  8
0Hatch
370
     5
390
93
100
AcDbLine
 10
-16106.74534678404
 20
17020.80769476351
 30
0.0
 11
-16106.74534678404
 21
17042.80769476351
 31
0.0
  0
LINE
  5
97
330
2
100
AcDbEntity
  8
0Hatch
370
     5
390
93
100
AcDbLine
 10
-16106.74534678404
 20
17042.80769476351
 30
0.0
 11
-16270.74534678404
 21
17042.80769476352
 31
0.0
  0
LINE
  5
98
330
2
100
AcDbEntity
  8
0Hatch
370
     5
390
93
100
AcDbLine
 10
-16270.74534678404
 20
17042.80769476352
 30
0.0
 11
-16270.74534678404
 21
17020.80769476352
 31
0.0
  0
LINE
  5
99
330
2
100
AcDbEntity
  8
0Hatch
370
     5
390
93
100
AcDbLine
 10
-16270.74534678404
 20
17020.80769476352
 30
0.0
 11
-16106.74534678404
 21
17020.80769476351
 31
0.0
  0
LINE
  5
9A
330
2
100
AcDbEntity
  8
0Hatch
370
     5
390
93
100
AcDbLine
 10
-17235.74014501437
 20
17020.80769476351
 30
0.0
 11
-17235.74014501437
 21
17170.8076947635
 31
0.0
  0
LINE
  5
9B
330
2
100
AcDbEntity
  8
0Hatch
370
     5
390
93
100
AcDbLine
 10
-17257.74014501437
 20
17170.8076947635
 30
0.0
 11
-17257.74014501437
 21
17020.80769476351
 31
0.0
  0
LINE
  5
9C
330
2
100
AcDbEntity
  8
0Hatch
370
     5
390
93
100
AcDbLine
 10
-17810.73120108995
 20
17042.80769476352
 30
0.0
 11
-17974.73120108995
 21
17042.80769476351
 31
0.0
  0
LINE
  5
9D
330
2
100
AcDbEntity
  8
0Hatch
370
     5
390
93
100
AcDbLine
 10
-17974.73120108995
 20
17042.80769476351
 30
0.0
 11
-17974.73120108995
 21
17020.80769476351
 31
0.0
  0
LINE
  5
9E
330
2
100
AcDbEntity
  8
0Hatch
370
     5
390
93
100
AcDbLine
 10
-17974.73120108995
 20
17020.80769476351
 30
0.0
 11
-17810.73120108995
 21
17020.80769476352
 31
0.0
  0
LINE
  5
9F
330
2
100
AcDbEntity
  8
0Hatch
370
     5
100
AcDbLine
 10
-16270.74534678404
 20
17042.80769476352
 30
0.0
 11
-16270.74534678404
 21
17105.80769476348
 31
0.0
  0
LINE
  5
A0
330
2
100
AcDbEntity
  8
0Hatch
370
     5
100
AcDbLine
 10
-17810.73120108995
 20
17020.80769476352
 30
0.0
 11
-17810.73120108995
 21
17105.80769476348
 31
0.0
  0
LINE
  5
A1
330
2
100
AcDbEntity
  8
0Hatch
370
     5
100
AcDbLine
 10
-16675.73640285961
 20
17020.8076947635
 30
0.0
 11
-16845.73640285962
 21
17020.8076947635
 31
0.0
  0
LINE
  5
A2
330
2
100
AcDbEntity
  8
0Hatch
370
     5
100
AcDbLine
 10
-16845.73640285962
 20
17020.8076947635
 30
0.0
 11
-16845.73640285962
 21
17170.80769476327
 31
0.0
  0
LINE
  5
A3
330
2
100
AcDbEntity
  8
0Hatch
370
     5
100
AcDbLine
 10
-16675.73640285961
 20
17170.8076947635
 30
0.0
 11
-16675.73640285961
 21
17020.8076947635
 31
0.0
  0
LINE
  5
A4
330
2
100
AcDbEntity
  8
0Hatch
370
     5
100
AcDbLine
 10
-16697.73640285961
 20
17028.94794301629
 30
0.0
 11
-16697.73640285961
 21
17029.94794301629
 31
0.0
  0
LINE
  5
A5
330
2
100
AcDbEntity
  8
0Hatch
370
     5
390
93
100
AcDbLine
 10
-16675.7364028596
 20
17170.8076947635
 30
0.0
 11
-16675.73640285961
 21
17020.80769476351
 31
0.0
  0
LINE
  5
A6
330
2
100
AcDbEntity
  8
0Hatch
370
     5
390
93
100
AcDbLine
 10
-16675.73640285961
 20
17020.80769476351
 30
0.0
 11
-16697.73640285961
 21
17020.80769476351
 31
0.0
  0
LINE
  5
A7
330
2
100
AcDbEntity
  8
0Hatch
370
     5
390
93
100
AcDbLine
 10
-16697.73640285961
 20
17020.80769476351
 30
0.0
 11
-16697.7364028596
 21
17170.8076947635
 31
0.0
  0
LINE
  5
A8
330
2
100
AcDbEntity
  8
0Hatch
370
     5
390
93
100
AcDbLine
 10
-16845.73640285961
 20
17020.80769476351
 30
0.0
 11
-16845.73640285962
 21
17170.8076947635
 31
0.0
  0
LINE
  5
A9
330
2
100
AcDbEntity
  8
0Hatch
370
     5
390
93
100
AcDbLine
 10
-16823.73640285962
 20
17170.8076947635
 30
0.0
 11
-16823.73640285961
 21
17020.80769476351
 31
0.0
  0
TEXT
  5
B7
330
2
100
AcDbEntity
  8
NAPISY
100
AcDbText
 10
-14485.58437914767
 20
15804.55381196084
 30
0.0
 40
100.0
  1
OŚ ODBICIA LUSTRZANEGO
 50
90.0
  7
AVA
100
AcDbText
  0
LINE
  5
B9
330
2
100
AcDbEntity
  8
NAPISY
  6
DASHED
 62
     1
 48
25.0
370
     5
100
AcDbLine
 10
-14426.06320215435
 20
14722.9066491403
 30
0.0
 11
-14426.06320215435
 21
19525.36370661769
 31
0.0
  0
LWPOLYLINE
  5
C6
330
2
100
AcDbEntity
  8
RAMKI-A4
100
AcDbPolyline
 90
        4
 70
     1
 43
0.0
 10
-19638.75239243206
 20
8709.759596591394
 10
-19638.75239243206
 20
22729.75959659139
 10
-9438.752392432034
 20
22729.75959659139
 10
-9438.752392432034
 20
8709.759596591394
  0
TEXT
  5
C8
330
2
100
AcDbEntity
  8
NAPISY
100
AcDbText
 10
-18179.40044575708
 20
9375.315679493928
 30
0.0
 40
150.0
  1
   O B R Y S   B U D Y N K U           S K A L A   1 : 5 0 0 
  7
ARIAL
100
AcDbText
  0
TEXT
  5
C9
330
2
100
AcDbEntity
  8
NAPISY
100
AcDbText
 10
-18137.5084835104
 20
22183.43807175962
 30
0.0
 40
150.0
  1
"DOM NAD BULWAREM 6"
  7
ARIAL
100
AcDbText
  0
TEXT
  5
CB
330
2
100
AcDbEntity
  8
NAPISY
100
AcDbText
 10
-18083.18739463918
 20
21838.68094037579
 30
0.0
 40
150.0
  1
MOŻNA WKLEIĆ DO PROJEKTU ZAGOSPODAROWANIA TERENU
  7
ARIAL
100
AcDbText
  0
DIMENSION
  5
CC
330
2
100
AcDbEntity
  8
-wymiary
 62
     1
370
     5
100
AcDbDimension
  2
*D4
 10
-17586.73434558143
 20
18615.77140371891
 30
0.0
 11
-17718.23934558143
 21
18695.77140371891
 31
0.0
 71
     5
 42
263.010000000002
  3
500
100
AcDbAlignedDimension
 13
-17849.74434558143
 23
18218.80769476327
 33
0.0
 14
-17586.73434558143
 24
18218.80769476327
 34
0.0
100
AcDbRotatedDimension
  0
DIMENSION
  5
D9
330
2
100
AcDbEntity
  8
-wymiary
 62
     1
370
     5
100
AcDbDimension
  2
*D5
 10
-16494.74220229256
 20
18615.77140371891
 30
0.0
 11
-17040.73827393699
 21
18695.77140371891
 31
0.0
 71
     5
 42
1091.992143288862
  3
500
100
AcDbAlignedDimension
 13
-17586.73434558143
 23
18218.80769476327
 33
0.0
 14
-16494.74220229256
 24
18318.80769476329
 34
0.0
100
AcDbRotatedDimension
  0
DIMENSION
  5
E4
330
2
100
AcDbEntity
  8
-wymiary
 62
     1
370
     5
100
AcDbDimension
  2
*D6
 10
-16231.73220229253
 20
18615.77140371891
 30
0.0
 11
-16363.23720229254
 21
18695.77140371891
 31
0.0
 71
     5
 42
263.0100000000366
  3
500
100
AcDbAlignedDimension
 13
-16494.74220229256
 23
18318.80769476329
 33
0.0
 14
-16231.73220229253
 24
18218.80769476326
 34
0.0
100
AcDbRotatedDimension
  0
DIMENSION
  5
EF
330
2
100
AcDbEntity
  8
-wymiary
 62
     1
370
     5
100
AcDbDimension
  2
*D7
 10
-16231.73220229253
 20
18814.93059405246
 30
0.0
 11
-17040.73827393698
 21
18894.93059405246
 31
0.0
 71
     5
 42
1618.012143288901
  3
500
100
AcDbAlignedDimension
 13
-17849.74434558143
 23
18218.8076947632
 33
0.0
 14
-16231.73220229253
 24
18218.80769476315
 34
0.0
100
AcDbRotatedDimension
  0
DIMENSION
  5
FA
330
2
100
AcDbEntity
  8
-wymiary
 62
     1
370
     5
100
AcDbDimension
  2
*D8
 10
-15849.92422685748
 20
18218.80769476328
 30
0.0
 11
-15929.92422685748
 21
18268.80769476328
 31
0.0
 71
     5
 42
100.0000000000073
  3
500
100
AcDbAlignedDimension
 13
-16530.43548827836
 23
18318.80769476329
 33
0.0
 14
-16494.74220229256
 24
18218.80769476328
 34
0.0
 50
90.0
100
AcDbRotatedDimension
  0
DIMENSION
  5
107
330
2
100
AcDbEntity
  8
-wymiary
 62
     1
370
     5
100
AcDbDimension
  2
*D9
 10
-15849.92422685748
 20
17105.8076947633
 30
0.0
 11
-15929.92422685748
 21
17662.30769476329
 31
0.0
 71
     5
 42
1112.999999999978
  3
500
100
AcDbAlignedDimension
 13
-16494.74220229256
 23
18218.80769476328
 33
0.0
 14
-16231.73220229256
 24
17105.8076947633
 34
0.0
 50
90.0
100
AcDbRotatedDimension
  0
DIMENSION
  5
112
330
2
100
AcDbEntity
  8
-wymiary
 62
     1
370
     5
100
AcDbDimension
  2
*D10
 10
-15670.20637596532
 20
17105.8076947633
 30
0.0
 11
-15750.20637596532
 21
17712.30769476329
 31
0.0
 71
     5
 42
1212.999999999985
  3
500
100
AcDbAlignedDimension
 13
-16622.9848269871
 23
18318.80769476329
 33
0.0
 14
-16231.73220229256
 24
17105.8076947633
 34
0.0
 50
90.0
100
AcDbRotatedDimension
  0
HATCH
  5
11D
330
2
100
AcDbEntity
  8
0Hatch
370
     5
100
AcDbHatch
 10
0.0
 20
0.0
 30
0.0
210
0.0
220
0.0
230
1.0
  2
SOLID
 70
     1
 71
     1
 91
        1
 92
        7
 72
     0
 73
     1
 93
       28
 10
-11681.38892980466
 20
17230.80769476329
 10
-11681.38892980466
 20
17170.80769476328
 10
-11367.88205872726
 20
17170.8076947633
 10
-11367.88205872726
 20
17105.8076947633
 10
-11002.38205872731
 20
17105.80769476329
 10
-11002.38205872727
 20
18218.80769476327
 10
-11265.39205872727
 20
18218.80769476327
 10
-11265.39205872727
 20
18318.80769476328
 10
-12357.38420201613
 20
18318.80769476329
 10
-12357.38420201613
 20
18218.80769476328
 10
-12620.39420201617
 20
18218.80769476326
 10
-12620.39420201613
 20
17105.8076947633
 10
-12254.89420201613
 20
17105.8076947633
 10
-12254.89420201614
 20
17170.80769476326
 10
-11941.38892980466
 20
17170.80769476327
 10
-11941.38892980466
 20
17230.80769476327
 10
-12314.89420201614
 20
17230.80769476326
 10
-12314.89420201614
 20
17165.8076947633
 10
-12560.39420201613
 20
17165.8076947633
 10
-12560.39420201617
 20
18158.80769476326
 10
-12297.38420201613
 20
18158.80769476328
 10
-12297.38420201613
 20
18258.80769476329
 10
-11325.39205872727
 20
18258.80769476329
 10
-11325.39205872727
 20
18158.80769476327
 10
-11062.38205872727
 20
18158.80769476327
 10
-11062.38205872731
 20
17165.80769476328
 10
-11307.88205872726
 20
17165.8076947633
 10
-11307.88205872726
 20
17230.8076947633
 97
        4
330
121
330
11E
330
120
330
11F
 75
     0
 76
     1
 47
1.718358882480216
 98
        1
 10
-11512.9416620353
 20
17204.3378682552
1001
ACAD
1010
0.0
1020
0.0
1030
0.0
  0
LINE
  5
11E
102
{ACAD_REACTORS
330
11D
102
}
330
2
100
AcDbEntity
  8
0Hatch
370
     5
100
AcDbLine
 10
-11941.38892980466
 20
17230.80769476327
 30
0.0
 11
-11941.38892980466
 21
17170.80769476333
 31
0.0
  0
LINE
  5
11F
102
{ACAD_REACTORS
330
11D
102
}
330
2
100
AcDbEntity
  8
0Hatch
370
     5
100
AcDbLine
 10
-11681.38892980466
 20
17170.80769476332
 30
0.0
 11
-11681.38892980466
 21
17230.80769476329
 31
0.0
  0
LWPOLYLINE
  5
120
102
{ACAD_REACTORS
330
11D
102
}
330
2
100
AcDbEntity
  8
0Hatch
370
     5
100
AcDbPolyline
 90
       12
 70
     1
 43
0.0
 10
-12357.38420201613
 20
18318.80769476329
 10
-11265.39205872727
 20
18318.80769476329
 10
-11265.39205872727
 20
18218.80769476327
 10
-11002.38205872727
 20
18218.80769476327
 10
-11002.38205872731
 20
17105.80769476329
 10
-11367.88205872726
 20
17105.8076947633
 10
-11367.88205872726
 20
17170.8076947633
 10
-12254.89420201614
 20
17170.80769476326
 10
-12254.89420201613
 20
17105.8076947633
 10
-12620.39420201613
 20
17105.8076947633
 10
-12620.39420201617
 20
18218.80769476326
 10
-12357.38420201613
 20
18218.80769476328
  0
LWPOLYLINE
  5
121
102
{ACAD_REACTORS
330
11D
102
}
330
2
100
AcDbEntity
  8
0Hatch
370
     5
100
AcDbPolyline
 90
       12
 70
     1
 43
0.0
 10
-12297.38420201613
 20
18258.80769476329
 10
-11325.39205872727
 20
18258.80769476329
 10
-11325.39205872727
 20
18158.80769476327
 10
-11062.38205872727
 20
18158.80769476327
 10
-11062.38205872731
 20
17165.80769476329
 10
-11307.88205872726
 20
17165.8076947633
 10
-11307.88205872726
 20
17230.8076947633
 10
-12314.89420201614
 20
17230.80769476326
 10
-12314.89420201614
 20
17165.8076947633
 10
-12560.39420201613
 20
17165.8076947633
 10
-12560.39420201617
 20
18158.80769476327
 10
-12297.38420201613
 20
18158.80769476328
  0
LINE
  5
122
330
2
100
AcDbEntity
  8
0Hatch
370
     5
100
AcDbLine
 10
-11446.38625929431
 20
17020.8076947635
 30
0.0
 11
-11616.38625929432
 21
17020.8076947635
 31
0.0
  0
LINE
  5
123
330
2
100
AcDbEntity
  8
0Hatch
370
     5
100
AcDbLine
 10
-11616.38625929432
 20
17020.8076947635
 30
0.0
 11
-11616.38625929433
 21
17170.8076947635
 31
0.0
  0
LINE
  5
124
330
2
100
AcDbEntity
  8
0Hatch
370
     5
100
AcDbLine
 10
-11446.38625929431
 20
17170.8076947635
 30
0.0
 11
-11446.38625929431
 21
17020.8076947635
 31
0.0
  0
LINE
  5
125
330
2
100
AcDbEntity
  8
0Hatch
370
     5
100
AcDbLine
 10
-11468.38625929432
 20
17028.94794301629
 30
0.0
 11
-11468.38625929432
 21
17029.94794301629
 31
0.0
  0
LINE
  5
126
330
2
100
AcDbEntity
  8
0Hatch
370
     5
100
AcDbLine
 10
-12745.38105752465
 20
17020.8076947635
 30
0.0
 11
-12581.38105752465
 21
17020.8076947635
 31
0.0
  0
LINE
  5
127
330
2
100
AcDbEntity
  8
0Hatch
370
     5
100
AcDbLine
 10
-12620.39420201614
 20
17470.80300201335
 30
0.0
 11
-12745.38105752465
 21
17470.80300201335
 31
0.0
  0
LINE
  5
128
330
2
100
AcDbEntity
  8
0Hatch
370
     5
100
AcDbLine
 10
-12745.38105752465
 20
17470.80300201335
 30
0.0
 11
-12745.38105752465
 21
17042.80769476351
 31
0.0
  0
LINE
  5
129
330
2
100
AcDbEntity
  8
0Hatch
370
     5
100
AcDbLine
 10
-10877.39520321875
 20
17020.8076947635
 30
0.0
 11
-11041.39520321875
 21
17020.8076947635
 31
0.0
  0
LINE
  5
12A
330
2
100
AcDbEntity
  8
0Hatch
370
     5
100
AcDbLine
 10
-11041.39520321875
 20
17470.80300201335
 30
0.0
 11
-10877.39520321875
 21
17470.80300201335
 31
0.0
  0
LINE
  5
12B
330
2
100
AcDbEntity
  8
0Hatch
370
     5
100
AcDbLine
 10
-10877.39520321875
 20
17470.80300201335
 30
0.0
 11
-10877.39520321875
 21
17042.80769476351
 31
0.0
  0
LINE
  5
12C
330
2
100
AcDbEntity
  8
0Hatch
370
     5
100
AcDbLine
 10
-12737.38938549974
 20
17042.80769476351
 30
0.0
 11
-12741.38938549974
 21
17042.80769476351
 31
0.0
  0
LINE
  5
12D
330
2
100
AcDbEntity
  8
0Hatch
370
     5
100
AcDbLine
 10
-10881.38687524367
 20
17042.80769476351
 30
0.0
 11
-10885.38687524366
 21
17042.80769476351
 31
0.0
  0
LINE
  5
12E
330
2
100
AcDbEntity
  8
0Hatch
370
     5
390
93
100
AcDbLine
 10
-11446.38625929431
 20
17170.8076947635
 30
0.0
 11
-11446.38625929432
 21
17020.80769476351
 31
0.0
  0
LINE
  5
12F
330
2
100
AcDbEntity
  8
0Hatch
370
     5
390
93
100
AcDbLine
 10
-11446.38625929432
 20
17020.80769476351
 30
0.0
 11
-11468.38625929432
 21
17020.80769476351
 31
0.0
  0
LINE
  5
130
330
2
100
AcDbEntity
  8
0Hatch
370
     5
390
93
100
AcDbLine
 10
-11468.38625929432
 20
17020.80769476351
 30
0.0
 11
-11468.38625929431
 21
17170.8076947635
 31
0.0
  0
LINE
  5
131
330
2
100
AcDbEntity
  8
0Hatch
370
     5
390
93
100
AcDbLine
 10
-12745.38105752465
 20
17020.80769476351
 30
0.0
 11
-12745.38105752465
 21
17042.80769476351
 31
0.0
  0
LINE
  5
132
330
2
100
AcDbEntity
  8
0Hatch
370
     5
390
93
100
AcDbLine
 10
-12745.38105752465
 20
17042.80769476351
 30
0.0
 11
-12581.38105752465
 21
17042.80769476352
 31
0.0
  0
LINE
  5
133
330
2
100
AcDbEntity
  8
0Hatch
370
     5
390
93
100
AcDbLine
 10
-12581.38105752465
 20
17042.80769476352
 30
0.0
 11
-12581.38105752465
 21
17020.80769476352
 31
0.0
  0
LINE
  5
134
330
2
100
AcDbEntity
  8
0Hatch
370
     5
390
93
100
AcDbLine
 10
-12581.38105752465
 20
17020.80769476352
 30
0.0
 11
-12745.38105752465
 21
17020.80769476351
 31
0.0
  0
LINE
  5
135
330
2
100
AcDbEntity
  8
0Hatch
370
     5
390
93
100
AcDbLine
 10
-11616.38625929432
 20
17020.80769476351
 30
0.0
 11
-11616.38625929433
 21
17170.8076947635
 31
0.0
  0
LINE
  5
136
330
2
100
AcDbEntity
  8
0Hatch
370
     5
390
93
100
AcDbLine
 10
-11594.38625929433
 20
17170.8076947635
 30
0.0
 11
-11594.38625929432
 21
17020.80769476351
 31
0.0
  0
LINE
  5
137
330
2
100
AcDbEntity
  8
0Hatch
370
     5
390
93
100
AcDbLine
 10
-11041.39520321875
 20
17042.80769476352
 30
0.0
 11
-10877.39520321875
 21
17042.80769476351
 31
0.0
  0
LINE
  5
138
330
2
100
AcDbEntity
  8
0Hatch
370
     5
390
93
100
AcDbLine
 10
-10877.39520321875
 20
17042.80769476351
 30
0.0
 11
-10877.39520321875
 21
17020.80769476351
 31
0.0
  0
LINE
  5
139
330
2
100
AcDbEntity
  8
0Hatch
370
     5
390
93
100
AcDbLine
 10
-10877.39520321875
 20
17020.80769476351
 30
0.0
 11
-11041.39520321875
 21
17020.80769476352
 31
0.0
  0
LINE
  5
13A
330
2
100
AcDbEntity
  8
0Hatch
370
     5
100
AcDbLine
 10
-12581.38105752465
 20
17042.80769476352
 30
0.0
 11
-12581.38105752466
 21
17105.80769476348
 31
0.0
  0
LINE
  5
13B
330
2
100
AcDbEntity
  8
0Hatch
370
     5
100
AcDbLine
 10
-11041.39520321875
 20
17020.80769476352
 30
0.0
 11
-11041.39520321875
 21
17105.80769476348
 31
0.0
  0
LINE
  5
13C
330
2
100
AcDbEntity
  8
0Hatch
370
     5
100
AcDbLine
 10
-12176.39000144909
 20
17020.8076947635
 30
0.0
 11
-12006.39000144908
 21
17020.8076947635
 31
0.0
  0
LINE
  5
13D
330
2
100
AcDbEntity
  8
0Hatch
370
     5
100
AcDbLine
 10
-12006.39000144908
 20
17020.8076947635
 30
0.0
 11
-12006.39000144908
 21
17170.80769476327
 31
0.0
  0
LINE
  5
13E
330
2
100
AcDbEntity
  8
0Hatch
370
     5
100
AcDbLine
 10
-12176.39000144909
 20
17170.8076947635
 30
0.0
 11
-12176.39000144909
 21
17020.8076947635
 31
0.0
  0
LINE
  5
13F
330
2
100
AcDbEntity
  8
0Hatch
370
     5
100
AcDbLine
 10
-12154.39000144908
 20
17028.94794301629
 30
0.0
 11
-12154.39000144908
 21
17029.94794301629
 31
0.0
  0
LINE
  5
140
330
2
100
AcDbEntity
  8
0Hatch
370
     5
390
93
100
AcDbLine
 10
-12176.39000144909
 20
17170.8076947635
 30
0.0
 11
-12176.39000144908
 21
17020.80769476351
 31
0.0
  0
LINE
  5
141
330
2
100
AcDbEntity
  8
0Hatch
370
     5
390
93
100
AcDbLine
 10
-12176.39000144908
 20
17020.80769476351
 30
0.0
 11
-12154.39000144908
 21
17020.80769476351
 31
0.0
  0
LINE
  5
142
330
2
100
AcDbEntity
  8
0Hatch
370
     5
390
93
100
AcDbLine
 10
-12154.39000144908
 20
17020.80769476351
 30
0.0
 11
-12154.39000144909
 21
17170.8076947635
 31
0.0
  0
LINE
  5
143
330
2
100
AcDbEntity
  8
0Hatch
370
     5
390
93
100
AcDbLine
 10
-12006.39000144908
 20
17020.80769476351
 30
0.0
 11
-12006.39000144908
 21
17170.8076947635
 31
0.0
  0
LINE
  5
144
330
2
100
AcDbEntity
  8
0Hatch
370
     5
390
93
100
AcDbLine
 10
-12028.39000144908
 20
17170.8076947635
 30
0.0
 11
-12028.39000144908
 21
17020.80769476351
 31
0.0
  0
DIMENSION
  5
145
330
2
100
AcDbEntity
  8
-wymiary
 62
     1
370
     5
100
AcDbDimension
  2
*D11
 10
-11265.39205872727
 20
18615.77140371891
 30
0.0
 11
-11133.88705872727
 21
18695.77140371891
 31
0.0
 71
     5
 42
263.010000000002
  3
500
100
AcDbAlignedDimension
 13
-11002.38205872727
 23
18218.80769476327
 33
0.0
 14
-11265.39205872727
 24
18218.80769476327
 34
0.0
 50
180.0
100
AcDbRotatedDimension
  0
DIMENSION
  5
150
330
2
100
AcDbEntity
  8
-wymiary
 62
     1
370
     5
100
AcDbDimension
  2
*D12
 10
-12357.38420201613
 20
18615.77140371891
 30
0.0
 11
-11811.3881303717
 21
18695.77140371891
 31
0.0
 71
     5
 42
1091.992143288862
  3
500
100
AcDbAlignedDimension
 13
-11265.39205872727
 23
18218.80769476327
 33
0.0
 14
-12357.38420201613
 24
18318.80769476329
 34
0.0
 50
180.0
100
AcDbRotatedDimension
  0
DIMENSION
  5
15B
330
2
100
AcDbEntity
  8
-wymiary
 62
     1
370
     5
100
AcDbDimension
  2
*D13
 10
-12620.39420201617
 20
18615.77140371891
 30
0.0
 11
-12488.88920201615
 21
18695.77140371891
 31
0.0
 71
     5
 42
263.0100000000366
  3
500
100
AcDbAlignedDimension
 13
-12357.38420201613
 23
18318.80769476329
 33
0.0
 14
-12620.39420201617
 24
18218.80769476326
 34
0.0
 50
180.0
100
AcDbRotatedDimension
  0
DIMENSION
  5
166
330
2
100
AcDbEntity
  8
-wymiary
 62
     1
370
     5
100
AcDbDimension
  2
*D14
 10
-12620.39420201617
 20
18814.93059405246
 30
0.0
 11
-11811.38813037172
 21
18894.93059405246
 31
0.0
 71
     5
 42
1618.012143288901
  3
500
100
AcDbAlignedDimension
 13
-11002.38205872727
 23
18218.8076947632
 33
0.0
 14
-12620.39420201617
 24
18218.80769476315
 34
0.0
 50
180.0
100
AcDbRotatedDimension
  0
DIMENSION
  5
171
330
2
100
AcDbEntity
  8
-wymiary
 62
     1
370
     5
100
AcDbDimension
  2
*D15
 10
-13002.20217745122
 20
18218.80769476328
 30
0.0
 11
-13082.20217745122
 21
18268.80769476328
 31
0.0
 71
     5
 42
100.0000000000073
  3
500
100
AcDbAlignedDimension
 13
-12321.69091603034
 23
18318.80769476329
 33
0.0
 14
-12357.38420201613
 24
18218.80769476328
 34
0.0
 50
90.0
100
AcDbRotatedDimension
  0
DIMENSION
  5
17E
330
2
100
AcDbEntity
  8
-wymiary
 62
     1
370
     5
100
AcDbDimension
  2
*D16
 10
-13002.20217745122
 20
17105.8076947633
 30
0.0
 11
-13082.20217745122
 21
17662.30769476329
 31
0.0
 71
     5
 42
1112.999999999978
  3
500
100
AcDbAlignedDimension
 13
-12357.38420201613
 23
18218.80769476328
 33
0.0
 14
-12620.39420201613
 24
17105.8076947633
 34
0.0
 50
90.0
100
AcDbRotatedDimension
  0
DIMENSION
  5
189
330
2
100
AcDbEntity
  8
-wymiary
 62
     1
370
     5
100
AcDbDimension
  2
*D17
 10
-13181.92002834338
 20
17105.8076947633
 30
0.0
 11
-13261.92002834338
 21
17712.30769476329
 31
0.0
 71
     5
 42
1212.999999999985
  3
500
100
AcDbAlignedDimension
 13
-12229.1415773216
 23
18318.80769476329
 33
0.0
 14
-12620.39420201613
 24
17105.8076947633
 34
0.0
 50
90.0
100
AcDbRotatedDimension
  0
LINE
  5
194
330
2
100
AcDbEntity
  8
0Hatch
370
     5
100
AcDbLine
 10
-17071.73662706408
 20
18445.30076609576
 30
0.0
 11
-17071.73662706408
 21
18440.30076609576
 31
0.0
  0
LINE
  5
195
330
2
100
AcDbEntity
  8
0Hatch
370
     5
100
AcDbLine
 10
-17086.73662706408
 20
18440.30076609576
 30
0.0
 11
-17066.73662706408
 21
18440.30076609576
 31
0.0
  0
LINE
  5
196
330
2
100
AcDbEntity
  8
0Hatch
370
     5
100
AcDbLine
 10
-17081.73662706408
 20
18440.30076609576
 30
0.0
 11
-17081.73662706408
 21
18445.30076609576
 31
0.0
  0
LINE
  5
197
330
2
100
AcDbEntity
  8
0Hatch
370
     5
100
AcDbLine
 10
-17086.73662706408
 20
18445.30076609576
 30
0.0
 11
-17066.73662706408
 21
18445.30076609576
 31
0.0
  0
LINE
  5
198
330
2
100
AcDbEntity
  8
0Hatch
370
     5
100
AcDbLine
 10
-17066.73662706408
 20
18440.30076609576
 30
0.0
 11
-17066.73662706408
 21
18445.30076609576
 31
0.0
  0
LINE
  5
199
330
2
100
AcDbEntity
  8
0Hatch
370
     5
100
AcDbLine
 10
-17086.73662706408
 20
18445.30076609576
 30
0.0
 11
-17086.73662706408
 21
18440.30076609576
 31
0.0
  0
LINE
  5
19A
330
2
100
AcDbEntity
  8
0Hatch
370
     5
100
AcDbLine
 10
-17270.94683519166
 20
18445.30076609576
 30
0.0
 11
-17270.94683519166
 21
18440.30076609576
 31
0.0
  0
LINE
  5
19B
330
2
100
AcDbEntity
  8
0Hatch
370
     5
100
AcDbLine
 10
-17285.94683519166
 20
18440.30076609576
 30
0.0
 11
-17265.94683519166
 21
18440.30076609576
 31
0.0
  0
LINE
  5
19C
330
2
100
AcDbEntity
  8
0Hatch
370
     5
100
AcDbLine
 10
-17280.94683519166
 20
18440.30076609576
 30
0.0
 11
-17280.94683519166
 21
18445.30076609576
 31
0.0
  0
LINE
  5
19D
330
2
100
AcDbEntity
  8
0Hatch
370
     5
100
AcDbLine
 10
-17285.94683519166
 20
18445.30076609576
 30
0.0
 11
-17265.94683519166
 21
18445.30076609576
 31
0.0
  0
LINE
  5
19E
330
2
100
AcDbEntity
  8
0Hatch
370
     5
100
AcDbLine
 10
-17265.94683519166
 20
18440.30076609576
 30
0.0
 11
-17265.94683519166
 21
18445.30076609576
 31
0.0
  0
LINE
  5
19F
330
2
100
AcDbEntity
  8
0Hatch
370
     5
100
AcDbLine
 10
-17285.94683519166
 20
18445.30076609576
 30
0.0
 11
-17285.94683519166
 21
18440.30076609576
 31
0.0
  0
LINE
  5
1A0
330
2
100
AcDbEntity
  8
0Hatch
370
     5
100
AcDbLine
 10
-17051.73667507108
 20
18444.80076609577
 30
0.0
 11
-17066.73662706408
 21
18444.80076609577
 31
0.0
  0
LINE
  5
1A1
330
2
100
AcDbEntity
  8
0Hatch
370
     5
100
AcDbLine
 10
-17086.73662706408
 20
18444.80076609577
 30
0.0
 11
-17265.94683519166
 21
18444.80076609576
 31
0.0
  0
LINE
  5
1A2
330
2
100
AcDbEntity
  8
0Hatch
370
     5
100
AcDbLine
 10
-17285.94683519166
 20
18444.80076609576
 30
0.0
 11
-17465.74279472252
 21
18444.80076609576
 31
0.0
  0
LINE
  5
1A3
330
2
100
AcDbEntity
  8
0Hatch
370
     5
100
AcDbLine
 10
-17485.74279472252
 20
18444.80076609576
 30
0.0
 11
-17500.73434558142
 21
18444.80076609576
 31
0.0
  0
LINE
  5
1A4
330
2
100
AcDbEntity
  8
0Hatch
370
     5
100
AcDbLine
 10
-17500.73434558142
 20
18440.80076609575
 30
0.0
 11
-17485.74279472252
 21
18440.80076609575
 31
0.0
  0
LINE
  5
1A5
330
2
100
AcDbEntity
  8
0Hatch
370
     5
100
AcDbLine
 10
-17465.74279472252
 20
18440.80076609575
 30
0.0
 11
-17285.94683519166
 21
18440.80076609576
 31
0.0
  0
LINE
  5
1A6
330
2
100
AcDbEntity
  8
0Hatch
370
     5
100
AcDbLine
 10
-17265.94683519166
 20
18440.80076609576
 30
0.0
 11
-17086.73662706408
 21
18440.80076609577
 31
0.0
  0
LINE
  5
1A7
330
2
100
AcDbEntity
  8
0Hatch
370
     5
100
AcDbLine
 10
-17066.73662706408
 20
18440.80076609577
 30
0.0
 11
-17051.73667507108
 21
18440.80076609577
 31
0.0
  0
LINE
  5
1A8
330
2
100
AcDbEntity
  8
0Hatch
370
     5
100
AcDbLine
 10
-17029.73667507109
 20
18318.8076947633
 30
0.0
 11
-17029.73667507109
 21
18453.80769476331
 31
0.0
  0
LINE
  5
1A9
330
2
100
AcDbEntity
  8
0Hatch
370
     5
100
AcDbLine
 10
-17051.73667507108
 20
18453.80769476331
 30
0.0
 11
-17051.73667507108
 21
18318.8076947633
 31
0.0
  0
LINE
  5
1AA
330
2
100
AcDbEntity
  8
0Hatch
370
     5
390
93
100
AcDbLine
 10
-17051.73667507108
 20
18453.80769476331
 30
0.0
 11
-17500.73434558142
 21
18453.80769476329
 31
0.0
  0
LINE
  5
1AB
330
2
100
AcDbEntity
  8
0Hatch
370
     5
100
AcDbLine
 10
-17522.73434558142
 20
18318.80769476329
 30
0.0
 11
-17522.73434558142
 21
18453.80769476329
 31
0.0
  0
LINE
  5
1AC
330
2
100
AcDbEntity
  8
0Hatch
370
     5
100
AcDbLine
 10
-17500.73434558142
 20
18318.80769476329
 30
0.0
 11
-17500.73434558142
 21
18453.80769476329
 31
0.0
  0
LINE
  5
1AD
330
2
100
AcDbEntity
  8
0Hatch
370
     5
100
AcDbLine
 10
-17500.73434558142
 20
18453.80769476329
 30
0.0
 11
-17522.73434558142
 21
18453.80769476329
 31
0.0
  0
LINE
  5
1AE
330
2
100
AcDbEntity
  8
0Hatch
370
     5
100
AcDbLine
 10
-17465.74279472252
 20
18440.30076609576
 30
0.0
 11
-17485.74279472252
 21
18440.30076609576
 31
0.0
  0
LINE
  5
1AF
330
2
100
AcDbEntity
  8
0Hatch
370
     5
100
AcDbLine
 10
-17465.74279472252
 20
18445.30076609576
 30
0.0
 11
-17485.74279472252
 21
18445.30076609576
 31
0.0
  0
LINE
  5
1B0
330
2
100
AcDbEntity
  8
0Hatch
370
     5
100
AcDbLine
 10
-17485.74279472252
 20
18440.30076609576
 30
0.0
 11
-17485.74279472252
 21
18445.30076609576
 31
0.0
  0
LINE
  5
1B1
330
2
100
AcDbEntity
  8
0Hatch
370
     5
100
AcDbLine
 10
-17051.73667507108
 20
18453.80769476331
 30
0.0
 11
-17029.73667507109
 21
18453.80769476331
 31
0.0
  0
LINE
  5
1B2
330
2
100
AcDbEntity
  8
0Hatch
370
     5
100
AcDbLine
 10
-17009.73672307809
 20
18445.30076609576
 30
0.0
 11
-17009.73672307809
 21
18440.30076609576
 31
0.0
  0
LINE
  5
1B3
330
2
100
AcDbEntity
  8
0Hatch
370
     5
100
AcDbLine
 10
-16994.73672307809
 20
18440.30076609576
 30
0.0
 11
-17014.73672307809
 21
18440.30076609576
 31
0.0
  0
LINE
  5
1B4
330
2
100
AcDbEntity
  8
0Hatch
370
     5
100
AcDbLine
 10
-16999.73672307809
 20
18440.30076609576
 30
0.0
 11
-16999.73672307809
 21
18445.30076609576
 31
0.0
  0
LINE
  5
1B5
330
2
100
AcDbEntity
  8
0Hatch
370
     5
100
AcDbLine
 10
-16994.73672307809
 20
18445.30076609576
 30
0.0
 11
-17014.73672307809
 21
18445.30076609576
 31
0.0
  0
LINE
  5
1B6
330
2
100
AcDbEntity
  8
0Hatch
370
     5
100
AcDbLine
 10
-17014.73672307809
 20
18440.30076609576
 30
0.0
 11
-17014.73672307809
 21
18445.30076609576
 31
0.0
  0
LINE
  5
1B7
330
2
100
AcDbEntity
  8
0Hatch
370
     5
100
AcDbLine
 10
-16994.73672307809
 20
18445.30076609576
 30
0.0
 11
-16994.73672307809
 21
18440.30076609576
 31
0.0
  0
LINE
  5
1B8
330
2
100
AcDbEntity
  8
0Hatch
370
     5
100
AcDbLine
 10
-16810.52651495051
 20
18445.30076609576
 30
0.0
 11
-16810.52651495051
 21
18440.30076609576
 31
0.0
  0
LINE
  5
1B9
330
2
100
AcDbEntity
  8
0Hatch
370
     5
100
AcDbLine
 10
-16795.52651495051
 20
18440.30076609576
 30
0.0
 11
-16815.52651495051
 21
18440.30076609576
 31
0.0
  0
LINE
  5
1BA
330
2
100
AcDbEntity
  8
0Hatch
370
     5
100
AcDbLine
 10
-16800.52651495051
 20
18440.30076609576
 30
0.0
 11
-16800.52651495051
 21
18445.30076609576
 31
0.0
  0
LINE
  5
1BB
330
2
100
AcDbEntity
  8
0Hatch
370
     5
100
AcDbLine
 10
-16795.52651495051
 20
18445.30076609576
 30
0.0
 11
-16815.52651495051
 21
18445.30076609576
 31
0.0
  0
LINE
  5
1BC
330
2
100
AcDbEntity
  8
0Hatch
370
     5
100
AcDbLine
 10
-16815.52651495051
 20
18440.30076609576
 30
0.0
 11
-16815.52651495051
 21
18445.30076609576
 31
0.0
  0
LINE
  5
1BD
330
2
100
AcDbEntity
  8
0Hatch
370
     5
100
AcDbLine
 10
-16795.52651495051
 20
18445.30076609576
 30
0.0
 11
-16795.52651495051
 21
18440.30076609576
 31
0.0
  0
LINE
  5
1BE
330
2
100
AcDbEntity
  8
0Hatch
370
     5
100
AcDbLine
 10
-17029.73667507109
 20
18444.80076609577
 30
0.0
 11
-17014.73672307809
 21
18444.80076609577
 31
0.0
  0
LINE
  5
1BF
330
2
100
AcDbEntity
  8
0Hatch
370
     5
100
AcDbLine
 10
-16994.73672307809
 20
18444.80076609577
 30
0.0
 11
-16815.52651495051
 21
18444.80076609576
 31
0.0
  0
LINE
  5
1C0
330
2
100
AcDbEntity
  8
0Hatch
370
     5
100
AcDbLine
 10
-16795.52651495051
 20
18444.80076609576
 30
0.0
 11
-16615.73055541965
 21
18444.80076609576
 31
0.0
  0
LINE
  5
1C1
330
2
100
AcDbEntity
  8
0Hatch
370
     5
100
AcDbLine
 10
-16595.73055541965
 20
18444.80076609576
 30
0.0
 11
-16580.73900456074
 21
18444.80076609576
 31
0.0
  0
LINE
  5
1C2
330
2
100
AcDbEntity
  8
0Hatch
370
     5
100
AcDbLine
 10
-16580.73900456074
 20
18440.80076609575
 30
0.0
 11
-16595.73055541965
 21
18440.80076609575
 31
0.0
  0
LINE
  5
1C3
330
2
100
AcDbEntity
  8
0Hatch
370
     5
100
AcDbLine
 10
-16615.73055541965
 20
18440.80076609575
 30
0.0
 11
-16795.52651495051
 21
18440.80076609576
 31
0.0
  0
LINE
  5
1C4
330
2
100
AcDbEntity
  8
0Hatch
370
     5
100
AcDbLine
 10
-16815.52651495051
 20
18440.80076609576
 30
0.0
 11
-16994.73672307809
 21
18440.80076609577
 31
0.0
  0
LINE
  5
1C5
330
2
100
AcDbEntity
  8
0Hatch
370
     5
100
AcDbLine
 10
-17014.73672307809
 20
18440.80076609577
 30
0.0
 11
-17029.73667507109
 21
18440.80076609577
 31
0.0
  0
LINE
  5
1C6
330
2
100
AcDbEntity
  8
0Hatch
370
     5
390
93
100
AcDbLine
 10
-17029.73667507109
 20
18453.80769476331
 30
0.0
 11
-16580.73900456074
 21
18453.80769476329
 31
0.0
  0
LINE
  5
1C7
330
2
100
AcDbEntity
  8
0Hatch
370
     5
100
AcDbLine
 10
-16558.73900456074
 20
18318.80769476329
 30
0.0
 11
-16558.73900456074
 21
18453.80769476329
 31
0.0
  0
LINE
  5
1C8
330
2
100
AcDbEntity
  8
0Hatch
370
     5
100
AcDbLine
 10
-16580.73900456074
 20
18318.80769476329
 30
0.0
 11
-16580.73900456074
 21
18453.80769476329
 31
0.0
  0
LINE
  5
1C9
330
2
100
AcDbEntity
  8
0Hatch
370
     5
100
AcDbLine
 10
-16580.73900456074
 20
18453.80769476329
 30
0.0
 11
-16558.73900456074
 21
18453.80769476329
 31
0.0
  0
LINE
  5
1CA
330
2
100
AcDbEntity
  8
0Hatch
370
     5
100
AcDbLine
 10
-16600.73055541965
 20
18445.30076609576
 30
0.0
 11
-16600.73055541965
 21
18440.30076609576
 31
0.0
  0
LINE
  5
1CB
330
2
100
AcDbEntity
  8
0Hatch
370
     5
100
AcDbLine
 10
-16615.73055541965
 20
18440.30076609576
 30
0.0
 11
-16595.73055541965
 21
18440.30076609576
 31
0.0
  0
LINE
  5
1CC
330
2
100
AcDbEntity
  8
0Hatch
370
     5
100
AcDbLine
 10
-16610.73055541965
 20
18440.30076609576
 30
0.0
 11
-16610.73055541965
 21
18445.30076609576
 31
0.0
  0
LINE
  5
1CD
330
2
100
AcDbEntity
  8
0Hatch
370
     5
100
AcDbLine
 10
-16615.73055541965
 20
18445.30076609576
 30
0.0
 11
-16595.73055541965
 21
18445.30076609576
 31
0.0
  0
LINE
  5
1CE
330
2
100
AcDbEntity
  8
0Hatch
370
     5
100
AcDbLine
 10
-16595.73055541965
 20
18440.30076609576
 30
0.0
 11
-16595.73055541965
 21
18445.30076609576
 31
0.0
  0
LINE
  5
1CF
330
2
100
AcDbEntity
  8
0Hatch
370
     5
100
AcDbLine
 10
-16615.73055541965
 20
18445.30076609576
 30
0.0
 11
-16615.73055541965
 21
18440.30076609576
 31
0.0
  0
LINE
  5
1D0
330
2
100
AcDbEntity
  8
0Hatch
370
     5
100
AcDbLine
 10
-11842.38648349879
 20
18445.30076609576
 30
0.0
 11
-11842.38648349879
 21
18440.30076609576
 31
0.0
  0
LINE
  5
1D1
330
2
100
AcDbEntity
  8
0Hatch
370
     5
100
AcDbLine
 10
-11857.38648349879
 20
18440.30076609576
 30
0.0
 11
-11837.38648349879
 21
18440.30076609576
 31
0.0
  0
LINE
  5
1D2
330
2
100
AcDbEntity
  8
0Hatch
370
     5
100
AcDbLine
 10
-11852.38648349878
 20
18440.30076609576
 30
0.0
 11
-11852.38648349878
 21
18445.30076609576
 31
0.0
  0
LINE
  5
1D3
330
2
100
AcDbEntity
  8
0Hatch
370
     5
100
AcDbLine
 10
-11857.38648349879
 20
18445.30076609576
 30
0.0
 11
-11837.38648349879
 21
18445.30076609576
 31
0.0
  0
LINE
  5
1D4
330
2
100
AcDbEntity
  8
0Hatch
370
     5
100
AcDbLine
 10
-11837.38648349879
 20
18440.30076609576
 30
0.0
 11
-11837.38648349879
 21
18445.30076609576
 31
0.0
  0
LINE
  5
1D5
330
2
100
AcDbEntity
  8
0Hatch
370
     5
100
AcDbLine
 10
-11857.38648349879
 20
18445.30076609576
 30
0.0
 11
-11857.38648349879
 21
18440.30076609576
 31
0.0
  0
LINE
  5
1D6
330
2
100
AcDbEntity
  8
0Hatch
370
     5
100
AcDbLine
 10
-12041.59669162637
 20
18445.30076609576
 30
0.0
 11
-12041.59669162637
 21
18440.30076609576
 31
0.0
  0
LINE
  5
1D7
330
2
100
AcDbEntity
  8
0Hatch
370
     5
100
AcDbLine
 10
-12056.59669162637
 20
18440.30076609576
 30
0.0
 11
-12036.59669162637
 21
18440.30076609576
 31
0.0
  0
LINE
  5
1D8
330
2
100
AcDbEntity
  8
0Hatch
370
     5
100
AcDbLine
 10
-12051.59669162637
 20
18440.30076609576
 30
0.0
 11
-12051.59669162637
 21
18445.30076609576
 31
0.0
  0
LINE
  5
1D9
330
2
100
AcDbEntity
  8
0Hatch
370
     5
100
AcDbLine
 10
-12056.59669162637
 20
18445.30076609576
 30
0.0
 11
-12036.59669162637
 21
18445.30076609576
 31
0.0
  0
LINE
  5
1DA
330
2
100
AcDbEntity
  8
0Hatch
370
     5
100
AcDbLine
 10
-12036.59669162637
 20
18440.30076609576
 30
0.0
 11
-12036.59669162637
 21
18445.30076609576
 31
0.0
  0
LINE
  5
1DB
330
2
100
AcDbEntity
  8
0Hatch
370
     5
100
AcDbLine
 10
-12056.59669162637
 20
18445.30076609576
 30
0.0
 11
-12056.59669162637
 21
18440.30076609576
 31
0.0
  0
LINE
  5
1DC
330
2
100
AcDbEntity
  8
0Hatch
370
     5
100
AcDbLine
 10
-11822.38653150579
 20
18444.80076609577
 30
0.0
 11
-11837.38648349879
 21
18444.80076609577
 31
0.0
  0
LINE
  5
1DD
330
2
100
AcDbEntity
  8
0Hatch
370
     5
100
AcDbLine
 10
-11857.38648349879
 20
18444.80076609577
 30
0.0
 11
-12036.59669162637
 21
18444.80076609576
 31
0.0
  0
LINE
  5
1DE
330
2
100
AcDbEntity
  8
0Hatch
370
     5
100
AcDbLine
 10
-12056.59669162637
 20
18444.80076609576
 30
0.0
 11
-12236.39265115723
 21
18444.80076609576
 31
0.0
  0
LINE
  5
1DF
330
2
100
AcDbEntity
  8
0Hatch
370
     5
100
AcDbLine
 10
-12256.39265115723
 20
18444.80076609576
 30
0.0
 11
-12271.38420201613
 21
18444.80076609576
 31
0.0
  0
LINE
  5
1E0
330
2
100
AcDbEntity
  8
0Hatch
370
     5
100
AcDbLine
 10
-12271.38420201613
 20
18440.80076609575
 30
0.0
 11
-12256.39265115723
 21
18440.80076609575
 31
0.0
  0
LINE
  5
1E1
330
2
100
AcDbEntity
  8
0Hatch
370
     5
100
AcDbLine
 10
-12236.39265115723
 20
18440.80076609575
 30
0.0
 11
-12056.59669162637
 21
18440.80076609576
 31
0.0
  0
LINE
  5
1E2
330
2
100
AcDbEntity
  8
0Hatch
370
     5
100
AcDbLine
 10
-12036.59669162637
 20
18440.80076609576
 30
0.0
 11
-11857.38648349879
 21
18440.80076609577
 31
0.0
  0
LINE
  5
1E3
330
2
100
AcDbEntity
  8
0Hatch
370
     5
100
AcDbLine
 10
-11837.38648349879
 20
18440.80076609577
 30
0.0
 11
-11822.38653150579
 21
18440.80076609577
 31
0.0
  0
LINE
  5
1E4
330
2
100
AcDbEntity
  8
0Hatch
370
     5
100
AcDbLine
 10
-11800.38653150579
 20
18318.8076947633
 30
0.0
 11
-11800.38653150579
 21
18453.80769476331
 31
0.0
  0
LINE
  5
1E5
330
2
100
AcDbEntity
  8
0Hatch
370
     5
100
AcDbLine
 10
-11822.38653150579
 20
18453.80769476331
 30
0.0
 11
-11822.38653150579
 21
18318.8076947633
 31
0.0
  0
LINE
  5
1E6
330
2
100
AcDbEntity
  8
0Hatch
370
     5
390
93
100
AcDbLine
 10
-11822.38653150579
 20
18453.80769476331
 30
0.0
 11
-12271.38420201613
 21
18453.80769476329
 31
0.0
  0
LINE
  5
1E7
330
2
100
AcDbEntity
  8
0Hatch
370
     5
100
AcDbLine
 10
-12293.38420201613
 20
18318.80769476329
 30
0.0
 11
-12293.38420201613
 21
18453.80769476329
 31
0.0
  0
LINE
  5
1E8
330
2
100
AcDbEntity
  8
0Hatch
370
     5
100
AcDbLine
 10
-12271.38420201613
 20
18318.80769476329
 30
0.0
 11
-12271.38420201613
 21
18453.80769476329
 31
0.0
  0
LINE
  5
1E9
330
2
100
AcDbEntity
  8
0Hatch
370
     5
100
AcDbLine
 10
-12271.38420201613
 20
18453.80769476329
 30
0.0
 11
-12293.38420201613
 21
18453.80769476329
 31
0.0
  0
LINE
  5
1EA
330
2
100
AcDbEntity
  8
0Hatch
370
     5
100
AcDbLine
 10
-12236.39265115723
 20
18440.30076609576
 30
0.0
 11
-12256.39265115723
 21
18440.30076609576
 31
0.0
  0
LINE
  5
1EB
330
2
100
AcDbEntity
  8
0Hatch
370
     5
100
AcDbLine
 10
-12236.39265115723
 20
18445.30076609576
 30
0.0
 11
-12256.39265115723
 21
18445.30076609576
 31
0.0
  0
LINE
  5
1EC
330
2
100
AcDbEntity
  8
0Hatch
370
     5
100
AcDbLine
 10
-12256.39265115723
 20
18440.30076609576
 30
0.0
 11
-12256.39265115723
 21
18445.30076609576
 31
0.0
  0
LINE
  5
1ED
330
2
100
AcDbEntity
  8
0Hatch
370
     5
100
AcDbLine
 10
-11822.38653150579
 20
18453.80769476331
 30
0.0
 11
-11800.38653150579
 21
18453.80769476331
 31
0.0
  0
LINE
  5
1EE
330
2
100
AcDbEntity
  8
0Hatch
370
     5
100
AcDbLine
 10
-11780.3865795128
 20
18445.30076609576
 30
0.0
 11
-11780.3865795128
 21
18440.30076609576
 31
0.0
  0
LINE
  5
1EF
330
2
100
AcDbEntity
  8
0Hatch
370
     5
100
AcDbLine
 10
-11765.3865795128
 20
18440.30076609576
 30
0.0
 11
-11785.3865795128
 21
18440.30076609576
 31
0.0
  0
LINE
  5
1F0
330
2
100
AcDbEntity
  8
0Hatch
370
     5
100
AcDbLine
 10
-11770.3865795128
 20
18440.30076609576
 30
0.0
 11
-11770.3865795128
 21
18445.30076609576
 31
0.0
  0
LINE
  5
1F1
330
2
100
AcDbEntity
  8
0Hatch
370
     5
100
AcDbLine
 10
-11765.3865795128
 20
18445.30076609576
 30
0.0
 11
-11785.3865795128
 21
18445.30076609576
 31
0.0
  0
LINE
  5
1F2
330
2
100
AcDbEntity
  8
0Hatch
370
     5
100
AcDbLine
 10
-11785.3865795128
 20
18440.30076609576
 30
0.0
 11
-11785.3865795128
 21
18445.30076609576
 31
0.0
  0
LINE
  5
1F3
330
2
100
AcDbEntity
  8
0Hatch
370
     5
100
AcDbLine
 10
-11765.3865795128
 20
18445.30076609576
 30
0.0
 11
-11765.3865795128
 21
18440.30076609576
 31
0.0
  0
LINE
  5
1F4
330
2
100
AcDbEntity
  8
0Hatch
370
     5
100
AcDbLine
 10
-11581.17637138522
 20
18445.30076609576
 30
0.0
 11
-11581.17637138522
 21
18440.30076609576
 31
0.0
  0
LINE
  5
1F5
330
2
100
AcDbEntity
  8
0Hatch
370
     5
100
AcDbLine
 10
-11566.17637138522
 20
18440.30076609576
 30
0.0
 11
-11586.17637138522
 21
18440.30076609576
 31
0.0
  0
LINE
  5
1F6
330
2
100
AcDbEntity
  8
0Hatch
370
     5
100
AcDbLine
 10
-11571.17637138522
 20
18440.30076609576
 30
0.0
 11
-11571.17637138522
 21
18445.30076609576
 31
0.0
  0
LINE
  5
1F7
330
2
100
AcDbEntity
  8
0Hatch
370
     5
100
AcDbLine
 10
-11566.17637138522
 20
18445.30076609576
 30
0.0
 11
-11586.17637138522
 21
18445.30076609576
 31
0.0
  0
LINE
  5
1F8
330
2
100
AcDbEntity
  8
0Hatch
370
     5
100
AcDbLine
 10
-11586.17637138522
 20
18440.30076609576
 30
0.0
 11
-11586.17637138522
 21
18445.30076609576
 31
0.0
  0
LINE
  5
1F9
330
2
100
AcDbEntity
  8
0Hatch
370
     5
100
AcDbLine
 10
-11566.17637138522
 20
18445.30076609576
 30
0.0
 11
-11566.17637138522
 21
18440.30076609576
 31
0.0
  0
LINE
  5
1FA
330
2
100
AcDbEntity
  8
0Hatch
370
     5
100
AcDbLine
 10
-11800.38653150579
 20
18444.80076609577
 30
0.0
 11
-11785.3865795128
 21
18444.80076609577
 31
0.0
  0
LINE
  5
1FB
330
2
100
AcDbEntity
  8
0Hatch
370
     5
100
AcDbLine
 10
-11765.3865795128
 20
18444.80076609577
 30
0.0
 11
-11586.17637138522
 21
18444.80076609576
 31
0.0
  0
LINE
  5
1FC
330
2
100
AcDbEntity
  8
0Hatch
370
     5
100
AcDbLine
 10
-11566.17637138522
 20
18444.80076609576
 30
0.0
 11
-11386.38041185435
 21
18444.80076609576
 31
0.0
  0
LINE
  5
1FD
330
2
100
AcDbEntity
  8
0Hatch
370
     5
100
AcDbLine
 10
-11366.38041185435
 20
18444.80076609576
 30
0.0
 11
-11351.38886099545
 21
18444.80076609576
 31
0.0
  0
LINE
  5
1FE
330
2
100
AcDbEntity
  8
0Hatch
370
     5
100
AcDbLine
 10
-11351.38886099545
 20
18440.80076609575
 30
0.0
 11
-11366.38041185435
 21
18440.80076609575
 31
0.0
  0
LINE
  5
1FF
330
2
100
AcDbEntity
  8
0Hatch
370
     5
100
AcDbLine
 10
-11386.38041185435
 20
18440.80076609575
 30
0.0
 11
-11566.17637138522
 21
18440.80076609576
 31
0.0
  0
LINE
  5
200
330
2
100
AcDbEntity
  8
0Hatch
370
     5
100
AcDbLine
 10
-11586.17637138522
 20
18440.80076609576
 30
0.0
 11
-11765.3865795128
 21
18440.80076609577
 31
0.0
  0
LINE
  5
201
330
2
100
AcDbEntity
  8
0Hatch
370
     5
100
AcDbLine
 10
-11785.3865795128
 20
18440.80076609577
 30
0.0
 11
-11800.38653150579
 21
18440.80076609577
 31
0.0
  0
LINE
  5
202
330
2
100
AcDbEntity
  8
0Hatch
370
     5
390
93
100
AcDbLine
 10
-11800.38653150579
 20
18453.80769476331
 30
0.0
 11
-11351.38886099545
 21
18453.80769476329
 31
0.0
  0
LINE
  5
203
330
2
100
AcDbEntity
  8
0Hatch
370
     5
100
AcDbLine
 10
-11329.38886099545
 20
18318.80769476329
 30
0.0
 11
-11329.38886099545
 21
18453.80769476329
 31
0.0
  0
LINE
  5
204
330
2
100
AcDbEntity
  8
0Hatch
370
     5
100
AcDbLine
 10
-11351.38886099545
 20
18318.80769476329
 30
0.0
 11
-11351.38886099545
 21
18453.80769476329
 31
0.0
  0
LINE
  5
205
330
2
100
AcDbEntity
  8
0Hatch
370
     5
100
AcDbLine
 10
-11351.38886099545
 20
18453.80769476329
 30
0.0
 11
-11329.38886099545
 21
18453.80769476329
 31
0.0
  0
LINE
  5
206
330
2
100
AcDbEntity
  8
0Hatch
370
     5
100
AcDbLine
 10
-11371.38041185435
 20
18445.30076609576
 30
0.0
 11
-11371.38041185435
 21
18440.30076609576
 31
0.0
  0
LINE
  5
207
330
2
100
AcDbEntity
  8
0Hatch
370
     5
100
AcDbLine
 10
-11386.38041185435
 20
18440.30076609576
 30
0.0
 11
-11366.38041185435
 21
18440.30076609576
 31
0.0
  0
LINE
  5
208
330
2
100
AcDbEntity
  8
0Hatch
370
     5
100
AcDbLine
 10
-11381.38041185436
 20
18440.30076609576
 30
0.0
 11
-11381.38041185436
 21
18445.30076609576
 31
0.0
  0
LINE
  5
209
330
2
100
AcDbEntity
  8
0Hatch
370
     5
100
AcDbLine
 10
-11386.38041185435
 20
18445.30076609576
 30
0.0
 11
-11366.38041185435
 21
18445.30076609576
 31
0.0
  0
LINE
  5
20A
330
2
100
AcDbEntity
  8
0Hatch
370
     5
100
AcDbLine
 10
-11366.38041185435
 20
18440.30076609576
 30
0.0
 11
-11366.38041185435
 21
18445.30076609576
 31
0.0
  0
LINE
  5
20B
330
2
100
AcDbEntity
  8
0Hatch
370
     5
100
AcDbLine
 10
-11386.38041185435
 20
18445.30076609576
 30
0.0
 11
-11386.38041185435
 21
18440.30076609576
 31
0.0
  0
ENDSEC
  0
SECTION
  2
OBJECTS
  0
DICTIONARY
  5
9
330
0
100
AcDbDictionary
281
     1
  3
ACAD_2007HEADERVARS_RT
350
543
  3
ACAD_COLOR
350
50
  3
ACAD_GROUP
350
4B
  3
ACAD_LAYOUT
350
10
  3
ACAD_MATERIAL
350
B
  3
ACAD_MLEADERSTYLE
350
227
  3
ACAD_MLINESTYLE
350
4C
  3
ACAD_PLOTSETTINGS
350
4D
  3
ACAD_PLOTSTYLENAME
350
8
  3
ACAD_SCALELIST
350
51
  3
ACAD_TABLESTYLE
350
52
  3
ACAD_VISUALSTYLE
350
13
  3
ACDB_RECOMPOSE_DATA
350
213
  3
AcDbVariableDictionary
350
214
  3
AEC_PROPERTY_SET_DEFS
350
3AE
  3
DWGPROPS
350
542
  0
DICTIONARY
  5
1C
330
1B
100
AcDbDictionary
280
     1
281
     1
  3
ACAD_LAYERSTATES
360
1D
  0
DICTIONARY
  5
526
330
6
100
AcDbDictionary
280
     1
281
     1
  3
ADSK_XREC_LAYER_RECONCILED
360
527
  0
DICTIONARY
  5
528
330
AD
100
AcDbDictionary
280
     1
281
     1
  3
ADSK_XREC_LAYER_RECONCILED
360
529
  0
DICTIONARY
  5
52A
330
81
100
AcDbDictionary
280
     1
281
     1
  3
ADSK_XREC_LAYER_RECONCILED
360
52B
  0
DICTIONARY
  5
52C
330
53
100
AcDbDictionary
280
     1
281
     1
  3
ADSK_XREC_LAYER_RECONCILED
360
52D
  0
DICTIONARY
  5
52E
330
CD
100
AcDbDictionary
280
     1
281
     1
  3
ADSK_XREC_LAYER_RECONCILED
360
52F
  0
DICTIONARY
  5
530
330
C7
100
AcDbDictionary
280
     1
281
     1
  3
ADSK_XREC_LAYER_RECONCILED
360
531
  0
DICTIONARY
  5
3
330
2
100
AcDbDictionary
280
     1
281
     1
  3
ACAD_SORTENTS
360
20D
  0
DICTIONARY
  5
41
330
40
100
AcDbDictionary
280
     1
281
     1
  3
ACAD_SORTENTS
360
20C
  0
DICTIONARY
  5
543
102
{ACAD_REACTORS
330
9
102
}
330
9
100
AcDbDictionary
281
     1
  3
DIMLTEX1
350
545
  3
DIMLTEX2
350
546
  3
DIMLTYPE
350
544
  0
DICTIONARY
  5
50
102
{ACAD_REACTORS
330
9
102
}
330
9
100
AcDbDictionary
281
     1
  0
DICTIONARY
  5
4B
102
{ACAD_REACTORS
330
9
102
}
330
9
100
AcDbDictionary
281
     1
  0
DICTIONARY
  5
10
102
{ACAD_REACTORS
330
9
102
}
330
9
100
AcDbDictionary
281
     1
  3
Model
350
F
  3
Poddasze
350
18
  0
DICTIONARY
  5
B
102
{ACAD_REACTORS
330
9
102
}
330
9
100
AcDbDictionary
281
     1
  3
ByBlock
350
4F
  3
ByLayer
350
4E
  3
Global
350
A
  0
DICTIONARY
  5
227
102
{ACAD_REACTORS
330
9
102
}
330
9
100
AcDbDictionary
281
     1
  3
Standard
350
228
  0
DICTIONARY
  5
4C
102
{ACAD_REACTORS
330
9
102
}
330
9
100
AcDbDictionary
281
     1
  3
STANDARD
350
54
  0
DICTIONARY
  5
4D
102
{ACAD_REACTORS
330
9
102
}
330
9
100
AcDbDictionary
281
     1
  0
ACDBDICTIONARYWDFLT
  5
8
102
{ACAD_REACTORS
330
9
102
}
330
9
100
AcDbDictionary
281
     1
  3
Medium
350
93
  3
Normal
350
7
100
AcDbDictionaryWithDefault
340
7
  0
DICTIONARY
  5
51
102
{ACAD_REACTORS
330
9
102
}
330
9
100
AcDbDictionary
281
     1
  3
*A1
350
58
  3
*A10
350
2DA
  3
*A11
350
2DB
  3
*A12
350
2DC
  3
*A13
350
2DD
  3
*A14
350
2DE
  3
*A2
350
59
  3
*A3
350
5A
  3
*A4
350
5B
  3
*A5
350
5C
  3
*A6
350
5D
  3
*A7
350
5E
  3
*A8
350
2D8
  3
*A9
350
2D9
  3
A0
350
5F
  3
A1
350
60
  3
A2
350
61
  3
A3
350
62
  3
A4
350
63
  3
A5
350
64
  3
A6
350
65
  3
A7
350
66
  3
A8
350
67
  3
A9
350
68
  3
B0
350
69
  3
B1
350
6A
  3
B2
350
6B
  3
B3
350
6C
  3
B4
350
6D
  3
B5
350
6E
  3
B6
350
6F
  3
B7
350
70
  3
B8
350
71
  3
B9
350
72
  3
C0
350
73
  3
C1
350
74
  3
C2
350
75
  3
C3
350
76
  3
C4
350
77
  3
C5
350
78
  3
C6
350
79
  3
C7
350
7A
  3
C8
350
7B
  3
C9
350
7C
  3
D0
350
7D
  3
D1
350
7E
  3
D2
350
7F
  0
DICTIONARY
  5
52
102
{ACAD_REACTORS
330
9
102
}
330
9
100
AcDbDictionary
281
     1
  3
Standard
350
55
  0
DICTIONARY
  5
13
102
{ACAD_REACTORS
330
9
102
}
330
9
100
AcDbDictionary
281
     1
  3
2dWireframe
350
12
  3
3D Hidden
350
21F
  3
3dWireframe
350
57
  3
Basic
350
21E
  3
Brighten
350
222
  3
ColorChange
350
226
  3
Conceptual
350
220
  3
Dim
350
221
  3
Facepattern
350
225
  3
Flat
350
21A
  3
FlatWithEdges
350
21B
  3
Gouraud
350
21C
  3
GouraudWithEdges
350
21D
  3
Linepattern
350
224
  3
Phong
350
230
  3
PhongWithEdges
350
231
  3
Realistic
350
56
  3
Thicken
350
223
  0
XRECORD
  5
213
102
{ACAD_REACTORS
330
9
102
}
330
9
100
AcDbXrecord
280
     1
 90
        1
330
55
  0
DICTIONARY
  5
214
102
{ACAD_REACTORS
330
9
102
}
330
9
100
AcDbDictionary
281
     1
  3
CANNOSCALE
350
217
  3
CMLEADERSTYLE
350
216
  3
CTABLESTYLE
350
215
  3
DIMASSOC
350
540
  3
HIDETEXT
350
53F
  3
INDEXCTL
350
53E
  3
LIGHTINGUNITS
350
218
  3
MSLTSCALE
350
53C
  3
SORTENTS
350
53D
  0
DICTIONARY
  5
3AE
102
{ACAD_REACTORS
330
9
102
}
330
9
100
AcDbDictionary
281
     1
  0
XRECORD
  5
542
102
{ACAD_REACTORS
330
9
102
}
330
9
100
AcDbXrecord
280
     1
  1
DWGPROPS COOKIE
  2

  3

  4

  6

  7

  8
beata.rzonca
  9

300
=
301
=
302
=
303
=
304
=
305
=
306
=
307
=
308
=
309
=
 40
19.46606649305556
 41
2450817.525937848
 42
2454951.525285729
  1

 90
        0
  0
DICTIONARY
  5
1D
102
{ACAD_REACTORS
330
1C
102
}
330
1C
100
AcDbDictionary
281
     1
1001
AcLayerTools
1000
39884
1000
0
  0
XRECORD
  5
527
102
{ACAD_REACTORS
330
526
102
}
330
526
100
AcDbXrecord
280
     1
290
     1
  0
XRECORD
  5
529
102
{ACAD_REACTORS
330
528
102
}
330
528
100
AcDbXrecord
280
     1
290
     1
  0
XRECORD
  5
52B
102
{ACAD_REACTORS
330
52A
102
}
330
52A
100
AcDbXrecord
280
     1
290
     1
  0
XRECORD
  5
52D
102
{ACAD_REACTORS
330
52C
102
}
330
52C
100
AcDbXrecord
280
     1
290
     1
  0
XRECORD
  5
52F
102
{ACAD_REACTORS
330
52E
102
}
330
52E
100
AcDbXrecord
280
     1
290
     1
  0
XRECORD
  5
531
102
{ACAD_REACTORS
330
530
102
}
330
530
100
AcDbXrecord
280
     1
290
     1
  0
SORTENTSTABLE
  5
20D
102
{ACAD_REACTORS
330
3
102
}
330
3
100
AcDbSortentsTable
330
2
  0
SORTENTSTABLE
  5
20C
102
{ACAD_REACTORS
330
41
102
}
330
41
100
AcDbSortentsTable
330
40
  0
XRECORD
  5
545
102
{ACAD_REACTORS
330
543
102
}
330
543
100
AcDbXrecord
280
     1
340
C
  0
XRECORD
  5
546
102
{ACAD_REACTORS
330
543
102
}
330
543
100
AcDbXrecord
280
     1
340
C
  0
XRECORD
  5
544
102
{ACAD_REACTORS
330
543
102
}
330
543
100
AcDbXrecord
280
     1
340
C
  0
LAYOUT
  5
F
102
{ACAD_XDICTIONARY
360
549
102
}
102
{ACAD_REACTORS
330
10
102
}
330
10
100
AcDbPlotSettings
  1

  2
HP LaserJet P2015 Series PCL 5e
  4
A4
  6
10-ele
 40
6.805083274841308
 41
5.027085781097412
 42
6.805068969726562
 43
5.027069091796875
 44
209.9733276367187
 45
296.9683227539062
 46
0.0
 47
17.731330029757
 48
-5251.200887869418
 49
14231.20382229527
140
-1846.140406169536
141
18591.53050084345
142
1.0
143
17.34062649424842
 70
 11956
 72
     1
 73
     0
 74
     4
  7
monochrome_140.ctb
 75
     0
147
0.0576680433277127
148
5251.200887869418
149
-14231.20382229527
100
AcDbLayout
  1
Model
 70
     1
 71
     0
 10
0.0
 20
0.0
 11
12.0
 21
9.0
 12
0.0
 22
0.0
 32
0.0
 14
0.0
 24
0.0
 34
0.0
 15
0.0
 25
0.0
 35
0.0
146
0.0
 13
0.0
 23
0.0
 33
0.0
 16
1.0
 26
0.0
 36
0.0
 17
0.0
 27
1.0
 37
0.0
 76
     0
330
2
331
28
1001
ACAD_PSEXT
1000
HP LaserJet P2015 Series PCL 5e
1000
HP LaserJet P2015 Series PCL 5e
1000
IP_192.168.0.251_design
1000

1070
     0
  0
LAYOUT
  5
18
102
{ACAD_XDICTIONARY
360
19
102
}
102
{ACAD_REACTORS
330
10
102
}
330
10
100
AcDbPlotSettings
  1

  2
\\KOMP-NR-72\HP LaserJet 1200 Series PCL
  4
A4
  6

 40
6.805083274841308
 41
5.027085781097412
 42
6.805068969726562
 43
5.027069091796875
 44
209.9733276367187
 45
296.9683227539062
 46
0.0
 47
0.0
 48
0.0
 49
0.0
140
0.0
141
0.0
142
1.0
143
1.0
 70
   688
 72
     1
 73
     0
 74
     5
  7
monochrome_140.ctb
 75
    16
147
1.0
148
0.0
149
0.0
100
AcDbLayout
  1
Poddasze
 70
     0
 71
     1
 10
-6.805083274841308
 20
-5.027085781097412
 11
203.1682443618775
 21
291.9412369728089
 12
5931.669543547489
 22
-50.0
 32
10705.17123084718
 14
-0.7963446452747008
 24
-0.8075380466295882
 34
-0.0015258207003583
 15
209.2128431109218
 25
296.2154446811023
 35
0.0000000349246037
146
0.0
 13
0.0
 23
0.0
 33
0.0
 16
1.0
 26
0.0
 36
0.0
 17
0.0
 27
1.0
 37
0.0
 76
     0
330
15
1001
ACAD_PSEXT
1000
\\KOMP-NR-72\HP LaserJet 1200 Series PCL
1000
HP LaserJet 1200 Series PCL
1000
\\KOMP-NR-72
1000

1070
     0
  0
MATERIAL
  5
4F
102
{ACAD_XDICTIONARY
360
54E
102
}
102
{ACAD_REACTORS
330
B
102
}
330
B
100
AcDbMaterial
  1
ByBlock
 73
     1
 78
     1
172
     1
176
     1
270
     1
274
     1
  0
MATERIAL
  5
4E
102
{ACAD_XDICTIONARY
360
54C
102
}
102
{ACAD_REACTORS
330
B
102
}
330
B
100
AcDbMaterial
  1
ByLayer
 73
     1
 78
     1
172
     1
176
     1
270
     1
274
     1
  0
MATERIAL
  5
A
102
{ACAD_XDICTIONARY
360
547
102
}
102
{ACAD_REACTORS
330
B
102
}
330
B
100
AcDbMaterial
  1
Global
 73
     1
 78
     1
172
     1
176
     1
270
     1
274
     1
  0
MLEADERSTYLE
  5
228
102
{ACAD_REACTORS
330
227
102
}
330
227
100
AcDbMLeaderStyle
170
     2
171
     1
172
     0
 90
        2
 40
0.0
 41
0.0
173
     1
 91
-1056964608
340
23
 92
       -2
290
     1
 42
0.09
291
     1
 43
0.36
  3
Standard
 44
0.18
300

342
20
174
     1
178
     6
175
     1
176
     0
 93
-1056964608
 45
0.18
292
     0
297
     0
 46
0.18
 94
-1056964608
 47
1.0
 49
1.0
140
1.0
293
     1
141
0.0
294
     1
177
     0
142
1.0
295
     0
296
     0
143
0.125
1001
ACAD_MLEADERVER
1070
     2
  0
MLINESTYLE
  5
54
102
{ACAD_REACTORS
330
4C
102
}
330
4C
100
AcDbMlineStyle
  2
STANDARD
 70
     0
  3

 62
     0
 51
90.0
 52
90.0
 71
     2
 49
0.5
 62
   256
  6
BYLAYER
 49
-0.5
 62
   256
  6
BYLAYER
  0
ACDBPLACEHOLDER
  5
93
102
{ACAD_REACTORS
330
8
102
}
330
8
  0
ACDBPLACEHOLDER
  5
7
102
{ACAD_REACTORS
330
8
102
}
330
8
  0
SCALE
  5
58
102
{ACAD_REACTORS
330
51
102
}
330
51
100
AcDbScale
 70
     0
300
1:10
140
1.0
141
1.0
290
     1
  0
SCALE
  5
2DA
102
{ACAD_REACTORS
330
51
102
}
330
51
100
AcDbScale
 70
     0
300
1:5_2
140
1.0
141
5.0
290
     0
  0
SCALE
  5
2DB
102
{ACAD_REACTORS
330
51
102
}
330
51
100
AcDbScale
 70
     0
300
1:10_2
140
1.0
141
10.0
290
     0
  0
SCALE
  5
2DC
102
{ACAD_REACTORS
330
51
102
}
330
51
100
AcDbScale
 70
     0
300
1:20_2
140
1.0
141
20.0
290
     0
  0
SCALE
  5
2DD
102
{ACAD_REACTORS
330
51
102
}
330
51
100
AcDbScale
 70
     0
300
1:50_2
140
1.0
141
50.0
290
     0
  0
SCALE
  5
2DE
102
{ACAD_REACTORS
330
51
102
}
330
51
100
AcDbScale
 70
     0
300
1:100_2
140
1.0
141
100.0
290
     0
  0
SCALE
  5
59
102
{ACAD_REACTORS
330
51
102
}
330
51
100
AcDbScale
 70
     0
300
1:1
140
1.0
141
0.1
290
     0
  0
SCALE
  5
5A
102
{ACAD_REACTORS
330
51
102
}
330
51
100
AcDbScale
 70
     0
300
1:2
140
1.0
141
0.2
290
     0
  0
SCALE
  5
5B
102
{ACAD_REACTORS
330
51
102
}
330
51
100
AcDbScale
 70
     0
300
1:5
140
1.0
141
0.5
290
     0
  0
SCALE
  5
5C
102
{ACAD_REACTORS
330
51
102
}
330
51
100
AcDbScale
 70
     0
300
1:20
140
1.0
141
2.0
290
     0
  0
SCALE
  5
5D
102
{ACAD_REACTORS
330
51
102
}
330
51
100
AcDbScale
 70
     0
300
1:50
140
1.0
141
5.0
290
     0
  0
SCALE
  5
5E
102
{ACAD_REACTORS
330
51
102
}
330
51
100
AcDbScale
 70
     0
300
1:100
140
1.0
141
10.0
290
     0
  0
SCALE
  5
2D8
102
{ACAD_REACTORS
330
51
102
}
330
51
100
AcDbScale
 70
     0
300
1:1_2
140
1.0
141
1.0
290
     0
  0
SCALE
  5
2D9
102
{ACAD_REACTORS
330
51
102
}
330
51
100
AcDbScale
 70
     0
300
1:2_2
140
1.0
141
2.0
290
     0
  0
SCALE
  5
5F
102
{ACAD_REACTORS
330
51
102
}
330
51
100
AcDbScale
 70
     0
300
1:1_1
140
1.0
141
1.0
290
     0
  0
SCALE
  5
60
102
{ACAD_REACTORS
330
51
102
}
330
51
100
AcDbScale
 70
     0
300
1:2_1
140
1.0
141
2.0
290
     0
  0
SCALE
  5
61
102
{ACAD_REACTORS
330
51
102
}
330
51
100
AcDbScale
 70
     0
300
1:4
140
1.0
141
4.0
290
     0
  0
SCALE
  5
62
102
{ACAD_REACTORS
330
51
102
}
330
51
100
AcDbScale
 70
     0
300
1:5_1
140
1.0
141
5.0
290
     0
  0
SCALE
  5
63
102
{ACAD_REACTORS
330
51
102
}
330
51
100
AcDbScale
 70
     0
300
1:8
140
1.0
141
8.0
290
     0
  0
SCALE
  5
64
102
{ACAD_REACTORS
330
51
102
}
330
51
100
AcDbScale
 70
     0
300
1:10_1
140
1.0
141
10.0
290
     0
  0
SCALE
  5
65
102
{ACAD_REACTORS
330
51
102
}
330
51
100
AcDbScale
 70
     0
300
1:16
140
1.0
141
16.0
290
     0
  0
SCALE
  5
66
102
{ACAD_REACTORS
330
51
102
}
330
51
100
AcDbScale
 70
     0
300
1:20_1
140
1.0
141
20.0
290
     0
  0
SCALE
  5
67
102
{ACAD_REACTORS
330
51
102
}
330
51
100
AcDbScale
 70
     0
300
1:30
140
1.0
141
30.0
290
     0
  0
SCALE
  5
68
102
{ACAD_REACTORS
330
51
102
}
330
51
100
AcDbScale
 70
     0
300
1:40
140
1.0
141
40.0
290
     0
  0
SCALE
  5
69
102
{ACAD_REACTORS
330
51
102
}
330
51
100
AcDbScale
 70
     0
300
1:50_1
140
1.0
141
50.0
290
     0
  0
SCALE
  5
6A
102
{ACAD_REACTORS
330
51
102
}
330
51
100
AcDbScale
 70
     0
300
1:100_1
140
1.0
141
100.0
290
     0
  0
SCALE
  5
6B
102
{ACAD_REACTORS
330
51
102
}
330
51
100
AcDbScale
 70
     0
300
2:1
140
2.0
141
1.0
290
     0
  0
SCALE
  5
6C
102
{ACAD_REACTORS
330
51
102
}
330
51
100
AcDbScale
 70
     0
300
4:1
140
4.0
141
1.0
290
     0
  0
SCALE
  5
6D
102
{ACAD_REACTORS
330
51
102
}
330
51
100
AcDbScale
 70
     0
300
8:1
140
8.0
141
1.0
290
     0
  0
SCALE
  5
6E
102
{ACAD_REACTORS
330
51
102
}
330
51
100
AcDbScale
 70
     0
300
10:1
140
10.0
141
1.0
290
     0
  0
SCALE
  5
6F
102
{ACAD_REACTORS
330
51
102
}
330
51
100
AcDbScale
 70
     0
300
100:1
140
100.0
141
1.0
290
     0
  0
SCALE
  5
70
102
{ACAD_REACTORS
330
51
102
}
330
51
100
AcDbScale
 70
     0
300
1/128" = 1'-0"
140
0.0078125
141
12.0
290
     0
  0
SCALE
  5
71
102
{ACAD_REACTORS
330
51
102
}
330
51
100
AcDbScale
 70
     0
300
1/64" = 1'-0"
140
0.015625
141
12.0
290
     0
  0
SCALE
  5
72
102
{ACAD_REACTORS
330
51
102
}
330
51
100
AcDbScale
 70
     0
300
1/32" = 1'-0"
140
0.03125
141
12.0
290
     0
  0
SCALE
  5
73
102
{ACAD_REACTORS
330
51
102
}
330
51
100
AcDbScale
 70
     0
300
1/16" = 1'-0"
140
0.0625
141
12.0
290
     0
  0
SCALE
  5
74
102
{ACAD_REACTORS
330
51
102
}
330
51
100
AcDbScale
 70
     0
300
3/32" = 1'-0"
140
0.09375
141
12.0
290
     0
  0
SCALE
  5
75
102
{ACAD_REACTORS
330
51
102
}
330
51
100
AcDbScale
 70
     0
300
1/8" = 1'-0"
140
0.125
141
12.0
290
     0
  0
SCALE
  5
76
102
{ACAD_REACTORS
330
51
102
}
330
51
100
AcDbScale
 70
     0
300
3/16" = 1'-0"
140
0.1875
141
12.0
290
     0
  0
SCALE
  5
77
102
{ACAD_REACTORS
330
51
102
}
330
51
100
AcDbScale
 70
     0
300
1/4" = 1'-0"
140
0.25
141
12.0
290
     0
  0
SCALE
  5
78
102
{ACAD_REACTORS
330
51
102
}
330
51
100
AcDbScale
 70
     0
300
3/8" = 1'-0"
140
0.375
141
12.0
290
     0
  0
SCALE
  5
79
102
{ACAD_REACTORS
330
51
102
}
330
51
100
AcDbScale
 70
     0
300
1/2" = 1'-0"
140
0.5
141
12.0
290
     0
  0
SCALE
  5
7A
102
{ACAD_REACTORS
330
51
102
}
330
51
100
AcDbScale
 70
     0
300
3/4" = 1'-0"
140
0.75
141
12.0
290
     0
  0
SCALE
  5
7B
102
{ACAD_REACTORS
330
51
102
}
330
51
100
AcDbScale
 70
     0
300
1" = 1'-0"
140
1.0
141
12.0
290
     0
  0
SCALE
  5
7C
102
{ACAD_REACTORS
330
51
102
}
330
51
100
AcDbScale
 70
     0
300
1-1/2" = 1'-0"
140
1.5
141
12.0
290
     0
  0
SCALE
  5
7D
102
{ACAD_REACTORS
330
51
102
}
330
51
100
AcDbScale
 70
     0
300
3" = 1'-0"
140
3.0
141
12.0
290
     0
  0
SCALE
  5
7E
102
{ACAD_REACTORS
330
51
102
}
330
51
100
AcDbScale
 70
     0
300
6" = 1'-0"
140
6.0
141
12.0
290
     0
  0
SCALE
  5
7F
102
{ACAD_REACTORS
330
51
102
}
330
51
100
AcDbScale
 70
     0
300
1'-0" = 1'-0"
140
12.0
141
12.0
290
     0
  0
TABLESTYLE
  5
55
102
{ACAD_XDICTIONARY
360
211
102
}
102
{ACAD_REACTORS
330
52
102
}
330
52
100
AcDbTableStyle
  3
Standard
 70
     0
 71
     0
 40
0.06
 41
0.06
280
     0
281
     0
  7
STANDARD
140
0.18
170
     2
 62
     0
 63
     7
283
     0
274
    -2
284
     1
 64
     0
275
    -2
285
     1
 65
     0
276
    -2
286
     1
 66
     0
277
    -2
287
     1
 67
     0
278
    -2
288
     1
 68
     0
279
    -2
289
     1
 69
     0
  7
STANDARD
140
0.25
170
     5
 62
     0
 63
     7
283
     0
274
    -2
284
     1
 64
     0
275
    -2
285
     1
 65
     0
276
    -2
286
     1
 66
     0
277
    -2
287
     1
 67
     0
278
    -2
288
     1
 68
     0
279
    -2
289
     1
 69
     0
  7
STANDARD
140
0.18
170
     5
 62
     0
 63
     7
283
     0
274
    -2
284
     1
 64
     0
275
    -2
285
     1
 65
     0
276
    -2
286
     1
 66
     0
277
    -2
287
     1
 67
     0
278
    -2
288
     1
 68
     0
279
    -2
289
     1
 69
     0
  0
VISUALSTYLE
  5
12
102
{ACAD_REACTORS
330
13
102
}
330
13
100
AcDbVisualStyle
  2
2dWireframe
 70
     4
 71
     0
 72
     2
 73
     0
 90
        0
 40
-0.6
 41
-30.0
 62
     5
 63
     7
 74
     1
 91
        4
 64
     7
 65
   257
 75
     1
175
     1
 42
1.0
 92
        0
 66
   257
 43
1.0
 76
     1
 77
     6
 78
     2
 67
     7
 79
     5
170
     0
171
     0
290
     0
174
     0
 93
        1
 44
0.0
173
     0
291
     0
 45
0.0
1001
ACAD
1000
AcDbSavedByObjectVersion
1070
     0
  0
VISUALSTYLE
  5
21F
102
{ACAD_REACTORS
330
13
102
}
330
13
100
AcDbVisualStyle
  2
3D Hidden
 70
     6
 71
     1
 72
     2
 73
     2
 90
        0
 40
-0.6
 41
-30.0
 62
     5
 63
     7
 74
     2
 91
        2
 64
     7
 65
   257
 75
     2
175
     1
 42
40.0
 92
        0
 66
   257
 43
1.0
 76
     1
 77
     6
 78
     2
 67
     7
 79
     3
170
     0
171
     0
290
     0
174
     0
 93
        1
 44
0.0
173
     0
291
     0
 45
0.0
1001
ACAD
1000
AcDbSavedByObjectVersion
1070
     0
  0
VISUALSTYLE
  5
57
102
{ACAD_REACTORS
330
13
102
}
330
13
100
AcDbVisualStyle
  2
3dWireframe
 70
     5
 71
     0
 72
     2
 73
     0
 90
        0
 40
-0.6
 41
-30.0
 62
     5
 63
     7
 74
     1
 91
        4
 64
     7
 65
   257
 75
     1
175
     1
 42
1.0
 92
        0
 66
   257
 43
1.0
 76
     1
 77
     6
 78
     2
 67
     7
 79
     5
170
     0
171
     0
290
     0
174
     0
 93
        1
 44
0.0
173
     0
291
     0
 45
0.0
1001
ACAD
1000
AcDbSavedByObjectVersion
1070
     0
  0
VISUALSTYLE
  5
21E
102
{ACAD_REACTORS
330
13
102
}
330
13
100
AcDbVisualStyle
  2
Basic
 70
     7
 71
     1
 72
     0
 73
     1
 90
        0
 40
-0.6
 41
-30.0
 62
     5
 63
     7
 74
     0
 91
        4
 64
     7
 65
   257
 75
     1
175
     1
 42
1.0
 92
        8
 66
     7
 43
1.0
 76
     1
 77
     6
 78
     2
 67
     7
 79
     5
170
     0
171
     0
290
     0
174
     0
 93
        1
 44
0.0
173
     0
291
     1
 45
0.0
1001
ACAD
1000
AcDbSavedByObjectVersion
1070
     0
  0
VISUALSTYLE
  5
222
102
{ACAD_REACTORS
330
13
102
}
330
13
100
AcDbVisualStyle
  2
Brighten
 70
    12
 71
     2
 72
     2
 73
     0
 90
        0
 40
-0.6
 41
-30.0
 62
     5
 63
     7
 74
     1
 91
        4
 64
     7
 65
   257
 75
     1
175
     1
 42
1.0
 92
        8
 66
     7
 43
1.0
 76
     1
 77
     6
 78
     2
 67
     7
 79
     5
170
     0
171
     0
290
     0
174
     0
 93
        1
 44
50.0
173
     0
291
     1
 45
0.0
1001
ACAD
1000
AcDbSavedByObjectVersion
1070
     0
  0
VISUALSTYLE
  5
226
102
{ACAD_REACTORS
330
13
102
}
330
13
100
AcDbVisualStyle
  2
ColorChange
 70
    16
 71
     2
 72
     2
 73
     3
 90
        0
 40
-0.6
 41
-30.0
 62
     5
 63
     8
 74
     1
 91
        4
 64
     7
 65
   257
 75
     1
175
     1
 42
1.0
 92
        8
 66
     8
 43
1.0
 76
     1
 77
     6
 78
     2
 67
     7
 79
     5
170
     0
171
     0
290
     0
174
     0
 93
        1
 44
0.0
173
     0
291
     1
 45
0.0
1001
ACAD
1000
AcDbSavedByObjectVersion
1070
     0
  0
VISUALSTYLE
  5
220
102
{ACAD_REACTORS
330
13
102
}
330
13
100
AcDbVisualStyle
  2
Conceptual
 70
     9
 71
     3
 72
     2
 73
     0
 90
        0
 40
-0.6
 41
-30.0
 62
     5
 63
     7
 74
     2
 91
        2
 64
     7
 65
   257
 75
     1
175
     1
 42
40.0
 92
        8
 66
     7
 43
1.0
 76
     1
 77
     6
 78
     2
 67
     7
 79
     3
170
     0
171
     0
290
     0
174
     0
 93
        1
 44
0.0
173
     0
291
     0
 45
0.0
1001
ACAD
1000
AcDbSavedByObjectVersion
1070
     0
  0
VISUALSTYLE
  5
221
102
{ACAD_REACTORS
330
13
102
}
330
13
100
AcDbVisualStyle
  2
Dim
 70
    11
 71
     2
 72
     2
 73
     0
 90
        0
 40
-0.6
 41
-30.0
 62
     5
 63
     7
 74
     1
 91
        4
 64
     7
 65
   257
 75
     1
175
     1
 42
1.0
 92
        8
 66
     7
 43
1.0
 76
     1
 77
     6
 78
     2
 67
     7
 79
     5
170
     0
171
     0
290
     0
174
     0
 93
        1
 44
-50.0
173
     0
291
     1
 45
0.0
1001
ACAD
1000
AcDbSavedByObjectVersion
1070
     0
  0
VISUALSTYLE
  5
225
102
{ACAD_REACTORS
330
13
102
}
330
13
100
AcDbVisualStyle
  2
Facepattern
 70
    15
 71
     2
 72
     2
 73
     0
 90
        0
 40
-0.6
 41
-30.0
 62
     5
 63
     7
 74
     1
 91
        4
 64
     7
 65
   257
 75
     1
175
     1
 42
1.0
 92
        8
 66
     7
 43
1.0
 76
     1
 77
     6
 78
     2
 67
     7
 79
     5
170
     0
171
     0
290
     0
174
     0
 93
        1
 44
0.0
173
     0
291
     1
 45
0.0
1001
ACAD
1000
AcDbSavedByObjectVersion
1070
     0
  0
VISUALSTYLE
  5
21A
102
{ACAD_REACTORS
330
13
102
}
330
13
100
AcDbVisualStyle
  2
Flat
 70
     0
 71
     2
 72
     1
 73
     1
 90
        2
 40
-0.6
 41
30.0
 62
     5
 63
     7
 74
     0
 91
        4
 64
     7
 65
   257
 75
     1
175
     1
 42
1.0
 92
        8
 66
     7
 43
1.0
 76
     1
 77
     6
 78
     2
 67
     7
 79
     5
170
     0
171
     0
290
     0
174
     0
 93
       13
 44
0.0
173
     0
291
     0
 45
0.0
1001
ACAD
1000
AcDbSavedByObjectVersion
1070
     0
  0
VISUALSTYLE
  5
21B
102
{ACAD_REACTORS
330
13
102
}
330
13
100
AcDbVisualStyle
  2
FlatWithEdges
 70
     1
 71
     2
 72
     1
 73
     1
 90
        2
 40
-0.6
 41
30.0
 62
     5
 63
     7
 74
     1
 91
        4
 64
     7
 65
   257
 75
     1
175
     1
 42
1.0
 92
        0
 66
   257
 43
1.0
 76
     1
 77
     6
 78
     2
 67
     7
 79
     5
170
     0
171
     0
290
     0
174
     0
 93
       13
 44
0.0
173
     0
291
     0
 45
0.0
1001
ACAD
1000
AcDbSavedByObjectVersion
1070
     0
  0
VISUALSTYLE
  5
21C
102
{ACAD_REACTORS
330
13
102
}
330
13
100
AcDbVisualStyle
  2
Gouraud
 70
     2
 71
     2
 72
     2
 73
     1
 90
        2
 40
-0.6
 41
30.0
 62
     5
 63
     7
 74
     0
 91
        4
 64
     7
 65
   257
 75
     1
175
     1
 42
1.0
 92
        0
 66
     7
 43
1.0
 76
     1
 77
     6
 78
     2
 67
     7
 79
     5
170
     0
171
     0
290
     0
174
     0
 93
       13
 44
0.0
173
     0
291
     0
 45
0.0
1001
ACAD
1000
AcDbSavedByObjectVersion
1070
     0
  0
VISUALSTYLE
  5
21D
102
{ACAD_REACTORS
330
13
102
}
330
13
100
AcDbVisualStyle
  2
GouraudWithEdges
 70
     3
 71
     2
 72
     2
 73
     1
 90
        2
 40
-0.6
 41
30.0
 62
     5
 63
     7
 74
     1
 91
        4
 64
     7
 65
   257
 75
     1
175
     1
 42
1.0
 92
        0
 66
   257
 43
1.0
 76
     1
 77
     6
 78
     2
 67
     7
 79
     5
170
     0
171
     0
290
     0
174
     0
 93
       13
 44
0.0
173
     0
291
     0
 45
0.0
1001
ACAD
1000
AcDbSavedByObjectVersion
1070
     0
  0
VISUALSTYLE
  5
224
102
{ACAD_REACTORS
330
13
102
}
330
13
100
AcDbVisualStyle
  2
Linepattern
 70
    14
 71
     2
 72
     2
 73
     0
 90
        0
 40
-0.6
 41
-30.0
 62
     5
 63
     7
 74
     1
 91
        4
 64
     7
 65
   257
 75
     7
175
     7
 42
1.0
 92
        8
 66
     7
 43
1.0
 76
     1
 77
     6
 78
     2
 67
     7
 79
     5
170
     0
171
     0
290
     0
174
     0
 93
        1
 44
0.0
173
     0
291
     1
 45
0.0
1001
ACAD
1000
AcDbSavedByObjectVersion
1070
     0
  0
VISUALSTYLE
  5
230
102
{ACAD_REACTORS
330
13
102
}
330
13
100
AcDbVisualStyle
  2

 70
     8
 71
     2
 72
     2
 73
     0
 90
        0
 40
-0.6
 41
-30.0
 62
     5
 63
     7
 74
     0
 91
        0
 64
     7
 65
   257
 75
     1
175
     1
 42
1.0
 92
        8
 66
     8
 43
1.0
 76
     1
 77
     6
 78
     2
 67
     7
 79
     5
170
     0
171
     0
290
     0
174
     0
 93
       13
 44
0.0
173
     0
291
     0
 45
0.0
1001
ACAD
1000
AcDbSavedByObjectVersion
1070
     0
  0
VISUALSTYLE
  5
231
102
{ACAD_REACTORS
330
13
102
}
330
13
100
AcDbVisualStyle
  2

 70
     8
 71
     2
 72
     2
 73
     0
 90
        0
 40
-0.6
 41
-30.0
 62
     5
 63
     7
 74
     1
 91
        0
 64
     7
 65
   257
 75
     1
175
     1
 42
1.0
 92
        8
 66
     8
 43
1.0
 76
     1
 77
     6
 78
     2
 67
     7
 79
     5
170
     0
171
     0
290
     0
174
     0
 93
       13
 44
0.0
173
     0
291
     0
 45
0.0
1001
ACAD
1000
AcDbSavedByObjectVersion
1070
     0
  0
VISUALSTYLE
  5
56
102
{ACAD_REACTORS
330
13
102
}
330
13
100
AcDbVisualStyle
  2
Realistic
 70
     8
 71
     2
 72
     2
 73
     0
 90
        0
 40
-0.6
 41
-30.0
 62
     5
 63
     7
 74
     1
 91
        0
 64
     7
 65
   257
 75
     1
175
     1
 42
1.0
 92
        8
 66
     8
 43
1.0
 76
     1
 77
     6
 78
     2
 67
     7
 79
     5
170
     0
171
     0
290
     0
174
     0
 93
       13
 44
0.0
173
     0
291
     0
 45
0.0
1001
ACAD
1000
AcDbSavedByObjectVersion
1070
     0
  0
VISUALSTYLE
  5
223
102
{ACAD_REACTORS
330
13
102
}
330
13
100
AcDbVisualStyle
  2
Thicken
 70
    13
 71
     2
 72
     2
 73
     0
 90
        0
 40
-0.6
 41
-30.0
 62
     5
 63
     7
 74
     1
 91
        4
 64
     7
 65
   257
 75
     1
175
     1
 42
1.0
 92
       12
 66
     7
 43
1.0
 76
     1
 77
     6
 78
     2
 67
     7
 79
     5
170
     0
171
     0
290
     0
174
     0
 93
        1
 44
0.0
173
     0
291
     1
 45
0.0
1001
ACAD
1000
AcDbSavedByObjectVersion
1070
     0
  0
DICTIONARYVAR
  5
217
102
{ACAD_REACTORS
330
214
102
}
330
214
100
DictionaryVariables
280
     0
  1
10:1
  0
DICTIONARYVAR
  5
216
102
{ACAD_REACTORS
330
214
102
}
330
214
100
DictionaryVariables
280
     0
  1
STANDARD
  0
DICTIONARYVAR
  5
215
102
{ACAD_REACTORS
330
214
102
}
330
214
100
DictionaryVariables
280
     0
  1
STANDARD
  0
DICTIONARYVAR
  5
540
102
{ACAD_REACTORS
330
214
102
}
330
214
100
DictionaryVariables
280
     0
  1
1
  0
DICTIONARYVAR
  5
53F
102
{ACAD_REACTORS
330
214
102
}
330
214
100
DictionaryVariables
280
     0
  1
1
  0
DICTIONARYVAR
  5
53E
102
{ACAD_REACTORS
330
214
102
}
330
214
100
DictionaryVariables
280
     0
  1
0
  0
DICTIONARYVAR
  5
218
102
{ACAD_REACTORS
330
214
102
}
330
214
100
DictionaryVariables
280
     0
  1
0
  0
DICTIONARYVAR
  5
53C
102
{ACAD_REACTORS
330
214
102
}
330
214
100
DictionaryVariables
280
     0
  1
1
  0
DICTIONARYVAR
  5
53D
102
{ACAD_REACTORS
330
214
102
}
330
214
100
DictionaryVariables
280
     0
  1
127
  0
DICTIONARY
  5
549
330
F
100
AcDbDictionary
280
     1
281
     1
  3
ACAD_XREC_ROUNDTRIP
360
54A
  0
DICTIONARY
  5
19
330
18
100
AcDbDictionary
280
     1
281
     1
  3
ACAD_XREC_ROUNDTRIP
360
54B
  3
ADSK_XREC_LAYOUTTHUMBNAIL
360
1A
  0
DICTIONARY
  5
54E
330
4F
100
AcDbDictionary
280
     1
281
     1
  3
ACAD_XREC_ROUNDTRIP
360
54F
  0
DICTIONARY
  5
54C
330
4E
100
AcDbDictionary
280
     1
281
     1
  3
ACAD_XREC_ROUNDTRIP
360
54D
  0
DICTIONARY
  5
547
330
A
100
AcDbDictionary
280
     1
281
     1
  3
ACAD_XREC_ROUNDTRIP
360
548
  0
DICTIONARY
  5
211
330
55
100
AcDbDictionary
280
     1
281
     1
  3
ACAD_ROUNDTRIP_2008_TABLESTYLE_CELLSTYLEMAP
360
541
  3
ACAD_XREC_ROUNDTRIP
360
550
  0
XRECORD
  5
54A
102
{ACAD_REACTORS
330
549
102
}
330
549
100
AcDbXrecord
280
     1
102
SHADEPLOT
 70
     1
102
SHADEPLOTRESLEVEL
 70
     2
102
SHADEPLOTCUSTOMDPI
 70
   300
  0
XRECORD
  5
54B
102
{ACAD_REACTORS
330
19
102
}
330
19
100
AcDbXrecord
280
     1
102
SHADEPLOT
 70
     1
102
SHADEPLOTRESLEVEL
 70
     4
102
SHADEPLOTCUSTOMDPI
 70
   600
  0
XRECORD
  5
1A
102
{ACAD_REACTORS
330
19
102
}
330
19
100
AcDbXrecord
280
     1
310
28000000630000008C0000000100080000000000B0360000000000000000000000010000000000000000000000000000FFFFFF000000000000000000000000000000000000000000000000000000000000000000330000006600000099000000CC000000FF00000000330000333300006633000099330000CC330000FF3300
310
0000660000336600006666000099660000CC660000FF66000000990000339900006699000099990000CC990000FF99000000CC000033CC000066CC000099CC0000CCCC0000FFCC000000FF000033FF000066FF000099FF0000CCFF0000FFFF000000003300330033006600330099003300CC003300FF003300003333003333
310
33006633330099333300CC333300FF33330000663300336633006666330099663300CC663300FF66330000993300339933006699330099993300CC993300FF99330000CC330033CC330066CC330099CC3300CCCC3300FFCC330000FF330033FF330066FF330099FF3300CCFF3300FFFF330000006600330066006600660099
310
006600CC006600FF00660000336600333366006633660099336600CC336600FF33660000666600336666006666660099666600CC666600FF66660000996600339966006699660099996600CC996600FF99660000CC660033CC660066CC660099CC6600CCCC6600FFCC660000FF660033FF660066FF660099FF6600CCFF6600
310
FFFF660000009900330099006600990099009900CC009900FF00990000339900333399006633990099339900CC339900FF33990000669900336699006666990099669900CC669900FF66990000999900339999006699990099999900CC999900FF99990000CC990033CC990066CC990099CC9900CCCC9900FFCC990000FF99
310
0033FF990066FF990099FF9900CCFF9900FFFF99000000CC003300CC006600CC009900CC00CC00CC00FF00CC000033CC003333CC006633CC009933CC00CC33CC00FF33CC000066CC003366CC006666CC009966CC00CC66CC00FF66CC000099CC003399CC006699CC009999CC00CC99CC00FF99CC0000CCCC0033CCCC0066CC
310
CC0099CCCC00CCCCCC00FFCCCC0000FFCC0033FFCC0066FFCC0099FFCC00CCFFCC00FFFFCC000000FF003300FF006600FF009900FF00CC00FF00FF00FF000033FF003333FF006633FF009933FF00CC33FF00FF33FF000066FF003366FF006666FF009966FF00CC66FF00FF66FF000099FF003399FF006699FF009999FF00CC
310
99FF00FF99FF0000CCFF0033CCFF0066CCFF0099CCFF00CCCCFF00FFCCFF0000FFFF0033FFFF0066FFFF0099FFFF00CCFFFF00FFFFFF00000000000D0D0D001A1A1A00282828003535350043434300505050005D5D5D006B6B6B00787878008686860093939300A1A1A100AEAEAE00BBBBBB00C9C9C900D6D6D600E4E4E400
310
F1F1F100FFFFFF0000000000000000000000000000000000000000000000000000000000000000000000000000000000F5F5F5F5F5F5F5F5F5F5F5F5F5F5F5F5F5F5F5F5F5F5F5F5F5F5F5F5F5F5F5F5F5F5F5F5F5F5F5F5F5F5F5F5F5F5F5F5F5F5F5F5F5F5F5F5F5F5F5F5F5F5F5F5F5F5F5F5F5F5F5F5F5F5F5F5F5F5F5
310
F5F5F5F5F5F5F5F5F5F5F5F5F5F5F5F5F5F5F5F500F5E2E2E2E2E2E2E2E2E2E2E2E2E2E2E2E2E2E2E2E2E2E2E2E2E2E2E2E2E2E2E2E2E2E2E2E2E2E2E2E2E2E2E2E2E2E2E2E2E2E2E2E2E2E2E2E2E2E2E2E2E2E2E2E2E2E2E2E2E2E2E2E2E2E2E2E2E2E2E2E2E2E2E2E2E2E2E2E2E2E2E2E2E2E2E2E2E2E244F5E2E2ECECEC
310
ECECECECECECECECECECECECECECECECECECECECECECECECECECECECECECECECECECECECECECECECECECECECECECECECECECECECECECECECECECECECECECECECECECECECECECECECECECECECECECECECECECECECECECECECECECECECEC44F5E2E2ECF5F5F5F5F5F5F5F5E2E2E2E2E2E2E2E2F5F5F5F5F5F5F5F5F5F5F5F5F5
310
F5F5E2E2E2E2E2E2E2E2F5F5F5F5F5F5F5F5F5F5F5F5F5F5E2E2E2E2E2E2E2E2F5F5F5F5F5F5F5F5F5F5F5F5F5F5F5E2E2E2E2E2E2E2E2F5F5F5F5F5F5F5F5E2E2E200F5E2E2ECF5E2E2E2E2E2E2E2E2E2E2E2E2E2E2E2E2E2E2E2E2E2E2E2E2E2E2E2E2E2E2E2E2E2E2E2E2E2E2E2E2E2E2E2E2E2E2E2E2E2E2E2E2E2E2E2
310
E2E2E2E2E2E2E2E2E2E2E2E2E2E2E2E2E2E2E2E2E2E2E2E2E2E2E2E2E2E2E2E2E2E2E2F5E2E2E243F5E2E2ECF5E2E2E2E2E2E2E2E2E2E2E2E2E2E2E2E2E2E2E2E2E2E2E2E2E2E2E2E2E2E2E2E2E2E2E2E2E2E2E2E2E2E2E2E2E2E2E2E2E2E2E2E2E2E2E2E2E2E2E2E2E2E2E2E2E2E2E2E2E2E2E2E2E2E2E2E2E2E2E2E2E2E2
310
E2E2E2E2E2E2E2E2F5E2E2E244F5E2E2ECF5E2E2E2E2E2E2E2E2E2E2E2E2E2E2E2E2E2E2E2E2E2E2E2E2E2E2E2E2E2E2E2E2E2E2E2E2E2E2E2E2E2E2E2E2E2E2E2E2E2E2E2E2E2E2E2E2E2E2E2E2E2E2E2E2E2E2E2E2E2E2E2E2E2E2E2E2E2E2E2E2E2E2E2E2E2E2E2E2E2E2F5E2E2E200F5E2E2ECF5E2E2E2E2ECECECECEC
310
ECECECECECECECECECECECECECECECECECECECECECECECECECECECECECECECECECECECECECECECECECECECECECECECECECECECECECECECECECECECECECECECECECECECECECECECECECECECECECECECECECECECECE244F5E2E2ECF5E2E2E2E2ECE2E2E2E2E2E2E2E2E2E2E2E2E2E2E2E2E2E2E2E2E2E2E2E2E2E2E2E2E2E2E2
310
E2E2E2E2E2E2E2E2E2E2E2E2E2E2E2E2E2E2E2E2E2E2E2E2E2E2E2E2E2E2E2E2E2E2E2E2E2E2E2E2E2E2E2E2E2E2E2E2E2E2E2E2E2E2F5E2ECE243F5E2E2ECF5E2E2E2E2ECE2E2E2E2E2E2E2E2E2E2E2E2E2E2E2E2E2E2E2E2E2E2E2E2E2E2E2E2E2E2E2E2E2E2E2E2E2E2E2E2E2E2E2E2E2E2E2E2E2E2E2E2E2E2E2E2E2E2
310
E2E2E2E2E2E2E2E2E2E2E2E2E2E2E2E2E2E2E2E2E2E2E2E2E2E2E2F5E2ECE200F5E2E2ECF5E2E2E2E2ECE2E2E2E2E2E2E2E2E2E2E2E2E2E2E2E2E2E2E2E2E2E2E2E2E2E2E2E2E2E2E2E2E2E2E2E2E2E2E2E2E2E2E2E2E2E2E2E2E2E2E2E2E2E2E2E2E2E2E2E2E2E2E2E2E2E2E2E2E2E2E2E2E2E2E2E2E2E2E2E2E2E2E2E2E2
310
F5E2ECE244F5E2E2ECF5E2E2E2E2ECE2E2E2E2E2E2E2E2E2E2E2E2E2E2E2E2E2E2E2E2E2E2E2E2E2E2E2E2E2E2E2E2E2E2E2E2E2E2E2E2E2E2E2E2E2E2E2E2E2E2E2E2E2E2E2E2E2E2E2E2E2E2E2E2E2E2E2E2E2E2E2E2E2E2E2E2E2E2E2E2E2E2E2E2E2F5E2ECE2C1F5E2E2ECE2E2E2E2E2ECE2E2E2E2E2E2E2E2E2E2E2E2
310
E2E2E2E2E2E2E2E2E2E2E2E2E2E2E2E2E2E2E2E2E2E2E2E2E2E2E2E2E2E2E2E2E2E2E2E2E2E2E2E2E2E2E2E2E2E2E2E2E2E2E2E2E2E2E2E2E2E2E2E2E2E2E2E2E2E2E2E2E2E2E2E2E2E2E2ECE200F5E2E2ECE2E2E2E2E2ECE2E2E2E2E2E2E2E2E2E2E2E2E2E2E2E2E2E2E2E2E2E2E2E2E2E2E2E2E2E2E2E2E2E2E2E2E2E2E2
310
E2E2E2E2E2E2E2E2E2E2E2E2E2E2E2E2E2E2E2E2E2E2E2E2E2E2E2E2E2E2E2E2E2E2E2E2E2E2E2E2E2E2E2E2E2E2E2E2ECE242F5E2E2ECE2E2E2E2E2ECE2E2E2E2E2E2E2E2E2E2E2E2E2E2E2E2E2E2E2E2E2E2E2E2E2E2E2E2E2E2E2E2E2E2E2E2E2E2E2E2E2E2E2E2E2E2E2E2E2E2E2E2E2E2E2E2E2E2E2E2E2E2E2E2E2E2
310
E2E2E2E2E2E2E2E2E2E2E2E2E2E2E2E2E2E2E2E2E2ECE244F5E2E2ECE2E2E2E2E2ECE2E2E2E2E2E2E2E2E2E2E2E2E2E2E2E2E2E2E2E2E2E2E2E2E2E2E2E2E2E2E2E2E2E2E2E2E2E2E2E2E2E2E2E2E2E2E2E2E2E2E2E2E2E2E2E2E2E2E2E2E2E2E2E2E2E2E2E2E2E2E2E2E2E2E2E2E2E2E2E2E2E2E2E2E2E2E2ECE240F5E2E2
310
ECE2E2E2E2E2ECE2E2E2E2E2E2E2E2E2E2E2E2E2E2E2E2E2E2E2E2E2E2E2E2E2E2E2E2E2E2E2E2E2E2E2E2E2E2E2E2E2E2E2E2E2E2E2E2E2E2E2E2E2E2E2E2E2E2E2E2E2E2E2E2E2E2E2E2E2E2E2E2E2E2E2E2E2E2E2E2E2E2E2E2E2E2E2ECE200F5E2E2ECE2E2E2E2E2ECE2E2E2E2E2E2E2E2E2E2E2E2E2E2E2E2E2E2E2E2
310
E2E2E2E2E2E2E2E2E2E2E2E2E2E2E2E2E2E2E2E2E2E2E2E2E2E2E2E2E2E2E2E2E2E2E2E2E2E2E2E2E2E2E2E2E2E2E2E2E2E2E2E2E2E2E2E2E2E2E2E2E2E2E2E2E2E2E2ECE240F5E2E2ECE2E2E2E2E2ECE2E2E2E2E2E2E2E2E2E2E2E2E2E2E2E2E2E2E2E2E2E2E2E2E2E2E2E2E2E2E2E2E2E2E2E2E2E2E2E2E2E2E2E2E2E2E2
310
E2E2E2E2E2E2E2E2E2E2E2E2E2E2E2E2E2E2E2E2E2E2E2E2E2E2E2E2E2E2E2E2E2E2E2E2E2E2E2E2ECE200F5E2E2ECE2E2E2E2E2ECE2E2E2E2E2E2E2E2E2E2E2E2E2E2E2E2E2E2E2E2E2E2E2E2E2E2E2E2E2E2E2E2E2E2E2E2E2E2E2E2E2E2E2E2E2E2E2E2E2E2E2E2E2E2E2E2E2E2E2E2E2E2E2E2E2E2E2E2E2E2E2E2E2E2
310
E2E2E2E2E2E2E2E2E2E2E2E2E2ECE200F5E2E2ECE2E2E2E2E2ECE2E2E2E2E2E2E2E2E2E2E2E2E2E2E2E2E2E2E2E2E2E2E2E2E2E2E2E2E2E2E2E2E2E2E2E2E2E2E2E2E2E2E2E2E2E2E2E2E2E2E2E2E2E2E2E2E2E2E2E2E2E2E2E2E2E2E2E2E2E2E2E2E2E2E2E2E2E2E2E2E2E2E2E2E2E2E2ECE200F5E2E2ECE2E2E2E2E2ECE2
310
E2E2E2E2E2E2E2E2E2E2E2E2E2E2E2E2E2E2E2E2E2E2E2E2E2E2E2E2E2E2E2E2E2E2E2E2E2E2E2E2E2E2E2E2E2E2E2E2E2E2E2E2E2E2E2E2E2E2E2E2E2E2E2E2E2E2E2E2E2E2E2E2E2E2E2E2E2E2E2E2E2E2E2E2E2E2ECE200F5E2E2ECF5E2E2E2E2ECE2E2E2E2E2E2E2E2E2E2E2E2E2E2E2E2E2E2E2E2E2E2E2E2E2E2E2E2
310
E2E2E2E2E2E2E2E2E2E2E2E2E2E2E2E2E2E2E2E2E2E2E2E2E2E2E2E2E2E2E2E2E2E2E2E2E2E2E2E2E2E2E2E2E2E2E2E2E2E2E2E2E2E2E2E2E2F5E2ECE200F5E2E2ECF5E2E2E2E2ECE2E2E2E2E2E2E2E2E2E2E2E2E2E2E2E2E2E2E2E2E2E2E2E2E2E2E2E2E2E2E2E2E2E2E2E2E2E2E2E2E2E2E2E2E2E2E2E2E2E2E2E2E2E2E2
310
E2E2E2E2E2E2E2E2E2E2E2E2E2E2E2E2E2E2E2E2E2E2E2E2E2E2E2E2E2E2F5E2ECE200F5E2E2ECF5E2E2E2E2ECE2E2E2E2E2E2E2E2E2E2E2E2E2E2E2E2E2E2E2E2E2E2E2E2E2E2E2E2E2E2E2E2E2E2E2E2E2E2E2E2E2E2E2E2E2E2E2E2E2E2E2E2E2E2E2E2E2E2E2E2E2E2E2E2E2E2E2E2E2E2E2E2E2E2E2E2E2E2E2E2E2E2
310
E2E2E2F5E2ECE200F5E2E2ECF5E2E2E2E2ECE2E2E2E2E2E2E2E2E2E2E2E2E2E2E2E2E2E2E2E2E2E2E2E2E2E2E2E2E2E2E2E2E2E2E2E2E2E2E2E2E2E2E2E2E2E2E2E2E2E2E2E2E2E2E2E2E2E2E2E2E2E2E2E2E2E2E2E2E2E2E2E2E2E2E2E2E2E2E2E2E2E2E2E2E2F5E2ECE200F5E2E2ECF5E2E2E2E2ECE2E2E2E2E2E2E2E2E2
310
E2E2E2E2E2E2E2E2E2E2E2E2E2E2E2E2E2E2E2E2E2E2E2E2E2E2E2E2E2E2E2E2E2E2E2E2E2E2E2E2E2E2E2E2E2E2E2E2E2E2E2E2E2E2E2E2E2E2E2E2E2E2E2E2E2E2E2E2E2E2E2E2E2E2E2E2F5E2ECE200F5E2E2ECF5E2E2E2E2ECE2E2E2E2E2E2E2E2E2E2E2E2E2E2E2E2E2E2E2E2E2E2E2E2E2E2E2E2E2E2E2E2E2E2E2E2
310
E2E2E2E2E2E2E2E2E2E2E2E2E2E2E2E2E2E2E2E2E2E2E2E2E2E2E2E2E2E2E2E2E2E2E2E2E2E2E2E2E2E2E2E2E2E2E2E2E2F5E2ECE20AF5E2E2ECF5E2E2E2E2ECE2E2E2E2E2E2E2E2E2E2E2E2E2E2E2E2E2E2E2E2ECECECECECECECECECECECECECECECECECECECECECECECECECECECECECECECECECECECECECECECECECECEC
310
ECECECECECECECECE2E2E2E2E2E2E2E2E2E2E2E2E2E2F5E2ECE200F5E2E2ECF5E2E2E2E2ECE2E2E2E2E2E2E2E2E2E2E2E2E2E2E2E2E2E2E2E2ECE2E2E2E2E2E2E2E2E2E2E2E2E2E2E2E2E2E2E2E2E2E2E2E2E2E2E2E2E2E2E2E2E2E2E2E2E2E2E2E2E2E2E2E2E2E2E2E2E2ECE2E2E2E2E2E2E2E2E2E2E2E2E2E2F5E2ECE200
310
F5E2E2ECF5E2E2E2E2ECE2E2E2E2E2E2E2E2E2E2E2E2E2E2E2E2E2E2E2E2ECE2E2E2777777777777777777777777777777777777777777777777777777777777777763777777777777637777E2E2E2E2ECE2E2E2E2E2E2E2E2E2E2E2E2E2E2F5E2ECE200F5E2E2ECF5E2E2E2E2ECE2E2E2E2E2E2E2E2E2E2E2E2E2E2E2E2E2
310
E2E2E2ECE2E2E277E2E2E2E2E2E2E2E2E2E2E2E2E2E2E2E2E2E2E2E2E2E2E2E2E2E2E2E2E263636363E2E2E2E263636363E2E2E2E2ECE2E2E2E2E2E2E2E2E2E2E2E2E2E2F5E2ECE243F5E2E2ECF5E2E2E2E2ECE2E2E2E2E2E2E2E2E2E2E2E2E2E2E2E2E2E2E2E2ECE2E2E29C9C9C9C9C9C9C9C9C9C9C9C9C9C9C9C9C9C9C9C
310
9C9C9C9C9C9C9C9C9C9C9C9C9C9C9C9C9C9C9C9C9C9CE2E2E2E2ECE2E2E2E2E2E2E2E2E2E2E2E2E2E2F5E2ECE244F5E2E2ECF5E2E2E2E2ECE2E2E2E2E2E2E2E2E2E2E2E2E2E2E2E2E2E2E2E2ECE2E2E277636363E29C636363E2E2E2E2E2E29C636363636363E2E2E29CE2E2E2E2E26363639CE2E2E263636363E2E2E2E2EC
310
E2E2E2E2E2E2E2E2E2E2E2E2E2E2F5E2ECE200F5E2E2ECF5E2E2E2E2ECE2E2E2E2E2E2E2E2E2E2E2E2E2E2E2E2E2E2E2E2ECE2E2E277636363E29C636363636363E2E2E29C63636363636363E2E29CE2E2E2E2E26363639CE2E2E2E2636363E2E2E2E2ECE2E2E2E2E2E2E2E2E2E2E2E2E2E2F5E2ECE244F5E2E2ECF5E2E2E2
310
E2ECE2E2E2E2E2E2E2E2E2E2E2E2E2E2E2E2E2E2E2E2ECE2E2E277636363E29C636363E2E2E2E2E2E29C63636363636363E2E29CE2E2E2E2E26363639CE2E2E263636363E2E2E2E2ECE2E2E2E2E2E2E2E2E2E2E2E2E2E2F5E2ECE244F5E2E2ECF5E2E2E2E2ECE2E2E2E2E2E2E2E2E2E2E2E2E2E2E2E2E2E2E2E2ECE2E2E277
310
636363E29C636363E2E2E2E2E2E29C636363636363E2E2E29CE2E2E2E2E26363639CE2E2E263636363E2E2E2E2ECE2E2E2E2E2E2E2E2E2E2E2E2E2E2F5E2ECE200F5E2E2ECF5E2E2E2E2ECE2E2E2E2E2E2E2E2E2E2E2E2E2E2E2E2E2E2E2E2ECE2E2E277636363E29C636363636363E2E2E29C63636363636363E2E29CE2E2
310
E2E2E26363639CE2E2E2E2636363E2E2E2E2ECE2E2E2E2E2E2E2E2E2E2E2E2E2E2F5E2ECE244F5E2E2ECF5E2E2E2E2ECE2E2E2E2E2E2E2E2E2E2E2E2E2E2E2E2E2E2E2E2ECE2E2E277636363E29C636363E2E2E2E2E2E29C63636363636363E2E29CE2E2E2E2E26363639CE2E2E263636363E2E2E2E2ECE2E2E2E2E2E2E2E2
310
E2E2E2E2E2E2F5E2ECE242F5E2E2ECE2E2E2E2E2ECE2E2E2E2E2E2E2E2E2E2E2E2E2E2E2E2E2E2E2E2ECE2E2E277636363E29C636363E2E2E2E2E2E29C636363636363E2E2E29CE2E2E2E2E26363639CE2E2E263636363E2E2E2E2ECE2E2E2E2E2E2E2E2E2E2E2E2E2E2E2E2ECE200F5E2E2ECE2E2E2E2E2ECE2E2E2E2E2E2
310
E2E2E2E2E2E2E2E2E2E2E2E2E2E2ECE2E2E277636363639C63636363E2E2E2E2E29C63636363E2E2E2E2E29CE2E2E2E2E26363639CE2E2E263636363E2E2E2E2ECE2E2E2E2E2E2E2E2E2E2E2E2E2E2E2E2ECE244F5E2E2ECE2E2E2E2E2ECE2E2E2E2E2E2E2E2E2E2E2E2E2E2E2E2E2E2E2E2ECE2E2E277636363E29C636363
310
63E2E2E2E2E29C63636363636363E2E29CE2E2E2E2E26363639CE2E2E263636363E2E2E2E2ECE2E2E2E2E2E2E2E2E2E2E2E2E2E2E2E2ECE243F5E2E2ECE2E2E2E2E2ECE2E2E2E2E2E2E2E2E2E2E2E2E2E2E2E2E2E2E2E2ECE2E2E277636363E29C6363E2E2E2E2E2E2E29C63636363636363E2E29CE2E2E2E2E26363639CE2
310
E2E2E2636363E2E2E2E2ECE2E2E2E2E2E2E2E2E2E2E2E2E2E2E2E2ECE200F5E2E2ECE2E2E2E2E2ECE2E2E2E2E2E2E2E2E2E2E2E2E2E2E2E2E2E2E2E2ECE2E2E277636363E29C636363E2E2E2E2E2E29C63636363636363E2E29CE2E2E2E2E26363639CE2E2E263636363E2E2E2E2ECE2E2E2E2E2E2E2E2E2E2E2E2E2E2E2E2
310
ECE244F5E2E2ECE2E2E2E2E2ECE2E2E2E2E2E2E2E2E2E2E2E2E2E2E2E2E2E2E2E2ECE2E2E277636363E29C636363E2E2E2E2E2E29CE2E263E2E263E2E2E29CE2E2E2E2E26363639CE2E2E263636363E2E2E2E2ECE2E2E2E2E2E2E2E2E2E2E2E2E2E2E2E2ECE244F5E2E2ECE2E2E2E2E2ECE2E2E2E2E2E2E2E2E2E2E2E2E2E2
310
E2E2E2E2E2E2ECE2E2E277636363E29C63636363E2E2E2E2E29C6363636363E2E2E2E29CE2E2E2E2E26363639CE2E2E2E2636363E2E2E2E2ECE2E2E2E2E2E2E2E2E2E2E2E2E2E2E2E2ECE200F5E2E2ECE2E2E2E2E2ECE2E2E2E2E2E2E2E2E2E2E2E2E2E2E2E2E2E2E2E2ECE2E2E277636363E29C63636363E2E2E2E2E29C63
310
63636363E2E2E2E29CE2E2E2E2E26363639CE2E2E2E2636363E2E2E2E2ECE2E2E2E2E2E2E2E2E2E2E2E2E2E2E2E2ECE243F5E2E2ECE2E2E2E2E2ECE2E2E2E2E2E2E2E2E2E2E2E2E2E2E2E2E2E2E2E2ECE2E2E29C9C9C9C9C9C9C9C9C9C9C9C9C9C9C9C9C9C9C9C9C9C9C9C9C9C9C9C9C9C9C9C9C9C9C9C9C9C9C9C9C9CE2E2
310
E2E2ECE2E2E2E2E2E2E2E2E2E2E2E2E2E2E2E2ECE244F5E2E2ECF5E2E2E2E2ECE2E2E2E2E2E2E2E2E2E2E2E2E2E2E2E2E2E2E2E2ECE2E2E29C9C9C9C9C9C9C9C9C9C9C9C9C9C9C9C9C9C63636363639C9C9C63636363636363639C63636363636363E2E2E2E2ECE2E2E2E2E2E2E2E2E2E2E2E2E2E2F5E2ECE200F5E2E2ECF5
310
E2E2E2E2ECE2E2E2E2E2E2E2E2E2E2E2E2E2E2E2E2E2E2E2E2ECE2E2E2A9A9A9A9A9A9A9A9A9A9A9A9A9A9A9A9A9A9A9A9A9E2E2E2E2E2E2E2E2E2E2E2E2E2E2E2E2E2E2E2E277E2E2E2E2ECE2E2E2E2E2E2E2E2E2E2E2E2E2E2F5E2ECE203F5E2E2ECF5E2E2E2E2ECE2E2E2E2E2E2E2E2E2E2E2E2E2E2E2E2E2E2E2E2ECE2
310
E2E2A9A9A9A9A9A977777777A977A9A97777A9A9777777777777777777777777777777777777777777777777E2E2E2E2ECE2E2E2E2E2E2E2E2E2E2E2E2E2E2F5E2ECE200F5E2E2ECF5E2E2E2E2ECE2E2E2E2E2E2E2E2E2E2E2E2E2E2E2E2E2E2E2E2ECE2E2E2E2E2E2E2E2E2E2E2E2E2E2E2E2E2E2E2E2E2E2E2E2E2E2E2E2
310
E2E2E2E2E2E2E2E2E2E2E2E2E2E2E2E2E2E2E2E2E2ECE2E2E2E2E2E2E2E2E2E2E2E2E2E2F5E2ECE211F5E2E2ECF5E2E2E2E2ECE2E2E2E2E2E2E2E2E2E2E2E2E2E2E2E2E2E2E2E2ECECECECECECECECECECECECECECECECECECECECECECECECECECECECECECECECECECECECECECECECECECECECECECECECECECECE2E2E2E2E2
310
E2E2E2E2E2E2E2E2E2F5E2ECE233F5E2E2ECF5E2E2E2E2ECE2E2E2E2E2E2E2E2E2E2E2E2E2E2E2E2E2E2E2E2E2E2E2E2E2E2E2E2E2E2E2E2E2E2E2E2E2E2E2E2E2E2E2E2E2E2E2E2E2E2E2E2E2E2E2E2E2E2E2E2E2E2E2E2E2E2E2E2E2E2E2E2E2E2E2E2E2E2E2E2E2E2E2E2E2F5E2ECE200F5E2E2ECF5E2E2E2E2ECE2E2E2
310
E2E2E2E2E2E2E2E2E2E2E2E2E2E2E2E2E2E2E2E2E2E2E2E2E2E2E2E2E2E2E2E2E2E2E2E2E2E2E2E2E2E2E2E2E2E2E2E2E2E2E2E2E2E2E2E2E2E2E2E2E2E2E2E2E2E2E2E2E2E2E2E2E2E2E2E2E2E2E2E2E2E2F5E2ECE200F5E2E2ECF5E2E2E2E2ECE2E2E2E2E2E2E2E2E2E2E2E2E2E2E2E2E2E2E2E2E2E2E2E2E2E2E2E2E2E2
310
E2E2E2E2E2E2E2E2E2E2E2E2E2E2E2E2E2E2E2E2E2E2E2E2E2E2E2E2E2E2E2E2E2E2E2E2E2E2E2E2E2E2E2E2E2E2E2E2E2E2E2E2E2E2E2F5E2ECE27EF5E2E2ECF5E2E2E2E2ECE2E2E2E2E2E2E2E2E2E2E2E2E2E2E2E2E2E2E2E2E2E2E2E2E2E2E2E2E2E2E2E2E2E2E2E2E2E2E2E2E2E2E2E2E2E2E2E2E2E2E2E2E2E2E2E2E2
310
E2E2E2E2E2E2E2E2E2E2E2E2E2E2E2E2E2E2E2E2E2E2E2E2E2E2E2E2F5E2ECE200F5E2E2ECF5E2E2E2E2ECE2E2E2E2E2E2E2E2E2E2E2E2E2E2E2E2E2E2E2E2E2E2E2E2E2E2E2E2E2E2E2E2E2E2E2E2E2E2E2E2E2E2E2E2E2E2E2E2E2E2E2E2E2E2E2E2E2E2E2E2E2E2E2E2E2E2E2E2E2E2E2E2E2E2E2E2E2E2E2E2E2E2E2E2
310
E2F5E2ECE200F5E2E2ECF5E2E2E2E2ECE2E2E2E2E2E2E2E2E2E2E2E2E2E2E2E2E2E2E2E2E2E2E2E2E2E2E2E2E2E2E2E2E2E2E2E2E2E2E2E2E2E2E2E2E2E2E2E2E2E2E2E2E2E2E2E2E2E2E2E2E2E2E2E2E2E2E2E2E2E2E2E2E2E2E2E2E2E2E2E2E2E2E2E2E2F5E2ECE2CDF5E2E2ECF5E2E2E2E2ECE2E2E2E2E2E2E2E2E2E2E2
310
E2E2E2E2E2E2E2E2E2E2E2E2E2E2E2E2E2E2E2E2E2E2E2E2E2E2E2E2E2E2E2E2E2E2E2E2E2E2E2E2E2E2E2E2E2E2E2E2E2E2E2E2E2E2E2E2E2E2E2E2E2E2E2E2E2E2E2E2E2E2E2E2E2E2F5E2ECE200F5E2E2ECF5E2E2E2E2ECE2E2E2E2E2E2E2E2E2E2E2E2E2E2E2E2E2E2E2E2E2E2E2E2E2E2E2E2E2E2E2E2E2E2E2E2E2E2
310
E2E2E2E2E2E2E2E2E2E2E2E2E2E2E2E2E2E2E2E2E2E2E2E2E2E2E2E2E2E2E2E2E2E2E2E2E2E2E2E2E2E2E2E2E2E2E2F5E2ECE2CDF5E2E2ECF5E2E2E2E2ECE2E2E2E2E2E2E2E2E2E2E2E2E2E2E2E2E2E2E2E2E2E2E2E2E2E2E2E2E2E2E2E2E2E2E2E2E2E2E2E2E2E2E2E2E2E2E2E2E2E2E2E2E2E2E2E2E2E2E2E2E2E2E2E2E2
310
E2E2E2E2E2E2E2E2E2E2E2E2E2E2E2E2E2E2E2E2F5E2ECE200F5E2E2ECF5E2E2E2E2ECE2E2E2E2E2E2E2E2E2E2E2E2E2E2E2E2E2E2E2E2E2E2E2E2E2E2E2E2E2E2E2E2E2E2E2E2E2E2E2E2E2E2E2E2E2E2E2E2E2E2E2E2E2E2E2E2E2E2E2E2E2E2E2E2E2E2E2E2E2E2E2E2E2E2E2E2E2E2E2E2E2E2E2E2E2F5E2ECE2CDF5E2
310
E2ECF5E2E2E2E2ECE2E2E2E2E2E2E2E2E2E2E2E2E2E2E2E2E2E2E2E2E2E2E2E2E2E2E2E2E2E2E2E2E2E2E2E2E2E2E2E2E2E2E2E2E2E2E2E2E2E2E2E2E2E2E2E2E2E2E2E2E2E2E2E2E2E2E2E2E2E2E2E2E2E2E2E2E2E2E2E2E2E2E2E2E2F5E2ECE200F5E2E2ECF5E2E2E2E2ECE2E2E2E2E2E2E2E2E2E2E2E2E2E2E2E2E2E2E2
310
E2E2E2E2E2E2E2E2E2E2E2E2E2E2E2E2E2E2E2E2E2E2E2E2E2E2E2E2E2E2E2E2E2E2E2E2E2E2E2E2E2E2E2E2E2E2E2E2E2E2E2E2E2E2E2E2E2E2E2E2E2E2E2E2E2E2F5E2ECE2CDF5E2E2ECE2E2E2E2E2ECE2E2ECECECECECECECECECECECECECECECECECECECECECECECECECECECECECECECECECECECECECECECECECECECEC
310
ECECECECECECECECECECECECECECECECECECECECECECECECECECECECECECECECECECECECE2E2E2E2E2ECE200F5E2E2ECE2E2E2E2E2ECE2E2ECF5E2E2E2E2E2E2E2E2E2E2E2E2E2E2E2E2E2E2E2E2E2E2E2E2E2E2E2E2E2E2E2E2E2E2E2E2E2E2E2E2E2E2E2E2E2E2E2E2E2E2E2E2E2E2E2E2E2E2E2E2E2E2E2E2E2E2E2E2E2
310
E2E2E2E2E2E2E2E2ECE2E2E2E2E2ECE2CDF5E2E2ECE2E2E2E2E2ECE2E2ECF5E2E2E2E2E2E2E2E2E2E2E2E2E2E2E2E2E2E2E2E2E2E2E2E2E2E2E2E2E2E2E2E2E2E2E2E2E2E2E2E2E2E2E2E2E2E2E2E2E2E2E2E2E2E2E2E2E2E2E2E2E2E2E2E2E2E2E2E2E2E2E2E2E2E2E2E2E2ECE2E2E2E2E2ECE200F5E2E2ECE2E2E2E2E2EC
310
E2E2ECF5E2E2E2E2E2E2E2E2E2E2E2E2E2E2E2E2E2E2E2F5F5E2E2E2E2E2E2E2E2E2E2E2E2E2E2E2E2E2E2E2E2E2E2E2E2E2E2E2E2E2E2E2E2E2E2E2E2E2E2E2E2E2E2E2E2E2E2E2E2E2E2E2E2E2E2E2E2ECE2E2E2E2E2ECE2CDF5E2E2ECE2E2E2E2E2ECE2E2ECF5E2E2E2E2E2E2E2E2E2E2E2E2E2E2E2E2E2E227F5F5A0A0
310
A0A0F5A0A0A0A0A0A0A0A0A0A0A0A0A0A0A0A0A0A0A0A0A0A0A0A0A0A0A0A0A0A0A0A0A0A0A0A0A0A0A0A0A0A0E2E2E2E2E2E2E2E2E2ECE2E2E2E2E2ECE200F5E2E2ECE2E2E2E2E2ECE2E2ECF5E2E2E2E2E2E2E2E2E2E2E2E2E2E2E2E2E2E22727E2A0A0E2E2E2E2E2E2E2E2E2E2E2E2E2E2E2E2E2E2E2E2E2E2E2E2E2E2E2
310
E2E2E2E2E2E2E2E2E2E2E2E2E2E2E2E2A0A0E2E2E2E2E2E2E2E2E2ECE2E2E2E2E2ECE2CDF5E2E2ECECECECECECECE2E2ECF5E2E2E2E2E2E2E2E2E2E2E2E2E2E2E2E2E2E22727E2A0E2A01D1D1DF51D1D1DF51D1DF51D1DF51D1DF5F51D1DF51D1D1D1D1D1D1D1D1D1D1D1D1D1D1DF5F51D1D1DA0E2A0E2E2E2E2E2E2E2E2E2
310
ECE2E2E2E2E2ECEC00F5E2E2ECE2E2E2E2E2ECE2E2ECF5E2E2E2E2E2E2E2E2E2E2E2E2E2E2E2E2E2E22727F5A0E2E21DF5F5F5F5F5F5F5F5F5F5F5F5F5F51DF5F51D1DF51D1DF51DF5F5F5F5F5F5F5F5F5F5F5F5F5F5F5F5E2E2A0E2E2E2E2E2E2E2E2E2ECE2E2E2E2E2ECE2CDF5E2E2ECE2E2E2E2E2ECE2E2ECF5E2E2E2E2
310
E2E2E2E2E2E2E2E2E2E2E2E2E2E2E2F5E2A0E2E2F5F5F5F5F5F5F5F5F5F5F5F5F5F5F522222222222222222222F5F5F5F5F5F5F5F5F5F5F5F5F5F5F51DE2E2A0E2E2E2E2E2E2E2E2E2ECE2E2E2E2E2ECE200F5E2E2ECE2E2E2E2E2ECE2E2ECF5E2E2E2E2E2E2E2E2E2E2E2A0A0A0A0A0A0A0A0A0A0A0A0A01DF5BEBEBEBEBE
310
BEBEBEBEBEBEBEBEBE1D1D29292929291D1DF5F5F5BEBEBEBEF5F5F5F5F5BEF5F51DE2E2A0E2E2E2E2E2E2E2E2E2ECE2E2E2E2E2ECE2CDF5E2E2ECF5E2E2E2E2ECE2E2ECF5E2E2E2E2E2E2E2E2E2E2E2A0A0E2E2E2E2E2E2E2E2A0E2E21DF5F5E2BEE2E2272727E222E2E2BEBEBEBEBEBEBEBEBE272727BEBEBEBEBEBEBE27
310
2727BEBEF5F5F5E2E2A0E2E2E2E2E2E2E2E2E2ECE2E2E2F5E2ECE200F5E2E2ECF5E2E2E2E2ECE2E2ECF5E2E2E2E2E2E2E2E2E2E2E2A0E2F5F5F5F5F5F5F5F5A0F5F5F5F5F5E2BE292927272729292929F5E2BEE22929292929272727E229BE29F5E2E2272727E2F5F5F51DE2E2A0E2E2E2E2E2E2E2E2E2ECE2E2E2F5E2ECE2
310
CDF5E2E2ECF5E2E2E2E2ECE2E2ECF5E2E2E2E2E2E2E2E2E2E2E2A0E2F5F5F5F5F5BEF5F5F5BEF5F5F5F5E2BE29BEE222575757E2E2F5E2E2BEE229BE29E229E2E2E229BEE2F5E2E2E2BEE2E2F5F5F51DE2E2A0E2E2E2E2E2E2E2E2E2ECE2E2E2F5E2ECE200F5E2E2ECF5E2E2E2E2ECE2E2ECF5E2E2E2E2E2E2E2E2E2E2E2A0
310
E2F5F5F5F5F5F5F5F5F5BEF5F5F5F5E2BE29E2BEE25757E257E2F52929BEE2E2BEE2BE29E2E2E2E2BE29F5E2E2BEE2E2E2F5F5F5F5E2E2A0E2E2E2E2E2E2E2E2E2ECE2E2E2F5E2ECE2CAF5E2E2ECF5E2E2E2E2ECE2E2ECF5E2E2E2E2E2E2E2E2E2E2E2A0E2F5F5F5F5F5F5F5F5F5BEF5F5F5F5272729E2E2BEE25757E257F5
310
E229E2BEBEBEBEE22929292727BE29F5E2BEE2E2E2E2F5F5F51DE2E2A0E2E2E2E2E2E2E2E2E2ECE2E2E2F5E2ECE200F5E2E2ECF5E2E2E2E2ECE2E2ECF5E2E2E2E2E2E2E2E2E2E2E2A0E2F5F5F5F5F5F5F5F5F5BEF5F5F5F52727295757E2BEE2575757F5E229E2E2E2BEE2E2E2E2E22727BEE2F5BEE2E2E2E2E2F5F5F51DE2
310
E2A0E2E2E2E2E2E2E2E2E2ECE2E2E2F5E2ECE200F5E2E2ECF5E2E2E2E2ECE2E2ECF5E2E2E2E2E2E2E2E2E2E2E2A0E2F5BEBEBEBEBE272727BEBEBEBEBE2727295757E2E2BEE25757F5F5F5E2E2E2E2E2E2E2E2E22727BE29F5E2E2E2E2E2E2F5F5F51DE2E2A0E2E2E2E2E2E2E2E2E2ECE2E2E2F5E2ECE240F5E2E2ECF5E2E2
310
E2E2ECE2E2ECF5E2E2E2E2E2E2E2E2E2E2E2A0E2F5F5F5F5E2BE272727BEE2E2E2F52727E2E2E2E2E2E2BEE2E257F5F5E2E2E2E2E2E2E2E2E22727BEBEF5E2E2E2222222F5F5F5F5E2E2A0E2E2E2E2E2E2E2E2E2ECE2E2E2F5E2ECE27FF5E2E2ECF5E2E2E2E2ECE2E2ECF5E2E2E2E2E2E2E2E2E2E2E2A0E2F5F5F5F5E2E2BE
310
BEE2BEE2E2E2F5E2BEBEE2E2E2E2E2BEBEE257F5F5E2E2E2E2E2E2292929E2E2BEE2E2E2E2E222E2E2F5F5F51DE2E2A0E2E2E2E2E2E2E2E2E2ECE2E2E2F5E2ECE23FF5E2E2ECF5E2E2E2E2ECE2E2ECF5E2E2E2E2E2E2E2E2E2E2E2A0E2F5F5F5F52222E2E2BEBE292929F5F5BEE2BEE229575757E2BE57F5F5D6D6E2E2E2E2
310
29E229E2BEBEE2E2E2E2E222E2E2F5F5F51DE2E2A0E2E2E2E2E2E2E2E2E2ECE2E2E2F5E2ECE200F5E2E2ECF5E2E2E2E2ECE2E2ECF5E2E2E2E2E2E2E2E2E2E2E2A0E2F51D1DE2E222E2E2BEBE29E2E2F5F5BE29292929E25757E2BEE2F5F5D6D6D6E2292929292929D6BED6F5292929292929F5F5F5F5E2E2A0E2E2E2E2E2E2
310
E2E2E2ECE2E2E2F5E2ECE200F5E2E2ECF5E2E2E2E2ECE2E2ECF5E2E2E2E2E2E2E2E2E2E2E2A0E2F51D1DE2E222E2E2E2BE292929F5F5BE2929BE2957E257E2E2BEF5F5D6D6E2D629292929292929BE29F5E229292929E2F5F5F51DE2E2A0E2E2E2E2E2E2E2E2E2ECE2E2E2F5E2ECE200F5E2E2ECF5E2E2E2E2ECE2E2ECF5E2
310
E2E2E2E2E2E2E2E2E2E2A0E2F5F5F5F5292929E2E2BE292929F5BEBEBEF5F5F5F5F5F5F5E2E2F5F5F5D6E2D6F5F5F5F5F5F5F5BEF5BEF5F5F5F5F5F5F5F5F51DE2E2A0E2E2E2E2E2E2E2E2E2ECE2E2E2F5E2ECE200F5E2E2ECF5E2E2E2E2ECE2E2ECF5E2E2E2E2E2E2E2E2E2E2E2A0E2F5F5F5F5222229E22727292929F5F5
310
F5F5F5F5F5F5F5F5F5E2E2F5BEF5E2BEBEBEF5F5F5F5F5F5F5F5F5F5F5BEF5F5F5BEF5F5F5E2E2A0E2E2E2E2E2E2E2E2E2ECE2E2E2F5E2ECE200F5E2E2ECF5E2E2E2E2ECE2E2ECF5E2E2E2E2E2E2E2E2E2E2E2A0E2F5BE1D29E22929292727292929BEBE1DBEC4C4C4C4C4C4C4E2E2D6E2BEBEE2BEF5BE2929E2F5F5F5F5F5
310
F529BE292929F5F5F51DE2E2A0E2E2E2E2E2E2E2E2E2ECE2E2E2F5E2ECE200F5E2E2ECF5E2E2E2E2ECE2E2ECF5E2E2E2E2E2E2E2E2E2E2E2A0E2F51D1D29E2292929272729E2BEF51DE2C41D1D1D1D1D1D1DD6D6E2E2E2272727BE2929292929E2E2E2E2E2E2BEE22929BEF5F51DE2E2A0E2E2E2E2E2E2E2E2E2ECE2E2E2F5
310
E2ECE200F5E2E2ECF5E2E2E2E2ECE2E2ECF5E2E2E2E2E2E2E2E2E2E2E2A0E2F5F5F5F5222229E22727292929F51D1D1D1D1D1D1D1D1D1DE2E2E2E2E2272727BEBEBEBEBEBEBE272727BEBEBEBEBEBEBEF5F5F5E2E2A0E2E2E2E2E2E2E2E2E2ECE2E2E2F5E2ECE200F5E2E2ECE2E2E2E2E2ECE2E2ECF5E2E2E2E2E2E2E2E2E2
310
E2E2A0E2F5F5F5F5292929E2E2BEE2BED6F51D1D1D1D1D1D1D1D1D1DE2E2E2E2E2272727BEE2D6E2E2E2E227272727E2BE222229F5F5F5F5E2E2A0E2E2E2E2E2E2E2E2E2ECE2E2E2E2E2ECE200F5E2E2ECE2E2E2E2E2ECE2E2ECF5E2E2E2E2E2E2E2E2E2E2E2A0E2F51D1DE2E222E2E2E2BEBED6E21DE2E2E21D1D1D1D1DE2
310
E2E2E2E2E2E22727BEF5BEE2E2E2E2E2E2E2E2E2E2BE22E229F5F5F5F5E2E2A0E2E2E2E2E2E2E2E2E2ECE2E2E2E2E2ECE200F5E2E2ECE2E2E2E2E2ECE2E2ECF5E2E2E2E2E2E2E2E2E2E2E2A0E2F51D1DE2E222E2E2BEBED6E2E21DE2E2E21D1D1D1D1DE2E2E2E2E2E2BEE2E2BEF5BEE2E2E2E2E2E2E2E2E2272722E229F5F5
310
F51DF5E2A0E2E2E2E2E2E2E2E2E2ECE2E2E2E2E2ECE200F5E2E2ECE2E2E2E2E2ECE2E2ECF5E2E2E2E2E2E2E2E2E2E2E2A0E2F5F5F5F52222E2E2BEBED62929BEF5F5BEF5F5F5F5F5E2E2F5F5F5BEF5F5F5BEF529292929E2E2E2E2E2E22727292929F5F5F5F5F5E2A0E2E2E2E2E2E2E2E2E2ECE2E2E2E2E2ECE200F5E2E2EC
310
E2E2E2E2E2ECE2E2ECF5E2E2E2E2E2E2E2E2E2E2E2A0E2F5F5F5F5E229292929BE292929F5E229BE292929E229E2E2F5F5BEE2E229E229F5F5292929E2E2E2E2E2E22727222929F5F5F51DF5E2A0E2E2E2E2E2E2E2E2E2ECE2E2E2E2E2ECE200F5E2E2ECE2E2E2E2E2ECE2E2ECF5E2E2E2E2E2E2E2E2E2E2E2A0E2F5F5F5F5
310
E229E2E2E2BEE22929F5BE29BEE22929E229E2E2D6BEE2E2E2E229E229F5F5E229E2E2E2E2E2E2E2BE222929F5F5F51DF5E2A0E2E2E2E2E2E2E2E2E2ECE2E2E2E2E2ECE200F5E2E2ECE2E2E2E2E2ECE2E2ECF5E2E2E2E2E2E2E2E2E2E2E2A0E2F5F5F5F5A029E2E2E2BE292929F52929BE2929292929D6D6BEE2E2E2E22929
310
29E229F5F5E2BEBEE2E2E2E2E2BE222929F5F5F5F5F5E2A0E2E2E2E2E2E2E2E2E2ECE2E2E2E2E2ECE200F5E2E2ECE2E2E2E2E2ECE2E2ECF5E2E2E2E2E2E2E2E2E2E2E2A0E2F5F5F5F5F5F5F5F5F5BEF5F5F5F5E2E2BEE2E2E2E2E2E2BEE2E2E2E229E229BE29E229F5BEE2E2BEE2E2E2E2BE222929BEF5F51DF5E2A0E2E2E2
310
E2E2E2E2E2E2ECE2E2E2E2E2ECE200F5E2E2ECE2E2E2E2E2ECE2E2ECF5E2E2E2E2E2E2E2E2E2E2E2A0E2F5F5F5F5F5F5F5F5F5BEF5F5F5F522272722E2E2E2E2BEE2E2E2E229BEBEE2BEE229E229F5292929D6D6E2E2BE22E2E2F5F5F51DF5E2A0E2E2E2E2E2E2E2E2E2ECE2E2E2E2E2ECE200F5E2E2ECF5E2E2E2E2ECE2E2
310
ECF5E2E2E2E2E2E2E2E2E2E2E2A0E2F5F5F5F5F5BEF5F5F5BEF5F5F5F5E2272722E2E2E2BEBEE2E2E229BEE2E2E2BEE2E229E2F5292929BEBED6E2BE292929F5F5F51DF5E2A0E2E2E2E2E2E2E2E2E2ECE2E2E2F5E2ECE200F5E2E2ECF5E2E2E2E2ECE2E2ECF5E2E2E2E2E2E2E2E2E2E2E2A0E2F5A0E2E2C3E2E2E2C3A0E2F5
310
F5F5E2272729E229BEE2E2E2E2E2E229E2E2E2BEE229E229F5F5F5F5E2E2F5F5BEF5F5F5BEF5F5F5F5E2A0E2E2E2E2E2E2E2E2E2ECE2E2E2F5E2ECE200F5E2E2ECF5E2E2E2E2ECE2E2ECF5E2E2E2E2E2E2E2E2E2E2E2F5E2F5F5F5F5C3F5F5F5C3F5F5F5F5F52229BE2929E229E2E2E2E2BEBEE229E2E2BE29E2E2E2F5F5F5
310
F5E2E2F5F5F5F5F5BEBEF5F51DF5C3F5F5F5F5E2E2E2E2E2E2ECE2E2E2F5E2ECE240F5E2E2ECF5E2E2E2E2ECE2E2ECF5E2E2E2E2E2E2E2E2E2E2E2A0A0E2E2E2E2C3E2E2E2C3E2E2F5F5F5E229BE2929BE29E2E2E2BEE2E2E2E229E229E2E2E2E2BEBEBEBEBE272727BEBEBEBEBEF5F5F5E2E2F5F5F5F5E2E2E2E2E2E2ECE2
310
E2E2F5E2ECE200F5E2E2ECF5E2E2E2E2ECE2E2ECF5E2E2E2E2E2E2E2E2E2E2E2A0A0A0A0A0A0C3A0A0A0C3A0A0F5F5BEBEBEBEBEBEBEBEBEBEBEBEBE27272727BEBEBEBEBEBEBE2929E2E2272727E2BE2727F5F5F5F5E2E2A0E2E2E2E2E2E2E2E2E2ECE2E2E2F5E2ECE240F5E2E2ECF5E2E2E2E2ECE2E2ECF5E2E2E2E2E2E2
310
E2E2E2E2E2F5E2F5E2E2F5C3E2E2F5C3E2E2F5F5F5E2E2BEBE29E229E2E2BE292927272727E2BEE2E2D6E2F52929E2E2E2E2E2E2BE2727F5F5F51DC3C3C3C3C3C3E2E2E2E2E2E2ECE2E2E2F5E2ECE200F5E2E2ECF5E2E2E2E2ECE2E2ECF5E2E2E2E2E2E2E2E2E2F5F5F527F5F5E2F5C3E2E2F5C3E2E2F5F5F5E2BEBEE22929
310
29E22929292929E2E2E2E2BED6D6D6E2F52929E2E2E2E2E2E2E22727F5F5F51DE2E2F5F5F5F5E2E2E2E2E2E2ECE2E2E2F5E2ECE200F5E2E2ECF5E2E2E2E2ECE2E2ECF5E2E2E2E2E2E2E2E2E2E2E22727F5E2E2F5C3E2E2F5C3E2E2F5F5F5BEE2BEE2E2E2E2E229BEE2E229E2E2E2E2D6E2E2D6E2F5E229E2E2E2E2E2E2E2E2
310
BEF5F5F5F5E2E2A0E2E2E2E2E2E2E2E2E2ECE2E2E2F5E2ECE200F5E2E2ECF5E2E2E2E2ECE2E2ECF5E2E2E2E2E2E2E2E2E2E2E22727E2E2E2F5C3E2E2F5C3E2E2F5F5BEF5F5BEF5F5F5F5F5F5F5F5F5F5F5F5D6D6D6E2E2F5F5BEF5F5F5F5F5F5F5F5F5F5BEBEF5F5F5E2E2A0E2E2E2E2E2E2E2E2E2ECE2E2E2F5E2ECE200F5
310
E2E2ECF5E2E2E2E2ECE2E2ECF5E2E2E2E2E2E2E2E2E2E2E2E2E2E2E2E2E2E2F5F5F5A0E2E2F5F5F5F5F5F5F5F5F5F5F5F5F5F5F5F5F5F5D6D6D6D6D6F5F5F5F5F5F5F5F5F5F5F5F5F5F5F5F5F51DE2E2F5E2E2E2E2E2E2E2E2E2ECE2E2E2F5E2ECE200F5E2E2ECF5E2E2E2E2ECE2E2ECF5E2E2E2E2E2E2E2E2E2E2E2E2E2E2
310
E2E2E2272727E2A0E2E2F5F5F51D1D1D1D1DF51D1DF5F51DF572E2E2E2E2BEE2E2E2E2F5F5F5F5F5F5F5F5F5F5F5F5F5F5F51DE2E2A0E2E2E2E2E2E2E2E2E2ECE2E2E2F5E2ECE200F5E2E2ECF5E2E2E2E2ECE2E2ECF5E2E2E2E2E2E2E2E2E2E2E2E2E2E2E2E2E2272727E2A0E2A0F5F5F5F5F5F5F5F5F5F5F5F5F5F5F5BEBE
310
BEBEBEBEBEBEBEBEF5F5F5F5F5F5F5F5F5F5F5F5F5F5F5F5A0E2A0E2E2E2E2E2E2E2E2E2ECE2E2E2F5E2ECE200F5E2E2ECF5E2E2E2E2ECE2E2ECF5E2E2E2E2E2E2E2E2E2E2E2E2E2E2E2E2E2272727E2A0A0E2E2E2E2E2E2E2E2E2E2E2E2E2E2E2A072E2E2E2E2E2E2E2E2E2A0E2E2E2E2E2C3E2E2E2C3E2E2E2E2E2E2A0A0
310
E2E2E2E2E2E2E2E2E2ECE2E2E2F5E2ECE200F5E2E2ECF5E2E2E2E2ECE2E2ECF5E2E2E2E2E2E2E2E2E2E2E2E2E2E2E2E2E2E227F5F5A0A0A0A0F5A0A0A0A0A0A0A0A0A0A0A0A0A072727272727272727272A0A0A0A0A0F5F5A0A0F5F5A0A0A0A0A0A0A0A0E2E2E2E2E2E2E2E2E2ECE2E2E2F5E2ECE200F5E2E2ECF5E2E2E2E2
310
ECE2E2ECF5E2E2E2E2E2E2E2E2E2E2E2E2E2E2E2E2E2E2E2F5E2E2E2E2E2E2E2E2E2E2E2E2E2E2E2E2E2E2E2E2E2E2E2E2E2E2E2E2E2E2E2E2E2E2F5F5E2E2F5F5E2E2E2F5E2E2E2F5E2E2E2E2E2E2E2E2E2ECE2E2E2F5E2ECE200F5E2E2ECF5E2E2E2E2ECE2E2ECF5E2E2E2E2E2E2E2E2E2E2E2E2E2E2E2E2E2E2E2E2E2E2
310
E2E2E2E2E2E2E2E2E2E2E2E2E2E2E2E2E2E2E2E2E2E2E2E2E2E2E2E2E2E2E2E2F5F5E2E2F5F5E2E2F5F5272727F5E2E2E2E2E2E2E2E2E2ECE2E2E2F5E2ECE200F5E2E2ECF5E2E2E2E2ECE2E2ECF5E2E2E2E2E2E2E2E2E2E2E2E2E2E2E2E2E2E2E2E2E2E2E2E2E2E2E2E2E2E2E2E2E2E2E2E2E2E2E2E2E2E2E2E2E2E2E2E2E2
310
E2E2E2E2E2F5F5E2E2F5F5E2E2E227272727F5E2E2E2E2E2E2E2E2E2ECE2E2E2F5E2ECE200F5E2E2ECE2E2E2E2E2ECE2E2ECF5E2E2E2E2E2E2E2E2E2E2E2E2E2E2E2E2E2E2E2E2E2E2E2E2E2E2E2E2E2E2E2E2E2E2E2E2E2E2E2E2E2E2E2E2E2E2E2E2E2E2E2E2E2E2F5F5E2E2F5F5E2E2E2E2E2E2E2E2E2E2E2E2E2E2E2E2
310
E2ECE2E2E2E2E2ECE200F5E2E2ECE2E2E2E2E2ECE2E2ECF5E2E2E2E2E2E2E2E2E2E2E2E2E2E2E2E2E2E2E2E2E2E2E2E2E2E2E2E2E2E2E2E2E2E2E2E2E2E2E2E2E2E2E2E2E2E2E2E2E2E2E2E2E2E2E2E2E2E2E2E2E2E2E2E2E2E2E2E2E2E2E2E2E2E2E2E2E2ECE2E2E2E2E2ECE200F5E2E2ECE2E2E2E2E2ECE2E2ECF5E2E2E2
310
E2E2E2E2E2E2E2E2E2E2E2E2E2E2E2E2E2E2E2E2E2E2E2E2E2E2E2E2E2E2E2E2E2E2E2E2E2E2E2E2E2E2E2E2E2E2E2E2E2E2E2E2E2E2E2E2E2E2E2E2E2E2E2E2E2E2E2E2E2E2E2E2E2E2ECE2E2E2E2E2ECE200F5E2E2ECE2E2E2E2E2ECE2E2ECF5E2E2E2E2E2E2E2E2E2E2E2E2E2E2E2E2E2E2E2E2E2E2E2E2E2E2E2E2E2E2
310
E2E2E2E2E2E2E2E2E2E2E2E2E2E2E2E2E2E2E2E2E2E2E2E2E2E2E2E2E2E2E2E2E2E2E2E2E2E2E2E2E2E2E2E2E2E2E2ECE2E2E2E2E2ECE236F5E2E2ECE2E2E2E2E2ECE2E2ECF5E2E2E2E2E2E2E2E2E2E2E2E2E2E2E2E2E2E2E2E2E2E2E2E2E2E2E2E2E2E2E2E2E2E2E2E2E2E2E2E2E2E2E2E2E2E2E2E2E2E2E2E2E2E2E2E2E2
310
E2E2E2E2E2E2E2E2E2E2E2E2E2E2E2E2E2E2E2E2ECE2E2E2E2E2ECE200F5E2E2ECE2E2E2E2E2ECE2E2ECF5E2E2E2E2E2E2E2E2E2E2E2E2E2E2E2E2E2E2E2E2E2E2E2E2E2E2E2E2E2E2E2E2E2E2E2E2E2E2E2E2E2E2E2E2E2E2E2E2E2E2E2E2E2E2E2E2E2E2E2E2E2E2E2E2E2E2E2E2E2E2E2E2E2E2E2E2E2ECE2E2E2E2E2EC
310
E236F5E2E2ECE2E2E2E2E2ECE2E2ECF5E2E2E2E2E2E2E2E2E2E2E2E2E2E2E2E2E2E2E2E2E2E2E2E2E2E2E2E2E2E2E2E2E2E2E2E2E2E2E2E2E2E2E2E2E2E2E2E2E2E2E2E2E2E2E2E2E2E2E2E2E2E2E2E2E2E2E2E2E2E2E2E2E2E2E2E2E2ECE2E2E2E2E2ECE200F5E2E2ECE2E2E2E2E2ECE2E2ECF5E2E2E2E2E2E2E2E2E2E2E2
310
E2E2E2E2E2E2E2E2E2E2E2E2E2E2E2E2E2E2E2E2E2E2E2E2E2E2E2E2E2E2E2E2E2E2E2E2E2E2E2E2E2E2E2E2E2E2E2E2E2E2E2E2E2E2E2E2E2E2E2E2E2E2E2E2E2E2ECE2E2E2E2E2ECE236F5E2E2ECE2E2E2E2E2ECE2E2ECECECECECECECECECECECECECECECECECECECECECECECECECECECECECECECECECECECECECECECEC
310
ECECECECECECECECECECECECECECECECECECECECECECECECECECECECECECECECECECECECECECECECE2E2E2E2E2ECE200F5E2E2ECE2E2E2E2E2ECE2E2E2E2E2E2E2E2E2E2E2E2E2E2E2E2E2E2E2E2E2E2E2E2E2E2E2E2E2E2E2E2E2E2E2E2E2E2E2E2E2E2E2E2E2E2E2E2E2E2E2E2E2E2E2E2E2E2E2E2E2E2E2E2E2E2E2E2E2
310
E2E2E2E2E2E2E2E2E2E2E2E2E2E2E2E2E2E2ECE236F5E2E2ECF5E2E2E2E2ECE2E2E2E2E2E2E2E2E2E2E2E2E2E2E2E2E2E2E2E2E2E2E2E2E2E2E2E2E2E2E2E2E2E2E2E2E2E2E2E2E2E2E2E2E2E2E2E2E2E2E2E2E2E2E2E2E2E2E2E2E2E2E2E2E2E2E2E2E2E2E2E2E2E2E2E2E2E2E2E2E2E2E2E2E2F5E2ECE200F5E2E2ECF5E2
310
E2E2E2ECE2E2E2E2E2E2E2E2E2E2E2E2E2E2E2E2E2E2E2E2E2E2E2E2E2E2E2E2E2E2E2E2E2E2E2E2E2E2E2E2E2E2E2E2E2E2E2E2E2E2E2E2E2E2E2E2E2E2E2E2E2E2E2E2E2E2E2E2E2E2E2E2E2E2E2E2E2E2E2E2E2E2E2E2E2F5E2ECE236F5E2E2ECF5E2E2E2E2ECE2E2E2E2E2E2E2E2E2E2E2E2E2E2E2E2E2E2E2E2E2E2E2
310
E2E2E2E2E2E2E2E2E2E2E2E2E2E2E2E2E2E2E2E2E2E2E2E2E2E2E2E2E2E2E2E2E2E2E2E2E2E2E2E2E2E2E2E2E2E2E2E2E2E2E2E2E2E2E2E2E2E2E2E2E2E2F5E2ECE200F5E2E2ECF5E2E2E2E2ECE2E2E2E2E2E2E2E2E2E2E2E2E2E2E2E2E2E2E2E2E2E2E2E2E2E2E2E2E2E2E2E2E2E2E2E2E2E2E2E2E2E2E2E2E2E2E2E2E2E2
310
E2E2E2E2E2E2E2E2E2E2E2E2E2E2E2E2E2E2E2E2E2E2E2E2E2E2E2E2E2E2E2E2E2E2E2F5E2ECE236F5E2E2ECF5E2E2E2E2ECE2E2E2E2E2E2E2E2E2E2E2E2E2E2E2E2E2E2E2E2E2E2E2E2E2E2E2E2E2E2E2E2E2E2E2BEBEBEBEBEBEBEBEBEBEBEBEBEBEBEE2E2E2E2E2E2E2E2E2E2E2E2E2E2E2E2E2E2E2E2E2E2E2E2E2E2E2
310
E2E2E2E2E2E2E2E2F5E2ECE200F5E2E2ECF5E2E2E2E2ECE2E2E2E2E2E2E2E2E2E2E2E2E2E2E2E2E2E2E2E2E2E2E2E2E2E2E2E2E2E2E2E2E2E2E2BEBEBEBEBEBEBEBEBEBEBEBEBEBEBEE2E2E2E2E2E2E2E2E2E2E2E2E2E2E2E2E2E2E2E2E2E2E2E2E2E2E2E2E2E2E2E2E2E2E2F5E2ECE236F5E2E2ECF5E2E2E2E2ECE2E2E2E2
310
E2E2E2E2E2E2E2E2E2E2E2E2E2E2E2E2E2E2E2E2E2E2E2E2E2E2E2E2E2E2E2E2E2E2E2E2E2E2E2E2E2E2E2E2E2E2E2E2E2E2E2E2E2E2E2E2E2E2E2E2E2E2E2E2E2E2E2E2E2E2E2E2E2E2E2E2E2E2E2E2E2F5E2ECE200F5E2E2ECF5E2E2E2E2ECE2E2E2E2E2E2E2E2E2E2E2E2E2E2E2E2E2E2E2E2E2E2E2E2E2E2E2E2E2E2E2
310
E2E2E2E2E2E2E2E2E2E2E2E2E2E2E2E2E2E2E2E2E2E2E2E2E2E2E2E2E2E2E2E2E2E2E2E2E2E2E2E2E2E2E2E2E2E2E2E2E2E2E2E2E2E2F5E2ECE236F5E2E2ECF5F5F5F5F5ECECECECECECECECECECECECECECECECECECECECECECECECECECECECECECECECECECECECECECECECECECECECECECECECECECECECECECECECECECEC
310
ECECECECECECECECECECECECECECECECECECECECECECECECECECECECECECE200F5E2E2ECE2E2E2E2E2E2E2E2E2E2E2E2E2E2E2E2E2E2E2E2E2E2E2E2E2E2E2E2E2E2E2E2E2E2E2E2E2E2E2E2E2E2E2E2E2E2E2E2E2E2E2E2E2E2E2E2E2E2E2E2E2E2E2E2E2E2E2E2E2E2E2E2E2E2E2E2E2E2E2E2E2E2E2E2E2E2E2E2E2E2E2
310
E2E2E2E236F5E2E2ECE2E2E2E2E2E2E2E2E2E2E2E2E2E2E2E2E2E2E2E2E2E2E2E2E2E2E2E2E2E2E2E2E2E2E2E2E2E2E2E2E2E2E2E2E2E2E2E2E2E2E2E2E2E2E2E2E2E2E2E2E2E2E2E2E2E2E2E2E2E2E2E2E2E2E2E2E2E2E2E2E2E2E2E2E2E2E2E2E2E2E2E2E2E2E200F5F5F5ECF5F5F5F5F5F5F5F5F5F5F5F5F5F5F5F5F5F5
310
F5F5F5F5F5F5F5F5F5F5F5F5F5F5F5F5F5F5F5F5F5F5F5F5F5F5F5F5F5F5F5F5F5F5F5F5F5F5F5F5F5F5F5F5F5F5F5F5F5F5F5F5F5F5F5F5F5F5F5F5F5F5F5F5F5F5F5F5F5F5F5F5F5F5F5F5F536
  0
XRECORD
  5
54F
102
{ACAD_REACTORS
330
54E
102
}
330
54E
100
AcDbXrecord
280
     1
102
MATERIAL
148
0.0
149
0.0
149
0.0
 93
        0
 94
       63
282
     0
 72
     1
 77
     1
171
     1
175
     1
179
     1
273
     0
  0
XRECORD
  5
54D
102
{ACAD_REACTORS
330
54C
102
}
330
54C
100
AcDbXrecord
280
     1
102
MATERIAL
148
0.0
149
0.0
149
0.0
 93
        0
 94
       63
282
     0
 72
     1
 77
     1
171
     1
175
     1
179
     1
273
     0
  0
XRECORD
  5
548
102
{ACAD_REACTORS
330
547
102
}
330
547
100
AcDbXrecord
280
     1
102
MATERIAL
148
0.0
149
0.0
149
0.0
 93
        0
 94
       63
282
     0
 72
     1
 77
     1
171
     1
175
     1
179
     1
273
     0
  0
CELLSTYLEMAP
  5
541
102
{ACAD_REACTORS
330
211
102
}
330
211
100
AcDbCellStyleMap
 90
        3
300
CELLSTYLE
  1
TABLEFORMAT_BEGIN
 90
        5
170
     1
 91
        0
 92
    32768
 62
   257
 93
        1
300
CONTENTFORMAT
  1
CONTENTFORMAT_BEGIN
 90
        0
 91
        0
 92
        4
 93
        0
300

 40
0.0
140
1.0
 94
        5
 62
     0
340
20
144
0.25
309
CONTENTFORMAT_END
171
     0
 94
        6
 95
        1
302
GRIDFORMAT
  1
GRIDFORMAT_BEGIN
 90
        0
 91
        1
 62
     0
 92
       -2
340
0
 93
        0
 40
0.045
309
GRIDFORMAT_END
 95
        2
302
GRIDFORMAT
  1
GRIDFORMAT_BEGIN
 90
        0
 91
        1
 62
     0
 92
       -2
340
0
 93
        0
 40
0.045
309
GRIDFORMAT_END
 95
        4
302
GRIDFORMAT
  1
GRIDFORMAT_BEGIN
 90
        0
 91
        1
 62
     0
 92
       -2
340
0
 93
        0
 40
0.045
309
GRIDFORMAT_END
 95
        8
302
GRIDFORMAT
  1
GRIDFORMAT_BEGIN
 90
        0
 91
        1
 62
     0
 92
       -2
340
0
 93
        0
 40
0.045
309
GRIDFORMAT_END
 95
       16
302
GRIDFORMAT
  1
GRIDFORMAT_BEGIN
 90
        0
 91
        1
 62
     0
 92
       -2
340
0
 93
        0
 40
0.045
309
GRIDFORMAT_END
 95
       32
302
GRIDFORMAT
  1
GRIDFORMAT_BEGIN
 90
        0
 91
        1
 62
     0
 92
       -2
340
0
 93
        0
 40
0.045
309
GRIDFORMAT_END
309
TABLEFORMAT_END
  1
CELLSTYLE_BEGIN
 90
        1
 91
        1
300
_TITLE
309
CELLSTYLE_END
300
CELLSTYLE
  1
TABLEFORMAT_BEGIN
 90
        5
170
     1
 91
        0
 92
        0
 62
   257
 93
        1
300
CONTENTFORMAT
  1
CONTENTFORMAT_BEGIN
 90
        0
 91
        0
 92
        4
 93
        0
300

 40
0.0
140
1.0
 94
        5
 62
     0
340
20
144
0.18
309
CONTENTFORMAT_END
171
     0
 94
        6
 95
        1
302
GRIDFORMAT
  1
GRIDFORMAT_BEGIN
 90
        0
 91
        1
 62
     0
 92
       -2
340
0
 93
        0
 40
0.045
309
GRIDFORMAT_END
 95
        2
302
GRIDFORMAT
  1
GRIDFORMAT_BEGIN
 90
        0
 91
        1
 62
     0
 92
       -2
340
0
 93
        0
 40
0.045
309
GRIDFORMAT_END
 95
        4
302
GRIDFORMAT
  1
GRIDFORMAT_BEGIN
 90
        0
 91
        1
 62
     0
 92
       -2
340
0
 93
        0
 40
0.045
309
GRIDFORMAT_END
 95
        8
302
GRIDFORMAT
  1
GRIDFORMAT_BEGIN
 90
        0
 91
        1
 62
     0
 92
       -2
340
0
 93
        0
 40
0.045
309
GRIDFORMAT_END
 95
       16
302
GRIDFORMAT
  1
GRIDFORMAT_BEGIN
 90
        0
 91
        1
 62
     0
 92
       -2
340
0
 93
        0
 40
0.045
309
GRIDFORMAT_END
 95
       32
302
GRIDFORMAT
  1
GRIDFORMAT_BEGIN
 90
        0
 91
        1
 62
     0
 92
       -2
340
0
 93
        0
 40
0.045
309
GRIDFORMAT_END
309
TABLEFORMAT_END
  1
CELLSTYLE_BEGIN
 90
        2
 91
        1
300
_HEADER
309
CELLSTYLE_END
300
CELLSTYLE
  1
TABLEFORMAT_BEGIN
 90
        5
170
     1
 91
        0
 92
        0
 62
   257
 93
        1
300
CONTENTFORMAT
  1
CONTENTFORMAT_BEGIN
 90
        0
 91
        0
 92
        4
 93
        0
300

 40
0.0
140
1.0
 94
        2
 62
     0
340
20
144
0.18
309
CONTENTFORMAT_END
171
     0
 94
        6
 95
        1
302
GRIDFORMAT
  1
GRIDFORMAT_BEGIN
 90
        0
 91
        1
 62
     0
 92
       -2
340
0
 93
        0
 40
0.045
309
GRIDFORMAT_END
 95
        2
302
GRIDFORMAT
  1
GRIDFORMAT_BEGIN
 90
        0
 91
        1
 62
     0
 92
       -2
340
0
 93
        0
 40
0.045
309
GRIDFORMAT_END
 95
        4
302
GRIDFORMAT
  1
GRIDFORMAT_BEGIN
 90
        0
 91
        1
 62
     0
 92
       -2
340
0
 93
        0
 40
0.045
309
GRIDFORMAT_END
 95
        8
302
GRIDFORMAT
  1
GRIDFORMAT_BEGIN
 90
        0
 91
        1
 62
     0
 92
       -2
340
0
 93
        0
 40
0.045
309
GRIDFORMAT_END
 95
       16
302
GRIDFORMAT
  1
GRIDFORMAT_BEGIN
 90
        0
 91
        1
 62
     0
 92
       -2
340
0
 93
        0
 40
0.045
309
GRIDFORMAT_END
 95
       32
302
GRIDFORMAT
  1
GRIDFORMAT_BEGIN
 90
        0
 91
        1
 62
     0
 92
       -2
340
0
 93
        0
 40
0.045
309
GRIDFORMAT_END
309
TABLEFORMAT_END
  1
CELLSTYLE_BEGIN
 90
        3
 91
        2
300
_DATA
309
CELLSTYLE_END
  0
XRECORD
  5
550
102
{ACAD_REACTORS
330
211
102
}
330
211
100
AcDbXrecord
280
     1
102
ACAD_ROUNDTRIP_PRE2007_TABLESTYLE
 90
        4
 91
        0
  1

 92
        4
 93
        0
  2

 94
        4
 95
        0
  3

  0
ENDSEC
  0
EOF
