  0
SECTION
  2
HEADER
  9
$ACADVER
  1
AC1015
  9
$ACADMAINTVER
 70
    20
  9
$DWGCODEPAGE
  3
ANSI_1250
  9
$INSBASE
 10
-38037.8869569453
 20
24042.53343113
 30
0.0
  9
$EXTMIN
 10
-38040.20919599141
 20
10022.18594351519
 30
-0.0000000349181948
  9
$EXTMAX
 10
-27835.93723084191
 20
24044.00100526785
 30
0.0000000814935746
  9
$LIMMIN
 10
0.0
 20
0.0
  9
$LIMMAX
 10
12.0
 20
9.0
  9
$ORTHOMODE
 70
     1
  9
$REGENMODE
 70
     1
  9
$FILLMODE
 70
     1
  9
$QTEXTMODE
 70
     0
  9
$MIRRTEXT
 70
     0
  9
$LTSCALE
 40
50.0
  9
$ATTMODE
 70
     1
  9
$TEXTSIZE
 40
20.0
  9
$TRACEWID
 40
0.05
  9
$TEXTSTYLE
  7
ROMANS
  9
$CLAYER
  8
WIDOK
  9
$CELTYPE
  6
ByLayer
  9
$CECOLOR
 62
   256
  9
$CELTSCALE
 40
1.0
  9
$DISPSILH
 70
     0
  9
$DIMSCALE
 40
1.0
  9
$DIMASZ
 40
1.0
  9
$DIMEXO
 40
43.0
  9
$DIMDLI
 40
24.0
  9
$DIMRND
 40
0.5
  9
$DIMDLE
 40
12.0
  9
$DIMEXE
 40
13.0
  9
$DIMTP
 40
0.0
  9
$DIMTM
 40
0.0
  9
$DIMTXT
 40
30.0
  9
$DIMCEN
 40
0.0
  9
$DIMTSZ
 40
0.0
  9
$DIMTOL
 70
     0
  9
$DIMLIM
 70
     0
  9
$DIMTIH
 70
     0
  9
$DIMTOH
 70
     0
  9
$DIMSE1
 70
     1
  9
$DIMSE2
 70
     1
  9
$DIMTAD
 70
     1
  9
$DIMZIN
 70
     8
  9
$DIMBLK
  1
B-DIM_W
  9
$DIMASO
 70
     1
  9
$DIMSHO
 70
     1
  9
$DIMPOST
  1

  9
$DIMAPOST
  1

  9
$DIMALT
 70
     0
  9
$DIMALTD
 70
     2
  9
$DIMALTF
 40
25.4
  9
$DIMLFAC
 40
1.0
  9
$DIMTOFL
 70
     1
  9
$DIMTVP
 40
1.0
  9
$DIMTIX
 70
     1
  9
$DIMSOXD
 70
     0
  9
$DIMSAH
 70
     0
  9
$DIMBLK1
  1

  9
$DIMBLK2
  1

  9
$DIMSTYLE
  2
100-PRw
  9
$DIMCLRD
 70
     1
  9
$DIMCLRE
 70
     1
  9
$DIMCLRT
 70
   140
  9
$DIMTFAC
 40
1.0
  9
$DIMGAP
 40
8.0
  9
$DIMJUST
 70
     0
  9
$DIMSD1
 70
     0
  9
$DIMSD2
 70
     0
  9
$DIMTOLJ
 70
     1
  9
$DIMTZIN
 70
     0
  9
$DIMALTZ
 70
     0
  9
$DIMALTTZ
 70
     0
  9
$DIMUPT
 70
     0
  9
$DIMDEC
 70
     1
  9
$DIMTDEC
 70
     1
  9
$DIMALTU
 70
     2
  9
$DIMALTTD
 70
     2
  9
$DIMTXSTY
  7
ROMANS
  9
$DIMAUNIT
 70
     0
  9
$DIMADEC
 70
     0
  9
$DIMALTRND
 40
0.0
  9
$DIMAZIN
 70
     0
  9
$DIMDSEP
 70
    46
  9
$DIMATFIT
 70
     3
  9
$DIMFRAC
 70
     0
  9
$DIMLDRBLK
  1
Dot
  9
$DIMLUNIT
 70
     2
  9
$DIMLWD
 70
     5
  9
$DIMLWE
 70
    -2
  9
$DIMTMOVE
 70
     2
  9
$LUNITS
 70
     2
  9
$LUPREC
 70
     2
  9
$SKETCHINC
 40
0.1
  9
$FILLETRAD
 40
0.0
  9
$AUNITS
 70
     0
  9
$AUPREC
 70
     2
  9
$MENU
  1
.
  9
$ELEVATION
 40
0.0
  9
$PELEVATION
 40
0.0
  9
$THICKNESS
 40
0.0
  9
$LIMCHECK
 70
     0
  9
$CHAMFERA
 40
0.0
  9
$CHAMFERB
 40
0.0
  9
$CHAMFERC
 40
0.0
  9
$CHAMFERD
 40
0.0
  9
$SKPOLY
 70
     0
  9
$TDCREATE
 40
2453080.724599746
  9
$TDUCREATE
 40
2453080.641266412
  9
$TDUPDATE
 40
2454958.639356910
  9
$TDUUPDATE
 40
2454958.556023576
  9
$TDINDWG
 40
8.3958098843
  9
$TDUSRTIMER
 40
8.3958097106
  9
$USRTIMER
 70
     1
  9
$ANGBASE
 50
0.0
  9
$ANGDIR
 70
     0
  9
$PDMODE
 70
     0
  9
$PDSIZE
 40
0.0
  9
$PLINEWID
 40
60.0
  9
$SPLFRAME
 70
     0
  9
$SPLINETYPE
 70
     6
  9
$SPLINESEGS
 70
     8
  9
$HANDSEED
  5
1047
  9
$SURFTAB1
 70
     6
  9
$SURFTAB2
 70
     6
  9
$SURFTYPE
 70
     6
  9
$SURFU
 70
     6
  9
$SURFV
 70
     6
  9
$UCSBASE
  2

  9
$UCSNAME
  2

  9
$UCSORG
 10
0.0
 20
0.0
 30
0.0
  9
$UCSXDIR
 10
1.0
 20
0.0
 30
0.0
  9
$UCSYDIR
 10
0.0
 20
1.0
 30
0.0
  9
$UCSORTHOREF
  2

  9
$UCSORTHOVIEW
 70
     1
  9
$UCSORGTOP
 10
0.0
 20
0.0
 30
0.0
  9
$UCSORGBOTTOM
 10
0.0
 20
0.0
 30
0.0
  9
$UCSORGLEFT
 10
0.0
 20
0.0
 30
0.0
  9
$UCSORGRIGHT
 10
0.0
 20
0.0
 30
0.0
  9
$UCSORGFRONT
 10
0.0
 20
0.0
 30
0.0
  9
$UCSORGBACK
 10
0.0
 20
0.0
 30
0.0
  9
$PUCSBASE
  2

  9
$PUCSNAME
  2

  9
$PUCSORG
 10
0.0
 20
0.0
 30
0.0
  9
$PUCSXDIR
 10
1.0
 20
0.0
 30
0.0
  9
$PUCSYDIR
 10
0.0
 20
1.0
 30
0.0
  9
$PUCSORTHOREF
  2

  9
$PUCSORTHOVIEW
 70
     0
  9
$PUCSORGTOP
 10
0.0
 20
0.0
 30
0.0
  9
$PUCSORGBOTTOM
 10
0.0
 20
0.0
 30
0.0
  9
$PUCSORGLEFT
 10
0.0
 20
0.0
 30
0.0
  9
$PUCSORGRIGHT
 10
0.0
 20
0.0
 30
0.0
  9
$PUCSORGFRONT
 10
0.0
 20
0.0
 30
0.0
  9
$PUCSORGBACK
 10
0.0
 20
0.0
 30
0.0
  9
$USERI1
 70
     1
  9
$USERI2
 70
     1
  9
$USERI3
 70
     0
  9
$USERI4
 70
     0
  9
$USERI5
 70
     1
  9
$USERR1
 40
0.0
  9
$USERR2
 40
0.0
  9
$USERR3
 40
0.0
  9
$USERR4
 40
0.0
  9
$USERR5
 40
0.0
  9
$WORLDVIEW
 70
     1
  9
$SHADEDGE
 70
     3
  9
$SHADEDIF
 70
    70
  9
$TILEMODE
 70
     1
  9
$MAXACTVP
 70
    64
  9
$PINSBASE
 10
0.0
 20
0.0
 30
0.0
  9
$PLIMCHECK
 70
     0
  9
$PEXTMIN
 10
-2168.317592469716
 20
-50.27082063107083
 30
0.0
  9
$PEXTMAX
 10
8288.700889081452
 20
4571.773422459521
 30
0.0
  9
$PLIMMIN
 10
-68.16842521812832
 20
-50.14167367367336
  9
$PLIMMAX
 10
2031.56485114906
 20
2919.54155386539
  9
$UNITMODE
 70
     0
  9
$VISRETAIN
 70
     1
  9
$PLINEGEN
 70
     0
  9
$PSLTSCALE
 70
     1
  9
$TREEDEPTH
 70
  3020
  9
$CMLSTYLE
  2
Standard
  9
$CMLJUST
 70
     0
  9
$CMLSCALE
 40
1.0
  9
$PROXYGRAPHICS
 70
     1
  9
$MEASUREMENT
 70
     0
  9
$CELWEIGHT
370
    -1
  9
$ENDCAPS
280
     0
  9
$JOINSTYLE
280
     0
  9
$LWDISPLAY
290
     0
  9
$INSUNITS
 70
     5
  9
$HYPERLINKBASE
  1

  9
$STYLESHEET
  1
monochrome_140.ctb
  9
$XEDIT
290
     1
  9
$CEPSNTYPE
380
     0
  9
$PSTYLEMODE
290
     1
  9
$FINGERPRINTGUID
  2
{A8A95674-287F-407D-AE6D-D8C25B3F7BE1}
  9
$VERSIONGUID
  2
{0627BD62-2AB6-4CD5-844C-6531A0A2048C}
  9
$EXTNAMES
290
     1
  9
$PSVPSCALE
 40
0.0
  9
$OLESTARTUP
290
     0
  0
ENDSEC
  0
SECTION
  2
CLASSES
  0
CLASS
  1
ACDBDICTIONARYWDFLT
  2
AcDbDictionaryWithDefault
  3
ObjectDBX Classes
 90
        0
280
     0
281
     0
  0
CLASS
  1
ACDBPLACEHOLDER
  2
AcDbPlaceHolder
  3
ObjectDBX Classes
 90
        0
280
     0
281
     0
  0
CLASS
  1
LAYOUT
  2
AcDbLayout
  3
ObjectDBX Classes
 90
        0
280
     0
281
     0
  0
CLASS
  1
DICTIONARYVAR
  2
AcDbDictionaryVar
  3
ObjectDBX Classes
 90
        0
280
     0
281
     0
  0
CLASS
  1
AEC_NOTIFICATION_TRACKER
  2
AecDbNotificationTracker
  3
AecBase50|Product Desc: Autodesk Architectural Desktop 2007 |Company: Autodesk,Inc. |WEB Address: www.autodesk.com
 90
    32897
280
     0
281
     0
  0
CLASS
  1
AEC_DISP_REP_2D_SECTION
  2
AecDbDispRep2dSection
  3
AecBase50|Product Desc: Autodesk Architectural Desktop 2007 |Company: Autodesk,Inc. |WEB Address: www.autodesk.com
 90
    32897
280
     0
281
     0
  0
CLASS
  1
AEC_VARS_DWG_SETUP
  2
AecDbVarsDwgSetup
  3
AecBase50|Product Desc: Autodesk Architectural Desktop 2007 |Company: Autodesk,Inc. |WEB Address: www.autodesk.com
 90
    32897
280
     0
281
     0
  0
CLASS
  1
AEC_DISP_PROPS_2D_SECTION
  2
AecDbDispProps2dSection
  3
AecBase50|Product Desc: Autodesk Architectural Desktop 2007 |Company: Autodesk,Inc. |WEB Address: www.autodesk.com
 90
    32897
280
     0
281
     0
  0
CLASS
  1
AEC_DISP_REP_ANCHOR
  2
AecDbDispRepAnchor
  3
AecBase50|Product Desc: Autodesk Architectural Desktop 2007 |Company: Autodesk,Inc. |WEB Address: www.autodesk.com
 90
    32897
280
     0
281
     0
  0
CLASS
  1
AEC_DISP_REP_ANCHOR_ENT_TO_NODE
  2
AecDbDispRepAnchorEntToNode
  3
AecBase50|Product Desc: Autodesk Architectural Desktop 2007 |Company: Autodesk,Inc. |WEB Address: www.autodesk.com
 90
    32897
280
     0
281
     0
  0
CLASS
  1
AEC_DISP_PROPS_ENT
  2
AecDbDispPropsEnt
  3
AecBase50|Product Desc: Autodesk Architectural Desktop 2007 |Company: Autodesk,Inc. |WEB Address: www.autodesk.com
 90
    32897
280
     0
281
     0
  0
CLASS
  1
AEC_DISP_REP_CAMERA
  2
AecDbDispRepCamera
  3
AecBase50|Product Desc: Autodesk Architectural Desktop 2007 |Company: Autodesk,Inc. |WEB Address: www.autodesk.com
 90
    32897
280
     0
281
     0
  0
CLASS
  1
AEC_DISP_PROPS_CAMERA
  2
AecDbDispPropsCamera
  3
AecBase50|Product Desc: Autodesk Architectural Desktop 2007 |Company: Autodesk,Inc. |WEB Address: www.autodesk.com
 90
    32897
280
     0
281
     0
  0
CLASS
  1
AEC_DISP_REP_CLIP_VOLUME_MODEL
  2
AecDbDispRepClipVolModel
  3
AecBase50|Product Desc: Autodesk Architectural Desktop 2007 |Company: Autodesk,Inc. |WEB Address: www.autodesk.com
 90
    32897
280
     0
281
     0
  0
CLASS
  1
AEC_DISP_PROPS_CLIP_VOLUME
  2
AecDbDispPropsClipVol
  3
AecBase50|Product Desc: Autodesk Architectural Desktop 2007 |Company: Autodesk,Inc. |WEB Address: www.autodesk.com
 90
    32897
280
     0
281
     0
  0
CLASS
  1
AEC_DISP_REP_CLIP_VOLUME_PLAN
  2
AecDbDispRepClipVolPlan
  3
AecBase50|Product Desc: Autodesk Architectural Desktop 2007 |Company: Autodesk,Inc. |WEB Address: www.autodesk.com
 90
    32897
280
     0
281
     0
  0
CLASS
  1
AEC_DISP_REP_CLIP_VOLUME_RESULT
  2
AecDbDispRepClipVolResult
  3
AecBase50|Product Desc: Autodesk Architectural Desktop 2007 |Company: Autodesk,Inc. |WEB Address: www.autodesk.com
 90
    32897
280
     0
281
     0
  0
CLASS
  1
AEC_DISP_REP_CLIP_VOLUME_RESULT_SUBDIV
  2
AecDbDispRepClipVolResSubDiv
  3
AecBase50|Product Desc: Autodesk Architectural Desktop 2007 |Company: Autodesk,Inc. |WEB Address: www.autodesk.com
 90
    32897
280
     0
281
     0
  0
CLASS
  1
AEC_DISP_PROPS_CLIP_VOLUME_RESULT
  2
AecDbDispPropsClipVolResSubDiv
  3
AecBase50|Product Desc: Autodesk Architectural Desktop 2007 |Company: Autodesk,Inc. |WEB Address: www.autodesk.com
 90
    32897
280
     0
281
     0
  0
CLASS
  1
AEC_DISP_REP_EDITINPLACEPROFILE
  2
AecDbDispRepEditInPlaceProfile
  3
AecBase50|Product Desc: Autodesk Architectural Desktop 2007 |Company: Autodesk,Inc. |WEB Address: www.autodesk.com
 90
    32897
280
     0
281
     0
  0
CLASS
  1
AEC_DISP_PROPS_EDITINPLACEPROFILE_MODEL
  2
AecDbDispPropsEditInPlaceProfile
  3
AecBase50|Product Desc: Autodesk Architectural Desktop 2007 |Company: Autodesk,Inc. |WEB Address: www.autodesk.com
 90
    32897
280
     0
281
     0
  0
CLASS
  1
AEC_DISP_REP_ENT_REF
  2
AecDbDispRepEntRef
  3
AecBase50|Product Desc: Autodesk Architectural Desktop 2007 |Company: Autodesk,Inc. |WEB Address: www.autodesk.com
 90
    32897
280
     0
281
     0
  0
CLASS
  1
AEC_DISP_PROPS_ENT_REF
  2
AecDbDispPropsEntRef
  3
AecBase50|Product Desc: Autodesk Architectural Desktop 2007 |Company: Autodesk,Inc. |WEB Address: www.autodesk.com
 90
    32897
280
     0
281
     0
  0
CLASS
  1
AEC_DISP_REP_LAYOUT_CURVE
  2
AecDbDispRepLayoutCurve
  3
AecBase50|Product Desc: Autodesk Architectural Desktop 2007 |Company: Autodesk,Inc. |WEB Address: www.autodesk.com
 90
    32897
280
     0
281
     0
  0
CLASS
  1
AEC_DISP_PROPS_LAYOUT_CURVE
  2
AecDbDispPropsLayoutCurve
  3
AecBase50|Product Desc: Autodesk Architectural Desktop 2007 |Company: Autodesk,Inc. |WEB Address: www.autodesk.com
 90
    32897
280
     0
281
     0
  0
CLASS
  1
AEC_DISP_REP_LAYOUT_GRID2D
  2
AecDbDispRepLayoutGrid2d
  3
AecBase50|Product Desc: Autodesk Architectural Desktop 2007 |Company: Autodesk,Inc. |WEB Address: www.autodesk.com
 90
    32897
280
     0
281
     0
  0
CLASS
  1
AEC_DISP_PROPS_LAYOUT_GRID2D
  2
AecDbDispPropsLayoutGrid2d
  3
AecBase50|Product Desc: Autodesk Architectural Desktop 2007 |Company: Autodesk,Inc. |WEB Address: www.autodesk.com
 90
    32897
280
     0
281
     0
  0
CLASS
  1
AEC_DISP_REP_LAYOUT_GRID3D
  2
AecDbDispRepLayoutGrid3d
  3
AecBase50|Product Desc: Autodesk Architectural Desktop 2007 |Company: Autodesk,Inc. |WEB Address: www.autodesk.com
 90
    32897
280
     0
281
     0
  0
CLASS
  1
AEC_DISP_PROPS_LAYOUT_GRID3D
  2
AecDbDispPropsLayoutGrid3d
  3
AecBase50|Product Desc: Autodesk Architectural Desktop 2007 |Company: Autodesk,Inc. |WEB Address: www.autodesk.com
 90
    32897
280
     0
281
     0
  0
CLASS
  1
AEC_DISP_REP_MASKBLOCK_REF
  2
AecDbDispRepMaskBlockRef
  3
AecBase50|Product Desc: Autodesk Architectural Desktop 2007 |Company: Autodesk,Inc. |WEB Address: www.autodesk.com
 90
    32897
280
     0
281
     0
  0
CLASS
  1
AEC_DISP_PROPS_MASKBLOCK
  2
AecDbDispPropsMaskBlock
  3
AecBase50|Product Desc: Autodesk Architectural Desktop 2007 |Company: Autodesk,Inc. |WEB Address: www.autodesk.com
 90
    32897
280
     0
281
     0
  0
CLASS
  1
AEC_DISP_REP_MASS_ELEM_MODEL
  2
AecDbDispRepMassElemModel
  3
AecBaseEx50|Product Desc: Autodesk Architectural Desktop 2007 |Company: Autodesk,Inc. |WEB Address: www.autodesk.com
 90
    32897
280
     0
281
     0
  0
CLASS
  1
AEC_DISP_PROPS_MASS_ELEM_MODEL
  2
AecDbDispPropsMassElem
  3
AecBaseEx50|Product Desc: Autodesk Architectural Desktop 2007 |Company: Autodesk,Inc. |WEB Address: www.autodesk.com
 90
    32897
280
     0
281
     0
  0
CLASS
  1
AEC_DISP_REP_MASS_ELEM_SCHEM
  2
AecDbDispRepMassElemSchem
  3
AecBaseEx50|Product Desc: Autodesk Architectural Desktop 2007 |Company: Autodesk,Inc. |WEB Address: www.autodesk.com
 90
    32897
280
     0
281
     0
  0
CLASS
  1
AEC_DISP_REP_MASS_GROUP_MODEL
  2
AecDbDispRepMassGroupModel
  3
AecBaseEx50|Product Desc: Autodesk Architectural Desktop 2007 |Company: Autodesk,Inc. |WEB Address: www.autodesk.com
 90
    32897
280
     0
281
     0
  0
CLASS
  1
AEC_DISP_PROPS_MASS_GROUP
  2
AecDbDispPropsMassGroup
  3
AecBaseEx50|Product Desc: Autodesk Architectural Desktop 2007 |Company: Autodesk,Inc. |WEB Address: www.autodesk.com
 90
    32897
280
     0
281
     0
  0
CLASS
  1
AEC_DISP_REP_MASS_GROUP_PLAN
  2
AecDbDispRepMassGroupPlan
  3
AecBaseEx50|Product Desc: Autodesk Architectural Desktop 2007 |Company: Autodesk,Inc. |WEB Address: www.autodesk.com
 90
    32897
280
     0
281
     0
  0
CLASS
  1
AEC_DISP_REP_MATERIAL
  2
AecDbDispRepMaterial
  3
AecBase50|Product Desc: Autodesk Architectural Desktop 2007 |Company: Autodesk,Inc. |WEB Address: www.autodesk.com
 90
    32897
280
     0
281
     0
  0
CLASS
  1
AEC_DISP_PROPS_MATERIAL
  2
AecDbDispPropsMaterial
  3
AecBase50|Product Desc: Autodesk Architectural Desktop 2007 |Company: Autodesk,Inc. |WEB Address: www.autodesk.com
 90
    32897
280
     0
281
     0
  0
CLASS
  1
AEC_DISP_REP_MVBLOCK_REF
  2
AecDbDispRepMvBlockRef
  3
AecBase50|Product Desc: Autodesk Architectural Desktop 2007 |Company: Autodesk,Inc. |WEB Address: www.autodesk.com
 90
    32897
280
     0
281
     0
  0
CLASS
  1
AEC_DISP_REP_MVBLOCK_REF_MODEL
  2
AecDbDispRepMvBlockRefModel
  3
AecBase50|Product Desc: Autodesk Architectural Desktop 2007 |Company: Autodesk,Inc. |WEB Address: www.autodesk.com
 90
    32897
280
     0
281
     0
  0
CLASS
  1
AEC_DISP_REP_POLYGON_MODEL
  2
AecDbDispRepPolygonModel
  3
AecBase50|Product Desc: Autodesk Architectural Desktop 2007 |Company: Autodesk,Inc. |WEB Address: www.autodesk.com
 90
    32897
280
     0
281
     0
  0
CLASS
  1
AEC_DISP_PROPS_POLYGON_MODEL
  2
AecDbDispPropsPolygonModel
  3
AecBase50|Product Desc: Autodesk Architectural Desktop 2007 |Company: Autodesk,Inc. |WEB Address: www.autodesk.com
 90
    32897
280
     0
281
     0
  0
CLASS
  1
AEC_DISP_REP_POLYGON_TRUECOLOUR
  2
AecDbDispRepPolygonTrueColour
  3
AecBase50|Product Desc: Autodesk Architectural Desktop 2007 |Company: Autodesk,Inc. |WEB Address: www.autodesk.com
 90
    32897
280
     0
281
     0
  0
CLASS
  1
AEC_DISP_PROPS_POLYGON_TRUECOLOUR
  2
AecDbDispPropsPolygonTrueColour
  3
AecBase50|Product Desc: Autodesk Architectural Desktop 2007 |Company: Autodesk,Inc. |WEB Address: www.autodesk.com
 90
    32897
280
     0
281
     0
  0
CLASS
  1
AEC_DISP_REP_SLICE
  2
AecDbDispRepSlice
  3
AecBase50|Product Desc: Autodesk Architectural Desktop 2007 |Company: Autodesk,Inc. |WEB Address: www.autodesk.com
 90
    32897
280
     0
281
     0
  0
CLASS
  1
AEC_DISP_PROPS_SLICE
  2
AecDbDispPropsSlice
  3
AecBase50|Product Desc: Autodesk Architectural Desktop 2007 |Company: Autodesk,Inc. |WEB Address: www.autodesk.com
 90
    32897
280
     0
281
     0
  0
CLASS
  1
AEC_DISP_REP_ANCHOR_TAG_TO_ENT
  2
AecDbDispRepAnchorTagToEnt
  3
AecScheduleData50|Product Desc: Autodesk Architectural Desktop 2007 |Company: Autodesk,Inc. |WEB Address: www.autodesk.com
 90
    32897
280
     0
281
     0
  0
CLASS
  1
AEC_DISP_REP_BDG_ELEVLINE_MODEL
  2
AecDbDispRepBdgElevLineModel
  3
AecArchBase50|Product Desc: Autodesk Architectural Desktop 2007 |Company: Autodesk,Inc. |WEB Address: www.autodesk.com
 90
    32897
280
     0
281
     0
  0
CLASS
  1
AEC_DISP_REP_BDG_SECTIONLINE_PLAN
  2
AecDbDispRepBdgElevLinePlan
  3
AecArchBase50|Product Desc: Autodesk Architectural Desktop 2007 |Company: Autodesk,Inc. |WEB Address: www.autodesk.com
 90
    32897
280
     0
281
     0
  0
CLASS
  1
AEC_DISP_REP_BDG_ELEVLINE_RCP
  2
AecDbDispRepBdgElevLineRcp
  3
AecArchBase50|Product Desc: Autodesk Architectural Desktop 2007 |Company: Autodesk,Inc. |WEB Address: www.autodesk.com
 90
    32897
280
     0
281
     0
  0
CLASS
  1
AEC_DISP_REP_BDG_SECTIONLINE_MODEL
  2
AecDbDispRepBdgSectionLineModel
  3
AecArchBase50|Product Desc: Autodesk Architectural Desktop 2007 |Company: Autodesk,Inc. |WEB Address: www.autodesk.com
 90
    32897
280
     0
281
     0
  0
CLASS
  1
AEC_DISP_REP_BDG_SECTIONLINE_PLAN
  2
AecDbDispRepBdgSectionLinePlan
  3
AecArchBase50|Product Desc: Autodesk Architectural Desktop 2007 |Company: Autodesk,Inc. |WEB Address: www.autodesk.com
 90
    32897
280
     0
281
     0
  0
CLASS
  1
AEC_DISP_REP_BDG_SECTIONLINE_RCP
  2
AecDbDispRepBdgSectionLineRcp
  3
AecArchBase50|Product Desc: Autodesk Architectural Desktop 2007 |Company: Autodesk,Inc. |WEB Address: www.autodesk.com
 90
    32897
280
     0
281
     0
  0
CLASS
  1
AEC_DISP_REP_BDG_SECTION_MODEL
  2
AecDbDispRepBdgSectionModel
  3
AecArchBase50|Product Desc: Autodesk Architectural Desktop 2007 |Company: Autodesk,Inc. |WEB Address: www.autodesk.com
 90
    32897
280
     0
281
     0
  0
CLASS
  1
AEC_DISP_REP_BDG_SECTION_SUBDIV
  2
AecDbDispRepBdgSectionSubDiv
  3
AecArchBase50|Product Desc: Autodesk Architectural Desktop 2007 |Company: Autodesk,Inc. |WEB Address: www.autodesk.com
 90
    32897
280
     0
281
     0
  0
CLASS
  1
AEC_DISP_REP_CEILING_GRID
  2
AecDbDispRepCeilingGrid
  3
AecArchBase50|Product Desc: Autodesk Architectural Desktop 2007 |Company: Autodesk,Inc. |WEB Address: www.autodesk.com
 90
    33661
280
     0
281
     0
  0
CLASS
  1
AEC_DISP_REP_CEILING_GRID_MODEL
  2
AecDbDispRepCeilingGridModel
  3
AecArchBase50|Product Desc: Autodesk Architectural Desktop 2007 |Company: Autodesk,Inc. |WEB Address: www.autodesk.com
 90
    32897
280
     0
281
     0
  0
CLASS
  1
AEC_DISP_REP_CEILING_GRID_RCP
  2
AecDbDispRepCeilingGridRcp
  3
AecArchBase50|Product Desc: Autodesk Architectural Desktop 2007 |Company: Autodesk,Inc. |WEB Address: www.autodesk.com
 90
    32897
280
     0
281
     0
  0
CLASS
  1
AEC_DISP_REP_CURTAIN_WALL_LAYOUT_MODEL
  2
AecDbDispRepCurtainWallLayoutModel
  3
AecArchBase50|Product Desc: Autodesk Architectural Desktop 2007 |Company: Autodesk,Inc. |WEB Address: www.autodesk.com
 90
    32897
280
     0
281
     0
  0
CLASS
  1
AEC_DISP_PROPS_GRID_ASSEMBLY_MODEL
  2
AecDbDispPropsGridAssemblyModel
  3
AecArchBase50|Product Desc: Autodesk Architectural Desktop 2007 |Company: Autodesk,Inc. |WEB Address: www.autodesk.com
 90
    32897
280
     0
281
     0
  0
CLASS
  1
AEC_DISP_REP_CURTAIN_WALL_LAYOUT_PLAN
  2
AecDbDispRepCurtainWallLayoutPlan
  3
AecArchBase50|Product Desc: Autodesk Architectural Desktop 2007 |Company: Autodesk,Inc. |WEB Address: www.autodesk.com
 90
    32897
280
     0
281
     0
  0
CLASS
  1
AEC_DISP_PROPS_GRID_ASSEMBLY_PLAN
  2
AecDbDispPropsGridAssemblyPlan
  3
AecArchBase50|Product Desc: Autodesk Architectural Desktop 2007 |Company: Autodesk,Inc. |WEB Address: www.autodesk.com
 90
    32897
280
     0
281
     0
  0
CLASS
  1
AEC_DISP_REP_CURTAIN_WALL_UNIT_MODEL
  2
AecDbDispRepCurtainWallUnitModel
  3
AecArchBase50|Product Desc: Autodesk Architectural Desktop 2007 |Company: Autodesk,Inc. |WEB Address: www.autodesk.com
 90
    32897
280
     0
281
     0
  0
CLASS
  1
AEC_DISP_REP_CURTAIN_WALL_UNIT_PLAN
  2
AecDbDispRepCurtainWallUnitPlan
  3
AecArchBase50|Product Desc: Autodesk Architectural Desktop 2007 |Company: Autodesk,Inc. |WEB Address: www.autodesk.com
 90
    32897
280
     0
281
     0
  0
CLASS
  1
AEC_DISP_REP_DOOR_MODEL
  2
AecDbDispRepDoorModel
  3
AecArchBase50|Product Desc: Autodesk Architectural Desktop 2007 |Company: Autodesk,Inc. |WEB Address: www.autodesk.com
 90
    32897
280
     0
281
     0
  0
CLASS
  1
AEC_DISP_PROPS_DOOR
  2
AecDbDispPropsDoor
  3
AecArchBase50|Product Desc: Autodesk Architectural Desktop 2007 |Company: Autodesk,Inc. |WEB Address: www.autodesk.com
 90
    32897
280
     0
281
     0
  0
CLASS
  1
AEC_DISP_REP_DOOR_ELEV
  2
AecDbDispRepDoorElev
  3
AecArchBase50|Product Desc: Autodesk Architectural Desktop 2007 |Company: Autodesk,Inc. |WEB Address: www.autodesk.com
 90
    32897
280
     0
281
     0
  0
CLASS
  1
AEC_DISP_REP_DOOR_PLAN
  2
AecDbDispRepDoorPlan
  3
AecArchBase50|Product Desc: Autodesk Architectural Desktop 2007 |Company: Autodesk,Inc. |WEB Address: www.autodesk.com
 90
    32897
280
     0
281
     0
  0
CLASS
  1
AEC_DISP_REP_DOOR_NOMINAL
  2
AecDbDispRepDoorNominal
  3
AecArchBase50|Product Desc: Autodesk Architectural Desktop 2007 |Company: Autodesk,Inc. |WEB Address: www.autodesk.com
 90
    32897
280
     0
281
     0
  0
CLASS
  1
AEC_DISP_PROPS_DOOR_NOMINAL
  2
AecDbDispPropsDoorNominal
  3
AecArchBase50|Product Desc: Autodesk Architectural Desktop 2007 |Company: Autodesk,Inc. |WEB Address: www.autodesk.com
 90
    32897
280
     0
281
     0
  0
CLASS
  1
AEC_DISP_REP_DOOR_RCP
  2
AecDbDispRepDoorRcp
  3
AecArchBase50|Product Desc: Autodesk Architectural Desktop 2007 |Company: Autodesk,Inc. |WEB Address: www.autodesk.com
 90
    32897
280
     0
281
     0
  0
CLASS
  1
AEC_DISP_REP_DOOR_THRESHOLD_PLAN
  2
AecDbDispRepDoorThresholdPlan
  3
AecArchBase50|Product Desc: Autodesk Architectural Desktop 2007 |Company: Autodesk,Inc. |WEB Address: www.autodesk.com
 90
    32897
280
     0
281
     0
  0
CLASS
  1
AEC_DISP_PROPS_DOOR_THRESHOLD_PLAN
  2
AecDbDispPropsDoorThresholdPlan
  3
AecArchBase50|Product Desc: Autodesk Architectural Desktop 2007 |Company: Autodesk,Inc. |WEB Address: www.autodesk.com
 90
    32897
280
     0
281
     0
  0
CLASS
  1
AEC_DISP_REP_MASKBLOCK_REF_RCP
  2
AecDbDispRepMaskBlockRefRcp
  3
AecArchBase50|Product Desc: Autodesk Architectural Desktop 2007 |Company: Autodesk,Inc. |WEB Address: www.autodesk.com
 90
    32897
280
     0
281
     0
  0
CLASS
  1
AEC_DISP_REP_MASS_ELEM_RCP
  2
AecDbDispRepMassElemRcp
  3
AecArchBase50|Product Desc: Autodesk Architectural Desktop 2007 |Company: Autodesk,Inc. |WEB Address: www.autodesk.com
 90
    32897
280
     0
281
     0
  0
CLASS
  1
AEC_DISP_REP_MASS_GROUP_RCP
  2
AecDbDispRepMassGroupRcp
  3
AecArchBase50|Product Desc: Autodesk Architectural Desktop 2007 |Company: Autodesk,Inc. |WEB Address: www.autodesk.com
 90
    32897
280
     0
281
     0
  0
CLASS
  1
AEC_DISP_REP_MVBLOCK_REF_RCP
  2
AecDbDispRepMvBlockRefRcp
  3
AecArchBase50|Product Desc: Autodesk Architectural Desktop 2007 |Company: Autodesk,Inc. |WEB Address: www.autodesk.com
 90
    32897
280
     0
281
     0
  0
CLASS
  1
AEC_DISP_REP_OPENING
  2
AecDbDispRepOpening
  3
AecArchBase50|Product Desc: Autodesk Architectural Desktop 2007 |Company: Autodesk,Inc. |WEB Address: www.autodesk.com
 90
    32897
280
     0
281
     0
  0
CLASS
  1
AEC_DISP_PROPS_OPENING
  2
AecDbDispPropsOpening
  3
AecArchBase50|Product Desc: Autodesk Architectural Desktop 2007 |Company: Autodesk,Inc. |WEB Address: www.autodesk.com
 90
    32897
280
     0
281
     0
  0
CLASS
  1
AEC_DISP_REP_OPENING_MODEL
  2
AecDbDispRepOpeningModel
  3
AecArchBase50|Product Desc: Autodesk Architectural Desktop 2007 |Company: Autodesk,Inc. |WEB Address: www.autodesk.com
 90
    32897
280
     0
281
     0
  0
CLASS
  1
AEC_DISP_REP_RAILING_MODEL
  2
AecDbDispRepRailingModel
  3
AecArchBase50|Product Desc: Autodesk Architectural Desktop 2007 |Company: Autodesk,Inc. |WEB Address: www.autodesk.com
 90
    32897
280
     0
281
     0
  0
CLASS
  1
AEC_DISP_PROPS_RAILING_MODEL
  2
AecDbDispPropsRailingModel
  3
AecArchBase50|Product Desc: Autodesk Architectural Desktop 2007 |Company: Autodesk,Inc. |WEB Address: www.autodesk.com
 90
    32897
280
     0
281
     0
  0
CLASS
  1
AEC_DISP_REP_RAILING_PLAN
  2
AecDbDispRepRailingPlan
  3
AecArchBase50|Product Desc: Autodesk Architectural Desktop 2007 |Company: Autodesk,Inc. |WEB Address: www.autodesk.com
 90
    32897
280
     0
281
     0
  0
CLASS
  1
AEC_DISP_PROPS_RAILING_PLAN
  2
AecDbDispPropsRailingPlan
  3
AecArchBase50|Product Desc: Autodesk Architectural Desktop 2007 |Company: Autodesk,Inc. |WEB Address: www.autodesk.com
 90
    32897
280
     0
281
     0
  0
CLASS
  1
AEC_DISP_REP_ROOF_MODEL
  2
AecDbDispRepRoofModel
  3
AecArchBase50|Product Desc: Autodesk Architectural Desktop 2007 |Company: Autodesk,Inc. |WEB Address: www.autodesk.com
 90
    32897
280
     0
281
     0
  0
CLASS
  1
AEC_DISP_PROPS_ROOF
  2
AecDbDispPropsRoof
  3
AecArchBase50|Product Desc: Autodesk Architectural Desktop 2007 |Company: Autodesk,Inc. |WEB Address: www.autodesk.com
 90
    32897
280
     0
281
     0
  0
CLASS
  1
AEC_DISP_REP_ROOF_PLAN
  2
AecDbDispRepRoofPlan
  3
AecArchBase50|Product Desc: Autodesk Architectural Desktop 2007 |Company: Autodesk,Inc. |WEB Address: www.autodesk.com
 90
    32897
280
     0
281
     0
  0
CLASS
  1
AEC_DISP_REP_ROOF_RCP
  2
AecDbDispRepRoofRcp
  3
AecArchBase50|Product Desc: Autodesk Architectural Desktop 2007 |Company: Autodesk,Inc. |WEB Address: www.autodesk.com
 90
    32897
280
     0
281
     0
  0
CLASS
  1
AEC_DISP_REP_SLAB_MODEL
  2
AecDbDispRepSlabModel
  3
AecArchBase50|Product Desc: Autodesk Architectural Desktop 2007 |Company: Autodesk,Inc. |WEB Address: www.autodesk.com
 90
    32897
280
     0
281
     0
  0
CLASS
  1
AEC_DISP_PROPS_SLAB
  2
AecDbDispPropsSlab
  3
AecArchBase50|Product Desc: Autodesk Architectural Desktop 2007 |Company: Autodesk,Inc. |WEB Address: www.autodesk.com
 90
    32897
280
     0
281
     0
  0
CLASS
  1
AEC_DISP_REP_ROOFSLAB_MODEL
  2
AecDbDispRepRoofSlabModel
  3
AecArchBase50|Product Desc: Autodesk Architectural Desktop 2007 |Company: Autodesk,Inc. |WEB Address: www.autodesk.com
 90
    32897
280
     0
281
     0
  0
CLASS
  1
AEC_DISP_PROPS_ROOFSLAB
  2
AecDbDispPropsRoofSlab
  3
AecArchBase50|Product Desc: Autodesk Architectural Desktop 2007 |Company: Autodesk,Inc. |WEB Address: www.autodesk.com
 90
    32897
280
     0
281
     0
  0
CLASS
  1
AEC_DISP_REP_SLAB_PLAN
  2
AecDbDispRepSlabPlan
  3
AecArchBase50|Product Desc: Autodesk Architectural Desktop 2007 |Company: Autodesk,Inc. |WEB Address: www.autodesk.com
 90
    32897
280
     0
281
     0
  0
CLASS
  1
AEC_DISP_PROPS_SLAB_PLAN
  2
AecDbDispPropsSlabPlan
  3
AecArchBase50|Product Desc: Autodesk Architectural Desktop 2007 |Company: Autodesk,Inc. |WEB Address: www.autodesk.com
 90
    32897
280
     0
281
     0
  0
CLASS
  1
AEC_DISP_REP_ROOFSLAB_PLAN
  2
AecDbDispRepRoofSlabPlan
  3
AecArchBase50|Product Desc: Autodesk Architectural Desktop 2007 |Company: Autodesk,Inc. |WEB Address: www.autodesk.com
 90
    32897
280
     0
281
     0
  0
CLASS
  1
AEC_DISP_PROPS_ROOFSLAB_PLAN
  2
AecDbDispPropsRoofSlabPlan
  3
AecArchBase50|Product Desc: Autodesk Architectural Desktop 2007 |Company: Autodesk,Inc. |WEB Address: www.autodesk.com
 90
    32897
280
     0
281
     0
  0
CLASS
  1
AEC_DISP_REP_SPACE_BOUNDARY_DIAGRAM
  2
AecDbDispRepSpaceBoundaryDgrm
  3
AecArchBase50|Product Desc: Autodesk Architectural Desktop 2007 |Company: Autodesk,Inc. |WEB Address: www.autodesk.com
 90
    32897
280
     0
281
     0
  0
CLASS
  1
AEC_DISP_PROPS_SPACE_BOUNDARY
  2
AecDbDispPropsSpaceBoundary
  3
AecArchBase50|Product Desc: Autodesk Architectural Desktop 2007 |Company: Autodesk,Inc. |WEB Address: www.autodesk.com
 90
    32897
280
     0
281
     0
  0
CLASS
  1
AEC_DISP_REP_SPACE_BOUNDARY_MODEL
  2
AecDbDispRepSpaceBoundaryModel
  3
AecArchBase50|Product Desc: Autodesk Architectural Desktop 2007 |Company: Autodesk,Inc. |WEB Address: www.autodesk.com
 90
    32897
280
     0
281
     0
  0
CLASS
  1
AEC_DISP_REP_SPACE_BOUNDARY_PLAN
  2
AecDbDispRepSpaceBoundaryPlan
  3
AecArchBase50|Product Desc: Autodesk Architectural Desktop 2007 |Company: Autodesk,Inc. |WEB Address: www.autodesk.com
 90
    32897
280
     0
281
     0
  0
CLASS
  1
AEC_DISP_REP_SPACE_BOUNDARY_SCHEM
  2
AecDbDispRepSpaceBoundarySketch
  3
AecArchBase50|Product Desc: Autodesk Architectural Desktop 2007 |Company: Autodesk,Inc. |WEB Address: www.autodesk.com
 90
    32897
280
     0
281
     0
  0
CLASS
  1
AEC_DISP_REP_SPACE_MODEL
  2
AecDbDispRepSpaceModel
  3
AecArchBase50|Product Desc: Autodesk Architectural Desktop 2007 |Company: Autodesk,Inc. |WEB Address: www.autodesk.com
 90
    32897
280
     0
281
     0
  0
CLASS
  1
AEC_DISP_PROPS_SPACE_MODEL
  2
AecDbDispPropsSpaceModel
  3
AecArchBase50|Product Desc: Autodesk Architectural Desktop 2007 |Company: Autodesk,Inc. |WEB Address: www.autodesk.com
 90
    32897
280
     0
281
     0
  0
CLASS
  1
AEC_DISP_REP_SPACE_PLAN
  2
AecDbDispRepSpacePlan
  3
AecArchBase50|Product Desc: Autodesk Architectural Desktop 2007 |Company: Autodesk,Inc. |WEB Address: www.autodesk.com
 90
    32897
280
     0
281
     0
  0
CLASS
  1
AEC_DISP_PROPS_SPACE_PLAN
  2
AecDbDispPropsSpacePlan
  3
AecArchBase50|Product Desc: Autodesk Architectural Desktop 2007 |Company: Autodesk,Inc. |WEB Address: www.autodesk.com
 90
    32897
280
     0
281
     0
  0
CLASS
  1
AEC_DISP_REP_SPACE_RCP
  2
AecDbDispRepSpaceRcp
  3
AecArchBase50|Product Desc: Autodesk Architectural Desktop 2007 |Company: Autodesk,Inc. |WEB Address: www.autodesk.com
 90
    32897
280
     0
281
     0
  0
CLASS
  1
AEC_DISP_REP_SPACE_VOLUME
  2
AecDbDispRepSpaceVolume
  3
AecArchBase50|Product Desc: Autodesk Architectural Desktop 2007 |Company: Autodesk,Inc. |WEB Address: www.autodesk.com
 90
    32897
280
     0
281
     0
  0
CLASS
  1
AEC_DISP_REP_STAIR_MODEL
  2
AecDbDispRepStairModel
  3
AecArchBase50|Product Desc: Autodesk Architectural Desktop 2007 |Company: Autodesk,Inc. |WEB Address: www.autodesk.com
 90
    32897
280
     0
281
     0
  0
CLASS
  1
AEC_DISP_PROPS_STAIR_MODEL
  2
AecDbDispPropsStairModel
  3
AecArchBase50|Product Desc: Autodesk Architectural Desktop 2007 |Company: Autodesk,Inc. |WEB Address: www.autodesk.com
 90
    32897
280
     0
281
     0
  0
CLASS
  1
AEC_DISP_REP_STAIR_PLAN
  2
AecDbDispRepStairPlan
  3
AecArchBase50|Product Desc: Autodesk Architectural Desktop 2007 |Company: Autodesk,Inc. |WEB Address: www.autodesk.com
 90
    32897
280
     0
281
     0
  0
CLASS
  1
AEC_DISP_PROPS_STAIR_PLAN
  2
AecDbDispPropsStairPlan
  3
AecArchBase50|Product Desc: Autodesk Architectural Desktop 2007 |Company: Autodesk,Inc. |WEB Address: www.autodesk.com
 90
    32897
280
     0
281
     0
  0
CLASS
  1
AEC_DISP_REP_STAIR_PLAN_OVERLAPPING
  2
AecDbDispRepStairPlanOverlapping
  3
AecArchBase50|Product Desc: Autodesk Architectural Desktop 2007 |Company: Autodesk,Inc. |WEB Address: www.autodesk.com
 90
    32897
280
     0
281
     0
  0
CLASS
  1
AEC_DISP_PROPS_STAIR_PLAN_OVERLAPPING
  2
AecDbDispPropsStairPlanOverlapping
  3
AecArchBase50|Product Desc: Autodesk Architectural Desktop 2007 |Company: Autodesk,Inc. |WEB Address: www.autodesk.com
 90
    32897
280
     0
281
     0
  0
CLASS
  1
AEC_DISP_REP_STAIR_RCP
  2
AecDbDispRepStairRcp
  3
AecArchBase50|Product Desc: Autodesk Architectural Desktop 2007 |Company: Autodesk,Inc. |WEB Address: www.autodesk.com
 90
    32897
280
     0
281
     0
  0
CLASS
  1
AEC_DISP_REP_WALL_GRAPH
  2
AecDbDispRepWallGraph
  3
AecArchBase50|Product Desc: Autodesk Architectural Desktop 2007 |Company: Autodesk,Inc. |WEB Address: www.autodesk.com
 90
    32897
280
     0
281
     0
  0
CLASS
  1
AEC_DISP_PROPS_WALL_GRAPH
  2
AecDbDispPropsWallGraph
  3
AecArchBase50|Product Desc: Autodesk Architectural Desktop 2007 |Company: Autodesk,Inc. |WEB Address: www.autodesk.com
 90
    32897
280
     0
281
     0
  0
CLASS
  1
AEC_DISP_REP_WALL_MODEL
  2
AecDbDispRepWallModel
  3
AecArchBase50|Product Desc: Autodesk Architectural Desktop 2007 |Company: Autodesk,Inc. |WEB Address: www.autodesk.com
 90
    32897
280
     0
281
     0
  0
CLASS
  1
AEC_DISP_PROPS_WALL_MODEL
  2
AecDbDispPropsWallModel
  3
AecArchBase50|Product Desc: Autodesk Architectural Desktop 2007 |Company: Autodesk,Inc. |WEB Address: www.autodesk.com
 90
    32897
280
     0
281
     0
  0
CLASS
  1
AEC_DISP_REP_WALL_PLAN
  2
AecDbDispRepWallPlan
  3
AecArchBase50|Product Desc: Autodesk Architectural Desktop 2007 |Company: Autodesk,Inc. |WEB Address: www.autodesk.com
 90
    32897
280
     0
281
     0
  0
CLASS
  1
AEC_DISP_PROPS_WALL_PLAN
  2
AecDbDispPropsWallPlan
  3
AecArchBase50|Product Desc: Autodesk Architectural Desktop 2007 |Company: Autodesk,Inc. |WEB Address: www.autodesk.com
 90
    32897
280
     0
281
     0
  0
CLASS
  1
AEC_DISP_REP_WALL_RCP
  2
AecDbDispRepWallRcp
  3
AecArchBase50|Product Desc: Autodesk Architectural Desktop 2007 |Company: Autodesk,Inc. |WEB Address: www.autodesk.com
 90
    32897
280
     0
281
     0
  0
CLASS
  1
AEC_DISP_REP_WALL_SCHEM
  2
AecDbDispRepWallSchem
  3
AecArchBase50|Product Desc: Autodesk Architectural Desktop 2007 |Company: Autodesk,Inc. |WEB Address: www.autodesk.com
 90
    32897
280
     0
281
     0
  0
CLASS
  1
AEC_DISP_PROPS_WALL_SCHEM
  2
AecDbDispPropsWallSchem
  3
AecArchBase50|Product Desc: Autodesk Architectural Desktop 2007 |Company: Autodesk,Inc. |WEB Address: www.autodesk.com
 90
    32897
280
     0
281
     0
  0
CLASS
  1
AEC_DISP_REP_WINDOW_ASSEMBLY_MODEL
  2
AecDbDispRepWindowAssemblyModel
  3
AecArchBase50|Product Desc: Autodesk Architectural Desktop 2007 |Company: Autodesk,Inc. |WEB Address: www.autodesk.com
 90
    32897
280
     0
281
     0
  0
CLASS
  1
AEC_DISP_REP_WINDOW_ASSEMBLY_PLAN
  2
AecDbDispRepWindowAssemblyPlan
  3
AecArchBase50|Product Desc: Autodesk Architectural Desktop 2007 |Company: Autodesk,Inc. |WEB Address: www.autodesk.com
 90
    32897
280
     0
281
     0
  0
CLASS
  1
AEC_DISP_REP_WINDOWASSEMBLY_SILL_PLAN
  2
AecDbDispRepWindowAssemblySillPlan
  3
AecArchBase50|Product Desc: Autodesk Architectural Desktop 2007 |Company: Autodesk,Inc. |WEB Address: www.autodesk.com
 90
    32897
280
     0
281
     0
  0
CLASS
  1
AEC_DISP_PROPS_WINDOW_ASSEMBLY_SILL_PLAN
  2
AecDbDispPropsWindowAssemblySillPlan
  3
AecArchBase50|Product Desc: Autodesk Architectural Desktop 2007 |Company: Autodesk,Inc. |WEB Address: www.autodesk.com
 90
    32897
280
     0
281
     0
  0
CLASS
  1
AEC_DISP_REP_WINDOW_MODEL
  2
AecDbDispRepWindowModel
  3
AecArchBase50|Product Desc: Autodesk Architectural Desktop 2007 |Company: Autodesk,Inc. |WEB Address: www.autodesk.com
 90
    32897
280
     0
281
     0
  0
CLASS
  1
AEC_DISP_PROPS_WINDOW
  2
AecDbDispPropsWindow
  3
AecArchBase50|Product Desc: Autodesk Architectural Desktop 2007 |Company: Autodesk,Inc. |WEB Address: www.autodesk.com
 90
    32897
280
     0
281
     0
  0
CLASS
  1
AEC_DISP_REP_WINDOW_ELEV
  2
AecDbDispRepWindowElev
  3
AecArchBase50|Product Desc: Autodesk Architectural Desktop 2007 |Company: Autodesk,Inc. |WEB Address: www.autodesk.com
 90
    32897
280
     0
281
     0
  0
CLASS
  1
AEC_DISP_REP_WINDOW_PLAN
  2
AecDbDispRepWindowPlan
  3
AecArchBase50|Product Desc: Autodesk Architectural Desktop 2007 |Company: Autodesk,Inc. |WEB Address: www.autodesk.com
 90
    32897
280
     0
281
     0
  0
CLASS
  1
AEC_DISP_REP_WINDOW_NOMINAL
  2
AecDbDispRepWindowNominal
  3
AecArchBase50|Product Desc: Autodesk Architectural Desktop 2007 |Company: Autodesk,Inc. |WEB Address: www.autodesk.com
 90
    32897
280
     0
281
     0
  0
CLASS
  1
AEC_DISP_PROPS_WINDOW_NOMINAL
  2
AecDbDispPropsWindowNominal
  3
AecArchBase50|Product Desc: Autodesk Architectural Desktop 2007 |Company: Autodesk,Inc. |WEB Address: www.autodesk.com
 90
    32897
280
     0
281
     0
  0
CLASS
  1
AEC_DISP_REP_WINDOW_RCP
  2
AecDbDispRepWindowRcp
  3
AecArchBase50|Product Desc: Autodesk Architectural Desktop 2007 |Company: Autodesk,Inc. |WEB Address: www.autodesk.com
 90
    32897
280
     0
281
     0
  0
CLASS
  1
AEC_DISP_REP_WINDOW_SILL_PLAN
  2
AecDbDispRepWindowSillPlan
  3
AecArchBase50|Product Desc: Autodesk Architectural Desktop 2007 |Company: Autodesk,Inc. |WEB Address: www.autodesk.com
 90
    32897
280
     0
281
     0
  0
CLASS
  1
AEC_DISP_PROPS_WINDOW_SILL_PLAN
  2
AecDbDispPropsWindowSillPlan
  3
AecArchBase50|Product Desc: Autodesk Architectural Desktop 2007 |Company: Autodesk,Inc. |WEB Address: www.autodesk.com
 90
    32897
280
     0
281
     0
  0
CLASS
  1
AEC_DISP_REP_ANCHOR_BUB_TO_GRID
  2
AecDbDispRepAnchorBubToGrid
  3
AecStructureBase50|Product Desc: Autodesk Architectural Desktop 2007 |Company: Autodesk,Inc. |WEB Address: www.autodesk.com
 90
    32897
280
     0
281
     0
  0
CLASS
  1
AEC_DISP_REP_ANCHOR_BUB_TO_GRID_MODEL
  2
AecDbDispRepAnchorBubToGridMdl
  3
AecStructureBase50|Product Desc: Autodesk Architectural Desktop 2007 |Company: Autodesk,Inc. |WEB Address: www.autodesk.com
 90
    32897
280
     0
281
     0
  0
CLASS
  1
AEC_DISP_REP_ANCHOR_BUB_TO_GRID_RCP
  2
AecDbDispRepAnchorBubToGridRcp
  3
AecStructureBase50|Product Desc: Autodesk Architectural Desktop 2007 |Company: Autodesk,Inc. |WEB Address: www.autodesk.com
 90
    32897
280
     0
281
     0
  0
CLASS
  1
AEC_DISP_REP_COLUMN_GRID
  2
AecDbDispRepColumnGrid
  3
AecStructureBase50|Product Desc: Autodesk Architectural Desktop 2007 |Company: Autodesk,Inc. |WEB Address: www.autodesk.com
 90
    32897
280
     0
281
     0
  0
CLASS
  1
AEC_DISP_REP_COLUMN_GRID_MODEL
  2
AecDbDispRepColumnGridModel
  3
AecStructureBase50|Product Desc: Autodesk Architectural Desktop 2007 |Company: Autodesk,Inc. |WEB Address: www.autodesk.com
 90
    32897
280
     0
281
     0
  0
CLASS
  1
AEC_DISP_REP_COLUMN_GRID_RCP
  2
AecDbDispRepColumnGridRcp
  3
AecStructureBase50|Product Desc: Autodesk Architectural Desktop 2007 |Company: Autodesk,Inc. |WEB Address: www.autodesk.com
 90
    32897
280
     0
281
     0
  0
CLASS
  1
AECS_DISP_REP_MEMBER_ELEVATION_DESIGN
  2
AecsDbDispRepMemberElevationDesign
  3
AecStructureBase50|Product Desc: Autodesk Architectural Desktop 2007 |Company: Autodesk,Inc. |WEB Address: www.autodesk.com
 90
    32897
280
     0
281
     0
  0
CLASS
  1
AECS_DISP_PROPS_MEMBER_PROJECTED
  2
AecsDbDispPropsMemberProjected
  3
AecStructureBase50|Product Desc: Autodesk Architectural Desktop 2007 |Company: Autodesk,Inc. |WEB Address: www.autodesk.com
 90
    32897
280
     0
281
     0
  0
CLASS
  1
AECS_DISP_REP_MEMBER_ELEVATION_DETAIL
  2
AecsDbDispRepMemberElevationDetail
  3
AecStructureBase50|Product Desc: Autodesk Architectural Desktop 2007 |Company: Autodesk,Inc. |WEB Address: www.autodesk.com
 90
    32897
280
     0
281
     0
  0
CLASS
  1
AECS_DISP_REP_MEMBER_LOGICAL
  2
AecsDbDispRepMemberLogical
  3
AecStructureBase50|Product Desc: Autodesk Architectural Desktop 2007 |Company: Autodesk,Inc. |WEB Address: www.autodesk.com
 90
    32897
280
     0
281
     0
  0
CLASS
  1
AECS_DISP_PROPS_MEMBER_LOGICAL
  2
AecsDbDispPropsMemberLogical
  3
AecStructureBase50|Product Desc: Autodesk Architectural Desktop 2007 |Company: Autodesk,Inc. |WEB Address: www.autodesk.com
 90
    32897
280
     0
281
     0
  0
CLASS
  1
AECS_DISP_REP_MEMBER_MODEL_DESIGN
  2
AecsDbDispRepMemberModelDesign
  3
AecStructureBase50|Product Desc: Autodesk Architectural Desktop 2007 |Company: Autodesk,Inc. |WEB Address: www.autodesk.com
 90
    32897
280
     0
281
     0
  0
CLASS
  1
AECS_DISP_PROPS_MEMBER
  2
AecsDbDispPropsMember
  3
AecStructureBase50|Product Desc: Autodesk Architectural Desktop 2007 |Company: Autodesk,Inc. |WEB Address: www.autodesk.com
 90
    32897
280
     0
281
     0
  0
CLASS
  1
AECS_DISP_REP_MEMBER_MODEL_DETAIL
  2
AecsDbDispRepMemberModelDetail
  3
AecStructureBase50|Product Desc: Autodesk Architectural Desktop 2007 |Company: Autodesk,Inc. |WEB Address: www.autodesk.com
 90
    32897
280
     0
281
     0
  0
CLASS
  1
AECS_DISP_REP_MEMBER_PLAN_DESIGN
  2
AecsDbDispRepMemberPlanDesign
  3
AecStructureBase50|Product Desc: Autodesk Architectural Desktop 2007 |Company: Autodesk,Inc. |WEB Address: www.autodesk.com
 90
    32897
280
     0
281
     0
  0
CLASS
  1
AECS_DISP_PROPS_MEMBER_PLAN
  2
AecsDbDispPropsMemberPlan
  3
AecStructureBase50|Product Desc: Autodesk Architectural Desktop 2007 |Company: Autodesk,Inc. |WEB Address: www.autodesk.com
 90
    32897
280
     0
281
     0
  0
CLASS
  1
AECS_DISP_REP_MEMBER_PLAN_DETAIL
  2
AecsDbDispRepMemberPlanDetail
  3
AecStructureBase50|Product Desc: Autodesk Architectural Desktop 2007 |Company: Autodesk,Inc. |WEB Address: www.autodesk.com
 90
    32897
280
     0
281
     0
  0
CLASS
  1
AECS_DISP_REP_MEMBER_PLAN_SKETCH
  2
AecsDbDispRepMemberPlanSketch
  3
AecStructureBase50|Product Desc: Autodesk Architectural Desktop 2007 |Company: Autodesk,Inc. |WEB Address: www.autodesk.com
 90
    32897
280
     0
281
     0
  0
CLASS
  1
AECS_DISP_PROPS_MEMBER_PLAN_SKETCH
  2
AecsDbDispPropsMemberPlanSketch
  3
AecStructureBase50|Product Desc: Autodesk Architectural Desktop 2007 |Company: Autodesk,Inc. |WEB Address: www.autodesk.com
 90
    32897
280
     0
281
     0
  0
CLASS
  1
AEC_DISP_REP_AREA
  2
AecDbDispRepArea
  3
AecAreaCalculationBase50|Product Desc: Autodesk Architectural Desktop 2007 |Company: Autodesk,Inc. |WEB Address: www.autodesk.com
 90
    32897
280
     0
281
     0
  0
CLASS
  1
AEC_DISP_PROPS_AREA
  2
AecDbDispPropsArea
  3
AecAreaCalculationBase50|Product Desc: Autodesk Architectural Desktop 2007 |Company: Autodesk,Inc. |WEB Address: www.autodesk.com
 90
    32897
280
     0
281
     0
  0
CLASS
  1
AEC_DISP_REP_AREA_DECOMPOSED
  2
AecDbDispRepAreaDecomposed
  3
AecAreaCalculationBase50|Product Desc: Autodesk Architectural Desktop 2007 |Company: Autodesk,Inc. |WEB Address: www.autodesk.com
 90
    32897
280
     0
281
     0
  0
CLASS
  1
AEC_DISP_PROPS_AREA_DECOMPOSED
  2
AecDbDispPropsAreaDecomposed
  3
AecAreaCalculationBase50|Product Desc: Autodesk Architectural Desktop 2007 |Company: Autodesk,Inc. |WEB Address: www.autodesk.com
 90
    32897
280
     0
281
     0
  0
CLASS
  1
AEC_DISP_REP_AREAGROUP
  2
AecDbDispRepAreaGroup
  3
AecAreaCalculationBase50|Product Desc: Autodesk Architectural Desktop 2007 |Company: Autodesk,Inc. |WEB Address: www.autodesk.com
 90
    32897
280
     0
281
     0
  0
CLASS
  1
AEC_DISP_PROPS_AREAGROUP
  2
AecDbDispPropsAreaGroup
  3
AecAreaCalculationBase50|Product Desc: Autodesk Architectural Desktop 2007 |Company: Autodesk,Inc. |WEB Address: www.autodesk.com
 90
    32897
280
     0
281
     0
  0
CLASS
  1
AEC_AECDBDISPREPAREA100
  2
AecDbDispRepArea100
  3
AecArchDACHBase50|Product Desc: Autodesk Architectural Desktop 2007 |Company: Autodesk,Inc. |WEB Address: www.autodesk.com
 90
    32897
280
     0
281
     0
  0
CLASS
  1
AEC_AECDBDISPREPAREAGROUP100
  2
AecDbDispRepAreaGroup100
  3
AecArchDACHBase50|Product Desc: Autodesk Architectural Desktop 2007 |Company: Autodesk,Inc. |WEB Address: www.autodesk.com
 90
    32897
280
     0
281
     0
  0
CLASS
  1
AEC_AECDBDISPREPBDGELEVLINEPLAN100
  2
AecDbDispRepBdgElevLinePlan100
  3
AecArchDACHBase50|Product Desc: Autodesk Architectural Desktop 2007 |Company: Autodesk,Inc. |WEB Address: www.autodesk.com
 90
    32897
280
     0
281
     0
  0
CLASS
  1
AEC_AECDBDISPREPBDGSECTIONLINEPLAN100
  2
AecDbDispRepBdgSectionLinePlan100
  3
AecArchDACHBase50|Product Desc: Autodesk Architectural Desktop 2007 |Company: Autodesk,Inc. |WEB Address: www.autodesk.com
 90
    32897
280
     0
281
     0
  0
CLASS
  1
AEC_AECDBDISPREPCEILINGGRIDPLAN100
  2
AecDbDispRepCeilingGridPlan100
  3
AecArchDACHBase50|Product Desc: Autodesk Architectural Desktop 2007 |Company: Autodesk,Inc. |WEB Address: www.autodesk.com
 90
    32897
280
     0
281
     0
  0
CLASS
  1
AEC_AECDBDISPREPCOLUMNGRIDPLAN100
  2
AecDbDispRepColumnGridPlan100
  3
AecArchDACHBase50|Product Desc: Autodesk Architectural Desktop 2007 |Company: Autodesk,Inc. |WEB Address: www.autodesk.com
 90
    32897
280
     0
281
     0
  0
CLASS
  1
AEC_AECDBDISPREPCURTAINWALLLAYOUTPLAN100
  2
AecDbDispRepCurtainWallLayoutPlan100
  3
AecArchDACHBase50|Product Desc: Autodesk Architectural Desktop 2007 |Company: Autodesk,Inc. |WEB Address: www.autodesk.com
 90
    32897
280
     0
281
     0
  0
CLASS
  1
AEC_AECDBDISPREPCURTAINWALLUNITPLAN100
  2
AecDbDispRepCurtainWallUnitPlan100
  3
AecArchDACHBase50|Product Desc: Autodesk Architectural Desktop 2007 |Company: Autodesk,Inc. |WEB Address: www.autodesk.com
 90
    32897
280
     0
281
     0
  0
CLASS
  1
AEC_AECDBDISPREPMVBLOCKREFPLAN100
  2
AecDbDispRepMvBlockRefPlan100
  3
AecArchDACHBase50|Product Desc: Autodesk Architectural Desktop 2007 |Company: Autodesk,Inc. |WEB Address: www.autodesk.com
 90
    32897
280
     0
281
     0
  0
CLASS
  1
AEC_AECDBDISPREPROOFPLAN100
  2
AecDbDispRepRoofPlan100
  3
AecArchDACHBase50|Product Desc: Autodesk Architectural Desktop 2007 |Company: Autodesk,Inc. |WEB Address: www.autodesk.com
 90
    32897
280
     0
281
     0
  0
CLASS
  1
AEC_AECDBDISPREPROOFSLABPLAN100
  2
AecDbDispRepRoofSlabPlan100
  3
AecArchDACHBase50|Product Desc: Autodesk Architectural Desktop 2007 |Company: Autodesk,Inc. |WEB Address: www.autodesk.com
 90
    32897
280
     0
281
     0
  0
CLASS
  1
AEC_AECDBDISPREPSLABPLAN100
  2
AecDbDispRepSlabPlan100
  3
AecArchDACHBase50|Product Desc: Autodesk Architectural Desktop 2007 |Company: Autodesk,Inc. |WEB Address: www.autodesk.com
 90
    32897
280
     0
281
     0
  0
CLASS
  1
AEC_AECDBDISPREPSPACEBOUNDARYPLAN100
  2
AecDbDispRepSpaceBoundaryPlan100
  3
AecArchDACHBase50|Product Desc: Autodesk Architectural Desktop 2007 |Company: Autodesk,Inc. |WEB Address: www.autodesk.com
 90
    32897
280
     0
281
     0
  0
CLASS
  1
AEC_AECDBDISPREPSPACEPLAN100
  2
AecDbDispRepSpacePlan100
  3
AecArchDACHBase50|Product Desc: Autodesk Architectural Desktop 2007 |Company: Autodesk,Inc. |WEB Address: www.autodesk.com
 90
    32897
280
     0
281
     0
  0
CLASS
  1
AEC_AECDBDISPREPWALLPLAN100
  2
AecDbDispRepWallPlan100
  3
AecArchDACHBase50|Product Desc: Autodesk Architectural Desktop 2007 |Company: Autodesk,Inc. |WEB Address: www.autodesk.com
 90
    32897
280
     0
281
     0
  0
CLASS
  1
AEC_AECDBDISPREPWINDOWASSEMBLYPLAN100
  2
AecDbDispRepWindowAssemblyPlan100
  3
AecArchDACHBase50|Product Desc: Autodesk Architectural Desktop 2007 |Company: Autodesk,Inc. |WEB Address: www.autodesk.com
 90
    32897
280
     0
281
     0
  0
CLASS
  1
AEC_AECDBDISPREPAREA50
  2
AecDbDispRepArea50
  3
AecArchDACHBase50|Product Desc: Autodesk Architectural Desktop 2007 |Company: Autodesk,Inc. |WEB Address: www.autodesk.com
 90
    32897
280
     0
281
     0
  0
CLASS
  1
AEC_AECDBDISPREPAREAGROUP50
  2
AecDbDispRepAreaGroup50
  3
AecArchDACHBase50|Product Desc: Autodesk Architectural Desktop 2007 |Company: Autodesk,Inc. |WEB Address: www.autodesk.com
 90
    32897
280
     0
281
     0
  0
CLASS
  1
AEC_AECDBDISPREPBDGELEVLINEPLAN50
  2
AecDbDispRepBdgElevLinePlan50
  3
AecArchDACHBase50|Product Desc: Autodesk Architectural Desktop 2007 |Company: Autodesk,Inc. |WEB Address: www.autodesk.com
 90
    32897
280
     0
281
     0
  0
CLASS
  1
AEC_AECDBDISPREPBDGSECTIONLINEPLAN50
  2
AecDbDispRepBdgSectionLinePlan50
  3
AecArchDACHBase50|Product Desc: Autodesk Architectural Desktop 2007 |Company: Autodesk,Inc. |WEB Address: www.autodesk.com
 90
    32897
280
     0
281
     0
  0
CLASS
  1
AEC_AECDBDISPREPCEILINGGRIDPLAN50
  2
AecDbDispRepCeilingGridPlan50
  3
AecArchDACHBase50|Product Desc: Autodesk Architectural Desktop 2007 |Company: Autodesk,Inc. |WEB Address: www.autodesk.com
 90
    32897
280
     0
281
     0
  0
CLASS
  1
AEC_AECDBDISPREPCOLUMNGRIDPLAN50
  2
AecDbDispRepColumnGridPlan50
  3
AecArchDACHBase50|Product Desc: Autodesk Architectural Desktop 2007 |Company: Autodesk,Inc. |WEB Address: www.autodesk.com
 90
    32897
280
     0
281
     0
  0
CLASS
  1
AEC_AECDBDISPREPCURTAINWALLLAYOUTPLAN50
  2
AecDbDispRepCurtainWallLayoutPlan50
  3
AecArchDACHBase50|Product Desc: Autodesk Architectural Desktop 2007 |Company: Autodesk,Inc. |WEB Address: www.autodesk.com
 90
    32897
280
     0
281
     0
  0
CLASS
  1
AEC_AECDBDISPREPCURTAINWALLUNITPLAN50
  2
AecDbDispRepCurtainWallUnitPlan50
  3
AecArchDACHBase50|Product Desc: Autodesk Architectural Desktop 2007 |Company: Autodesk,Inc. |WEB Address: www.autodesk.com
 90
    32897
280
     0
281
     0
  0
CLASS
  1
AEC_AECDBDISPREPMVBLOCKREFPLAN50
  2
AecDbDispRepMvBlockRefPlan50
  3
AecArchDACHBase50|Product Desc: Autodesk Architectural Desktop 2007 |Company: Autodesk,Inc. |WEB Address: www.autodesk.com
 90
    32897
280
     0
281
     0
  0
CLASS
  1
AEC_AECDBDISPREPROOFPLAN50
  2
AecDbDispRepRoofPlan50
  3
AecArchDACHBase50|Product Desc: Autodesk Architectural Desktop 2007 |Company: Autodesk,Inc. |WEB Address: www.autodesk.com
 90
    32897
280
     0
281
     0
  0
CLASS
  1
AEC_AECDBDISPREPROOFSLABPLAN50
  2
AecDbDispRepRoofSlabPlan50
  3
AecArchDACHBase50|Product Desc: Autodesk Architectural Desktop 2007 |Company: Autodesk,Inc. |WEB Address: www.autodesk.com
 90
    32897
280
     0
281
     0
  0
CLASS
  1
AEC_AECDBDISPREPSLABPLAN50
  2
AecDbDispRepSlabPlan50
  3
AecArchDACHBase50|Product Desc: Autodesk Architectural Desktop 2007 |Company: Autodesk,Inc. |WEB Address: www.autodesk.com
 90
    32897
280
     0
281
     0
  0
CLASS
  1
AEC_AECDBDISPREPSPACEBOUNDARYPLAN50
  2
AecDbDispRepSpaceBoundaryPlan50
  3
AecArchDACHBase50|Product Desc: Autodesk Architectural Desktop 2007 |Company: Autodesk,Inc. |WEB Address: www.autodesk.com
 90
    32897
280
     0
281
     0
  0
CLASS
  1
AEC_AECDBDISPREPSPACEPLAN50
  2
AecDbDispRepSpacePlan50
  3
AecArchDACHBase50|Product Desc: Autodesk Architectural Desktop 2007 |Company: Autodesk,Inc. |WEB Address: www.autodesk.com
 90
    32897
280
     0
281
     0
  0
CLASS
  1
AEC_AECDBDISPREPWALLPLAN50
  2
AecDbDispRepWallPlan50
  3
AecArchDACHBase50|Product Desc: Autodesk Architectural Desktop 2007 |Company: Autodesk,Inc. |WEB Address: www.autodesk.com
 90
    32897
280
     0
281
     0
  0
CLASS
  1
AEC_AECDBDISPREPWINDOWASSEMBLYPLAN50
  2
AecDbDispRepWindowAssemblyPlan50
  3
AecArchDACHBase50|Product Desc: Autodesk Architectural Desktop 2007 |Company: Autodesk,Inc. |WEB Address: www.autodesk.com
 90
    32897
280
     0
281
     0
  0
CLASS
  1
AEC_DB_DISP_REP_DIM_GROUP_PLAN100
  2
AecDbDispRepDimGroupPlan100
  3
AecArchDACHBase50|Product Desc: Autodesk Architectural Desktop 2007 |Company: Autodesk,Inc. |WEB Address: www.autodesk.com
 90
    32897
280
     0
281
     0
  0
CLASS
  1
AEC_DISP_PROPS_DIM
  2
AecDbDispPropsDimGroup
  3
AecArchDACHBase50|Product Desc: Autodesk Architectural Desktop 2007 |Company: Autodesk,Inc. |WEB Address: www.autodesk.com
 90
    32897
280
     0
281
     0
  0
CLASS
  1
AEC_DB_DISP_REP_DIM_GROUP_PLAN50
  2
AecDbDispRepDimGroupPlan50
  3
AecArchDACHBase50|Product Desc: Autodesk Architectural Desktop 2007 |Company: Autodesk,Inc. |WEB Address: www.autodesk.com
 90
    32897
280
     0
281
     0
  0
CLASS
  1
AEC_DB_DISP_REP_DIM_GROUP_PLAN
  2
AecDbDispRepDimGroupPlan
  3
AecArchDACHBase50|Product Desc: Autodesk Architectural Desktop 2007 |Company: Autodesk,Inc. |WEB Address: www.autodesk.com
 90
    32897
280
     0
281
     0
  0
CLASS
  1
AEC_DISP_REP_DOOR_PLAN_50
  2
AecDbDispRepDoorPlan50
  3
AecArchDACHBase50|Product Desc: Autodesk Architectural Desktop 2007 |Company: Autodesk,Inc. |WEB Address: www.autodesk.com
 90
    32897
280
     0
281
     0
  0
CLASS
  1
AEC_DISP_PROPS_DOOR_PLAN_50
  2
AecDbDispPropsDoorPlan50
  3
AecArchDACHBase50|Product Desc: Autodesk Architectural Desktop 2007 |Company: Autodesk,Inc. |WEB Address: www.autodesk.com
 90
    32897
280
     0
281
     0
  0
CLASS
  1
AEC_DISP_REP_DOOR_PLAN_HEKTO
  2
AecDbDispRepDoorPlanHekto
  3
AecArchDACHBase50|Product Desc: Autodesk Architectural Desktop 2007 |Company: Autodesk,Inc. |WEB Address: www.autodesk.com
 90
    32897
280
     0
281
     0
  0
CLASS
  1
AEC_DISP_PROPS_DOOR_PLAN_100
  2
AecDbDispPropsDoorPlan100
  3
AecArchDACHBase50|Product Desc: Autodesk Architectural Desktop 2007 |Company: Autodesk,Inc. |WEB Address: www.autodesk.com
 90
    32897
280
     0
281
     0
  0
CLASS
  1
AEC_DISP_REP_DOOR_THRESHOLD_SYMBOL_PLAN
  2
AecDbDispRepDoorThresholdSymbolPlan
  3
AecArchDACHBase50|Product Desc: Autodesk Architectural Desktop 2007 |Company: Autodesk,Inc. |WEB Address: www.autodesk.com
 90
    32897
280
     0
281
     0
  0
CLASS
  1
AEC_DISP_PROPS_DOOR_THRESHOLD_SYMBOL_PLAN
  2
AecDbDispPropsDoorThresholdSymbolPlan
  3
AecArchDACHBase50|Product Desc: Autodesk Architectural Desktop 2007 |Company: Autodesk,Inc. |WEB Address: www.autodesk.com
 90
    32897
280
     0
281
     0
  0
CLASS
  1
AEC_DISPREPAECDBDISPREPMASSELEMPLAN100
  2
AecDbDispRepMassElemPlan100
  3
AecArchDACHBase50|Product Desc: Autodesk Architectural Desktop 2007 |Company: Autodesk,Inc. |WEB Address: www.autodesk.com
 90
    32897
280
     0
281
     0
  0
CLASS
  1
AEC_DISPROPSMASSELEMPLANCOMMON
  2
AecDbDispPropsMassElemPlanCommon
  3
AecArchDACHBase50|Product Desc: Autodesk Architectural Desktop 2007 |Company: Autodesk,Inc. |WEB Address: www.autodesk.com
 90
    32897
280
     0
281
     0
  0
CLASS
  1
AEC_DISPREPAECDBDISPREPMASSELEMPLAN50
  2
AecDbDispRepMassElemPlan50
  3
AecArchDACHBase50|Product Desc: Autodesk Architectural Desktop 2007 |Company: Autodesk,Inc. |WEB Address: www.autodesk.com
 90
    32897
280
     0
281
     0
  0
CLASS
  1
AEC_DISPREPAECDBDISPREPMASSGROUPPLAN100
  2
AecDbDispRepMassGroupPlan100
  3
AecArchDACHBase50|Product Desc: Autodesk Architectural Desktop 2007 |Company: Autodesk,Inc. |WEB Address: www.autodesk.com
 90
    32897
280
     0
281
     0
  0
CLASS
  1
AEC_DISPROPSMASSGROUPPLANCOMMON
  2
AecDbDispPropsMassGroupPlanCommon
  3
AecArchDACHBase50|Product Desc: Autodesk Architectural Desktop 2007 |Company: Autodesk,Inc. |WEB Address: www.autodesk.com
 90
    32897
280
     0
281
     0
  0
CLASS
  1
AEC_DISPREPAECDBDISPREPMASSGROUPPLAN50
  2
AecDbDispRepMassGroupPlan50
  3
AecArchDACHBase50|Product Desc: Autodesk Architectural Desktop 2007 |Company: Autodesk,Inc. |WEB Address: www.autodesk.com
 90
    32897
280
     0
281
     0
  0
CLASS
  1
AEC_DISPREPAECDBDISPREPOPENINGPLAN100
  2
AecDbDispRepOpeningPlan100
  3
AecArchDACHBase50|Product Desc: Autodesk Architectural Desktop 2007 |Company: Autodesk,Inc. |WEB Address: www.autodesk.com
 90
    32897
280
     0
281
     0
  0
CLASS
  1
AEC_DISPROPSOPENINGPLANCOMMONHATCHED
  2
AecDbDispPropsOpeningPlanCommonHatched
  3
AecArchDACHBase50|Product Desc: Autodesk Architectural Desktop 2007 |Company: Autodesk,Inc. |WEB Address: www.autodesk.com
 90
    32897
280
     0
281
     0
  0
CLASS
  1
AEC_DISPREPAECDBDISPREPOPENINGPLAN50
  2
AecDbDispRepOpeningPlan50
  3
AecArchDACHBase50|Product Desc: Autodesk Architectural Desktop 2007 |Company: Autodesk,Inc. |WEB Address: www.autodesk.com
 90
    32897
280
     0
281
     0
  0
CLASS
  1
AEC_DISPREPAECDBDISPREPOPENINGPLANREFLECTED
  2
AecDbDispRepOpeningPlanReflected
  3
AecArchDACHBase50|Product Desc: Autodesk Architectural Desktop 2007 |Company: Autodesk,Inc. |WEB Address: www.autodesk.com
 90
    32897
280
     0
281
     0
  0
CLASS
  1
AEC_DISPROPSOPENINGPLANCOMMON
  2
AecDbDispPropsOpeningPlanCommon
  3
AecArchDACHBase50|Product Desc: Autodesk Architectural Desktop 2007 |Company: Autodesk,Inc. |WEB Address: www.autodesk.com
 90
    32897
280
     0
281
     0
  0
CLASS
  1
AEC_DISPREPAECDBDISPREPOPENINGSILLPLAN
  2
AecDbDispRepOpeningSillPlan
  3
AecArchDACHBase50|Product Desc: Autodesk Architectural Desktop 2007 |Company: Autodesk,Inc. |WEB Address: www.autodesk.com
 90
    32897
280
     0
281
     0
  0
CLASS
  1
AEC_DISPROPSOPENINGSILLPLAN
  2
AecDbDispPropsOpeningSillPlan
  3
AecArchDACHBase50|Product Desc: Autodesk Architectural Desktop 2007 |Company: Autodesk,Inc. |WEB Address: www.autodesk.com
 90
    32897
280
     0
281
     0
  0
CLASS
  1
AEC_DISP_REP_RAILING_PLAN_100
  2
AecDbDispRepRailingPlan100
  3
AecArchDACHBase50|Product Desc: Autodesk Architectural Desktop 2007 |Company: Autodesk,Inc. |WEB Address: www.autodesk.com
 90
    32897
280
     0
281
     0
  0
CLASS
  1
AEC_DISP_ROPS_RAILING_PLAN_100
  2
AecDbDispPropsRailingPlan100
  3
AecArchDACHBase50|Product Desc: Autodesk Architectural Desktop 2007 |Company: Autodesk,Inc. |WEB Address: www.autodesk.com
 90
    32897
280
     0
281
     0
  0
CLASS
  1
AEC_DISP_REP_RAILING_PLAN_50
  2
AecDbDispRepRailingPlan50
  3
AecArchDACHBase50|Product Desc: Autodesk Architectural Desktop 2007 |Company: Autodesk,Inc. |WEB Address: www.autodesk.com
 90
    32897
280
     0
281
     0
  0
CLASS
  1
AEC_DISP_ROPS_RAILING_PLAN_50
  2
AecDbDispPropsRailingPlan50
  3
AecArchDACHBase50|Product Desc: Autodesk Architectural Desktop 2007 |Company: Autodesk,Inc. |WEB Address: www.autodesk.com
 90
    32897
280
     0
281
     0
  0
CLASS
  1
AEC_DISP_REP_STAIR_PLAN_100
  2
AecDbDispRepStairPlan100
  3
AecArchDACHBase50|Product Desc: Autodesk Architectural Desktop 2007 |Company: Autodesk,Inc. |WEB Address: www.autodesk.com
 90
    32897
280
     0
281
     0
  0
CLASS
  1
AEC_DISP_ROPS_STAIR_PLAN_100
  2
AecDbDispPropsStairPlan100
  3
AecArchDACHBase50|Product Desc: Autodesk Architectural Desktop 2007 |Company: Autodesk,Inc. |WEB Address: www.autodesk.com
 90
    32897
280
     0
281
     0
  0
CLASS
  1
AEC_DISP_REP_STAIR_PLAN_50
  2
AecDbDispRepStairPlan50
  3
AecArchDACHBase50|Product Desc: Autodesk Architectural Desktop 2007 |Company: Autodesk,Inc. |WEB Address: www.autodesk.com
 90
    32897
280
     0
281
     0
  0
CLASS
  1
AEC_DISP_ROPS_STAIR_PLAN_50
  2
AecDbDispPropsStairPlan50
  3
AecArchDACHBase50|Product Desc: Autodesk Architectural Desktop 2007 |Company: Autodesk,Inc. |WEB Address: www.autodesk.com
 90
    32897
280
     0
281
     0
  0
CLASS
  1
AEC_DISP_REP_WINDOW_PLAN_100
  2
AecDbDispRepWindowPlan100
  3
AecArchDACHBase50|Product Desc: Autodesk Architectural Desktop 2007 |Company: Autodesk,Inc. |WEB Address: www.autodesk.com
 90
    32897
280
     0
281
     0
  0
CLASS
  1
AEC_DISP_PROPS_WINDOW_PLAN_100
  2
AecDbDispPropsWindowPlan100
  3
AecArchDACHBase50|Product Desc: Autodesk Architectural Desktop 2007 |Company: Autodesk,Inc. |WEB Address: www.autodesk.com
 90
    32897
280
     0
281
     0
  0
CLASS
  1
AEC_DISP_REP_WINDOW_PLAN_50
  2
AecDbDispRepWindowPlan50
  3
AecArchDACHBase50|Product Desc: Autodesk Architectural Desktop 2007 |Company: Autodesk,Inc. |WEB Address: www.autodesk.com
 90
    32897
280
     0
281
     0
  0
CLASS
  1
AEC_DISP_PROPS_WINDOW_PLAN_50
  2
AecDbDispPropsWindowPlan50
  3
AecArchDACHBase50|Product Desc: Autodesk Architectural Desktop 2007 |Company: Autodesk,Inc. |WEB Address: www.autodesk.com
 90
    32897
280
     0
281
     0
  0
CLASS
  1
AEC_DISP_REP_SCHEDULE_TABLE
  2
AecDbDispRepScheduleTable
  3
AecSchedule50|Product Desc: Autodesk Architectural Desktop 2007 |Company: Autodesk,Inc. |WEB Address: www.autodesk.com
 90
    32897
280
     0
281
     0
  0
CLASS
  1
AEC_DISP_PROPS_SCHEDULE_TABLE
  2
AecDbDispPropsScheduleTable
  3
AecSchedule50|Product Desc: Autodesk Architectural Desktop 2007 |Company: Autodesk,Inc. |WEB Address: www.autodesk.com
 90
    32897
280
     0
281
     0
  0
CLASS
  1
AEC_DISP_REP_SET
  2
AecDbDispRepSet
  3
AecBase50|Product Desc: Autodesk Architectural Desktop 2007 |Company: Autodesk,Inc. |WEB Address: www.autodesk.com
 90
    32897
280
     0
281
     0
  0
CLASS
  1
AEC_DISP_REP_CONFIG
  2
AecDbDispRepConfig
  3
AecBase50|Product Desc: Autodesk Architectural Desktop 2007 |Company: Autodesk,Inc. |WEB Address: www.autodesk.com
 90
    32897
280
     0
281
     0
  0
CLASS
  1
AEC_LAYERKEY_STYLE
  2
AecDbLayerKeyStyle
  3
AecBase50|Product Desc: Autodesk Architectural Desktop 2007 |Company: Autodesk,Inc. |WEB Address: www.autodesk.com
 90
    32897
280
     0
281
     0
  0
CLASS
  1
AEC_VARS_ARCHBASE
  2
AecDbVarsArchBase
  3
AecArchBase50|Product Desc: Autodesk Architectural Desktop 2007 |Company: Autodesk,Inc. |WEB Address: www.autodesk.com
 90
    32897
280
     0
281
     0
  0
CLASS
  1
AEC_VARS_MUNICH
  2
AecDbVarsMunich
  3
AecArchDACHBase50|Product Desc: Autodesk Architectural Desktop 2007 |Company: Autodesk,Inc. |WEB Address: www.autodesk.com
 90
    32897
280
     0
281
     0
  0
CLASS
  1
BINRECORD
  2
AcAecBinRecord
  3
AecBase50|Product Desc: Autodesk Architectural Desktop 2007 |Company: Autodesk,Inc. |WEB Address: www.autodesk.com
 90
    32897
280
     0
281
     0
  0
CLASS
  1
SPATIAL_FILTER
  2
AcDbSpatialFilter
  3
ObjectDBX Classes
 90
    32768
280
     0
281
     0
  0
CLASS
  1
SORTENTSTABLE
  2
AcDbSortentsTable
  3
ObjectDBX Classes
 90
        0
280
     0
281
     0
  0
CLASS
  1
RTEXT
  2
RText
  3
RText|AutoCAD Express Tool|expresstools@autodesk.com
 90
    35839
280
     1
281
     1
  0
CLASS
  1
OBJECT_PTR
  2
CAseDLPNTableRecord
  3
ASE-LPNTableRecord
 90
    32769
280
     1
281
     0
  0
CLASS
  1
IMAGE
  2
AcDbRasterImage
  3
ISM
 90
    34943
280
     0
281
     1
  0
CLASS
  1
IMAGEDEF_REACTOR
  2
AcDbRasterImageDefReactor
  3
ISM
 90
    32769
280
     0
281
     0
  0
CLASS
  1
IMAGEDEF
  2
AcDbRasterImageDef
  3
ISM
 90
    32768
280
     0
281
     0
  0
CLASS
  1
RASTERVARIABLES
  2
AcDbRasterVariables
  3
ISM
 90
    32768
280
     0
281
     0
  0
CLASS
  1
MATERIAL
  2
AcDbMaterial
  3
ObjectDBX Classes
 90
     1153
280
     0
281
     0
  0
CLASS
  1
AEC_MVBLOCK_REF
  2
AecDbMvBlockRef
  3
AecBase50|Product Desc: Autodesk Architectural Desktop 2007 |Company: Autodesk,Inc. |WEB Address: www.autodesk.com
 90
    33661
280
     0
281
     1
  0
CLASS
  1
AEC_AECDBAREAPROPOSALNAMES
  2
AecDbAreaProposalNames
  3
AecAreaCalculationBase50|Product Desc: Autodesk Architectural Desktop 2007 |Company: Autodesk,Inc. |WEB Address: www.autodesk.com
 90
    32897
280
     0
281
     0
  0
CLASS
  1
AEC_AECDBAREAGROUPSTYLE
  2
AecDbAreaGroupStyle
  3
AecAreaCalculationBase50|Product Desc: Autodesk Architectural Desktop 2007 |Company: Autodesk,Inc. |WEB Address: www.autodesk.com
 90
    32897
280
     0
281
     0
  0
CLASS
  1
AEC_ENDCAP_STYLE
  2
AecDbEndcapStyle
  3
AecArchBase50|Product Desc: Autodesk Architectural Desktop 2007 |Company: Autodesk,Inc. |WEB Address: www.autodesk.com
 90
    32897
280
     0
281
     0
  0
CLASS
  1
AEC_MATERIAL_DEF
  2
AecDbMaterialDef
  3
AecBase50|Product Desc: Autodesk Architectural Desktop 2007 |Company: Autodesk,Inc. |WEB Address: www.autodesk.com
 90
    32897
280
     0
281
     0
  0
CLASS
  1
AEC_MVBLOCK_DEF
  2
AecDbMvBlockDef
  3
AecBase50|Product Desc: Autodesk Architectural Desktop 2007 |Company: Autodesk,Inc. |WEB Address: www.autodesk.com
 90
    32897
280
     0
281
     0
  0
CLASS
  1
AEC_VARS_STRUCTUREBASE
  2
AecsDbVarsStructureBase
  3
AecStructureBase50|Product Desc: Autodesk Architectural Desktop 2007 |Company: Autodesk,Inc. |WEB Address: www.autodesk.com
 90
    32897
280
     0
281
     0
  0
CLASS
  1
AECS_MEMBER_NODE_SHAPE
  2
AecsDbMemberNodeShape
  3
AecStructureBase50|Product Desc: Autodesk Architectural Desktop 2007 |Company: Autodesk,Inc. |WEB Address: www.autodesk.com
 90
    32897
280
     0
281
     0
  0
CLASS
  1
TABLESTYLE
  2
AcDbTableStyle
  3
ObjectDBX Classes
 90
     4095
280
     0
281
     0
  0
CLASS
  1
AEC_DISP_REP_DISPLAYTHEME
  2
AecDbDispRepDisplayTheme
  3
AecBase50|Product Desc: Autodesk Architectural Desktop 2007 |Company: Autodesk,Inc. |WEB Address: www.autodesk.com
 90
    32897
280
     0
281
     0
  0
CLASS
  1
AEC_DISP_PROPS_DISPLAYTHEME
  2
AecDbDispPropsDisplayTheme
  3
AecBase50|Product Desc: Autodesk Architectural Desktop 2007 |Company: Autodesk,Inc. |WEB Address: www.autodesk.com
 90
    32897
280
     0
281
     0
  0
CLASS
  1
AEC_DISP_REP_ANCHOR_EXT_TAG_TO_ENT
  2
AecDbDispRepAnchorExtendedTagToEnt
  3
AecScheduleData50|Product Desc: Autodesk Architectural Desktop 2007 |Company: Autodesk,Inc. |WEB Address: www.autodesk.com
 90
    32897
280
     0
281
     0
  0
CLASS
  1
AEC_CLASSIFICATION_SYSTEM_DEF
  2
AecDbClassificationSystemDef
  3
AecBase50|Product Desc: Autodesk Architectural Desktop 2007 |Company: Autodesk,Inc. |WEB Address: www.autodesk.com
 90
    32897
280
     0
281
     0
  0
CLASS
  1
AEC_CLASSIFICATION_DEF
  2
AecDbClassificationDef
  3
AecBase50|Product Desc: Autodesk Architectural Desktop 2007 |Company: Autodesk,Inc. |WEB Address: www.autodesk.com
 90
    32897
280
     0
281
     0
  0
CLASS
  1
PLOTSETTINGS
  2
AcDbPlotSettings
  3
ObjectDBX Classes
 90
    32768
280
     0
281
     0
  0
CLASS
  1
AEC_SPACE_BOUNDARY
  2
AecDbSpaceBoundary
  3
AecArchBase50|Product Desc: Autodesk Architectural Desktop 2007 |Company: Autodesk,Inc. |WEB Address: www.autodesk.com
 90
    33661
280
     0
281
     1
  0
CLASS
  1
AEC_SPACE
  2
AecDbSpace
  3
AecArchBase50|Product Desc: Autodesk Architectural Desktop 2007 |Company: Autodesk,Inc. |WEB Address: www.autodesk.com
 90
    33661
280
     0
281
     1
  0
CLASS
  1
AecDbPropertySet
  2
AecDbPropertySet
  3
AecScheduleData50|Product Desc: Autodesk Architectural Desktop 2007 |Company: Autodesk,Inc. |WEB Address: www.autodesk.com
 90
    32897
280
     0
281
     0
  0
CLASS
  1
AEC_SCHEDULE_TABLE
  2
AecDbScheduleTable
  3
AecSchedule50|Product Desc: Autodesk Architectural Desktop 2007 |Company: Autodesk,Inc. |WEB Address: www.autodesk.com
 90
    33661
280
     0
281
     1
  0
CLASS
  1
AEC_SCHEDULE_DATA_FORMAT
  2
AecDbScheduleDataFormat
  3
AecScheduleData50|Product Desc: Autodesk Architectural Desktop 2007 |Company: Autodesk,Inc. |WEB Address: www.autodesk.com
 90
    32897
280
     0
281
     0
  0
CLASS
  1
AEC_PROPERTY_SET_DEF
  2
AecDbPropertySetDef
  3
AecScheduleData50|Product Desc: Autodesk Architectural Desktop 2007 |Company: Autodesk,Inc. |WEB Address: www.autodesk.com
 90
    32897
280
     0
281
     0
  0
CLASS
  1
AEC_SCHEDULE_TABLE_STYLE
  2
AecDbScheduleTableStyle
  3
AecSchedule50|Product Desc: Autodesk Architectural Desktop 2007 |Company: Autodesk,Inc. |WEB Address: www.autodesk.com
 90
    32897
280
     0
281
     0
  0
CLASS
  1
AEC_SPACE_STYLES
  2
AecDbSpaceStyle
  3
AecArchBase50|Product Desc: Autodesk Architectural Desktop 2007 |Company: Autodesk,Inc. |WEB Address: www.autodesk.com
 90
    32897
280
     0
281
     0
  0
CLASS
  1
DIMASSOC
  2
AcDbDimAssoc
  3
"AcDbDimAssoc|Product Desc:     AcDim ARX App For Dimension|Company:          Autodesk, Inc.|WEB Address:      www.autodesk.com"
 90
        0
280
     0
281
     0
  0
CLASS
  1
VISUALSTYLE
  2
AcDbVisualStyle
  3
ObjectDBX Classes
 90
     4095
280
     0
281
     0
  0
CLASS
  1
AEC_AECDBDISPREPZONE100
  2
AecDbDispRepZonePlan100
  3
AecArchDACHBase50|Product Desc: Autodesk Architectural Desktop 2007 |Company: Autodesk,Inc. |WEB Address: www.autodesk.com
 90
    32897
280
     0
281
     0
  0
CLASS
  1
AEC_DISP_PROPS_ZONE
  2
AecDbDispPropsZone
  3
AecArchBase50|Product Desc: Autodesk Architectural Desktop 2007 |Company: Autodesk,Inc. |WEB Address: www.autodesk.com
 90
    32897
280
     0
281
     0
  0
CLASS
  1
AEC_AECDBDISPREPZONE50
  2
AecDbDispRepZonePlan50
  3
AecArchDACHBase50|Product Desc: Autodesk Architectural Desktop 2007 |Company: Autodesk,Inc. |WEB Address: www.autodesk.com
 90
    32897
280
     0
281
     0
  0
CLASS
  1
AEC_DISP_REP_SPACE_DECOMPOSED
  2
AecDbDispRepSpaceDecomposed
  3
AecArchBase50|Product Desc: Autodesk Architectural Desktop 2007 |Company: Autodesk,Inc. |WEB Address: www.autodesk.com
 90
    32897
280
     0
281
     0
  0
CLASS
  1
AEC_DISP_PROPS_SPACE_DECOMPOSED
  2
AecDbDispPropsSpaceDecomposed
  3
AecArchBase50|Product Desc: Autodesk Architectural Desktop 2007 |Company: Autodesk,Inc. |WEB Address: www.autodesk.com
 90
    32897
280
     0
281
     0
  0
CLASS
  1
AEC_DISP_REP_ZONE
  2
AecDbDispRepZone
  3
AecArchBase50|Product Desc: Autodesk Architectural Desktop 2007 |Company: Autodesk,Inc. |WEB Address: www.autodesk.com
 90
    32897
280
     0
281
     0
  0
CLASS
  1
AEC_LIST_DEF
  2
AecDbListDefinition
  3
AecBase50|Product Desc: Autodesk Architectural Desktop 2007 |Company: Autodesk,Inc. |WEB Address: www.autodesk.com
 90
    32897
280
     0
281
     0
  0
CLASS
  1
AEC_LIST_DEF
  2
AecDbListItem
  3
AecBase50|Product Desc: Autodesk Architectural Desktop 2007 |Company: Autodesk,Inc. |WEB Address: www.autodesk.com
 90
    32897
280
     0
281
     0
  0
CLASS
  1
AEC_AECDBZONESTYLE
  2
AecDbZoneStyle
  3
AecArchBase50|Product Desc: Autodesk Architectural Desktop 2007 |Company: Autodesk,Inc. |WEB Address: www.autodesk.com
 90
    32897
280
     0
281
     0
  0
CLASS
  1
EXACXREFPANELOBJECT
  2
ExAcXREFPanelObject
  3
EXAC_ESW
 90
    33793
280
     1
281
     0
  0
CLASS
  1
NPOCOLLECTION
  2
AcDbImpNonPersistentObjectsCollection
  3
ObjectDBX Classes
 90
    33921
280
     0
281
     0
  0
CLASS
  1
AEC_DISPLAYTHEME_STYLE
  2
AecDbDisplayThemeStyle
  3
AecBase50|Product Desc: Autodesk Architectural Desktop 2007 |Company: Autodesk,Inc. |WEB Address: www.autodesk.com
 90
    32897
280
     0
281
     0
  0
CLASS
  1
AEC_SLABEDGE_STYLE
  2
AecDbSlabEdgeStyle
  3
AecArchBase50|Product Desc: Autodesk Architectural Desktop 2007 |Company: Autodesk,Inc. |WEB Address: www.autodesk.com
 90
    32897
280
     0
281
     0
  0
CLASS
  1
AEC_SLAB_STYLE
  2
AecDbSlabStyle
  3
AecArchBase50|Product Desc: Autodesk Architectural Desktop 2007 |Company: Autodesk,Inc. |WEB Address: www.autodesk.com
 90
    32897
280
     0
281
     0
  0
CLASS
  1
AEC_ROOFSLABEDGE_STYLE
  2
AecDbRoofSlabEdgeStyle
  3
AecArchBase50|Product Desc: Autodesk Architectural Desktop 2007 |Company: Autodesk,Inc. |WEB Address: www.autodesk.com
 90
    32897
280
     0
281
     0
  0
CLASS
  1
AEC_ROOFSLAB_STYLE
  2
AecDbRoofSlabStyle
  3
AecArchBase50|Product Desc: Autodesk Architectural Desktop 2007 |Company: Autodesk,Inc. |WEB Address: www.autodesk.com
 90
    32897
280
     0
281
     0
  0
CLASS
  1
ACAD_EVALUATION_GRAPH
  2
AcDbEvalGraph
  3
ObjectDBX Classes
 90
    33921
280
     0
281
     0
  0
CLASS
  1
BLOCKLINEARPARAMETER
  2
AcDbBlockLinearParameter
  3
ObjectDBX Classes
 90
    33921
280
     0
281
     0
  0
CLASS
  1
BLOCKLINEARGRIP
  2
AcDbBlockLinearGrip
  3
ObjectDBX Classes
 90
    33921
280
     0
281
     0
  0
CLASS
  1
BLOCKGRIPLOCATIONCOMPONENT
  2
AcDbBlockGripExpr
  3
ObjectDBX Classes
 90
    33921
280
     0
281
     0
  0
CLASS
  1
BLOCKARRAYACTION
  2
AcDbBlockArrayAction
  3
ObjectDBX Classes
 90
    33921
280
     0
281
     0
  0
CLASS
  1
BLOCKSTRETCHACTION
  2
AcDbBlockStretchAction
  3
ObjectDBX Classes
 90
    33921
280
     0
281
     0
  0
CLASS
  1
BLOCKBASEPOINTPARAMETER
  2
AcDbBlockBasepointParameter
  3
ObjectDBX Classes
 90
    33921
280
     0
281
     0
  0
CLASS
  1
BLOCKFLIPPARAMETER
  2
AcDbBlockFlipParameter
  3
ObjectDBX Classes
 90
    33921
280
     0
281
     0
  0
CLASS
  1
BLOCKFLIPGRIP
  2
AcDbBlockFlipGrip
  3
ObjectDBX Classes
 90
    33921
280
     0
281
     0
  0
CLASS
  1
BLOCKFLIPACTION
  2
AcDbBlockFlipAction
  3
ObjectDBX Classes
 90
    33921
280
     0
281
     0
  0
CLASS
  1
ACDB_DYNAMICBLOCKPURGEPREVENTER_VERSION
  2
AcDbDynamicBlockPurgePreventer
  3
ObjectDBX Classes
 90
    33921
280
     0
281
     0
  0
CLASS
  1
ACDB_BLOCKREPRESENTATION_DATA
  2
AcDbBlockRepresentationData
  3
ObjectDBX Classes
 90
    33921
280
     0
281
     0
  0
CLASS
  1
AEC_ANCHOR_MVB_TO_UCS
  2
AecDbAnchorMVBToUCS
  3
AecBase50|Product Desc: Autodesk Architectural Desktop 2007 |Company: Autodesk,Inc. |WEB Address: www.autodesk.com
 90
    32897
280
     0
281
     0
  0
CLASS
  1
AEC_FRAME_DEF
  2
AecDbOpeningEndcapStyle
  3
AecArchBase50|Product Desc: Autodesk Architectural Desktop 2007 |Company: Autodesk,Inc. |WEB Address: www.autodesk.com
 90
    32897
280
     0
281
     0
  0
CLASS
  1
AEC_CLEANUP_GROUP_DEF
  2
AecDbCleanupGroupDef
  3
AecArchBase50|Product Desc: Autodesk Architectural Desktop 2007 |Company: Autodesk,Inc. |WEB Address: www.autodesk.com
 90
    32897
280
     0
281
     0
  0
CLASS
  1
AEC_WALL_STYLE
  2
AecDbWallStyle
  3
AecArchBase50|Product Desc: Autodesk Architectural Desktop 2007 |Company: Autodesk,Inc. |WEB Address: www.autodesk.com
 90
    32897
280
     0
281
     0
  0
CLASS
  1
AEC_ZONE
  2
AecDbZone
  3
AecArchBase50|Product Desc: Autodesk Architectural Desktop 2007 |Company: Autodesk,Inc. |WEB Address: www.autodesk.com
 90
    33661
280
     0
281
     1
  0
CLASS
  1
SCALE
  2
AcDbScale
  3
ObjectDBX Classes
 90
     1153
280
     0
281
     0
  0
CLASS
  1
MLEADERSTYLE
  2
AcDbMLeaderStyle
  3
ACDB_MLEADERSTYLE_CLASS
 90
     4095
280
     0
281
     0
  0
CLASS
  1
CELLSTYLEMAP
  2
AcDbCellStyleMap
  3
ObjectDBX Classes
 90
     1152
280
     0
281
     0
  0
ENDSEC
  0
SECTION
  2
TABLES
  0
TABLE
  2
VPORT
  5
27
102
{ACAD_XDICTIONARY
360
2B
102
}
330
0
100
AcDbSymbolTable
 70
     1
  0
VPORT
  5
28
330
27
100
AcDbSymbolTableRecord
100
AcDbViewportTableRecord
  2
*Active
 70
     0
 10
0.0
 20
0.0
 11
1.0
 21
1.0
 12
-29475.78508940372
 22
13084.05391236279
 13
0.0
 23
0.0
 14
0.5
 24
0.5
 15
0.5
 25
0.5
 16
0.0
 26
0.0
 36
1.0
 17
0.0
 27
0.0
 37
0.0
 40
31948.13313291448
 41
1.561333333333333
 42
50.0
 43
0.0
 44
0.0
 50
0.0
 51
0.0
 71
     0
 72
  1000
 73
     1
 74
     1
 75
     0
 76
     0
 77
     0
 78
     0
281
     0
 65
     1
110
0.0
120
0.0
130
0.0
111
1.0
121
0.0
131
0.0
112
0.0
122
1.0
132
0.0
 79
     0
146
0.0
  0
ENDTAB
  0
TABLE
  2
LTYPE
  5
22
330
0
100
AcDbSymbolTable
 70
     3
  0
LTYPE
  5
23
330
22
100
AcDbSymbolTableRecord
100
AcDbLinetypeTableRecord
  2
ByBlock
 70
     0
  3

 72
    65
 73
     0
 40
0.0
  0
LTYPE
  5
24
330
22
100
AcDbSymbolTableRecord
100
AcDbLinetypeTableRecord
  2
ByLayer
 70
     0
  3

 72
    65
 73
     0
 40
0.0
  0
LTYPE
  5
C
330
22
100
AcDbSymbolTableRecord
100
AcDbLinetypeTableRecord
  2
Continuous
 70
     0
  3
Solid line
 72
    65
 73
     0
 40
0.0
  0
LTYPE
  5
E1
330
22
100
AcDbSymbolTableRecord
100
AcDbLinetypeTableRecord
  2
DASHED
 70
     0
  3
Dashed __ __ __ __ __ __ __ __ __ __ __ __ __ _
 72
    65
 73
     2
 40
0.75
 49
0.5
 74
     0
 49
-0.25
 74
     0
  0
ENDTAB
  0
TABLE
  2
LAYER
  5
19
102
{ACAD_XDICTIONARY
360
1A
102
}
330
0
100
AcDbSymbolTable
 70
     9
  0
LAYER
  5
6
102
{ACAD_XDICTIONARY
360
238
102
}
330
19
100
AcDbSymbolTableRecord
100
AcDbLayerTableRecord
  2
0
 70
     0
 62
     7
  6
Continuous
370
    -3
390
7
1001
RAK
1000
{ACET-LAYISO
1070
     0
1070
     7
1000
Continuous
1070
     1
1071
       -3
1071
        1
1005
7
1000
ACET-LAYISO}
  0
LAYER
  5
F1
330
19
100
AcDbSymbolTableRecord
100
AcDbLayerTableRecord
  2
DEFPOINTS
 70
     1
 62
    -7
  6
Continuous
290
     0
370
    -3
390
7
1001
RAK
1000
{ACET-LAYISO
1070
     0
1070
    -7
1000
Continuous
1071
       -3
1071
        0
1005
7
1000
ACET-LAYISO}
  0
LAYER
  5
CF
102
{ACAD_XDICTIONARY
360
23C
102
}
330
19
100
AcDbSymbolTableRecord
100
AcDbLayerTableRecord
  2
NAPISY
 70
     0
 62
   140
  6
Continuous
370
    -3
390
7
1001
RAK
1000
{ACET-LAYISO
1070
     0
1070
   140
1000
Continuous
1071
       -3
1071
        1
1005
7
1000
ACET-LAYISO}
  0
LAYER
  5
59
102
{ACAD_XDICTIONARY
360
23E
102
}
330
19
100
AcDbSymbolTableRecord
100
AcDbLayerTableRecord
  2
0Wymiary-PL
 70
     0
 62
     1
  6
Continuous
370
    -3
390
7
1001
RAK
1000
{ACET-LAYISO
1070
     0
1070
     1
1000
Continuous
1071
       -3
1071
        1
1005
7
1000
ACET-LAYISO}
  0
LAYER
  5
E0
102
{ACAD_XDICTIONARY
360
240
102
}
330
19
100
AcDbSymbolTableRecord
100
AcDbLayerTableRecord
  2
WIDOK
 70
     0
 62
   114
  6
Continuous
370
    15
390
7
1001
RAK
1000
{ACET-LAYISO
1070
     0
1070
   114
1000
Continuous
1071
       15
1071
        1
1005
7
1000
ACET-LAYISO}
  0
LAYER
  5
87
102
{ACAD_XDICTIONARY
360
242
102
}
330
19
100
AcDbSymbolTableRecord
100
AcDbLayerTableRecord
  2
0Hatch
 70
     0
 62
   122
  6
Continuous
370
     5
390
7
  0
LAYER
  5
38
102
{ACAD_XDICTIONARY
360
244
102
}
330
19
100
AcDbSymbolTableRecord
100
AcDbLayerTableRecord
  2
WYMIARY
 70
     0
 62
     1
  6
Continuous
370
     9
390
7
1001
RAK
1000
{ACET-LAYISO
1070
     0
1070
     1
1000
Continuous
1071
       -3
1071
        1
1005
7
1000
ACET-LAYISO}
  0
LAYER
  5
D2
102
{ACAD_XDICTIONARY
360
248
102
}
330
19
100
AcDbSymbolTableRecord
100
AcDbLayerTableRecord
  2
RAMKI-A4
 70
     0
 62
     2
  6
Continuous
290
     0
370
    -3
390
7
1001
RAK
1000
{ACET-LAYISO
1070
     0
1070
     2
1000
Continuous
1071
       -3
1071
        0
1005
7
1000
ACET-LAYISO}
  0
LAYER
  5
743
330
19
100
AcDbSymbolTableRecord
100
AcDbLayerTableRecord
  2
A-Widok-G
 70
     0
 62
   114
  6
Continuous
370
     9
390
7
1001
AcAecLayerStandard
1000
1m1_ARCHON
1001
RAK
1000
{ACET-LAYISO
1070
     0
1070
   114
1000
Continuous
1071
        9
1071
        1
1005
7
1000
ACET-LAYISO}
  0
ENDTAB
  0
TABLE
  2
STYLE
  5
1F
330
0
100
AcDbSymbolTable
 70
     7
  0
STYLE
  5
20
330
1F
100
AcDbSymbolTableRecord
100
AcDbTextStyleTableRecord
  2
Standard
 70
     0
 40
0.0
 41
1.0
 50
0.0
 71
     0
 42
0.2
  3
txt
  4

  0
STYLE
  5
2F
330
1F
100
AcDbSymbolTableRecord
100
AcDbTextStyleTableRecord
  2
ROMANS
 70
     0
 40
0.0
 41
0.8
 50
0.0
 71
     0
 42
20.0
  3
romans.shx
  4

  0
STYLE
  5
D0
330
1F
100
AcDbSymbolTableRecord
100
AcDbTextStyleTableRecord
  2
ARIAL
 70
     0
 40
0.0
 41
1.0
 50
0.0
 71
     0
 42
15.0
  3
ARIAL.TTF
  4

1001
ACAD
1000
Arial CE
1071
    60962
  0
STYLE
  5
E3
330
1F
100
AcDbSymbolTableRecord
100
AcDbTextStyleTableRecord
  2
AVA
 70
     0
 40
0.0
 41
1.0
 50
0.0
 71
     0
 42
15.0
  3

  4

1001
ACAD
1000
Avalon
1071
        2
  0
ENDTAB
  0
TABLE
  2
VIEW
  5
25
330
0
100
AcDbSymbolTable
 70
     0
  0
ENDTAB
  0
TABLE
  2
UCS
  5
26
330
0
100
AcDbSymbolTable
 70
     0
  0
ENDTAB
  0
TABLE
  2
APPID
  5
2C
330
0
100
AcDbSymbolTable
 70
     6
  0
APPID
  5
1E
330
2C
100
AcDbSymbolTableRecord
100
AcDbRegAppTableRecord
  2
ACAD
 70
     0
  0
APPID
  5
D
330
2C
100
AcDbSymbolTableRecord
100
AcDbRegAppTableRecord
  2
RAK
 70
     0
  0
APPID
  5
11
330
2C
100
AcDbSymbolTableRecord
100
AcDbRegAppTableRecord
  2
ACAD_PSEXT
 70
     0
  0
APPID
  5
22F
330
2C
100
AcDbSymbolTableRecord
100
AcDbRegAppTableRecord
  2
ACAD_MLEADERVER
 70
     0
  0
APPID
  5
362
330
2C
100
AcDbSymbolTableRecord
100
AcDbRegAppTableRecord
  2
AcAecLayerStandard
 70
     0
  0
APPID
  5
936
330
2C
100
AcDbSymbolTableRecord
100
AcDbRegAppTableRecord
  2
ACAD_EXEMPT_FROM_CAD_STANDARDS
 70
     0
  0
ENDTAB
  0
TABLE
  2
DIMSTYLE
  5
2D
330
0
100
AcDbSymbolTable
 70
     9
100
AcDbDimStyleTable
 71
     2
340
2E
340
3A
  0
DIMSTYLE
105
2E
330
2D
100
AcDbSymbolTableRecord
100
AcDbDimStyleTableRecord
  2
100-PRw
 70
     0
 41
1.0
 42
43.0
 43
24.0
 44
13.0
 45
0.5
 46
12.0
 73
     0
 74
     0
 75
     1
 76
     1
 77
     1
 78
     8
140
30.0
141
0.0
145
1.0
147
8.0
172
     1
174
     1
176
     1
177
     1
178
   140
271
     1
272
     1
279
     2
340
2F
341
30
342
35
371
     5
  0
DIMSTYLE
105
3A
102
{ACAD_REACTORS
330
87D
330
8A5
330
891
330
84D
330
839
330
98B
330
977
330
963
330
948
330
F7F
330
F82
330
F85
330
F88
330
F79
330
F7A
330
F7B
330
F7C
330
F7D
102
}
330
2D
100
AcDbSymbolTableRecord
100
AcDbDimStyleTableRecord
  2
500
 70
     0
 41
30.0
 42
43.0
 43
0.0
 44
13.0
 45
0.5
 46
12.0
 73
     0
 74
     0
 75
     1
 76
     1
 78
    12
140
80.0
141
0.0
145
1.0
147
0.0
172
     1
174
     1
176
     1
177
     1
178
    10
271
     1
272
     1
279
     2
340
2F
341
3B
342
3B
  0
ENDTAB
  0
TABLE
  2
BLOCK_RECORD
  5
1
330
0
100
AcDbSymbolTable
 70
   106
  0
BLOCK_RECORD
  5
2
102
{ACAD_XDICTIONARY
360
3
102
}
330
1
100
AcDbSymbolTableRecord
100
AcDbBlockTableRecord
  2
*Model_Space
340
F
  0
BLOCK_RECORD
  5
12
102
{ACAD_XDICTIONARY
360
13
102
}
330
1
100
AcDbSymbolTableRecord
100
AcDbBlockTableRecord
  2
*Paper_Space
340
16
  0
BLOCK_RECORD
  5
3B
102
{ACAD_XDICTIONARY
360
3C
102
}
330
1
100
AcDbSymbolTableRecord
100
AcDbBlockTableRecord
  2
B-DIM
340
0
102
{BLKREFS
331
14B
331
14C
331
13E
331
13F
331
131
331
132
331
124
331
125
331
115
331
116
331
108
331
109
331
FB
331
FC
331
ED
331
EE
331
1C8
331
1C9
331
1BB
331
1BC
331
1AE
331
1AF
331
1A1
331
1A2
331
1FE
331
1FF
331
1F1
331
1F2
331
1E4
331
1E5
331
1D7
331
1D8
331
829
331
82A
331
833
331
834
331
8F2
331
8F3
331
8FB
331
8FC
331
902
331
903
331
928
331
929
331
92F
331
930
331
9D0
331
9D1
331
9D7
331
9D8
331
9DE
331
9DF
331
9E5
331
9E6
331
A7D
331
A7E
331
A87
331
A88
331
AA2
331
AA3
331
AA9
331
AAA
331
AB0
331
AB1
331
AB7
331
AB8
331
AC0
331
AC1
331
AC7
331
AC8
331
ACE
331
ACF
331
AE9
331
AEA
331
AFF
331
B00
331
B09
331
B0A
331
B13
331
B14
331
B1D
331
B1E
331
B29
331
B2A
331
B33
331
B34
331
B3D
331
B3E
331
B47
331
B48
331
C01
331
C02
331
C0B
331
C0C
331
C15
331
C16
331
C1F
331
C20
331
C2B
331
C2C
331
C35
331
C36
331
C3F
331
C40
331
C49
331
C4A
331
C53
331
C54
331
C5D
331
C5E
331
C67
331
C68
331
C71
331
C72
331
C7D
331
C7E
331
C87
331
C88
331
C91
331
C92
331
C9B
331
C9C
331
CA5
331
CA6
331
CAF
331
CB0
331
CB9
331
CBA
331
CC3
331
CC4
331
CCF
331
CD0
331
CD9
331
CDA
331
CE3
331
CE4
331
CED
331
CEE
331
E92
331
E93
331
E9C
331
E9D
331
EA6
331
EA7
331
EB0
331
EB1
331
EBC
331
EBD
331
EC6
331
EC7
331
ED0
331
ED1
331
EDA
331
EDB
331
EE4
331
EE5
331
EEE
331
EEF
331
EF8
331
EF9
331
F02
331
F03
331
F0E
331
F0F
331
F18
331
F19
331
F22
331
F23
331
F2C
331
F2D
331
FC5
331
FC6
331
FCF
331
FD0
331
FEA
331
FEB
331
FF1
331
FF2
331
FF8
331
FF9
331
FFF
331
1000
331
1008
331
1009
331
1016
331
1017
331
1024
331
1025
102
}
  0
BLOCK_RECORD
  5
30
330
1
100
AcDbSymbolTableRecord
100
AcDbBlockTableRecord
  2
_Dot
340
0
  0
BLOCK_RECORD
  5
35
330
1
100
AcDbSymbolTableRecord
100
AcDbBlockTableRecord
  2
B-DIM_W
340
0
310
2800000020000000200000000100080000000000000400000000000000000000000000000000000000000000000080000080000000808000800000008000800080800000C0C0C000C0DCC000F0CAA6000020400000206000002080000020A0000020C0000020E00000400000004020000040400000406000004080000040A0
310
000040C0000040E00000600000006020000060400000606000006080000060A0000060C0000060E00000800000008020000080400000806000008080000080A0000080C0000080E00000A0000000A0200000A0400000A0600000A0800000A0A00000A0C00000A0E00000C0000000C0200000C0400000C0600000C0800000C0
310
A00000C0C00000C0E00000E0000000E0200000E0400000E0600000E0800000E0A00000E0C00000E0E00040000000400020004000400040006000400080004000A0004000C0004000E00040200000402020004020400040206000402080004020A0004020C0004020E000404000004040200040404000404060004040800040
310
40A0004040C0004040E00040600000406020004060400040606000406080004060A0004060C0004060E00040800000408020004080400040806000408080004080A0004080C0004080E00040A0000040A0200040A0400040A0600040A0800040A0A00040A0C00040A0E00040C0000040C0200040C0400040C0600040C08000
310
40C0A00040C0C00040C0E00040E0000040E0200040E0400040E0600040E0800040E0A00040E0C00040E0E00080000000800020008000400080006000800080008000A0008000C0008000E00080200000802020008020400080206000802080008020A0008020C0008020E00080400000804020008040400080406000804080
310
008040A0008040C0008040E00080600000806020008060400080606000806080008060A0008060C0008060E00080800000808020008080400080806000808080008080A0008080C0008080E00080A0000080A0200080A0400080A0600080A0800080A0A00080A0C00080A0E00080C0000080C0200080C0400080C0600080C0
310
800080C0A00080C0C00080C0E00080E0000080E0200080E0400080E0600080E0800080E0A00080E0C00080E0E000C0000000C0002000C0004000C0006000C0008000C000A000C000C000C000E000C0200000C0202000C0204000C0206000C0208000C020A000C020C000C020E000C0400000C0402000C0404000C0406000C0
310
408000C040A000C040C000C040E000C0600000C0602000C0604000C0606000C0608000C060A000C060C000C060E000C0800000C0802000C0804000C0806000C0808000C080A000C080C000C080E000C0A00000C0A02000C0A04000C0A06000C0A08000C0A0A000C0A0C000C0A0E000C0C00000C0C02000C0C04000C0C06000
310
C0C08000C0C0A000F0FBFF00A4A0A000808080000000FF0000FF000000FFFF00FF000000FF00FF00FFFF0000FFFFFF0000000000000000000000000000000000000000000000000000000000000000000000000000000000000000000000000000000000000000000000000000000000000000000000000000000000000000
310
00000000000000000000000000000000000000000000000000000000000000000000000000000000000000000000000000000000000000000000000000000000000000000000000000000000000000000000000000000000000000000000000000000000000000000000000000000000000000000000000000000000000000
310
00000000000000000000000000000000000000000000000000000000000000000000000000000000000000000000000000000000000000000000000000000000000000000000000000000000000000000000000000000000000000000000000000000000000000000000000000000000000000000000000000000000000000
310
00000000000000000000000000000000000000F9F9F9F9F9F9F900000000000000000000000000000000000000000000000000F9000000000000F9F9F9F9F9F900000000000000000000000000000000000000F9000000000000000000000000F9F9F9F9F90000000000000000000000000000F90000000000000000000000
310
000000000000F9F9F9F9F9F90000000000000000F90000000000000000000000000000000000000000000000F9F9F9F9F9F90000F900000000000000000000000000000000000000000000F9F9F9F9F9F9F90000F90000000000000000000000000000F9F9F9F9F9F9F9F9000000000000000000F900000000000000F9F9F9
310
F9F9F9F90000000000000000000000000000000000F9F9F9F9F9F9F9F90000000000000000000000000000000000000000000000000000000000000000000000000000000000000000000000000000000000000000000000000000000000000000000000000000000000000000000000000000000000000000000000000000
310
00000000000000000000000000000000000000000000000000000000000000000000000000000000000000000000000000000000000000000000000000000000000000000000000000000000000000000000000000000000000000000000000000000000000000000000000000000000000000000000000000000000000000
310
00000000000000000000000000000000000000000000000000000000000000000000000000000000000000000000000000000000000000000000000000000000000000000000000000000000000000000000000000000000000000000000000000000000000000000000000000000000000000000000000000000000000000
310
0000000000000000000000000000000000000000000000000000000000000000000000000000000000000000000000000000000000000000
  0
BLOCK_RECORD
  5
83A
330
1
100
AcDbSymbolTableRecord
100
AcDbBlockTableRecord
  2
*D25
340
0
  0
BLOCK_RECORD
  5
84E
330
1
100
AcDbSymbolTableRecord
100
AcDbBlockTableRecord
  2
*D26
340
0
  0
BLOCK_RECORD
  5
87E
330
1
100
AcDbSymbolTableRecord
100
AcDbBlockTableRecord
  2
*D27
340
0
  0
BLOCK_RECORD
  5
892
330
1
100
AcDbSymbolTableRecord
100
AcDbBlockTableRecord
  2
*D28
340
0
  0
BLOCK_RECORD
  5
8A6
330
1
100
AcDbSymbolTableRecord
100
AcDbBlockTableRecord
  2
*D29
340
0
  0
BLOCK_RECORD
  5
949
330
1
100
AcDbSymbolTableRecord
100
AcDbBlockTableRecord
  2
*D31
340
0
  0
BLOCK_RECORD
  5
964
330
1
100
AcDbSymbolTableRecord
100
AcDbBlockTableRecord
  2
*D32
340
0
  0
BLOCK_RECORD
  5
978
330
1
100
AcDbSymbolTableRecord
100
AcDbBlockTableRecord
  2
*D33
340
0
  0
BLOCK_RECORD
  5
98C
330
1
100
AcDbSymbolTableRecord
100
AcDbBlockTableRecord
  2
*D34
340
0
  0
BLOCK_RECORD
  5
F8D
330
1
100
AcDbSymbolTableRecord
100
AcDbBlockTableRecord
  2
*D96
340
0
  0
BLOCK_RECORD
  5
F97
330
1
100
AcDbSymbolTableRecord
100
AcDbBlockTableRecord
  2
*D97
340
0
  0
BLOCK_RECORD
  5
FA1
330
1
100
AcDbSymbolTableRecord
100
AcDbBlockTableRecord
  2
*D98
340
0
  0
BLOCK_RECORD
  5
FAB
330
1
100
AcDbSymbolTableRecord
100
AcDbBlockTableRecord
  2
*D99
340
0
  0
BLOCK_RECORD
  5
FB5
330
1
100
AcDbSymbolTableRecord
100
AcDbBlockTableRecord
  2
*D100
340
0
  0
BLOCK_RECORD
  5
FC1
330
1
100
AcDbSymbolTableRecord
100
AcDbBlockTableRecord
  2
*D101
340
0
  0
BLOCK_RECORD
  5
FCB
330
1
100
AcDbSymbolTableRecord
100
AcDbBlockTableRecord
  2
*D102
340
0
  0
BLOCK_RECORD
  5
FD5
330
1
100
AcDbSymbolTableRecord
100
AcDbBlockTableRecord
  2
*D103
340
0
  0
BLOCK_RECORD
  5
FDF
330
1
100
AcDbSymbolTableRecord
100
AcDbBlockTableRecord
  2
*D104
340
0
  0
ENDTAB
  0
ENDSEC
  0
SECTION
  2
BLOCKS
  0
BLOCK
  5
5
330
2
100
AcDbEntity
  8
0
100
AcDbBlockBegin
  2
*Model_Space
 70
     0
 10
0.0
 20
0.0
 30
0.0
  3
*Model_Space
  1

  0
ENDBLK
  5
E
330
2
100
AcDbEntity
  8
0
100
AcDbBlockEnd
  0
BLOCK
  5
14
330
12
100
AcDbEntity
 67
     1
  8
0
100
AcDbBlockBegin
  2
*Paper_Space
 70
     0
 10
0.0
 20
0.0
 30
0.0
  3
*Paper_Space
  1

  0
ENDBLK
  5
15
330
12
100
AcDbEntity
 67
     1
  8
0
100
AcDbBlockEnd
  0
BLOCK
  5
3E
330
3B
100
AcDbEntity
  8
0
100
AcDbBlockBegin
  2
B-DIM
 70
     0
 10
0.0
 20
0.0
 30
0.0
  3
B-DIM
  1

  0
LINE
  5
3F
330
3B
100
AcDbEntity
  8
0
 62
     1
100
AcDbLine
 10
0.000000000000091
 20
-1.1
 30
0.0
 11
0.000000000000091
 21
1.1
 31
0.0
  0
LWPOLYLINE
  5
40
330
3B
100
AcDbEntity
  8
0
 62
     1
100
AcDbPolyline
 90
        2
 70
     0
 43
0.3
 10
-0.7071067811864851
 20
-0.7071067811864851
 10
0.7071067811865759
 20
0.7071067811865759
  0
LINE
  5
41
330
3B
100
AcDbEntity
  8
0
 62
     1
100
AcDbLine
 10
1.20000000000009
 20
0.0
 30
0.0
 11
-1.199999999999909
 21
0.0
 31
0.0
  0
ENDBLK
  5
42
330
3B
100
AcDbEntity
  8
0
100
AcDbBlockEnd
  0
BLOCK
  5
31
330
30
100
AcDbEntity
  8
0
100
AcDbBlockBegin
  2
_Dot
 70
     0
 10
0.0
 20
0.0
 30
0.0
  3
_Dot
  1

  0
LWPOLYLINE
  5
32
330
30
100
AcDbEntity
  8
0
  6
ByBlock
 62
     0
100
AcDbPolyline
 90
        2
 70
     1
 43
0.5
 10
-0.25
 20
0.0
 42
1.0
 10
0.25
 20
0.0
 42
1.0
  0
LINE
  5
33
330
30
100
AcDbEntity
  8
0
  6
ByBlock
 62
     0
370
    -2
100
AcDbLine
 10
-0.5
 20
0.0
 30
0.0
 11
-1.0
 21
0.0
 31
0.0
  0
ENDBLK
  5
34
330
30
100
AcDbEntity
  8
0
100
AcDbBlockEnd
  0
BLOCK
  5
36
330
35
100
AcDbEntity
  8
0
 48
4.0
100
AcDbBlockBegin
  2
B-DIM_W
 70
     0
 10
0.0
 20
0.0
 30
0.0
  3
B-DIM_W
  1

  0
SOLID
  5
37
330
35
100
AcDbEntity
  8
WYMIARY
 62
     1
 48
4.0
100
AcDbTrace
 10
-18.00000000000182
 20
3.000000000001818
 30
0.0
 11
0.0
 21
0.0
 31
0.0
 12
-18.00000000000182
 22
-3.000000000001818
 32
0.0
 13
-18.00000000000182
 23
-3.000000000001818
 33
0.0
  0
ENDBLK
  5
39
330
35
100
AcDbEntity
  8
0
 48
4.0
100
AcDbBlockEnd
  0
BLOCK
  5
83B
330
83A
100
AcDbEntity
  8
0
100
AcDbBlockBegin
  2
*D25
 70
     1
 10
0.0
 20
0.0
 30
0.0
  3
*D25
  1

  0
LINE
  5
92E
330
83A
100
AcDbEntity
  8
0Wymiary-PL
 62
     1
370
    -2
100
AcDbLine
 10
-35330.70583020165
 20
20326.19984699912
 30
0.0
 11
-34420.70583020165
 21
20326.19984699912
 31
0.0
  0
INSERT
  5
92F
330
83A
100
AcDbEntity
  8
0Wymiary-PL
 62
     1
370
    -2
100
AcDbBlockReference
  2
B-DIM
 10
-35360.70583020165
 20
20326.19984699912
 30
0.0
 41
30.0
 42
30.0
 43
30.0
 50
180.0
  0
INSERT
  5
930
330
83A
100
AcDbEntity
  8
0Wymiary-PL
 62
     1
370
    -2
100
AcDbBlockReference
  2
B-DIM
 10
-34390.70583020165
 20
20326.19984699912
 30
0.0
 41
30.0
 42
30.0
 43
30.0
  0
MTEXT
  5
931
330
83A
100
AcDbEntity
  8
0Wymiary-PL
 62
    10
100
AcDbMText
 10
-34875.70583020165
 20
20406.19984699912
 30
0.0
 40
80.0
 41
0.0
 71
     5
 72
     1
  1
\A1;970
  7
ROMANS
 73
     1
 44
1.0
1001
ACAD
1000
MTEXTBEGIN
1070
    73
1070
     1
1070
    44
1040
1.0
1070
    74
1070
     0
1000
MTEXTEND
  0
POINT
  5
932
330
83A
100
AcDbEntity
  8
DEFPOINTS
 62
     0
100
AcDbPoint
 10
-35360.70583020165
 20
20326.19984699912
 30
0.0
  0
POINT
  5
933
330
83A
100
AcDbEntity
  8
DEFPOINTS
 62
     0
100
AcDbPoint
 10
-34390.70583020165
 20
19876.19984699912
 30
0.0
  0
POINT
  5
934
330
83A
100
AcDbEntity
  8
DEFPOINTS
 62
     0
100
AcDbPoint
 10
-34390.70583020165
 20
20326.19984699912
 30
0.0
  0
ENDBLK
  5
83C
330
83A
100
AcDbEntity
  8
0
100
AcDbBlockEnd
  0
BLOCK
  5
84F
330
84E
100
AcDbEntity
  8
0
100
AcDbBlockBegin
  2
*D26
 70
     1
 10
0.0
 20
0.0
 30
0.0
  3
*D26
  1

  0
LINE
  5
927
330
84E
100
AcDbEntity
  8
0Wymiary-PL
 62
     1
370
    -2
100
AcDbLine
 10
-35810.70583020165
 20
19846.19984699912
 30
0.0
 11
-35810.70583020165
 21
18498.19984699912
 31
0.0
  0
INSERT
  5
928
330
84E
100
AcDbEntity
  8
0Wymiary-PL
 62
     1
370
    -2
100
AcDbBlockReference
  2
B-DIM
 10
-35810.70583020165
 20
19876.19984699912
 30
0.0
 41
30.0
 42
30.0
 43
30.0
 50
90.0
  0
INSERT
  5
929
330
84E
100
AcDbEntity
  8
0Wymiary-PL
 62
     1
370
    -2
100
AcDbBlockReference
  2
B-DIM
 10
-35810.70583020165
 20
18468.19984699912
 30
0.0
 41
30.0
 42
30.0
 43
30.0
 50
270.0
  0
MTEXT
  5
92A
330
84E
100
AcDbEntity
  8
0Wymiary-PL
 62
    10
100
AcDbMText
 10
-35890.70583020166
 20
19172.19984699912
 30
0.0
 40
80.0
 41
0.0
 71
     5
 72
     1
  1
\A1;1408
  7
ROMANS
 11
0.0000000000000001
 21
1.0
 31
0.0
 73
     1
 44
1.0
1001
ACAD
1000
MTEXTBEGIN
1070
    73
1070
     1
1070
    44
1040
1.0
1070
    74
1070
     0
1000
MTEXTEND
  0
POINT
  5
92B
330
84E
100
AcDbEntity
  8
DEFPOINTS
 62
     0
100
AcDbPoint
 10
-35360.70583020165
 20
19876.19984699912
 30
0.0
  0
POINT
  5
92C
330
84E
100
AcDbEntity
  8
DEFPOINTS
 62
     0
100
AcDbPoint
 10
-35810.70583020165
 20
18468.19984699912
 30
0.0
  0
POINT
  5
92D
330
84E
100
AcDbEntity
  8
DEFPOINTS
 62
     0
100
AcDbPoint
 10
-35810.70583020165
 20
18468.19984699912
 30
0.0
  0
ENDBLK
  5
850
330
84E
100
AcDbEntity
  8
0
100
AcDbBlockEnd
  0
BLOCK
  5
87F
330
87E
100
AcDbEntity
  8
0
100
AcDbBlockBegin
  2
*D27
 70
     1
 10
0.0
 20
0.0
 30
0.0
  3
*D27
  1

  0
LINE
  5
8F1
330
87E
100
AcDbEntity
  8
0Wymiary-PL
 62
     1
370
    -2
100
AcDbLine
 10
-35330.70583020165
 20
18018.19984699947
 30
0.0
 11
-35001.70583084093
 21
18018.19984699947
 31
0.0
  0
INSERT
  5
8F2
330
87E
100
AcDbEntity
  8
0Wymiary-PL
 62
     1
370
    -2
100
AcDbBlockReference
  2
B-DIM
 10
-35360.70583020165
 20
18018.19984699947
 30
0.0
 41
30.0
 42
30.0
 43
30.0
 50
180.0
  0
INSERT
  5
8F3
330
87E
100
AcDbEntity
  8
0Wymiary-PL
 62
     1
370
    -2
100
AcDbBlockReference
  2
B-DIM
 10
-34971.70583084094
 20
18018.19984699947
 30
0.0
 41
30.0
 42
30.0
 43
30.0
  0
MTEXT
  5
8F4
330
87E
100
AcDbEntity
  8
0Wymiary-PL
 62
    10
100
AcDbMText
 10
-35166.20583052129
 20
18098.19984699947
 30
0.0
 40
80.0
 41
0.0
 71
     5
 72
     1
  1
\A1;389
  7
ROMANS
 73
     1
 44
1.0
1001
ACAD
1000
MTEXTBEGIN
1070
    73
1070
     1
1070
    44
1040
1.0
1070
    74
1070
     0
1000
MTEXTEND
  0
POINT
  5
8F5
330
87E
100
AcDbEntity
  8
DEFPOINTS
 62
     0
100
AcDbPoint
 10
-35360.70583020165
 20
18018.19984699912
 30
0.0
  0
POINT
  5
8F6
330
87E
100
AcDbEntity
  8
DEFPOINTS
 62
     0
100
AcDbPoint
 10
-34971.70583084094
 20
18018.19984699947
 30
0.0
  0
POINT
  5
8F7
330
87E
100
AcDbEntity
  8
DEFPOINTS
 62
     0
100
AcDbPoint
 10
-34971.70583084094
 20
18018.19984699947
 30
0.0
  0
ENDBLK
  5
880
330
87E
100
AcDbEntity
  8
0
100
AcDbBlockEnd
  0
BLOCK
  5
893
330
892
100
AcDbEntity
  8
0
100
AcDbBlockBegin
  2
*D28
 70
     1
 10
0.0
 20
0.0
 30
0.0
  3
*D28
  1

  0
LINE
  5
901
330
892
100
AcDbEntity
  8
0Wymiary-PL
 62
     1
370
    -2
100
AcDbLine
 10
-34941.70583084093
 20
18018.19984699947
 30
0.0
 11
-34420.70583020165
 21
18018.19984699947
 31
0.0
  0
INSERT
  5
902
330
892
100
AcDbEntity
  8
0Wymiary-PL
 62
     1
370
    -2
100
AcDbBlockReference
  2
B-DIM
 10
-34971.70583084094
 20
18018.19984699947
 30
0.0
 41
30.0
 42
30.0
 43
30.0
 50
180.0
  0
INSERT
  5
903
330
892
100
AcDbEntity
  8
0Wymiary-PL
 62
     1
370
    -2
100
AcDbBlockReference
  2
B-DIM
 10
-34390.70583020165
 20
18018.19984699947
 30
0.0
 41
30.0
 42
30.0
 43
30.0
  0
MTEXT
  5
904
330
892
100
AcDbEntity
  8
0Wymiary-PL
 62
    10
100
AcDbMText
 10
-34681.2058305213
 20
18098.19984699947
 30
0.0
 40
80.0
 41
0.0
 71
     5
 72
     1
  1
\A1;581
  7
ROMANS
 73
     1
 44
1.0
1001
ACAD
1000
MTEXTBEGIN
1070
    73
1070
     1
1070
    44
1040
1.0
1070
    74
1070
     0
1000
MTEXTEND
  0
POINT
  5
905
330
892
100
AcDbEntity
  8
DEFPOINTS
 62
     0
100
AcDbPoint
 10
-34971.70583084094
 20
18018.19984699947
 30
0.0
  0
POINT
  5
906
330
892
100
AcDbEntity
  8
DEFPOINTS
 62
     0
100
AcDbPoint
 10
-34390.70583020165
 20
18226.19984699912
 30
0.0
  0
POINT
  5
907
330
892
100
AcDbEntity
  8
DEFPOINTS
 62
     0
100
AcDbPoint
 10
-34390.70583020165
 20
18018.19984699947
 30
0.0
  0
ENDBLK
  5
894
330
892
100
AcDbEntity
  8
0
100
AcDbBlockEnd
  0
BLOCK
  5
8A7
330
8A6
100
AcDbEntity
  8
0
100
AcDbBlockBegin
  2
*D29
 70
     1
 10
0.0
 20
0.0
 30
0.0
  3
*D29
  1

  0
LINE
  5
8F8
330
8A6
100
AcDbEntity
  8
0Wymiary-PL
 62
     1
370
    -2
100
AcDbLine
 10
-34420.70583020165
 20
18018.19984699947
 30
0.0
 11
-34450.70583020165
 21
18018.19984699947
 31
0.0
  0
LINE
  5
8F9
330
8A6
100
AcDbEntity
  8
0Wymiary-PL
 62
     1
370
    -2
100
AcDbLine
 10
-34260.80583020165
 20
18018.19984699947
 30
0.0
 11
-34230.80583020165
 21
18018.19984699947
 31
0.0
  0
LINE
  5
8FA
330
8A6
100
AcDbEntity
  8
0Wymiary-PL
 62
     1
370
    -2
100
AcDbLine
 10
-34390.70583020165
 20
18018.19984699947
 30
0.0
 11
-34290.80583020165
 21
18018.19984699947
 31
0.0
  0
INSERT
  5
8FB
330
8A6
100
AcDbEntity
  8
0Wymiary-PL
 62
     1
370
    -2
100
AcDbBlockReference
  2
B-DIM
 10
-34390.70583020165
 20
18018.19984699947
 30
0.0
 41
30.0
 42
30.0
 43
30.0
  0
INSERT
  5
8FC
330
8A6
100
AcDbEntity
  8
0Wymiary-PL
 62
     1
370
    -2
100
AcDbBlockReference
  2
B-DIM
 10
-34290.80583020165
 20
18018.19984699947
 30
0.0
 41
30.0
 42
30.0
 43
30.0
 50
180.0
  0
MTEXT
  5
8FD
330
8A6
100
AcDbEntity
  8
0Wymiary-PL
 62
    10
100
AcDbMText
 10
-34340.75583020165
 20
18098.19984699947
 30
0.0
 40
80.0
 41
0.0
 71
     5
 72
     1
  1
\A1;100
  7
ROMANS
 73
     1
 44
1.0
1001
ACAD
1000
MTEXTBEGIN
1070
    73
1070
     1
1070
    44
1040
1.0
1070
    74
1070
     0
1000
MTEXTEND
  0
POINT
  5
8FE
330
8A6
100
AcDbEntity
  8
DEFPOINTS
 62
     0
100
AcDbPoint
 10
-34390.70583020165
 20
18226.19984699912
 30
0.0
  0
POINT
  5
8FF
330
8A6
100
AcDbEntity
  8
DEFPOINTS
 62
     0
100
AcDbPoint
 10
-34290.80583020165
 20
18693.94551806657
 30
0.0
  0
POINT
  5
900
330
8A6
100
AcDbEntity
  8
DEFPOINTS
 62
     0
100
AcDbPoint
 10
-34290.80583020165
 20
18018.19984699947
 30
0.0
  0
ENDBLK
  5
8A8
330
8A6
100
AcDbEntity
  8
0
100
AcDbBlockEnd
  0
BLOCK
  5
94A
330
949
100
AcDbEntity
  8
0
100
AcDbBlockBegin
  2
*D31
 70
     1
 10
0.0
 20
0.0
 30
0.0
  3
*D31
  1

  0
LINE
  5
9E4
330
949
100
AcDbEntity
  8
0Wymiary-PL
 62
     1
370
    -2
100
AcDbLine
 10
-33940.70583020165
 20
19846.19984699912
 30
0.0
 11
-33940.70583020165
 21
19474.19984699912
 31
0.0
  0
INSERT
  5
9E5
330
949
100
AcDbEntity
  8
0Wymiary-PL
 62
     1
370
    -2
100
AcDbBlockReference
  2
B-DIM
 10
-33940.70583020165
 20
19876.19984699912
 30
0.0
 41
30.0
 42
30.0
 43
30.0
 50
90.0
  0
INSERT
  5
9E6
330
949
100
AcDbEntity
  8
0Wymiary-PL
 62
     1
370
    -2
100
AcDbBlockReference
  2
B-DIM
 10
-33940.70583020165
 20
19444.19984699912
 30
0.0
 41
30.0
 42
30.0
 43
30.0
 50
270.0
  0
MTEXT
  5
9E7
330
949
100
AcDbEntity
  8
0Wymiary-PL
 62
    10
100
AcDbMText
 10
-34020.70583020166
 20
19660.19984699912
 30
0.0
 40
80.0
 41
0.0
 71
     5
 72
     1
  1
\A1;432
  7
ROMANS
 11
0.0000000000000001
 21
1.0
 31
0.0
 73
     1
 44
1.0
1001
ACAD
1000
MTEXTBEGIN
1070
    73
1070
     1
1070
    44
1040
1.0
1070
    74
1070
     0
1000
MTEXTEND
  0
POINT
  5
9E8
330
949
100
AcDbEntity
  8
DEFPOINTS
 62
     0
100
AcDbPoint
 10
-33940.70583020165
 20
19876.19984699912
 30
0.0
  0
POINT
  5
9E9
330
949
100
AcDbEntity
  8
DEFPOINTS
 62
     0
100
AcDbPoint
 10
-34390.70583020165
 20
19444.19984699912
 30
0.0
  0
POINT
  5
9EA
330
949
100
AcDbEntity
  8
DEFPOINTS
 62
     0
100
AcDbPoint
 10
-33940.70583020165
 20
19444.19984699912
 30
0.0
  0
ENDBLK
  5
94B
330
949
100
AcDbEntity
  8
0
100
AcDbBlockEnd
  0
BLOCK
  5
965
330
964
100
AcDbEntity
  8
0
100
AcDbBlockBegin
  2
*D32
 70
     1
 10
0.0
 20
0.0
 30
0.0
  3
*D32
  1

  0
LINE
  5
9DD
330
964
100
AcDbEntity
  8
0Wymiary-PL
 62
     1
370
    -2
100
AcDbLine
 10
-33940.70583020165
 20
19414.19984699912
 30
0.0
 11
-33940.70583020165
 21
19074.19984699912
 31
0.0
  0
INSERT
  5
9DE
330
964
100
AcDbEntity
  8
0Wymiary-PL
 62
     1
370
    -2
100
AcDbBlockReference
  2
B-DIM
 10
-33940.70583020165
 20
19444.19984699912
 30
0.0
 41
30.0
 42
30.0
 43
30.0
 50
90.0
  0
INSERT
  5
9DF
330
964
100
AcDbEntity
  8
0Wymiary-PL
 62
     1
370
    -2
100
AcDbBlockReference
  2
B-DIM
 10
-33940.70583020165
 20
19044.19984699912
 30
0.0
 41
30.0
 42
30.0
 43
30.0
 50
270.0
  0
MTEXT
  5
9E0
330
964
100
AcDbEntity
  8
0Wymiary-PL
 62
    10
100
AcDbMText
 10
-34020.70583020166
 20
19244.19984699912
 30
0.0
 40
80.0
 41
0.0
 71
     5
 72
     1
  1
\A1;400
  7
ROMANS
 11
0.0000000000000001
 21
1.0
 31
0.0
 73
     1
 44
1.0
1001
ACAD
1000
MTEXTBEGIN
1070
    73
1070
     1
1070
    44
1040
1.0
1070
    74
1070
     0
1000
MTEXTEND
  0
POINT
  5
9E1
330
964
100
AcDbEntity
  8
DEFPOINTS
 62
     0
100
AcDbPoint
 10
-34390.70583020165
 20
19444.19984699912
 30
0.0
  0
POINT
  5
9E2
330
964
100
AcDbEntity
  8
DEFPOINTS
 62
     0
100
AcDbPoint
 10
-34390.70583020165
 20
19044.19984699912
 30
0.0
  0
POINT
  5
9E3
330
964
100
AcDbEntity
  8
DEFPOINTS
 62
     0
100
AcDbPoint
 10
-33940.70583020165
 20
19044.19984699912
 30
0.0
  0
ENDBLK
  5
966
330
964
100
AcDbEntity
  8
0
100
AcDbBlockEnd
  0
BLOCK
  5
979
330
978
100
AcDbEntity
  8
0
100
AcDbBlockBegin
  2
*D33
 70
     1
 10
0.0
 20
0.0
 30
0.0
  3
*D33
  1

  0
LINE
  5
9D6
330
978
100
AcDbEntity
  8
0Wymiary-PL
 62
     1
370
    -2
100
AcDbLine
 10
-33940.70583020165
 20
19014.19984699912
 30
0.0
 11
-33940.70583020165
 21
18706.19984699912
 31
0.0
  0
INSERT
  5
9D7
330
978
100
AcDbEntity
  8
0Wymiary-PL
 62
     1
370
    -2
100
AcDbBlockReference
  2
B-DIM
 10
-33940.70583020165
 20
19044.19984699912
 30
0.0
 41
30.0
 42
30.0
 43
30.0
 50
90.0
  0
INSERT
  5
9D8
330
978
100
AcDbEntity
  8
0Wymiary-PL
 62
     1
370
    -2
100
AcDbBlockReference
  2
B-DIM
 10
-33940.70583020165
 20
18676.19984699912
 30
0.0
 41
30.0
 42
30.0
 43
30.0
 50
270.0
  0
MTEXT
  5
9D9
330
978
100
AcDbEntity
  8
0Wymiary-PL
 62
    10
100
AcDbMText
 10
-34020.70583020166
 20
18860.19984699912
 30
0.0
 40
80.0
 41
0.0
 71
     5
 72
     1
  1
\A1;368
  7
ROMANS
 11
0.0000000000000001
 21
1.0
 31
0.0
 73
     1
 44
1.0
1001
ACAD
1000
MTEXTBEGIN
1070
    73
1070
     1
1070
    44
1040
1.0
1070
    74
1070
     0
1000
MTEXTEND
  0
POINT
  5
9DA
330
978
100
AcDbEntity
  8
DEFPOINTS
 62
     0
100
AcDbPoint
 10
-34390.70583020165
 20
19044.19984699912
 30
0.0
  0
POINT
  5
9DB
330
978
100
AcDbEntity
  8
DEFPOINTS
 62
     0
100
AcDbPoint
 10
-34390.70583020161
 20
18676.19984699912
 30
0.0
  0
POINT
  5
9DC
330
978
100
AcDbEntity
  8
DEFPOINTS
 62
     0
100
AcDbPoint
 10
-33940.70583020165
 20
18676.19984699912
 30
0.0
  0
ENDBLK
  5
97A
330
978
100
AcDbEntity
  8
0
100
AcDbBlockEnd
  0
BLOCK
  5
98D
330
98C
100
AcDbEntity
  8
0
100
AcDbBlockBegin
  2
*D34
 70
     1
 10
0.0
 20
0.0
 30
0.0
  3
*D34
  1

  0
LINE
  5
9CF
330
98C
100
AcDbEntity
  8
0Wymiary-PL
 62
     1
370
    -2
100
AcDbLine
 10
-33940.70583020165
 20
18646.1998469991
 30
0.0
 11
-33940.70583020165
 21
18498.19984699912
 31
0.0
  0
INSERT
  5
9D0
330
98C
100
AcDbEntity
  8
0Wymiary-PL
 62
     1
370
    -2
100
AcDbBlockReference
  2
B-DIM
 10
-33940.70583020165
 20
18676.1998469991
 30
0.0
 41
30.0
 42
30.0
 43
30.0
 50
90.0
  0
INSERT
  5
9D1
330
98C
100
AcDbEntity
  8
0Wymiary-PL
 62
     1
370
    -2
100
AcDbBlockReference
  2
B-DIM
 10
-33940.70583020165
 20
18468.19984699912
 30
0.0
 41
30.0
 42
30.0
 43
30.0
 50
270.0
  0
MTEXT
  5
9D2
330
98C
100
AcDbEntity
  8
0Wymiary-PL
 62
    10
100
AcDbMText
 10
-34020.70583020166
 20
18572.19984699911
 30
0.0
 40
80.0
 41
0.0
 71
     5
 72
     1
  1
\A1;208
  7
ROMANS
 11
0.0000000000000001
 21
1.0
 31
0.0
 73
     1
 44
1.0
1001
ACAD
1000
MTEXTBEGIN
1070
    73
1070
     1
1070
    44
1040
1.0
1070
    74
1070
     0
1000
MTEXTEND
  0
POINT
  5
9D3
330
98C
100
AcDbEntity
  8
DEFPOINTS
 62
     0
100
AcDbPoint
 10
-34971.70583019486
 20
18676.1998469991
 30
0.0
  0
POINT
  5
9D4
330
98C
100
AcDbEntity
  8
DEFPOINTS
 62
     0
100
AcDbPoint
 10
-34971.70583019485
 20
18468.19984699912
 30
0.0
  0
POINT
  5
9D5
330
98C
100
AcDbEntity
  8
DEFPOINTS
 62
     0
100
AcDbPoint
 10
-33940.70583020165
 20
18468.19984699912
 30
0.0
  0
ENDBLK
  5
98E
330
98C
100
AcDbEntity
  8
0
100
AcDbBlockEnd
  0
BLOCK
  5
F8E
330
F8D
100
AcDbEntity
  8
0
100
AcDbBlockBegin
  2
*D96
 70
     1
 10
0.0
 20
0.0
 30
0.0
  3
*D96
  1

  0
LINE
  5
FE9
330
F8D
100
AcDbEntity
  8
0Wymiary-PL
 62
     1
370
    -2
100
AcDbLine
 10
-30319.68970313351
 20
20326.19984699912
 30
0.0
 11
-31229.68970313351
 21
20326.19984699912
 31
0.0
  0
INSERT
  5
FEA
330
F8D
100
AcDbEntity
  8
0Wymiary-PL
 62
     1
370
    -2
100
AcDbBlockReference
  2
B-DIM
 10
-30289.68970313351
 20
20326.19984699912
 30
0.0
 41
30.0
 42
30.0
 43
30.0
  0
INSERT
  5
FEB
330
F8D
100
AcDbEntity
  8
0Wymiary-PL
 62
     1
370
    -2
100
AcDbBlockReference
  2
B-DIM
 10
-31259.68970313351
 20
20326.19984699912
 30
0.0
 41
30.0
 42
30.0
 43
30.0
 50
180.0
  0
MTEXT
  5
FEC
330
F8D
100
AcDbEntity
  8
0Wymiary-PL
 62
    10
100
AcDbMText
 10
-30774.68970313351
 20
20406.19984699912
 30
0.0
 40
80.0
 41
0.0
 71
     5
 72
     1
  1
\A1;970
  7
ROMANS
 73
     1
 44
1.0
1001
ACAD
1000
MTEXTBEGIN
1070
    73
1070
     1
1070
    44
1040
1.0
1070
    74
1070
     0
1000
MTEXTEND
  0
POINT
  5
FED
330
F8D
100
AcDbEntity
  8
DEFPOINTS
 62
     0
100
AcDbPoint
 10
-30289.68970313351
 20
20326.19984699912
 30
0.0
  0
POINT
  5
FEE
330
F8D
100
AcDbEntity
  8
DEFPOINTS
 62
     0
100
AcDbPoint
 10
-31259.68970313351
 20
19876.19984699912
 30
0.0
  0
POINT
  5
FEF
330
F8D
100
AcDbEntity
  8
DEFPOINTS
 62
     0
100
AcDbPoint
 10
-31259.68970313351
 20
20326.19984699912
 30
0.0
  0
ENDBLK
  5
F8F
330
F8D
100
AcDbEntity
  8
0
100
AcDbBlockEnd
  0
BLOCK
  5
F98
330
F97
100
AcDbEntity
  8
0
100
AcDbBlockBegin
  2
*D97
 70
     1
 10
0.0
 20
0.0
 30
0.0
  3
*D97
  1

  0
LINE
  5
FF0
330
F97
100
AcDbEntity
  8
0Wymiary-PL
 62
     1
370
    -2
100
AcDbLine
 10
-29839.68970313351
 20
19846.19984699912
 30
0.0
 11
-29839.68970313351
 21
18498.19984699912
 31
0.0
  0
INSERT
  5
FF1
330
F97
100
AcDbEntity
  8
0Wymiary-PL
 62
     1
370
    -2
100
AcDbBlockReference
  2
B-DIM
 10
-29839.68970313351
 20
19876.19984699912
 30
0.0
 41
30.0
 42
30.0
 43
30.0
 50
90.0
  0
INSERT
  5
FF2
330
F97
100
AcDbEntity
  8
0Wymiary-PL
 62
     1
370
    -2
100
AcDbBlockReference
  2
B-DIM
 10
-29839.68970313351
 20
18468.19984699912
 30
0.0
 41
30.0
 42
30.0
 43
30.0
 50
270.0
  0
MTEXT
  5
FF3
330
F97
100
AcDbEntity
  8
0Wymiary-PL
 62
    10
100
AcDbMText
 10
-29919.68970313351
 20
19172.19984699912
 30
0.0
 40
80.0
 41
0.0
 71
     5
 72
     1
  1
\A1;1408
  7
ROMANS
 11
0.0000000000000001
 21
1.0
 31
0.0
 73
     1
 44
1.0
1001
ACAD
1000
MTEXTBEGIN
1070
    73
1070
     1
1070
    44
1040
1.0
1070
    74
1070
     0
1000
MTEXTEND
  0
POINT
  5
FF4
330
F97
100
AcDbEntity
  8
DEFPOINTS
 62
     0
100
AcDbPoint
 10
-30289.68970313351
 20
19876.19984699912
 30
0.0
  0
POINT
  5
FF5
330
F97
100
AcDbEntity
  8
DEFPOINTS
 62
     0
100
AcDbPoint
 10
-29839.68970313351
 20
18468.19984699912
 30
0.0
  0
POINT
  5
FF6
330
F97
100
AcDbEntity
  8
DEFPOINTS
 62
     0
100
AcDbPoint
 10
-29839.68970313351
 20
18468.19984699912
 30
0.0
  0
ENDBLK
  5
F99
330
F97
100
AcDbEntity
  8
0
100
AcDbBlockEnd
  0
BLOCK
  5
FA2
330
FA1
100
AcDbEntity
  8
0
100
AcDbBlockBegin
  2
*D98
 70
     1
 10
0.0
 20
0.0
 30
0.0
  3
*D98
  1

  0
LINE
  5
FF7
330
FA1
100
AcDbEntity
  8
0Wymiary-PL
 62
     1
370
    -2
100
AcDbLine
 10
-30319.68970313351
 20
18018.19984699947
 30
0.0
 11
-30648.68970249423
 21
18018.19984699947
 31
0.0
  0
INSERT
  5
FF8
330
FA1
100
AcDbEntity
  8
0Wymiary-PL
 62
     1
370
    -2
100
AcDbBlockReference
  2
B-DIM
 10
-30289.68970313351
 20
18018.19984699947
 30
0.0
 41
30.0
 42
30.0
 43
30.0
  0
INSERT
  5
FF9
330
FA1
100
AcDbEntity
  8
0Wymiary-PL
 62
     1
370
    -2
100
AcDbBlockReference
  2
B-DIM
 10
-30678.68970249423
 20
18018.19984699947
 30
0.0
 41
30.0
 42
30.0
 43
30.0
 50
180.0
  0
MTEXT
  5
FFA
330
FA1
100
AcDbEntity
  8
0Wymiary-PL
 62
    10
100
AcDbMText
 10
-30484.18970281387
 20
18098.19984699947
 30
0.0
 40
80.0
 41
0.0
 71
     5
 72
     1
  1
\A1;389
  7
ROMANS
 73
     1
 44
1.0
1001
ACAD
1000
MTEXTBEGIN
1070
    73
1070
     1
1070
    44
1040
1.0
1070
    74
1070
     0
1000
MTEXTEND
  0
POINT
  5
FFB
330
FA1
100
AcDbEntity
  8
DEFPOINTS
 62
     0
100
AcDbPoint
 10
-30289.68970313351
 20
18018.19984699912
 30
0.0
  0
POINT
  5
FFC
330
FA1
100
AcDbEntity
  8
DEFPOINTS
 62
     0
100
AcDbPoint
 10
-30678.68970249423
 20
18018.19984699947
 30
0.0
  0
POINT
  5
FFD
330
FA1
100
AcDbEntity
  8
DEFPOINTS
 62
     0
100
AcDbPoint
 10
-30678.68970249423
 20
18018.19984699947
 30
0.0
  0
ENDBLK
  5
FA3
330
FA1
100
AcDbEntity
  8
0
100
AcDbBlockEnd
  0
BLOCK
  5
FAC
330
FAB
100
AcDbEntity
  8
0
100
AcDbBlockBegin
  2
*D99
 70
     1
 10
0.0
 20
0.0
 30
0.0
  3
*D99
  1

  0
LINE
  5
FFE
330
FAB
100
AcDbEntity
  8
0Wymiary-PL
 62
     1
370
    -2
100
AcDbLine
 10
-30708.68970249423
 20
18018.19984699947
 30
0.0
 11
-31229.68970313351
 21
18018.19984699947
 31
0.0
  0
INSERT
  5
FFF
330
FAB
100
AcDbEntity
  8
0Wymiary-PL
 62
     1
370
    -2
100
AcDbBlockReference
  2
B-DIM
 10
-30678.68970249423
 20
18018.19984699947
 30
0.0
 41
30.0
 42
30.0
 43
30.0
  0
INSERT
  5
1000
330
FAB
100
AcDbEntity
  8
0Wymiary-PL
 62
     1
370
    -2
100
AcDbBlockReference
  2
B-DIM
 10
-31259.68970313351
 20
18018.19984699947
 30
0.0
 41
30.0
 42
30.0
 43
30.0
 50
180.0
  0
MTEXT
  5
1001
330
FAB
100
AcDbEntity
  8
0Wymiary-PL
 62
    10
100
AcDbMText
 10
-30969.18970281387
 20
18098.19984699947
 30
0.0
 40
80.0
 41
0.0
 71
     5
 72
     1
  1
\A1;581
  7
ROMANS
 73
     1
 44
1.0
1001
ACAD
1000
MTEXTBEGIN
1070
    73
1070
     1
1070
    44
1040
1.0
1070
    74
1070
     0
1000
MTEXTEND
  0
POINT
  5
1002
330
FAB
100
AcDbEntity
  8
DEFPOINTS
 62
     0
100
AcDbPoint
 10
-30678.68970249423
 20
18018.19984699947
 30
0.0
  0
POINT
  5
1003
330
FAB
100
AcDbEntity
  8
DEFPOINTS
 62
     0
100
AcDbPoint
 10
-31259.68970313351
 20
18226.19984699912
 30
0.0
  0
POINT
  5
1004
330
FAB
100
AcDbEntity
  8
DEFPOINTS
 62
     0
100
AcDbPoint
 10
-31259.68970313351
 20
18018.19984699947
 30
0.0
  0
ENDBLK
  5
FAD
330
FAB
100
AcDbEntity
  8
0
100
AcDbBlockEnd
  0
BLOCK
  5
FB6
330
FB5
100
AcDbEntity
  8
0
100
AcDbBlockBegin
  2
*D100
 70
     1
 10
0.0
 20
0.0
 30
0.0
  3
*D100
  1

  0
LINE
  5
1005
330
FB5
100
AcDbEntity
  8
0Wymiary-PL
 62
     1
370
    -2
100
AcDbLine
 10
-31229.68970313351
 20
18018.19984699947
 30
0.0
 11
-31199.68970313351
 21
18018.19984699947
 31
0.0
  0
LINE
  5
1006
330
FB5
100
AcDbEntity
  8
0Wymiary-PL
 62
     1
370
    -2
100
AcDbLine
 10
-31389.58970313351
 20
18018.19984699947
 30
0.0
 11
-31419.58970313351
 21
18018.19984699947
 31
0.0
  0
LINE
  5
1007
330
FB5
100
AcDbEntity
  8
0Wymiary-PL
 62
     1
370
    -2
100
AcDbLine
 10
-31259.68970313351
 20
18018.19984699947
 30
0.0
 11
-31359.58970313351
 21
18018.19984699947
 31
0.0
  0
INSERT
  5
1008
330
FB5
100
AcDbEntity
  8
0Wymiary-PL
 62
     1
370
    -2
100
AcDbBlockReference
  2
B-DIM
 10
-31259.68970313351
 20
18018.19984699947
 30
0.0
 41
30.0
 42
30.0
 43
30.0
 50
180.0
  0
INSERT
  5
1009
330
FB5
100
AcDbEntity
  8
0Wymiary-PL
 62
     1
370
    -2
100
AcDbBlockReference
  2
B-DIM
 10
-31359.58970313351
 20
18018.19984699947
 30
0.0
 41
30.0
 42
30.0
 43
30.0
  0
MTEXT
  5
100A
330
FB5
100
AcDbEntity
  8
0Wymiary-PL
 62
    10
100
AcDbMText
 10
-31309.63970313351
 20
18098.19984699947
 30
0.0
 40
80.0
 41
0.0
 71
     5
 72
     1
  1
\A1;100
  7
ROMANS
 73
     1
 44
1.0
1001
ACAD
1000
MTEXTBEGIN
1070
    73
1070
     1
1070
    44
1040
1.0
1070
    74
1070
     0
1000
MTEXTEND
  0
POINT
  5
100B
330
FB5
100
AcDbEntity
  8
DEFPOINTS
 62
     0
100
AcDbPoint
 10
-31259.68970313351
 20
18226.19984699912
 30
0.0
  0
POINT
  5
100C
330
FB5
100
AcDbEntity
  8
DEFPOINTS
 62
     0
100
AcDbPoint
 10
-31359.58970313351
 20
18693.94551806657
 30
0.0
  0
POINT
  5
100D
330
FB5
100
AcDbEntity
  8
DEFPOINTS
 62
     0
100
AcDbPoint
 10
-31359.58970313351
 20
18018.19984699947
 30
0.0
  0
ENDBLK
  5
FB7
330
FB5
100
AcDbEntity
  8
0
100
AcDbBlockEnd
  0
BLOCK
  5
FC2
330
FC1
100
AcDbEntity
  8
0
100
AcDbBlockBegin
  2
*D101
 70
     1
 10
0.0
 20
0.0
 30
0.0
  3
*D101
  1

  0
LINE
  5
FC4
330
FC1
100
AcDbEntity
  8
0Wymiary-PL
 62
     1
370
    -2
100
AcDbLine
 10
-31709.68970313351
 20
19846.19984699912
 30
0.0
 11
-31709.68970313351
 21
19474.19984699912
 31
0.0
  0
INSERT
  5
FC5
330
FC1
100
AcDbEntity
  8
0Wymiary-PL
 62
     1
370
    -2
100
AcDbBlockReference
  2
B-DIM
 10
-31709.68970313351
 20
19876.19984699912
 30
0.0
 41
30.0
 42
30.0
 43
30.0
 50
90.0
  0
INSERT
  5
FC6
330
FC1
100
AcDbEntity
  8
0Wymiary-PL
 62
     1
370
    -2
100
AcDbBlockReference
  2
B-DIM
 10
-31709.68970313351
 20
19444.19984699912
 30
0.0
 41
30.0
 42
30.0
 43
30.0
 50
270.0
  0
MTEXT
  5
FC7
330
FC1
100
AcDbEntity
  8
0Wymiary-PL
 62
    10
100
AcDbMText
 10
-31789.68970313352
 20
19660.19984699912
 30
0.0
 40
80.0
 41
0.0
 71
     5
 72
     1
  1
\A1;432
  7
ROMANS
 11
0.0000000000000001
 21
1.0
 31
0.0
 73
     1
 44
1.0
1001
ACAD
1000
MTEXTBEGIN
1070
    73
1070
     1
1070
    44
1040
1.0
1070
    74
1070
     0
1000
MTEXTEND
  0
POINT
  5
FC8
330
FC1
100
AcDbEntity
  8
DEFPOINTS
 62
     0
100
AcDbPoint
 10
-31709.68970313351
 20
19876.19984699912
 30
0.0
  0
POINT
  5
FC9
330
FC1
100
AcDbEntity
  8
DEFPOINTS
 62
     0
100
AcDbPoint
 10
-31259.68970313351
 20
19444.19984699912
 30
0.0
  0
POINT
  5
FCA
330
FC1
100
AcDbEntity
  8
DEFPOINTS
 62
     0
100
AcDbPoint
 10
-31709.68970313351
 20
19444.19984699912
 30
0.0
  0
ENDBLK
  5
FC3
330
FC1
100
AcDbEntity
  8
0
100
AcDbBlockEnd
  0
BLOCK
  5
FCC
330
FCB
100
AcDbEntity
  8
0
100
AcDbBlockBegin
  2
*D102
 70
     1
 10
0.0
 20
0.0
 30
0.0
  3
*D102
  1

  0
LINE
  5
FCE
330
FCB
100
AcDbEntity
  8
0Wymiary-PL
 62
     1
370
    -2
100
AcDbLine
 10
-31709.68970313351
 20
19414.19984699912
 30
0.0
 11
-31709.68970313351
 21
19074.19984699912
 31
0.0
  0
INSERT
  5
FCF
330
FCB
100
AcDbEntity
  8
0Wymiary-PL
 62
     1
370
    -2
100
AcDbBlockReference
  2
B-DIM
 10
-31709.68970313351
 20
19444.19984699912
 30
0.0
 41
30.0
 42
30.0
 43
30.0
 50
90.0
  0
INSERT
  5
FD0
330
FCB
100
AcDbEntity
  8
0Wymiary-PL
 62
     1
370
    -2
100
AcDbBlockReference
  2
B-DIM
 10
-31709.68970313351
 20
19044.19984699912
 30
0.0
 41
30.0
 42
30.0
 43
30.0
 50
270.0
  0
MTEXT
  5
FD1
330
FCB
100
AcDbEntity
  8
0Wymiary-PL
 62
    10
100
AcDbMText
 10
-31789.68970313352
 20
19244.19984699912
 30
0.0
 40
80.0
 41
0.0
 71
     5
 72
     1
  1
\A1;400
  7
ROMANS
 11
0.0000000000000001
 21
1.0
 31
0.0
 73
     1
 44
1.0
1001
ACAD
1000
MTEXTBEGIN
1070
    73
1070
     1
1070
    44
1040
1.0
1070
    74
1070
     0
1000
MTEXTEND
  0
POINT
  5
FD2
330
FCB
100
AcDbEntity
  8
DEFPOINTS
 62
     0
100
AcDbPoint
 10
-31259.68970313351
 20
19444.19984699912
 30
0.0
  0
POINT
  5
FD3
330
FCB
100
AcDbEntity
  8
DEFPOINTS
 62
     0
100
AcDbPoint
 10
-31259.68970313352
 20
19044.19984699912
 30
0.0
  0
POINT
  5
FD4
330
FCB
100
AcDbEntity
  8
DEFPOINTS
 62
     0
100
AcDbPoint
 10
-31709.68970313351
 20
19044.19984699912
 30
0.0
  0
ENDBLK
  5
FCD
330
FCB
100
AcDbEntity
  8
0
100
AcDbBlockEnd
  0
BLOCK
  5
FD6
330
FD5
100
AcDbEntity
  8
0
100
AcDbBlockBegin
  2
*D103
 70
     1
 10
0.0
 20
0.0
 30
0.0
  3
*D103
  1

  0
LINE
  5
1023
330
FD5
100
AcDbEntity
  8
0Wymiary-PL
 62
     1
370
    -2
100
AcDbLine
 10
-31709.68970313351
 20
19014.19984699912
 30
0.0
 11
-31709.68970313351
 21
18706.19984699912
 31
0.0
  0
INSERT
  5
1024
330
FD5
100
AcDbEntity
  8
0Wymiary-PL
 62
     1
370
    -2
100
AcDbBlockReference
  2
B-DIM
 10
-31709.68970313351
 20
19044.19984699912
 30
0.0
 41
30.0
 42
30.0
 43
30.0
 50
90.0
  0
INSERT
  5
1025
330
FD5
100
AcDbEntity
  8
0Wymiary-PL
 62
     1
370
    -2
100
AcDbBlockReference
  2
B-DIM
 10
-31709.68970313351
 20
18676.19984699912
 30
0.0
 41
30.0
 42
30.0
 43
30.0
 50
270.0
  0
MTEXT
  5
1026
330
FD5
100
AcDbEntity
  8
0Wymiary-PL
 62
    10
100
AcDbMText
 10
-31789.68970313352
 20
18860.19984699912
 30
0.0
 40
80.0
 41
0.0
 71
     5
 72
     1
  1
\A1;368
  7
ROMANS
 11
0.0000000000000001
 21
1.0
 31
0.0
 73
     1
 44
1.0
1001
ACAD
1000
MTEXTBEGIN
1070
    73
1070
     1
1070
    44
1040
1.0
1070
    74
1070
     0
1000
MTEXTEND
  0
POINT
  5
1027
330
FD5
100
AcDbEntity
  8
DEFPOINTS
 62
     0
100
AcDbPoint
 10
-31259.68970313352
 20
19044.19984699912
 30
0.0
  0
POINT
  5
1028
330
FD5
100
AcDbEntity
  8
DEFPOINTS
 62
     0
100
AcDbPoint
 10
-31259.68970313351
 20
18676.19984699912
 30
0.0
  0
POINT
  5
1029
330
FD5
100
AcDbEntity
  8
DEFPOINTS
 62
     0
100
AcDbPoint
 10
-31709.68970313351
 20
18676.19984699912
 30
0.0
  0
ENDBLK
  5
FD7
330
FD5
100
AcDbEntity
  8
0
100
AcDbBlockEnd
  0
BLOCK
  5
FE0
330
FDF
100
AcDbEntity
  8
0
100
AcDbBlockBegin
  2
*D104
 70
     1
 10
0.0
 20
0.0
 30
0.0
  3
*D104
  1

  0
LINE
  5
1015
330
FDF
100
AcDbEntity
  8
0Wymiary-PL
 62
     1
370
    -2
100
AcDbLine
 10
-31709.68970313351
 20
18646.19984699923
 30
0.0
 11
-31709.68970313351
 21
18498.19984699912
 31
0.0
  0
INSERT
  5
1016
330
FDF
100
AcDbEntity
  8
0Wymiary-PL
 62
     1
370
    -2
100
AcDbBlockReference
  2
B-DIM
 10
-31709.68970313351
 20
18676.19984699923
 30
0.0
 41
30.0
 42
30.0
 43
30.0
 50
90.0
  0
INSERT
  5
1017
330
FDF
100
AcDbEntity
  8
0Wymiary-PL
 62
     1
370
    -2
100
AcDbBlockReference
  2
B-DIM
 10
-31709.68970313351
 20
18468.19984699912
 30
0.0
 41
30.0
 42
30.0
 43
30.0
 50
270.0
  0
MTEXT
  5
1018
330
FDF
100
AcDbEntity
  8
0Wymiary-PL
 62
    10
100
AcDbMText
 10
-31789.68970313351
 20
18572.19984699917
 30
0.0
 40
80.0
 41
0.0
 71
     5
 72
     1
  1
\A1;208
  7
ROMANS
 11
0.0000000000000001
 21
1.0
 31
0.0
 73
     1
 44
1.0
1001
ACAD
1000
MTEXTBEGIN
1070
    73
1070
     1
1070
    44
1040
1.0
1070
    74
1070
     0
1000
MTEXTEND
  0
POINT
  5
1019
330
FDF
100
AcDbEntity
  8
DEFPOINTS
 62
     0
100
AcDbPoint
 10
-34971.70583019484
 20
18676.19984699923
 30
0.0
  0
POINT
  5
101A
330
FDF
100
AcDbEntity
  8
DEFPOINTS
 62
     0
100
AcDbPoint
 10
-30678.68970314032
 20
18468.19984699912
 30
0.0
  0
POINT
  5
101B
330
FDF
100
AcDbEntity
  8
DEFPOINTS
 62
     0
100
AcDbPoint
 10
-31709.68970313351
 20
18468.19984699912
 30
0.0
  0
ENDBLK
  5
FE1
330
FDF
100
AcDbEntity
  8
0
100
AcDbBlockEnd
  0
ENDSEC
  0
SECTION
  2
ENTITIES
  0
TEXT
  5
CE
330
2
100
AcDbEntity
  8
NAPISY
100
AcDbText
 10
-36578.53501027032
 20
10688.08951403253
 30
0.0
 40
150.0
  1
   O B R Y S   B U D Y N K U           S K A L A   1 : 5 0 0 
  7
ARIAL
100
AcDbText
  0
LWPOLYLINE
  5
D1
330
2
100
AcDbEntity
  8
RAMKI-A4
100
AcDbPolyline
 90
        4
 70
     1
 43
0.0
 10
-38037.8869569453
 20
10022.53343113
 10
-38037.8869569453
 20
24042.53343113
 10
-27837.88695694527
 20
24042.53343113
 10
-27837.88695694527
 20
10022.53343113
  0
LINE
  5
DF
330
2
100
AcDbEntity
  8
WIDOK
  6
DASHED
 62
     1
 48
0.5
370
     9
100
AcDbLine
 10
-32825.19776666758
 20
16035.68048367891
 30
0.0
 11
-32825.19776666758
 21
20838.1375411563
 31
0.0
  0
TEXT
  5
E2
330
2
100
AcDbEntity
  8
NAPISY
100
AcDbText
 10
-32884.7189436609
 20
17117.32764649945
 30
0.0
 40
100.0
  1
OŚ ODBICIA LUSTRZANEGO
 50
90.0
  7
AVA
100
AcDbText
  0
TEXT
  5
E4
330
2
100
AcDbEntity
  8
NAPISY
100
AcDbText
 10
-36540.86959298596
 20
23498.73733754607
 30
0.0
 40
150.0
  1
"DOM W ANYŻKU"
  7
ARIAL
100
AcDbText
  0
TEXT
  5
E6
330
2
100
AcDbEntity
  8
NAPISY
100
AcDbText
 10
-36482.32195915241
 20
23151.4547749144
 30
0.0
 40
150.0
  1
MOŻNA WKLEIĆ DO PROJEKTU ZAGOSPODAROWANIA TERENU
  7
ARIAL
100
AcDbText
  0
3DFACE
  5
7CC
330
2
100
AcDbEntity
  8
0Hatch
100
AcDbFace
 10
-34688.4566678397
 20
18448.58629102125
 30
0.0
 11
-34682.10243768001
 21
18498.01337541975
 31
0.0
 12
-34700.26607357997
 22
18487.51668445702
 32
0.0
 13
-34700.26607357997
 23
18487.51668445702
 33
0.0
 70
     3
  0
3DFACE
  5
7CD
330
2
100
AcDbEntity
  8
0Hatch
100
AcDbFace
 10
-34702.10243768002
 20
18498.19984699912
 30
0.0
 11
-34700.26607357997
 21
18487.51668445702
 31
0.0
 12
-34682.10243768001
 22
18498.01337541975
 32
0.0
 13
-34682.10243768001
 23
18498.19984699913
 33
0.0
 70
     2
  0
3DFACE
  5
7CE
330
2
100
AcDbEntity
  8
0Hatch
100
AcDbFace
 10
-34682.10243768001
 20
18498.01337541975
 30
0.0
 11
-34688.4566678397
 21
18448.58629102125
 31
0.0
 12
-34669.27923352773
 22
18412.70783494784
 32
0.0
 13
-34679.94988024797
 23
18487.11922254379
 33
0.0
 70
     5
  0
3DFACE
  5
7CF
330
2
100
AcDbEntity
  8
0Hatch
100
AcDbFace
 10
-34679.94988024797
 20
18487.11922254379
 30
0.0
 11
-34669.27923352773
 21
18412.70783494784
 31
0.0
 12
-34643.47074868986
 22
18381.2601051828
 32
0.0
 13
-34665.94396216476
 23
18447.09260830387
 33
0.0
 70
     5
  0
3DFACE
  5
7D0
330
2
100
AcDbEntity
  8
0Hatch
100
AcDbFace
 10
-34665.94396216476
 20
18447.09260830387
 30
0.0
 11
-34643.47074868986
 21
18381.2601051828
 31
0.0
 12
-34621.5945037232
 22
18362.24632959996
 32
0.0
 13
-34643.38244210594
 23
18411.18615482403
 33
0.0
 70
     5
  0
3DFACE
  5
7D1
330
2
100
AcDbEntity
  8
0Hatch
100
AcDbFace
 10
-34621.5945037232
 20
18362.24632959996
 30
0.0
 11
-34613.39664889595
 21
18381.20036161404
 31
0.0
 12
-34643.38244210594
 22
18411.18615482403
 32
0.0
 13
-34643.38244210594
 23
18411.18615482403
 33
0.0
 70
    13
  0
3DFACE
  5
7D2
330
2
100
AcDbEntity
  8
0Hatch
100
AcDbFace
 10
-34621.5945037232
 20
18362.24632959996
 30
0.0
 11
-34609.53277571289
 21
18378.19984699913
 31
0.0
 12
-34613.39664889595
 22
18381.20036161404
 32
0.0
 13
-34613.39664889595
 23
18381.20036161404
 33
0.0
 70
    12
  0
3DFACE
  5
7D3
330
2
100
AcDbEntity
  8
0Hatch
100
AcDbFace
 10
-34682.10243768001
 20
18498.01337541975
 30
0.0
 11
-34682.10243768001
 21
18498.01337541975
 31
0.0
 12
-34679.94988024797
 22
18487.11922254379
 32
0.0
 13
-34679.94988024797
 23
18487.11922254379
 33
0.0
  0
3DFACE
  5
7D4
330
2
100
AcDbEntity
  8
0Hatch
100
AcDbFace
 10
-34679.94988024797
 20
18487.11922254379
 30
0.0
 11
-34679.94988024797
 21
18487.11922254379
 31
0.0
 12
-34665.94396216476
 22
18447.09260830387
 32
0.0
 13
-34665.94396216476
 23
18447.09260830387
 33
0.0
  0
3DFACE
  5
7D5
330
2
100
AcDbEntity
  8
0Hatch
100
AcDbFace
 10
-34665.94396216476
 20
18447.09260830387
 30
0.0
 11
-34665.94396216476
 21
18447.09260830387
 31
0.0
 12
-34643.38244210594
 22
18411.18615482403
 32
0.0
 13
-34643.38244210594
 23
18411.18615482403
 33
0.0
  0
3DFACE
  5
7D6
330
2
100
AcDbEntity
  8
0Hatch
100
AcDbFace
 10
-34643.38244210594
 20
18411.18615482403
 30
0.0
 11
-34643.38244210594
 21
18411.18615482403
 31
0.0
 12
-34613.39664889595
 22
18381.20036161404
 32
0.0
 13
-34613.39664889595
 23
18381.20036161404
 33
0.0
  0
3DFACE
  5
7D7
330
2
100
AcDbEntity
  8
0Hatch
100
AcDbFace
 10
-34613.39664889595
 20
18381.20036161404
 30
0.0
 11
-34613.39664889595
 21
18381.20036161404
 31
0.0
 12
-34609.53277571289
 22
18378.19984699913
 32
0.0
 13
-34609.53277571289
 23
18378.19984699913
 33
0.0
  0
3DFACE
  5
7D8
330
2
100
AcDbEntity
  8
0Hatch
100
AcDbFace
 10
-34609.53277571289
 20
18378.19984699913
 30
0.0
 11
-34609.53277571289
 21
18378.19984699913
 31
0.0
 12
-34621.5945037232
 22
18362.24632959996
 32
0.0
 13
-34621.5945037232
 23
18362.24632959996
 33
0.0
  0
3DFACE
  5
7D9
330
2
100
AcDbEntity
  8
0Hatch
100
AcDbFace
 10
-34621.5945037232
 20
18362.24632959996
 30
0.0
 11
-34621.5945037232
 21
18362.24632959996
 31
0.0
 12
-34643.47074868986
 22
18381.2601051828
 32
0.0
 13
-34643.47074868986
 23
18381.2601051828
 33
0.0
  0
3DFACE
  5
7DA
330
2
100
AcDbEntity
  8
0Hatch
100
AcDbFace
 10
-34643.47074868986
 20
18381.2601051828
 30
0.0
 11
-34643.47074868986
 21
18381.2601051828
 31
0.0
 12
-34669.27923352773
 22
18412.70783494784
 32
0.0
 13
-34669.27923352773
 23
18412.70783494784
 33
0.0
  0
3DFACE
  5
7DB
330
2
100
AcDbEntity
  8
0Hatch
100
AcDbFace
 10
-34669.27923352773
 20
18412.70783494784
 30
0.0
 11
-34669.27923352773
 21
18412.70783494784
 31
0.0
 12
-34688.4566678397
 22
18448.58629102125
 32
0.0
 13
-34688.4566678397
 23
18448.58629102125
 33
0.0
  0
3DFACE
  5
7DC
330
2
100
AcDbEntity
  8
0Hatch
100
AcDbFace
 10
-34688.4566678397
 20
18448.58629102125
 30
0.0
 11
-34688.4566678397
 21
18448.58629102125
 31
0.0
 12
-34700.26607357997
 22
18487.51668445702
 32
0.0
 13
-34700.26607357997
 23
18487.51668445702
 33
0.0
  0
3DFACE
  5
7DD
330
2
100
AcDbEntity
  8
0Hatch
100
AcDbFace
 10
-34700.26607357997
 20
18487.51668445702
 30
0.0
 11
-34700.26607357997
 21
18487.51668445702
 31
0.0
 12
-34702.10243768002
 22
18498.19984699912
 32
0.0
 13
-34702.10243768002
 23
18498.19984699912
 33
0.0
  0
3DFACE
  5
7DE
330
2
100
AcDbEntity
  8
A-Widok-G
370
     9
100
AcDbFace
 10
-34702.10243768002
 20
18676.19984699912
 30
0.0
 11
-34702.10243768002
 21
18676.19984699912
 31
0.0
 12
-34682.10243768001
 22
18676.19984699912
 32
0.0
 13
-34682.10243768001
 23
18676.19984699912
 33
0.0
  0
3DFACE
  5
7DF
330
2
100
AcDbEntity
  8
0Hatch
100
AcDbFace
 10
-34702.10243768002
 20
18676.19984699912
 30
0.0
 11
-34702.10243768002
 21
18498.19984699912
 31
0.0
 12
-34702.10243768002
 22
18498.19984699912
 32
0.0
 13
-34702.10243768002
 23
18676.19984699912
 33
0.0
  0
3DFACE
  5
7E0
330
2
100
AcDbEntity
  8
0Hatch
100
AcDbFace
 10
-34702.10243768002
 20
18676.19984699912
 30
0.0
 11
-34702.10243768002
 21
18498.19984699912
 31
0.0
 12
-34682.10243768001
 22
18498.19984699913
 32
0.0
 13
-34682.10243768001
 23
18676.19984699912
 33
0.0
  0
3DFACE
  5
7E1
330
2
100
AcDbEntity
  8
0Hatch
100
AcDbFace
 10
-34682.10243768001
 20
18676.19984699912
 30
0.0
 11
-34682.10243768001
 21
18676.19984699912
 31
0.0
 12
-34682.10243768001
 22
18498.01337541975
 32
0.0
 13
-34682.10243768001
 23
18498.01337541975
 33
0.0
 70
     2
  0
3DFACE
  5
7E2
330
2
100
AcDbEntity
  8
0Hatch
100
AcDbFace
 10
-34682.10243768001
 20
18498.01337541975
 30
0.0
 11
-34682.10243768001
 21
18498.01337541975
 31
0.0
 12
-34682.10243768001
 22
18676.19984699912
 32
0.0
 13
-34682.10243768001
 23
18498.19984699913
 33
0.0
 70
     2
  0
3DFACE
  5
7E3
330
2
100
AcDbEntity
  8
0Hatch
100
AcDbFace
 10
-34669.27923352773
 20
18412.70783494784
 30
0.0
 11
-34613.39664889595
 21
18381.20036161404
 31
0.0
 12
-34643.47074868986
 22
18381.2601051828
 32
0.0
 13
-34643.47074868986
 23
18381.2601051828
 33
0.0
 70
     3
  0
3DFACE
  5
7E4
330
2
100
AcDbEntity
  8
0Hatch
100
AcDbFace
 10
-34621.5945037232
 20
18362.24632959996
 30
0.0
 11
-34643.47074868986
 21
18381.2601051828
 31
0.0
 12
-34613.39664889595
 22
18381.20036161404
 32
0.0
 13
-34609.53277571289
 23
18378.19984699913
 33
0.0
 70
     2
  0
3DFACE
  5
7E5
330
2
100
AcDbEntity
  8
0Hatch
100
AcDbFace
 10
-34613.39664889595
 20
18381.20036161404
 30
0.0
 11
-34669.27923352773
 21
18412.70783494784
 31
0.0
 12
-34688.4566678397
 22
18448.58629102125
 32
0.0
 13
-34643.38244210594
 23
18411.18615482403
 33
0.0
 70
     5
  0
3DFACE
  5
7E6
330
2
100
AcDbEntity
  8
0Hatch
100
AcDbFace
 10
-34688.4566678397
 20
18448.58629102125
 30
0.0
 11
-34700.26607357997
 21
18487.51668445702
 31
0.0
 12
-34643.38244210594
 22
18411.18615482403
 32
0.0
 13
-34643.38244210594
 23
18411.18615482403
 33
0.0
 70
    14
  0
3DFACE
  5
7E7
330
2
100
AcDbEntity
  8
0Hatch
100
AcDbFace
 10
-34643.38244210594
 20
18411.18615482403
 30
0.0
 11
-34700.26607357997
 21
18487.51668445702
 31
0.0
 12
-34702.10243768002
 22
18498.19984699912
 32
0.0
 13
-34665.94396216476
 23
18447.09260830387
 33
0.0
 70
     5
  0
3DFACE
  5
7E8
330
2
100
AcDbEntity
  8
0Hatch
100
AcDbFace
 10
-34702.10243768002
 20
18498.19984699912
 30
0.0
 11
-34679.94988024797
 21
18487.11922254379
 31
0.0
 12
-34665.94396216476
 22
18447.09260830387
 32
0.0
 13
-34665.94396216476
 23
18447.09260830387
 33
0.0
 70
    13
  0
3DFACE
  5
7E9
330
2
100
AcDbEntity
  8
0Hatch
100
AcDbFace
 10
-34702.10243768002
 20
18498.19984699912
 30
0.0
 11
-34682.10243768001
 21
18498.01337541975
 31
0.0
 12
-34679.94988024797
 22
18487.11922254379
 32
0.0
 13
-34679.94988024797
 23
18487.11922254379
 33
0.0
 70
    13
  0
3DFACE
  5
7EA
330
2
100
AcDbEntity
  8
0Hatch
100
AcDbFace
 10
-34682.10243768001
 20
18498.01337541975
 30
0.0
 11
-34702.10243768002
 21
18498.19984699912
 31
0.0
 12
-34702.10243768002
 22
18676.19984699912
 32
0.0
 13
-34682.10243768001
 23
18676.19984699912
 33
0.0
 70
     1
  0
LINE
  5
7EB
330
2
100
AcDbEntity
  8
0Hatch
100
AcDbLine
 10
-35286.70583020165
 20
19896.19984699912
 30
0.0
 11
-35286.70583020165
 21
19876.19984699914
 31
0.0
  0
ARC
  5
7EC
330
2
100
AcDbEntity
  8
0Hatch
100
AcDbCircle
 10
-35046.70583020165
 20
19896.19984699912
 30
0.0
 40
240.0
100
AcDbArc
 50
90.0
 51
180.0
  0
LINE
  5
7ED
330
2
100
AcDbEntity
  8
0Hatch
100
AcDbLine
 10
-34704.70583020165
 20
20136.19984699912
 30
0.0
 11
-35046.70583020165
 21
20136.19984699912
 31
0.0
  0
ARC
  5
7EE
330
2
100
AcDbEntity
  8
0Hatch
100
AcDbCircle
 10
-34704.40168968396
 20
19896.50398751681
 30
0.0
 40
239.6960524381183
100
AcDbArc
 50
359.9272997091849
 51
90.07270029081501
  0
LINE
  5
7EF
330
2
100
AcDbEntity
  8
0Hatch
100
AcDbLine
 10
-34464.70583020165
 20
19876.19984699912
 30
0.0
 11
-34464.70583020165
 21
19896.19984699912
 31
0.0
  0
LINE
  5
7F0
330
2
100
AcDbEntity
  8
0Hatch
100
AcDbLine
 10
-35316.70583020166
 20
19896.19984699912
 30
0.0
 11
-35316.70583020166
 21
19876.19984699912
 31
0.0
  0
ARC
  5
7F1
330
2
100
AcDbEntity
  8
0Hatch
100
AcDbCircle
 10
-35046.70583020165
 20
19896.19984699912
 30
0.0
 40
270.0000000000004
100
AcDbArc
 50
90.0
 51
180.0
  0
LINE
  5
7F2
330
2
100
AcDbEntity
  8
0Hatch
100
AcDbLine
 10
-34704.70583020165
 20
20166.19984699912
 30
0.0
 11
-35046.70583020165
 21
20166.19984699912
 31
0.0
  0
ARC
  5
7F3
330
2
100
AcDbEntity
  8
0Hatch
100
AcDbCircle
 10
-34703.83502203496
 20
19897.07065516581
 30
0.0
 40
269.1306006453258
100
AcDbArc
 50
359.814611494587
 51
90.18538850499595
  0
LINE
  5
7F4
330
2
100
AcDbEntity
  8
0Hatch
100
AcDbLine
 10
-34434.70583020165
 20
19876.19984699912
 30
0.0
 11
-34434.70583020165
 21
19896.19984699912
 31
0.0
  0
LINE
  5
7F5
330
2
100
AcDbEntity
  8
0Hatch
100
AcDbLine
 10
-35346.70583020165
 20
19896.19984699912
 30
0.0
 11
-35346.70583020165
 21
19876.19984699912
 31
0.0
  0
ARC
  5
7F6
330
2
100
AcDbEntity
  8
0Hatch
100
AcDbCircle
 10
-35046.70583020165
 20
19896.19984699912
 30
0.0
 40
299.9999999999992
100
AcDbArc
 50
90.0
 51
180.0
  0
LINE
  5
7F7
330
2
100
AcDbEntity
  8
0Hatch
100
AcDbLine
 10
-34704.70583020165
 20
20196.19984699912
 30
0.0
 11
-35046.70583020165
 21
20196.19984699912
 31
0.0
  0
ARC
  5
7F8
330
2
100
AcDbEntity
  8
0Hatch
100
AcDbCircle
 10
-34704.50461975366
 20
19896.40105744711
 30
0.0
 40
299.7988570733683
100
AcDbArc
 50
359.9615458497002
 51
90.03845415050825
  0
LINE
  5
7F9
330
2
100
AcDbEntity
  8
0Hatch
100
AcDbLine
 10
-34404.70583020165
 20
19876.19984699912
 30
0.0
 11
-34404.70583020165
 21
19896.19984699912
 31
0.0
  0
LINE
  5
7FA
330
2
100
AcDbEntity
  8
0Hatch
100
AcDbLine
 10
-35360.70583020165
 20
18368.19984699912
 30
0.0
 11
-34971.70583020165
 21
18368.19984699912
 31
0.0
  0
LINE
  5
7FB
330
2
100
AcDbEntity
  8
0Hatch
100
AcDbLine
 10
-35360.70583020165
 20
18268.19984699912
 30
0.0
 11
-35360.70583020165
 21
18468.19984699912
 31
0.0
  0
LINE
  5
7FC
330
2
100
AcDbEntity
  8
0Hatch
100
AcDbLine
 10
-34971.70583020165
 20
18268.19984699912
 30
0.0
 11
-35360.70583020165
 21
18268.19984699912
 31
0.0
  0
LINE
  5
7FD
330
2
100
AcDbEntity
  8
0Hatch
100
AcDbLine
 10
-34971.70583020165
 20
18268.19984699912
 30
0.0
 11
-34971.70583020165
 21
18468.19984699912
 31
0.0
  0
LINE
  5
7FF
330
2
100
AcDbEntity
  8
0Hatch
100
AcDbLine
 10
-34702.10243768002
 20
18498.19984699913
 30
0.0
 11
-34702.10243768002
 21
18676.19984699912
 31
0.0
  0
LINE
  5
800
330
2
100
AcDbEntity
  8
0Hatch
100
AcDbLine
 10
-34694.36137070983
 20
18468.05148773913
 30
0.0
 11
-34702.10243768002
 21
18498.19984699913
 31
0.0
  0
LINE
  5
801
102
{ACAD_REACTORS
330
99E
102
}
330
2
100
AcDbEntity
  8
0Hatch
100
AcDbLine
 10
-34971.70583020166
 20
18468.19984699912
 30
0.0
 11
-34694.36137070983
 21
18468.05148773913
 31
0.0
  0
LINE
  5
802
330
2
100
AcDbEntity
  8
0Hatch
100
AcDbLine
 10
-34683.81699344835
 20
18438.19984699912
 30
0.0
 11
-34694.36137070983
 21
18468.05148773913
 31
0.0
  0
LINE
  5
803
330
2
100
AcDbEntity
  8
0Hatch
100
AcDbLine
 10
-34971.70583020166
 20
18438.19984699912
 30
0.0
 11
-34683.81699344835
 21
18438.19984699912
 31
0.0
  0
LINE
  5
804
330
2
100
AcDbEntity
  8
A-Widok-G
370
     9
100
AcDbLine
 10
-34971.70583084082
 20
18468.20350724097
 30
0.0
 11
-34971.70583020166
 21
18438.19984699912
 31
0.0
  0
LINE
  5
805
330
2
100
AcDbEntity
  8
0Hatch
100
AcDbLine
 10
-34694.36137070983
 20
18468.05148773913
 30
0.0
 11
-34971.70583084082
 21
18468.20350724097
 31
0.0
  0
LINE
  5
806
330
2
100
AcDbEntity
  8
0Hatch
100
AcDbLine
 10
-34666.18037937639
 20
18408.19984699912
 30
0.0
 11
-34683.81699344835
 21
18438.19984699912
 31
0.0
  0
LINE
  5
807
330
2
100
AcDbEntity
  8
0Hatch
100
AcDbLine
 10
-34971.70583020165
 20
18408.19984699912
 30
0.0
 11
-34666.18037937639
 21
18408.19984699912
 31
0.0
  0
LINE
  5
80B
330
2
100
AcDbEntity
  8
A-Widok-G
370
     9
100
AcDbLine
 10
-35363.70583020165
 20
19106.7090735605
 30
0.0
 11
-35360.70583020165
 21
19106.7090735605
 31
0.0
  0
LINE
  5
80E
330
2
100
AcDbEntity
  8
0Hatch
100
AcDbLine
 10
-34925.70583020165
 20
18676.19984699912
 30
0.0
 11
-34925.70583020165
 21
18736.1998469991
 31
0.0
  0
LINE
  5
810
330
2
100
AcDbEntity
  8
0Hatch
100
AcDbLine
 10
-34825.70583020165
 20
18736.1998469991
 30
0.0
 11
-34825.70583020165
 21
18676.19984699912
 31
0.0
  0
LINE
  5
813
330
2
100
AcDbEntity
  8
0Hatch
100
AcDbLine
 10
-35288.70583020164
 20
18468.19984699912
 30
0.0
 11
-35288.70583020165
 21
18528.19984699912
 31
0.0
  0
LINE
  5
814
330
2
100
AcDbEntity
  8
0Hatch
100
AcDbLine
 10
-35048.70583020165
 20
18528.19984699912
 30
0.0
 11
-35048.70583020165
 21
18468.19984699913
 31
0.0
  0
CIRCLE
  5
818
102
{ACAD_REACTORS
330
947
102
}
330
2
100
AcDbEntity
  8
0Hatch
100
AcDbCircle
 10
-34875.70583020165
 20
20004.69984699912
 30
0.0
 40
17.5
  0
CIRCLE
  5
819
102
{ACAD_REACTORS
330
947
102
}
330
2
100
AcDbEntity
  8
0Hatch
100
AcDbCircle
 10
35199.20583020165
 20
20004.69984699912
 30
0.0
 40
17.5
210
0.0
220
0.0
230
-1.0
  0
CIRCLE
  5
81A
102
{ACAD_REACTORS
330
947
102
}
330
2
100
AcDbEntity
  8
0Hatch
100
AcDbCircle
 10
-34552.20583020165
 20
20004.69984699912
 30
0.0
 40
17.5
  0
CIRCLE
  5
81B
102
{ACAD_REACTORS
330
1036
102
}
330
2
100
AcDbEntity
  8
0Hatch
100
AcDbCircle
 10
34728.20583020165
 20
18508.69984699912
 30
0.0
 40
17.5
210
0.0
220
0.0
230
-1.0
  0
LWPOLYLINE
  5
81F
330
2
100
AcDbEntity
  8
0Hatch
100
AcDbPolyline
 90
       10
 70
     1
 43
0.0
 10
-34450.70583020165
 20
19816.19984699912
 10
-34450.70583020165
 20
19418.99270432418
 10
-34350.80583020165
 20
19319.09270432418
 10
-34350.80583020165
 20
19168.79833180896
 10
-34450.70583020164
 20
19068.89833180897
 10
-34450.70583020165
 20
18736.19984699912
 10
-35031.70583020165
 20
18736.19984699909
 10
-35031.70583020164
 20
18528.19984699912
 10
-35300.70583020165
 20
18528.19984699912
 10
-35300.70583020165
 20
19816.19984699912
  0
DIMENSION
  5
839
330
2
100
AcDbEntity
  8
0Wymiary-PL
100
AcDbDimension
  2
*D25
 10
-34390.70583020165
 20
20326.19984699912
 30
0.0
 11
-34875.70583020165
 21
20406.19984699912
 31
0.0
 70
    32
 71
     5
 42
970.0
  3
500
100
AcDbAlignedDimension
 13
-35360.70583020165
 23
20326.19984699912
 33
0.0
 14
-34390.70583020165
 24
19876.19984699912
 34
0.0
100
AcDbRotatedDimension
  0
DIMENSION
  5
84D
330
2
100
AcDbEntity
  8
0Wymiary-PL
100
AcDbDimension
  2
*D26
 10
-35810.70583020165
 20
18468.19984699912
 30
0.0
 11
-35890.70583020166
 21
19172.19984699912
 31
0.0
 70
    32
 71
     5
 42
1407.999999999996
  3
500
100
AcDbAlignedDimension
 13
-35360.70583020165
 23
19876.19984699912
 33
0.0
 14
-35810.70583020165
 24
18468.19984699912
 34
0.0
 50
90.0
100
AcDbRotatedDimension
  0
DIMENSION
  5
87D
330
2
100
AcDbEntity
  8
0Wymiary-PL
100
AcDbDimension
  2
*D27
 10
-34971.70583084094
 20
18018.19984699947
 30
0.0
 11
-35166.20583052129
 21
18098.19984699947
 31
0.0
 70
    32
 71
     5
 42
388.9999993607198
  3
500
100
AcDbAlignedDimension
 13
-35360.70583020165
 23
18018.19984699912
 33
0.0
 14
-34971.70583084094
 24
18018.19984699947
 34
0.0
100
AcDbRotatedDimension
  0
DIMENSION
  5
891
330
2
100
AcDbEntity
  8
0Wymiary-PL
100
AcDbDimension
  2
*D28
 10
-34390.70583020165
 20
18018.19984699947
 30
0.0
 11
-34681.2058305213
 21
18098.19984699947
 31
0.0
 70
    32
 71
     5
 42
581.0000006392802
  3
500
100
AcDbAlignedDimension
 13
-34971.70583084094
 23
18018.19984699947
 33
0.0
 14
-34390.70583020165
 24
18226.19984699912
 34
0.0
100
AcDbRotatedDimension
  0
DIMENSION
  5
8A5
330
2
100
AcDbEntity
  8
0Wymiary-PL
100
AcDbDimension
  2
*D29
 10
-34290.80583020165
 20
18018.19984699947
 30
0.0
 11
-34340.75583020165
 21
18098.19984699947
 31
0.0
 70
    32
 71
     5
 42
99.90000000000145
  3
500
100
AcDbAlignedDimension
 13
-34390.70583020165
 23
18226.19984699912
 33
0.0
 14
-34290.80583020165
 24
18693.94551806657
 34
0.0
100
AcDbRotatedDimension
  0
LWPOLYLINE
  5
93D
102
{ACAD_REACTORS
330
95B
330
976
330
98A
330
99E
102
}
330
2
100
AcDbEntity
  8
0Hatch
100
AcDbPolyline
 90
       10
 70
     1
 43
0.0
 10
-34390.70583020165
 20
19876.19984699912
 10
-34390.70583020165
 20
19444.19984699912
 10
-34290.80583020165
 20
19343.94551806656
 10
-34290.80583020165
 20
19143.94551806657
 10
-34390.70583020165
 20
19044.19984699912
 10
-34390.70583020165
 20
18676.19984699912
 10
-34971.70583020166
 20
18676.1998469991
 10
-34971.70583020165
 20
18468.19984699912
 10
-35360.70583020165
 20
18468.19984699912
 10
-35360.70583020165
 20
19876.19984699912
  0
LWPOLYLINE
  5
93F
330
2
100
AcDbEntity
  8
0Hatch
100
AcDbPolyline
 90
        4
 70
     0
 43
0.0
 10
-35048.70583020165
 20
18498.19984699912
 10
-35001.70583020165
 20
18498.19984699912
 10
-35001.70583020165
 20
18706.1998469991
 10
-34925.70583020165
 20
18706.19984699911
  0
HATCH
  5
947
330
2
100
AcDbEntity
  8
0Hatch
100
AcDbHatch
 10
0.0
 20
0.0
 30
0.0
210
0.0
220
0.0
230
1.0
  2
SOLID
 70
     1
 71
     1
 91
        3
 92
        7
 72
     1
 73
     1
 93
        2
 10
-35216.70583020165
 20
20004.69984699912
 42
1.0
 10
-35181.70583020165
 20
20004.69984699912
 42
1.0
 97
        1
330
819
 92
        7
 72
     1
 73
     1
 93
        2
 10
-34858.20583020165
 20
20004.69984699912
 42
1.0
 10
-34893.20583020165
 20
20004.69984699912
 42
1.0
 97
        1
330
818
 92
        7
 72
     1
 73
     1
 93
        2
 10
-34534.70583020165
 20
20004.69984699912
 42
1.0
 10
-34569.70583020166
 20
20004.69984699912
 42
1.0
 97
        1
330
81A
 75
     0
 76
     1
 47
0.5041591787492836
 98
        3
 10
-35190.79086386493
 20
20005.05177381451
 10
-34874.81521191357
 20
19999.28619668284
 10
-34552.19915036534
 20
19997.93001657622
1001
ACAD
1010
0.0
1020
0.0
1030
0.0
  0
DIMENSION
  5
948
102
{ACAD_XDICTIONARY
360
953
102
}
102
{ACAD_REACTORS
330
95B
102
}
330
2
100
AcDbEntity
  8
0Wymiary-PL
100
AcDbDimension
  2
*D31
 10
-33940.70583020165
 20
19444.19984699912
 30
0.0
 11
-34020.70583020166
 21
19660.19984699912
 31
0.0
 70
    32
 71
     5
 42
431.9999999999963
  3
500
100
AcDbAlignedDimension
 13
-33940.70583020165
 23
19876.19984699912
 33
0.0
 14
-34390.70583020165
 24
19444.19984699912
 34
0.0
 50
90.0
100
AcDbRotatedDimension
  0
DIMENSION
  5
963
102
{ACAD_XDICTIONARY
360
96E
102
}
102
{ACAD_REACTORS
330
976
102
}
330
2
100
AcDbEntity
  8
0Wymiary-PL
100
AcDbDimension
  2
*D32
 10
-33940.70583020165
 20
19044.19984699912
 30
0.0
 11
-34020.70583020166
 21
19244.19984699912
 31
0.0
 70
    32
 71
     5
 42
400.0
  3
500
100
AcDbAlignedDimension
 13
-34390.70583020165
 23
19444.19984699912
 33
0.0
 14
-34390.70583020165
 24
19044.19984699912
 34
0.0
 50
90.0
100
AcDbRotatedDimension
  0
DIMENSION
  5
977
102
{ACAD_XDICTIONARY
360
982
102
}
102
{ACAD_REACTORS
330
98A
102
}
330
2
100
AcDbEntity
  8
0Wymiary-PL
100
AcDbDimension
  2
*D33
 10
-33940.70583020165
 20
18676.19984699912
 30
0.0
 11
-34020.70583020166
 21
18860.19984699912
 31
0.0
 70
    32
 71
     5
 42
368.0000000000037
  3
500
100
AcDbAlignedDimension
 13
-34390.70583020165
 23
19044.19984699912
 33
0.0
 14
-34390.70583020161
 24
18676.19984699912
 34
0.0
 50
90.0
100
AcDbRotatedDimension
  0
DIMENSION
  5
98B
102
{ACAD_XDICTIONARY
360
996
102
}
102
{ACAD_REACTORS
330
99E
102
}
330
2
100
AcDbEntity
  8
0Wymiary-PL
100
AcDbDimension
  2
*D34
 10
-33940.70583020165
 20
18468.19984699912
 30
0.0
 11
-34020.70583020166
 21
18572.19984699911
 31
0.0
 70
    32
 71
     5
 42
207.9999999999782
  3
500
100
AcDbAlignedDimension
 13
-34971.70583019486
 23
18676.1998469991
 33
0.0
 14
-34971.70583019485
 24
18468.19984699912
 34
0.0
 50
90.0
100
AcDbRotatedDimension
  0
LWPOLYLINE
  5
AFA
330
2
100
AcDbEntity
  8
0Hatch
100
AcDbPolyline
 90
       10
 70
     0
 43
60.0
 10
-34825.70583020165
 20
18706.19984699911
 10
-34420.70583020165
 20
18706.19984699911
 10
-34420.70583020165
 20
19056.47192493778
 10
-34320.80583020165
 20
19156.37192493777
 10
-34320.80583020165
 20
19331.51911119537
 10
-34420.70583020165
 20
19431.41911119537
 10
-34420.70583020165
 20
19846.19984699912
 10
-35330.70583020165
 20
19846.19984699912
 10
-35330.70583020165
 20
18498.19984699912
 10
-35288.70583020165
 20
18498.19984699913
  0
LWPOLYLINE
  5
AFB
330
2
100
AcDbEntity
  8
0Hatch
100
AcDbPolyline
 90
        4
 70
     0
 43
60.0
 10
-35048.70583020165
 20
18498.19984699913
 10
-35001.70583020165
 20
18498.19984699913
 10
-35001.70583020165
 20
18706.1998469991
 10
-34925.70583020165
 20
18706.1998469991
  0
3DFACE
  5
F32
330
2
100
AcDbEntity
  8
0Hatch
100
AcDbFace
 10
-30961.93886549547
 20
18448.58629102125
 30
0.0
 11
-30968.29309565515
 21
18498.01337541975
 31
0.0
 12
-30950.1294597552
 22
18487.51668445702
 32
0.0
 13
-30950.1294597552
 23
18487.51668445702
 33
0.0
 70
     3
  0
3DFACE
  5
F33
330
2
100
AcDbEntity
  8
0Hatch
100
AcDbFace
 10
-30948.29309565515
 20
18498.19984699912
 30
0.0
 11
-30950.1294597552
 21
18487.51668445702
 31
0.0
 12
-30968.29309565515
 22
18498.01337541975
 32
0.0
 13
-30968.29309565515
 23
18498.19984699913
 33
0.0
 70
     2
  0
3DFACE
  5
F34
330
2
100
AcDbEntity
  8
0Hatch
100
AcDbFace
 10
-30968.29309565515
 20
18498.01337541975
 30
0.0
 11
-30961.93886549547
 21
18448.58629102125
 31
0.0
 12
-30981.11629980743
 22
18412.70783494784
 32
0.0
 13
-30970.4456530872
 23
18487.11922254379
 33
0.0
 70
     5
  0
3DFACE
  5
F35
330
2
100
AcDbEntity
  8
0Hatch
100
AcDbFace
 10
-30970.4456530872
 20
18487.11922254379
 30
0.0
 11
-30981.11629980743
 21
18412.70783494784
 31
0.0
 12
-31006.9247846453
 22
18381.2601051828
 32
0.0
 13
-30984.4515711704
 23
18447.09260830387
 33
0.0
 70
     5
  0
3DFACE
  5
F36
330
2
100
AcDbEntity
  8
0Hatch
100
AcDbFace
 10
-30984.4515711704
 20
18447.09260830387
 30
0.0
 11
-31006.9247846453
 21
18381.2601051828
 31
0.0
 12
-31028.80102961196
 22
18362.24632959996
 32
0.0
 13
-31007.01309122922
 23
18411.18615482403
 33
0.0
 70
     5
  0
3DFACE
  5
F37
330
2
100
AcDbEntity
  8
0Hatch
100
AcDbFace
 10
-31028.80102961196
 20
18362.24632959996
 30
0.0
 11
-31036.99888443921
 21
18381.20036161404
 31
0.0
 12
-31007.01309122922
 22
18411.18615482403
 32
0.0
 13
-31007.01309122922
 23
18411.18615482403
 33
0.0
 70
    13
  0
3DFACE
  5
F38
330
2
100
AcDbEntity
  8
0Hatch
100
AcDbFace
 10
-31028.80102961196
 20
18362.24632959996
 30
0.0
 11
-31040.86275762227
 21
18378.19984699913
 31
0.0
 12
-31036.99888443921
 22
18381.20036161404
 32
0.0
 13
-31036.99888443921
 23
18381.20036161404
 33
0.0
 70
    12
  0
3DFACE
  5
F39
330
2
100
AcDbEntity
  8
0Hatch
100
AcDbFace
 10
-30968.29309565515
 20
18498.01337541975
 30
0.0
 11
-30968.29309565515
 21
18498.01337541975
 31
0.0
 12
-30970.4456530872
 22
18487.11922254379
 32
0.0
 13
-30970.4456530872
 23
18487.11922254379
 33
0.0
  0
3DFACE
  5
F3A
330
2
100
AcDbEntity
  8
0Hatch
100
AcDbFace
 10
-30970.4456530872
 20
18487.11922254379
 30
0.0
 11
-30970.4456530872
 21
18487.11922254379
 31
0.0
 12
-30984.4515711704
 22
18447.09260830387
 32
0.0
 13
-30984.4515711704
 23
18447.09260830387
 33
0.0
  0
3DFACE
  5
F3B
330
2
100
AcDbEntity
  8
0Hatch
100
AcDbFace
 10
-30984.4515711704
 20
18447.09260830387
 30
0.0
 11
-30984.4515711704
 21
18447.09260830387
 31
0.0
 12
-31007.01309122922
 22
18411.18615482403
 32
0.0
 13
-31007.01309122922
 23
18411.18615482403
 33
0.0
  0
3DFACE
  5
F3C
330
2
100
AcDbEntity
  8
0Hatch
100
AcDbFace
 10
-31007.01309122922
 20
18411.18615482403
 30
0.0
 11
-31007.01309122922
 21
18411.18615482403
 31
0.0
 12
-31036.99888443921
 22
18381.20036161404
 32
0.0
 13
-31036.99888443921
 23
18381.20036161404
 33
0.0
  0
3DFACE
  5
F3D
330
2
100
AcDbEntity
  8
0Hatch
100
AcDbFace
 10
-31036.99888443921
 20
18381.20036161404
 30
0.0
 11
-31036.99888443921
 21
18381.20036161404
 31
0.0
 12
-31040.86275762227
 22
18378.19984699913
 32
0.0
 13
-31040.86275762227
 23
18378.19984699913
 33
0.0
  0
3DFACE
  5
F3E
330
2
100
AcDbEntity
  8
0Hatch
100
AcDbFace
 10
-31040.86275762227
 20
18378.19984699913
 30
0.0
 11
-31040.86275762227
 21
18378.19984699913
 31
0.0
 12
-31028.80102961196
 22
18362.24632959996
 32
0.0
 13
-31028.80102961196
 23
18362.24632959996
 33
0.0
  0
3DFACE
  5
F3F
330
2
100
AcDbEntity
  8
0Hatch
100
AcDbFace
 10
-31028.80102961196
 20
18362.24632959996
 30
0.0
 11
-31028.80102961196
 21
18362.24632959996
 31
0.0
 12
-31006.9247846453
 22
18381.2601051828
 32
0.0
 13
-31006.9247846453
 23
18381.2601051828
 33
0.0
  0
3DFACE
  5
F40
330
2
100
AcDbEntity
  8
0Hatch
100
AcDbFace
 10
-31006.9247846453
 20
18381.2601051828
 30
0.0
 11
-31006.9247846453
 21
18381.2601051828
 31
0.0
 12
-30981.11629980743
 22
18412.70783494784
 32
0.0
 13
-30981.11629980743
 23
18412.70783494784
 33
0.0
  0
3DFACE
  5
F41
330
2
100
AcDbEntity
  8
0Hatch
100
AcDbFace
 10
-30981.11629980743
 20
18412.70783494784
 30
0.0
 11
-30981.11629980743
 21
18412.70783494784
 31
0.0
 12
-30961.93886549547
 22
18448.58629102125
 32
0.0
 13
-30961.93886549547
 23
18448.58629102125
 33
0.0
  0
3DFACE
  5
F42
330
2
100
AcDbEntity
  8
0Hatch
100
AcDbFace
 10
-30961.93886549547
 20
18448.58629102125
 30
0.0
 11
-30961.93886549547
 21
18448.58629102125
 31
0.0
 12
-30950.1294597552
 22
18487.51668445702
 32
0.0
 13
-30950.1294597552
 23
18487.51668445702
 33
0.0
  0
3DFACE
  5
F43
330
2
100
AcDbEntity
  8
0Hatch
100
AcDbFace
 10
-30950.1294597552
 20
18487.51668445702
 30
0.0
 11
-30950.1294597552
 21
18487.51668445702
 31
0.0
 12
-30948.29309565515
 22
18498.19984699912
 32
0.0
 13
-30948.29309565515
 23
18498.19984699912
 33
0.0
  0
3DFACE
  5
F44
330
2
100
AcDbEntity
  8
A-Widok-G
370
     9
100
AcDbFace
 10
-30948.29309565515
 20
18676.19984699912
 30
0.0
 11
-30948.29309565515
 21
18676.19984699912
 31
0.0
 12
-30968.29309565515
 22
18676.19984699912
 32
0.0
 13
-30968.29309565515
 23
18676.19984699912
 33
0.0
  0
3DFACE
  5
F45
330
2
100
AcDbEntity
  8
0Hatch
100
AcDbFace
 10
-30948.29309565515
 20
18676.19984699912
 30
0.0
 11
-30948.29309565515
 21
18498.19984699912
 31
0.0
 12
-30948.29309565515
 22
18498.19984699912
 32
0.0
 13
-30948.29309565515
 23
18676.19984699912
 33
0.0
  0
3DFACE
  5
F46
330
2
100
AcDbEntity
  8
0Hatch
100
AcDbFace
 10
-30948.29309565515
 20
18676.19984699912
 30
0.0
 11
-30948.29309565515
 21
18498.19984699912
 31
0.0
 12
-30968.29309565515
 22
18498.19984699913
 32
0.0
 13
-30968.29309565515
 23
18676.19984699912
 33
0.0
  0
3DFACE
  5
F47
330
2
100
AcDbEntity
  8
0Hatch
100
AcDbFace
 10
-30968.29309565515
 20
18676.19984699912
 30
0.0
 11
-30968.29309565515
 21
18676.19984699912
 31
0.0
 12
-30968.29309565515
 22
18498.01337541975
 32
0.0
 13
-30968.29309565515
 23
18498.01337541975
 33
0.0
 70
     2
  0
3DFACE
  5
F48
330
2
100
AcDbEntity
  8
0Hatch
100
AcDbFace
 10
-30968.29309565515
 20
18498.01337541975
 30
0.0
 11
-30968.29309565515
 21
18498.01337541975
 31
0.0
 12
-30968.29309565515
 22
18676.19984699912
 32
0.0
 13
-30968.29309565515
 23
18498.19984699913
 33
0.0
 70
     2
  0
3DFACE
  5
F49
330
2
100
AcDbEntity
  8
0Hatch
100
AcDbFace
 10
-30981.11629980743
 20
18412.70783494784
 30
0.0
 11
-31036.99888443921
 21
18381.20036161404
 31
0.0
 12
-31006.9247846453
 22
18381.2601051828
 32
0.0
 13
-31006.9247846453
 23
18381.2601051828
 33
0.0
 70
     3
  0
3DFACE
  5
F4A
330
2
100
AcDbEntity
  8
0Hatch
100
AcDbFace
 10
-31028.80102961196
 20
18362.24632959996
 30
0.0
 11
-31006.9247846453
 21
18381.2601051828
 31
0.0
 12
-31036.99888443921
 22
18381.20036161404
 32
0.0
 13
-31040.86275762227
 23
18378.19984699913
 33
0.0
 70
     2
  0
3DFACE
  5
F4B
330
2
100
AcDbEntity
  8
0Hatch
100
AcDbFace
 10
-31036.99888443921
 20
18381.20036161404
 30
0.0
 11
-30981.11629980743
 21
18412.70783494784
 31
0.0
 12
-30961.93886549547
 22
18448.58629102125
 32
0.0
 13
-31007.01309122922
 23
18411.18615482403
 33
0.0
 70
     5
  0
3DFACE
  5
F4C
330
2
100
AcDbEntity
  8
0Hatch
100
AcDbFace
 10
-30961.93886549547
 20
18448.58629102125
 30
0.0
 11
-30950.1294597552
 21
18487.51668445702
 31
0.0
 12
-31007.01309122922
 22
18411.18615482403
 32
0.0
 13
-31007.01309122922
 23
18411.18615482403
 33
0.0
 70
    14
  0
3DFACE
  5
F4D
330
2
100
AcDbEntity
  8
0Hatch
100
AcDbFace
 10
-31007.01309122922
 20
18411.18615482403
 30
0.0
 11
-30950.1294597552
 21
18487.51668445702
 31
0.0
 12
-30948.29309565515
 22
18498.19984699912
 32
0.0
 13
-30984.4515711704
 23
18447.09260830387
 33
0.0
 70
     5
  0
3DFACE
  5
F4E
330
2
100
AcDbEntity
  8
0Hatch
100
AcDbFace
 10
-30948.29309565515
 20
18498.19984699912
 30
0.0
 11
-30970.4456530872
 21
18487.11922254379
 31
0.0
 12
-30984.4515711704
 22
18447.09260830387
 32
0.0
 13
-30984.4515711704
 23
18447.09260830387
 33
0.0
 70
    13
  0
3DFACE
  5
F4F
330
2
100
AcDbEntity
  8
0Hatch
100
AcDbFace
 10
-30948.29309565515
 20
18498.19984699912
 30
0.0
 11
-30968.29309565515
 21
18498.01337541975
 31
0.0
 12
-30970.4456530872
 22
18487.11922254379
 32
0.0
 13
-30970.4456530872
 23
18487.11922254379
 33
0.0
 70
    13
  0
3DFACE
  5
F50
330
2
100
AcDbEntity
  8
0Hatch
100
AcDbFace
 10
-30968.29309565515
 20
18498.01337541975
 30
0.0
 11
-30948.29309565515
 21
18498.19984699912
 31
0.0
 12
-30948.29309565515
 22
18676.19984699912
 32
0.0
 13
-30968.29309565515
 23
18676.19984699912
 33
0.0
 70
     1
  0
LINE
  5
F51
330
2
100
AcDbEntity
  8
0Hatch
100
AcDbLine
 10
-30363.68970313351
 20
19896.19984699912
 30
0.0
 11
-30363.68970313351
 21
19876.19984699914
 31
0.0
  0
ARC
  5
F52
330
2
100
AcDbEntity
  8
0Hatch
100
AcDbCircle
 10
-30603.68970313351
 20
19896.19984699912
 30
0.0
 40
240.0
100
AcDbArc
 50
0.000000000000007
 51
90.0
  0
LINE
  5
F53
330
2
100
AcDbEntity
  8
0Hatch
100
AcDbLine
 10
-30945.68970313351
 20
20136.19984699912
 30
0.0
 11
-30603.68970313351
 21
20136.19984699912
 31
0.0
  0
ARC
  5
F54
330
2
100
AcDbEntity
  8
0Hatch
100
AcDbCircle
 10
-30945.9938436512
 20
19896.50398751681
 30
0.0
 40
239.6960524381183
100
AcDbArc
 50
89.92729970960187
 51
180.0727002908147
  0
LINE
  5
F55
330
2
100
AcDbEntity
  8
0Hatch
100
AcDbLine
 10
-31185.68970313351
 20
19876.19984699912
 30
0.0
 11
-31185.68970313351
 21
19896.19984699912
 31
0.0
  0
LINE
  5
F56
330
2
100
AcDbEntity
  8
0Hatch
100
AcDbLine
 10
-30333.68970313351
 20
19896.19984699912
 30
0.0
 11
-30333.68970313351
 21
19876.19984699912
 31
0.0
  0
ARC
  5
F57
330
2
100
AcDbEntity
  8
0Hatch
100
AcDbCircle
 10
-30603.68970313351
 20
19896.19984699912
 30
0.0
 40
270.0000000000004
100
AcDbArc
 50
0.000000000000007
 51
90.0
  0
LINE
  5
F58
330
2
100
AcDbEntity
  8
0Hatch
100
AcDbLine
 10
-30945.68970313351
 20
20166.19984699912
 30
0.0
 11
-30603.68970313351
 21
20166.19984699912
 31
0.0
  0
ARC
  5
F59
330
2
100
AcDbEntity
  8
0Hatch
100
AcDbCircle
 10
-30946.5605113002
 20
19897.07065516581
 30
0.0
 40
269.1306006453258
100
AcDbArc
 50
89.81461149542093
 51
180.1853885054121
  0
LINE
  5
F5A
330
2
100
AcDbEntity
  8
0Hatch
100
AcDbLine
 10
-31215.68970313351
 20
19876.19984699912
 30
0.0
 11
-31215.68970313351
 21
19896.19984699912
 31
0.0
  0
LINE
  5
F5B
330
2
100
AcDbEntity
  8
0Hatch
100
AcDbLine
 10
-30303.68970313351
 20
19896.19984699912
 30
0.0
 11
-30303.68970313351
 21
19876.19984699912
 31
0.0
  0
ARC
  5
F5C
330
2
100
AcDbEntity
  8
0Hatch
100
AcDbCircle
 10
-30603.68970313351
 20
19896.19984699912
 30
0.0
 40
299.9999999999992
100
AcDbArc
 50
0.000000000000007
 51
90.0
  0
LINE
  5
F5D
330
2
100
AcDbEntity
  8
0Hatch
100
AcDbLine
 10
-30945.68970313351
 20
20196.19984699912
 30
0.0
 11
-30603.68970313351
 21
20196.19984699912
 31
0.0
  0
ARC
  5
F5E
330
2
100
AcDbEntity
  8
0Hatch
100
AcDbCircle
 10
-30945.8909135815
 20
19896.40105744711
 30
0.0
 40
299.7988570733683
100
AcDbArc
 50
89.96154584949175
 51
180.0384541502997
  0
LINE
  5
F5F
330
2
100
AcDbEntity
  8
0Hatch
100
AcDbLine
 10
-31245.68970313351
 20
19876.19984699912
 30
0.0
 11
-31245.68970313351
 21
19896.19984699912
 31
0.0
  0
LINE
  5
F60
330
2
100
AcDbEntity
  8
0Hatch
100
AcDbLine
 10
-30289.68970313351
 20
18368.19984699912
 30
0.0
 11
-30678.68970313352
 21
18368.19984699912
 31
0.0
  0
LINE
  5
F61
330
2
100
AcDbEntity
  8
0Hatch
100
AcDbLine
 10
-30289.68970313351
 20
18268.19984699912
 30
0.0
 11
-30289.68970313351
 21
18468.19984699912
 31
0.0
  0
LINE
  5
F62
330
2
100
AcDbEntity
  8
0Hatch
100
AcDbLine
 10
-30678.68970313352
 20
18268.19984699912
 30
0.0
 11
-30289.68970313351
 21
18268.19984699912
 31
0.0
  0
LINE
  5
F63
330
2
100
AcDbEntity
  8
0Hatch
100
AcDbLine
 10
-30678.68970313352
 20
18268.19984699912
 30
0.0
 11
-30678.68970313352
 21
18468.19984699912
 31
0.0
  0
LINE
  5
F64
330
2
100
AcDbEntity
  8
0Hatch
100
AcDbLine
 10
-30948.29309565515
 20
18498.19984699913
 30
0.0
 11
-30948.29309565515
 21
18676.19984699912
 31
0.0
  0
LINE
  5
F65
330
2
100
AcDbEntity
  8
0Hatch
100
AcDbLine
 10
-30956.03416262533
 20
18468.05148773913
 30
0.0
 11
-30948.29309565515
 21
18498.19984699913
 31
0.0
  0
LINE
  5
F66
102
{ACAD_REACTORS
330
F8A
102
}
330
2
100
AcDbEntity
  8
0Hatch
100
AcDbLine
 10
-30678.68970313351
 20
18468.19984699912
 30
0.0
 11
-30956.03416262533
 21
18468.05148773913
 31
0.0
  0
LINE
  5
F67
330
2
100
AcDbEntity
  8
0Hatch
100
AcDbLine
 10
-30966.57853988682
 20
18438.19984699912
 30
0.0
 11
-30956.03416262533
 21
18468.05148773913
 31
0.0
  0
LINE
  5
F68
330
2
100
AcDbEntity
  8
0Hatch
100
AcDbLine
 10
-30678.68970313351
 20
18438.19984699912
 30
0.0
 11
-30966.57853988682
 21
18438.19984699912
 31
0.0
  0
LINE
  5
F69
330
2
100
AcDbEntity
  8
A-Widok-G
370
     9
100
AcDbLine
 10
-30678.68970249435
 20
18468.20350724097
 30
0.0
 11
-30678.68970313351
 21
18438.19984699912
 31
0.0
  0
LINE
  5
F6A
330
2
100
AcDbEntity
  8
0Hatch
100
AcDbLine
 10
-30956.03416262533
 20
18468.05148773913
 30
0.0
 11
-30678.68970249435
 21
18468.20350724097
 31
0.0
  0
LINE
  5
F6B
330
2
100
AcDbEntity
  8
0Hatch
100
AcDbLine
 10
-30984.21515395877
 20
18408.19984699912
 30
0.0
 11
-30966.57853988682
 21
18438.19984699912
 31
0.0
  0
LINE
  5
F6C
330
2
100
AcDbEntity
  8
0Hatch
100
AcDbLine
 10
-30678.68970313352
 20
18408.19984699912
 30
0.0
 11
-30984.21515395877
 21
18408.19984699912
 31
0.0
  0
LINE
  5
F6D
330
2
100
AcDbEntity
  8
A-Widok-G
370
     9
100
AcDbLine
 10
-30286.68970313351
 20
19106.7090735605
 30
0.0
 11
-30289.68970313351
 21
19106.7090735605
 31
0.0
  0
LINE
  5
F6E
330
2
100
AcDbEntity
  8
0Hatch
100
AcDbLine
 10
-30724.68970313351
 20
18676.19984699912
 30
0.0
 11
-30724.68970313351
 21
18736.1998469991
 31
0.0
  0
LINE
  5
F6F
330
2
100
AcDbEntity
  8
0Hatch
100
AcDbLine
 10
-30824.68970313351
 20
18736.1998469991
 30
0.0
 11
-30824.68970313351
 21
18676.19984699912
 31
0.0
  0
LINE
  5
F70
330
2
100
AcDbEntity
  8
0Hatch
100
AcDbLine
 10
-30361.68970313352
 20
18468.19984699912
 30
0.0
 11
-30361.68970313351
 21
18528.19984699912
 31
0.0
  0
LINE
  5
F71
330
2
100
AcDbEntity
  8
0Hatch
100
AcDbLine
 10
-30601.68970313351
 20
18528.19984699912
 30
0.0
 11
-30601.68970313351
 21
18468.19984699913
 31
0.0
  0
HATCH
  5
F72
330
2
100
AcDbEntity
  8
0Hatch
100
AcDbHatch
 10
0.0
 20
0.0
 30
0.0
210
0.0
220
0.0
230
1.0
  2
SOLID
 70
     1
 71
     1
 91
        3
 92
        7
 72
     1
 73
     1
 93
        2
 10
-30433.68970313351
 20
20004.69984699912
 42
1.0
 10
-30468.68970313351
 20
20004.69984699912
 42
1.0
 97
        1
330
F74
 92
        7
 72
     1
 73
     1
 93
        2
 10
-30757.18970313351
 20
20004.69984699912
 42
1.0
 10
-30792.18970313351
 20
20004.69984699912
 42
1.0
 97
        1
330
F73
 92
        7
 72
     1
 73
     1
 93
        2
 10
-31080.68970313351
 20
20004.69984699912
 42
1.0
 10
-31115.68970313351
 20
20004.69984699912
 42
1.0
 97
        1
330
F75
 75
     0
 76
     1
 47
0.5041591787492836
 98
        3
 10
-30459.60466947024
 20
20005.05177381451
 10
-30775.5803214216
 20
19999.28619668284
 10
-31098.19638296982
 20
19997.93001657622
1001
ACAD
1010
0.0
1020
0.0
1030
0.0
  0
CIRCLE
  5
F73
102
{ACAD_REACTORS
330
F72
102
}
330
2
100
AcDbEntity
  8
0Hatch
100
AcDbCircle
 10
-30774.68970313351
 20
20004.69984699912
 30
0.0
 40
17.5
  0
CIRCLE
  5
F74
102
{ACAD_REACTORS
330
F72
102
}
330
2
100
AcDbEntity
  8
0Hatch
100
AcDbCircle
 10
30451.18970313351
 20
20004.69984699912
 30
0.0
 40
17.5
210
0.0
220
0.0
230
-1.0
  0
CIRCLE
  5
F75
102
{ACAD_REACTORS
330
F72
102
}
330
2
100
AcDbEntity
  8
0Hatch
100
AcDbCircle
 10
-31098.18970313351
 20
20004.69984699912
 30
0.0
 40
17.5
  0
CIRCLE
  5
F76
102
{ACAD_REACTORS
330
1036
102
}
330
2
100
AcDbEntity
  8
0Hatch
100
AcDbCircle
 10
30922.18970313351
 20
18508.69984699912
 30
0.0
 40
17.5
210
0.0
220
0.0
230
-1.0
  0
LWPOLYLINE
  5
F77
330
2
100
AcDbEntity
  8
0Hatch
100
AcDbPolyline
 90
       10
 70
     1
 43
0.0
 10
-31199.68970313351
 20
19816.19984699912
 10
-31199.68970313351
 20
19418.99270432418
 10
-31299.58970313351
 20
19319.09270432418
 10
-31299.58970313351
 20
19168.79833180896
 10
-31199.68970313352
 20
19068.89833180897
 10
-31199.68970313351
 20
18736.19984699912
 10
-30618.68970313351
 20
18736.19984699909
 10
-30618.68970313352
 20
18528.19984699912
 10
-30349.68970313351
 20
18528.19984699912
 10
-30349.68970313351
 20
19816.19984699912
  0
LWPOLYLINE
  5
F78
102
{ACAD_REACTORS
330
F81
330
F84
330
F8A
330
F87
102
}
330
2
100
AcDbEntity
  8
0Hatch
100
AcDbPolyline
 90
       10
 70
     1
 43
0.0
 10
-31259.68970313351
 20
19876.19984699912
 10
-31259.68970313351
 20
19444.19984699912
 10
-31359.58970313351
 20
19343.94551806656
 10
-31359.58970313351
 20
19143.94551806657
 10
-31259.68970313352
 20
19044.19984699912
 10
-31259.68970313351
 20
18676.19984699912
 10
-30678.68970313351
 20
18676.1998469991
 10
-30678.68970313352
 20
18468.19984699912
 10
-30289.68970313351
 20
18468.19984699912
 10
-30289.68970313351
 20
19876.19984699912
  0
DIMENSION
  5
F79
330
2
100
AcDbEntity
  8
0Wymiary-PL
100
AcDbDimension
  2
*D96
 10
-31259.68970313351
 20
20326.19984699912
 30
0.0
 11
-30774.68970313351
 21
20406.19984699912
 31
0.0
 70
    32
 71
     5
 42
970.0
  3
500
100
AcDbAlignedDimension
 13
-30289.68970313351
 23
20326.19984699912
 33
0.0
 14
-31259.68970313351
 24
19876.19984699912
 34
0.0
 50
180.0
100
AcDbRotatedDimension
  0
DIMENSION
  5
F7A
330
2
100
AcDbEntity
  8
0Wymiary-PL
100
AcDbDimension
  2
*D97
 10
-29839.68970313351
 20
18468.19984699912
 30
0.0
 11
-29919.68970313351
 21
19172.19984699912
 31
0.0
 70
    32
 71
     5
 42
1407.999999999996
  3
500
100
AcDbAlignedDimension
 13
-30289.68970313351
 23
19876.19984699912
 33
0.0
 14
-29839.68970313351
 24
18468.19984699912
 34
0.0
 50
90.0
100
AcDbRotatedDimension
  0
DIMENSION
  5
F7B
330
2
100
AcDbEntity
  8
0Wymiary-PL
100
AcDbDimension
  2
*D98
 10
-30678.68970249423
 20
18018.19984699947
 30
0.0
 11
-30484.18970281387
 21
18098.19984699947
 31
0.0
 70
    32
 71
     5
 42
388.9999993607198
  3
500
100
AcDbAlignedDimension
 13
-30289.68970313351
 23
18018.19984699912
 33
0.0
 14
-30678.68970249423
 24
18018.19984699947
 34
0.0
 50
180.0
100
AcDbRotatedDimension
  0
DIMENSION
  5
F7C
330
2
100
AcDbEntity
  8
0Wymiary-PL
100
AcDbDimension
  2
*D99
 10
-31259.68970313351
 20
18018.19984699947
 30
0.0
 11
-30969.18970281387
 21
18098.19984699947
 31
0.0
 70
    32
 71
     5
 42
581.0000006392802
  3
500
100
AcDbAlignedDimension
 13
-30678.68970249423
 23
18018.19984699947
 33
0.0
 14
-31259.68970313351
 24
18226.19984699912
 34
0.0
 50
180.0
100
AcDbRotatedDimension
  0
DIMENSION
  5
F7D
330
2
100
AcDbEntity
  8
0Wymiary-PL
100
AcDbDimension
  2
*D100
 10
-31359.58970313351
 20
18018.19984699947
 30
0.0
 11
-31309.63970313351
 21
18098.19984699947
 31
0.0
 70
    32
 71
     5
 42
99.90000000000145
  3
500
100
AcDbAlignedDimension
 13
-31259.68970313351
 23
18226.19984699912
 33
0.0
 14
-31359.58970313351
 24
18693.94551806657
 34
0.0
 50
180.0
100
AcDbRotatedDimension
  0
LWPOLYLINE
  5
F7E
330
2
100
AcDbEntity
  8
0Hatch
100
AcDbPolyline
 90
        4
 70
     0
 43
0.0
 10
-30601.68970313351
 20
18498.19984699912
 10
-30648.68970313352
 20
18498.19984699912
 10
-30648.68970313351
 20
18706.1998469991
 10
-30724.68970313351
 20
18706.19984699911
  0
DIMENSION
  5
F7F
102
{ACAD_XDICTIONARY
360
F80
102
}
102
{ACAD_REACTORS
330
F81
102
}
330
2
100
AcDbEntity
  8
0Wymiary-PL
100
AcDbDimension
  2
*D101
 10
-31709.68970313351
 20
19444.19984699912
 30
0.0
 11
-31789.68970313352
 21
19660.19984699912
 31
0.0
 70
    32
 71
     5
 42
431.9999999999963
  3
500
100
AcDbAlignedDimension
 13
-31709.68970313351
 23
19876.19984699912
 33
0.0
 14
-31259.68970313351
 24
19444.19984699912
 34
0.0
 50
90.0
100
AcDbRotatedDimension
  0
DIMENSION
  5
F82
102
{ACAD_XDICTIONARY
360
F83
102
}
102
{ACAD_REACTORS
330
F84
102
}
330
2
100
AcDbEntity
  8
0Wymiary-PL
100
AcDbDimension
  2
*D102
 10
-31709.68970313351
 20
19044.19984699912
 30
0.0
 11
-31789.68970313352
 21
19244.19984699912
 31
0.0
 70
    32
 71
     5
 42
400.0
  3
500
100
AcDbAlignedDimension
 13
-31259.68970313351
 23
19444.19984699912
 33
0.0
 14
-31259.68970313352
 24
19044.19984699912
 34
0.0
 50
90.0
100
AcDbRotatedDimension
  0
DIMENSION
  5
F85
102
{ACAD_XDICTIONARY
360
F86
102
}
102
{ACAD_REACTORS
330
F87
102
}
330
2
100
AcDbEntity
  8
0Wymiary-PL
100
AcDbDimension
  2
*D103
 10
-31709.68970313351
 20
18676.19984699912
 30
0.0
 11
-31789.68970313352
 21
18860.19984699912
 31
0.0
 70
    32
 71
     5
 42
368.0000000000037
  3
500
100
AcDbAlignedDimension
 13
-31259.68970313352
 23
19044.19984699912
 33
0.0
 14
-31259.68970313351
 24
18676.19984699912
 34
0.0
 50
90.0
100
AcDbRotatedDimension
  0
DIMENSION
  5
F88
102
{ACAD_XDICTIONARY
360
F89
102
}
102
{ACAD_REACTORS
330
F8A
102
}
330
2
100
AcDbEntity
  8
0Wymiary-PL
100
AcDbDimension
  2
*D104
 10
-31709.68970313351
 20
18468.19984699912
 30
0.0
 11
-31789.68970313351
 21
18572.19984699917
 31
0.0
 70
    32
 71
     5
 42
208.0000000001128
  3
500
100
AcDbAlignedDimension
 13
-34971.70583019484
 23
18676.19984699923
 33
0.0
 14
-30678.68970314032
 24
18468.19984699912
 34
0.0
 50
90.0
100
AcDbRotatedDimension
  0
LWPOLYLINE
  5
F8B
330
2
100
AcDbEntity
  8
0Hatch
100
AcDbPolyline
 90
       10
 70
     0
 43
60.0
 10
-30824.68970313351
 20
18706.19984699911
 10
-31229.68970313351
 20
18706.19984699911
 10
-31229.68970313352
 20
19056.47192493778
 10
-31329.58970313351
 20
19156.37192493777
 10
-31329.58970313351
 20
19331.51911119537
 10
-31229.68970313351
 20
19431.41911119537
 10
-31229.68970313351
 20
19846.19984699912
 10
-30319.68970313351
 20
19846.19984699912
 10
-30319.68970313351
 20
18498.19984699912
 10
-30361.68970313351
 20
18498.19984699913
  0
LWPOLYLINE
  5
F8C
330
2
100
AcDbEntity
  8
0Hatch
100
AcDbPolyline
 90
        4
 70
     0
 43
60.0
 10
-30601.68970313351
 20
18498.19984699913
 10
-30648.68970313352
 20
18498.19984699913
 10
-30648.68970313351
 20
18706.1998469991
 10
-30724.68970313351
 20
18706.1998469991
  0
HATCH
  5
1036
330
2
100
AcDbEntity
  8
0Hatch
100
AcDbHatch
 10
0.0
 20
0.0
 30
0.0
210
0.0
220
0.0
230
1.0
  2
SOLID
 70
     1
 71
     1
 91
        2
 92
        7
 72
     1
 73
     1
 93
        2
 10
-30904.68970313351
 20
18508.69984699912
 42
1.0
 10
-30939.68970313351
 20
18508.69984699912
 42
1.0
 97
        1
330
F76
 92
        7
 72
     1
 73
     1
 93
        2
 10
-34745.70583020165
 20
18508.69984699912
 42
1.0
 10
-34710.70583020166
 20
18508.69984699912
 42
1.0
 97
        1
330
81B
 75
     0
 76
     1
 47
0.6190499783626774
 98
        2
 10
-30923.1065323068
 20
18506.79449467658
 10
-34720.68730254487
 20
18508.13629275978
1001
ACAD
1010
0.0
1020
0.0
1030
0.0
  0
ENDSEC
  0
SECTION
  2
OBJECTS
  0
DICTIONARY
  5
9
330
0
100
AcDbDictionary
281
     1
  3
ACAD_COLOR
350
56
  3
ACAD_GROUP
350
51
  3
ACAD_LAYOUT
350
10
  3
ACAD_MATERIAL
350
B
  3
ACAD_MLEADERSTYLE
350
22D
  3
ACAD_MLINESTYLE
350
52
  3
ACAD_PLOTSETTINGS
350
53
  3
ACAD_PLOTSTYLENAME
350
8
  3
ACAD_SCALELIST
350
57
  3
ACAD_TABLESTYLE
350
58
  3
ACAD_VISUALSTYLE
350
2A
  3
ACDB_RECOMPOSE_DATA
350
219
  3
AcDbVariableDictionary
350
21A
  3
AEC_PROPERTY_SET_DEFS
350
3FD
  3
DWGPROPS
350
1042
  0
DICTIONARY
  5
2B
330
27
100
AcDbDictionary
280
     1
281
     1
  0
DICTIONARY
  5
1A
330
19
100
AcDbDictionary
280
     1
281
     1
  3
ACAD_LAYERFILTERS
360
1B
  3
ACAD_LAYERSTATES
360
1C
  3
ACLYDICTIONARY
360
1D
  0
DICTIONARY
  5
238
330
6
100
AcDbDictionary
280
     1
281
     1
  3
ADSK_XREC_LAYER_RECONCILED
360
239
  0
DICTIONARY
  5
23C
330
CF
100
AcDbDictionary
280
     1
281
     1
  3
ADSK_XREC_LAYER_RECONCILED
360
23D
  0
DICTIONARY
  5
23E
330
59
100
AcDbDictionary
280
     1
281
     1
  3
ADSK_XREC_LAYER_RECONCILED
360
23F
  0
DICTIONARY
  5
240
330
E0
100
AcDbDictionary
280
     1
281
     1
  3
ADSK_XREC_LAYER_RECONCILED
360
241
  0
DICTIONARY
  5
242
330
87
100
AcDbDictionary
280
     1
281
     1
  3
ADSK_XREC_LAYER_RECONCILED
360
243
  0
DICTIONARY
  5
244
330
38
100
AcDbDictionary
280
     1
281
     1
  3
ADSK_XREC_LAYER_RECONCILED
360
245
  0
DICTIONARY
  5
248
330
D2
100
AcDbDictionary
280
     1
281
     1
  3
ADSK_XREC_LAYER_RECONCILED
360
249
  0
DICTIONARY
  5
3
330
2
100
AcDbDictionary
280
     1
281
     1
  3
ACAD_SORTENTS
360
213
  0
DICTIONARY
  5
13
330
12
100
AcDbDictionary
280
     1
281
     1
  0
DICTIONARY
  5
3C
330
3B
100
AcDbDictionary
280
     1
281
     1
  3
ACAD_SORTENTS
360
212
  0
DICTIONARY
  5
953
330
948
100
AcDbDictionary
280
     1
281
     1
  3
ACAD_DIMASSOC
360
95B
  0
DICTIONARY
  5
96E
330
963
100
AcDbDictionary
280
     1
281
     1
  3
ACAD_DIMASSOC
360
976
  0
DICTIONARY
  5
982
330
977
100
AcDbDictionary
280
     1
281
     1
  3
ACAD_DIMASSOC
360
98A
  0
DICTIONARY
  5
996
330
98B
100
AcDbDictionary
280
     1
281
     1
  3
ACAD_DIMASSOC
360
99E
  0
DICTIONARY
  5
F80
330
F7F
100
AcDbDictionary
280
     1
281
     1
  3
ACAD_DIMASSOC
360
F81
  0
DICTIONARY
  5
F83
330
F82
100
AcDbDictionary
280
     1
281
     1
  3
ACAD_DIMASSOC
360
F84
  0
DICTIONARY
  5
F86
330
F85
100
AcDbDictionary
280
     1
281
     1
  3
ACAD_DIMASSOC
360
F87
  0
DICTIONARY
  5
F89
330
F88
100
AcDbDictionary
280
     1
281
     1
  3
ACAD_DIMASSOC
360
F8A
  0
DICTIONARY
  5
56
102
{ACAD_REACTORS
330
9
102
}
330
9
100
AcDbDictionary
281
     1
  0
DICTIONARY
  5
51
102
{ACAD_REACTORS
330
9
102
}
330
9
100
AcDbDictionary
281
     1
  0
DICTIONARY
  5
10
102
{ACAD_REACTORS
330
9
102
}
330
9
100
AcDbDictionary
281
     1
  3
Model
350
F
  3
Sytuacja
350
16
  0
DICTIONARY
  5
B
102
{ACAD_REACTORS
330
9
102
}
330
9
100
AcDbDictionary
281
     1
  3
ByBlock
350
55
  3
ByLayer
350
54
  3
Global
350
A
  0
DICTIONARY
  5
22D
102
{ACAD_REACTORS
330
9
102
}
330
9
100
AcDbDictionary
281
     1
  3
Standard
350
22E
  0
DICTIONARY
  5
52
102
{ACAD_REACTORS
330
9
102
}
330
9
100
AcDbDictionary
281
     1
  3
Standard
350
5A
  0
DICTIONARY
  5
53
102
{ACAD_REACTORS
330
9
102
}
330
9
100
AcDbDictionary
281
     1
  0
ACDBDICTIONARYWDFLT
  5
8
102
{ACAD_REACTORS
330
9
102
}
330
9
100
AcDbDictionary
281
     1
  3
Normal
350
7
100
AcDbDictionaryWithDefault
340
7
  0
DICTIONARY
  5
57
102
{ACAD_REACTORS
330
9
102
}
330
9
100
AcDbDictionary
281
     1
  3
*A1
350
5E
  3
*A10
350
363
  3
*A11
350
364
  3
*A12
350
365
  3
*A13
350
366
  3
*A14
350
367
  3
*A15
350
749
  3
*A16
350
74A
  3
*A17
350
74B
  3
*A18
350
74C
  3
*A19
350
74D
  3
*A2
350
368
  3
*A20
350
74E
  3
*A21
350
74F
  3
*A22
350
750
  3
*A23
350
751
  3
*A24
350
752
  3
*A25
350
753
  3
*A26
350
754
  3
*A27
350
755
  3
*A28
350
756
  3
*A29
350
757
  3
*A3
350
369
  3
*A30
350
758
  3
*A31
350
759
  3
*A32
350
75A
  3
*A33
350
75B
  3
*A34
350
75C
  3
*A35
350
75D
  3
*A4
350
5F
  3
*A5
350
60
  3
*A6
350
61
  3
*A7
350
62
  3
*A8
350
63
  3
*A9
350
64
  3
A0
350
65
  3
A1
350
66
  3
A2
350
67
  3
A3
350
68
  3
A4
350
69
  3
A5
350
6A
  3
A6
350
6B
  3
A7
350
6C
  3
A8
350
6D
  3
A9
350
6E
  3
B0
350
6F
  3
B1
350
70
  3
B2
350
71
  3
B3
350
72
  3
B4
350
73
  3
B5
350
74
  3
B6
350
75
  3
B7
350
76
  3
B8
350
77
  3
B9
350
78
  3
C0
350
79
  3
C1
350
7A
  3
C2
350
7B
  3
C3
350
7C
  3
C4
350
7D
  3
C5
350
7E
  3
C6
350
7F
  3
C7
350
80
  3
C8
350
81
  3
C9
350
82
  3
D0
350
83
  3
D1
350
84
  3
D2
350
85
  0
DICTIONARY
  5
58
102
{ACAD_REACTORS
330
9
102
}
330
9
100
AcDbDictionary
281
     1
  3
Standard
350
5B
  0
DICTIONARY
  5
2A
102
{ACAD_REACTORS
330
9
102
}
330
9
100
AcDbDictionary
281
     1
  3
2dWireframe
350
29
  3
3D Hidden
350
225
  3
3dWireframe
350
5D
  3
Basic
350
224
  3
Brighten
350
228
  3
ColorChange
350
22C
  3
Conceptual
350
226
  3
Dim
350
227
  3
Facepattern
350
22B
  3
Flat
350
220
  3
FlatWithEdges
350
221
  3
Gouraud
350
222
  3
GouraudWithEdges
350
223
  3
Linepattern
350
22A
  3
Phong
350
236
  3
PhongWithEdges
350
237
  3
Realistic
350
5C
  3
Thicken
350
229
  0
XRECORD
  5
219
102
{ACAD_REACTORS
330
9
102
}
330
9
100
AcDbXrecord
280
     1
 90
        1
330
5B
  0
DICTIONARY
  5
21A
102
{ACAD_REACTORS
330
9
102
}
330
9
100
AcDbDictionary
281
     1
  3
CANNOSCALE
350
21D
  3
CMLEADERSTYLE
350
21C
  3
CTABLESTYLE
350
21B
  3
DIMASSOC
350
716
  3
HIDETEXT
350
715
  3
INDEXCTL
350
714
  3
LIGHTINGUNITS
350
21E
  3
MSLTSCALE
350
712
  3
SORTENTS
350
713
  0
DICTIONARY
  5
3FD
102
{ACAD_REACTORS
330
9
102
}
330
9
100
AcDbDictionary
281
     1
  0
XRECORD
  5
1042
102
{ACAD_REACTORS
330
9
102
}
330
9
100
AcDbXrecord
280
     1
  1
DWGPROPS COOKIE
  2

  3

  4

  6

  7

  8
beata.rzonca
  9

300
=
301
=
302
=
303
=
304
=
305
=
306
=
307
=
308
=
309
=
 40
8.395809525462963
 41
2453080.724599746
 42
2454958.63935691
  1

 90
        0
  0
DICTIONARY
  5
1B
102
{ACAD_REACTORS
330
1A
102
}
330
1A
100
AcDbDictionary
281
     1
  0
DICTIONARY
  5
1C
102
{ACAD_REACTORS
330
1A
102
}
330
1A
100
AcDbDictionary
281
     1
  0
DICTIONARY
  5
1D
102
{ACAD_REACTORS
330
1A
102
}
330
1A
100
AcDbDictionary
281
     1
1001
ACAD
1000
<AllUsed
  0
XRECORD
  5
239
102
{ACAD_REACTORS
330
238
102
}
330
238
100
AcDbXrecord
280
     1
290
     1
  0
XRECORD
  5
23D
102
{ACAD_REACTORS
330
23C
102
}
330
23C
100
AcDbXrecord
280
     1
290
     1
  0
XRECORD
  5
23F
102
{ACAD_REACTORS
330
23E
102
}
330
23E
100
AcDbXrecord
280
     1
290
     1
  0
XRECORD
  5
241
102
{ACAD_REACTORS
330
240
102
}
330
240
100
AcDbXrecord
280
     1
290
     1
  0
XRECORD
  5
243
102
{ACAD_REACTORS
330
242
102
}
330
242
100
AcDbXrecord
280
     1
290
     1
  0
XRECORD
  5
245
102
{ACAD_REACTORS
330
244
102
}
330
244
100
AcDbXrecord
280
     1
290
     1
  0
XRECORD
  5
249
102
{ACAD_REACTORS
330
248
102
}
330
248
100
AcDbXrecord
280
     1
290
     1
  0
SORTENTSTABLE
  5
213
102
{ACAD_REACTORS
330
3
102
}
330
3
100
AcDbSortentsTable
330
2
331
F42
  5
F43
331
F7E
  5
F7F
331
F64
  5
F65
331
81A
  5
919
331
7F8
  5
7F8
331
F75
  5
F76
331
F53
  5
F54
331
84D
  5
93E
331
7EF
  5
7EF
331
7DE
  5
7DE
331
7CD
  5
7CD
331
F40
  5
F41
331
F7C
  5
F7D
331
F62
  5
F63
331
818
  5
917
331
F73
  5
F74
331
F51
  5
F52
331
807
  5
808
331
7ED
  5
7ED
331
7DC
  5
7DC
331
F7A
  5
F7B
331
F60
  5
F61
331
F8B
  5
F8C
331
F71
  5
F72
331
F4F
  5
F50
331
93F
  5
963
331
805
  5
806
331
7EB
  5
7EB
331
F3E
  5
F3F
331
7DA
  5
7DA
331
F78
  5
F79
331
7E9
  5
7E9
331
F4D
  5
F4E
331
803
  5
804
331
F6F
  5
F70
331
8A5
  5
948
331
93D
  5
925
331
F3C
  5
F3D
331
7D8
  5
7D8
331
F5E
  5
F5F
331
814
  5
81D
331
DF
  5
DF
331
CE
  5
CE
331
F6D
  5
F6E
331
F4B
  5
F4C
331
801
  5
802
331
F5C
  5
F5D
331
F3A
  5
F3B
331
977
  5
AF9
331
7D6
  5
7D6
331
7E7
  5
7E7
331
7E5
  5
7E5
331
F85
  5
F88
331
F6B
  5
F6C
331
F49
  5
F4A
331
7FF
  5
800
331
F38
  5
F39
331
7F6
  5
7F6
331
F5A
  5
F5B
331
810
  5
818
331
7D4
  5
7D4
331
948
  5
977
331
F47
  5
F48
331
1036
  5
91D
331
F69
  5
F6A
331
81F
  5
924
331
87D
  5
93F
331
7FD
  5
7FD
331
F36
  5
F37
331
F58
  5
F59
331
80E
  5
816
331
7F4
  5
7F4
331
7D2
  5
7D2
331
7E3
  5
7E3
331
7E1
  5
7E1
331
F67
  5
F68
331
F45
  5
F46
331
7FB
  5
7FB
331
F56
  5
F57
331
F34
  5
F35
331
7F2
  5
7F2
331
7D0
  5
7D0
331
F43
  5
F44
331
F65
  5
F66
331
81B
  5
91F
331
7F9
  5
7F9
331
F7F
  5
F82
331
7CE
  5
7CE
331
F32
  5
F33
331
F76
  5
F77
331
F54
  5
F55
331
AFA
  5
AFB
331
7F0
  5
7F0
331
7DF
  5
7DF
331
E6
  5
E6
331
F41
  5
F42
331
F63
  5
F64
331
819
  5
918
331
F7D
  5
F7E
331
7CC
  5
7CC
331
F74
  5
F75
331
F52
  5
F53
331
7DD
  5
7DD
331
7EE
  5
7EE
331
E4
  5
E4
331
F61
  5
F62
331
839
  5
93D
331
F7B
  5
F7C
331
F50
  5
F51
331
806
  5
807
331
7EC
  5
7EC
331
E2
  5
E2
331
F8C
  5
102B
331
F72
  5
F73
331
F3F
  5
F40
331
7DB
  5
7DB
331
D1
  5
D1
331
F79
  5
F7A
331
98B
  5
AFA
331
F70
  5
F71
331
F4E
  5
F4F
331
804
  5
805
331
7EA
  5
7EA
331
F5F
  5
F60
331
F3D
  5
F3E
331
7D9
  5
7D9
331
7E8
  5
7E8
331
F88
  5
F8B
331
F6E
  5
F6F
331
F4C
  5
F4D
331
802
  5
803
331
F3B
  5
F3C
331
F5D
  5
F5E
331
813
  5
81B
331
7D7
  5
7D7
331
891
  5
940
331
F6C
  5
F6D
331
F4A
  5
F4B
331
800
  5
801
331
F5B
  5
F5C
331
F39
  5
F3A
331
7F7
  5
7F7
331
7D5
  5
7D5
331
7E6
  5
7E6
331
963
  5
98B
331
F6A
  5
F6B
331
F48
  5
F49
331
7E4
  5
7E4
331
F59
  5
F5A
331
F37
  5
F38
331
7F5
  5
7F5
331
7D3
  5
7D3
331
7E2
  5
7E2
331
F82
  5
F85
331
F68
  5
F69
331
F46
  5
F47
331
7FC
  5
7FC
331
F57
  5
F58
331
F35
  5
F36
331
947
  5
8A5
331
7F3
  5
7F3
331
7D1
  5
7D1
331
7E0
  5
7E0
331
F66
  5
F67
331
F44
  5
F45
331
7FA
  5
7FA
331
F33
  5
F34
331
AFB
  5
F32
331
F77
  5
F78
331
F55
  5
F56
331
80B
  5
80E
331
7F1
  5
7F1
331
7CF
  5
7CF
  0
SORTENTSTABLE
  5
212
102
{ACAD_REACTORS
330
3C
102
}
330
3C
100
AcDbSortentsTable
330
3B
  0
DIMASSOC
  5
95B
102
{ACAD_REACTORS
330
953
102
}
330
953
100
AcDbDimAssoc
330
948
 90
        2
 70
     0
 71
     0
  1
AcDbOsnapPointRef
 72
     1
331
93D
 73
     2
 91
        1
 40
1.0
 10
0.0
 20
0.0
 30
2.000000000000000E+50
 75
     0
  0
DIMASSOC
  5
976
102
{ACAD_REACTORS
330
96E
102
}
330
96E
100
AcDbDimAssoc
330
963
 90
        3
 70
     0
 71
     0
  1
AcDbOsnapPointRef
 72
     1
331
93D
 73
     2
 91
        1
 40
1.0
 10
0.0
 20
0.0
 30
2.000000000000000E+50
 75
     0
  1
AcDbOsnapPointRef
 72
     1
331
93D
 73
     2
 91
        4
 40
1.0
 10
0.0
 20
0.0
 30
2.000000000000000E+50
 75
     0
  0
DIMASSOC
  5
98A
102
{ACAD_REACTORS
330
982
102
}
330
982
100
AcDbDimAssoc
330
977
 90
        3
 70
     0
 71
     0
  1
AcDbOsnapPointRef
 72
     1
331
93D
 73
     2
 91
        4
 40
1.0
 10
0.0
 20
0.0
 30
2.000000000000000E+50
 75
     0
  1
AcDbOsnapPointRef
 72
     8
331
93D
 73
     2
 91
        6
 40
0.0
 10
0.0
 20
0.0
 30
0.0
 75
     1
  1
AcDbOsnapPointRef
 72
     0
 40
0.0
 10
-34390.70583020165
 20
19044.04551806658
 30
0.0
 75
     0
  0
DIMASSOC
  5
99E
102
{ACAD_REACTORS
330
996
102
}
330
996
100
AcDbDimAssoc
330
98B
 90
        3
 70
     0
 71
     0
  1
AcDbOsnapPointRef
 72
     8
331
93D
 73
     2
 91
        6
 40
0.0
 10
0.0
 20
0.0
 30
0.0
 75
     1
  1
AcDbOsnapPointRef
 72
     0
 40
0.0
 10
-34971.70583019485
 20
18468.19984699912
 30
0.0
 75
     0
  1
AcDbOsnapPointRef
 72
     6
331
93D
 73
     2
 91
        8
 40
0.0
 10
0.0
 20
0.0
 30
0.0
332
801
 74
     2
 92
        0
 75
     0
  0
DIMASSOC
  5
F81
102
{ACAD_REACTORS
330
F80
102
}
330
F80
100
AcDbDimAssoc
330
F7F
 90
        2
 70
     0
 71
     0
  1
AcDbOsnapPointRef
 72
     1
331
F78
 73
     2
 91
        1
 40
1.0
 10
0.0
 20
0.0
 30
2.000000000000000E+50
 75
     0
  0
DIMASSOC
  5
F84
102
{ACAD_REACTORS
330
F83
102
}
330
F83
100
AcDbDimAssoc
330
F82
 90
        3
 70
     0
 71
     0
  1
AcDbOsnapPointRef
 72
     1
331
F78
 73
     2
 91
        1
 40
1.0
 10
0.0
 20
0.0
 30
2.000000000000000E+50
 75
     0
  1
AcDbOsnapPointRef
 72
     1
331
F78
 73
     2
 91
        4
 40
1.0
 10
0.0
 20
0.0
 30
2.000000000000000E+50
 75
     0
  0
DIMASSOC
  5
F87
102
{ACAD_REACTORS
330
F86
102
}
330
F86
100
AcDbDimAssoc
330
F85
 90
        1
 70
     0
 71
     0
  1
AcDbOsnapPointRef
 72
     1
331
F78
 73
     2
 91
        4
 40
1.0
 10
0.0
 20
0.0
 30
2.000000000000000E+50
 75
     0
  0
DIMASSOC
  5
F8A
102
{ACAD_REACTORS
330
F89
102
}
330
F89
100
AcDbDimAssoc
330
F88
 90
        3
 70
     0
 71
     0
  1
AcDbOsnapPointRef
 72
     8
331
F78
 73
     2
 91
        6
 40
0.0
 10
0.0
 20
0.0
 30
0.0
 75
     1
  1
AcDbOsnapPointRef
 72
     0
 40
0.0
 10
-34971.70583019485
 20
18468.19984699912
 30
0.0
 75
     0
  1
AcDbOsnapPointRef
 72
     6
331
F78
 73
     2
 91
        8
 40
0.0
 10
0.0
 20
0.0
 30
0.0
332
F66
 74
     2
 92
        0
 75
     0
  0
LAYOUT
  5
F
102
{ACAD_XDICTIONARY
360
1043
102
}
102
{ACAD_REACTORS
330
10
102
}
330
10
100
AcDbPlotSettings
  1

  2
\\Komp-nr-75\hp LaserJet 1300 PCL 6
  4
A4
  6

 40
5.027082920074462
 41
5.069413661956787
 42
5.048233032226561
 43
5.027069091796875
 44
209.9944915771484
 45
296.989501953125
 46
0.0
 47
34.82639156907854
 48
-25617.47116419001
 49
5829.279518979121
140
-23528.97125091564
141
8098.727723512231
142
1.0
143
10.44672131498523
 70
  3764
 72
     1
 73
     0
 74
     4
  7
monochrome_140.ctb
 75
     0
147
0.0957238132279414
148
25617.47116419001
149
-5829.279518979121
100
AcDbLayout
  1
Model
 70
     1
 71
     0
 10
0.0
 20
0.0
 11
12.0
 21
9.0
 12
0.0
 22
0.0
 32
0.0
 14
0.0
 24
0.0
 34
0.0
 15
0.0
 25
0.0
 35
0.0
146
0.0
 13
0.0
 23
0.0
 33
0.0
 16
1.0
 26
0.0
 36
0.0
 17
0.0
 27
1.0
 37
0.0
 76
     0
330
2
331
28
1001
ACAD_PSEXT
1000
\\Komp-nr-75\hp LaserJet 1300 PCL 6
1000
hp LaserJet 1300 PCL 6
1000
\\Komp-nr-75
1000

1070
     0
  0
LAYOUT
  5
16
102
{ACAD_XDICTIONARY
360
17
102
}
102
{ACAD_REACTORS
330
10
102
}
330
10
100
AcDbPlotSettings
  1

  2
\\KOMP-NR-72\HP LaserJet 1200 Series PCL
  4
A4
  6

 40
6.805083274841307
 41
5.027085304260253
 42
6.805084228515625
 43
5.027069091796875
 44
209.9733276367186
 45
296.9683227539062
 46
-6.82
 47
-5.04
 48
-68.31759246971524
 49
-50.27082063107083
140
2031.682407530285
141
2919.729179368929
142
1.0
143
10.0
 70
   676
 72
     1
 73
     0
 74
     4
  7
monochrome_140.ctb
 75
     0
147
0.1
148
68.31759246971524
149
50.27082063107083
100
AcDbLayout
  1
Sytuacja
 70
     1
 71
     1
 10
-68.16842521812832
 20
-50.14167367367336
 11
2031.56485114906
 21
2919.54155386539
 12
0.0
 22
0.0
 32
0.0
 14
-2168.317592469716
 24
-50.27082063107083
 34
0.0
 15
8288.700889081452
 25
4571.773422459521
 35
0.0
146
0.0
 13
0.0
 23
0.0
 33
0.0
 16
1.0
 26
0.0
 36
0.0
 17
0.0
 27
1.0
 37
0.0
 76
     0
330
12
  0
MATERIAL
  5
55
102
{ACAD_XDICTIONARY
360
720
102
}
102
{ACAD_REACTORS
330
B
102
}
330
B
100
AcDbMaterial
  1
ByBlock
 73
     1
 78
     1
172
     1
176
     1
270
     1
274
     1
  0
MATERIAL
  5
54
102
{ACAD_XDICTIONARY
360
71E
102
}
102
{ACAD_REACTORS
330
B
102
}
330
B
100
AcDbMaterial
  1
ByLayer
 73
     1
 78
     1
172
     1
176
     1
270
     1
274
     1
  0
MATERIAL
  5
A
102
{ACAD_XDICTIONARY
360
719
102
}
102
{ACAD_REACTORS
330
B
102
}
330
B
100
AcDbMaterial
  1
Global
 73
     1
 78
     1
172
     1
176
     1
270
     1
274
     1
  0
MLEADERSTYLE
  5
22E
102
{ACAD_REACTORS
330
22D
102
}
330
22D
100
AcDbMLeaderStyle
170
     2
171
     1
172
     0
 90
        2
 40
0.0
 41
0.0
173
     1
 91
-1056964608
340
23
 92
       -2
290
     1
 42
0.09
291
     1
 43
0.36
  3
Standard
 44
0.18
300

342
20
174
     1
178
     6
175
     1
176
     0
 93
-1056964608
 45
0.18
292
     0
297
     0
 46
0.18
 94
-1056964608
 47
1.0
 49
1.0
140
1.0
293
     1
141
0.0
294
     1
177
     0
142
1.0
295
     0
296
     0
143
0.125
1001
ACAD_MLEADERVER
1070
     2
  0
MLINESTYLE
  5
5A
102
{ACAD_REACTORS
330
52
102
}
330
52
100
AcDbMlineStyle
  2
STANDARD
 70
     0
  3

 62
   256
 51
90.0
 52
90.0
 71
     2
 49
0.5
 62
   256
  6
BYLAYER
 49
-0.5
 62
   256
  6
BYLAYER
  0
ACDBPLACEHOLDER
  5
7
102
{ACAD_REACTORS
330
8
102
}
330
8
  0
SCALE
  5
5E
102
{ACAD_REACTORS
330
57
102
}
330
57
100
AcDbScale
 70
     0
300
1:10
140
1.0
141
1.0
290
     1
  0
SCALE
  5
363
102
{ACAD_REACTORS
330
57
102
}
330
57
100
AcDbScale
 70
     0
300
1:1_2
140
1.0
141
1.0
290
     0
  0
SCALE
  5
364
102
{ACAD_REACTORS
330
57
102
}
330
57
100
AcDbScale
 70
     0
300
1:2_2
140
1.0
141
2.0
290
     0
  0
SCALE
  5
365
102
{ACAD_REACTORS
330
57
102
}
330
57
100
AcDbScale
 70
     0
300
1:5_2
140
1.0
141
5.0
290
     0
  0
SCALE
  5
366
102
{ACAD_REACTORS
330
57
102
}
330
57
100
AcDbScale
 70
     0
300
1:10_2
140
1.0
141
10.0
290
     0
  0
SCALE
  5
367
102
{ACAD_REACTORS
330
57
102
}
330
57
100
AcDbScale
 70
     0
300
1:20_2
140
1.0
141
20.0
290
     0
  0
SCALE
  5
749
102
{ACAD_REACTORS
330
57
102
}
330
57
100
AcDbScale
 70
     0
300
1:1_XREF
140
1.0
141
0.1
290
     0
  0
SCALE
  5
74A
102
{ACAD_REACTORS
330
57
102
}
330
57
100
AcDbScale
 70
     0
300
1:1250_XREF
140
1.0
141
125.0
290
     0
  0
SCALE
  5
74B
102
{ACAD_REACTORS
330
57
102
}
330
57
100
AcDbScale
 70
     0
300
1:2000_XREF
140
1.0
141
200.0
290
     0
  0
SCALE
  5
74C
102
{ACAD_REACTORS
330
57
102
}
330
57
100
AcDbScale
 70
     0
300
1:2_XREF
140
1.0
141
0.2
290
     0
  0
SCALE
  5
74D
102
{ACAD_REACTORS
330
57
102
}
330
57
100
AcDbScale
 70
     0
300
1:2500_XREF
140
1.0
141
250.0
290
     0
  0
SCALE
  5
368
102
{ACAD_REACTORS
330
57
102
}
330
57
100
AcDbScale
 70
     0
300
1:50_2
140
1.0
141
50.0
290
     0
  0
SCALE
  5
74E
102
{ACAD_REACTORS
330
57
102
}
330
57
100
AcDbScale
 70
     0
300
1:5000_XREF
140
1.0
141
500.0
290
     0
  0
SCALE
  5
74F
102
{ACAD_REACTORS
330
57
102
}
330
57
100
AcDbScale
 70
     0
300
1:75_XREF
140
1.0
141
7.5
290
     0
  0
SCALE
  5
750
102
{ACAD_REACTORS
330
57
102
}
330
57
100
AcDbScale
 70
     0
300
1:2.5_XREF
140
1.0
141
0.25
290
     0
  0
SCALE
  5
751
102
{ACAD_REACTORS
330
57
102
}
330
57
100
AcDbScale
 70
     0
300
1:5_XREF
140
1.0
141
0.5
290
     0
  0
SCALE
  5
752
102
{ACAD_REACTORS
330
57
102
}
330
57
100
AcDbScale
 70
     0
300
1:7.5_XREF
140
1.0
141
0.75
290
     0
  0
SCALE
  5
753
102
{ACAD_REACTORS
330
57
102
}
330
57
100
AcDbScale
 70
     0
300
1:10_XREF
140
1.0
141
1.0
290
     0
  0
SCALE
  5
754
102
{ACAD_REACTORS
330
57
102
}
330
57
100
AcDbScale
 70
     0
300
1:20_XREF
140
1.0
141
2.0
290
     0
  0
SCALE
  5
755
102
{ACAD_REACTORS
330
57
102
}
330
57
100
AcDbScale
 70
     0
300
1:25_XREF
140
1.0
141
2.5
290
     0
  0
SCALE
  5
756
102
{ACAD_REACTORS
330
57
102
}
330
57
100
AcDbScale
 70
     0
300
1:50_XREF
140
1.0
141
5.0
290
     0
  0
SCALE
  5
757
102
{ACAD_REACTORS
330
57
102
}
330
57
100
AcDbScale
 70
     0
300
1:100_XREF
140
1.0
141
10.0
290
     0
  0
SCALE
  5
369
102
{ACAD_REACTORS
330
57
102
}
330
57
100
AcDbScale
 70
     0
300
1:100_2
140
1.0
141
100.0
290
     0
  0
SCALE
  5
758
102
{ACAD_REACTORS
330
57
102
}
330
57
100
AcDbScale
 70
     0
300
1:150_XREF
140
1.0
141
15.0
290
     0
  0
SCALE
  5
759
102
{ACAD_REACTORS
330
57
102
}
330
57
100
AcDbScale
 70
     0
300
1:200_XREF
140
1.0
141
20.0
290
     0
  0
SCALE
  5
75A
102
{ACAD_REACTORS
330
57
102
}
330
57
100
AcDbScale
 70
     0
300
1:250_XREF
140
1.0
141
25.0
290
     0
  0
SCALE
  5
75B
102
{ACAD_REACTORS
330
57
102
}
330
57
100
AcDbScale
 70
     0
300
1:500_XREF
140
1.0
141
50.0
290
     0
  0
SCALE
  5
75C
102
{ACAD_REACTORS
330
57
102
}
330
57
100
AcDbScale
 70
     0
300
1:750_XREF
140
1.0
141
75.0
290
     0
  0
SCALE
  5
75D
102
{ACAD_REACTORS
330
57
102
}
330
57
100
AcDbScale
 70
     0
300
1:1000_XREF
140
1.0
141
100.0
290
     0
  0
SCALE
  5
5F
102
{ACAD_REACTORS
330
57
102
}
330
57
100
AcDbScale
 70
     0
300
1:1
140
1.0
141
0.1
290
     0
  0
SCALE
  5
60
102
{ACAD_REACTORS
330
57
102
}
330
57
100
AcDbScale
 70
     0
300
1:2
140
1.0
141
0.2
290
     0
  0
SCALE
  5
61
102
{ACAD_REACTORS
330
57
102
}
330
57
100
AcDbScale
 70
     0
300
1:5
140
1.0
141
0.5
290
     0
  0
SCALE
  5
62
102
{ACAD_REACTORS
330
57
102
}
330
57
100
AcDbScale
 70
     0
300
1:20
140
1.0
141
2.0
290
     0
  0
SCALE
  5
63
102
{ACAD_REACTORS
330
57
102
}
330
57
100
AcDbScale
 70
     0
300
1:50
140
1.0
141
5.0
290
     0
  0
SCALE
  5
64
102
{ACAD_REACTORS
330
57
102
}
330
57
100
AcDbScale
 70
     0
300
1:100
140
1.0
141
10.0
290
     0
  0
SCALE
  5
65
102
{ACAD_REACTORS
330
57
102
}
330
57
100
AcDbScale
 70
     0
300
1:1_1
140
1.0
141
1.0
290
     0
  0
SCALE
  5
66
102
{ACAD_REACTORS
330
57
102
}
330
57
100
AcDbScale
 70
     0
300
1:2_1
140
1.0
141
2.0
290
     0
  0
SCALE
  5
67
102
{ACAD_REACTORS
330
57
102
}
330
57
100
AcDbScale
 70
     0
300
1:4
140
1.0
141
4.0
290
     0
  0
SCALE
  5
68
102
{ACAD_REACTORS
330
57
102
}
330
57
100
AcDbScale
 70
     0
300
1:5_1
140
1.0
141
5.0
290
     0
  0
SCALE
  5
69
102
{ACAD_REACTORS
330
57
102
}
330
57
100
AcDbScale
 70
     0
300
1:8
140
1.0
141
8.0
290
     0
  0
SCALE
  5
6A
102
{ACAD_REACTORS
330
57
102
}
330
57
100
AcDbScale
 70
     0
300
1:10_1
140
1.0
141
10.0
290
     0
  0
SCALE
  5
6B
102
{ACAD_REACTORS
330
57
102
}
330
57
100
AcDbScale
 70
     0
300
1:16
140
1.0
141
16.0
290
     0
  0
SCALE
  5
6C
102
{ACAD_REACTORS
330
57
102
}
330
57
100
AcDbScale
 70
     0
300
1:20_1
140
1.0
141
20.0
290
     0
  0
SCALE
  5
6D
102
{ACAD_REACTORS
330
57
102
}
330
57
100
AcDbScale
 70
     0
300
1:30
140
1.0
141
30.0
290
     0
  0
SCALE
  5
6E
102
{ACAD_REACTORS
330
57
102
}
330
57
100
AcDbScale
 70
     0
300
1:40
140
1.0
141
40.0
290
     0
  0
SCALE
  5
6F
102
{ACAD_REACTORS
330
57
102
}
330
57
100
AcDbScale
 70
     0
300
1:50_1
140
1.0
141
50.0
290
     0
  0
SCALE
  5
70
102
{ACAD_REACTORS
330
57
102
}
330
57
100
AcDbScale
 70
     0
300
1:100_1
140
1.0
141
100.0
290
     0
  0
SCALE
  5
71
102
{ACAD_REACTORS
330
57
102
}
330
57
100
AcDbScale
 70
     0
300
2:1
140
2.0
141
1.0
290
     0
  0
SCALE
  5
72
102
{ACAD_REACTORS
330
57
102
}
330
57
100
AcDbScale
 70
     0
300
4:1
140
4.0
141
1.0
290
     0
  0
SCALE
  5
73
102
{ACAD_REACTORS
330
57
102
}
330
57
100
AcDbScale
 70
     0
300
8:1
140
8.0
141
1.0
290
     0
  0
SCALE
  5
74
102
{ACAD_REACTORS
330
57
102
}
330
57
100
AcDbScale
 70
     0
300
10:1
140
10.0
141
1.0
290
     0
  0
SCALE
  5
75
102
{ACAD_REACTORS
330
57
102
}
330
57
100
AcDbScale
 70
     0
300
100:1
140
100.0
141
1.0
290
     0
  0
SCALE
  5
76
102
{ACAD_REACTORS
330
57
102
}
330
57
100
AcDbScale
 70
     0
300
1/128" = 1'-0"
140
0.0078125
141
12.0
290
     0
  0
SCALE
  5
77
102
{ACAD_REACTORS
330
57
102
}
330
57
100
AcDbScale
 70
     0
300
1/64" = 1'-0"
140
0.015625
141
12.0
290
     0
  0
SCALE
  5
78
102
{ACAD_REACTORS
330
57
102
}
330
57
100
AcDbScale
 70
     0
300
1/32" = 1'-0"
140
0.03125
141
12.0
290
     0
  0
SCALE
  5
79
102
{ACAD_REACTORS
330
57
102
}
330
57
100
AcDbScale
 70
     0
300
1/16" = 1'-0"
140
0.0625
141
12.0
290
     0
  0
SCALE
  5
7A
102
{ACAD_REACTORS
330
57
102
}
330
57
100
AcDbScale
 70
     0
300
3/32" = 1'-0"
140
0.09375
141
12.0
290
     0
  0
SCALE
  5
7B
102
{ACAD_REACTORS
330
57
102
}
330
57
100
AcDbScale
 70
     0
300
1/8" = 1'-0"
140
0.125
141
12.0
290
     0
  0
SCALE
  5
7C
102
{ACAD_REACTORS
330
57
102
}
330
57
100
AcDbScale
 70
     0
300
3/16" = 1'-0"
140
0.1875
141
12.0
290
     0
  0
SCALE
  5
7D
102
{ACAD_REACTORS
330
57
102
}
330
57
100
AcDbScale
 70
     0
300
1/4" = 1'-0"
140
0.25
141
12.0
290
     0
  0
SCALE
  5
7E
102
{ACAD_REACTORS
330
57
102
}
330
57
100
AcDbScale
 70
     0
300
3/8" = 1'-0"
140
0.375
141
12.0
290
     0
  0
SCALE
  5
7F
102
{ACAD_REACTORS
330
57
102
}
330
57
100
AcDbScale
 70
     0
300
1/2" = 1'-0"
140
0.5
141
12.0
290
     0
  0
SCALE
  5
80
102
{ACAD_REACTORS
330
57
102
}
330
57
100
AcDbScale
 70
     0
300
3/4" = 1'-0"
140
0.75
141
12.0
290
     0
  0
SCALE
  5
81
102
{ACAD_REACTORS
330
57
102
}
330
57
100
AcDbScale
 70
     0
300
1" = 1'-0"
140
1.0
141
12.0
290
     0
  0
SCALE
  5
82
102
{ACAD_REACTORS
330
57
102
}
330
57
100
AcDbScale
 70
     0
300
1-1/2" = 1'-0"
140
1.5
141
12.0
290
     0
  0
SCALE
  5
83
102
{ACAD_REACTORS
330
57
102
}
330
57
100
AcDbScale
 70
     0
300
3" = 1'-0"
140
3.0
141
12.0
290
     0
  0
SCALE
  5
84
102
{ACAD_REACTORS
330
57
102
}
330
57
100
AcDbScale
 70
     0
300
6" = 1'-0"
140
6.0
141
12.0
290
     0
  0
SCALE
  5
85
102
{ACAD_REACTORS
330
57
102
}
330
57
100
AcDbScale
 70
     0
300
1'-0" = 1'-0"
140
12.0
141
12.0
290
     0
  0
TABLESTYLE
  5
5B
102
{ACAD_XDICTIONARY
360
217
102
}
102
{ACAD_REACTORS
330
58
102
}
330
58
100
AcDbTableStyle
  3
Standard
 70
     0
 71
     0
 40
0.06
 41
0.06
280
     0
281
     0
  7
Standard
140
0.18
170
     2
 62
     0
 63
     7
283
     0
274
    -2
284
     1
 64
     0
275
    -2
285
     1
 65
     0
276
    -2
286
     1
 66
     0
277
    -2
287
     1
 67
     0
278
    -2
288
     1
 68
     0
279
    -2
289
     1
 69
     0
  7
Standard
140
0.25
170
     5
 62
     0
 63
     7
283
     0
274
    -2
284
     1
 64
     0
275
    -2
285
     1
 65
     0
276
    -2
286
     1
 66
     0
277
    -2
287
     1
 67
     0
278
    -2
288
     1
 68
     0
279
    -2
289
     1
 69
     0
  7
Standard
140
0.18
170
     5
 62
     0
 63
     7
283
     0
274
    -2
284
     1
 64
     0
275
    -2
285
     1
 65
     0
276
    -2
286
     1
 66
     0
277
    -2
287
     1
 67
     0
278
    -2
288
     1
 68
     0
279
    -2
289
     1
 69
     0
  0
VISUALSTYLE
  5
29
102
{ACAD_REACTORS
330
2A
102
}
330
2A
100
AcDbVisualStyle
  2
2dWireframe
 70
     4
 71
     0
 72
     2
 73
     0
 90
        0
 40
-0.6
 41
-30.0
 62
     5
 63
     7
 74
     1
 91
        4
 64
     7
 65
   257
 75
     1
175
     1
 42
1.0
 92
        0
 66
   257
 43
1.0
 76
     1
 77
     6
 78
     2
 67
     7
 79
     5
170
     0
171
     0
290
     0
174
     0
 93
        1
 44
0.0
173
     0
291
     0
 45
0.0
1001
ACAD
1000
AcDbSavedByObjectVersion
1070
     0
  0
VISUALSTYLE
  5
225
102
{ACAD_REACTORS
330
2A
102
}
330
2A
100
AcDbVisualStyle
  2
3D Hidden
 70
     6
 71
     1
 72
     2
 73
     2
 90
        0
 40
-0.6
 41
-30.0
 62
     5
 63
     7
 74
     2
 91
        2
 64
     7
 65
   257
 75
     2
175
     1
 42
40.0
 92
        0
 66
   257
 43
1.0
 76
     1
 77
     6
 78
     2
 67
     7
 79
     3
170
     0
171
     0
290
     0
174
     0
 93
        1
 44
0.0
173
     0
291
     0
 45
0.0
1001
ACAD
1000
AcDbSavedByObjectVersion
1070
     0
  0
VISUALSTYLE
  5
5D
102
{ACAD_REACTORS
330
2A
102
}
330
2A
100
AcDbVisualStyle
  2
3dWireframe
 70
     5
 71
     0
 72
     2
 73
     0
 90
        0
 40
-0.6
 41
-30.0
 62
     5
 63
     7
 74
     1
 91
        4
 64
     7
 65
   257
 75
     1
175
     1
 42
1.0
 92
        0
 66
   257
 43
1.0
 76
     1
 77
     6
 78
     2
 67
     7
 79
     5
170
     0
171
     0
290
     0
174
     0
 93
        1
 44
0.0
173
     0
291
     0
 45
0.0
1001
ACAD
1000
AcDbSavedByObjectVersion
1070
     0
  0
VISUALSTYLE
  5
224
102
{ACAD_REACTORS
330
2A
102
}
330
2A
100
AcDbVisualStyle
  2
Basic
 70
     7
 71
     1
 72
     0
 73
     1
 90
        0
 40
-0.6
 41
-30.0
 62
     5
 63
     7
 74
     0
 91
        4
 64
     7
 65
   257
 75
     1
175
     1
 42
1.0
 92
        8
 66
     7
 43
1.0
 76
     1
 77
     6
 78
     2
 67
     7
 79
     5
170
     0
171
     0
290
     0
174
     0
 93
        1
 44
0.0
173
     0
291
     1
 45
0.0
1001
ACAD
1000
AcDbSavedByObjectVersion
1070
     0
  0
VISUALSTYLE
  5
228
102
{ACAD_REACTORS
330
2A
102
}
330
2A
100
AcDbVisualStyle
  2
Brighten
 70
    12
 71
     2
 72
     2
 73
     0
 90
        0
 40
-0.6
 41
-30.0
 62
     5
 63
     7
 74
     1
 91
        4
 64
     7
 65
   257
 75
     1
175
     1
 42
1.0
 92
        8
 66
     7
 43
1.0
 76
     1
 77
     6
 78
     2
 67
     7
 79
     5
170
     0
171
     0
290
     0
174
     0
 93
        1
 44
50.0
173
     0
291
     1
 45
0.0
1001
ACAD
1000
AcDbSavedByObjectVersion
1070
     0
  0
VISUALSTYLE
  5
22C
102
{ACAD_REACTORS
330
2A
102
}
330
2A
100
AcDbVisualStyle
  2
ColorChange
 70
    16
 71
     2
 72
     2
 73
     3
 90
        0
 40
-0.6
 41
-30.0
 62
     5
 63
     8
 74
     1
 91
        4
 64
     7
 65
   257
 75
     1
175
     1
 42
1.0
 92
        8
 66
     8
 43
1.0
 76
     1
 77
     6
 78
     2
 67
     7
 79
     5
170
     0
171
     0
290
     0
174
     0
 93
        1
 44
0.0
173
     0
291
     1
 45
0.0
1001
ACAD
1000
AcDbSavedByObjectVersion
1070
     0
  0
VISUALSTYLE
  5
226
102
{ACAD_REACTORS
330
2A
102
}
330
2A
100
AcDbVisualStyle
  2
Conceptual
 70
     9
 71
     3
 72
     2
 73
     0
 90
        0
 40
-0.6
 41
-30.0
 62
     5
 63
     7
 74
     2
 91
        2
 64
     7
 65
   257
 75
     1
175
     1
 42
40.0
 92
        8
 66
     7
 43
1.0
 76
     1
 77
     6
 78
     2
 67
     7
 79
     3
170
     0
171
     0
290
     0
174
     0
 93
        1
 44
0.0
173
     0
291
     0
 45
0.0
1001
ACAD
1000
AcDbSavedByObjectVersion
1070
     0
  0
VISUALSTYLE
  5
227
102
{ACAD_REACTORS
330
2A
102
}
330
2A
100
AcDbVisualStyle
  2
Dim
 70
    11
 71
     2
 72
     2
 73
     0
 90
        0
 40
-0.6
 41
-30.0
 62
     5
 63
     7
 74
     1
 91
        4
 64
     7
 65
   257
 75
     1
175
     1
 42
1.0
 92
        8
 66
     7
 43
1.0
 76
     1
 77
     6
 78
     2
 67
     7
 79
     5
170
     0
171
     0
290
     0
174
     0
 93
        1
 44
-50.0
173
     0
291
     1
 45
0.0
1001
ACAD
1000
AcDbSavedByObjectVersion
1070
     0
  0
VISUALSTYLE
  5
22B
102
{ACAD_REACTORS
330
2A
102
}
330
2A
100
AcDbVisualStyle
  2
Facepattern
 70
    15
 71
     2
 72
     2
 73
     0
 90
        0
 40
-0.6
 41
-30.0
 62
     5
 63
     7
 74
     1
 91
        4
 64
     7
 65
   257
 75
     1
175
     1
 42
1.0
 92
        8
 66
     7
 43
1.0
 76
     1
 77
     6
 78
     2
 67
     7
 79
     5
170
     0
171
     0
290
     0
174
     0
 93
        1
 44
0.0
173
     0
291
     1
 45
0.0
1001
ACAD
1000
AcDbSavedByObjectVersion
1070
     0
  0
VISUALSTYLE
  5
220
102
{ACAD_REACTORS
330
2A
102
}
330
2A
100
AcDbVisualStyle
  2
Flat
 70
     0
 71
     2
 72
     1
 73
     1
 90
        2
 40
-0.6
 41
30.0
 62
     5
 63
     7
 74
     0
 91
        4
 64
     7
 65
   257
 75
     1
175
     1
 42
1.0
 92
        8
 66
     7
 43
1.0
 76
     1
 77
     6
 78
     2
 67
     7
 79
     5
170
     0
171
     0
290
     0
174
     0
 93
       13
 44
0.0
173
     0
291
     0
 45
0.0
1001
ACAD
1000
AcDbSavedByObjectVersion
1070
     0
  0
VISUALSTYLE
  5
221
102
{ACAD_REACTORS
330
2A
102
}
330
2A
100
AcDbVisualStyle
  2
FlatWithEdges
 70
     1
 71
     2
 72
     1
 73
     1
 90
        2
 40
-0.6
 41
30.0
 62
     5
 63
     7
 74
     1
 91
        4
 64
     7
 65
   257
 75
     1
175
     1
 42
1.0
 92
        0
 66
   257
 43
1.0
 76
     1
 77
     6
 78
     2
 67
     7
 79
     5
170
     0
171
     0
290
     0
174
     0
 93
       13
 44
0.0
173
     0
291
     0
 45
0.0
1001
ACAD
1000
AcDbSavedByObjectVersion
1070
     0
  0
VISUALSTYLE
  5
222
102
{ACAD_REACTORS
330
2A
102
}
330
2A
100
AcDbVisualStyle
  2
Gouraud
 70
     2
 71
     2
 72
     2
 73
     1
 90
        2
 40
-0.6
 41
30.0
 62
     5
 63
     7
 74
     0
 91
        4
 64
     7
 65
   257
 75
     1
175
     1
 42
1.0
 92
        0
 66
     7
 43
1.0
 76
     1
 77
     6
 78
     2
 67
     7
 79
     5
170
     0
171
     0
290
     0
174
     0
 93
       13
 44
0.0
173
     0
291
     0
 45
0.0
1001
ACAD
1000
AcDbSavedByObjectVersion
1070
     0
  0
VISUALSTYLE
  5
223
102
{ACAD_REACTORS
330
2A
102
}
330
2A
100
AcDbVisualStyle
  2
GouraudWithEdges
 70
     3
 71
     2
 72
     2
 73
     1
 90
        2
 40
-0.6
 41
30.0
 62
     5
 63
     7
 74
     1
 91
        4
 64
     7
 65
   257
 75
     1
175
     1
 42
1.0
 92
        0
 66
   257
 43
1.0
 76
     1
 77
     6
 78
     2
 67
     7
 79
     5
170
     0
171
     0
290
     0
174
     0
 93
       13
 44
0.0
173
     0
291
     0
 45
0.0
1001
ACAD
1000
AcDbSavedByObjectVersion
1070
     0
  0
VISUALSTYLE
  5
22A
102
{ACAD_REACTORS
330
2A
102
}
330
2A
100
AcDbVisualStyle
  2
Linepattern
 70
    14
 71
     2
 72
     2
 73
     0
 90
        0
 40
-0.6
 41
-30.0
 62
     5
 63
     7
 74
     1
 91
        4
 64
     7
 65
   257
 75
     7
175
     7
 42
1.0
 92
        8
 66
     7
 43
1.0
 76
     1
 77
     6
 78
     2
 67
     7
 79
     5
170
     0
171
     0
290
     0
174
     0
 93
        1
 44
0.0
173
     0
291
     1
 45
0.0
1001
ACAD
1000
AcDbSavedByObjectVersion
1070
     0
  0
VISUALSTYLE
  5
236
102
{ACAD_REACTORS
330
2A
102
}
330
2A
100
AcDbVisualStyle
  2

 70
     8
 71
     2
 72
     2
 73
     0
 90
        0
 40
-0.6
 41
-30.0
 62
     5
 63
     7
 74
     0
 91
        0
 64
     7
 65
   257
 75
     1
175
     1
 42
1.0
 92
        8
 66
     8
 43
1.0
 76
     1
 77
     6
 78
     2
 67
     7
 79
     5
170
     0
171
     0
290
     0
174
     0
 93
       13
 44
0.0
173
     0
291
     0
 45
0.0
1001
ACAD
1000
AcDbSavedByObjectVersion
1070
     0
  0
VISUALSTYLE
  5
237
102
{ACAD_REACTORS
330
2A
102
}
330
2A
100
AcDbVisualStyle
  2

 70
     8
 71
     2
 72
     2
 73
     0
 90
        0
 40
-0.6
 41
-30.0
 62
     5
 63
     7
 74
     1
 91
        0
 64
     7
 65
   257
 75
     1
175
     1
 42
1.0
 92
        8
 66
     8
 43
1.0
 76
     1
 77
     6
 78
     2
 67
     7
 79
     5
170
     0
171
     0
290
     0
174
     0
 93
       13
 44
0.0
173
     0
291
     0
 45
0.0
1001
ACAD
1000
AcDbSavedByObjectVersion
1070
     0
  0
VISUALSTYLE
  5
5C
102
{ACAD_REACTORS
330
2A
102
}
330
2A
100
AcDbVisualStyle
  2
Realistic
 70
     8
 71
     2
 72
     2
 73
     0
 90
        0
 40
-0.6
 41
-30.0
 62
     5
 63
     7
 74
     1
 91
        0
 64
     7
 65
   257
 75
     1
175
     1
 42
1.0
 92
        8
 66
     8
 43
1.0
 76
     1
 77
     6
 78
     2
 67
     7
 79
     5
170
     0
171
     0
290
     0
174
     0
 93
       13
 44
0.0
173
     0
291
     0
 45
0.0
1001
ACAD
1000
AcDbSavedByObjectVersion
1070
     0
  0
VISUALSTYLE
  5
229
102
{ACAD_REACTORS
330
2A
102
}
330
2A
100
AcDbVisualStyle
  2
Thicken
 70
    13
 71
     2
 72
     2
 73
     0
 90
        0
 40
-0.6
 41
-30.0
 62
     5
 63
     7
 74
     1
 91
        4
 64
     7
 65
   257
 75
     1
175
     1
 42
1.0
 92
       12
 66
     7
 43
1.0
 76
     1
 77
     6
 78
     2
 67
     7
 79
     5
170
     0
171
     0
290
     0
174
     0
 93
        1
 44
0.0
173
     0
291
     1
 45
0.0
1001
ACAD
1000
AcDbSavedByObjectVersion
1070
     0
  0
DICTIONARYVAR
  5
21D
102
{ACAD_REACTORS
330
21A
102
}
330
21A
100
DictionaryVariables
280
     0
  1
1:10_1
  0
DICTIONARYVAR
  5
21C
102
{ACAD_REACTORS
330
21A
102
}
330
21A
100
DictionaryVariables
280
     0
  1
STANDARD
  0
DICTIONARYVAR
  5
21B
102
{ACAD_REACTORS
330
21A
102
}
330
21A
100
DictionaryVariables
280
     0
  1
STANDARD
  0
DICTIONARYVAR
  5
716
102
{ACAD_REACTORS
330
21A
102
}
330
21A
100
DictionaryVariables
280
     0
  1
2
  0
DICTIONARYVAR
  5
715
102
{ACAD_REACTORS
330
21A
102
}
330
21A
100
DictionaryVariables
280
     0
  1
1
  0
DICTIONARYVAR
  5
714
102
{ACAD_REACTORS
330
21A
102
}
330
21A
100
DictionaryVariables
280
     0
  1
0
  0
DICTIONARYVAR
  5
21E
102
{ACAD_REACTORS
330
21A
102
}
330
21A
100
DictionaryVariables
280
     0
  1
0
  0
DICTIONARYVAR
  5
712
102
{ACAD_REACTORS
330
21A
102
}
330
21A
100
DictionaryVariables
280
     0
  1
1
  0
DICTIONARYVAR
  5
713
102
{ACAD_REACTORS
330
21A
102
}
330
21A
100
DictionaryVariables
280
     0
  1
127
  0
DICTIONARY
  5
1043
330
F
100
AcDbDictionary
280
     1
281
     1
  3
ACAD_XREC_ROUNDTRIP
360
1044
  0
DICTIONARY
  5
17
330
16
100
AcDbDictionary
280
     1
281
     1
  3
ACAD_XREC_ROUNDTRIP
360
1045
  3
ADSK_XREC_LAYOUTTHUMBNAIL
360
18
  0
DICTIONARY
  5
720
330
55
100
AcDbDictionary
280
     1
281
     1
  3
ACAD_XREC_ROUNDTRIP
360
721
  0
DICTIONARY
  5
71E
330
54
100
AcDbDictionary
280
     1
281
     1
  3
ACAD_XREC_ROUNDTRIP
360
71F
  0
DICTIONARY
  5
719
330
A
100
AcDbDictionary
280
     1
281
     1
  3
ACAD_XREC_ROUNDTRIP
360
71A
  0
DICTIONARY
  5
217
330
5B
100
AcDbDictionary
280
     1
281
     1
  3
ACAD_ROUNDTRIP_2008_TABLESTYLE_CELLSTYLEMAP
360
1041
  3
ACAD_XREC_ROUNDTRIP
360
1046
  0
XRECORD
  5
1044
102
{ACAD_REACTORS
330
1043
102
}
330
1043
100
AcDbXrecord
280
     1
102
SHADEPLOT
 70
     1
102
SHADEPLOTRESLEVEL
 70
     2
102
SHADEPLOTCUSTOMDPI
 70
   300
  0
XRECORD
  5
1045
102
{ACAD_REACTORS
330
17
102
}
330
17
100
AcDbXrecord
280
     1
102
SHADEPLOT
 70
     1
102
SHADEPLOTRESLEVEL
 70
     2
102
SHADEPLOTCUSTOMDPI
 70
   300
  0
XRECORD
  5
18
102
{ACAD_REACTORS
330
17
102
}
330
17
100
AcDbXrecord
280
     1
310
28000000630000008C0000000100080000000000B0360000000000000000000000010000000000000000000000000000FFFFFF000000000000000000000000000000000000000000000000000000000000000000330000006600000099000000CC000000FF00000000330000333300006633000099330000CC330000FF3300
310
0000660000336600006666000099660000CC660000FF66000000990000339900006699000099990000CC990000FF99000000CC000033CC000066CC000099CC0000CCCC0000FFCC000000FF000033FF000066FF000099FF0000CCFF0000FFFF000000003300330033006600330099003300CC003300FF003300003333003333
310
33006633330099333300CC333300FF33330000663300336633006666330099663300CC663300FF66330000993300339933006699330099993300CC993300FF99330000CC330033CC330066CC330099CC3300CCCC3300FFCC330000FF330033FF330066FF330099FF3300CCFF3300FFFF330000006600330066006600660099
310
006600CC006600FF00660000336600333366006633660099336600CC336600FF33660000666600336666006666660099666600CC666600FF66660000996600339966006699660099996600CC996600FF99660000CC660033CC660066CC660099CC6600CCCC6600FFCC660000FF660033FF660066FF660099FF6600CCFF6600
310
FFFF660000009900330099006600990099009900CC009900FF00990000339900333399006633990099339900CC339900FF33990000669900336699006666990099669900CC669900FF66990000999900339999006699990099999900CC999900FF99990000CC990033CC990066CC990099CC9900CCCC9900FFCC990000FF99
310
0033FF990066FF990099FF9900CCFF9900FFFF99000000CC003300CC006600CC009900CC00CC00CC00FF00CC000033CC003333CC006633CC009933CC00CC33CC00FF33CC000066CC003366CC006666CC009966CC00CC66CC00FF66CC000099CC003399CC006699CC009999CC00CC99CC00FF99CC0000CCCC0033CCCC0066CC
310
CC0099CCCC00CCCCCC00FFCCCC0000FFCC0033FFCC0066FFCC0099FFCC00CCFFCC00FFFFCC000000FF003300FF006600FF009900FF00CC00FF00FF00FF000033FF003333FF006633FF009933FF00CC33FF00FF33FF000066FF003366FF006666FF009966FF00CC66FF00FF66FF000099FF003399FF006699FF009999FF00CC
310
99FF00FF99FF0000CCFF0033CCFF0066CCFF0099CCFF00CCCCFF00FFCCFF0000FFFF0033FFFF0066FFFF0099FFFF00CCFFFF00FFFFFF00000000000D0D0D001A1A1A00282828003535350043434300505050005D5D5D006B6B6B00787878008686860093939300A1A1A100AEAEAE00BBBBBB00C9C9C900D6D6D600E4E4E400
310
F1F1F100FFFFFF00000000000000000000000000000000000000000000000000000000000000000000000000000000002A2A2A2A2A2A2A2A2A2A2A2A2A2A2A2A2A2A2A2A2A2A2A2A2A2A2A2A2A2A2A2A2A2A2A2A2A2A2A2A2A2A2A2A2A2A2A2A2A2A2A2A2A2A2A2A2A2A2A2A2A2A2A2A2A2A2A2A2A2A2A2A2A2A2A2A2A2A2A
310
2A2A2A2A2A2A2A2A2A2A2A2A2A2A2A2A2A2A2A2A412AE2E2E2E2E2E2E2E2E2E2E2E2E2E2E2E2E2E2E2E2E2E2E2E2E2E2E2E2E2E2E2E2E2E2E2E2E2E2E2E2E2E2E2E2E2E2E2E2E2E2E2E2E2E2E2E2E2E2E2E2E2E2E2E2E2E2E2E2E2E2E2E2E2E2E2E2E2E2E2E2E2E2E2E2E2E2E2E2E2E2E2E2E2E2E2E2E2E23F2AE2E2E2E2E2
310
E2E2E2E2E2E2E2E2E2E2E2E2E2E2E2E2E2E2E2E2E2E2E2E2E2E2E2E2E2E2E2E2E2E2E2E2E2E2E2E2E2E2E2E2E2E2E2E2E2E2E2E2E2E2E2E2E2E2E2E2E2E2E2E2E2E2E2E2E2E2E2E2E2E2E2E2E2E2E2E2E2E2E2E2E2E2E2E2E2E2E2E2E2412AE2E2E2F5F5F5F5F5F5F5F5E2E2E2E2E2E2E2E2F5F5F5F5F5F5F5F5F5F5F5F5F5
310
F5F5E2E2E2E2E2E2E2E2F5F5F5F5F5F5F5F5F5F5F5F5F5F5E2E2E2E2E2E2E2E2F5F5F5F5F5F5F5F5F5F5F5F5F5F5F5E2E2E2E2E2E2E2E2F5F5F5F5F5F5F5F5E2E2E23F2AE2E2E2F5E2E2E2E2E2E2E2E2E2E2E2E2E2E2E2E2E2E2E2E2E2E2E2E2E2E2E2E2E2E2E2E2E2E2E2E2E2E2E2E2E2E2E2E2E2E2E2E2E2E2E2E2E2E2E2
310
E2E2E2E2E2E2E2E2E2E2E2E2E2E2E2E2E2E2E2E2E2E2E2E2E2E2E2E2E2E2E2E2E2E2E2F5E2E2E241BFBFE2BFBFBFBFBFBFBFBFBFBFBFBFBFBFBFBFBFBFBFBFBFBFBFBFBFBFBFBFBFBFBFBFBFBFBFBFBFBFBFBFBFBFBFBFBFBFBFBFBFBFBFBFBFBFBF2D2D2D2D2D2D2D2D2D2D2D2D2D2D2D2D2D2D2D2D2D2D2D2D2D2D2D2D2D
310
2D2D2D2D2D2D2D2DF5E2E2E23FF5E2E2E2F5BFE2E2E2E2E2E2E2E2E2E2E2E2E2E2E2E2E2E2E2E2E2E2E2E2E2E2E2E2E2E2E2E2E2E2E2E2E2E2E2E2E2E2E2E2E2E2E2E2E2E2E2E22D02022D2D2D2D2D2D2D2D2D2D2D2D2D2D2D2D2D2D2D2D2D2D2D2D2D2D2D2D2D2D2D2D2D2DF5E2E2E241F5E2E2E2F5BFE2E2E2E2E2E2E2E2
310
E2E2E2E2E2E2E2E2E2E2E2E2E2E2E2E2E2E2E2E2E2E2E2E2E2E2E2E2E2E2E2E2E2E2E2E2E2E2E2E2E2E2E2E22DE8E82DE2E2E2E2E2E2E2E2E2E2E2E2E2E2E2E22DE2E2E2E2E2E2E22DE2E2E2E2E2E2E22DF5E2E2E23FF5E2E2E2F5BFE2E2E2E2E2E2E2E2E2E2E2E2E2E2E2E2E2E2E2E2E2E2E2E2E2E2E2E2E2E2E2E2E2E2E2
310
E2E2E2E2E2E2E2E2E2E2E2E2E2E2E2E2E22D02022DE2CACAE2E2E2E2E2E2E2E2E2E2E2E2E22DCAE2E2E2E2E2E22DE2E2E2E2E2E2E22DF5E2E2E241F5E2E2E2F5BF0F0F0F0F0F0F0F0F0F0F0F0F0F0F0F0F0F0F0F0F0F0F0F0F0F0F0F0F0F0F0F0F0F0F0F0F0F0F0F0F0F0F0F0F0F0F0F0F0F0F0F0F2D0F0F0FCACACACA0F0F
310
0F0F0F0F0F0F0F0F0F0F2DCACA0F0F0F0F0FCACACA0F0F0F0FE22DF5E2E2E23FF5E2E2E2F5BF0FE2E2E2E2E2E2E2E2E2E2E2E2E2E2E2E2E2E2E2E2E2E2E2E2E2E2E2E2E2E2E2E2E2E2E2E2E2E2E2E2E2E2E2E21B1BE2E2E2E2E22DEDED2D2D2D28282828282828282828282828282D2D2D2D2D2D2D2D2D2D2D2D2D2D2D2D2D
310
F5E2E2E241F5E2E2E2F5BF0FE2E2E2E2E21B1B1B1B1B1BE2E2E2E2E2E2E2E2E2E2E2E2E2E2E2E2E2E2E2E2E2E2E2E2E2E2E2E21B1B1B1B1B1B1B1BE2E2E2E22D02ED2DE2CA28282828282828282828282828282DCAE2E2E2E2E2E22DE2E228282828282DF5E2E2E23FF5E2E2E2E2BF0FE2E2E2E2E21B1B1B1B1B1BE2E2E2E2
310
E2E2E2E2E2E2E2E2E2E2E2E2E2E2E2E2E2E2E2E2E2E2E2E21B1B1B1B1B1B1B1BE2E2E2E22D02022DCACACACAE22828282828282828282828CACACAE2E2E2E2E2CACACAE2E2E20FE22DE2E2E2E241F5E2E2E2E2BF0FE2E2E2E2E21B1B1B1B1B1B1B1B1B1B1B1B1B1B1BE2E2E2E2E2E2E2E2E2E2E2E2E2E2E2E2E2E2E21B1B1B
310
1B1B1B1B1BE2E2E2E22D02022DCACACACACACA2D2D272727272727272727272727272D2D2D2D2D2D2D2D2D2D2D2DE2E2E2E23FF5E2E2E2E2E20FE2E2E2E2E21B1B1B1B1B1B1B1B1B1B1B1B1B1B1BE2E2E2E2E2E2E2E2E2E2E2E2E2E2E2E2E2E2E21B1B1B1B1B1B1B1BE2E2E2E22DED022DCACACACACACA2D2D272727272727
310
272727272727272D2D2D2D2D2D2D2D2D2D2D2DE2E2E2E241F5E2E2E2E2E20FE2E2E2E2E21B1B1B1B1B1B1B1B1B1B1B1B1B1B1B1B1B1BE2E2E2E2E2E2E2E2E2E2E2E2E2E2E2E21B1B1B1B1B1B1B1BE2E2E2E22DED022DCACACAE2E22727272727272727272727272727272727E2E2CACACACAE22828282DE2E2E2E23FF5E2E2
310
E2E2E20FE2E2E2E2E21B1B1B1B1B1B1B1B1B1B1B1B1B1B1B1B1B1BE2E2E2E2E2E2E2E2E2E2E2E2E2E2E2E21B1B1B1B1B1B1B1BE2E2E2E22D2D2D2DCACA2D2D2D2D2727272D27272727272727272727272D2D2D2D2D2D2D2D282D2D2DE2E2E2E241F5E2E2E2E2E20FE2E2E2E2E21B1B1B1B1B1B1B1B1B1B1B1B1B1B1BE2E2E2
310
E2E2E2E2E2E2E2E2E2E2E2E2E2E2E2E21B1B1B1B1B1B1B1BE2E2E2E22DE2E2E2E2E2E2E2E2E2E2E2E2E2E2E2E2E2E2E2E2E2E2E2E2E2E2E2E2E2E2E2E2E20FE22DE2E2E2E23FF5E2E2E2E2E20FE2E2E2E2E21B1B1B1B1B1B1B1B1B1B1B1B1B1B1BE2E2E2E2E2E2E2E2E2E2E2E2E2E2E2E2E2E2E21B1B1B1B1B1B1B1BE2E2E2
310
E22DE2E2E2CAE2E2E2E2E2E2E2E2E2E2E2E2E2E2E2E2E2E2E2E2E2E2E2E2E2E2E2E2E20FE22DE2E2E2E241F5E2E2E2E2E20FE2E2E2E2E21B1B1B1B1B1B1B1B1B1B1B1B1B1B1BE2E2E2E2E2E2E2E2E2E2E2E2E2E2E2E2E2E2E21B1B1B1B1B1B1B1BE2E2E2E22D2D2D2D2D2D2D2D2D2D2D2D2D2D2D2D2D2D2D2D2D2D2D2D2D2D
310
2D2D2D2D2D2D2D2D2D2D2DE2E2E2E200F5E2E2E2E2E20FE2E2E2E2E21B1B1B1B1B1B1B1B1B1B1B1B1B1B1BE2E2E2E2E2E2E2E2E2E2E2E2E2E2E2E2E2E2E21B1B1B1B1B1B1B1BE2E2E2E22DE2E2E2E2E2E2E2E2E2E2E2E2E2E2E2E2E2E2E2E2E2E2E2E2E2E2E2E2E2E2E2E2E20FE22DE2E2E2E200F5E2E2E2E2E20FE2E2E2E2
310
E21B1B1B1B1B1B1B1B1B1B1B1B1B1B1B1B1B1B1B1B1BE2E2E2E2E2E2E2E2E2E2E2E2E2E21B1B1B1B1B1B1BE2E2E2E22DE2E2E2E2E2E2E2E2E2E2E2E2E2E2E2E2E2E2E2E2E2E2E2E2E2E2E2E2E2E2E2E2E20FE22DE2E2E2E200F5E2E2E2F5E20FE2E2E2E2E21B1B1B1B1B1B1B1B1B1B1B1B1B1B1B1B1B1B1B1B1BE2E2E2E2E2
310
E2E2E2E2E2E2E2E2E21B1B1B1B1B1B1BE2E2E2E22DCACACACAE2E2E2E2E2E2E2E2E2E2E2E2E2E2E2E2E2E2E2E2E2E2E2E2E2E2E2E2E20FE22DF5E2E2E200F5E2E2E2F5E20FE2E2E2E2E21B1B1B1B1B1B1B1B1B1B1B1B1B1B1BE2E2E2E2E2E2E2E2E2E2E2E2E2E2E2E2E2E2E21B1B1B1B1B1B1B1BE2E2E2E22D2D2D2D2D2D2D
310
2D2D2D2D2D2D2D2D2D2D2D2D2D2D2D2D2D2D2D2D2D2D2D2D2D2D2D2D2D2DF5E2E2E200F5E2E2E2F5E20FE2E2E2E2E21B1B1B1B1B1B1B1B1B1B1B1B1B1B1BE2E2E2E2E2E2E2E2E2E2E2E2E2E2E2E2E2E2E21B1B1B1B1B1B1B1BE2E2E2E22DE2E2E2E2E2E2E2E2E2E2E2E2E2E2E2E2282828282828E2E2E2E2E2E2E2E2E2E2E2
310
0FE22DF5E2E2E200F5E2E2E2F5E20FE2E2E2E2E21B1B1B1B1B1B1B1B1B1B1B1B1B1B1B1BE2E2E2E2E2E2E2E2E2E2E2E2E21B1B1B1B1B1B1B1B1B1B1B1BE2E2E2E2E22DCACACAE2E2E2E2E227272727272727272727272727272727272727272727E2E2E20FE22DF5E2E2E200F5E2E2E2F5E20FE2E2E2E2E21B1B1B1B1B1B1B
310
1B1B1B1B1B1B1B1B1BE2E2E2E2E2E2E2E2E2E2E2E2E21B1B1B1B1B1B1B1B1B1B1B1BE2E2E2E2E22D2D2D2D2D2D2D2D2D2D2D2D2D2D2D2D2D2D2D2D2D2D2D2D2D2D2D2D2D2D2D2D2D2D2D2D2DF5E2E2E200F5E2E2E2F5E20FE2E2E2E2E2E2E2E2E2E2E2E2E2E2E2E2E2E2E2E2E2E2E2E2E2E2E2E2E2E2E2E2E2E2E2E2E2E2E2
310
E2E2E2E2E2E2E2E2E2E2E2E2E2E2E2E2E2E2E2E2E2E2E2E2E2E2E2E2E2E2E2E2E2E2E2E2E2E2E2E2E2E2E2E2E2E20FE2BFF5E2E2E200F5E2E2E2F5E20FE2E2E2E2E2E2E2E2E2E2E2E2E2E2E2E2E2E2E2E2E2E2E2E2E2E2E2E2E2E2E2E2E2E2E2E2E2E2E2E2E2E2E2E2E2E2E2E2E2E2E2E2E2E2E2E2E2E2E2E2E2E2E2E2E2E2
310
E2E2E2E2E2E2E2E2E2E2E2E2E2E2E2E2E2E2E20FE2BFF5E2E2E200F5E2E2E2F5E20FE2E2E2E2E2E2E2E2E2E2E2E2E2E2E2E2E2E2E2E2E2E2E2E2E2E2E2E2E2E2E2E2E2E2E2E2E2E2E2E2E2E2E2E2E2E2E2E2E2E2E2E2E2E2E2E2E2E2E2E2E2E2E2E2E2E2E2E2E2E2E2E2E2E2E2E2E2E2E2E2E2E2E2E2E20FE2BFF5E2E2E200
310
F5E2E2E2F5E20FE2E2E2E2E2E2E2E2E2E2E2E2E2E2E2E2E2E2E2E2E2E2E2E2E2E2E2E2E2E2E2E2E2E2E2E2E2E2E2E2E2E2E2E2E2E2E2E2E2E2E2E2E2E2E2E2E2E2E2E2E2E2E2E2E2E2E2E2E2E2E2E2E2E2E2E2E2E2E2E2E2E2E2E2E20FE2BFF5E2E2E241F5E2E2E2F5E20FE2E2E2E2E2E2E2E2E2E2E2E2E2E2E2E2E2E2E2E2
310
E2E2E2E2E2E2E2E2E2E2E2E2E2E2E2E2E2E2E2E2E2E2E2E2E2E2E2E2E2E2E2E2E2E2E2E2E2E2E2E2E2E2E2E2E2E2E2E2E2E2E2E2E2E2E2E2E2E2E2E2E2E2E2E2E20FE2BFF5E2E2E23FF5E2E2E2F5E20FE2E2E2E2E2E2E2E2E2E2E2E2E2E2E2E2E2E2E2E2E2E2E2E2E2E2E2E2E2E2E2E2E2E2E2E2E2E2E2E2E2E2E2E2E2E2E2
310
E2E2E2E2E2E2E2E2E2E2E2E2E2E2E2E2E2E2E2E2E2E2E2E2E2E2E2E2E2E2E2E2E2E2E2E2E2E20FE2BFF5E2E2E241F5E2E2E2F5E20FE2E2E2E2E2E2E2E2E2E2E2E2E2E2E2E2E2E2E2E2E2E2E2E2E2E2E2E2E2E2E2E2E2E2E2E2E2E2E2E2E2E2E2E2E2E2E2E2E2E2E2E2E2E2E2E2E2E2E2E2E2E2E2E2E2E2E2E2E2E2E2E2E2E2
310
E2E2E2E2E2E2E2E2E2E2E20FE2BFF5E2E2E23FF5E2E2E2F5E20FE2E2E2E2E2E2E2E2E2E2E2E2E2E2E2E2E2E2E2E2E2E2E2E2E2E2E2E2E2E2E2E2E2E2E2E2E2E2E2E2E2E2E2E2E2E2E2E2E2E2E2E2E2E2E2E2E2E2E2E2E2E2E2E2E2E2E2E2E2E2E2E2E2E2E2E2E2E2E2E2E2E2E2E2E20FE2BFF5E2E2E241F5E2E2E2F5E20FE2
310
E2E2E2E2E2E2E2E2E2E2E2E2E2E2E2E2E2E2E2E2E2E2E2E2E2E2E2E2E2E2E2E2E2E2E2E2E2E2E2E2E2E2E2E2E2E2E2E2E2E2E2E2E2E2E2E2E2E2E2E2E2E2E2E2E2E2E2E2E2E2E2E2E2E2E2E2E2E2E2E2E2E2E2E20FE2BFF5E2E2E23FF5E2E2E2F5E20FE2E2E2E2E2E2E2E2E2E2E2E2E2E2E2E2E2E2E2E2E2E2E2E2E2E2E2E2
310
E2E2E2E2E2E2E2E2E2E2E2E2E2E2E2E2E2E2E2E2E2E2E2E2E2E2E2E2E2E2E2E2E2E2E2E2E2E2E2E2E2E2E2E2E2E2E2E2E2E2E2E2E2E2E2E2E20FE2BFF5E2E2E241F5E2E2E2F5E20FE2E2E2E2E2E2E2E2E2E2E2E2E2E2E2E2E2E2E2E2E2E2E2E2E2E2E2E2E2E2E2E2E2E2E2E2E2E2E2E2E2E2E2E2E2E2E2E2E2E2E2E2E2E2E2
310
E2E2E2E2E2E2E2E2E2E2E2E2E2E2E2E2E2E2E2E2E2E2E2E2E2E2E2E2E2E20FE2BFF5E2E2E23FF5E2E2E2F5E20FE2E2E2E2E2E2E2E2E2E2E2E2E2E2E2E2E2E2E2E2E2E2E2E2E2E2E2E2E2E2E2E2E2E2E2E2E2E2E2E2E2E2E2E2E2E2E2E2E2E2E2E2E2E2E2E2E2E2E2E2E2E2E2E2E2E2E2E2E2E2E2E2E2E2E2E2E2E2E2E2E2E2
310
E2E2E20FE2BFF5E2E2E241F5E2E2E2E2E20FE2E2E2E2E2E2E2E2E2E2E2E2E2E2E2E2E2E2E2E2E2E2E2E2E2E2E2E2E2E2E2E2E2E2E2E2E2E2E2E2E2E2E2E2E2E2E2E2E2E2E2E2E2E2E2E2E2E2E2E2E2E2E2E2E2E2E2E2E2E2E2E2E2E2E2E2E2E2E2E2E2E2E2E2E20FE2BFE2E2E2E23FF5E2E2E2E2E20FE2E2E2E2E2E2E2E2E2
310
E2E2E2E2E2E2E2E2E2E2E2E2E2E2E2E2E2E2E2E2E2E2E2E2E2E2E2E2E2E2E2E2E2E2E2E2E2E2E2E2E2E2E2E2E2E2E2E2E2E2E2E2E2E2E2E2E2E2E2E2E2E2E2E2E2E2E2E2E2E2E2E2E2E2E2E20FE2BFE2E2E2E241F5E2E2E2E2E20FE2E2E2E2E2E2E2E2E2E2E2E2E2E2E2E2E2E2E2E2E2E2E2E2E2E2E2E2E2E2E2E2E2E2E2E2
310
E2E2E2E2E2E2E2E2E2E2E2E2E2E2E2E2E2E2E2E2E2E2E2E2E2E2E2E2E2E2E2E2E2E2E2E2E2E2E2E2E2E2E2E2E2E2E2E2E20FE2BFE2E2E2E23FF5E2E2E2E2E20FE2E2E2E2E2E2E2E2E2E2E2E2E2E2E2E2E2E2E2E2E2E2E2E2E2E2E2E2E2E2E2E2E2E2E2E2E2E2E2E2E2E2E2E2E2E2E2E2E2E2E2E2E2E2E2E2E2E2E2E2E2E2E2
310
E2E2E2E2E2E2E2E2E2E2E2E2E2E2E2E2E2E2E2E2E2E20FE2BFE2E2E2E241F5E2E2E2E2E20FE2E2E2E2E2E2E2E2E2E2E2E2E2E2E2E2E2E2E2E2E2E2E2E2E2E2E2E2E2E2E2E2E2E2E2E2E2E2E2E2E2E2E2E2E2E2E2E2E2E2E2E2E2E2E2E2E2E2E2E2E2E2E2E2E2E2E2E2E2E2E2E2E2E2E2E2E2E2E2E2E2E2E2E2E20FE2BFE2E2
310
E2E23FF5E2E2E2E2E20FE2E2E2E2E2E2E2E2E2E2E2E2E2E2E2E2E2E2E2E2E2E2E2E2E2E2E2E2E2E2E2E2E2E2E2E2E2E2E2E2E2E2E2E2E2E2E2E2E2E2E2E2E2E2E2E2E2E2E2E2E2E2E2E2E2E2E2E2E2E2E2E2E2E2E2E2E2E2E2E2E2E2E2E2E20FE2BFE2E2E2E200F5E2E2E2E2E20FE2E2E2E2E2E2E2E2E2E2E2E2E2E2E2E2E2
310
E2E2E2E2E2E2E2E2E2E2E2E2E2E2E2E2E2E2E2E2E2E2E2E2E2E2E2E2E2E2E2E2E2E2E2E2E2E2E2E2E2E2E2E2E2E2E2E2E2E2E2E2E2E2E2E2E2E2E2E2E2E2E2E2E2E2E2E20FE2BFE2E2E2E23FF5E2E2E2E2E20FE2E2E2E2E2E2E2E2E2E2E2E2E2E2E2E2E2E2E2E2E2E2E2E2E2E2E2E2E2E2E2E2E2E2E2E2E2E2E2E2E2E2E2E2
310
E2E2E2E2E2E2E2E2E2E2E2E2E2E2E2E2E2E2E2E2E2E2E2E2E2E2E2E2E2E2E2E2E2E2E2E2E2E2E2E2E20FE2BFE2E2E2E241F5E2E2E2E2E20FE2E2E2E2E2E2E2E2E2E2E2E2E2E2E2E2E2E2E2E2E2E2E2E2E2E2E2E2E2E2E2E2E2E2E2E2E2E2E2E2E2E2E2E2E2E2E2E2E2E2E2E2E2E2E2E2E2E2E2E2E2E2E2E2E2E2E2E2E2E2E2
310
E2E2E2E2E2E2E2E2E2E2E2E2E2E20FE2BFE2E2E2E23FF5E2E2E2F5E20FE2E2E2E2E2E2E2E2E2E2E2E2E2E2E2E2E2E2E2E2E2E2E2E2E2E2E2E2E2E2E2E2E2E2E2E2E2E2E2E2E2E2E2E2E2E2E2E2E2E2E2E2E2E2E2E2E2E2E2E2E227E2E2E2E2E2E2E2E2E2E2E2E2E2E2E2E2E2E2E2E2E2E2E20FE2BFF5E2E2E241F5E2E2E2F5
310
E20FE2E2E2E2E2E2E2E2E2E2E2E2E2E2E2E2E2E2E2E2E2E2E2E2E2E2E2E2E2E2E2E2E2E2E2E2E2E2E2E2E2E2E2E2E2E2E2E2E2E2E2E2E2E2E2E2E2E2E2E227272727E2E2E2E2E2E2E2E2E2E2E2E2E2E2E2E2E2E2E2E2E20FE2BFF5E2E2E23FF5E2E2E2F5E20FE2E2E2E2E2E2E2E2E2E2E2E2E2E2E2E2E2E2E2E2E2E2E2E2E2
310
E2E2E2E2E2E2E2E2E2E2E2E2E2E2E2E2E2E2E2E2E2E2E2E2E2E2E2E2E2E2E2E2E2E2E227272727E2E2E2E2E2E2E2E2E2E2E2E2E2E2E2E2E2E2E2E2E20FE2BFF5E2E2E241F5E2E2E2F5E20FE2E2E2E2E2E2E2E2E2E2E2E2E2E2E2E2E2E2E2E2E2E2E2E2E2E2E2E2E2E2E2E2E2E2E2E2E2E2E2E2E2E2E2E2E2E2E2E2E2E2E2E2
310
E2E2E2E2E2E2E2E227272727E2E2E2E2E2E2E2E2E2E2E2E2E2E2E2E2E2E2E2E2E20FE2BFF5E2E2E23FF5E2E2E2F5E20FE2E2E2E2E2E2E2E2E2E2E2E2E2E2E2E2E2E2E2E2E2E2E2E2E2E2E2E2E2E2E2E2E2E2E2E2E2E2E2E2E2E2E2E2E2E2E2E2E2E2E2E2E2E2E2E2E2E2E2E227272727E2E2E2E2E2E2E2E2E2E2E2E2E2E2E2
310
E2E2E2E2E2E20FE2BFF5E2E2E241F5E2E2E2F5E20FE2E2E2E2E2E2E2E2E2E2E2E2E2E2E2E2E2E2E2E2E2E2E2E2E2E2E2E2E2E2E2E2E2E2E2E2E2E2E2E2E2E2E2E2E2E2E2E2E2E2E2E2E2E2E2E2E2E2E2E227272727E2E2E2E2E2E2E2E2E2E2E2E2E2E2E2E2E2E2E2E2E20FE2BFF5E2E2E23FF5E2E2E2F5E20FE2E2E2E2E2E2
310
E2E2E2E2E2E2E2E2E2E2E2E2E2E2E2E2E2E2E2E2E2E2E2E2E2E2E2E2E2E2E2E2E2E2E2E2E2E2E2E2E2E2E2E2E2E2E2E2E2E2E2E2E2E2272727E2E2E2E2E2E2E2E2E2E2E2E2E2E2E2E2E2E2E2E2E2E20FE2BFF5E2E2E241F5E2E2E2F5E20FE2E2E2E2E2E2E2E2E2E2E2E2E2E2E2E2E2E2E2E2E2E2E2E2E2E2E2E2E2E2E2E2E2
310
E2E2E2E2E2E2E2E2E2E2E2E2E2E2E2E2E2E2E2E2E2E2E2E2E2E2272727272727E2E2E2E2E2E2E2E2E2E2E2E2E2E2E2E2E2E2E2E20FE2BFF5E2E2E23FF5E2E2E2F5E20FE2E2E2E2E2E2E2E2E2E2E2E2E2E21B1BE21B1B1B1BE2E2E2E2E21BE2E2E2E2E2E2E2E2E2E2E2E2E2E2E2E2E2E2E2E2E2E2E2E2E2E2E2E2E2E2E22727
310
2727E22727E2E2E2E2E2E2E2E2E2E2E2E2E2E2E2E2E2E2E2E20FE2BFF5E2E2E241F5E2E2E2F5E20FE2E2E2E2E2E2E2E2E2E2E2E2E2E21B1B1B1B1B1B1B1B1B1B1B1B1BE2E2E2E2E2E2E2E2E2E2E2E2E2E2E2E2E2E2E2E2E2E2E2E2E2E2E2E2E2E2E227E2E22727E2E227E2E2E2E2E2E2E2E2E2E2E2E2E2E2E2E2E2E2E20FE2
310
BFF5E2E2E23FF5E2E2E2F5E20FE2E2E2E2E2E2E2E2E2E2E2E2E2E21B1B1B1BE2E21B1B1B1B1B1B1BE2E2E2E2E2E2E2E2E2E2E2E2E2E2E2E2E2E2E2E2E2E2E2E2E2E2E2E2E2E2E227E2E22727E22727E2E2E2E2E2E2E2E2E2E2E2E2E2E2E2E2E2E2E20FE2BFF5E2E2E241F5E2E2E2F5E20FE2E2E2E2E2E2E2E2E2E2E2E2E2E2
310
1B1B1B1BE2E21B1BE2E2E2E21BE2E2E2E2E2E2E2E2E2E2E2E2E2E2E2E2E2E2E2E2E2E2E2E2E2E2E2E2E2E2E2272727E2E22727E2E2E2E2E2E2E2E2E2E2E2E2E2E2E2E2E2E2E2E20FE2BFF5E2E2E23FF5E2E2E2F5E20FE2E2E2E2E2E2E2E2E2E2E2E2E2E2E2E2E2E2E2E2E2E2E2E2E2E2E2E2E2E2E2E2E2E2E2E2E2E2E2E2E2
310
E2E2E2E2E2E2E2E2E2E2E2E2E2E2E2E2E2E22727E2E22727E2E2E2E2E2E2E2E2E2E2E2E2E2E2E2E2E2E2E2E20FE2BFF5E2E2E241F5E2E2E2F5E20FE2E2E2E2E2E2E2E2E2E2E2E2E2E2E2E2E2E2E2E2E2E2E2E2E2E2E2E2E2E2E2E2E2E2E2E2E2E2E2E2E2E2E2E2E2E2E2E2E2E2E2E2E2E2E2E2E2E2E2E2272727E2E2E2E2E2
310
E2E2E2E2E2E2E2E2E2E2E2E2E2E2E2E2E20FE2BFF5E2E2E23FF5E2E2E2F5E20FE2E2E2E2E2E2E2E2E2E2E2E2E2E2E2E2E2E2E2E2E2E2E2E2E2E2E2E2E2E2E2E2E2E2E2E2E2E2E2E2E2E2E2E2E2E2E2E2E2E2E2E2E2E2E2E2E2E2E2E2E2E2E2E2E2E2E2E2E2E2E2E2E2E2E2E2E2E2E2E2E2E2E2E2E20FE2BFF5E2E2E241F5E2
310
E2E2F5E20FE2E2E2E2E2E2E2E2E2E2E2E2E2E2E2E2E2E2E2E2E2E2E2E2E2E2E2E2E2E2E2E2E2E2E2E2E2E2E2E2E2E2E2E2E2E2E2E2E2E2E2E2E2E2E2E2E2E2E2E2E2E2E2E2E2E2E2E2E2E2E2E2E2E2E2E2E2E2E2E2E2E2E2E2E20FE2BFF5E2E2E23FF5E2E2E2F5E20FE2E2E2E2E2E2E2E2E2E2E2E2E2E2E2E2E2E2E2E2E2E2
310
E2E2E2E2E2E2E2E2E2E2E2E2E2E2E2E2E2E2E2E2E2E2E2E2E2E2E2E2E2E2E2E2E2E2E2E2E2E2E2E2E2E2E2E2E2E2E2E2E2E2E2E2E2E2E2E2E2E2E2E2E2E2E20FE2BFF5E2E2E241F5E2E2E2E2E20FE2E2E2E2E2E2E2E2E2E2E2E2E2E2E2E2E2E2E2E2E2E2E2E2E2E2E2E2E2E2E2E2E2E2E2E2E2E2E2E2E2E2E2E2E2E2E2E2E2
310
E2E2E2E2E2E2E2E2E2E2E2E2E2E2E2E2E2E2E2E2E2E2E2E2E2E2E2E2E2E2E2E2E2E2E2E20FE2BFE2E2E2E23FF5E2E2E2E2E20FE2E2E2E2E2E2E2E2E2E2E2E2E2E2E2E2E2E2E2E2E2E2E2E2E2E2E2E2E2E2E2E2E2E2E2E2E2E2E2E2E2E2E2E2E2E2E2E2E2E2E2E2E2E2E2E2E2E2E2E2E2E2E2E2E2E2E2E2E2E2E2E2E2E2E2E2
310
E2E2E2E2E2E2E2E2E20FE2BFE2E2E2E241F5E2E2E2E2E20FE2E2E2E2E2E2E2E2E2E2E2E2E2E2E2E2E2E2E2E2E2E2E2E2E2E2E2E2E2E2E2E2E2E2E2E2E2E2E2E2E2E2E2E2E2E2E2E2E2E2E2E2E2E2E2E2E2E2E2E2E2E2E2E2E2E2E2E2E2E2E2E2E2E2E2E2E2E2E2E2E2E2E2E2E20FE2BFE2E2E2E23FF5E2E2E2E2E20FE2E2E2
310
E2E2E2E2E2E2E2E2E2E2E2E2E2E2E2E2E2E2E2E2E2E2E2E2E2E2E2E2E2E2E2E2E2E2E2E2E2E2E2E2E2E2E2E2E2E2E2E2E2E2E2E2E2E2E2E2E2E2E2E2E2E2E2E2E2E2E2E2E2E2E2E2E2E2E2E2E2E2E2E2E2E20FE2BFE2E2E2E241F5E2E2E2E2E20FE2E2E2E2E2E2E2E2E2E2E2E2E2E2E2E2E2E2E2E2E2E2E2E2E2E2E2E2E2E2
310
E2E2E2E2E2E2E2E2E2E2E2E2E2E2E2E2E2E2E2E2E2E2E2E2E2E2E2E2E2E2E2E2E2E2E2E2E2E2E2E2E2E2E2E2E2E2E2E2E2E2E2E2E2E2E20FE2BFE2E2E2E23FF5E2E2E2E2E20FE2E2E2E2E2E2E2E2E2E2E2E2E2E2E2E2E2E2E2E2E2E2E2E2E2E2E2E2E2E2E2E2E2E2E2E2E2E2E2E2E2E2E2E2E2E2E2E2E2E2E2E2E2E2E2E2E2
310
E2E2E2E2E2E2E2E2E2E2E2E2E2E2E2E2E2E2E2E2E2E2E2E2E2E2E2E20FE2BFE2E2E2E241F5E2E2E2E2E20FE2E2E2E2E2E2E2E2E2E2E2E2E2E2E2E2E2E2E2E2E2E2E2E2E2E2E2E2E2E2E2E2E2E2E2E2E2E2E2E2E2E2E2E2E2E2E2E2E2E2E2E2E2E2E2E2E2E2E2E2E2E2E2E2E2E2E2E2E2E2E2E2E2E2E2E2E2E2E2E2E2E2E2E2
310
E20FE2BFE2E2E2E23FF5E2E2E2E2E20FE2E2E2E2E2E2E2E2E2E2E2E2E2E2E2E2E2E2E2E2E2E2E2E2E2E2E2E2E2E2E2E2E2E2E2E2E2E2E2E2E2E2E2E2E2E2E2E2E2E2E2E2E2E2E2E2E2E2E2E2E2E2E2E2E2E2E2E2E2E2E2E2E2E2E2E2E2E2E2E2E2E2E2E2E20FE2BFE2E2E2E241F5E2E2E2E2E20FE2E2E2E2E2E2E2E2E2E2E2
310
E2E2E2E2E2E2E2E2E2E2E2E2E2E2E2E2E2E2E2E2E2E2E2E2E2E2E2E2E2E2E2E2E2E2E2E2E2E2E2E2E2E2E2E2E2E2E2E2E2E2E2E2E2E2E2E2E2E2E2E2E2E2E2E2E2E2E2E2E2E2E2E2E2E20FE2BFE2E2E2E23FF5E2E2E2E2E20FE2E2E2E2E2E2E2E2E2E2E2E2E2E2E2E2E2E2E2E2E2E2E2E2E2E2E2E2E2E2E2E2E2E2E2E2E2E2
310
E2E2E2E2E2E2E2E2E2E2E2E2E2E2E2E2E2E2E2E2E2E2E2E2E2E2E2E2E2E2E2E2E2E2E2E2E2E2E2E2E2E2E2E2E2E2E20FE2BFE2E2E2E241F5E2E2E2F5E20FE2E2E2E2E2E2E2E2E2E2E2E2E2E2E2E2E2E2E2E2E2E2E2E2E2E2E2E2E2E2E2E2E2E2E2E2E2E2E2E2E2E2E2E2E2E2E2E2E2E2E2E2E2E2E2E2E2E2E2E2E2E2E2E2E2
310
E2E2E2E2E2E2E2E2E2E2E2E2E2E2E2E2E2E2E2E20FE2BFF5E2E2E23FF5E2E2E2F5E20FE2E2E2E2E2E2E2E2E2E2E2E2E2E2E2E2E2E2E2E2E2E2E2E2E2E2E2E2E2E2E2E2E2E2E2E2E2E2E2E2E2E2E2E2E2E2E2E2E2E2E2E2E2E2E2E2E2E2E2E2E2E2E2E2E2E2E2E2E2E2E2E2E2E2E2E2E2E2E2E2E2E2E2E2E20FE2BFF5E2E2E2
310
41F5E2E2E2F5E20FE2E2E2E2E2E2E2E2E2E2E2E2E2E2E2E2E2E2E2E2E2E2E2E2E2E2E2E2E2E2E2E2E2E2E2E2E2E2E2E2E2E2E2E2E2E2E2E2E2E2E2E2E2E2E2E2E2E2E2E2E2E2E2E2E2E2E2E2E2E2E2E2E2E2E2E2E2E2E2E2E2E2E2E2E20FE2BFF5E2E2E23FF5E2E2E2F5E20FE2E2E2E2E2E2E2E2E2E2E2E2E2E2E2E2E2E2E2
310
E2E2E2E2E2E2E2E2E2E2E2E2E2E2E2E2E2E2E2E2E2E2E2E2E2E2E2E2E2E2E2E2E2E2E2E2E2E2E2E2E2E2E2E2E2E2E2E2E2E2E2E2E2E2E2E2E2E2E2E2E2E2E2E2E2E20FE2BFF5E2E2E241F5E2E2E2F5E20FE2E2E2E2E2E2E2E2E2E2E2E2E2E2E2E2E2E2E2E2E2E2E2E2E2E2E2E2E2E2E2E2E2E2E2E2E2E2E2E2E2E2E2E2E2E2
310
E2E2E2E2E2E2E2E2E2E2E2E2E2E2E2E2E2E2E2E2E2E2E2E2E2E2E2E2E2E2E2E2E2E2E2E2E2E2E20FE2BFF5E2E2E23FF5E2E2E2F5E20FE2E2E2E2E2E2E2E2E2E2E2E2E2E2E2E2E2E2E2E2E2E2E2E2E2E2E2E2E2E2E2E2E2E2E2E2E2E2E2E2E2E2E2E2E2E2E2E2E2E2E2E2E2E2E2E2E2E2E2E2E2E2E2E2E2E2E2E2E2E2E2E2E2
310
E2E2E2E2E2E2E2E2E2E2E2E20FE2BFF5E2E2E241F5E2E2E2F5E20FE2E2E2E2E2E2E2E2E2E2E2E2E2E2E2E2E2E2E2E2E2E2E2E2E2E2E2E2E2E2E2E2E2E2E2E2E2E2E2E2E2E2E2E2E2E2E2E2E2E2E2E2E2E2E2E2E2E2E2E2E2E2E2E2E2E2E2E2E2E2E2E2E2E2E2E2E2E2E2E2E2E2E2E2E20FE2BFF5E2E2E23FF5E2E2E2F5E20F
310
E2E2E2E2E2E2E2E2E2E2E2E2E2E2E2E2E2E2E2E2E2E2E2E2E2E2E2E2E2E2E2E2E2E2E2E2E2E2E2E2E2E2E2E2E2E2E2E2E2E2E2E2E2E2E2E2E2E2E2E2E2E2E2E2E2E2E2E2E2E2E2E2E2E2E2E2E2E2E2E2E2E2E2E2E20FE2BFF5E2E2E241F5E2E2E2F5E20FE2E2E2E2E2E2E2E2E2E2E2E2E2E2E2E2E2E2E2E2E2E2E2E2E2E2E2
310
E2E2E2E2E2E2E2E2E2E2E2E2E2E2E2E2E2E2E2E2E2E2E2E2E2E2E2E2E2E2E2E2E2E2E2E2E2E2E2E2E2E2E2E2E2E2E2E2E2E2E2E2E2E2E2E2E2E20FE2BFF5E2E2E23FF5E2E2E2F5E20FE2E2E2E2E2E2E2E2E2E2E2E2E2E2E2E2E2E2E2E2E2E2E2E2E2E2E2E2E2E2E2E2E2E2E2E2E2E2E2E2E2E2E2E2E2E2E2E2E2E2E2E2E2E2
310
E2E2E2E2E2E2E2E2E2E2E2E2E2E2E2E2E2E2E2E2E2E2E2E2E2E2E2E2E2E2E20FE2BFF5E2E2E241F5E2E2E2F5E20FE2E2E2E2E2E2E2E2E2E2E2E2E2E2E2E2E2E2E2E2E2E2E2E2E2E2E2E2E2E2E2E2E2E2E2E2E2E2E2E2E2E2E2E2E2E2E2E2E2E2E2E2E2E2E2E2E2E2E2E2E2E2E2E2E2E2E2E2E2E2E2E2E2E2E2E2E2E2E2E2E2
310
E2E2E2E20FE2BFF5E2E2E23FF5E2E2E2F5E20FE2E2E2E2E2E2E2E2E2E2E2E2E2E2E2E2E2E2E2E2E2E2E2E2E2E2E2E2E2E2E2E2E2E2E2E2E2E2E2E2E2E2E2E2E2E2E2E2E2E2E2E2E2E2E2E2E2E2E2E2E2E2E2E2E2E2E2E2E2E2E2E2E2E2E2E2E2E2E2E2E2E2E2E2E20FE2BFF5E2E2E241F5E2E2E2F5E20FE2E2E2E2E2E2E2E2
310
E2E2E2E2E2E2E2E2E2E2E2E2E2E2E2E2E2E2E2E2E2E2E2E2E2E2E2E2E2E2E2E2E2E2E2E2E2E2E2E2E2E2E2E2E2E2E2E2E2E2E2E2E2E2E2E2E2E2E2E2E2E2E2E2E2E2E2E2E2E2E2E2E2E2E2E2E20FE2BFF5E2E2E23FF5E2E2E2F5E20FE2E2E2E2E2E2E2E2E2E2E2E2E2E2E2E2E2E2E2E2E2E2E2E2E2E2E2E2E2E2E2E2E2E2E2
310
E2E2E2E2E2E2E2E2E2E2E2E2E2E2E2E2E2E2E2E2E2E2E2E2E2E2E2E2E2E2E2E2E2E2E2E2E2E2E2E2E2E2E2E2E2E2E2E2E2E20FE2BFF5E2E2E241F5E2E2E2F5E20FE2E2E2E2E2E2E2E2E2E2E2E2E2E2E2E2E2E2E2E2E2E2E2E2E2E2E2E2E2E2E2E2E2E2E2E2E2E2E2E2E2E2E2E2E2E2E2E2E2E2E2E2E2E2E2E2E2E2E2E2E2E2
310
E2E2E2E2E2E2E2E2E2E2E2E2E2E2E2E2E2E2E2E2E2E2E20FE2BFF5E2E2E23FF5E2E2E2F5E20FE2E2E2E2E2E2E2E2E2E2E2E2E2E2E2E2E2E2E2E2E2E2E2E2E2E2E2E2E2E2E2E2E2E2E2E2E2E2E2E2E2E2E2E2E2E2E2E2E2E2E2E2E2E2E2E2E2E2E2E2E2E2E2E2E2E2E2E2E2E2E2E2E2E2E2E2E2E2E2E2E2E2E2E2E20FE2BFF5
310
E2E2E241F5E2E2E2F5E20FE2E2E2E2E2E2E2E2E2E2E2E2E2E2E2E2E2E2E2E2E2E2E2E2E2E2E2E2E2E2E2E2E2E2E2E2E2E2E2E2E2E2E2E2E2E2E2E2E2E2E2E2E2E2E2E2E2E2E2E2E2E2E2E2E2E2E2E2E2E2E2E2E2E2E2E2E2E2E2E2E2E2E2E2E20FE2BFF5E2E2E23FF5E2E2E2E2E20FE2E2E2E2E2E2E2E2E2E2E2E2E2E2E2E2
310
E2E2E2E2E2E2E2E2E2E2E2E2E2E2E2E2E2E2E2E2E2E2E2E2E2E2E2E2E2E2E2E2E2E2E2E2E2E2E2E2E2E2E2E2E2E2E2E2E2E2E2E2E2E2E2E2E2E2E2E2E2E2E2E2E2E2E2E2E20FE2BFE2E2E2E241F5E2E2E2E2E20FE2E2E2E2E2E2E2E2E2E2E2E2E2E2E2E2E2E2E2E2E2E2E2E2E2E2E2E2E2E2E2E2E2E2E2E2E2E2E2E2E2E2E2
310
E2E2E2E2E2E2E2E2E2E2E2E2E2E2E2E2E2E2E2E2E2E2E2E2E2E2E2E2E2E2E2E2E2E2E2E2E2E2E2E2E2E20FE2BFE2E2E2E23FF5E2E2E2E2E20FE2E2E2E2E2E2E2E2E2E2E2E2E2E2E2E2E2E2E2E2E2E2E2E2E2E2E2E2E2E2E2E2E2E2E2E2E2E2E2E2E2E2E2E2E2E2E2E2E2E2E2E2E2E2E2E2E2E2E2E2E2E2E2E2E2E2E2E2E2E2
310
E2E2E2E2E2E2E2E2E2E2E2E2E2E2E20FE2BFE2E2E2E241F5E2E2E2E2E20FE2E2E2E2E2E2E2E2E2E2E2E2E2E2E2E2E2E2E2E2E2E2E2E2E2E2E2E2E2E2E2E2E2E2E2E2E2E2E2E2E2E2E2E2E2E2E2E2E2E2E2E2E2E2E2E2E2E2E2E2E2E2E2E2E2E2E2E2E2E2E2E2E2E2E2E2E2E2E2E2E2E2E2E2E20FE2BFE2E2E2E23FF5E2E2E2
310
E2E20FE2E2E2E2E2E2E2E2E2E2E2E2E2E2E2E2E2E2E2E2E2E2E2E2E2E2E2E2E2E2E2E2E2E2E2E2E2E2E2E2E2E2E2E2E2E2E2E2E2E2E2E2E2E2E2E2E2E2E2E2E2E2E2E2E2E2E2E2E2E2E2E2E2E2E2E2E2E2E2E2E2E2E2E2E20FE2BFE2E2E2E241F5E2E2E2E2E20FE2E2E2E2E2E2E2E2E2E2E2E2E2E2E2E2E2E2E2E2E2E2E2E2
310
E2E2E2E2E2E2E2E2E2E2E2E2E2E2E2E2E2E2E2E2E2E2E2E2E2E2E2E2E2E2E2E2E2E2E2E2E2E2E2E2E2E2E2E2E2E2E2E2E2E2E2E2E2E2E2E2E2E2E2E2E20FE2BFE2E2E2E23FF5E2E2E2E2E20FE2E2E2E2E2E2E2E2E2E2E2E2E2E2E2E2E2E2E2E2E2E2E2E2E2E2E2E2E2E2E2E2E2E2E2E2E2E2E2E2E2E2E2E2E2E2E2E2E2E2E2
310
E2E2E2E2E2E2E2E2E2E2E2E2E2E2E2E2E2E2E2E2E2E2E2E2E2E2E2E2E2E2E2E2E2E20FE2BFE2E2E2E241F5E2E2E2E2E20FE2E2E2E2E2E2E2E2E2E2E2E2E2E2E2E2E2E2E2E2E2E2E2E2E2E2E2E2E2E2E2E2E2E2E2E2E2E2E2E2E2E2E2E2E2E2E2E2E2E2E2E2E2E2E2E2E2E2E2E2E2E2E2E2E2E2E2E2E2E2E2E2E2E2E2E2E2E2
310
E2E2E2E2E2E2E20FE2BFE2E2E2E23FF5E2E2E2E2E20FE2E2E2E2E2E2E2E2E2E2E2E2E2E2E2E2E2E2E2E2E2E2E2E2E2E2E2E2E2E2E2E2E2E2E2E2E2E2E2E2E2E2E2E2E2E2E2E2E2E2E2E2E2E2E2E2E2E2E2E2E2E2E2E2E2E2E2E2E2E2E2E2E2E2E2E2E2E2E2E2E2E2E2E2E20FE2BFE2E2E2E241F5E2E2E2F5E20FE2E2E2E2E2
310
E2E2E2E2E2E2E2E2E2E2E2E2E2E2E2E2E2E2E2E2E2E2E2E2E2E2E2E2E2E2E2E2E2E2E2E2E2E2E2E2E2E2E2E2E2E2E2E2E2E2E2E2E2E2E2E2E2E2E2E2E2E2E2E2E2E2E2E2E2E2E2E2E2E2E2E2E2E2E2E20FE2BFF5E2E2E23FF5E2E2E2F5E20FE2E2E2E2E2E2E2E2E2E2E2E2E2E2E2E2E2E2E2E2E2E2E2E2E2E2E2E2E2E2E2E2
310
E2E2E2E2E2E2E2E2E2E2E2E2E2E2E2E2E2E2E2E2E2E2E2E2E2E2E2E2E2E2E2E2E2E2E2E2E2E2E2E2E2E2E2E2E2E2E2E2E2E2E2E2E20FE2BFF5E2E2E241F5E2E2E2F5E20FE2E2E2E2E2E2E2E2E2E2E2E2E2E2E2E2E2E2E2E2E2E2E2E2E2E2E2E2E2E2E2E2E2E2E2E2E2E2E2E2E2E2E2E2E2E2E2E2E2E2E2E2E2E2E2E2E2E2E2
310
E2E2E2E2E2E2E2E2E2E2E2E2E2E2E2E2E2E2E2E2E2E2E2E2E2E20FE2BFF5E2E2E23FF5E2E2E2F5E20FE2E2E2E2E2E2E2E2E2E2E2E2E2E2E2E2E2E2E2E2E2E2E2E2E2E2E2E2E2E2E2E2E2E2E2E2E2E2E2E2E2E2E2E2E2E2E2E2E2E2E2E2E2E2E2E2E2E2E2E2E2E2E2E2E2E2E2E2E2E2E2E2E2E2E2E2E2E2E2E2E2E2E2E2E20F
310
E2BFF5E2E2E241F5E2E2E2F5E20FE2E2E2E2E2E2E2E2E2E2E2E2E2E2E2E2E2E2E2E2E2E2E2E2E2E2E2E2E2E2E2E2E2E2E2E2E2E2E2E2E2E2E2E2E2E2E2E2E2E2E2E2E2E2E2E2E2E2E2E2E2E2E2E2E2E2E2E2E2E2E2E2E2E2E2E2E2E2E2E2E2E2E2E2E20FE2BFF5E2E2E23FF5E2E2E2F5E20FE2E2E2E2E2E2E2E2E2E2E2E2E2
310
E2E2E2E2E2E2E2E2E2E2E2E2E2E2E2E2E2E2E2E2E2E2E2E2E2E2E2E2E2E2E2E2E2E2E2E2E2E2E2E2E2E2E2E2E2E2E2E2E2E2E2E2E2E2E2E2E2E2E2E2E2E2E2E2E2E2E2E2E2E2E2E20FE2BFF5E2E2E241F5E2E2E2F5E20FE2E2E2E2E2E2E2E2E2E2E2E2E2E2E2E2E2E2E2E2E2E2E2E2E2E2E2E2E2E2E2E2E2E2E2E2E2E2E2E2
310
E2E2E2E2E2E2E2E2E2E2E2E2E2E2E2E2E2E2E2E2E2E2E2E2E2E2E2E2E2E2E2E2E2E2E2E2E2E2E2E2E2E2E2E2E20FE2BFF5E2E2E23FF5E2E2E2F5E20FE2E2E2E2E2E2E2E2E2E2E2E2E2E2E2E2E2E2E2E2E2E2E2E2E2E2E2E2E2E2E2E2E2E2E2E2E2E2E2E2E2E2E2E2E2E2E2E2E2E2E2E2E2E2E2E2E2E2E2E2E2E2E2E2E2E2E2
310
E2E2E2E2E2E2E2E2E2E2E2E2E2E2E2E2E2E20FE2BFF5E2E2E241F5E2E2E2F5E20FE2E2E2E2E2E2E2E2E2E2E2E2E2E2E2E2E2E2E2E2E2E2E2E2E2E2E2E2E2E2E2E2E2E2E2E2E2E2E2E2E2E2E2E2E2E2E2E2E2E2E2E2E2E2E2E2E2E2E2E2E2E2E2E2E2E2E2E2E2E2E2E2E2E2E2E2E2E2E2E2E2E2E2E2E20FE2BFF5E2E2E23FF5
310
E2E2E2F5E20FE2E2E2E2E2E2E2E2E2E2E2E2E2E2E2E2E2E2E2E2E2E2E2E2E2E2E2E2E2E2E2E2E2E2E2E2E2E2E2E2E2E2E2E2E2E2E2E2E2E2E2E2E2E2E2E2E2E2E2E2E2E2E2E2E2E2E2E2E2E2E2E2E2E2E2E2E2E2E2E2E2E2E2E2E20FE2BFF5E2E2E241F5E2E2E2F5E20FE2E2E2E2E2E2E2E2E2E2E2E2E2E2E2E2E2E2E2E2E2
310
E2E2E2E2E2E2E2E2E2E2E2E2E2E2E2E2E2E2E2E2E2E2E2E2E2E2E2E2E2E2E2E2E2E2E2E2E2E2E2E2E2E2E2E2E2E2E2E2E2E2E2E2E2E2E2E2E2E2E2E2E2E2E2E20FE2BFF5E2E2E23FF5E2E2E2F5E20FE2E2E2E2E2E2E2E2E2E2E2E2E2E2E2E2E2E2E2E2E2E2E2E2E2E2E2E2E2E2E2E2E2E2E2E2E2E2E2E2E2E2E2E2E2E2E2E2
310
E2E2E2E2E2E2E2E2E2E2E2E2E2E2E2E2E2E2E2E2E2E2E2E2E2E2E2E2E2E2E2E2E2E2E2E2E20FE2BFF5E2E2E241F5E2E2E2F5E20FE2E2E2E2E2E2E2E2E2E2E2E2E2E2E2E2E2E2E2E2E2E2E2E2E2E2E2E2E2E2E2E2E2E2E2E2E2E2E2E2E2E2E2E2E2E2E2E2E2E2E2E2E2E2E2E2E2E2E2E2E2E2E2E2E2E2E2E2E2E2E2E2E2E2E2
310
E2E2E2E2E2E2E2E2E2E20FE2BFF5E2E2E23FF5E2E2E2F5E20FE2E2E2E2E2E2E2E2E2E2E2E2E2E2E2E2E2E2E2E2E2E2E2E2E2E2E2E2E2E2E2E2E2E2E2E2E2E2E2E2E2E2E2E2E2E2E2E2E2E2E2E2E2E2E2E2E2E2E2E2E2E2E2E2E2E2E2E2E2E2E2E2E2E2E2E2E2E2E2E2E2E2E2E2E20FE2BFF5E2E2E241F5E2E2E2F5E20FE2E2
310
E2E2E2E2E2E2E2E2E2E2E2E2E2E2E2E2E2E2E2E2E2E2E2E2E2E2E2E2E2E2E2E2E2E2E2E2E2E2E2E2E2E2E2E2E2E2E2E2E2E2E2E2E2E2E2E2E2E2E2E2E2E2E2E2E2E2E2E2E2E2E2E2E2E2E2E2E2E2E2E2E2E2E20FE2BFF5E2E2E23FF5E2E2E2F5E20FE2E2E2E2E2E2E2E2E2E2E2E2E2E2E2E2E2E2E2E2E2E2E2E2E2E2E2E2E2
310
E2E2E2E2E2E2E2E2E2E2E2E2E2E2E2E2E2E2E2E2E2E2E2E2E2E2E2E2E2E2E2E2E2E2E2E2E2E2E2E2E2E2E2E2E2E2E2E2E2E2E2E2E2E2E2E20FE2BFF5E2E2E241F5E2E2E2F5E20FE2E2E2E2E2E2E2E2E2E2E2E2E2E2E2E2E2E2E2E2E2E2E2E2E2E2E2E2E2E2E2E2E2E2E2E2E2E2E2E2E2E2E2E2E2E2E2E2E2E2E2E2E2E2E2E2
310
E2E2E2E2E2E2E2E2E2E2E2E2E2E2E2E2E2E2E2E2E2E2E2E2E2E2E2E2E20FE2BFF5E2E2E23FF5E2E2E2E2E20FE2E2E2E2E2E2E2E2E2E2E2E2E2E2E2E2E2E2E2E2E2E2E2E2E2E2E2E2E2E2E2E2E2E2E2E2E2E2E2E2E2E2E2E2E2E2E2E2E2E2E2E2E2E2E2E2E2E2E2E2E2E2E2E2E2E2E2E2E2E2E2E2E2E2E2E2E2E2E2E2E2E2E2
310
E2E20FE2BFE2E2E2E241F5E2E2E2E2E20FE2E2E2E2E2E2E2E2E2E2E2E2E2E2E2E2E2E2E2E2E2E2E2E2E2E2E2E2E2E2E2E2E2E2E2E2E2E2E2E2E2E2E2E2E2E2E2E2E2E2E2E2E2E2E2E2E2E2E2E2E2E2E2E2E2E2E2E2E2E2E2E2E2E2E2E2E2E2E2E2E2E2E2E2E20FE2BFE2E2E2E23FF5E2E2E2E2E20FE2E2E2E2E2E2E2E2E2E2
310
E2E2E2E2E2E2E2E2E2E2E2E2E2E2E2E2E2E2E2E2E2E2E2E2E2E2E2E2E2E2E2E2E2E2E2E2E2E2E2E2E2E2E2E2E2E2E2E2E2E2E2E2E2E2E2E2E2E2E2E2E2E2E2E2E2E2E2E2E2E2E2E2E2E2E20FE2BFE2E2E2E241F5E2E2E2E2E20FE2E2E2E2E2E2E2E2E2E2E2E2E2E2E2E2E2E2E2E2E2E2E2E2E2E2E2E2E2E2E2E2E2E2E2E2E2
310
E2E2E2E2E2E2E2E2E2E2E2E2E2E2E2E2E2E2E2E2E2E2E2E2E2E2E2E2E2E2E2E2E2E2E2E2E2E2E2E2E2E2E2E2E2E2E2E20FE2BFE2E2E2E23FF5E2E2E2E2E20FE2E2E2E2E2E2E2E2E2E2E2E2E2E2E2E2E2E2E2E2E2E2E2E2E2E2E2E2E2E2E2E2E2E2E2E2E2E2E2E2E2E2E2E2E2E2E2E2E2E2E2E2E2E2E2E2E2E2E2E2E2E2E2E2
310
E2E2E2E2E2E2E2E2E2E2E2E2E2E2E2E2E2E2E2E2E20FE2BFE2E2E2E241F5E2E2E2E2E20FE2E2E2E2E2E2E2E2E2E2E2E2E2E2E2E2E2E2E2E2E2E2E2E2E2E2E2E2E2E2E2E2E2E2E2E2E2E2E2E2E2E2E2E2E2E2E2E2E2E2E2E2E2E2E2E2E2E2E2E2E2E2E2E2E2E2E2E2E2E2E2E2E2E2E2E2E2E2E2E2E2E2E2E2E20FE2BFE2E2E2
310
E23FF5E2E2E2E2E20FE2E2E2E2E2E2E2E2E2E2E2E2E2E2E2E2E2E2E2E2E2E2E2E2E2E2E2E2E2E2E2E2E2E2E2E2E2E2E2E2E2E2E2E2E2E2E2E2E2E2E2E2E2E2E2E2E2E2E2E2E2E2E2E2E2E2E2E2E2E2E2E2E2E2E2E2E2E2E2E2E2E2E2E2E20FE2BFE2E2E2E241F5E2E2E2E2E20FE2E2E2E2E2E2E2E2E2E2E2E2E2E2E2E2E2E2
310
E2E2E2E2E2E2E2E2E2E2E2E2E2E2E2E2E2E2E2E2E2E2E2E2E2E2E2E2E2E2E2E2E2E2E2E2E2E2E2E2E2E2E2E2E2E2E2E2E2E2E2E2E2E2E2E2E2E2E2E2E2E2E2E2E2E2E20FE2BFE2E2E2E23FF5E2E2E2E2BF0FE2E2E2E2E2E2E2E2E2E2E2E2E2E2E2E2E2E2E2E2E2E2E2E2E2E2E2E2E2E2E2E2E2E2E2E2E2E2E2E2E2E2E2E2E2
310
E2E2E2E2E2E2E2E2E2E2E2E2E2E2E2E2E2E2E2E2E2E2E2E2E2E2E2E2E2E2E2E2E2E2E2E2E2E2E2E20FE2BFE2E2E2E241F5E2E2E2E2BF0FE2E2E2E2E2E2E2E2E2E2E2E2E2E2E2E2E2E2E2E2E2E2E2E2E2E2E2E2E2E2E2E2E2E2E2E2E2E2E2E2E2E2E2E2E2E2E2E2E2E2E2E2E2E2E2E2E2E2E2E2E2E2E2E2E2E2E2E2E2E2E2E2
310
E2E2E2E2E2E2E2E2E2E2E2E2E20FE2BFE2E2E2E23FF5E2E2E2F5BF0F0F0F0F0F0F0F0F0F0F0F0F0F0F0F0F0F0F0F0F0F0F0F0F0F0F0F0F0F0F0F0F0F0F0F0F0F0F0F0F0F0F0F0F0F0F0F0F0F0F0F0F0F0F0F0F0F0F0F0F0F0F0F0F0F0F0F0F0F0F0F0F0F0F0F0F0F0F0F0F0F0F0F0F0F0F0FE2BFF5E2E2E241F5E2E2E2F5BF
310
E2E2E2E2E2E2E2E2E2E2E2E2E2E2E2E2E2E2E2E2E2E2E2E2E2E2E2E2E2E2E2E2E2E2E2E2E2E2E2E2E2E2E2E2E2E2E2E2E2E2E2E2E2E2E2E2E2E2E2E2E2E2E2E2E2E2E2E2E2E2E2E2E2E2E2E2E2E2E2E2E2E2E2E2E2E2E2E2BFF5E2E2E23FF5E2E2E2F5BFE2E2E2E2E2E2E2E2E2E2E2E2E2E2E2E2E2E2E2E2E2E2E2E2E2E2E2
310
E2E2E2E2E2E2E2E2E2E2E2E2E2E2E2E2E2E2E2E2E2E2E2E2E2E2E2E2E2E2E2E2E2E2E2E2E2E2E2E2E2E2E2E2E2E2E2E2E2E2E2E2E2E2E2E2E2E2E2E2E2BFF5E2E2E241F5E2E2E2F5BFE2E2E2E2E2E2E2E2E2E2E2E2E2E2E2E2E2E2E2E2E2E2E2E2E2E2E2E2E2E2E2E2E2E2E2E2E2E2E2E2E2E2E2E2E2E2E2E2E2E2E2E2E2E2
310
E2E2E2E2E2E2E2E2E2E2E2E2E2E2E2E2E2E2E2E2E2E2E2E2E2E2E2E2E2E2E21B1BE2BFF5E2E2E23FF5E2E2E2F5BFE2E2E2E2E227272727272727272727E2E2E2E2E2E2E2E2E2E2E2E2E2E2E2E2E2E2E2E2E2E2E2E2E2E2E21B1B1B1B1B1B1B1B1B1B1B1B1B1B1B1B1B1B1B1B1B1B1B1B1B1B1B1BE2E2E2E2E2E2E2E2E2E2E2
310
E22727E21B1BE2BFF5E2E2E241F5E2E2E2F5BFE2E2E2E2E227272727272727272727E2E2E2E2E2E2E2E2E2E2E2E2E2E2E2E2E2E2E2E2E2E2E2E2E2E2E21B1B1B1B1B1B1B1B1B1B1B1B1B1B1B1B1B1B1B1B1B1B1B1B1B1B1B1BE2E2E2E2E2E2E2E2E2E2E2E22727E21B1BE2BFF5E2E2E23FBFBFE2BFBFBFBFBFBFBFBFBFBFBF
310
BFBFBFBFBFBFBFBFBFBFBFBFBFBFBFBFBFBFBFBFBFBFBFBFBFBFBFBFBFBFBFBFBFBFBFBFBFBFBFBFBFBFBFBFBFBFBFBFBFBFBFBFBFBFBFBFBFBFBFBFBFBFBFBFBFBFBFBFBFBFBFBFBFBFBFBFBFBFBFBFBFF5E2E2E2412AE2E2E2F5E2E2E2E2E2E2E2E2E2E2E2E2E2E2E2E2E2E2E2E2E2E2E2E2E2E2E2E2E2E2E2E2E2E2E2E2
310
E2E2E2E2E2E2E2E2E2E2E2E2E2E2E2E2E2E2E2E2E2E2E2E2E2E2E2E2E2E2E2E2E2E2E2E2E2E2E2E2E2E2E2E2E2E2E2E2E2E2E2E2E2E2F5E2E2E2002AE2E2E2F5F5F5F5F5F5F5F5E2E2E2E2E2E2E2E2F5F5F5F5F5F5F5F5F5F5F5F5F5F5F5E2E2E2E2E2E2E2E2F5F5F5F5F5F5F5F5F5F5F5F5F5F5E2E2E2E2E2E2E2E2F5F5F5
310
F5F5F5F5F5F5F5F5F5F5F5F5E2E2E2E2E2E2E2E2F5F5F5F5F5F5F5F5E2E2E2002AE2E2E2E2E2E2E2E2E2E2E2E2E2E2E2E2E2E2E2E2E2E2E2E2E2E2E2E2E2E2E2E2E2E2E2E2E2E2E2E2E2E2E2E2E2E2E2E2E2E2E2E2E2E2E2E2E2E2E2E2E2E2E2E2E2E2E2E2E2E2E2E2E2E2E2E2E2E2E2E2E2E2E2E2E2E2E2E2E2E2E2E2E2E2
310
E2E2E2E2002AE2E2E2E2E2E2E2E2E2E2E2E2E2E2E2E2E2E2E2E2E2E2E2E2E2E2E2E2E2E2E2E2E2E2E2E2E2E2E2E2E2E2E2E2E2E2E2E2E2E2E2E2E2E2E2E2E2E2E2E2E2E2E2E2E2E2E2E2E2E2E2E2E2E2E2E2E2E2E2E2E2E2E2E2E2E2E2E2E2E2E2E2E2E2E2E2E2E2002A2A2A2A2A2A2A2A2A2A2A2A2A2A2A2A2A2A2A2A2A2A
310
2A2A2A2A2A2A2A2A2A2A2A2A2A2A2A2A2A2A2A2A2A2A2A2A2A2A2A2A2A2A2A2A2A2A2A2A2A2A2A2A2A2A2A2A2A2A2A2A2A2A2A2A2A2A2A2A2A2A2A2A2A2A2A2A2A2A2A2A2A2A2A2A2A2A2A2A2A00
  0
XRECORD
  5
721
102
{ACAD_REACTORS
330
720
102
}
330
720
100
AcDbXrecord
280
     1
102
MATERIAL
148
0.0
149
0.0
149
0.0
 93
        0
 94
      127
282
     0
 72
     1
 77
     1
171
     1
175
     1
179
     1
273
     0
  0
XRECORD
  5
71F
102
{ACAD_REACTORS
330
71E
102
}
330
71E
100
AcDbXrecord
280
     1
102
MATERIAL
148
0.0
149
0.0
149
0.0
 93
        0
 94
      127
282
     0
 72
     1
 77
     1
171
     1
175
     1
179
     1
273
     0
  0
XRECORD
  5
71A
102
{ACAD_REACTORS
330
719
102
}
330
719
100
AcDbXrecord
280
     1
102
MATERIAL
148
0.0
149
0.0
149
0.0
 93
        0
 94
      127
282
     0
 72
     1
 77
     1
171
     1
175
     1
179
     1
273
     0
  0
CELLSTYLEMAP
  5
1041
102
{ACAD_REACTORS
330
217
102
}
330
217
100
AcDbCellStyleMap
 90
        3
300
CELLSTYLE
  1
TABLEFORMAT_BEGIN
 90
        5
170
     1
 91
        0
 92
    32768
 62
   257
 93
        1
300
CONTENTFORMAT
  1
CONTENTFORMAT_BEGIN
 90
        0
 91
        0
 92
        4
 93
        0
300

 40
0.0
140
1.0
 94
        5
 62
     0
340
20
144
0.25
309
CONTENTFORMAT_END
171
     1
301
MARGIN
  1
CELLMARGIN_BEGIN
 40
0.06
 40
0.06
 40
0.06
 40
0.06
 40
0.18
 40
0.18
309
CELLMARGIN_END
 94
        6
 95
        1
302
GRIDFORMAT
  1
GRIDFORMAT_BEGIN
 90
        0
 91
        1
 62
     0
 92
       -2
340
0
 93
        0
 40
0.045
309
GRIDFORMAT_END
 95
        2
302
GRIDFORMAT
  1
GRIDFORMAT_BEGIN
 90
        0
 91
        1
 62
     0
 92
       -2
340
0
 93
        0
 40
0.045
309
GRIDFORMAT_END
 95
        4
302
GRIDFORMAT
  1
GRIDFORMAT_BEGIN
 90
        0
 91
        1
 62
     0
 92
       -2
340
0
 93
        0
 40
0.045
309
GRIDFORMAT_END
 95
        8
302
GRIDFORMAT
  1
GRIDFORMAT_BEGIN
 90
        0
 91
        1
 62
     0
 92
       -2
340
0
 93
        0
 40
0.045
309
GRIDFORMAT_END
 95
       16
302
GRIDFORMAT
  1
GRIDFORMAT_BEGIN
 90
        0
 91
        1
 62
     0
 92
       -2
340
0
 93
        0
 40
0.045
309
GRIDFORMAT_END
 95
       32
302
GRIDFORMAT
  1
GRIDFORMAT_BEGIN
 90
        0
 91
        1
 62
     0
 92
       -2
340
0
 93
        0
 40
0.045
309
GRIDFORMAT_END
309
TABLEFORMAT_END
  1
CELLSTYLE_BEGIN
 90
        1
 91
        1
300
_TITLE
309
CELLSTYLE_END
300
CELLSTYLE
  1
TABLEFORMAT_BEGIN
 90
        5
170
     1
 91
        0
 92
        0
 62
   257
 93
        1
300
CONTENTFORMAT
  1
CONTENTFORMAT_BEGIN
 90
        0
 91
        0
 92
        4
 93
        0
300

 40
0.0
140
1.0
 94
        5
 62
     0
340
20
144
0.18
309
CONTENTFORMAT_END
171
     1
301
MARGIN
  1
CELLMARGIN_BEGIN
 40
0.06
 40
0.06
 40
0.06
 40
0.06
 40
0.18
 40
0.18
309
CELLMARGIN_END
 94
        6
 95
        1
302
GRIDFORMAT
  1
GRIDFORMAT_BEGIN
 90
        0
 91
        1
 62
     0
 92
       -2
340
0
 93
        0
 40
0.045
309
GRIDFORMAT_END
 95
        2
302
GRIDFORMAT
  1
GRIDFORMAT_BEGIN
 90
        0
 91
        1
 62
     0
 92
       -2
340
0
 93
        0
 40
0.045
309
GRIDFORMAT_END
 95
        4
302
GRIDFORMAT
  1
GRIDFORMAT_BEGIN
 90
        0
 91
        1
 62
     0
 92
       -2
340
0
 93
        0
 40
0.045
309
GRIDFORMAT_END
 95
        8
302
GRIDFORMAT
  1
GRIDFORMAT_BEGIN
 90
        0
 91
        1
 62
     0
 92
       -2
340
0
 93
        0
 40
0.045
309
GRIDFORMAT_END
 95
       16
302
GRIDFORMAT
  1
GRIDFORMAT_BEGIN
 90
        0
 91
        1
 62
     0
 92
       -2
340
0
 93
        0
 40
0.045
309
GRIDFORMAT_END
 95
       32
302
GRIDFORMAT
  1
GRIDFORMAT_BEGIN
 90
        0
 91
        1
 62
     0
 92
       -2
340
0
 93
        0
 40
0.045
309
GRIDFORMAT_END
309
TABLEFORMAT_END
  1
CELLSTYLE_BEGIN
 90
        2
 91
        1
300
_HEADER
309
CELLSTYLE_END
300
CELLSTYLE
  1
TABLEFORMAT_BEGIN
 90
        5
170
     1
 91
        0
 92
        0
 62
   257
 93
        1
300
CONTENTFORMAT
  1
CONTENTFORMAT_BEGIN
 90
        0
 91
        0
 92
        4
 93
        0
300

 40
0.0
140
1.0
 94
        2
 62
     0
340
20
144
0.18
309
CONTENTFORMAT_END
171
     1
301
MARGIN
  1
CELLMARGIN_BEGIN
 40
0.06
 40
0.06
 40
0.06
 40
0.06
 40
0.18
 40
0.18
309
CELLMARGIN_END
 94
        6
 95
        1
302
GRIDFORMAT
  1
GRIDFORMAT_BEGIN
 90
        0
 91
        1
 62
     0
 92
       -2
340
0
 93
        0
 40
0.045
309
GRIDFORMAT_END
 95
        2
302
GRIDFORMAT
  1
GRIDFORMAT_BEGIN
 90
        0
 91
        1
 62
     0
 92
       -2
340
0
 93
        0
 40
0.045
309
GRIDFORMAT_END
 95
        4
302
GRIDFORMAT
  1
GRIDFORMAT_BEGIN
 90
        0
 91
        1
 62
     0
 92
       -2
340
0
 93
        0
 40
0.045
309
GRIDFORMAT_END
 95
        8
302
GRIDFORMAT
  1
GRIDFORMAT_BEGIN
 90
        0
 91
        1
 62
     0
 92
       -2
340
0
 93
        0
 40
0.045
309
GRIDFORMAT_END
 95
       16
302
GRIDFORMAT
  1
GRIDFORMAT_BEGIN
 90
        0
 91
        1
 62
     0
 92
       -2
340
0
 93
        0
 40
0.045
309
GRIDFORMAT_END
 95
       32
302
GRIDFORMAT
  1
GRIDFORMAT_BEGIN
 90
        0
 91
        1
 62
     0
 92
       -2
340
0
 93
        0
 40
0.045
309
GRIDFORMAT_END
309
TABLEFORMAT_END
  1
CELLSTYLE_BEGIN
 90
        3
 91
        2
300
_DATA
309
CELLSTYLE_END
  0
XRECORD
  5
1046
102
{ACAD_REACTORS
330
217
102
}
330
217
100
AcDbXrecord
280
     1
102
ACAD_ROUNDTRIP_PRE2007_TABLESTYLE
 90
        4
 91
        0
  1

 92
        4
 93
        0
  2

 94
        4
 95
        0
  3

  0
ENDSEC
  0
EOF
