  0
SECTION
  2
HEADER
  9
$ACADVER
  1
AC1015
  9
$ACADMAINTVER
 70
    20
  9
$DWGCODEPAGE
  3
ANSI_1250
  9
$INSBASE
 10
9677.351579171606
 20
1189.596440029025
 30
0.0000000000031697
  9
$EXTMIN
 10
43944.14848796245
 20
-12830.83143835137
 30
-0.0000000000000103
  9
$EXTMAX
 10
54147.77014917767
 20
1190.024274540257
 30
0.000000000000971
  9
$LIMMIN
 10
0.0
 20
0.0
  9
$LIMMAX
 10
12.0
 20
9.0
  9
$ORTHOMODE
 70
     1
  9
$REGENMODE
 70
     1
  9
$FILLMODE
 70
     1
  9
$QTEXTMODE
 70
     0
  9
$MIRRTEXT
 70
     0
  9
$LTSCALE
 40
75.0
  9
$ATTMODE
 70
     1
  9
$TEXTSIZE
 40
0.2
  9
$TRACEWID
 40
40.0
  9
$TEXTSTYLE
  7
STANDARD
  9
$CLAYER
  8
0Wymiary-PL
  9
$CELTYPE
  6
BYLAYER
  9
$CECOLOR
 62
   256
  9
$CELTSCALE
 40
4.0
  9
$DISPSILH
 70
     0
  9
$DIMSCALE
 40
1.0
  9
$DIMASZ
 40
30.0
  9
$DIMEXO
 40
43.0
  9
$DIMDLI
 40
0.0
  9
$DIMRND
 40
0.5
  9
$DIMDLE
 40
12.0
  9
$DIMEXE
 40
13.0
  9
$DIMTP
 40
0.0
  9
$DIMTM
 40
0.0
  9
$DIMTXT
 40
80.0
  9
$DIMCEN
 40
0.0
  9
$DIMTSZ
 40
0.0
  9
$DIMTOL
 70
     0
  9
$DIMLIM
 70
     0
  9
$DIMTIH
 70
     0
  9
$DIMTOH
 70
     0
  9
$DIMSE1
 70
     1
  9
$DIMSE2
 70
     1
  9
$DIMTAD
 70
     0
  9
$DIMZIN
 70
    12
  9
$DIMBLK
  1
B-DIM
  9
$DIMASO
 70
     1
  9
$DIMSHO
 70
     1
  9
$DIMPOST
  1

  9
$DIMAPOST
  1

  9
$DIMALT
 70
     0
  9
$DIMALTD
 70
     2
  9
$DIMALTF
 40
25.4
  9
$DIMLFAC
 40
1.0
  9
$DIMTOFL
 70
     1
  9
$DIMTVP
 40
1.0
  9
$DIMTIX
 70
     1
  9
$DIMSOXD
 70
     0
  9
$DIMSAH
 70
     0
  9
$DIMBLK1
  1

  9
$DIMBLK2
  1

  9
$DIMSTYLE
  2
500
  9
$DIMCLRD
 70
     1
  9
$DIMCLRE
 70
     1
  9
$DIMCLRT
 70
   140
  9
$DIMTFAC
 40
1.0
  9
$DIMGAP
 40
0.0
  9
$DIMJUST
 70
     0
  9
$DIMSD1
 70
     0
  9
$DIMSD2
 70
     0
  9
$DIMTOLJ
 70
     1
  9
$DIMTZIN
 70
     0
  9
$DIMALTZ
 70
     0
  9
$DIMALTTZ
 70
     0
  9
$DIMUPT
 70
     0
  9
$DIMDEC
 70
     1
  9
$DIMTDEC
 70
     1
  9
$DIMALTU
 70
     2
  9
$DIMALTTD
 70
     2
  9
$DIMTXSTY
  7
ROMANS
  9
$DIMAUNIT
 70
     0
  9
$DIMADEC
 70
     0
  9
$DIMALTRND
 40
0.0
  9
$DIMAZIN
 70
     0
  9
$DIMDSEP
 70
    46
  9
$DIMATFIT
 70
     3
  9
$DIMFRAC
 70
     0
  9
$DIMLDRBLK
  1
B-DIM
  9
$DIMLUNIT
 70
     2
  9
$DIMLWD
 70
    -2
  9
$DIMLWE
 70
    -2
  9
$DIMTMOVE
 70
     2
  9
$LUNITS
 70
     2
  9
$LUPREC
 70
     2
  9
$SKETCHINC
 40
0.1
  9
$FILLETRAD
 40
0.0
  9
$AUNITS
 70
     0
  9
$AUPREC
 70
     1
  9
$MENU
  1
acad
  9
$ELEVATION
 40
0.0
  9
$PELEVATION
 40
0.0
  9
$THICKNESS
 40
0.0
  9
$LIMCHECK
 70
     0
  9
$CHAMFERA
 40
30.0
  9
$CHAMFERB
 40
30.0
  9
$CHAMFERC
 40
0.0
  9
$CHAMFERD
 40
0.0
  9
$SKPOLY
 70
     0
  9
$TDCREATE
 40
2450817.525937848
  9
$TDUCREATE
 40
2450817.442604514
  9
$TDUPDATE
 40
2454959.584112408
  9
$TDUUPDATE
 40
2454959.500779074
  9
$TDINDWG
 40
21.7434939815
  9
$TDUSRTIMER
 40
21.7434939815
  9
$USRTIMER
 70
     1
  9
$ANGBASE
 50
0.0
  9
$ANGDIR
 70
     0
  9
$PDMODE
 70
     3
  9
$PDSIZE
 40
10.0
  9
$PLINEWID
 40
60.0
  9
$SPLFRAME
 70
     0
  9
$SPLINETYPE
 70
     6
  9
$SPLINESEGS
 70
     8
  9
$HANDSEED
  5
1A9D
  9
$SURFTAB1
 70
     6
  9
$SURFTAB2
 70
     6
  9
$SURFTYPE
 70
     6
  9
$SURFU
 70
     6
  9
$SURFV
 70
     6
  9
$UCSBASE
  2

  9
$UCSNAME
  2

  9
$UCSORG
 10
0.0
 20
0.0
 30
0.0
  9
$UCSXDIR
 10
1.0
 20
0.0
 30
0.0
  9
$UCSYDIR
 10
0.0
 20
1.0
 30
0.0
  9
$UCSORTHOREF
  2

  9
$UCSORTHOVIEW
 70
     0
  9
$UCSORGTOP
 10
0.0
 20
0.0
 30
0.0
  9
$UCSORGBOTTOM
 10
0.0
 20
0.0
 30
0.0
  9
$UCSORGLEFT
 10
0.0
 20
0.0
 30
0.0
  9
$UCSORGRIGHT
 10
0.0
 20
0.0
 30
0.0
  9
$UCSORGFRONT
 10
0.0
 20
0.0
 30
0.0
  9
$UCSORGBACK
 10
0.0
 20
0.0
 30
0.0
  9
$PUCSBASE
  2

  9
$PUCSNAME
  2

  9
$PUCSORG
 10
0.0
 20
0.0
 30
0.0
  9
$PUCSXDIR
 10
1.0
 20
0.0
 30
0.0
  9
$PUCSYDIR
 10
0.0
 20
1.0
 30
0.0
  9
$PUCSORTHOREF
  2

  9
$PUCSORTHOVIEW
 70
     0
  9
$PUCSORGTOP
 10
0.0
 20
0.0
 30
0.0
  9
$PUCSORGBOTTOM
 10
0.0
 20
0.0
 30
0.0
  9
$PUCSORGLEFT
 10
0.0
 20
0.0
 30
0.0
  9
$PUCSORGRIGHT
 10
0.0
 20
0.0
 30
0.0
  9
$PUCSORGFRONT
 10
0.0
 20
0.0
 30
0.0
  9
$PUCSORGBACK
 10
0.0
 20
0.0
 30
0.0
  9
$USERI1
 70
     0
  9
$USERI2
 70
     0
  9
$USERI3
 70
     0
  9
$USERI4
 70
     0
  9
$USERI5
 70
     0
  9
$USERR1
 40
0.0
  9
$USERR2
 40
0.0
  9
$USERR3
 40
0.0
  9
$USERR4
 40
0.0
  9
$USERR5
 40
0.0
  9
$WORLDVIEW
 70
     1
  9
$SHADEDGE
 70
     3
  9
$SHADEDIF
 70
    70
  9
$TILEMODE
 70
     1
  9
$MAXACTVP
 70
    16
  9
$PINSBASE
 10
0.0
 20
0.0
 30
0.0
  9
$PLIMCHECK
 70
     0
  9
$PEXTMIN
 10
1.144500083810701
 20
0.8013332819375467
 30
0.0
  9
$PEXTMAX
 10
10.30050075429631
 20
7.21199953743792
 30
0.0
  9
$PLIMMIN
 10
-0.1249995194082185
 20
-0.1249999981226884
  9
$PLIMMAX
 10
11.5700008362297
 20
8.138332939523412
  9
$UNITMODE
 70
     0
  9
$VISRETAIN
 70
     0
  9
$PLINEGEN
 70
     0
  9
$PSLTSCALE
 70
     1
  9
$TREEDEPTH
 70
  3020
  9
$CMLSTYLE
  2
STANDARD
  9
$CMLJUST
 70
     0
  9
$CMLSCALE
 40
1.0
  9
$PROXYGRAPHICS
 70
     1
  9
$MEASUREMENT
 70
     0
  9
$CELWEIGHT
370
    -1
  9
$ENDCAPS
280
     0
  9
$JOINSTYLE
280
     0
  9
$LWDISPLAY
290
     0
  9
$INSUNITS
 70
     0
  9
$HYPERLINKBASE
  1

  9
$STYLESHEET
  1
monochrome_140.ctb
  9
$XEDIT
290
     1
  9
$CEPSNTYPE
380
     0
  9
$PSTYLEMODE
290
     1
  9
$FINGERPRINTGUID
  2
{2D5E65A9-1F91-4A53-BA94-481E1C74241D}
  9
$VERSIONGUID
  2
{292E3084-F2FD-4B57-B046-48712E683B7B}
  9
$EXTNAMES
290
     1
  9
$PSVPSCALE
 40
0.0
  9
$OLESTARTUP
290
     0
  0
ENDSEC
  0
SECTION
  2
CLASSES
  0
CLASS
  1
DICTIONARYVAR
  2
AcDbDictionaryVar
  3
ObjectDBX Classes
 90
        0
280
     0
281
     0
  0
CLASS
  1
ACDBDICTIONARYWDFLT
  2
AcDbDictionaryWithDefault
  3
ObjectDBX Classes
 90
        0
280
     0
281
     0
  0
CLASS
  1
ACDBPLACEHOLDER
  2
AcDbPlaceHolder
  3
ObjectDBX Classes
 90
        0
280
     0
281
     0
  0
CLASS
  1
LAYOUT
  2
AcDbLayout
  3
ObjectDBX Classes
 90
        0
280
     0
281
     0
  0
CLASS
  1
AEC_VARS_DWG_SETUP
  2
AecDbVarsDwgSetup
  3
AecBase50|Product Desc: Autodesk Architectural Desktop 2007 |Company: Autodesk,Inc. |WEB Address: www.autodesk.com
 90
    32897
280
     0
281
     0
  0
CLASS
  1
AEC_DISP_REP_CONFIG
  2
AecDbDispRepConfig
  3
AecBase50|Product Desc: Autodesk Architectural Desktop 2007 |Company: Autodesk,Inc. |WEB Address: www.autodesk.com
 90
    32897
280
     0
281
     0
  0
CLASS
  1
AEC_DISP_REP_SET
  2
AecDbDispRepSet
  3
AecBase50|Product Desc: Autodesk Architectural Desktop 2007 |Company: Autodesk,Inc. |WEB Address: www.autodesk.com
 90
    32897
280
     0
281
     0
  0
CLASS
  1
AEC_DISP_REP_2D_SECTION
  2
AecDbDispRep2dSection
  3
AecBase50|Product Desc: Autodesk Architectural Desktop 2007 |Company: Autodesk,Inc. |WEB Address: www.autodesk.com
 90
    32897
280
     0
281
     0
  0
CLASS
  1
AEC_DISP_REP_ANCHOR_BUB_TO_GRID
  2
AecDbDispRepAnchorBubToGrid
  3
AecStructureBase50|Product Desc: Autodesk Architectural Desktop 2007 |Company: Autodesk,Inc. |WEB Address: www.autodesk.com
 90
    32897
280
     0
281
     0
  0
CLASS
  1
AEC_DISP_REP_ANCHOR_BUB_TO_GRID_MODEL
  2
AecDbDispRepAnchorBubToGridMdl
  3
AecStructureBase50|Product Desc: Autodesk Architectural Desktop 2007 |Company: Autodesk,Inc. |WEB Address: www.autodesk.com
 90
    32897
280
     0
281
     0
  0
CLASS
  1
AEC_DISP_REP_ANCHOR_ENT_TO_NODE
  2
AecDbDispRepAnchorEntToNode
  3
AecBase50|Product Desc: Autodesk Architectural Desktop 2007 |Company: Autodesk,Inc. |WEB Address: www.autodesk.com
 90
    32897
280
     0
281
     0
  0
CLASS
  1
AEC_DISP_REP_ANCHOR_TAG_TO_ENT
  2
AecDbDispRepAnchorTagToEnt
  3
AecScheduleData50|Product Desc: Autodesk Architectural Desktop 2007 |Company: Autodesk,Inc. |WEB Address: www.autodesk.com
 90
    32897
280
     0
281
     0
  0
CLASS
  1
AEC_DISP_REP_AREA
  2
AecDbDispRepArea
  3
AecAreaCalculationBase50|Product Desc: Autodesk Architectural Desktop 2007 |Company: Autodesk,Inc. |WEB Address: www.autodesk.com
 90
    32897
280
     0
281
     0
  0
CLASS
  1
AEC_DISP_REP_AREA_DECOMPOSED
  2
AecDbDispRepAreaDecomposed
  3
AecAreaCalculationBase50|Product Desc: Autodesk Architectural Desktop 2007 |Company: Autodesk,Inc. |WEB Address: www.autodesk.com
 90
    32897
280
     0
281
     0
  0
CLASS
  1
AEC_DISP_REP_AREAGROUP
  2
AecDbDispRepAreaGroup
  3
AecAreaCalculationBase50|Product Desc: Autodesk Architectural Desktop 2007 |Company: Autodesk,Inc. |WEB Address: www.autodesk.com
 90
    32897
280
     0
281
     0
  0
CLASS
  1
AEC_DISP_REP_BDG_ELEVLINE_MODEL
  2
AecDbDispRepBdgElevLineModel
  3
AecArchBase50|Product Desc: Autodesk Architectural Desktop 2007 |Company: Autodesk,Inc. |WEB Address: www.autodesk.com
 90
    32897
280
     0
281
     0
  0
CLASS
  1
AEC_DISP_REP_BDG_SECTIONLINE_PLAN
  2
AecDbDispRepBdgElevLinePlan
  3
AecArchBase50|Product Desc: Autodesk Architectural Desktop 2007 |Company: Autodesk,Inc. |WEB Address: www.autodesk.com
 90
    32897
280
     0
281
     0
  0
CLASS
  1
AEC_DISP_REP_BDG_SECTIONLINE_MODEL
  2
AecDbDispRepBdgSectionLineModel
  3
AecArchBase50|Product Desc: Autodesk Architectural Desktop 2007 |Company: Autodesk,Inc. |WEB Address: www.autodesk.com
 90
    32897
280
     0
281
     0
  0
CLASS
  1
AEC_DISP_REP_BDG_SECTIONLINE_PLAN
  2
AecDbDispRepBdgSectionLinePlan
  3
AecArchBase50|Product Desc: Autodesk Architectural Desktop 2007 |Company: Autodesk,Inc. |WEB Address: www.autodesk.com
 90
    32897
280
     0
281
     0
  0
CLASS
  1
AEC_DISP_REP_BDG_SECTION_SUBDIV
  2
AecDbDispRepBdgSectionSubDiv
  3
AecArchBase50|Product Desc: Autodesk Architectural Desktop 2007 |Company: Autodesk,Inc. |WEB Address: www.autodesk.com
 90
    32897
280
     0
281
     0
  0
CLASS
  1
AEC_DISP_REP_CAMERA
  2
AecDbDispRepCamera
  3
AecBase50|Product Desc: Autodesk Architectural Desktop 2007 |Company: Autodesk,Inc. |WEB Address: www.autodesk.com
 90
    32897
280
     0
281
     0
  0
CLASS
  1
AEC_DISP_REP_CEILING_GRID
  2
AecDbDispRepCeilingGrid
  3
AecArchBase50|Product Desc: Autodesk Architectural Desktop 2007 |Company: Autodesk,Inc. |WEB Address: www.autodesk.com
 90
    33661
280
     0
281
     0
  0
CLASS
  1
AEC_DISP_REP_CEILING_GRID_MODEL
  2
AecDbDispRepCeilingGridModel
  3
AecArchBase50|Product Desc: Autodesk Architectural Desktop 2007 |Company: Autodesk,Inc. |WEB Address: www.autodesk.com
 90
    32897
280
     0
281
     0
  0
CLASS
  1
AEC_DISP_REP_CEILING_GRID_RCP
  2
AecDbDispRepCeilingGridRcp
  3
AecArchBase50|Product Desc: Autodesk Architectural Desktop 2007 |Company: Autodesk,Inc. |WEB Address: www.autodesk.com
 90
    32897
280
     0
281
     0
  0
CLASS
  1
AEC_DISP_REP_CLIP_VOLUME_MODEL
  2
AecDbDispRepClipVolModel
  3
AecBase50|Product Desc: Autodesk Architectural Desktop 2007 |Company: Autodesk,Inc. |WEB Address: www.autodesk.com
 90
    32897
280
     0
281
     0
  0
CLASS
  1
AEC_DISP_REP_CLIP_VOLUME_PLAN
  2
AecDbDispRepClipVolPlan
  3
AecBase50|Product Desc: Autodesk Architectural Desktop 2007 |Company: Autodesk,Inc. |WEB Address: www.autodesk.com
 90
    32897
280
     0
281
     0
  0
CLASS
  1
AEC_DISP_REP_CLIP_VOLUME_RESULT_SUBDIV
  2
AecDbDispRepClipVolResSubDiv
  3
AecBase50|Product Desc: Autodesk Architectural Desktop 2007 |Company: Autodesk,Inc. |WEB Address: www.autodesk.com
 90
    32897
280
     0
281
     0
  0
CLASS
  1
AEC_DISP_REP_CLIP_VOLUME_RESULT
  2
AecDbDispRepClipVolResult
  3
AecBase50|Product Desc: Autodesk Architectural Desktop 2007 |Company: Autodesk,Inc. |WEB Address: www.autodesk.com
 90
    32897
280
     0
281
     0
  0
CLASS
  1
AEC_DISP_REP_COLUMN_GRID
  2
AecDbDispRepColumnGrid
  3
AecStructureBase50|Product Desc: Autodesk Architectural Desktop 2007 |Company: Autodesk,Inc. |WEB Address: www.autodesk.com
 90
    32897
280
     0
281
     0
  0
CLASS
  1
AEC_DISP_REP_COLUMN_GRID_MODEL
  2
AecDbDispRepColumnGridModel
  3
AecStructureBase50|Product Desc: Autodesk Architectural Desktop 2007 |Company: Autodesk,Inc. |WEB Address: www.autodesk.com
 90
    32897
280
     0
281
     0
  0
CLASS
  1
AEC_DISP_REP_CURTAIN_WALL_LAYOUT_MODEL
  2
AecDbDispRepCurtainWallLayoutModel
  3
AecArchBase50|Product Desc: Autodesk Architectural Desktop 2007 |Company: Autodesk,Inc. |WEB Address: www.autodesk.com
 90
    32897
280
     0
281
     0
  0
CLASS
  1
AEC_DISP_REP_CURTAIN_WALL_LAYOUT_PLAN
  2
AecDbDispRepCurtainWallLayoutPlan
  3
AecArchBase50|Product Desc: Autodesk Architectural Desktop 2007 |Company: Autodesk,Inc. |WEB Address: www.autodesk.com
 90
    32897
280
     0
281
     0
  0
CLASS
  1
AEC_DISP_REP_CURTAIN_WALL_UNIT_MODEL
  2
AecDbDispRepCurtainWallUnitModel
  3
AecArchBase50|Product Desc: Autodesk Architectural Desktop 2007 |Company: Autodesk,Inc. |WEB Address: www.autodesk.com
 90
    32897
280
     0
281
     0
  0
CLASS
  1
AEC_DISP_REP_CURTAIN_WALL_UNIT_PLAN
  2
AecDbDispRepCurtainWallUnitPlan
  3
AecArchBase50|Product Desc: Autodesk Architectural Desktop 2007 |Company: Autodesk,Inc. |WEB Address: www.autodesk.com
 90
    32897
280
     0
281
     0
  0
CLASS
  1
AEC_DB_DISP_REP_DIM_GROUP_PLAN
  2
AecDbDispRepDimGroupPlan
  3
AecArchDACHBase50|Product Desc: Autodesk Architectural Desktop 2007 |Company: Autodesk,Inc. |WEB Address: www.autodesk.com
 90
    32897
280
     0
281
     0
  0
CLASS
  1
AEC_DISP_REP_DOOR_MODEL
  2
AecDbDispRepDoorModel
  3
AecArchBase50|Product Desc: Autodesk Architectural Desktop 2007 |Company: Autodesk,Inc. |WEB Address: www.autodesk.com
 90
    32897
280
     0
281
     0
  0
CLASS
  1
AEC_DISP_REP_DOOR_NOMINAL
  2
AecDbDispRepDoorNominal
  3
AecArchBase50|Product Desc: Autodesk Architectural Desktop 2007 |Company: Autodesk,Inc. |WEB Address: www.autodesk.com
 90
    32897
280
     0
281
     0
  0
CLASS
  1
AEC_DISP_REP_DOOR_PLAN
  2
AecDbDispRepDoorPlan
  3
AecArchBase50|Product Desc: Autodesk Architectural Desktop 2007 |Company: Autodesk,Inc. |WEB Address: www.autodesk.com
 90
    32897
280
     0
281
     0
  0
CLASS
  1
AEC_DISP_REP_EDITINPLACEPROFILE
  2
AecDbDispRepEditInPlaceProfile
  3
AecBase50|Product Desc: Autodesk Architectural Desktop 2007 |Company: Autodesk,Inc. |WEB Address: www.autodesk.com
 90
    32897
280
     0
281
     0
  0
CLASS
  1
AEC_DISP_REP_ENT_REF
  2
AecDbDispRepEntRef
  3
AecBase50|Product Desc: Autodesk Architectural Desktop 2007 |Company: Autodesk,Inc. |WEB Address: www.autodesk.com
 90
    32897
280
     0
281
     0
  0
CLASS
  1
AEC_DISP_REP_LAYOUT_CURVE
  2
AecDbDispRepLayoutCurve
  3
AecBase50|Product Desc: Autodesk Architectural Desktop 2007 |Company: Autodesk,Inc. |WEB Address: www.autodesk.com
 90
    32897
280
     0
281
     0
  0
CLASS
  1
AEC_DISP_REP_LAYOUT_GRID2D
  2
AecDbDispRepLayoutGrid2d
  3
AecBase50|Product Desc: Autodesk Architectural Desktop 2007 |Company: Autodesk,Inc. |WEB Address: www.autodesk.com
 90
    32897
280
     0
281
     0
  0
CLASS
  1
AEC_DISP_REP_LAYOUT_GRID3D
  2
AecDbDispRepLayoutGrid3d
  3
AecBase50|Product Desc: Autodesk Architectural Desktop 2007 |Company: Autodesk,Inc. |WEB Address: www.autodesk.com
 90
    32897
280
     0
281
     0
  0
CLASS
  1
AEC_DISP_REP_MASKBLOCK_REF
  2
AecDbDispRepMaskBlockRef
  3
AecBase50|Product Desc: Autodesk Architectural Desktop 2007 |Company: Autodesk,Inc. |WEB Address: www.autodesk.com
 90
    32897
280
     0
281
     0
  0
CLASS
  1
AEC_DISP_REP_MASKBLOCK_REF_RCP
  2
AecDbDispRepMaskBlockRefRcp
  3
AecArchBase50|Product Desc: Autodesk Architectural Desktop 2007 |Company: Autodesk,Inc. |WEB Address: www.autodesk.com
 90
    32897
280
     0
281
     0
  0
CLASS
  1
AEC_DISP_REP_MASS_ELEM_MODEL
  2
AecDbDispRepMassElemModel
  3
AecBaseEx50|Product Desc: Autodesk Architectural Desktop 2007 |Company: Autodesk,Inc. |WEB Address: www.autodesk.com
 90
    32897
280
     0
281
     0
  0
CLASS
  1
AEC_DISP_REP_MASS_ELEM_SCHEM
  2
AecDbDispRepMassElemSchem
  3
AecBaseEx50|Product Desc: Autodesk Architectural Desktop 2007 |Company: Autodesk,Inc. |WEB Address: www.autodesk.com
 90
    32897
280
     0
281
     0
  0
CLASS
  1
AEC_DISP_REP_MASS_GROUP_MODEL
  2
AecDbDispRepMassGroupModel
  3
AecBaseEx50|Product Desc: Autodesk Architectural Desktop 2007 |Company: Autodesk,Inc. |WEB Address: www.autodesk.com
 90
    32897
280
     0
281
     0
  0
CLASS
  1
AEC_DISP_REP_MASS_GROUP_PLAN
  2
AecDbDispRepMassGroupPlan
  3
AecBaseEx50|Product Desc: Autodesk Architectural Desktop 2007 |Company: Autodesk,Inc. |WEB Address: www.autodesk.com
 90
    32897
280
     0
281
     0
  0
CLASS
  1
AEC_DISP_REP_MATERIAL
  2
AecDbDispRepMaterial
  3
AecBase50|Product Desc: Autodesk Architectural Desktop 2007 |Company: Autodesk,Inc. |WEB Address: www.autodesk.com
 90
    32897
280
     0
281
     0
  0
CLASS
  1
AEC_DISP_REP_MVBLOCK_REF
  2
AecDbDispRepMvBlockRef
  3
AecBase50|Product Desc: Autodesk Architectural Desktop 2007 |Company: Autodesk,Inc. |WEB Address: www.autodesk.com
 90
    32897
280
     0
281
     0
  0
CLASS
  1
AEC_DISP_REP_MVBLOCK_REF_MODEL
  2
AecDbDispRepMvBlockRefModel
  3
AecBase50|Product Desc: Autodesk Architectural Desktop 2007 |Company: Autodesk,Inc. |WEB Address: www.autodesk.com
 90
    32897
280
     0
281
     0
  0
CLASS
  1
AEC_DISP_REP_OPENING
  2
AecDbDispRepOpening
  3
AecArchBase50|Product Desc: Autodesk Architectural Desktop 2007 |Company: Autodesk,Inc. |WEB Address: www.autodesk.com
 90
    32897
280
     0
281
     0
  0
CLASS
  1
AEC_DISP_REP_OPENING_MODEL
  2
AecDbDispRepOpeningModel
  3
AecArchBase50|Product Desc: Autodesk Architectural Desktop 2007 |Company: Autodesk,Inc. |WEB Address: www.autodesk.com
 90
    32897
280
     0
281
     0
  0
CLASS
  1
AEC_DISP_REP_POLYGON_MODEL
  2
AecDbDispRepPolygonModel
  3
AecBase50|Product Desc: Autodesk Architectural Desktop 2007 |Company: Autodesk,Inc. |WEB Address: www.autodesk.com
 90
    32897
280
     0
281
     0
  0
CLASS
  1
AEC_DISP_REP_RAILING_MODEL
  2
AecDbDispRepRailingModel
  3
AecArchBase50|Product Desc: Autodesk Architectural Desktop 2007 |Company: Autodesk,Inc. |WEB Address: www.autodesk.com
 90
    32897
280
     0
281
     0
  0
CLASS
  1
AEC_DISP_REP_RAILING_PLAN
  2
AecDbDispRepRailingPlan
  3
AecArchBase50|Product Desc: Autodesk Architectural Desktop 2007 |Company: Autodesk,Inc. |WEB Address: www.autodesk.com
 90
    32897
280
     0
281
     0
  0
CLASS
  1
AEC_DISP_REP_ROOF_MODEL
  2
AecDbDispRepRoofModel
  3
AecArchBase50|Product Desc: Autodesk Architectural Desktop 2007 |Company: Autodesk,Inc. |WEB Address: www.autodesk.com
 90
    32897
280
     0
281
     0
  0
CLASS
  1
AEC_DISP_REP_ROOF_PLAN
  2
AecDbDispRepRoofPlan
  3
AecArchBase50|Product Desc: Autodesk Architectural Desktop 2007 |Company: Autodesk,Inc. |WEB Address: www.autodesk.com
 90
    32897
280
     0
281
     0
  0
CLASS
  1
AEC_DISP_REP_ROOFSLAB_MODEL
  2
AecDbDispRepRoofSlabModel
  3
AecArchBase50|Product Desc: Autodesk Architectural Desktop 2007 |Company: Autodesk,Inc. |WEB Address: www.autodesk.com
 90
    32897
280
     0
281
     0
  0
CLASS
  1
AEC_DISP_REP_ROOFSLAB_PLAN
  2
AecDbDispRepRoofSlabPlan
  3
AecArchBase50|Product Desc: Autodesk Architectural Desktop 2007 |Company: Autodesk,Inc. |WEB Address: www.autodesk.com
 90
    32897
280
     0
281
     0
  0
CLASS
  1
AEC_DISP_REP_SCHEDULE_TABLE
  2
AecDbDispRepScheduleTable
  3
AecSchedule50|Product Desc: Autodesk Architectural Desktop 2007 |Company: Autodesk,Inc. |WEB Address: www.autodesk.com
 90
    32897
280
     0
281
     0
  0
CLASS
  1
AEC_DISP_REP_SLAB_MODEL
  2
AecDbDispRepSlabModel
  3
AecArchBase50|Product Desc: Autodesk Architectural Desktop 2007 |Company: Autodesk,Inc. |WEB Address: www.autodesk.com
 90
    32897
280
     0
281
     0
  0
CLASS
  1
AEC_DISP_REP_SLAB_PLAN
  2
AecDbDispRepSlabPlan
  3
AecArchBase50|Product Desc: Autodesk Architectural Desktop 2007 |Company: Autodesk,Inc. |WEB Address: www.autodesk.com
 90
    32897
280
     0
281
     0
  0
CLASS
  1
AEC_DISP_REP_SLICE
  2
AecDbDispRepSlice
  3
AecBase50|Product Desc: Autodesk Architectural Desktop 2007 |Company: Autodesk,Inc. |WEB Address: www.autodesk.com
 90
    32897
280
     0
281
     0
  0
CLASS
  1
AEC_DISP_REP_SPACE_BOUNDARY_MODEL
  2
AecDbDispRepSpaceBoundaryModel
  3
AecArchBase50|Product Desc: Autodesk Architectural Desktop 2007 |Company: Autodesk,Inc. |WEB Address: www.autodesk.com
 90
    32897
280
     0
281
     0
  0
CLASS
  1
AEC_DISP_REP_SPACE_BOUNDARY_PLAN
  2
AecDbDispRepSpaceBoundaryPlan
  3
AecArchBase50|Product Desc: Autodesk Architectural Desktop 2007 |Company: Autodesk,Inc. |WEB Address: www.autodesk.com
 90
    32897
280
     0
281
     0
  0
CLASS
  1
AEC_DISP_REP_SPACE_BOUNDARY_SCHEM
  2
AecDbDispRepSpaceBoundarySketch
  3
AecArchBase50|Product Desc: Autodesk Architectural Desktop 2007 |Company: Autodesk,Inc. |WEB Address: www.autodesk.com
 90
    32897
280
     0
281
     0
  0
CLASS
  1
AEC_DISP_REP_SPACE_MODEL
  2
AecDbDispRepSpaceModel
  3
AecArchBase50|Product Desc: Autodesk Architectural Desktop 2007 |Company: Autodesk,Inc. |WEB Address: www.autodesk.com
 90
    32897
280
     0
281
     0
  0
CLASS
  1
AEC_DISP_REP_SPACE_PLAN
  2
AecDbDispRepSpacePlan
  3
AecArchBase50|Product Desc: Autodesk Architectural Desktop 2007 |Company: Autodesk,Inc. |WEB Address: www.autodesk.com
 90
    32897
280
     0
281
     0
  0
CLASS
  1
AEC_DISP_REP_STAIR_MODEL
  2
AecDbDispRepStairModel
  3
AecArchBase50|Product Desc: Autodesk Architectural Desktop 2007 |Company: Autodesk,Inc. |WEB Address: www.autodesk.com
 90
    32897
280
     0
281
     0
  0
CLASS
  1
AEC_DISP_REP_STAIR_PLAN
  2
AecDbDispRepStairPlan
  3
AecArchBase50|Product Desc: Autodesk Architectural Desktop 2007 |Company: Autodesk,Inc. |WEB Address: www.autodesk.com
 90
    32897
280
     0
281
     0
  0
CLASS
  1
AEC_DISP_REP_WALL_GRAPH
  2
AecDbDispRepWallGraph
  3
AecArchBase50|Product Desc: Autodesk Architectural Desktop 2007 |Company: Autodesk,Inc. |WEB Address: www.autodesk.com
 90
    32897
280
     0
281
     0
  0
CLASS
  1
AEC_DISP_REP_WALL_MODEL
  2
AecDbDispRepWallModel
  3
AecArchBase50|Product Desc: Autodesk Architectural Desktop 2007 |Company: Autodesk,Inc. |WEB Address: www.autodesk.com
 90
    32897
280
     0
281
     0
  0
CLASS
  1
AEC_DISP_REP_WALL_PLAN
  2
AecDbDispRepWallPlan
  3
AecArchBase50|Product Desc: Autodesk Architectural Desktop 2007 |Company: Autodesk,Inc. |WEB Address: www.autodesk.com
 90
    32897
280
     0
281
     0
  0
CLASS
  1
AEC_DISP_REP_WALL_SCHEM
  2
AecDbDispRepWallSchem
  3
AecArchBase50|Product Desc: Autodesk Architectural Desktop 2007 |Company: Autodesk,Inc. |WEB Address: www.autodesk.com
 90
    32897
280
     0
281
     0
  0
CLASS
  1
AEC_DISP_REP_WINDOW_ASSEMBLY_MODEL
  2
AecDbDispRepWindowAssemblyModel
  3
AecArchBase50|Product Desc: Autodesk Architectural Desktop 2007 |Company: Autodesk,Inc. |WEB Address: www.autodesk.com
 90
    32897
280
     0
281
     0
  0
CLASS
  1
AEC_DISP_REP_WINDOW_ASSEMBLY_PLAN
  2
AecDbDispRepWindowAssemblyPlan
  3
AecArchBase50|Product Desc: Autodesk Architectural Desktop 2007 |Company: Autodesk,Inc. |WEB Address: www.autodesk.com
 90
    32897
280
     0
281
     0
  0
CLASS
  1
AEC_AECDBDISPREPWINDOWASSEMBLYPLAN100
  2
AecDbDispRepWindowAssemblyPlan100
  3
AecArchDACHBase50|Product Desc: Autodesk Architectural Desktop 2007 |Company: Autodesk,Inc. |WEB Address: www.autodesk.com
 90
    32897
280
     0
281
     0
  0
CLASS
  1
AEC_DISP_REP_WINDOW_MODEL
  2
AecDbDispRepWindowModel
  3
AecArchBase50|Product Desc: Autodesk Architectural Desktop 2007 |Company: Autodesk,Inc. |WEB Address: www.autodesk.com
 90
    32897
280
     0
281
     0
  0
CLASS
  1
AEC_DISP_REP_WINDOW_NOMINAL
  2
AecDbDispRepWindowNominal
  3
AecArchBase50|Product Desc: Autodesk Architectural Desktop 2007 |Company: Autodesk,Inc. |WEB Address: www.autodesk.com
 90
    32897
280
     0
281
     0
  0
CLASS
  1
AEC_DISP_REP_WINDOW_PLAN
  2
AecDbDispRepWindowPlan
  3
AecArchBase50|Product Desc: Autodesk Architectural Desktop 2007 |Company: Autodesk,Inc. |WEB Address: www.autodesk.com
 90
    32897
280
     0
281
     0
  0
CLASS
  1
AECS_DISP_REP_MEMBER_LOGICAL
  2
AecsDbDispRepMemberLogical
  3
AecStructureBase50|Product Desc: Autodesk Architectural Desktop 2007 |Company: Autodesk,Inc. |WEB Address: www.autodesk.com
 90
    32897
280
     0
281
     0
  0
CLASS
  1
AECS_DISP_REP_MEMBER_MODEL_DESIGN
  2
AecsDbDispRepMemberModelDesign
  3
AecStructureBase50|Product Desc: Autodesk Architectural Desktop 2007 |Company: Autodesk,Inc. |WEB Address: www.autodesk.com
 90
    32897
280
     0
281
     0
  0
CLASS
  1
AECS_DISP_REP_MEMBER_PLAN_DESIGN
  2
AecsDbDispRepMemberPlanDesign
  3
AecStructureBase50|Product Desc: Autodesk Architectural Desktop 2007 |Company: Autodesk,Inc. |WEB Address: www.autodesk.com
 90
    32897
280
     0
281
     0
  0
CLASS
  1
AEC_DISP_PROPS_ENT
  2
AecDbDispPropsEnt
  3
AecBase50|Product Desc: Autodesk Architectural Desktop 2007 |Company: Autodesk,Inc. |WEB Address: www.autodesk.com
 90
    32897
280
     0
281
     0
  0
CLASS
  1
AEC_DISP_PROPS_CLIP_VOLUME
  2
AecDbDispPropsClipVol
  3
AecBase50|Product Desc: Autodesk Architectural Desktop 2007 |Company: Autodesk,Inc. |WEB Address: www.autodesk.com
 90
    32897
280
     0
281
     0
  0
CLASS
  1
AEC_DISP_PROPS_SLICE
  2
AecDbDispPropsSlice
  3
AecBase50|Product Desc: Autodesk Architectural Desktop 2007 |Company: Autodesk,Inc. |WEB Address: www.autodesk.com
 90
    32897
280
     0
281
     0
  0
CLASS
  1
AEC_DISP_PROPS_ROOFSLAB_PLAN
  2
AecDbDispPropsRoofSlabPlan
  3
AecArchBase50|Product Desc: Autodesk Architectural Desktop 2007 |Company: Autodesk,Inc. |WEB Address: www.autodesk.com
 90
    32897
280
     0
281
     0
  0
CLASS
  1
AEC_DISP_PROPS_GRID_ASSEMBLY_MODEL
  2
AecDbDispPropsGridAssemblyModel
  3
AecArchBase50|Product Desc: Autodesk Architectural Desktop 2007 |Company: Autodesk,Inc. |WEB Address: www.autodesk.com
 90
    32897
280
     0
281
     0
  0
CLASS
  1
AEC_DISP_PROPS_ROOF
  2
AecDbDispPropsRoof
  3
AecArchBase50|Product Desc: Autodesk Architectural Desktop 2007 |Company: Autodesk,Inc. |WEB Address: www.autodesk.com
 90
    32897
280
     0
281
     0
  0
CLASS
  1
AEC_DISP_PROPS_SPACE_MODEL
  2
AecDbDispPropsSpaceModel
  3
AecArchBase50|Product Desc: Autodesk Architectural Desktop 2007 |Company: Autodesk,Inc. |WEB Address: www.autodesk.com
 90
    32897
280
     0
281
     0
  0
CLASS
  1
AEC_DISP_PROPS_EDITINPLACEPROFILE_MODEL
  2
AecDbDispPropsEditInPlaceProfile
  3
AecBase50|Product Desc: Autodesk Architectural Desktop 2007 |Company: Autodesk,Inc. |WEB Address: www.autodesk.com
 90
    32897
280
     0
281
     0
  0
CLASS
  1
AEC_DISP_PROPS_DOOR
  2
AecDbDispPropsDoor
  3
AecArchBase50|Product Desc: Autodesk Architectural Desktop 2007 |Company: Autodesk,Inc. |WEB Address: www.autodesk.com
 90
    32897
280
     0
281
     0
  0
CLASS
  1
AEC_DISP_PROPS_MASKBLOCK
  2
AecDbDispPropsMaskBlock
  3
AecBase50|Product Desc: Autodesk Architectural Desktop 2007 |Company: Autodesk,Inc. |WEB Address: www.autodesk.com
 90
    32897
280
     0
281
     0
  0
CLASS
  1
AEC_DISP_PROPS_SPACE_PLAN
  2
AecDbDispPropsSpacePlan
  3
AecArchBase50|Product Desc: Autodesk Architectural Desktop 2007 |Company: Autodesk,Inc. |WEB Address: www.autodesk.com
 90
    32897
280
     0
281
     0
  0
CLASS
  1
AEC_DISP_PROPS_RAILING_PLAN
  2
AecDbDispPropsRailingPlan
  3
AecArchBase50|Product Desc: Autodesk Architectural Desktop 2007 |Company: Autodesk,Inc. |WEB Address: www.autodesk.com
 90
    32897
280
     0
281
     0
  0
CLASS
  1
AEC_DISP_PROPS_LAYOUT_GRID2D
  2
AecDbDispPropsLayoutGrid2d
  3
AecBase50|Product Desc: Autodesk Architectural Desktop 2007 |Company: Autodesk,Inc. |WEB Address: www.autodesk.com
 90
    32897
280
     0
281
     0
  0
CLASS
  1
AEC_DISP_PROPS_CLIP_VOLUME_RESULT
  2
AecDbDispPropsClipVolResSubDiv
  3
AecBase50|Product Desc: Autodesk Architectural Desktop 2007 |Company: Autodesk,Inc. |WEB Address: www.autodesk.com
 90
    32897
280
     0
281
     0
  0
CLASS
  1
AEC_DISP_PROPS_STAIR_MODEL
  2
AecDbDispPropsStairModel
  3
AecArchBase50|Product Desc: Autodesk Architectural Desktop 2007 |Company: Autodesk,Inc. |WEB Address: www.autodesk.com
 90
    32897
280
     0
281
     0
  0
CLASS
  1
AEC_DISP_PROPS_LAYOUT_CURVE
  2
AecDbDispPropsLayoutCurve
  3
AecBase50|Product Desc: Autodesk Architectural Desktop 2007 |Company: Autodesk,Inc. |WEB Address: www.autodesk.com
 90
    32897
280
     0
281
     0
  0
CLASS
  1
AEC_DISP_PROPS_POLYGON_MODEL
  2
AecDbDispPropsPolygonModel
  3
AecBase50|Product Desc: Autodesk Architectural Desktop 2007 |Company: Autodesk,Inc. |WEB Address: www.autodesk.com
 90
    32897
280
     0
281
     0
  0
CLASS
  1
AEC_DISP_PROPS_MASS_GROUP
  2
AecDbDispPropsMassGroup
  3
AecBaseEx50|Product Desc: Autodesk Architectural Desktop 2007 |Company: Autodesk,Inc. |WEB Address: www.autodesk.com
 90
    32897
280
     0
281
     0
  0
CLASS
  1
AEC_DISP_PROPS_STAIR_PLAN
  2
AecDbDispPropsStairPlan
  3
AecArchBase50|Product Desc: Autodesk Architectural Desktop 2007 |Company: Autodesk,Inc. |WEB Address: www.autodesk.com
 90
    32897
280
     0
281
     0
  0
CLASS
  1
AEC_DISP_PROPS_OPENING
  2
AecDbDispPropsOpening
  3
AecArchBase50|Product Desc: Autodesk Architectural Desktop 2007 |Company: Autodesk,Inc. |WEB Address: www.autodesk.com
 90
    32897
280
     0
281
     0
  0
CLASS
  1
AEC_DISP_PROPS_WALL_GRAPH
  2
AecDbDispPropsWallGraph
  3
AecArchBase50|Product Desc: Autodesk Architectural Desktop 2007 |Company: Autodesk,Inc. |WEB Address: www.autodesk.com
 90
    32897
280
     0
281
     0
  0
CLASS
  1
AEC_DISP_PROPS_DOOR_NOMINAL
  2
AecDbDispPropsDoorNominal
  3
AecArchBase50|Product Desc: Autodesk Architectural Desktop 2007 |Company: Autodesk,Inc. |WEB Address: www.autodesk.com
 90
    32897
280
     0
281
     0
  0
CLASS
  1
AEC_DISP_PROPS_SLAB
  2
AecDbDispPropsSlab
  3
AecArchBase50|Product Desc: Autodesk Architectural Desktop 2007 |Company: Autodesk,Inc. |WEB Address: www.autodesk.com
 90
    32897
280
     0
281
     0
  0
CLASS
  1
AEC_DISP_PROPS_WALL_MODEL
  2
AecDbDispPropsWallModel
  3
AecArchBase50|Product Desc: Autodesk Architectural Desktop 2007 |Company: Autodesk,Inc. |WEB Address: www.autodesk.com
 90
    32897
280
     0
281
     0
  0
CLASS
  1
AEC_DISP_PROPS_MATERIAL
  2
AecDbDispPropsMaterial
  3
AecBase50|Product Desc: Autodesk Architectural Desktop 2007 |Company: Autodesk,Inc. |WEB Address: www.autodesk.com
 90
    32897
280
     0
281
     0
  0
CLASS
  1
AEC_DISP_PROPS_WINDOW
  2
AecDbDispPropsWindow
  3
AecArchBase50|Product Desc: Autodesk Architectural Desktop 2007 |Company: Autodesk,Inc. |WEB Address: www.autodesk.com
 90
    32897
280
     0
281
     0
  0
CLASS
  1
AEC_DISP_PROPS_LAYOUT_GRID3D
  2
AecDbDispPropsLayoutGrid3d
  3
AecBase50|Product Desc: Autodesk Architectural Desktop 2007 |Company: Autodesk,Inc. |WEB Address: www.autodesk.com
 90
    32897
280
     0
281
     0
  0
CLASS
  1
AEC_DISP_PROPS_GRID_ASSEMBLY_PLAN
  2
AecDbDispPropsGridAssemblyPlan
  3
AecArchBase50|Product Desc: Autodesk Architectural Desktop 2007 |Company: Autodesk,Inc. |WEB Address: www.autodesk.com
 90
    32897
280
     0
281
     0
  0
CLASS
  1
AEC_DISP_PROPS_WALL_SCHEM
  2
AecDbDispPropsWallSchem
  3
AecArchBase50|Product Desc: Autodesk Architectural Desktop 2007 |Company: Autodesk,Inc. |WEB Address: www.autodesk.com
 90
    32897
280
     0
281
     0
  0
CLASS
  1
AEC_DISP_PROPS_WALL_PLAN
  2
AecDbDispPropsWallPlan
  3
AecArchBase50|Product Desc: Autodesk Architectural Desktop 2007 |Company: Autodesk,Inc. |WEB Address: www.autodesk.com
 90
    32897
280
     0
281
     0
  0
CLASS
  1
AEC_DISP_PROPS_SPACE_BOUNDARY
  2
AecDbDispPropsSpaceBoundary
  3
AecArchBase50|Product Desc: Autodesk Architectural Desktop 2007 |Company: Autodesk,Inc. |WEB Address: www.autodesk.com
 90
    32897
280
     0
281
     0
  0
CLASS
  1
AEC_DISP_PROPS_SLAB_PLAN
  2
AecDbDispPropsSlabPlan
  3
AecArchBase50|Product Desc: Autodesk Architectural Desktop 2007 |Company: Autodesk,Inc. |WEB Address: www.autodesk.com
 90
    32897
280
     0
281
     0
  0
CLASS
  1
AEC_DISP_PROPS_RAILING_MODEL
  2
AecDbDispPropsRailingModel
  3
AecArchBase50|Product Desc: Autodesk Architectural Desktop 2007 |Company: Autodesk,Inc. |WEB Address: www.autodesk.com
 90
    32897
280
     0
281
     0
  0
CLASS
  1
AEC_DISP_PROPS_MASS_ELEM_MODEL
  2
AecDbDispPropsMassElem
  3
AecBaseEx50|Product Desc: Autodesk Architectural Desktop 2007 |Company: Autodesk,Inc. |WEB Address: www.autodesk.com
 90
    32897
280
     0
281
     0
  0
CLASS
  1
AEC_DISP_PROPS_DIM
  2
AecDbDispPropsDimGroup
  3
AecArchDACHBase50|Product Desc: Autodesk Architectural Desktop 2007 |Company: Autodesk,Inc. |WEB Address: www.autodesk.com
 90
    32897
280
     0
281
     0
  0
CLASS
  1
AEC_DISP_PROPS_ROOFSLAB
  2
AecDbDispPropsRoofSlab
  3
AecArchBase50|Product Desc: Autodesk Architectural Desktop 2007 |Company: Autodesk,Inc. |WEB Address: www.autodesk.com
 90
    32897
280
     0
281
     0
  0
CLASS
  1
AEC_DISP_PROPS_ENT_REF
  2
AecDbDispPropsEntRef
  3
AecBase50|Product Desc: Autodesk Architectural Desktop 2007 |Company: Autodesk,Inc. |WEB Address: www.autodesk.com
 90
    32897
280
     0
281
     0
  0
CLASS
  1
AEC_DISP_PROPS_2D_SECTION
  2
AecDbDispProps2dSection
  3
AecBase50|Product Desc: Autodesk Architectural Desktop 2007 |Company: Autodesk,Inc. |WEB Address: www.autodesk.com
 90
    32897
280
     0
281
     0
  0
CLASS
  1
AECS_DISP_PROPS_MEMBER_LOGICAL
  2
AecsDbDispPropsMemberLogical
  3
AecStructureBase50|Product Desc: Autodesk Architectural Desktop 2007 |Company: Autodesk,Inc. |WEB Address: www.autodesk.com
 90
    32897
280
     0
281
     0
  0
CLASS
  1
AEC_DISP_PROPS_AREA_DECOMPOSED
  2
AecDbDispPropsAreaDecomposed
  3
AecAreaCalculationBase50|Product Desc: Autodesk Architectural Desktop 2007 |Company: Autodesk,Inc. |WEB Address: www.autodesk.com
 90
    32897
280
     0
281
     0
  0
CLASS
  1
AEC_DISP_PROPS_CAMERA
  2
AecDbDispPropsCamera
  3
AecBase50|Product Desc: Autodesk Architectural Desktop 2007 |Company: Autodesk,Inc. |WEB Address: www.autodesk.com
 90
    32897
280
     0
281
     0
  0
CLASS
  1
AECS_DISP_PROPS_MEMBER
  2
AecsDbDispPropsMember
  3
AecStructureBase50|Product Desc: Autodesk Architectural Desktop 2007 |Company: Autodesk,Inc. |WEB Address: www.autodesk.com
 90
    32897
280
     0
281
     0
  0
CLASS
  1
AECS_DISP_PROPS_MEMBER_PLAN
  2
AecsDbDispPropsMemberPlan
  3
AecStructureBase50|Product Desc: Autodesk Architectural Desktop 2007 |Company: Autodesk,Inc. |WEB Address: www.autodesk.com
 90
    32897
280
     0
281
     0
  0
CLASS
  1
AEC_DISP_PROPS_AREAGROUP
  2
AecDbDispPropsAreaGroup
  3
AecAreaCalculationBase50|Product Desc: Autodesk Architectural Desktop 2007 |Company: Autodesk,Inc. |WEB Address: www.autodesk.com
 90
    32897
280
     0
281
     0
  0
CLASS
  1
AEC_DISP_PROPS_WINDOW_NOMINAL
  2
AecDbDispPropsWindowNominal
  3
AecArchBase50|Product Desc: Autodesk Architectural Desktop 2007 |Company: Autodesk,Inc. |WEB Address: www.autodesk.com
 90
    32897
280
     0
281
     0
  0
CLASS
  1
AEC_DISP_PROPS_AREA
  2
AecDbDispPropsArea
  3
AecAreaCalculationBase50|Product Desc: Autodesk Architectural Desktop 2007 |Company: Autodesk,Inc. |WEB Address: www.autodesk.com
 90
    32897
280
     0
281
     0
  0
CLASS
  1
AEC_DISP_PROPS_SCHEDULE_TABLE
  2
AecDbDispPropsScheduleTable
  3
AecSchedule50|Product Desc: Autodesk Architectural Desktop 2007 |Company: Autodesk,Inc. |WEB Address: www.autodesk.com
 90
    32897
280
     0
281
     0
  0
CLASS
  1
AEC_LAYERKEY_STYLE
  2
AecDbLayerKeyStyle
  3
AecBase50|Product Desc: Autodesk Architectural Desktop 2007 |Company: Autodesk,Inc. |WEB Address: www.autodesk.com
 90
    32897
280
     0
281
     0
  0
CLASS
  1
AEC_VARS_ARCHBASE
  2
AecDbVarsArchBase
  3
AecArchBase50|Product Desc: Autodesk Architectural Desktop 2007 |Company: Autodesk,Inc. |WEB Address: www.autodesk.com
 90
    32897
280
     0
281
     0
  0
CLASS
  1
AEC_VARS_MUNICH
  2
AecDbVarsMunich
  3
AecArchDACHBase50|Product Desc: Autodesk Architectural Desktop 2007 |Company: Autodesk,Inc. |WEB Address: www.autodesk.com
 90
    32897
280
     0
281
     0
  0
CLASS
  1
AEC_NOTIFICATION_TRACKER
  2
AecDbNotificationTracker
  3
AecBase50|Product Desc: Autodesk Architectural Desktop 2007 |Company: Autodesk,Inc. |WEB Address: www.autodesk.com
 90
    32897
280
     0
281
     0
  0
CLASS
  1
AEC_DISP_REP_ANCHOR
  2
AecDbDispRepAnchor
  3
AecBase50|Product Desc: Autodesk Architectural Desktop 2007 |Company: Autodesk,Inc. |WEB Address: www.autodesk.com
 90
    32897
280
     0
281
     0
  0
CLASS
  1
AEC_DISP_REP_POLYGON_TRUECOLOUR
  2
AecDbDispRepPolygonTrueColour
  3
AecBase50|Product Desc: Autodesk Architectural Desktop 2007 |Company: Autodesk,Inc. |WEB Address: www.autodesk.com
 90
    32897
280
     0
281
     0
  0
CLASS
  1
AEC_DISP_PROPS_POLYGON_TRUECOLOUR
  2
AecDbDispPropsPolygonTrueColour
  3
AecBase50|Product Desc: Autodesk Architectural Desktop 2007 |Company: Autodesk,Inc. |WEB Address: www.autodesk.com
 90
    32897
280
     0
281
     0
  0
CLASS
  1
AEC_DISP_REP_BDG_ELEVLINE_RCP
  2
AecDbDispRepBdgElevLineRcp
  3
AecArchBase50|Product Desc: Autodesk Architectural Desktop 2007 |Company: Autodesk,Inc. |WEB Address: www.autodesk.com
 90
    32897
280
     0
281
     0
  0
CLASS
  1
AEC_DISP_REP_BDG_SECTIONLINE_RCP
  2
AecDbDispRepBdgSectionLineRcp
  3
AecArchBase50|Product Desc: Autodesk Architectural Desktop 2007 |Company: Autodesk,Inc. |WEB Address: www.autodesk.com
 90
    32897
280
     0
281
     0
  0
CLASS
  1
AEC_DISP_REP_BDG_SECTION_MODEL
  2
AecDbDispRepBdgSectionModel
  3
AecArchBase50|Product Desc: Autodesk Architectural Desktop 2007 |Company: Autodesk,Inc. |WEB Address: www.autodesk.com
 90
    32897
280
     0
281
     0
  0
CLASS
  1
AEC_DISP_REP_DOOR_ELEV
  2
AecDbDispRepDoorElev
  3
AecArchBase50|Product Desc: Autodesk Architectural Desktop 2007 |Company: Autodesk,Inc. |WEB Address: www.autodesk.com
 90
    32897
280
     0
281
     0
  0
CLASS
  1
AEC_DISP_REP_DOOR_RCP
  2
AecDbDispRepDoorRcp
  3
AecArchBase50|Product Desc: Autodesk Architectural Desktop 2007 |Company: Autodesk,Inc. |WEB Address: www.autodesk.com
 90
    32897
280
     0
281
     0
  0
CLASS
  1
AEC_DISP_REP_DOOR_THRESHOLD_PLAN
  2
AecDbDispRepDoorThresholdPlan
  3
AecArchBase50|Product Desc: Autodesk Architectural Desktop 2007 |Company: Autodesk,Inc. |WEB Address: www.autodesk.com
 90
    32897
280
     0
281
     0
  0
CLASS
  1
AEC_DISP_PROPS_DOOR_THRESHOLD_PLAN
  2
AecDbDispPropsDoorThresholdPlan
  3
AecArchBase50|Product Desc: Autodesk Architectural Desktop 2007 |Company: Autodesk,Inc. |WEB Address: www.autodesk.com
 90
    32897
280
     0
281
     0
  0
CLASS
  1
AEC_DISP_REP_MASS_ELEM_RCP
  2
AecDbDispRepMassElemRcp
  3
AecArchBase50|Product Desc: Autodesk Architectural Desktop 2007 |Company: Autodesk,Inc. |WEB Address: www.autodesk.com
 90
    32897
280
     0
281
     0
  0
CLASS
  1
AEC_DISP_REP_MASS_GROUP_RCP
  2
AecDbDispRepMassGroupRcp
  3
AecArchBase50|Product Desc: Autodesk Architectural Desktop 2007 |Company: Autodesk,Inc. |WEB Address: www.autodesk.com
 90
    32897
280
     0
281
     0
  0
CLASS
  1
AEC_DISP_REP_MVBLOCK_REF_RCP
  2
AecDbDispRepMvBlockRefRcp
  3
AecArchBase50|Product Desc: Autodesk Architectural Desktop 2007 |Company: Autodesk,Inc. |WEB Address: www.autodesk.com
 90
    32897
280
     0
281
     0
  0
CLASS
  1
AEC_DISP_REP_ROOF_RCP
  2
AecDbDispRepRoofRcp
  3
AecArchBase50|Product Desc: Autodesk Architectural Desktop 2007 |Company: Autodesk,Inc. |WEB Address: www.autodesk.com
 90
    32897
280
     0
281
     0
  0
CLASS
  1
AEC_DISP_REP_SPACE_BOUNDARY_DIAGRAM
  2
AecDbDispRepSpaceBoundaryDgrm
  3
AecArchBase50|Product Desc: Autodesk Architectural Desktop 2007 |Company: Autodesk,Inc. |WEB Address: www.autodesk.com
 90
    32897
280
     0
281
     0
  0
CLASS
  1
AEC_DISP_REP_SPACE_RCP
  2
AecDbDispRepSpaceRcp
  3
AecArchBase50|Product Desc: Autodesk Architectural Desktop 2007 |Company: Autodesk,Inc. |WEB Address: www.autodesk.com
 90
    32897
280
     0
281
     0
  0
CLASS
  1
AEC_DISP_REP_SPACE_VOLUME
  2
AecDbDispRepSpaceVolume
  3
AecArchBase50|Product Desc: Autodesk Architectural Desktop 2007 |Company: Autodesk,Inc. |WEB Address: www.autodesk.com
 90
    32897
280
     0
281
     0
  0
CLASS
  1
AEC_DISP_REP_STAIR_PLAN_OVERLAPPING
  2
AecDbDispRepStairPlanOverlapping
  3
AecArchBase50|Product Desc: Autodesk Architectural Desktop 2007 |Company: Autodesk,Inc. |WEB Address: www.autodesk.com
 90
    32897
280
     0
281
     0
  0
CLASS
  1
AEC_DISP_PROPS_STAIR_PLAN_OVERLAPPING
  2
AecDbDispPropsStairPlanOverlapping
  3
AecArchBase50|Product Desc: Autodesk Architectural Desktop 2007 |Company: Autodesk,Inc. |WEB Address: www.autodesk.com
 90
    32897
280
     0
281
     0
  0
CLASS
  1
AEC_DISP_REP_STAIR_RCP
  2
AecDbDispRepStairRcp
  3
AecArchBase50|Product Desc: Autodesk Architectural Desktop 2007 |Company: Autodesk,Inc. |WEB Address: www.autodesk.com
 90
    32897
280
     0
281
     0
  0
CLASS
  1
AEC_DISP_REP_WALL_RCP
  2
AecDbDispRepWallRcp
  3
AecArchBase50|Product Desc: Autodesk Architectural Desktop 2007 |Company: Autodesk,Inc. |WEB Address: www.autodesk.com
 90
    32897
280
     0
281
     0
  0
CLASS
  1
AEC_DISP_REP_WINDOWASSEMBLY_SILL_PLAN
  2
AecDbDispRepWindowAssemblySillPlan
  3
AecArchBase50|Product Desc: Autodesk Architectural Desktop 2007 |Company: Autodesk,Inc. |WEB Address: www.autodesk.com
 90
    32897
280
     0
281
     0
  0
CLASS
  1
AEC_DISP_PROPS_WINDOW_ASSEMBLY_SILL_PLAN
  2
AecDbDispPropsWindowAssemblySillPlan
  3
AecArchBase50|Product Desc: Autodesk Architectural Desktop 2007 |Company: Autodesk,Inc. |WEB Address: www.autodesk.com
 90
    32897
280
     0
281
     0
  0
CLASS
  1
AEC_DISP_REP_WINDOW_ELEV
  2
AecDbDispRepWindowElev
  3
AecArchBase50|Product Desc: Autodesk Architectural Desktop 2007 |Company: Autodesk,Inc. |WEB Address: www.autodesk.com
 90
    32897
280
     0
281
     0
  0
CLASS
  1
AEC_DISP_REP_WINDOW_RCP
  2
AecDbDispRepWindowRcp
  3
AecArchBase50|Product Desc: Autodesk Architectural Desktop 2007 |Company: Autodesk,Inc. |WEB Address: www.autodesk.com
 90
    32897
280
     0
281
     0
  0
CLASS
  1
AEC_DISP_REP_WINDOW_SILL_PLAN
  2
AecDbDispRepWindowSillPlan
  3
AecArchBase50|Product Desc: Autodesk Architectural Desktop 2007 |Company: Autodesk,Inc. |WEB Address: www.autodesk.com
 90
    32897
280
     0
281
     0
  0
CLASS
  1
AEC_DISP_PROPS_WINDOW_SILL_PLAN
  2
AecDbDispPropsWindowSillPlan
  3
AecArchBase50|Product Desc: Autodesk Architectural Desktop 2007 |Company: Autodesk,Inc. |WEB Address: www.autodesk.com
 90
    32897
280
     0
281
     0
  0
CLASS
  1
AEC_DISP_REP_ANCHOR_BUB_TO_GRID_RCP
  2
AecDbDispRepAnchorBubToGridRcp
  3
AecStructureBase50|Product Desc: Autodesk Architectural Desktop 2007 |Company: Autodesk,Inc. |WEB Address: www.autodesk.com
 90
    32897
280
     0
281
     0
  0
CLASS
  1
AEC_DISP_REP_COLUMN_GRID_RCP
  2
AecDbDispRepColumnGridRcp
  3
AecStructureBase50|Product Desc: Autodesk Architectural Desktop 2007 |Company: Autodesk,Inc. |WEB Address: www.autodesk.com
 90
    32897
280
     0
281
     0
  0
CLASS
  1
AECS_DISP_REP_MEMBER_ELEVATION_DESIGN
  2
AecsDbDispRepMemberElevationDesign
  3
AecStructureBase50|Product Desc: Autodesk Architectural Desktop 2007 |Company: Autodesk,Inc. |WEB Address: www.autodesk.com
 90
    32897
280
     0
281
     0
  0
CLASS
  1
AECS_DISP_PROPS_MEMBER_PROJECTED
  2
AecsDbDispPropsMemberProjected
  3
AecStructureBase50|Product Desc: Autodesk Architectural Desktop 2007 |Company: Autodesk,Inc. |WEB Address: www.autodesk.com
 90
    32897
280
     0
281
     0
  0
CLASS
  1
AECS_DISP_REP_MEMBER_ELEVATION_DETAIL
  2
AecsDbDispRepMemberElevationDetail
  3
AecStructureBase50|Product Desc: Autodesk Architectural Desktop 2007 |Company: Autodesk,Inc. |WEB Address: www.autodesk.com
 90
    32897
280
     0
281
     0
  0
CLASS
  1
AECS_DISP_REP_MEMBER_MODEL_DETAIL
  2
AecsDbDispRepMemberModelDetail
  3
AecStructureBase50|Product Desc: Autodesk Architectural Desktop 2007 |Company: Autodesk,Inc. |WEB Address: www.autodesk.com
 90
    32897
280
     0
281
     0
  0
CLASS
  1
AECS_DISP_REP_MEMBER_PLAN_DETAIL
  2
AecsDbDispRepMemberPlanDetail
  3
AecStructureBase50|Product Desc: Autodesk Architectural Desktop 2007 |Company: Autodesk,Inc. |WEB Address: www.autodesk.com
 90
    32897
280
     0
281
     0
  0
CLASS
  1
AECS_DISP_REP_MEMBER_PLAN_SKETCH
  2
AecsDbDispRepMemberPlanSketch
  3
AecStructureBase50|Product Desc: Autodesk Architectural Desktop 2007 |Company: Autodesk,Inc. |WEB Address: www.autodesk.com
 90
    32897
280
     0
281
     0
  0
CLASS
  1
AECS_DISP_PROPS_MEMBER_PLAN_SKETCH
  2
AecsDbDispPropsMemberPlanSketch
  3
AecStructureBase50|Product Desc: Autodesk Architectural Desktop 2007 |Company: Autodesk,Inc. |WEB Address: www.autodesk.com
 90
    32897
280
     0
281
     0
  0
CLASS
  1
AEC_AECDBDISPREPAREA100
  2
AecDbDispRepArea100
  3
AecArchDACHBase50|Product Desc: Autodesk Architectural Desktop 2007 |Company: Autodesk,Inc. |WEB Address: www.autodesk.com
 90
    32897
280
     0
281
     0
  0
CLASS
  1
AEC_AECDBDISPREPAREAGROUP100
  2
AecDbDispRepAreaGroup100
  3
AecArchDACHBase50|Product Desc: Autodesk Architectural Desktop 2007 |Company: Autodesk,Inc. |WEB Address: www.autodesk.com
 90
    32897
280
     0
281
     0
  0
CLASS
  1
AEC_AECDBDISPREPBDGELEVLINEPLAN100
  2
AecDbDispRepBdgElevLinePlan100
  3
AecArchDACHBase50|Product Desc: Autodesk Architectural Desktop 2007 |Company: Autodesk,Inc. |WEB Address: www.autodesk.com
 90
    32897
280
     0
281
     0
  0
CLASS
  1
AEC_AECDBDISPREPBDGSECTIONLINEPLAN100
  2
AecDbDispRepBdgSectionLinePlan100
  3
AecArchDACHBase50|Product Desc: Autodesk Architectural Desktop 2007 |Company: Autodesk,Inc. |WEB Address: www.autodesk.com
 90
    32897
280
     0
281
     0
  0
CLASS
  1
AEC_AECDBDISPREPCEILINGGRIDPLAN100
  2
AecDbDispRepCeilingGridPlan100
  3
AecArchDACHBase50|Product Desc: Autodesk Architectural Desktop 2007 |Company: Autodesk,Inc. |WEB Address: www.autodesk.com
 90
    32897
280
     0
281
     0
  0
CLASS
  1
AEC_AECDBDISPREPCOLUMNGRIDPLAN100
  2
AecDbDispRepColumnGridPlan100
  3
AecArchDACHBase50|Product Desc: Autodesk Architectural Desktop 2007 |Company: Autodesk,Inc. |WEB Address: www.autodesk.com
 90
    32897
280
     0
281
     0
  0
CLASS
  1
AEC_AECDBDISPREPCURTAINWALLLAYOUTPLAN100
  2
AecDbDispRepCurtainWallLayoutPlan100
  3
AecArchDACHBase50|Product Desc: Autodesk Architectural Desktop 2007 |Company: Autodesk,Inc. |WEB Address: www.autodesk.com
 90
    32897
280
     0
281
     0
  0
CLASS
  1
AEC_AECDBDISPREPCURTAINWALLUNITPLAN100
  2
AecDbDispRepCurtainWallUnitPlan100
  3
AecArchDACHBase50|Product Desc: Autodesk Architectural Desktop 2007 |Company: Autodesk,Inc. |WEB Address: www.autodesk.com
 90
    32897
280
     0
281
     0
  0
CLASS
  1
AEC_AECDBDISPREPMVBLOCKREFPLAN100
  2
AecDbDispRepMvBlockRefPlan100
  3
AecArchDACHBase50|Product Desc: Autodesk Architectural Desktop 2007 |Company: Autodesk,Inc. |WEB Address: www.autodesk.com
 90
    32897
280
     0
281
     0
  0
CLASS
  1
AEC_AECDBDISPREPROOFPLAN100
  2
AecDbDispRepRoofPlan100
  3
AecArchDACHBase50|Product Desc: Autodesk Architectural Desktop 2007 |Company: Autodesk,Inc. |WEB Address: www.autodesk.com
 90
    32897
280
     0
281
     0
  0
CLASS
  1
AEC_AECDBDISPREPROOFSLABPLAN100
  2
AecDbDispRepRoofSlabPlan100
  3
AecArchDACHBase50|Product Desc: Autodesk Architectural Desktop 2007 |Company: Autodesk,Inc. |WEB Address: www.autodesk.com
 90
    32897
280
     0
281
     0
  0
CLASS
  1
AEC_AECDBDISPREPSLABPLAN100
  2
AecDbDispRepSlabPlan100
  3
AecArchDACHBase50|Product Desc: Autodesk Architectural Desktop 2007 |Company: Autodesk,Inc. |WEB Address: www.autodesk.com
 90
    32897
280
     0
281
     0
  0
CLASS
  1
AEC_AECDBDISPREPSPACEBOUNDARYPLAN100
  2
AecDbDispRepSpaceBoundaryPlan100
  3
AecArchDACHBase50|Product Desc: Autodesk Architectural Desktop 2007 |Company: Autodesk,Inc. |WEB Address: www.autodesk.com
 90
    32897
280
     0
281
     0
  0
CLASS
  1
AEC_AECDBDISPREPSPACEPLAN100
  2
AecDbDispRepSpacePlan100
  3
AecArchDACHBase50|Product Desc: Autodesk Architectural Desktop 2007 |Company: Autodesk,Inc. |WEB Address: www.autodesk.com
 90
    32897
280
     0
281
     0
  0
CLASS
  1
AEC_AECDBDISPREPWALLPLAN100
  2
AecDbDispRepWallPlan100
  3
AecArchDACHBase50|Product Desc: Autodesk Architectural Desktop 2007 |Company: Autodesk,Inc. |WEB Address: www.autodesk.com
 90
    32897
280
     0
281
     0
  0
CLASS
  1
AEC_AECDBDISPREPAREA50
  2
AecDbDispRepArea50
  3
AecArchDACHBase50|Product Desc: Autodesk Architectural Desktop 2007 |Company: Autodesk,Inc. |WEB Address: www.autodesk.com
 90
    32897
280
     0
281
     0
  0
CLASS
  1
AEC_AECDBDISPREPAREAGROUP50
  2
AecDbDispRepAreaGroup50
  3
AecArchDACHBase50|Product Desc: Autodesk Architectural Desktop 2007 |Company: Autodesk,Inc. |WEB Address: www.autodesk.com
 90
    32897
280
     0
281
     0
  0
CLASS
  1
AEC_AECDBDISPREPBDGELEVLINEPLAN50
  2
AecDbDispRepBdgElevLinePlan50
  3
AecArchDACHBase50|Product Desc: Autodesk Architectural Desktop 2007 |Company: Autodesk,Inc. |WEB Address: www.autodesk.com
 90
    32897
280
     0
281
     0
  0
CLASS
  1
AEC_AECDBDISPREPBDGSECTIONLINEPLAN50
  2
AecDbDispRepBdgSectionLinePlan50
  3
AecArchDACHBase50|Product Desc: Autodesk Architectural Desktop 2007 |Company: Autodesk,Inc. |WEB Address: www.autodesk.com
 90
    32897
280
     0
281
     0
  0
CLASS
  1
AEC_AECDBDISPREPCEILINGGRIDPLAN50
  2
AecDbDispRepCeilingGridPlan50
  3
AecArchDACHBase50|Product Desc: Autodesk Architectural Desktop 2007 |Company: Autodesk,Inc. |WEB Address: www.autodesk.com
 90
    32897
280
     0
281
     0
  0
CLASS
  1
AEC_AECDBDISPREPCOLUMNGRIDPLAN50
  2
AecDbDispRepColumnGridPlan50
  3
AecArchDACHBase50|Product Desc: Autodesk Architectural Desktop 2007 |Company: Autodesk,Inc. |WEB Address: www.autodesk.com
 90
    32897
280
     0
281
     0
  0
CLASS
  1
AEC_AECDBDISPREPCURTAINWALLLAYOUTPLAN50
  2
AecDbDispRepCurtainWallLayoutPlan50
  3
AecArchDACHBase50|Product Desc: Autodesk Architectural Desktop 2007 |Company: Autodesk,Inc. |WEB Address: www.autodesk.com
 90
    32897
280
     0
281
     0
  0
CLASS
  1
AEC_AECDBDISPREPCURTAINWALLUNITPLAN50
  2
AecDbDispRepCurtainWallUnitPlan50
  3
AecArchDACHBase50|Product Desc: Autodesk Architectural Desktop 2007 |Company: Autodesk,Inc. |WEB Address: www.autodesk.com
 90
    32897
280
     0
281
     0
  0
CLASS
  1
AEC_AECDBDISPREPMVBLOCKREFPLAN50
  2
AecDbDispRepMvBlockRefPlan50
  3
AecArchDACHBase50|Product Desc: Autodesk Architectural Desktop 2007 |Company: Autodesk,Inc. |WEB Address: www.autodesk.com
 90
    32897
280
     0
281
     0
  0
CLASS
  1
AEC_AECDBDISPREPROOFPLAN50
  2
AecDbDispRepRoofPlan50
  3
AecArchDACHBase50|Product Desc: Autodesk Architectural Desktop 2007 |Company: Autodesk,Inc. |WEB Address: www.autodesk.com
 90
    32897
280
     0
281
     0
  0
CLASS
  1
AEC_AECDBDISPREPROOFSLABPLAN50
  2
AecDbDispRepRoofSlabPlan50
  3
AecArchDACHBase50|Product Desc: Autodesk Architectural Desktop 2007 |Company: Autodesk,Inc. |WEB Address: www.autodesk.com
 90
    32897
280
     0
281
     0
  0
CLASS
  1
AEC_AECDBDISPREPSLABPLAN50
  2
AecDbDispRepSlabPlan50
  3
AecArchDACHBase50|Product Desc: Autodesk Architectural Desktop 2007 |Company: Autodesk,Inc. |WEB Address: www.autodesk.com
 90
    32897
280
     0
281
     0
  0
CLASS
  1
AEC_AECDBDISPREPSPACEBOUNDARYPLAN50
  2
AecDbDispRepSpaceBoundaryPlan50
  3
AecArchDACHBase50|Product Desc: Autodesk Architectural Desktop 2007 |Company: Autodesk,Inc. |WEB Address: www.autodesk.com
 90
    32897
280
     0
281
     0
  0
CLASS
  1
AEC_AECDBDISPREPSPACEPLAN50
  2
AecDbDispRepSpacePlan50
  3
AecArchDACHBase50|Product Desc: Autodesk Architectural Desktop 2007 |Company: Autodesk,Inc. |WEB Address: www.autodesk.com
 90
    32897
280
     0
281
     0
  0
CLASS
  1
AEC_AECDBDISPREPWALLPLAN50
  2
AecDbDispRepWallPlan50
  3
AecArchDACHBase50|Product Desc: Autodesk Architectural Desktop 2007 |Company: Autodesk,Inc. |WEB Address: www.autodesk.com
 90
    32897
280
     0
281
     0
  0
CLASS
  1
AEC_AECDBDISPREPWINDOWASSEMBLYPLAN50
  2
AecDbDispRepWindowAssemblyPlan50
  3
AecArchDACHBase50|Product Desc: Autodesk Architectural Desktop 2007 |Company: Autodesk,Inc. |WEB Address: www.autodesk.com
 90
    32897
280
     0
281
     0
  0
CLASS
  1
AEC_DB_DISP_REP_DIM_GROUP_PLAN100
  2
AecDbDispRepDimGroupPlan100
  3
AecArchDACHBase50|Product Desc: Autodesk Architectural Desktop 2007 |Company: Autodesk,Inc. |WEB Address: www.autodesk.com
 90
    32897
280
     0
281
     0
  0
CLASS
  1
AEC_DB_DISP_REP_DIM_GROUP_PLAN50
  2
AecDbDispRepDimGroupPlan50
  3
AecArchDACHBase50|Product Desc: Autodesk Architectural Desktop 2007 |Company: Autodesk,Inc. |WEB Address: www.autodesk.com
 90
    32897
280
     0
281
     0
  0
CLASS
  1
AEC_DISP_REP_DOOR_PLAN_50
  2
AecDbDispRepDoorPlan50
  3
AecArchDACHBase50|Product Desc: Autodesk Architectural Desktop 2007 |Company: Autodesk,Inc. |WEB Address: www.autodesk.com
 90
    32897
280
     0
281
     0
  0
CLASS
  1
AEC_DISP_PROPS_DOOR_PLAN_50
  2
AecDbDispPropsDoorPlan50
  3
AecArchDACHBase50|Product Desc: Autodesk Architectural Desktop 2007 |Company: Autodesk,Inc. |WEB Address: www.autodesk.com
 90
    32897
280
     0
281
     0
  0
CLASS
  1
AEC_DISP_REP_DOOR_PLAN_HEKTO
  2
AecDbDispRepDoorPlanHekto
  3
AecArchDACHBase50|Product Desc: Autodesk Architectural Desktop 2007 |Company: Autodesk,Inc. |WEB Address: www.autodesk.com
 90
    32897
280
     0
281
     0
  0
CLASS
  1
AEC_DISP_PROPS_DOOR_PLAN_100
  2
AecDbDispPropsDoorPlan100
  3
AecArchDACHBase50|Product Desc: Autodesk Architectural Desktop 2007 |Company: Autodesk,Inc. |WEB Address: www.autodesk.com
 90
    32897
280
     0
281
     0
  0
CLASS
  1
AEC_DISP_REP_DOOR_THRESHOLD_SYMBOL_PLAN
  2
AecDbDispRepDoorThresholdSymbolPlan
  3
AecArchDACHBase50|Product Desc: Autodesk Architectural Desktop 2007 |Company: Autodesk,Inc. |WEB Address: www.autodesk.com
 90
    32897
280
     0
281
     0
  0
CLASS
  1
AEC_DISP_PROPS_DOOR_THRESHOLD_SYMBOL_PLAN
  2
AecDbDispPropsDoorThresholdSymbolPlan
  3
AecArchDACHBase50|Product Desc: Autodesk Architectural Desktop 2007 |Company: Autodesk,Inc. |WEB Address: www.autodesk.com
 90
    32897
280
     0
281
     0
  0
CLASS
  1
AEC_DISPREPAECDBDISPREPMASSELEMPLAN100
  2
AecDbDispRepMassElemPlan100
  3
AecArchDACHBase50|Product Desc: Autodesk Architectural Desktop 2007 |Company: Autodesk,Inc. |WEB Address: www.autodesk.com
 90
    32897
280
     0
281
     0
  0
CLASS
  1
AEC_DISPROPSMASSELEMPLANCOMMON
  2
AecDbDispPropsMassElemPlanCommon
  3
AecArchDACHBase50|Product Desc: Autodesk Architectural Desktop 2007 |Company: Autodesk,Inc. |WEB Address: www.autodesk.com
 90
    32897
280
     0
281
     0
  0
CLASS
  1
AEC_DISPREPAECDBDISPREPMASSELEMPLAN50
  2
AecDbDispRepMassElemPlan50
  3
AecArchDACHBase50|Product Desc: Autodesk Architectural Desktop 2007 |Company: Autodesk,Inc. |WEB Address: www.autodesk.com
 90
    32897
280
     0
281
     0
  0
CLASS
  1
AEC_DISPREPAECDBDISPREPMASSGROUPPLAN100
  2
AecDbDispRepMassGroupPlan100
  3
AecArchDACHBase50|Product Desc: Autodesk Architectural Desktop 2007 |Company: Autodesk,Inc. |WEB Address: www.autodesk.com
 90
    32897
280
     0
281
     0
  0
CLASS
  1
AEC_DISPROPSMASSGROUPPLANCOMMON
  2
AecDbDispPropsMassGroupPlanCommon
  3
AecArchDACHBase50|Product Desc: Autodesk Architectural Desktop 2007 |Company: Autodesk,Inc. |WEB Address: www.autodesk.com
 90
    32897
280
     0
281
     0
  0
CLASS
  1
AEC_DISPREPAECDBDISPREPMASSGROUPPLAN50
  2
AecDbDispRepMassGroupPlan50
  3
AecArchDACHBase50|Product Desc: Autodesk Architectural Desktop 2007 |Company: Autodesk,Inc. |WEB Address: www.autodesk.com
 90
    32897
280
     0
281
     0
  0
CLASS
  1
AEC_DISPREPAECDBDISPREPOPENINGPLAN100
  2
AecDbDispRepOpeningPlan100
  3
AecArchDACHBase50|Product Desc: Autodesk Architectural Desktop 2007 |Company: Autodesk,Inc. |WEB Address: www.autodesk.com
 90
    32897
280
     0
281
     0
  0
CLASS
  1
AEC_DISPROPSOPENINGPLANCOMMONHATCHED
  2
AecDbDispPropsOpeningPlanCommonHatched
  3
AecArchDACHBase50|Product Desc: Autodesk Architectural Desktop 2007 |Company: Autodesk,Inc. |WEB Address: www.autodesk.com
 90
    32897
280
     0
281
     0
  0
CLASS
  1
AEC_DISPREPAECDBDISPREPOPENINGPLAN50
  2
AecDbDispRepOpeningPlan50
  3
AecArchDACHBase50|Product Desc: Autodesk Architectural Desktop 2007 |Company: Autodesk,Inc. |WEB Address: www.autodesk.com
 90
    32897
280
     0
281
     0
  0
CLASS
  1
AEC_DISPREPAECDBDISPREPOPENINGPLANREFLECTED
  2
AecDbDispRepOpeningPlanReflected
  3
AecArchDACHBase50|Product Desc: Autodesk Architectural Desktop 2007 |Company: Autodesk,Inc. |WEB Address: www.autodesk.com
 90
    32897
280
     0
281
     0
  0
CLASS
  1
AEC_DISPROPSOPENINGPLANCOMMON
  2
AecDbDispPropsOpeningPlanCommon
  3
AecArchDACHBase50|Product Desc: Autodesk Architectural Desktop 2007 |Company: Autodesk,Inc. |WEB Address: www.autodesk.com
 90
    32897
280
     0
281
     0
  0
CLASS
  1
AEC_DISPREPAECDBDISPREPOPENINGSILLPLAN
  2
AecDbDispRepOpeningSillPlan
  3
AecArchDACHBase50|Product Desc: Autodesk Architectural Desktop 2007 |Company: Autodesk,Inc. |WEB Address: www.autodesk.com
 90
    32897
280
     0
281
     0
  0
CLASS
  1
AEC_DISPROPSOPENINGSILLPLAN
  2
AecDbDispPropsOpeningSillPlan
  3
AecArchDACHBase50|Product Desc: Autodesk Architectural Desktop 2007 |Company: Autodesk,Inc. |WEB Address: www.autodesk.com
 90
    32897
280
     0
281
     0
  0
CLASS
  1
AEC_DISP_REP_RAILING_PLAN_100
  2
AecDbDispRepRailingPlan100
  3
AecArchDACHBase50|Product Desc: Autodesk Architectural Desktop 2007 |Company: Autodesk,Inc. |WEB Address: www.autodesk.com
 90
    32897
280
     0
281
     0
  0
CLASS
  1
AEC_DISP_ROPS_RAILING_PLAN_100
  2
AecDbDispPropsRailingPlan100
  3
AecArchDACHBase50|Product Desc: Autodesk Architectural Desktop 2007 |Company: Autodesk,Inc. |WEB Address: www.autodesk.com
 90
    32897
280
     0
281
     0
  0
CLASS
  1
AEC_DISP_REP_RAILING_PLAN_50
  2
AecDbDispRepRailingPlan50
  3
AecArchDACHBase50|Product Desc: Autodesk Architectural Desktop 2007 |Company: Autodesk,Inc. |WEB Address: www.autodesk.com
 90
    32897
280
     0
281
     0
  0
CLASS
  1
AEC_DISP_ROPS_RAILING_PLAN_50
  2
AecDbDispPropsRailingPlan50
  3
AecArchDACHBase50|Product Desc: Autodesk Architectural Desktop 2007 |Company: Autodesk,Inc. |WEB Address: www.autodesk.com
 90
    32897
280
     0
281
     0
  0
CLASS
  1
AEC_DISP_REP_STAIR_PLAN_100
  2
AecDbDispRepStairPlan100
  3
AecArchDACHBase50|Product Desc: Autodesk Architectural Desktop 2007 |Company: Autodesk,Inc. |WEB Address: www.autodesk.com
 90
    32897
280
     0
281
     0
  0
CLASS
  1
AEC_DISP_ROPS_STAIR_PLAN_100
  2
AecDbDispPropsStairPlan100
  3
AecArchDACHBase50|Product Desc: Autodesk Architectural Desktop 2007 |Company: Autodesk,Inc. |WEB Address: www.autodesk.com
 90
    32897
280
     0
281
     0
  0
CLASS
  1
AEC_DISP_REP_STAIR_PLAN_50
  2
AecDbDispRepStairPlan50
  3
AecArchDACHBase50|Product Desc: Autodesk Architectural Desktop 2007 |Company: Autodesk,Inc. |WEB Address: www.autodesk.com
 90
    32897
280
     0
281
     0
  0
CLASS
  1
AEC_DISP_ROPS_STAIR_PLAN_50
  2
AecDbDispPropsStairPlan50
  3
AecArchDACHBase50|Product Desc: Autodesk Architectural Desktop 2007 |Company: Autodesk,Inc. |WEB Address: www.autodesk.com
 90
    32897
280
     0
281
     0
  0
CLASS
  1
AEC_DISP_REP_WINDOW_PLAN_100
  2
AecDbDispRepWindowPlan100
  3
AecArchDACHBase50|Product Desc: Autodesk Architectural Desktop 2007 |Company: Autodesk,Inc. |WEB Address: www.autodesk.com
 90
    32897
280
     0
281
     0
  0
CLASS
  1
AEC_DISP_PROPS_WINDOW_PLAN_100
  2
AecDbDispPropsWindowPlan100
  3
AecArchDACHBase50|Product Desc: Autodesk Architectural Desktop 2007 |Company: Autodesk,Inc. |WEB Address: www.autodesk.com
 90
    32897
280
     0
281
     0
  0
CLASS
  1
AEC_DISP_REP_WINDOW_PLAN_50
  2
AecDbDispRepWindowPlan50
  3
AecArchDACHBase50|Product Desc: Autodesk Architectural Desktop 2007 |Company: Autodesk,Inc. |WEB Address: www.autodesk.com
 90
    32897
280
     0
281
     0
  0
CLASS
  1
AEC_DISP_PROPS_WINDOW_PLAN_50
  2
AecDbDispPropsWindowPlan50
  3
AecArchDACHBase50|Product Desc: Autodesk Architectural Desktop 2007 |Company: Autodesk,Inc. |WEB Address: www.autodesk.com
 90
    32897
280
     0
281
     0
  0
CLASS
  1
BINRECORD
  2
AcAecBinRecord
  3
AecBase50|Product Desc: Autodesk Architectural Desktop 2007 |Company: Autodesk,Inc. |WEB Address: www.autodesk.com
 90
    32897
280
     0
281
     0
  0
CLASS
  1
SORTENTSTABLE
  2
AcDbSortentsTable
  3
ObjectDBX Classes
 90
        0
280
     0
281
     0
  0
CLASS
  1
AEC_MASS_ELEM
  2
AecDbMassElem
  3
AecBaseEx50|Product Desc: Autodesk Architectural Desktop 2007 |Company: Autodesk,Inc. |WEB Address: www.autodesk.com
 90
    33661
280
     0
281
     1
  0
CLASS
  1
MATERIAL
  2
AcDbMaterial
  3
ObjectDBX Classes
 90
     1153
280
     0
281
     0
  0
CLASS
  1
AECS_MEMBER
  2
AecsDbMember
  3
AecStructureBase50|Product Desc: Autodesk Architectural Desktop 2007 |Company: Autodesk,Inc. |WEB Address: www.autodesk.com
 90
    33661
280
     0
281
     1
  0
CLASS
  1
AEC_WALL
  2
AecDbWall
  3
AecArchBase50|Product Desc: Autodesk Architectural Desktop 2007 |Company: Autodesk,Inc. |WEB Address: www.autodesk.com
 90
    33661
280
     0
281
     1
  0
CLASS
  1
AEC_DOOR
  2
AecDbDoor
  3
AecArchBase50|Product Desc: Autodesk Architectural Desktop 2007 |Company: Autodesk,Inc. |WEB Address: www.autodesk.com
 90
    33661
280
     0
281
     1
  0
CLASS
  1
AEC_ANCHOR_OPENINGBASE_TO_WALL
  2
AecDbAnchorOpeningBaseToWall
  3
AecArchBase50|Product Desc: Autodesk Architectural Desktop 2007 |Company: Autodesk,Inc. |WEB Address: www.autodesk.com
 90
    32897
280
     0
281
     0
  0
CLASS
  1
AEC_SPACE_BOUNDARY
  2
AecDbSpaceBoundary
  3
AecArchBase50|Product Desc: Autodesk Architectural Desktop 2007 |Company: Autodesk,Inc. |WEB Address: www.autodesk.com
 90
    33661
280
     0
281
     1
  0
CLASS
  1
AEC_SPACE
  2
AecDbSpace
  3
AecArchBase50|Product Desc: Autodesk Architectural Desktop 2007 |Company: Autodesk,Inc. |WEB Address: www.autodesk.com
 90
    33661
280
     0
281
     1
  0
CLASS
  1
AecDbPropertySet
  2
AecDbPropertySet
  3
AecScheduleData50|Product Desc: Autodesk Architectural Desktop 2007 |Company: Autodesk,Inc. |WEB Address: www.autodesk.com
 90
    32897
280
     0
281
     0
  0
CLASS
  1
AEC_MVBLOCK_REF
  2
AecDbMvBlockRef
  3
AecBase50|Product Desc: Autodesk Architectural Desktop 2007 |Company: Autodesk,Inc. |WEB Address: www.autodesk.com
 90
    33661
280
     0
281
     1
  0
CLASS
  1
AEC_ANCHOR_TAG_TO_ENT
  2
AecDbAnchorTagToEnt
  3
AecScheduleData50|Product Desc: Autodesk Architectural Desktop 2007 |Company: Autodesk,Inc. |WEB Address: www.autodesk.com
 90
    32897
280
     0
281
     0
  0
CLASS
  1
AEC_WINDOW
  2
AecDbWindow
  3
AecArchBase50|Product Desc: Autodesk Architectural Desktop 2007 |Company: Autodesk,Inc. |WEB Address: www.autodesk.com
 90
    33661
280
     0
281
     1
  0
CLASS
  1
AEC_OPENING
  2
AecDbOpening
  3
AecArchBase50|Product Desc: Autodesk Architectural Desktop 2007 |Company: Autodesk,Inc. |WEB Address: www.autodesk.com
 90
    33661
280
     0
281
     1
  0
CLASS
  1
AEC_CLASSIFICATION_SYSTEM_DEF
  2
AecDbClassificationSystemDef
  3
AecBase50|Product Desc: Autodesk Architectural Desktop 2007 |Company: Autodesk,Inc. |WEB Address: www.autodesk.com
 90
    32897
280
     0
281
     0
  0
CLASS
  1
AEC_CLASSIFICATION_DEF
  2
AecDbClassificationDef
  3
AecBase50|Product Desc: Autodesk Architectural Desktop 2007 |Company: Autodesk,Inc. |WEB Address: www.autodesk.com
 90
    32897
280
     0
281
     0
  0
CLASS
  1
AEC_CLEANUP_GROUP_DEF
  2
AecDbCleanupGroupDef
  3
AecArchBase50|Product Desc: Autodesk Architectural Desktop 2007 |Company: Autodesk,Inc. |WEB Address: www.autodesk.com
 90
    32897
280
     0
281
     0
  0
CLASS
  1
AEC_DOOR_STYLE
  2
AecDbDoorStyle
  3
AecArchBase50|Product Desc: Autodesk Architectural Desktop 2007 |Company: Autodesk,Inc. |WEB Address: www.autodesk.com
 90
    32897
280
     0
281
     0
  0
CLASS
  1
AEC_STDSIZE_OPENINGS
  2
AecDbStdSizeOpeningList
  3
AecArchBase50|Product Desc: Autodesk Architectural Desktop 2007 |Company: Autodesk,Inc. |WEB Address: www.autodesk.com
 90
    32897
280
     0
281
     0
  0
CLASS
  1
AEC_ENDCAP_STYLE
  2
AecDbEndcapStyle
  3
AecArchBase50|Product Desc: Autodesk Architectural Desktop 2007 |Company: Autodesk,Inc. |WEB Address: www.autodesk.com
 90
    32897
280
     0
281
     0
  0
CLASS
  1
AEC_MASS_ELEM_STYLE
  2
AecDbMassElemStyle
  3
AecBaseEx50|Product Desc: Autodesk Architectural Desktop 2007 |Company: Autodesk,Inc. |WEB Address: www.autodesk.com
 90
    32897
280
     0
281
     0
  0
CLASS
  1
AEC_MATERIAL_DEF
  2
AecDbMaterialDef
  3
AecBase50|Product Desc: Autodesk Architectural Desktop 2007 |Company: Autodesk,Inc. |WEB Address: www.autodesk.com
 90
    32897
280
     0
281
     0
  0
CLASS
  1
AEC_MVBLOCK_DEF
  2
AecDbMvBlockDef
  3
AecBase50|Product Desc: Autodesk Architectural Desktop 2007 |Company: Autodesk,Inc. |WEB Address: www.autodesk.com
 90
    32897
280
     0
281
     0
  0
CLASS
  1
AEC_FRAME_DEF
  2
AecDbOpeningEndcapStyle
  3
AecArchBase50|Product Desc: Autodesk Architectural Desktop 2007 |Company: Autodesk,Inc. |WEB Address: www.autodesk.com
 90
    32897
280
     0
281
     0
  0
CLASS
  1
AEC_PROFILE_DEF
  2
AecDbProfileDef
  3
AecBase50|Product Desc: Autodesk Architectural Desktop 2007 |Company: Autodesk,Inc. |WEB Address: www.autodesk.com
 90
    32897
280
     0
281
     0
  0
CLASS
  1
AEC_SCHEDULE_DATA_FORMAT
  2
AecDbScheduleDataFormat
  3
AecScheduleData50|Product Desc: Autodesk Architectural Desktop 2007 |Company: Autodesk,Inc. |WEB Address: www.autodesk.com
 90
    32897
280
     0
281
     0
  0
CLASS
  1
AEC_PROPERTY_SET_DEF
  2
AecDbPropertySetDef
  3
AecScheduleData50|Product Desc: Autodesk Architectural Desktop 2007 |Company: Autodesk,Inc. |WEB Address: www.autodesk.com
 90
    32897
280
     0
281
     0
  0
CLASS
  1
AEC_SPACE_STYLES
  2
AecDbSpaceStyle
  3
AecArchBase50|Product Desc: Autodesk Architectural Desktop 2007 |Company: Autodesk,Inc. |WEB Address: www.autodesk.com
 90
    32897
280
     0
281
     0
  0
CLASS
  1
AEC_TEXT_NOTE
  2
AecDbTextNote
  3
AecBase50|Product Desc: Autodesk Architectural Desktop 2007 |Company: Autodesk,Inc. |WEB Address: www.autodesk.com
 90
    32897
280
     0
281
     0
  0
CLASS
  1
AECS_MEMBER_STYLE
  2
AecsDbMemberStyle
  3
AecStructureBase50|Product Desc: Autodesk Architectural Desktop 2007 |Company: Autodesk,Inc. |WEB Address: www.autodesk.com
 90
    32897
280
     0
281
     0
  0
CLASS
  1
AEC_VARS_STRUCTUREBASE
  2
AecsDbVarsStructureBase
  3
AecStructureBase50|Product Desc: Autodesk Architectural Desktop 2007 |Company: Autodesk,Inc. |WEB Address: www.autodesk.com
 90
    32897
280
     0
281
     0
  0
CLASS
  1
AEC_WALL_STYLE
  2
AecDbWallStyle
  3
AecArchBase50|Product Desc: Autodesk Architectural Desktop 2007 |Company: Autodesk,Inc. |WEB Address: www.autodesk.com
 90
    32897
280
     0
281
     0
  0
CLASS
  1
AEC_WINDOW_STYLE
  2
AecDbWindowStyle
  3
AecArchBase50|Product Desc: Autodesk Architectural Desktop 2007 |Company: Autodesk,Inc. |WEB Address: www.autodesk.com
 90
    32897
280
     0
281
     0
  0
CLASS
  1
AECS_MEMBER_NODE_SHAPE
  2
AecsDbMemberNodeShape
  3
AecStructureBase50|Product Desc: Autodesk Architectural Desktop 2007 |Company: Autodesk,Inc. |WEB Address: www.autodesk.com
 90
    32897
280
     0
281
     0
  0
CLASS
  1
AEC_SCHEDULE_TABLE
  2
AecDbScheduleTable
  3
AecSchedule50|Product Desc: Autodesk Architectural Desktop 2007 |Company: Autodesk,Inc. |WEB Address: www.autodesk.com
 90
    33661
280
     0
281
     1
  0
CLASS
  1
AEC_SCHEDULE_TABLE_STYLE
  2
AecDbScheduleTableStyle
  3
AecSchedule50|Product Desc: Autodesk Architectural Desktop 2007 |Company: Autodesk,Inc. |WEB Address: www.autodesk.com
 90
    32897
280
     0
281
     0
  0
CLASS
  1
AEC_ANCHOR_MVB_TO_UCS
  2
AecDbAnchorMVBToUCS
  3
AecBase50|Product Desc: Autodesk Architectural Desktop 2007 |Company: Autodesk,Inc. |WEB Address: www.autodesk.com
 90
    32897
280
     0
281
     0
  0
CLASS
  1
IMAGEDEF
  2
AcDbRasterImageDef
  3
ISM
 90
    32768
280
     0
281
     0
  0
CLASS
  1
AEC_ANCHOR_ENT_TO_GRID_ASSEMBLY
  2
AecDbAnchorEntToGridAssembly
  3
AecBase50|Product Desc: Autodesk Architectural Desktop 2007 |Company: Autodesk,Inc. |WEB Address: www.autodesk.com
 90
    32897
280
     0
281
     0
  0
CLASS
  1
AEC_WINDOW_ASSEMBLY
  2
AecDbWindowAssembly
  3
AecArchBase50|Product Desc: Autodesk Architectural Desktop 2007 |Company: Autodesk,Inc. |WEB Address: www.autodesk.com
 90
    33661
280
     0
281
     1
  0
CLASS
  1
AEC_ANCHOR_WINASSEMBLY_TO_WALL
  2
AecDbAnchorWinAssemblyToWall
  3
AecArchBase50|Product Desc: Autodesk Architectural Desktop 2007 |Company: Autodesk,Inc. |WEB Address: www.autodesk.com
 90
    32897
280
     0
281
     0
  0
CLASS
  1
AEC_STAIR
  2
AecDbStair
  3
AecArchBase50|Product Desc: Autodesk Architectural Desktop 2007 |Company: Autodesk,Inc. |WEB Address: www.autodesk.com
 90
    33661
280
     0
281
     1
  0
CLASS
  1
AEC_RAILING
  2
AecDbRailing
  3
AecArchBase50|Product Desc: Autodesk Architectural Desktop 2007 |Company: Autodesk,Inc. |WEB Address: www.autodesk.com
 90
    33661
280
     0
281
     1
  0
CLASS
  1
AEC_ANCHOR_RAILING_TO_STAIR
  2
AecDbAnchorRailingToStair
  3
AecArchBase50|Product Desc: Autodesk Architectural Desktop 2007 |Company: Autodesk,Inc. |WEB Address: www.autodesk.com
 90
    32897
280
     0
281
     0
  0
CLASS
  1
AEC_RAILING_STYLE
  2
AecDbRailingStyle
  3
AecArchBase50|Product Desc: Autodesk Architectural Desktop 2007 |Company: Autodesk,Inc. |WEB Address: www.autodesk.com
 90
    32897
280
     0
281
     0
  0
CLASS
  1
AEC_STAIR_STYLE
  2
AecDbStairStyle
  3
AecArchBase50|Product Desc: Autodesk Architectural Desktop 2007 |Company: Autodesk,Inc. |WEB Address: www.autodesk.com
 90
    32897
280
     0
281
     0
  0
CLASS
  1
AEC_STAIR_WINDER_STYLE
  2
AecDbStairWinderStyle
  3
AecArchBase50|Product Desc: Autodesk Architectural Desktop 2007 |Company: Autodesk,Inc. |WEB Address: www.autodesk.com
 90
    32897
280
     0
281
     0
  0
CLASS
  1
AEC_STAIR_WINDER_TYPE_SINGLE_POINT
  2
AecDbStairWinderTypeSinglePoint
  3
AecArchBase50|Product Desc: Autodesk Architectural Desktop 2007 |Company: Autodesk,Inc. |WEB Address: www.autodesk.com
 90
    32897
280
     0
281
     0
  0
CLASS
  1
AEC_WINDOW_ASSEMBLY_STYLE
  2
AecDbWindowAssemblyStyle
  3
AecArchBase50|Product Desc: Autodesk Architectural Desktop 2007 |Company: Autodesk,Inc. |WEB Address: www.autodesk.com
 90
    32897
280
     0
281
     0
  0
CLASS
  1
AEC_AECDBAREASTYLE
  2
AecDbAreaStyle
  3
AecAreaCalculationBase50|Product Desc: Autodesk Architectural Desktop 2007 |Company: Autodesk,Inc. |WEB Address: www.autodesk.com
 90
    32897
280
     0
281
     0
  0
CLASS
  1
AEC_AECDBAREAPROPOSALNAMES
  2
AecDbAreaProposalNames
  3
AecAreaCalculationBase50|Product Desc: Autodesk Architectural Desktop 2007 |Company: Autodesk,Inc. |WEB Address: www.autodesk.com
 90
    32897
280
     0
281
     0
  0
CLASS
  1
AEC_AREA
  2
AecDbArea
  3
AecAreaCalculationBase50|Product Desc: Autodesk Architectural Desktop 2007 |Company: Autodesk,Inc. |WEB Address: www.autodesk.com
 90
    33661
280
     0
281
     1
  0
CLASS
  1
OBJECT_PTR
  2
CAseDLPNTableRecord
  3
ASE-LPNTableRecord
 90
    32769
280
     1
281
     0
  0
CLASS
  1
TABLESTYLE
  2
AcDbTableStyle
  3
ObjectDBX Classes
 90
     4095
280
     0
281
     0
  0
CLASS
  1
AEC_DISP_REP_DISPLAYTHEME
  2
AecDbDispRepDisplayTheme
  3
AecBase50|Product Desc: Autodesk Architectural Desktop 2007 |Company: Autodesk,Inc. |WEB Address: www.autodesk.com
 90
    32897
280
     0
281
     0
  0
CLASS
  1
AEC_DISP_PROPS_DISPLAYTHEME
  2
AecDbDispPropsDisplayTheme
  3
AecBase50|Product Desc: Autodesk Architectural Desktop 2007 |Company: Autodesk,Inc. |WEB Address: www.autodesk.com
 90
    32897
280
     0
281
     0
  0
CLASS
  1
AEC_DISP_REP_ANCHOR_EXT_TAG_TO_ENT
  2
AecDbDispRepAnchorExtendedTagToEnt
  3
AecScheduleData50|Product Desc: Autodesk Architectural Desktop 2007 |Company: Autodesk,Inc. |WEB Address: www.autodesk.com
 90
    32897
280
     0
281
     0
  0
CLASS
  1
VISUALSTYLE
  2
AcDbVisualStyle
  3
ObjectDBX Classes
 90
     4095
280
     0
281
     0
  0
CLASS
  1
AEC_AECDBDISPREPZONE100
  2
AecDbDispRepZonePlan100
  3
AecArchDACHBase50|Product Desc: Autodesk Architectural Desktop 2007 |Company: Autodesk,Inc. |WEB Address: www.autodesk.com
 90
    32897
280
     0
281
     0
  0
CLASS
  1
AEC_DISP_PROPS_ZONE
  2
AecDbDispPropsZone
  3
AecArchBase50|Product Desc: Autodesk Architectural Desktop 2007 |Company: Autodesk,Inc. |WEB Address: www.autodesk.com
 90
    32897
280
     0
281
     0
  0
CLASS
  1
AEC_AECDBDISPREPZONE50
  2
AecDbDispRepZonePlan50
  3
AecArchDACHBase50|Product Desc: Autodesk Architectural Desktop 2007 |Company: Autodesk,Inc. |WEB Address: www.autodesk.com
 90
    32897
280
     0
281
     0
  0
CLASS
  1
AEC_DISP_REP_SPACE_DECOMPOSED
  2
AecDbDispRepSpaceDecomposed
  3
AecArchBase50|Product Desc: Autodesk Architectural Desktop 2007 |Company: Autodesk,Inc. |WEB Address: www.autodesk.com
 90
    32897
280
     0
281
     0
  0
CLASS
  1
AEC_DISP_PROPS_SPACE_DECOMPOSED
  2
AecDbDispPropsSpaceDecomposed
  3
AecArchBase50|Product Desc: Autodesk Architectural Desktop 2007 |Company: Autodesk,Inc. |WEB Address: www.autodesk.com
 90
    32897
280
     0
281
     0
  0
CLASS
  1
AEC_DISP_REP_ZONE
  2
AecDbDispRepZone
  3
AecArchBase50|Product Desc: Autodesk Architectural Desktop 2007 |Company: Autodesk,Inc. |WEB Address: www.autodesk.com
 90
    32897
280
     0
281
     0
  0
CLASS
  1
AEC_LIST_DEF
  2
AecDbListDefinition
  3
AecBase50|Product Desc: Autodesk Architectural Desktop 2007 |Company: Autodesk,Inc. |WEB Address: www.autodesk.com
 90
    32897
280
     0
281
     0
  0
CLASS
  1
EXACXREFPANELOBJECT
  2
ExAcXREFPanelObject
  3
EXAC_ESW
 90
    33793
280
     1
281
     0
  0
CLASS
  1
NPOCOLLECTION
  2
AcDbImpNonPersistentObjectsCollection
  3
ObjectDBX Classes
 90
    33921
280
     0
281
     0
  0
CLASS
  1
ACAD_EVALUATION_GRAPH
  2
AcDbEvalGraph
  3
ObjectDBX Classes
 90
    33921
280
     0
281
     0
  0
CLASS
  1
BLOCKLINEARPARAMETER
  2
AcDbBlockLinearParameter
  3
ObjectDBX Classes
 90
    33921
280
     0
281
     0
  0
CLASS
  1
BLOCKLINEARGRIP
  2
AcDbBlockLinearGrip
  3
ObjectDBX Classes
 90
    33921
280
     0
281
     0
  0
CLASS
  1
BLOCKGRIPLOCATIONCOMPONENT
  2
AcDbBlockGripExpr
  3
ObjectDBX Classes
 90
    33921
280
     0
281
     0
  0
CLASS
  1
BLOCKSTRETCHACTION
  2
AcDbBlockStretchAction
  3
ObjectDBX Classes
 90
    33921
280
     0
281
     0
  0
CLASS
  1
BLOCKFLIPPARAMETER
  2
AcDbBlockFlipParameter
  3
ObjectDBX Classes
 90
    33921
280
     0
281
     0
  0
CLASS
  1
BLOCKFLIPGRIP
  2
AcDbBlockFlipGrip
  3
ObjectDBX Classes
 90
    33921
280
     0
281
     0
  0
CLASS
  1
BLOCKFLIPACTION
  2
AcDbBlockFlipAction
  3
ObjectDBX Classes
 90
    33921
280
     0
281
     0
  0
CLASS
  1
ACDB_DYNAMICBLOCKPURGEPREVENTER_VERSION
  2
AcDbDynamicBlockPurgePreventer
  3
ObjectDBX Classes
 90
    33921
280
     0
281
     0
  0
CLASS
  1
ACDB_BLOCKREPRESENTATION_DATA
  2
AcDbBlockRepresentationData
  3
ObjectDBX Classes
 90
    33921
280
     0
281
     0
  0
CLASS
  1
AEC_SLAB
  2
AecDbSlab
  3
AecArchBase50|Product Desc: Autodesk Architectural Desktop 2007 |Company: Autodesk,Inc. |WEB Address: www.autodesk.com
 90
    33661
280
     0
281
     1
  0
CLASS
  1
AEC_LIST_DEF
  2
AecDbListItem
  3
AecBase50|Product Desc: Autodesk Architectural Desktop 2007 |Company: Autodesk,Inc. |WEB Address: www.autodesk.com
 90
    32897
280
     0
281
     0
  0
CLASS
  1
AEC_ROOFSLAB_STYLE
  2
AecDbRoofSlabStyle
  3
AecArchBase50|Product Desc: Autodesk Architectural Desktop 2007 |Company: Autodesk,Inc. |WEB Address: www.autodesk.com
 90
    32897
280
     0
281
     0
  0
CLASS
  1
AEC_ROOFSLABEDGE_STYLE
  2
AecDbRoofSlabEdgeStyle
  3
AecArchBase50|Product Desc: Autodesk Architectural Desktop 2007 |Company: Autodesk,Inc. |WEB Address: www.autodesk.com
 90
    32897
280
     0
281
     0
  0
CLASS
  1
AEC_SLAB_STYLE
  2
AecDbSlabStyle
  3
AecArchBase50|Product Desc: Autodesk Architectural Desktop 2007 |Company: Autodesk,Inc. |WEB Address: www.autodesk.com
 90
    32897
280
     0
281
     0
  0
CLASS
  1
AEC_SLABEDGE_STYLE
  2
AecDbSlabEdgeStyle
  3
AecArchBase50|Product Desc: Autodesk Architectural Desktop 2007 |Company: Autodesk,Inc. |WEB Address: www.autodesk.com
 90
    32897
280
     0
281
     0
  0
CLASS
  1
EXACTERMXREFMAP
  2
ExAcTermXrefMap
  3
EXAC_SERVICE
 90
    33793
280
     1
281
     0
  0
CLASS
  1
AEC_AECDBZONESTYLE
  2
AecDbZoneStyle
  3
AecArchBase50|Product Desc: Autodesk Architectural Desktop 2007 |Company: Autodesk,Inc. |WEB Address: www.autodesk.com
 90
    32897
280
     0
281
     0
  0
CLASS
  1
AEC_ZONE
  2
AecDbZone
  3
AecArchBase50|Product Desc: Autodesk Architectural Desktop 2007 |Company: Autodesk,Inc. |WEB Address: www.autodesk.com
 90
    33661
280
     0
281
     1
  0
CLASS
  1
ACAD_TABLE
  2
AcDbTable
  3
ObjectDBX Classes
 90
    33793
280
     0
281
     1
  0
CLASS
  1
AEC_DISPLAYTHEME_STYLE
  2
AecDbDisplayThemeStyle
  3
AecBase50|Product Desc: Autodesk Architectural Desktop 2007 |Company: Autodesk,Inc. |WEB Address: www.autodesk.com
 90
    32897
280
     0
281
     0
  0
CLASS
  1
DIMASSOC
  2
AcDbDimAssoc
  3
"AcDbDimAssoc|Product Desc:     AcDim ARX App For Dimension|Company:          Autodesk, Inc.|WEB Address:      www.autodesk.com"
 90
    32768
280
     0
281
     0
  0
CLASS
  1
AEC_MASS_GROUP
  2
AecDbMassGroup
  3
AecBaseEx50|Product Desc: Autodesk Architectural Desktop 2007 |Company: Autodesk,Inc. |WEB Address: www.autodesk.com
 90
    33661
280
     0
281
     1
  0
CLASS
  1
AEC_ANCHOR_ENT_TO_ENT
  2
AecDbAnchorEntToEnt
  3
AecBase50|Product Desc: Autodesk Architectural Desktop 2007 |Company: Autodesk,Inc. |WEB Address: www.autodesk.com
 90
    32897
280
     0
281
     0
  0
CLASS
  1
AEC_2D_SECTION
  2
AecDb2dSection
  3
AecBase50|Product Desc: Autodesk Architectural Desktop 2007 |Company: Autodesk,Inc. |WEB Address: www.autodesk.com
 90
    33661
280
     0
281
     1
  0
CLASS
  1
AEC_2DSECTION_STYLE
  2
AecDb2dSectionStyle
  3
AecBase50|Product Desc: Autodesk Architectural Desktop 2007 |Company: Autodesk,Inc. |WEB Address: www.autodesk.com
 90
    32897
280
     0
281
     0
  0
CLASS
  1
SCALE
  2
AcDbScale
  3
ObjectDBX Classes
 90
     1153
280
     0
281
     0
  0
CLASS
  1
MLEADERSTYLE
  2
AcDbMLeaderStyle
  3
ACDB_MLEADERSTYLE_CLASS
 90
     4095
280
     0
281
     0
  0
CLASS
  1
AEC_REFEDIT_STATUS_TRACKER
  2
AecDbRefEditStatusTracker
  3
AecArchBase50|Product Desc: Autodesk Architectural Desktop 2007 |Company: Autodesk,Inc. |WEB Address: www.autodesk.com
 90
    32897
280
     0
281
     0
  0
CLASS
  1
CELLSTYLEMAP
  2
AcDbCellStyleMap
  3
ObjectDBX Classes
 90
     1152
280
     0
281
     0
  0
CLASS
  1
BLOCKARRAYACTION
  2
AcDbBlockArrayAction
  3
ObjectDBX Classes
 90
    33921
280
     0
281
     0
  0
CLASS
  1
BLOCKBASEPOINTPARAMETER
  2
AcDbBlockBasepointParameter
  3
ObjectDBX Classes
 90
    33921
280
     0
281
     0
  0
CLASS
  1
SOLID_BACKGROUND
  2
AcDbSolidBackground
  3
SCENEOE
 90
    36863
280
     0
281
     0
  0
ENDSEC
  0
SECTION
  2
TABLES
  0
TABLE
  2
VPORT
  5
28
330
0
100
AcDbSymbolTable
 70
     1
  0
VPORT
  5
29
330
28
100
AcDbSymbolTableRecord
100
AcDbViewportTableRecord
  2
*Active
 70
     0
 10
0.0
 20
0.0
 11
1.0
 21
1.0
 12
51954.06089493813
 22
-10785.08776138436
 13
-3534.953416816247
 23
4038.000000000049
 14
1.0
 24
1.0
 15
1.0
 25
1.0
 16
0.0
 26
0.0
 36
1.0
 17
0.0
 27
0.0
 37
0.0
 40
28321.14634896463
 41
1.561333333333333
 42
50.0
 43
0.0
 44
0.0
 50
0.0
 51
0.0
 71
     0
 72
  2000
 73
     1
 74
     1
 75
     0
 76
     0
 77
     0
 78
     0
281
     0
 65
     1
110
0.0
120
0.0
130
0.0
111
1.0
121
0.0
131
0.0
112
0.0
122
1.0
132
0.0
 79
     0
146
0.0
  0
ENDTAB
  0
TABLE
  2
LTYPE
  5
23
330
0
100
AcDbSymbolTable
 70
     3
  0
LTYPE
  5
24
330
23
100
AcDbSymbolTableRecord
100
AcDbLinetypeTableRecord
  2
BYBLOCK
 70
     0
  3

 72
    65
 73
     0
 40
0.0
  0
LTYPE
  5
25
330
23
100
AcDbSymbolTableRecord
100
AcDbLinetypeTableRecord
  2
BYLAYER
 70
     0
  3

 72
    65
 73
     0
 40
0.0
  0
LTYPE
  5
E
330
23
100
AcDbSymbolTableRecord
100
AcDbLinetypeTableRecord
  2
CONTINUOUS
 70
     0
  3
Solid line
 72
    65
 73
     0
 40
0.0
  0
LTYPE
  5
77
330
23
100
AcDbSymbolTableRecord
100
AcDbLinetypeTableRecord
  2
DASHED
 70
     0
  3
Dashed __ __ __ __ __ __ __ __ __ __ __ __ __ _
 72
    65
 73
     2
 40
0.75
 49
0.5
 74
     0
 49
-0.25
 74
     0
  0
ENDTAB
  0
TABLE
  2
LAYER
  5
1D
102
{ACAD_XDICTIONARY
360
1E
102
}
330
0
100
AcDbSymbolTable
 70
    10
  0
LAYER
  5
6
102
{ACAD_XDICTIONARY
360
7
102
}
330
1D
100
AcDbSymbolTableRecord
100
AcDbLayerTableRecord
  2
0
 70
     0
 62
     7
  6
CONTINUOUS
370
    -3
390
9
1001
RAK
1000
{ACET-LAYISO
1070
     0
1070
     7
1000
CONTINUOUS
1070
     1
1071
       -3
1071
        1
1005
9
1000
ACET-LAYISO}
  0
LAYER
  5
74
102
{ACAD_XDICTIONARY
360
75
102
}
330
1D
100
AcDbSymbolTableRecord
100
AcDbLayerTableRecord
  2
NAPISY
 70
     0
 62
   140
  6
CONTINUOUS
370
    -3
390
9
1001
RAK
1000
{ACET-LAYISO
1070
     0
1070
   140
1000
CONTINUOUS
1071
       -3
1071
        1
1005
9
1000
ACET-LAYISO}
  0
LAYER
  5
3B5
330
1D
100
AcDbSymbolTableRecord
100
AcDbLayerTableRecord
  2
Defpoints
 70
     0
 62
     7
  6
CONTINUOUS
290
     0
370
    -3
390
9
1001
RAK
1000
{ACET-LAYISO
1070
     0
1070
     7
1000
CONTINUOUS
1071
       -3
1071
        0
1005
9
1000
ACET-LAYISO}
  0
LAYER
  5
56
102
{ACAD_XDICTIONARY
360
57
102
}
330
1D
100
AcDbSymbolTableRecord
100
AcDbLayerTableRecord
  2
0Wymiary-PL
 70
     0
 62
     1
  6
CONTINUOUS
370
     5
390
9
  0
LAYER
  5
3A3
102
{ACAD_XDICTIONARY
360
3A4
102
}
330
1D
100
AcDbSymbolTableRecord
100
AcDbLayerTableRecord
  2
0Hatch
 70
     0
 62
   122
  6
CONTINUOUS
370
     5
390
9
  0
LAYER
  5
7E
102
{ACAD_XDICTIONARY
360
7F
102
}
330
1D
100
AcDbSymbolTableRecord
100
AcDbLayerTableRecord
  2
RAMKI-A4
 70
     0
 62
     2
  6
CONTINUOUS
290
     0
370
    -3
390
9
1001
RAK
1000
{ACET-LAYISO
1070
     0
1070
     2
1000
Continuous
1071
       -3
1071
        0
1005
9
1000
ACET-LAYISO}
  0
ENDTAB
  0
TABLE
  2
STYLE
  5
20
330
0
100
AcDbSymbolTable
 70
     4
  0
STYLE
  5
21
330
20
100
AcDbSymbolTableRecord
100
AcDbTextStyleTableRecord
  2
STANDARD
 70
     0
 40
0.0
 41
1.0
 50
0.0
 71
     0
 42
0.2
  3
txt
  4

  0
STYLE
  5
2E
330
20
100
AcDbSymbolTableRecord
100
AcDbTextStyleTableRecord
  2
ROMANS
 70
     0
 40
0.0
 41
0.9
 50
0.0
 71
     0
 42
5.0
  3
romans.shx
  4

  0
STYLE
  5
79
330
20
100
AcDbSymbolTableRecord
100
AcDbTextStyleTableRecord
  2
AVA
 70
     0
 40
0.0
 41
1.0
 50
0.0
 71
     0
 42
20.0
  3
ARIAL.TTF
  4

1001
ACAD
1000
Arial CE
1071
    60962
  0
ENDTAB
  0
TABLE
  2
VIEW
  5
26
330
0
100
AcDbSymbolTable
 70
     5
  0
VIEW
  5
13
330
26
100
AcDbSymbolTableRecord
100
AcDbViewTableRecord
  2
10-ele
 70
     0
 40
2040.000000000001
 10
597.6361962217097
 20
4133.999999999996
 41
2803.999999999998
 11
0.0
 21
0.0
 31
1.0
 12
0.0
 22
0.0
 32
0.0
 42
50.0
 43
0.0
 44
0.0
 50
0.0
 71
     0
281
     0
 72
     1
110
0.0
120
0.0
130
0.0
111
1.0
121
0.0
131
0.0
112
0.0
122
1.0
132
0.0
 79
     0
146
0.0
  0
ENDTAB
  0
TABLE
  2
UCS
  5
27
330
0
100
AcDbSymbolTable
 70
     0
  0
ENDTAB
  0
TABLE
  2
APPID
  5
2A
330
0
100
AcDbSymbolTable
 70
     5
  0
APPID
  5
2B
330
2A
100
AcDbSymbolTableRecord
100
AcDbRegAppTableRecord
  2
ACAD
 70
     0
  0
APPID
  5
F
330
2A
100
AcDbSymbolTableRecord
100
AcDbRegAppTableRecord
  2
RAK
 70
     0
  0
APPID
  5
16
330
2A
100
AcDbSymbolTableRecord
100
AcDbRegAppTableRecord
  2
ACAD_PSEXT
 70
     0
  0
APPID
  5
7AA
330
2A
100
AcDbSymbolTableRecord
100
AcDbRegAppTableRecord
  2
ACAD_MLEADERVER
 70
     0
  0
APPID
  5
B8E
330
2A
100
AcDbSymbolTableRecord
100
AcDbRegAppTableRecord
  2
ACAD_EXEMPT_FROM_CAD_STANDARDS
 70
     0
  0
ENDTAB
  0
TABLE
  2
DIMSTYLE
  5
2C
330
0
100
AcDbSymbolTable
 70
     4
100
AcDbDimStyleTable
 71
     2
340
2D
340
4C
  0
DIMSTYLE
105
4C
330
2C
100
AcDbSymbolTableRecord
100
AcDbDimStyleTableRecord
  2
Standard
 70
     0
340
21
  0
DIMSTYLE
105
2D
102
{ACAD_REACTORS
330
152C
330
152D
330
152E
330
152F
330
1530
330
1531
330
1532
330
1533
330
1534
330
1535
330
1536
330
1537
330
1538
330
195C
330
195D
330
195E
330
195F
330
1960
330
1961
330
1962
330
1963
330
1964
330
1965
330
1966
330
1967
330
1968
102
}
330
2C
100
AcDbSymbolTableRecord
100
AcDbDimStyleTableRecord
  2
500
 70
     0
 41
30.0
 42
43.0
 43
0.0
 44
13.0
 45
0.5
 46
12.0
 73
     0
 74
     0
 75
     1
 76
     1
 78
    12
140
80.0
141
0.0
145
1.0
147
0.0
172
     1
174
     1
176
     1
177
     1
178
   140
271
     1
272
     1
279
     2
340
2E
341
2F
342
2F
  0
ENDTAB
  0
TABLE
  2
BLOCK_RECORD
  5
1
330
0
100
AcDbSymbolTable
 70
   100
  0
BLOCK_RECORD
  5
2
102
{ACAD_XDICTIONARY
360
3
102
}
330
1
100
AcDbSymbolTableRecord
100
AcDbBlockTableRecord
  2
*MODEL_SPACE
340
11
  0
BLOCK_RECORD
  5
1A68
330
1
100
AcDbSymbolTableRecord
100
AcDbBlockTableRecord
  2
*Paper_Space
340
1A69
  0
BLOCK_RECORD
  5
2F
102
{ACAD_XDICTIONARY
360
30
102
}
330
1
100
AcDbSymbolTableRecord
100
AcDbBlockTableRecord
  2
B-DIM
340
0
102
{BLKREFS
331
E53
331
E54
331
E5A
331
E5B
331
E6F
331
E70
331
E7F
331
E80
331
E91
331
E92
331
E98
331
E99
331
E9F
331
EA0
331
EA6
331
EA7
331
F9F
331
FA0
331
FA6
331
FA7
331
FAD
331
FAE
331
FB4
331
FB5
331
FBB
331
FBC
331
FC2
331
FC3
331
FCB
331
FCC
331
FD2
331
FD3
331
1165
331
1166
331
116E
331
116F
331
1175
331
1176
331
117C
331
117D
331
1211
331
1212
331
1218
331
1219
331
1221
331
1222
331
1228
331
1229
331
1252
331
1253
331
1259
331
125A
331
1260
331
1261
331
1267
331
1268
331
1290
331
1291
331
129A
331
129B
331
12A4
331
12A5
331
12AF
331
12B0
331
12B8
331
12B9
331
12C2
331
12C3
331
12CC
331
12CD
331
12D8
331
12D9
331
12E3
331
12E4
331
12EE
331
12EF
331
12F8
331
12F9
331
1302
331
1303
331
130C
331
130D
331
1392
331
1393
331
1388
331
1389
331
137E
331
137F
331
1374
331
1375
331
1369
331
136A
331
135E
331
135F
331
1352
331
1353
331
1348
331
1349
331
133E
331
133F
331
1335
331
1336
331
132A
331
132B
331
1320
331
1321
331
1316
331
1317
331
1726
331
1727
331
172D
331
172E
331
1734
331
1735
331
173D
331
173E
331
1745
331
1746
331
174D
331
174E
331
1754
331
1755
331
175B
331
175C
331
1762
331
1763
331
176A
331
176B
331
1770
331
1771
331
1777
331
1778
331
177E
331
177F
331
1887
331
1888
331
188E
331
188F
331
1895
331
1896
331
189E
331
189F
331
18A6
331
18A7
331
18AE
331
18AF
331
18B5
331
18B6
331
18BC
331
18BD
331
18C3
331
18C4
331
18CB
331
18CC
331
18D1
331
18D2
331
18D8
331
18D9
331
18DF
331
18E0
331
19F3
331
19F4
331
19FA
331
19FB
331
1A01
331
1A02
331
1A09
331
1A0A
331
1A0F
331
1A10
331
1A16
331
1A17
331
1A1D
331
1A1E
331
1A26
331
1A27
331
1A36
331
1A37
331
1A3D
331
1A3E
331
1A44
331
1A45
331
1A4B
331
1A4C
331
1A53
331
1A54
102
}
  0
BLOCK_RECORD
  5
15BA
330
1
100
AcDbSymbolTableRecord
100
AcDbBlockTableRecord
  2
*D59
340
0
  0
BLOCK_RECORD
  5
15C4
330
1
100
AcDbSymbolTableRecord
100
AcDbBlockTableRecord
  2
*D60
340
0
  0
BLOCK_RECORD
  5
15CE
330
1
100
AcDbSymbolTableRecord
100
AcDbBlockTableRecord
  2
*D61
340
0
  0
BLOCK_RECORD
  5
15D8
330
1
100
AcDbSymbolTableRecord
100
AcDbBlockTableRecord
  2
*D62
340
0
  0
BLOCK_RECORD
  5
15E2
330
1
100
AcDbSymbolTableRecord
100
AcDbBlockTableRecord
  2
*D63
340
0
  0
BLOCK_RECORD
  5
15EC
330
1
100
AcDbSymbolTableRecord
100
AcDbBlockTableRecord
  2
*D64
340
0
  0
BLOCK_RECORD
  5
15F6
330
1
100
AcDbSymbolTableRecord
100
AcDbBlockTableRecord
  2
*D65
340
0
  0
BLOCK_RECORD
  5
1600
330
1
100
AcDbSymbolTableRecord
100
AcDbBlockTableRecord
  2
*D66
340
0
  0
BLOCK_RECORD
  5
160C
330
1
100
AcDbSymbolTableRecord
100
AcDbBlockTableRecord
  2
*D67
340
0
  0
BLOCK_RECORD
  5
1616
330
1
100
AcDbSymbolTableRecord
100
AcDbBlockTableRecord
  2
*D68
340
0
  0
BLOCK_RECORD
  5
1622
330
1
100
AcDbSymbolTableRecord
100
AcDbBlockTableRecord
  2
*D69
340
0
  0
BLOCK_RECORD
  5
162C
330
1
100
AcDbSymbolTableRecord
100
AcDbBlockTableRecord
  2
*D70
340
0
  0
BLOCK_RECORD
  5
1636
330
1
100
AcDbSymbolTableRecord
100
AcDbBlockTableRecord
  2
*D71
340
0
  0
BLOCK_RECORD
  5
196C
330
1
100
AcDbSymbolTableRecord
100
AcDbBlockTableRecord
  2
*D85
340
0
  0
BLOCK_RECORD
  5
1976
330
1
100
AcDbSymbolTableRecord
100
AcDbBlockTableRecord
  2
*D86
340
0
  0
BLOCK_RECORD
  5
1980
330
1
100
AcDbSymbolTableRecord
100
AcDbBlockTableRecord
  2
*D87
340
0
  0
BLOCK_RECORD
  5
198A
330
1
100
AcDbSymbolTableRecord
100
AcDbBlockTableRecord
  2
*D88
340
0
  0
BLOCK_RECORD
  5
1994
330
1
100
AcDbSymbolTableRecord
100
AcDbBlockTableRecord
  2
*D89
340
0
  0
BLOCK_RECORD
  5
199E
330
1
100
AcDbSymbolTableRecord
100
AcDbBlockTableRecord
  2
*D90
340
0
  0
BLOCK_RECORD
  5
19A8
330
1
100
AcDbSymbolTableRecord
100
AcDbBlockTableRecord
  2
*D91
340
0
  0
BLOCK_RECORD
  5
19B2
330
1
100
AcDbSymbolTableRecord
100
AcDbBlockTableRecord
  2
*D92
340
0
  0
BLOCK_RECORD
  5
19BE
330
1
100
AcDbSymbolTableRecord
100
AcDbBlockTableRecord
  2
*D93
340
0
  0
BLOCK_RECORD
  5
19C8
330
1
100
AcDbSymbolTableRecord
100
AcDbBlockTableRecord
  2
*D94
340
0
  0
BLOCK_RECORD
  5
19D4
330
1
100
AcDbSymbolTableRecord
100
AcDbBlockTableRecord
  2
*D95
340
0
  0
BLOCK_RECORD
  5
19DE
330
1
100
AcDbSymbolTableRecord
100
AcDbBlockTableRecord
  2
*D96
340
0
  0
BLOCK_RECORD
  5
19E8
330
1
100
AcDbSymbolTableRecord
100
AcDbBlockTableRecord
  2
*D97
340
0
  0
ENDTAB
  0
ENDSEC
  0
SECTION
  2
BLOCKS
  0
BLOCK
  5
5
330
2
100
AcDbEntity
  8
0
100
AcDbBlockBegin
  2
*MODEL_SPACE
 70
     0
 10
0.0
 20
0.0
 30
0.0
  3
*MODEL_SPACE
  1

  0
ENDBLK
  5
10
330
2
100
AcDbEntity
  8
0
100
AcDbBlockEnd
  0
BLOCK
  5
1A6A
330
1A68
100
AcDbEntity
 67
     1
  8
0
 48
4.0
100
AcDbBlockBegin
  2
*Paper_Space
 70
     0
 10
0.0
 20
0.0
 30
0.0
  3
*Paper_Space
  1

  0
ENDBLK
  5
1A6B
330
1A68
100
AcDbEntity
 67
     1
  8
0
 48
4.0
100
AcDbBlockEnd
  0
BLOCK
  5
32
330
2F
100
AcDbEntity
  8
0
100
AcDbBlockBegin
  2
B-DIM
 70
     0
 10
0.0
 20
0.0
 30
0.0
  3
B-DIM
  1

  0
LINE
  5
33
330
2F
100
AcDbEntity
  8
0
 62
     1
100
AcDbLine
 10
0.000000000000091
 20
-1.1
 30
0.0
 11
0.000000000000091
 21
1.1
 31
0.0
  0
LWPOLYLINE
  5
34
330
2F
100
AcDbEntity
  8
0
 62
     1
100
AcDbPolyline
 90
        2
 70
     0
 43
0.3
 10
-0.7071067811864851
 20
-0.7071067811864851
 10
0.707106781186576
 20
0.707106781186576
  0
LINE
  5
35
330
2F
100
AcDbEntity
  8
0
 62
     1
100
AcDbLine
 10
1.20000000000009
 20
0.0
 30
0.0
 11
-1.199999999999909
 21
0.0
 31
0.0
  0
ENDBLK
  5
36
330
2F
100
AcDbEntity
  8
0
100
AcDbBlockEnd
  0
BLOCK
  5
15BB
330
15BA
100
AcDbEntity
  8
0
 48
4.0
100
AcDbBlockBegin
  2
*D59
 70
     1
 10
0.0
 20
0.0
 30
0.0
  3
*D59
  1

  0
LINE
  5
18DE
330
15BA
100
AcDbEntity
  8
0Hatch
 62
     1
370
    -2
100
AcDbLine
 10
46236.64522230386
 20
-2533.010229135922
 30
0.0
 11
46556.64522230386
 21
-2533.010229135922
 31
0.0
  0
INSERT
  5
18DF
330
15BA
100
AcDbEntity
  8
0Hatch
 62
     1
370
    -2
100
AcDbBlockReference
  2
B-DIM
 10
46206.64522230386
 20
-2533.010229135922
 30
0.0
 41
30.0
 42
30.0
 43
30.0
 50
180.0
  0
INSERT
  5
18E0
330
15BA
100
AcDbEntity
  8
0Hatch
 62
     1
370
    -2
100
AcDbBlockReference
  2
B-DIM
 10
46586.64522230386
 20
-2533.010229135922
 30
0.0
 41
30.0
 42
30.0
 43
30.0
  0
MTEXT
  5
18E1
330
15BA
100
AcDbEntity
  8
0Hatch
 62
   140
100
AcDbMText
 10
46396.64522230386
 20
-2453.010229135922
 30
0.0
 40
80.0
 41
0.0
 71
     5
 72
     1
  1
\A1;380
  7
ROMANS
 73
     1
 44
1.0
1001
ACAD
1000
MTEXTBEGIN
1070
    73
1070
     1
1070
    44
1040
1.0
1070
    74
1070
     0
1000
MTEXTEND
  0
POINT
  5
18E2
330
15BA
100
AcDbEntity
  8
Defpoints
 62
     0
100
AcDbPoint
 10
46206.64522230386
 20
-3279.896249330952
 30
0.0
  0
POINT
  5
18E3
330
15BA
100
AcDbEntity
  8
Defpoints
 62
     0
100
AcDbPoint
 10
46586.64522230386
 20
-3279.896249330952
 30
0.0
  0
POINT
  5
18E4
330
15BA
100
AcDbEntity
  8
Defpoints
 62
     0
100
AcDbPoint
 10
46586.64522230386
 20
-2533.010229135922
 30
0.0
  0
ENDBLK
  5
15BC
330
15BA
100
AcDbEntity
  8
0
 48
4.0
100
AcDbBlockEnd
  0
BLOCK
  5
15C5
330
15C4
100
AcDbEntity
  8
0
 48
4.0
100
AcDbBlockBegin
  2
*D60
 70
     1
 10
0.0
 20
0.0
 30
0.0
  3
*D60
  1

  0
LINE
  5
18D7
330
15C4
100
AcDbEntity
  8
0Hatch
 62
     1
370
    -2
100
AcDbLine
 10
46616.64522230386
 20
-2533.010229135922
 30
0.0
 11
46766.64522230389
 21
-2533.010229135922
 31
0.0
  0
INSERT
  5
18D8
330
15C4
100
AcDbEntity
  8
0Hatch
 62
     1
370
    -2
100
AcDbBlockReference
  2
B-DIM
 10
46586.64522230386
 20
-2533.010229135922
 30
0.0
 41
30.0
 42
30.0
 43
30.0
 50
180.0
  0
INSERT
  5
18D9
330
15C4
100
AcDbEntity
  8
0Hatch
 62
     1
370
    -2
100
AcDbBlockReference
  2
B-DIM
 10
46796.64522230389
 20
-2533.010229135922
 30
0.0
 41
30.0
 42
30.0
 43
30.0
  0
MTEXT
  5
18DA
330
15C4
100
AcDbEntity
  8
0Hatch
 62
   140
100
AcDbMText
 10
46691.64522230388
 20
-2453.010229135922
 30
0.0
 40
80.0
 41
0.0
 71
     5
 72
     1
  1
\A1;210
  7
ROMANS
 73
     1
 44
1.0
1001
ACAD
1000
MTEXTBEGIN
1070
    73
1070
     1
1070
    44
1040
1.0
1070
    74
1070
     0
1000
MTEXTEND
  0
POINT
  5
18DB
330
15C4
100
AcDbEntity
  8
Defpoints
 62
     0
100
AcDbPoint
 10
46586.64522230386
 20
-3279.896249330952
 30
0.0
  0
POINT
  5
18DC
330
15C4
100
AcDbEntity
  8
Defpoints
 62
     0
100
AcDbPoint
 10
46796.64522230389
 20
-3279.896249330952
 30
0.0
  0
POINT
  5
18DD
330
15C4
100
AcDbEntity
  8
Defpoints
 62
     0
100
AcDbPoint
 10
46796.64522230389
 20
-2533.010229135922
 30
0.0
  0
ENDBLK
  5
15C6
330
15C4
100
AcDbEntity
  8
0
 48
4.0
100
AcDbBlockEnd
  0
BLOCK
  5
15CF
330
15CE
100
AcDbEntity
  8
0
 48
4.0
100
AcDbBlockBegin
  2
*D61
 70
     1
 10
0.0
 20
0.0
 30
0.0
  3
*D61
  1

  0
LINE
  5
18D0
330
15CE
100
AcDbEntity
  8
0Hatch
 62
     1
370
    -2
100
AcDbLine
 10
46826.64522230386
 20
-2533.010229135922
 30
0.0
 11
47426.64522230372
 21
-2533.010229135922
 31
0.0
  0
INSERT
  5
18D1
330
15CE
100
AcDbEntity
  8
0Hatch
 62
     1
370
    -2
100
AcDbBlockReference
  2
B-DIM
 10
46796.64522230386
 20
-2533.010229135922
 30
0.0
 41
30.0
 42
30.0
 43
30.0
 50
180.0
  0
INSERT
  5
18D2
330
15CE
100
AcDbEntity
  8
0Hatch
 62
     1
370
    -2
100
AcDbBlockReference
  2
B-DIM
 10
47456.64522230372
 20
-2533.010229135922
 30
0.0
 41
30.0
 42
30.0
 43
30.0
  0
MTEXT
  5
18D3
330
15CE
100
AcDbEntity
  8
0Hatch
 62
   140
100
AcDbMText
 10
47126.64522230379
 20
-2453.010229135922
 30
0.0
 40
80.0
 41
0.0
 71
     5
 72
     1
  1
\A1;660
  7
ROMANS
 73
     1
 44
1.0
1001
ACAD
1000
MTEXTBEGIN
1070
    73
1070
     1
1070
    44
1040
1.0
1070
    74
1070
     0
1000
MTEXTEND
  0
POINT
  5
18D4
330
15CE
100
AcDbEntity
  8
Defpoints
 62
     0
100
AcDbPoint
 10
46796.64522230386
 20
-2969.896249330835
 30
0.0
  0
POINT
  5
18D5
330
15CE
100
AcDbEntity
  8
Defpoints
 62
     0
100
AcDbPoint
 10
47456.64522230372
 20
-2969.896249330981
 30
0.0
  0
POINT
  5
18D6
330
15CE
100
AcDbEntity
  8
Defpoints
 62
     0
100
AcDbPoint
 10
47456.64522230372
 20
-2533.010229135922
 30
0.0
  0
ENDBLK
  5
15D0
330
15CE
100
AcDbEntity
  8
0
 48
4.0
100
AcDbBlockEnd
  0
BLOCK
  5
15D9
330
15D8
100
AcDbEntity
  8
0
 48
4.0
100
AcDbBlockBegin
  2
*D62
 70
     1
 10
0.0
 20
0.0
 30
0.0
  3
*D62
  1

  0
LINE
  5
18C9
330
15D8
100
AcDbEntity
  8
0Hatch
 62
     1
370
    -2
100
AcDbLine
 10
47486.64522230384
 20
-2533.010229135922
 30
0.0
 11
47599.68899916569
 21
-2533.010229135922
 31
0.0
  0
MTEXT
  5
18CA
330
15D8
100
AcDbEntity
  8
0Hatch
 62
   140
100
AcDbMText
 10
47513.17023856985
 20
-2453.010229135922
 30
0.0
 40
80.0
 41
0.0
 71
     5
 72
     1
  1
\A1;173
  7
ROMANS
 73
     1
 44
1.0
1001
ACAD
1000
MTEXTBEGIN
1070
    73
1070
     1
1070
    44
1040
1.0
1070
    74
1070
     0
1000
MTEXTEND
  0
INSERT
  5
18CB
330
15D8
100
AcDbEntity
  8
0Hatch
 62
     1
370
    -2
100
AcDbBlockReference
  2
B-DIM
 10
47456.64522230383
 20
-2533.010229135922
 30
0.0
 41
30.0
 42
30.0
 43
30.0
 50
180.0
  0
INSERT
  5
18CC
330
15D8
100
AcDbEntity
  8
0Hatch
 62
     1
370
    -2
100
AcDbBlockReference
  2
B-DIM
 10
47629.68899916569
 20
-2533.010229135922
 30
0.0
 41
30.0
 42
30.0
 43
30.0
  0
POINT
  5
18CD
330
15D8
100
AcDbEntity
  8
Defpoints
 62
     0
100
AcDbPoint
 10
47456.64522230383
 20
-3236.852472469065
 30
0.0
  0
POINT
  5
18CE
330
15D8
100
AcDbEntity
  8
Defpoints
 62
     0
100
AcDbPoint
 10
47629.68899916569
 20
-3409.896249330952
 30
0.0
  0
POINT
  5
18CF
330
15D8
100
AcDbEntity
  8
Defpoints
 62
     0
100
AcDbPoint
 10
47629.68899916569
 20
-2533.010229135922
 30
0.0
  0
ENDBLK
  5
15DA
330
15D8
100
AcDbEntity
  8
0
 48
4.0
100
AcDbBlockEnd
  0
BLOCK
  5
15E3
330
15E2
100
AcDbEntity
  8
0
 48
4.0
100
AcDbBlockBegin
  2
*D63
 70
     1
 10
0.0
 20
0.0
 30
0.0
  3
*D63
  1

  0
LINE
  5
18C2
330
15E2
100
AcDbEntity
  8
0Hatch
 62
     1
370
    -2
100
AcDbLine
 10
47659.68899916569
 20
-2533.010229135922
 30
0.0
 11
47826.64522230383
 21
-2533.010229135922
 31
0.0
  0
INSERT
  5
18C3
330
15E2
100
AcDbEntity
  8
0Hatch
 62
     1
370
    -2
100
AcDbBlockReference
  2
B-DIM
 10
47629.68899916569
 20
-2533.010229135922
 30
0.0
 41
30.0
 42
30.0
 43
30.0
 50
180.0
  0
INSERT
  5
18C4
330
15E2
100
AcDbEntity
  8
0Hatch
 62
     1
370
    -2
100
AcDbBlockReference
  2
B-DIM
 10
47856.64522230383
 20
-2533.010229135922
 30
0.0
 41
30.0
 42
30.0
 43
30.0
  0
MTEXT
  5
18C5
330
15E2
100
AcDbEntity
  8
0Hatch
 62
   140
100
AcDbMText
 10
47743.16711073476
 20
-2453.010229135922
 30
0.0
 40
80.0
 41
0.0
 71
     5
 72
     1
  1
\A1;227
  7
ROMANS
 73
     1
 44
1.0
1001
ACAD
1000
MTEXTBEGIN
1070
    73
1070
     1
1070
    44
1040
1.0
1070
    74
1070
     0
1000
MTEXTEND
  0
POINT
  5
18C6
330
15E2
100
AcDbEntity
  8
Defpoints
 62
     0
100
AcDbPoint
 10
47629.68899916569
 20
-3409.896249330952
 30
0.0
  0
POINT
  5
18C7
330
15E2
100
AcDbEntity
  8
Defpoints
 62
     0
100
AcDbPoint
 10
47856.64522230383
 20
-3409.896249330952
 30
0.0
  0
POINT
  5
18C8
330
15E2
100
AcDbEntity
  8
Defpoints
 62
     0
100
AcDbPoint
 10
47856.64522230383
 20
-2533.010229135922
 30
0.0
  0
ENDBLK
  5
15E4
330
15E2
100
AcDbEntity
  8
0
 48
4.0
100
AcDbBlockEnd
  0
BLOCK
  5
15ED
330
15EC
100
AcDbEntity
  8
0
 48
4.0
100
AcDbBlockBegin
  2
*D64
 70
     1
 10
0.0
 20
0.0
 30
0.0
  3
*D64
  1

  0
LINE
  5
18BB
330
15EC
100
AcDbEntity
  8
0Hatch
 62
     1
370
    -2
100
AcDbLine
 10
45809.64159384672
 20
-2999.896249330835
 30
0.0
 11
45809.64159384672
 21
-3249.896249330952
 31
0.0
  0
INSERT
  5
18BC
330
15EC
100
AcDbEntity
  8
0Hatch
 62
     1
370
    -2
100
AcDbBlockReference
  2
B-DIM
 10
45809.64159384672
 20
-2969.896249330835
 30
0.0
 41
30.0
 42
30.0
 43
30.0
 50
90.0
  0
INSERT
  5
18BD
330
15EC
100
AcDbEntity
  8
0Hatch
 62
     1
370
    -2
100
AcDbBlockReference
  2
B-DIM
 10
45809.64159384672
 20
-3279.896249330952
 30
0.0
 41
30.0
 42
30.0
 43
30.0
 50
270.0
  0
MTEXT
  5
18BE
330
15EC
100
AcDbEntity
  8
0Hatch
 62
   140
100
AcDbMText
 10
45729.64159384672
 20
-3124.896249330886
 30
0.0
 40
80.0
 41
0.0
 71
     5
 72
     1
  1
\A1;310
  7
ROMANS
 11
0.0000000000000001
 21
1.0
 31
0.0
 73
     1
 44
1.0
1001
ACAD
1000
MTEXTBEGIN
1070
    73
1070
     1
1070
    44
1040
1.0
1070
    74
1070
     0
1000
MTEXTEND
  0
POINT
  5
18BF
330
15EC
100
AcDbEntity
  8
Defpoints
 62
     0
100
AcDbPoint
 10
46851.22568185656
 20
-2969.896249330835
 30
0.0
  0
POINT
  5
18C0
330
15EC
100
AcDbEntity
  8
Defpoints
 62
     0
100
AcDbPoint
 10
46672.24709840771
 20
-3279.896249330952
 30
0.0
  0
POINT
  5
18C1
330
15EC
100
AcDbEntity
  8
Defpoints
 62
     0
100
AcDbPoint
 10
45809.64159384672
 20
-3279.896249330952
 30
0.0
  0
ENDBLK
  5
15EE
330
15EC
100
AcDbEntity
  8
0
 48
4.0
100
AcDbBlockEnd
  0
BLOCK
  5
15F7
330
15F6
100
AcDbEntity
  8
0
 48
4.0
100
AcDbBlockBegin
  2
*D65
 70
     1
 10
0.0
 20
0.0
 30
0.0
  3
*D65
  1

  0
LINE
  5
18B4
330
15F6
100
AcDbEntity
  8
0Hatch
 62
     1
370
    -2
100
AcDbLine
 10
45809.64159384672
 20
-3309.896249330952
 30
0.0
 11
45809.64159384672
 21
-3929.896249330952
 31
0.0
  0
INSERT
  5
18B5
330
15F6
100
AcDbEntity
  8
0Hatch
 62
     1
370
    -2
100
AcDbBlockReference
  2
B-DIM
 10
45809.64159384672
 20
-3279.896249330952
 30
0.0
 41
30.0
 42
30.0
 43
30.0
 50
90.0
  0
INSERT
  5
18B6
330
15F6
100
AcDbEntity
  8
0Hatch
 62
     1
370
    -2
100
AcDbBlockReference
  2
B-DIM
 10
45809.64159384672
 20
-3959.896249330951
 30
0.0
 41
30.0
 42
30.0
 43
30.0
 50
270.0
  0
MTEXT
  5
18B7
330
15F6
100
AcDbEntity
  8
0Hatch
 62
   140
100
AcDbMText
 10
45729.64159384672
 20
-3619.896249330945
 30
0.0
 40
80.0
 41
0.0
 71
     5
 72
     1
  1
\A1;680
  7
ROMANS
 11
0.0000000000000001
 21
1.0
 31
0.0
 73
     1
 44
1.0
1001
ACAD
1000
MTEXTBEGIN
1070
    73
1070
     1
1070
    44
1040
1.0
1070
    74
1070
     0
1000
MTEXTEND
  0
POINT
  5
18B8
330
15F6
100
AcDbEntity
  8
Defpoints
 62
     0
100
AcDbPoint
 10
46261.22568185656
 20
-3279.896249330952
 30
0.0
  0
POINT
  5
18B9
330
15F6
100
AcDbEntity
  8
Defpoints
 62
     0
100
AcDbPoint
 10
46261.22568185656
 20
-3959.896249330952
 30
0.0
  0
POINT
  5
18BA
330
15F6
100
AcDbEntity
  8
Defpoints
 62
     0
100
AcDbPoint
 10
45809.64159384672
 20
-3959.896249330951
 30
0.0
  0
ENDBLK
  5
15F8
330
15F6
100
AcDbEntity
  8
0
 48
4.0
100
AcDbBlockEnd
  0
BLOCK
  5
1601
330
1600
100
AcDbEntity
  8
0
 48
4.0
100
AcDbBlockBegin
  2
*D66
 70
     1
 10
0.0
 20
0.0
 30
0.0
  3
*D66
  1

  0
LINE
  5
18AB
330
1600
100
AcDbEntity
  8
0Hatch
 62
     1
370
    -2
100
AcDbLine
 10
45809.64159384672
 20
-3929.896249330952
 30
0.0
 11
45809.64159384672
 21
-3899.896249330952
 31
0.0
  0
LINE
  5
18AC
330
1600
100
AcDbEntity
  8
0Hatch
 62
     1
370
    -2
100
AcDbLine
 10
45809.64159384672
 20
-4099.896249330951
 30
0.0
 11
45809.64159384672
 21
-4129.896249330951
 31
0.0
  0
LINE
  5
18AD
330
1600
100
AcDbEntity
  8
0Hatch
 62
     1
370
    -2
100
AcDbLine
 10
45809.64159384672
 20
-3959.896249330951
 30
0.0
 11
45809.64159384672
 21
-4069.896249330951
 31
0.0
  0
INSERT
  5
18AE
330
1600
100
AcDbEntity
  8
0Hatch
 62
     1
370
    -2
100
AcDbBlockReference
  2
B-DIM
 10
45809.64159384672
 20
-3959.896249330951
 30
0.0
 41
30.0
 42
30.0
 43
30.0
 50
270.0
  0
INSERT
  5
18AF
330
1600
100
AcDbEntity
  8
0Hatch
 62
     1
370
    -2
100
AcDbBlockReference
  2
B-DIM
 10
45809.64159384672
 20
-4069.896249330951
 30
0.0
 41
30.0
 42
30.0
 43
30.0
 50
90.0
  0
MTEXT
  5
18B0
330
1600
100
AcDbEntity
  8
0Hatch
 62
   140
100
AcDbMText
 10
45729.64159384672
 20
-4014.896249330944
 30
0.0
 40
80.0
 41
0.0
 71
     5
 72
     1
  1
\A1;110
  7
ROMANS
 11
0.0000000000000001
 21
1.0
 31
0.0
 73
     1
 44
1.0
1001
ACAD
1000
MTEXTBEGIN
1070
    73
1070
     1
1070
    44
1040
1.0
1070
    74
1070
     0
1000
MTEXTEND
  0
POINT
  5
18B1
330
1600
100
AcDbEntity
  8
Defpoints
 62
     0
100
AcDbPoint
 10
46796.64522230386
 20
-3959.896249330952
 30
0.0
  0
POINT
  5
18B2
330
1600
100
AcDbEntity
  8
Defpoints
 62
     0
100
AcDbPoint
 10
46796.64522230386
 20
-4069.896249330951
 30
0.0
  0
POINT
  5
18B3
330
1600
100
AcDbEntity
  8
Defpoints
 62
     0
100
AcDbPoint
 10
45809.64159384672
 20
-4069.896249330951
 30
0.0
  0
ENDBLK
  5
1602
330
1600
100
AcDbEntity
  8
0
 48
4.0
100
AcDbBlockEnd
  0
BLOCK
  5
160D
330
160C
100
AcDbEntity
  8
0
 48
4.0
100
AcDbBlockBegin
  2
*D67
 70
     1
 10
0.0
 20
0.0
 30
0.0
  3
*D67
  1

  0
LINE
  5
18A4
330
160C
100
AcDbEntity
  8
0Hatch
 62
     1
370
    -2
100
AcDbLine
 10
48421.83555811888
 20
-2999.896249330952
 30
0.0
 11
48421.83555811888
 21
-3206.852472469066
 31
0.0
  0
MTEXT
  5
18A5
330
160C
100
AcDbEntity
  8
0Hatch
 62
   140
100
AcDbMText
 10
48341.83555811885
 20
-3079.274534515629
 30
0.0
 40
80.0
 41
0.0
 71
     5
 72
     1
  1
\A1;267
  7
ROMANS
 11
0.0000000000000001
 21
1.0
 31
0.0
 73
     1
 44
1.0
1001
ACAD
1000
MTEXTBEGIN
1070
    73
1070
     1
1070
    44
1040
1.0
1070
    74
1070
     0
1000
MTEXTEND
  0
INSERT
  5
18A6
330
160C
100
AcDbEntity
  8
0Hatch
 62
     1
370
    -2
100
AcDbBlockReference
  2
B-DIM
 10
48421.83555811888
 20
-2969.896249330952
 30
0.0
 41
30.0
 42
30.0
 43
30.0
 50
90.0
  0
INSERT
  5
18A7
330
160C
100
AcDbEntity
  8
0Hatch
 62
     1
370
    -2
100
AcDbBlockReference
  2
B-DIM
 10
48421.83555811888
 20
-3236.852472469066
 30
0.0
 41
30.0
 42
30.0
 43
30.0
 50
270.0
  0
POINT
  5
18A8
330
160C
100
AcDbEntity
  8
Defpoints
 62
     0
100
AcDbPoint
 10
47456.64522230386
 20
-2969.896249330952
 30
0.0
  0
POINT
  5
18A9
330
160C
100
AcDbEntity
  8
Defpoints
 62
     0
100
AcDbPoint
 10
47456.64522230383
 20
-3236.852472469065
 30
0.0
  0
POINT
  5
18AA
330
160C
100
AcDbEntity
  8
Defpoints
 62
     0
100
AcDbPoint
 10
48421.83555811888
 20
-3236.852472469066
 30
0.0
  0
ENDBLK
  5
160E
330
160C
100
AcDbEntity
  8
0
 48
4.0
100
AcDbBlockEnd
  0
BLOCK
  5
1617
330
1616
100
AcDbEntity
  8
0
 48
4.0
100
AcDbBlockBegin
  2
*D68
 70
     1
 10
0.0
 20
0.0
 30
0.0
  3
*D68
  1

  0
LINE
  5
189B
330
1616
100
AcDbEntity
  8
0Hatch
 62
     1
370
    -2
100
AcDbLine
 10
48421.83555811888
 20
-3206.852472469066
 30
0.0
 11
48421.83555811888
 21
-3176.852472469066
 31
0.0
  0
LINE
  5
189C
330
1616
100
AcDbEntity
  8
0Hatch
 62
     1
370
    -2
100
AcDbLine
 10
48421.83555811888
 20
-3439.896249330953
 30
0.0
 11
48421.83555811888
 21
-3469.896249330953
 31
0.0
  0
LINE
  5
189D
330
1616
100
AcDbEntity
  8
0Hatch
 62
     1
370
    -2
100
AcDbLine
 10
48421.83555811888
 20
-3236.852472469066
 30
0.0
 11
48421.83555811888
 21
-3409.896249330952
 31
0.0
  0
INSERT
  5
189E
330
1616
100
AcDbEntity
  8
0Hatch
 62
     1
370
    -2
100
AcDbBlockReference
  2
B-DIM
 10
48421.83555811888
 20
-3236.852472469066
 30
0.0
 41
30.0
 42
30.0
 43
30.0
 50
270.0
  0
INSERT
  5
189F
330
1616
100
AcDbEntity
  8
0Hatch
 62
     1
370
    -2
100
AcDbBlockReference
  2
B-DIM
 10
48421.83555811888
 20
-3409.896249330952
 30
0.0
 41
30.0
 42
30.0
 43
30.0
 50
90.0
  0
MTEXT
  5
18A0
330
1616
100
AcDbEntity
  8
0Hatch
 62
   140
100
AcDbMText
 10
48341.83555811888
 20
-3323.374360900002
 30
0.0
 40
80.0
 41
0.0
 71
     5
 72
     1
  1
\A1;173
  7
ROMANS
 11
0.0000000000000001
 21
1.0
 31
0.0
 73
     1
 44
1.0
1001
ACAD
1000
MTEXTBEGIN
1070
    73
1070
     1
1070
    44
1040
1.0
1070
    74
1070
     0
1000
MTEXTEND
  0
POINT
  5
18A1
330
1616
100
AcDbEntity
  8
Defpoints
 62
     0
100
AcDbPoint
 10
47456.64522230389
 20
-3236.852472469065
 30
0.0
  0
POINT
  5
18A2
330
1616
100
AcDbEntity
  8
Defpoints
 62
     0
100
AcDbPoint
 10
47629.68899916572
 20
-3409.896249330952
 30
0.0
  0
POINT
  5
18A3
330
1616
100
AcDbEntity
  8
Defpoints
 62
     0
100
AcDbPoint
 10
48421.83555811888
 20
-3409.896249330952
 30
0.0
  0
ENDBLK
  5
1618
330
1616
100
AcDbEntity
  8
0
 48
4.0
100
AcDbBlockEnd
  0
BLOCK
  5
1623
330
1622
100
AcDbEntity
  8
0
 48
4.0
100
AcDbBlockBegin
  2
*D69
 70
     1
 10
0.0
 20
0.0
 30
0.0
  3
*D69
  1

  0
LINE
  5
1894
330
1622
100
AcDbEntity
  8
0Hatch
 62
     1
370
    -2
100
AcDbLine
 10
48421.83555811888
 20
-3439.896249330953
 30
0.0
 11
48421.83555811888
 21
-4039.896249330982
 31
0.0
  0
INSERT
  5
1895
330
1622
100
AcDbEntity
  8
0Hatch
 62
     1
370
    -2
100
AcDbBlockReference
  2
B-DIM
 10
48421.83555811888
 20
-3409.896249330952
 30
0.0
 41
30.0
 42
30.0
 43
30.0
 50
90.0
  0
INSERT
  5
1896
330
1622
100
AcDbEntity
  8
0Hatch
 62
     1
370
    -2
100
AcDbBlockReference
  2
B-DIM
 10
48421.83555811888
 20
-4069.896249330981
 30
0.0
 41
30.0
 42
30.0
 43
30.0
 50
270.0
  0
MTEXT
  5
1897
330
1622
100
AcDbEntity
  8
0Hatch
 62
   140
100
AcDbMText
 10
48341.83555811888
 20
-3739.896249330959
 30
0.0
 40
80.0
 41
0.0
 71
     5
 72
     1
  1
\A1;660
  7
ROMANS
 11
0.0000000000000001
 21
1.0
 31
0.0
 73
     1
 44
1.0
1001
ACAD
1000
MTEXTBEGIN
1070
    73
1070
     1
1070
    44
1040
1.0
1070
    74
1070
     0
1000
MTEXTEND
  0
POINT
  5
1898
330
1622
100
AcDbEntity
  8
Defpoints
 62
     0
100
AcDbPoint
 10
47856.64522230386
 20
-3409.896249330952
 30
0.0
  0
POINT
  5
1899
330
1622
100
AcDbEntity
  8
Defpoints
 62
     0
100
AcDbPoint
 10
47856.64522230383
 20
-4069.89624933098
 30
0.0
  0
POINT
  5
189A
330
1622
100
AcDbEntity
  8
Defpoints
 62
     0
100
AcDbPoint
 10
48421.83555811888
 20
-4069.896249330981
 30
0.0
  0
ENDBLK
  5
1624
330
1622
100
AcDbEntity
  8
0
 48
4.0
100
AcDbBlockEnd
  0
BLOCK
  5
162D
330
162C
100
AcDbEntity
  8
0
 48
4.0
100
AcDbBlockBegin
  2
*D70
 70
     1
 10
0.0
 20
0.0
 30
0.0
  3
*D70
  1

  0
LINE
  5
188D
330
162C
100
AcDbEntity
  8
0Hatch
 62
     1
370
    -2
100
AcDbLine
 10
46236.64522230386
 20
-4750.317775304487
 30
0.0
 11
46766.64522230386
 21
-4750.317775304487
 31
0.0
  0
INSERT
  5
188E
330
162C
100
AcDbEntity
  8
0Hatch
 62
     1
370
    -2
100
AcDbBlockReference
  2
B-DIM
 10
46206.64522230386
 20
-4750.317775304487
 30
0.0
 41
30.0
 42
30.0
 43
30.0
 50
180.0
  0
INSERT
  5
188F
330
162C
100
AcDbEntity
  8
0Hatch
 62
     1
370
    -2
100
AcDbBlockReference
  2
B-DIM
 10
46796.64522230386
 20
-4750.317775304487
 30
0.0
 41
30.0
 42
30.0
 43
30.0
  0
MTEXT
  5
1890
330
162C
100
AcDbEntity
  8
0Hatch
 62
   140
100
AcDbMText
 10
46501.64522230387
 20
-4670.317775304487
 30
0.0
 40
80.0
 41
0.0
 71
     5
 72
     1
  1
\A1;590
  7
ROMANS
 73
     1
 44
1.0
1001
ACAD
1000
MTEXTBEGIN
1070
    73
1070
     1
1070
    44
1040
1.0
1070
    74
1070
     0
1000
MTEXTEND
  0
POINT
  5
1891
330
162C
100
AcDbEntity
  8
Defpoints
 62
     0
100
AcDbPoint
 10
46206.64522230386
 20
-4023.105182085448
 30
0.0
  0
POINT
  5
1892
330
162C
100
AcDbEntity
  8
Defpoints
 62
     0
100
AcDbPoint
 10
46796.64522230386
 20
-4023.105182085448
 30
0.0
  0
POINT
  5
1893
330
162C
100
AcDbEntity
  8
Defpoints
 62
     0
100
AcDbPoint
 10
46796.64522230386
 20
-4750.317775304487
 30
0.0
  0
ENDBLK
  5
162E
330
162C
100
AcDbEntity
  8
0
 48
4.0
100
AcDbBlockEnd
  0
BLOCK
  5
1637
330
1636
100
AcDbEntity
  8
0
 48
4.0
100
AcDbBlockBegin
  2
*D71
 70
     1
 10
0.0
 20
0.0
 30
0.0
  3
*D71
  1

  0
LINE
  5
1886
330
1636
100
AcDbEntity
  8
0Hatch
 62
     1
370
    -2
100
AcDbLine
 10
46826.64522230386
 20
-4750.317775304487
 30
0.0
 11
47826.64522230383
 21
-4750.317775304487
 31
0.0
  0
INSERT
  5
1887
330
1636
100
AcDbEntity
  8
0Hatch
 62
     1
370
    -2
100
AcDbBlockReference
  2
B-DIM
 10
46796.64522230386
 20
-4750.317775304487
 30
0.0
 41
30.0
 42
30.0
 43
30.0
 50
180.0
  0
INSERT
  5
1888
330
1636
100
AcDbEntity
  8
0Hatch
 62
     1
370
    -2
100
AcDbBlockReference
  2
B-DIM
 10
47856.64522230383
 20
-4750.317775304487
 30
0.0
 41
30.0
 42
30.0
 43
30.0
  0
MTEXT
  5
1889
330
1636
100
AcDbEntity
  8
0Hatch
 62
   140
100
AcDbMText
 10
47326.64522230384
 20
-4670.317775304487
 30
0.0
 40
80.0
 41
0.0
 71
     5
 72
     1
  1
\A1;1060
  7
ROMANS
 73
     1
 44
1.0
1001
ACAD
1000
MTEXTBEGIN
1070
    73
1070
     1
1070
    44
1040
1.0
1070
    74
1070
     0
1000
MTEXTEND
  0
POINT
  5
188A
330
1636
100
AcDbEntity
  8
Defpoints
 62
     0
100
AcDbPoint
 10
46796.64522230386
 20
-4133.105182085448
 30
0.0
  0
POINT
  5
188B
330
1636
100
AcDbEntity
  8
Defpoints
 62
     0
100
AcDbPoint
 10
47856.64522230383
 20
-4133.105182085477
 30
0.0
  0
POINT
  5
188C
330
1636
100
AcDbEntity
  8
Defpoints
 62
     0
100
AcDbPoint
 10
47856.64522230383
 20
-4750.317775304487
 30
0.0
  0
ENDBLK
  5
1638
330
1636
100
AcDbEntity
  8
0
 48
4.0
100
AcDbBlockEnd
  0
BLOCK
  5
196D
330
196C
100
AcDbEntity
  8
0
 48
4.0
100
AcDbBlockBegin
  2
*D85
 70
     1
 10
0.0
 20
0.0
 30
0.0
  3
*D85
  1

  0
LINE
  5
19F2
330
196C
100
AcDbEntity
  8
0Hatch
 62
     1
370
    -2
100
AcDbLine
 10
52080.96838771656
 20
-2533.010229135922
 30
0.0
 11
51760.96838771656
 21
-2533.010229135922
 31
0.0
  0
INSERT
  5
19F3
330
196C
100
AcDbEntity
  8
0Hatch
 62
     1
370
    -2
100
AcDbBlockReference
  2
B-DIM
 10
52110.96838771656
 20
-2533.010229135922
 30
0.0
 41
30.0
 42
30.0
 43
30.0
  0
INSERT
  5
19F4
330
196C
100
AcDbEntity
  8
0Hatch
 62
     1
370
    -2
100
AcDbBlockReference
  2
B-DIM
 10
51730.96838771656
 20
-2533.010229135922
 30
0.0
 41
30.0
 42
30.0
 43
30.0
 50
180.0
  0
MTEXT
  5
19F5
330
196C
100
AcDbEntity
  8
0Hatch
 62
   140
100
AcDbMText
 10
51920.96838771656
 20
-2453.010229135922
 30
0.0
 40
80.0
 41
0.0
 71
     5
 72
     1
  1
\A1;380
  7
ROMANS
 73
     1
 44
1.0
1001
ACAD
1000
MTEXTBEGIN
1070
    73
1070
     1
1070
    44
1040
1.0
1070
    74
1070
     0
1000
MTEXTEND
  0
POINT
  5
19F6
330
196C
100
AcDbEntity
  8
Defpoints
 62
     0
100
AcDbPoint
 10
52110.96838771656
 20
-3279.896249330952
 30
0.0
  0
POINT
  5
19F7
330
196C
100
AcDbEntity
  8
Defpoints
 62
     0
100
AcDbPoint
 10
51730.96838771656
 20
-3279.896249330952
 30
0.0
  0
POINT
  5
19F8
330
196C
100
AcDbEntity
  8
Defpoints
 62
     0
100
AcDbPoint
 10
51730.96838771656
 20
-2533.010229135922
 30
0.0
  0
ENDBLK
  5
196E
330
196C
100
AcDbEntity
  8
0
 48
4.0
100
AcDbBlockEnd
  0
BLOCK
  5
1977
330
1976
100
AcDbEntity
  8
0
 48
4.0
100
AcDbBlockBegin
  2
*D86
 70
     1
 10
0.0
 20
0.0
 30
0.0
  3
*D86
  1

  0
LINE
  5
19F9
330
1976
100
AcDbEntity
  8
0Hatch
 62
     1
370
    -2
100
AcDbLine
 10
51700.96838771656
 20
-2533.010229135922
 30
0.0
 11
51550.96838771654
 21
-2533.010229135922
 31
0.0
  0
INSERT
  5
19FA
330
1976
100
AcDbEntity
  8
0Hatch
 62
     1
370
    -2
100
AcDbBlockReference
  2
B-DIM
 10
51730.96838771656
 20
-2533.010229135922
 30
0.0
 41
30.0
 42
30.0
 43
30.0
  0
INSERT
  5
19FB
330
1976
100
AcDbEntity
  8
0Hatch
 62
     1
370
    -2
100
AcDbBlockReference
  2
B-DIM
 10
51520.96838771654
 20
-2533.010229135922
 30
0.0
 41
30.0
 42
30.0
 43
30.0
 50
180.0
  0
MTEXT
  5
19FC
330
1976
100
AcDbEntity
  8
0Hatch
 62
   140
100
AcDbMText
 10
51625.96838771655
 20
-2453.010229135922
 30
0.0
 40
80.0
 41
0.0
 71
     5
 72
     1
  1
\A1;210
  7
ROMANS
 73
     1
 44
1.0
1001
ACAD
1000
MTEXTBEGIN
1070
    73
1070
     1
1070
    44
1040
1.0
1070
    74
1070
     0
1000
MTEXTEND
  0
POINT
  5
19FD
330
1976
100
AcDbEntity
  8
Defpoints
 62
     0
100
AcDbPoint
 10
51730.96838771656
 20
-3279.896249330952
 30
0.0
  0
POINT
  5
19FE
330
1976
100
AcDbEntity
  8
Defpoints
 62
     0
100
AcDbPoint
 10
51520.96838771654
 20
-3279.896249330952
 30
0.0
  0
POINT
  5
19FF
330
1976
100
AcDbEntity
  8
Defpoints
 62
     0
100
AcDbPoint
 10
51520.96838771654
 20
-2533.010229135922
 30
0.0
  0
ENDBLK
  5
1978
330
1976
100
AcDbEntity
  8
0
 48
4.0
100
AcDbBlockEnd
  0
BLOCK
  5
1981
330
1980
100
AcDbEntity
  8
0
 48
4.0
100
AcDbBlockBegin
  2
*D87
 70
     1
 10
0.0
 20
0.0
 30
0.0
  3
*D87
  1

  0
LINE
  5
1A00
330
1980
100
AcDbEntity
  8
0Hatch
 62
     1
370
    -2
100
AcDbLine
 10
51490.96838771656
 20
-2533.010229135922
 30
0.0
 11
50890.96838771671
 21
-2533.010229135922
 31
0.0
  0
INSERT
  5
1A01
330
1980
100
AcDbEntity
  8
0Hatch
 62
     1
370
    -2
100
AcDbBlockReference
  2
B-DIM
 10
51520.96838771656
 20
-2533.010229135922
 30
0.0
 41
30.0
 42
30.0
 43
30.0
  0
INSERT
  5
1A02
330
1980
100
AcDbEntity
  8
0Hatch
 62
     1
370
    -2
100
AcDbBlockReference
  2
B-DIM
 10
50860.96838771671
 20
-2533.010229135922
 30
0.0
 41
30.0
 42
30.0
 43
30.0
 50
180.0
  0
MTEXT
  5
1A03
330
1980
100
AcDbEntity
  8
0Hatch
 62
   140
100
AcDbMText
 10
51190.96838771664
 20
-2453.010229135922
 30
0.0
 40
80.0
 41
0.0
 71
     5
 72
     1
  1
\A1;660
  7
ROMANS
 73
     1
 44
1.0
1001
ACAD
1000
MTEXTBEGIN
1070
    73
1070
     1
1070
    44
1040
1.0
1070
    74
1070
     0
1000
MTEXTEND
  0
POINT
  5
1A04
330
1980
100
AcDbEntity
  8
Defpoints
 62
     0
100
AcDbPoint
 10
51520.96838771656
 20
-2969.896249330835
 30
0.0
  0
POINT
  5
1A05
330
1980
100
AcDbEntity
  8
Defpoints
 62
     0
100
AcDbPoint
 10
50860.96838771671
 20
-2969.896249330981
 30
0.0
  0
POINT
  5
1A06
330
1980
100
AcDbEntity
  8
Defpoints
 62
     0
100
AcDbPoint
 10
50860.96838771671
 20
-2533.010229135922
 30
0.0
  0
ENDBLK
  5
1982
330
1980
100
AcDbEntity
  8
0
 48
4.0
100
AcDbBlockEnd
  0
BLOCK
  5
198B
330
198A
100
AcDbEntity
  8
0
 48
4.0
100
AcDbBlockBegin
  2
*D88
 70
     1
 10
0.0
 20
0.0
 30
0.0
  3
*D88
  1

  0
LINE
  5
1A07
330
198A
100
AcDbEntity
  8
0Hatch
 62
     1
370
    -2
100
AcDbLine
 10
50830.96838771659
 20
-2533.010229135922
 30
0.0
 11
50717.92461085474
 21
-2533.010229135922
 31
0.0
  0
MTEXT
  5
1A08
330
198A
100
AcDbEntity
  8
0Hatch
 62
   140
100
AcDbMText
 10
50804.44337145058
 20
-2453.010229135922
 30
0.0
 40
80.0
 41
0.0
 71
     5
 72
     1
  1
\A1;173
  7
ROMANS
 73
     1
 44
1.0
1001
ACAD
1000
MTEXTBEGIN
1070
    73
1070
     1
1070
    44
1040
1.0
1070
    74
1070
     0
1000
MTEXTEND
  0
INSERT
  5
1A09
330
198A
100
AcDbEntity
  8
0Hatch
 62
     1
370
    -2
100
AcDbBlockReference
  2
B-DIM
 10
50860.96838771659
 20
-2533.010229135922
 30
0.0
 41
30.0
 42
30.0
 43
30.0
  0
INSERT
  5
1A0A
330
198A
100
AcDbEntity
  8
0Hatch
 62
     1
370
    -2
100
AcDbBlockReference
  2
B-DIM
 10
50687.92461085473
 20
-2533.010229135922
 30
0.0
 41
30.0
 42
30.0
 43
30.0
 50
180.0
  0
POINT
  5
1A0B
330
198A
100
AcDbEntity
  8
Defpoints
 62
     0
100
AcDbPoint
 10
50860.96838771659
 20
-3236.852472469065
 30
0.0
  0
POINT
  5
1A0C
330
198A
100
AcDbEntity
  8
Defpoints
 62
     0
100
AcDbPoint
 10
50687.92461085473
 20
-3409.896249330952
 30
0.0
  0
POINT
  5
1A0D
330
198A
100
AcDbEntity
  8
Defpoints
 62
     0
100
AcDbPoint
 10
50687.92461085473
 20
-2533.010229135922
 30
0.0
  0
ENDBLK
  5
198C
330
198A
100
AcDbEntity
  8
0
 48
4.0
100
AcDbBlockEnd
  0
BLOCK
  5
1995
330
1994
100
AcDbEntity
  8
0
 48
4.0
100
AcDbBlockBegin
  2
*D89
 70
     1
 10
0.0
 20
0.0
 30
0.0
  3
*D89
  1

  0
LINE
  5
1A0E
330
1994
100
AcDbEntity
  8
0Hatch
 62
     1
370
    -2
100
AcDbLine
 10
50657.92461085473
 20
-2533.010229135922
 30
0.0
 11
50490.96838771659
 21
-2533.010229135922
 31
0.0
  0
INSERT
  5
1A0F
330
1994
100
AcDbEntity
  8
0Hatch
 62
     1
370
    -2
100
AcDbBlockReference
  2
B-DIM
 10
50687.92461085473
 20
-2533.010229135922
 30
0.0
 41
30.0
 42
30.0
 43
30.0
  0
INSERT
  5
1A10
330
1994
100
AcDbEntity
  8
0Hatch
 62
     1
370
    -2
100
AcDbBlockReference
  2
B-DIM
 10
50460.96838771659
 20
-2533.010229135922
 30
0.0
 41
30.0
 42
30.0
 43
30.0
 50
180.0
  0
MTEXT
  5
1A11
330
1994
100
AcDbEntity
  8
0Hatch
 62
   140
100
AcDbMText
 10
50574.44649928567
 20
-2453.010229135922
 30
0.0
 40
80.0
 41
0.0
 71
     5
 72
     1
  1
\A1;227
  7
ROMANS
 73
     1
 44
1.0
1001
ACAD
1000
MTEXTBEGIN
1070
    73
1070
     1
1070
    44
1040
1.0
1070
    74
1070
     0
1000
MTEXTEND
  0
POINT
  5
1A12
330
1994
100
AcDbEntity
  8
Defpoints
 62
     0
100
AcDbPoint
 10
50687.92461085473
 20
-3409.896249330952
 30
0.0
  0
POINT
  5
1A13
330
1994
100
AcDbEntity
  8
Defpoints
 62
     0
100
AcDbPoint
 10
50460.96838771659
 20
-3409.896249330952
 30
0.0
  0
POINT
  5
1A14
330
1994
100
AcDbEntity
  8
Defpoints
 62
     0
100
AcDbPoint
 10
50460.96838771659
 20
-2533.010229135922
 30
0.0
  0
ENDBLK
  5
1996
330
1994
100
AcDbEntity
  8
0
 48
4.0
100
AcDbBlockEnd
  0
BLOCK
  5
199F
330
199E
100
AcDbEntity
  8
0
 48
4.0
100
AcDbBlockBegin
  2
*D90
 70
     1
 10
0.0
 20
0.0
 30
0.0
  3
*D90
  1

  0
LINE
  5
1A15
330
199E
100
AcDbEntity
  8
0Hatch
 62
     1
370
    -2
100
AcDbLine
 10
52507.97201617371
 20
-2999.896249330836
 30
0.0
 11
52507.97201617371
 21
-3249.896249330952
 31
0.0
  0
INSERT
  5
1A16
330
199E
100
AcDbEntity
  8
0Hatch
 62
     1
370
    -2
100
AcDbBlockReference
  2
B-DIM
 10
52507.97201617371
 20
-2969.896249330836
 30
0.0
 41
30.0
 42
30.0
 43
30.0
 50
90.0
  0
INSERT
  5
1A17
330
199E
100
AcDbEntity
  8
0Hatch
 62
     1
370
    -2
100
AcDbBlockReference
  2
B-DIM
 10
52507.97201617371
 20
-3279.896249330953
 30
0.0
 41
30.0
 42
30.0
 43
30.0
 50
270.0
  0
MTEXT
  5
1A18
330
199E
100
AcDbEntity
  8
0Hatch
 62
   140
100
AcDbMText
 10
52427.97201617371
 20
-3124.896249330886
 30
0.0
 40
80.0
 41
0.0
 71
     5
 72
     1
  1
\A1;310
  7
ROMANS
 11
0.0000000000000001
 21
1.0
 31
0.0
 73
     1
 44
1.0
1001
ACAD
1000
MTEXTBEGIN
1070
    73
1070
     1
1070
    44
1040
1.0
1070
    74
1070
     0
1000
MTEXTEND
  0
POINT
  5
1A19
330
199E
100
AcDbEntity
  8
Defpoints
 62
     0
100
AcDbPoint
 10
51466.38792816387
 20
-2969.896249330835
 30
0.0
  0
POINT
  5
1A1A
330
199E
100
AcDbEntity
  8
Defpoints
 62
     0
100
AcDbPoint
 10
51645.36651161272
 20
-3279.896249330952
 30
0.0
  0
POINT
  5
1A1B
330
199E
100
AcDbEntity
  8
Defpoints
 62
     0
100
AcDbPoint
 10
52507.97201617371
 20
-3279.896249330953
 30
0.0
  0
ENDBLK
  5
19A0
330
199E
100
AcDbEntity
  8
0
 48
4.0
100
AcDbBlockEnd
  0
BLOCK
  5
19A9
330
19A8
100
AcDbEntity
  8
0
 48
4.0
100
AcDbBlockBegin
  2
*D91
 70
     1
 10
0.0
 20
0.0
 30
0.0
  3
*D91
  1

  0
LINE
  5
1A1C
330
19A8
100
AcDbEntity
  8
0Hatch
 62
     1
370
    -2
100
AcDbLine
 10
52507.97201617371
 20
-3309.896249330952
 30
0.0
 11
52507.97201617371
 21
-3929.896249330953
 31
0.0
  0
INSERT
  5
1A1D
330
19A8
100
AcDbEntity
  8
0Hatch
 62
     1
370
    -2
100
AcDbBlockReference
  2
B-DIM
 10
52507.97201617371
 20
-3279.896249330953
 30
0.0
 41
30.0
 42
30.0
 43
30.0
 50
90.0
  0
INSERT
  5
1A1E
330
19A8
100
AcDbEntity
  8
0Hatch
 62
     1
370
    -2
100
AcDbBlockReference
  2
B-DIM
 10
52507.97201617371
 20
-3959.896249330952
 30
0.0
 41
30.0
 42
30.0
 43
30.0
 50
270.0
  0
MTEXT
  5
1A1F
330
19A8
100
AcDbEntity
  8
0Hatch
 62
   140
100
AcDbMText
 10
52427.97201617371
 20
-3619.896249330944
 30
0.0
 40
80.0
 41
0.0
 71
     5
 72
     1
  1
\A1;680
  7
ROMANS
 11
0.0000000000000001
 21
1.0
 31
0.0
 73
     1
 44
1.0
1001
ACAD
1000
MTEXTBEGIN
1070
    73
1070
     1
1070
    44
1040
1.0
1070
    74
1070
     0
1000
MTEXTEND
  0
POINT
  5
1A20
330
19A8
100
AcDbEntity
  8
Defpoints
 62
     0
100
AcDbPoint
 10
52056.38792816387
 20
-3279.896249330952
 30
0.0
  0
POINT
  5
1A21
330
19A8
100
AcDbEntity
  8
Defpoints
 62
     0
100
AcDbPoint
 10
52056.38792816387
 20
-3959.896249330952
 30
0.0
  0
POINT
  5
1A22
330
19A8
100
AcDbEntity
  8
Defpoints
 62
     0
100
AcDbPoint
 10
52507.97201617371
 20
-3959.896249330952
 30
0.0
  0
ENDBLK
  5
19AA
330
19A8
100
AcDbEntity
  8
0
 48
4.0
100
AcDbBlockEnd
  0
BLOCK
  5
19B3
330
19B2
100
AcDbEntity
  8
0
 48
4.0
100
AcDbBlockBegin
  2
*D92
 70
     1
 10
0.0
 20
0.0
 30
0.0
  3
*D92
  1

  0
LINE
  5
1A23
330
19B2
100
AcDbEntity
  8
0Hatch
 62
     1
370
    -2
100
AcDbLine
 10
52507.97201617371
 20
-3929.896249330953
 30
0.0
 11
52507.97201617371
 21
-3899.896249330953
 31
0.0
  0
LINE
  5
1A24
330
19B2
100
AcDbEntity
  8
0Hatch
 62
     1
370
    -2
100
AcDbLine
 10
52507.97201617371
 20
-4099.896249330952
 30
0.0
 11
52507.97201617371
 21
-4129.896249330953
 31
0.0
  0
LINE
  5
1A25
330
19B2
100
AcDbEntity
  8
0Hatch
 62
     1
370
    -2
100
AcDbLine
 10
52507.97201617371
 20
-3959.896249330952
 30
0.0
 11
52507.97201617371
 21
-4069.896249330952
 31
0.0
  0
INSERT
  5
1A26
330
19B2
100
AcDbEntity
  8
0Hatch
 62
     1
370
    -2
100
AcDbBlockReference
  2
B-DIM
 10
52507.97201617371
 20
-3959.896249330952
 30
0.0
 41
30.0
 42
30.0
 43
30.0
 50
270.0
  0
INSERT
  5
1A27
330
19B2
100
AcDbEntity
  8
0Hatch
 62
     1
370
    -2
100
AcDbBlockReference
  2
B-DIM
 10
52507.97201617371
 20
-4069.896249330952
 30
0.0
 41
30.0
 42
30.0
 43
30.0
 50
90.0
  0
MTEXT
  5
1A28
330
19B2
100
AcDbEntity
  8
0Hatch
 62
   140
100
AcDbMText
 10
52427.97201617371
 20
-4014.896249330944
 30
0.0
 40
80.0
 41
0.0
 71
     5
 72
     1
  1
\A1;110
  7
ROMANS
 11
0.0000000000000001
 21
1.0
 31
0.0
 73
     1
 44
1.0
1001
ACAD
1000
MTEXTBEGIN
1070
    73
1070
     1
1070
    44
1040
1.0
1070
    74
1070
     0
1000
MTEXTEND
  0
POINT
  5
1A29
330
19B2
100
AcDbEntity
  8
Defpoints
 62
     0
100
AcDbPoint
 10
51520.96838771656
 20
-3959.896249330952
 30
0.0
  0
POINT
  5
1A2A
330
19B2
100
AcDbEntity
  8
Defpoints
 62
     0
100
AcDbPoint
 10
51520.96838771656
 20
-4069.896249330951
 30
0.0
  0
POINT
  5
1A2B
330
19B2
100
AcDbEntity
  8
Defpoints
 62
     0
100
AcDbPoint
 10
52507.97201617371
 20
-4069.896249330952
 30
0.0
  0
ENDBLK
  5
19B4
330
19B2
100
AcDbEntity
  8
0
 48
4.0
100
AcDbBlockEnd
  0
BLOCK
  5
19BF
330
19BE
100
AcDbEntity
  8
0
 48
4.0
100
AcDbBlockBegin
  2
*D93
 70
     1
 10
0.0
 20
0.0
 30
0.0
  3
*D93
  1

  0
LINE
  5
1A51
330
19BE
100
AcDbEntity
  8
0Hatch
 62
     1
370
    -2
100
AcDbLine
 10
49895.77805190155
 20
-2999.896249330952
 30
0.0
 11
49895.77805190155
 21
-3206.852472469065
 31
0.0
  0
MTEXT
  5
1A52
330
19BE
100
AcDbEntity
  8
0Hatch
 62
   140
100
AcDbMText
 10
49818.79086030258
 20
-3079.274534515629
 30
0.0
 40
80.0
 41
0.0
 71
     5
 72
     1
  1
\A1;267
  7
ROMANS
 11
0.0000000000000001
 21
1.0
 31
0.0
 73
     1
 44
1.0
1001
ACAD
1000
MTEXTBEGIN
1070
    73
1070
     1
1070
    44
1040
1.0
1070
    74
1070
     0
1000
MTEXTEND
  0
INSERT
  5
1A53
330
19BE
100
AcDbEntity
  8
0Hatch
 62
     1
370
    -2
100
AcDbBlockReference
  2
B-DIM
 10
49895.77805190155
 20
-2969.896249330952
 30
0.0
 41
30.0
 42
30.0
 43
30.0
 50
90.0
  0
INSERT
  5
1A54
330
19BE
100
AcDbEntity
  8
0Hatch
 62
     1
370
    -2
100
AcDbBlockReference
  2
B-DIM
 10
49895.77805190155
 20
-3236.852472469065
 30
0.0
 41
30.0
 42
30.0
 43
30.0
 50
270.0
  0
POINT
  5
1A55
330
19BE
100
AcDbEntity
  8
Defpoints
 62
     0
100
AcDbPoint
 10
50860.96838771656
 20
-2969.896249330952
 30
0.0
  0
POINT
  5
1A56
330
19BE
100
AcDbEntity
  8
Defpoints
 62
     0
100
AcDbPoint
 10
50860.96838771659
 20
-3236.852472469065
 30
0.0
  0
POINT
  5
1A57
330
19BE
100
AcDbEntity
  8
Defpoints
 62
     0
100
AcDbPoint
 10
49895.77805190155
 20
-3236.852472469065
 30
0.0
  0
ENDBLK
  5
19C0
330
19BE
100
AcDbEntity
  8
0
 48
4.0
100
AcDbBlockEnd
  0
BLOCK
  5
19C9
330
19C8
100
AcDbEntity
  8
0
 48
4.0
100
AcDbBlockBegin
  2
*D94
 70
     1
 10
0.0
 20
0.0
 30
0.0
  3
*D94
  1

  0
LINE
  5
1A33
330
19C8
100
AcDbEntity
  8
0Hatch
 62
     1
370
    -2
100
AcDbLine
 10
49895.77805190155
 20
-3206.852472469065
 30
0.0
 11
49895.77805190155
 21
-3176.852472469065
 31
0.0
  0
LINE
  5
1A34
330
19C8
100
AcDbEntity
  8
0Hatch
 62
     1
370
    -2
100
AcDbLine
 10
49895.77805190155
 20
-3439.896249330951
 30
0.0
 11
49895.77805190155
 21
-3469.896249330952
 31
0.0
  0
LINE
  5
1A35
330
19C8
100
AcDbEntity
  8
0Hatch
 62
     1
370
    -2
100
AcDbLine
 10
49895.77805190155
 20
-3236.852472469065
 30
0.0
 11
49895.77805190155
 21
-3409.896249330952
 31
0.0
  0
INSERT
  5
1A36
330
19C8
100
AcDbEntity
  8
0Hatch
 62
     1
370
    -2
100
AcDbBlockReference
  2
B-DIM
 10
49895.77805190155
 20
-3236.852472469065
 30
0.0
 41
30.0
 42
30.0
 43
30.0
 50
270.0
  0
INSERT
  5
1A37
330
19C8
100
AcDbEntity
  8
0Hatch
 62
     1
370
    -2
100
AcDbBlockReference
  2
B-DIM
 10
49895.77805190155
 20
-3409.896249330952
 30
0.0
 41
30.0
 42
30.0
 43
30.0
 50
90.0
  0
MTEXT
  5
1A38
330
19C8
100
AcDbEntity
  8
0Hatch
 62
   140
100
AcDbMText
 10
49815.77805190155
 20
-3323.3743609
 30
0.0
 40
80.0
 41
0.0
 71
     5
 72
     1
  1
\A1;173
  7
ROMANS
 11
0.0000000000000001
 21
1.0
 31
0.0
 73
     1
 44
1.0
1001
ACAD
1000
MTEXTBEGIN
1070
    73
1070
     1
1070
    44
1040
1.0
1070
    74
1070
     0
1000
MTEXTEND
  0
POINT
  5
1A39
330
19C8
100
AcDbEntity
  8
Defpoints
 62
     0
100
AcDbPoint
 10
50860.96838771654
 20
-3236.852472469065
 30
0.0
  0
POINT
  5
1A3A
330
19C8
100
AcDbEntity
  8
Defpoints
 62
     0
100
AcDbPoint
 10
50687.92461085471
 20
-3409.896249330952
 30
0.0
  0
POINT
  5
1A3B
330
19C8
100
AcDbEntity
  8
Defpoints
 62
     0
100
AcDbPoint
 10
49895.77805190155
 20
-3409.896249330952
 30
0.0
  0
ENDBLK
  5
19CA
330
19C8
100
AcDbEntity
  8
0
 48
4.0
100
AcDbBlockEnd
  0
BLOCK
  5
19D5
330
19D4
100
AcDbEntity
  8
0
 48
4.0
100
AcDbBlockBegin
  2
*D95
 70
     1
 10
0.0
 20
0.0
 30
0.0
  3
*D95
  1

  0
LINE
  5
1A3C
330
19D4
100
AcDbEntity
  8
0Hatch
 62
     1
370
    -2
100
AcDbLine
 10
49895.77805190155
 20
-3439.896249330951
 30
0.0
 11
49895.77805190155
 21
-4039.89624933098
 31
0.0
  0
INSERT
  5
1A3D
330
19D4
100
AcDbEntity
  8
0Hatch
 62
     1
370
    -2
100
AcDbBlockReference
  2
B-DIM
 10
49895.77805190155
 20
-3409.896249330952
 30
0.0
 41
30.0
 42
30.0
 43
30.0
 50
90.0
  0
INSERT
  5
1A3E
330
19D4
100
AcDbEntity
  8
0Hatch
 62
     1
370
    -2
100
AcDbBlockReference
  2
B-DIM
 10
49895.77805190155
 20
-4069.89624933098
 30
0.0
 41
30.0
 42
30.0
 43
30.0
 50
270.0
  0
MTEXT
  5
1A3F
330
19D4
100
AcDbEntity
  8
0Hatch
 62
   140
100
AcDbMText
 10
49815.77805190155
 20
-3739.896249330958
 30
0.0
 40
80.0
 41
0.0
 71
     5
 72
     1
  1
\A1;660
  7
ROMANS
 11
0.0000000000000001
 21
1.0
 31
0.0
 73
     1
 44
1.0
1001
ACAD
1000
MTEXTBEGIN
1070
    73
1070
     1
1070
    44
1040
1.0
1070
    74
1070
     0
1000
MTEXTEND
  0
POINT
  5
1A40
330
19D4
100
AcDbEntity
  8
Defpoints
 62
     0
100
AcDbPoint
 10
50460.96838771656
 20
-3409.896249330952
 30
0.0
  0
POINT
  5
1A41
330
19D4
100
AcDbEntity
  8
Defpoints
 62
     0
100
AcDbPoint
 10
50460.96838771659
 20
-4069.89624933098
 30
0.0
  0
POINT
  5
1A42
330
19D4
100
AcDbEntity
  8
Defpoints
 62
     0
100
AcDbPoint
 10
49895.77805190155
 20
-4069.89624933098
 30
0.0
  0
ENDBLK
  5
19D6
330
19D4
100
AcDbEntity
  8
0
 48
4.0
100
AcDbBlockEnd
  0
BLOCK
  5
19DF
330
19DE
100
AcDbEntity
  8
0
 48
4.0
100
AcDbBlockBegin
  2
*D96
 70
     1
 10
0.0
 20
0.0
 30
0.0
  3
*D96
  1

  0
LINE
  5
1A43
330
19DE
100
AcDbEntity
  8
0Hatch
 62
     1
370
    -2
100
AcDbLine
 10
52080.96838771656
 20
-4750.317775304487
 30
0.0
 11
51550.96838771656
 21
-4750.317775304487
 31
0.0
  0
INSERT
  5
1A44
330
19DE
100
AcDbEntity
  8
0Hatch
 62
     1
370
    -2
100
AcDbBlockReference
  2
B-DIM
 10
52110.96838771656
 20
-4750.317775304487
 30
0.0
 41
30.0
 42
30.0
 43
30.0
  0
INSERT
  5
1A45
330
19DE
100
AcDbEntity
  8
0Hatch
 62
     1
370
    -2
100
AcDbBlockReference
  2
B-DIM
 10
51520.96838771656
 20
-4750.317775304487
 30
0.0
 41
30.0
 42
30.0
 43
30.0
 50
180.0
  0
MTEXT
  5
1A46
330
19DE
100
AcDbEntity
  8
0Hatch
 62
   140
100
AcDbMText
 10
51815.96838771656
 20
-4670.317775304487
 30
0.0
 40
80.0
 41
0.0
 71
     5
 72
     1
  1
\A1;590
  7
ROMANS
 73
     1
 44
1.0
1001
ACAD
1000
MTEXTBEGIN
1070
    73
1070
     1
1070
    44
1040
1.0
1070
    74
1070
     0
1000
MTEXTEND
  0
POINT
  5
1A47
330
19DE
100
AcDbEntity
  8
Defpoints
 62
     0
100
AcDbPoint
 10
52110.96838771656
 20
-4023.105182085448
 30
0.0
  0
POINT
  5
1A48
330
19DE
100
AcDbEntity
  8
Defpoints
 62
     0
100
AcDbPoint
 10
51520.96838771656
 20
-4023.105182085448
 30
0.0
  0
POINT
  5
1A49
330
19DE
100
AcDbEntity
  8
Defpoints
 62
     0
100
AcDbPoint
 10
51520.96838771656
 20
-4750.317775304487
 30
0.0
  0
ENDBLK
  5
19E0
330
19DE
100
AcDbEntity
  8
0
 48
4.0
100
AcDbBlockEnd
  0
BLOCK
  5
19E9
330
19E8
100
AcDbEntity
  8
0
 48
4.0
100
AcDbBlockBegin
  2
*D97
 70
     1
 10
0.0
 20
0.0
 30
0.0
  3
*D97
  1

  0
LINE
  5
1A4A
330
19E8
100
AcDbEntity
  8
0Hatch
 62
     1
370
    -2
100
AcDbLine
 10
51490.96838771656
 20
-4750.317775304487
 30
0.0
 11
50490.96838771659
 21
-4750.317775304487
 31
0.0
  0
INSERT
  5
1A4B
330
19E8
100
AcDbEntity
  8
0Hatch
 62
     1
370
    -2
100
AcDbBlockReference
  2
B-DIM
 10
51520.96838771656
 20
-4750.317775304487
 30
0.0
 41
30.0
 42
30.0
 43
30.0
  0
INSERT
  5
1A4C
330
19E8
100
AcDbEntity
  8
0Hatch
 62
     1
370
    -2
100
AcDbBlockReference
  2
B-DIM
 10
50460.96838771659
 20
-4750.317775304487
 30
0.0
 41
30.0
 42
30.0
 43
30.0
 50
180.0
  0
MTEXT
  5
1A4D
330
19E8
100
AcDbEntity
  8
0Hatch
 62
   140
100
AcDbMText
 10
50990.96838771658
 20
-4670.317775304487
 30
0.0
 40
80.0
 41
0.0
 71
     5
 72
     1
  1
\A1;1060
  7
ROMANS
 73
     1
 44
1.0
1001
ACAD
1000
MTEXTBEGIN
1070
    73
1070
     1
1070
    44
1040
1.0
1070
    74
1070
     0
1000
MTEXTEND
  0
POINT
  5
1A4E
330
19E8
100
AcDbEntity
  8
Defpoints
 62
     0
100
AcDbPoint
 10
51520.96838771656
 20
-4133.105182085448
 30
0.0
  0
POINT
  5
1A4F
330
19E8
100
AcDbEntity
  8
Defpoints
 62
     0
100
AcDbPoint
 10
50460.96838771659
 20
-4133.105182085477
 30
0.0
  0
POINT
  5
1A50
330
19E8
100
AcDbEntity
  8
Defpoints
 62
     0
100
AcDbPoint
 10
50460.96838771659
 20
-4750.317775304487
 30
0.0
  0
ENDBLK
  5
19EA
330
19E8
100
AcDbEntity
  8
0
 48
4.0
100
AcDbBlockEnd
  0
ENDSEC
  0
SECTION
  2
ENTITIES
  0
TEXT
  5
14B3
330
2
100
AcDbEntity
  8
NAPISY
100
AcDbText
 10
45405.46956140748
 20
-12164.84753164588
 30
0.0
 40
100.0
  1
   O B R Y S   B U D Y N K U           S K A L A   1 : 5 0 0 
  7
AVA
100
AcDbText
  0
LINE
  5
14B4
330
2
100
AcDbEntity
  8
NAPISY
  6
DASHED
 62
     1
 48
25.0
370
     5
100
AcDbLine
 10
49158.80680501022
 20
-6817.256561999499
 30
0.0
 11
49158.80680501022
 21
-2014.799504522118
 31
0.0
  0
TEXT
  5
14B5
330
2
100
AcDbEntity
  8
NAPISY
100
AcDbText
 10
45501.68261252538
 20
298.5177292359876
 30
0.0
 40
150.0
  1
MOŻNA WKLEIĆ DO PROJEKTU ZAGOSPODAROWANIA TERENU
  7
AVA
100
AcDbText
  0
TEXT
  5
14B6
330
2
100
AcDbEntity
  8
NAPISY
100
AcDbText
 10
45425.34734189024
 20
628.3862065987486
 30
0.0
 40
150.0
  1
"DOM W ALOESIE 3"
  7
AVA
100
AcDbText
  0
LWPOLYLINE
  5
14B7
330
2
100
AcDbEntity
  8
RAMKI-A4
100
AcDbPolyline
 90
        4
 70
     1
 43
0.0
 10
43946.1176147325
 20
-12830.40361454841
 10
43946.1176147325
 20
1189.596385451586
 10
54146.11761473253
 20
1189.596385451586
 10
54146.11761473253
 20
-12830.40361454841
  0
LINE
  5
14B8
330
2
100
AcDbEntity
  8
0Hatch
100
AcDbLine
 10
47666.64522230386
 20
-3469.896249330952
 30
0.0
 11
47666.64522230386
 21
-3409.896249330952
 31
0.0
  0
LINE
  5
14B9
330
2
100
AcDbEntity
  8
0Hatch
100
AcDbLine
 10
47666.64522230386
 20
-3409.896249330952
 30
0.0
 11
47666.64522230386
 21
-3469.896249330981
 31
0.0
  0
LINE
  5
14BB
330
2
100
AcDbEntity
  8
0Hatch
100
AcDbLine
 10
47456.64522230386
 20
-3197.159567381168
 30
0.0
 11
47396.64522230386
 21
-3197.159567381168
 31
0.0
  0
ARC
  5
14BC
330
2
100
AcDbEntity
  8
0Hatch
100
AcDbCircle
 10
-47432.64522230384
 20
-3433.896249330952
 30
0.0
 40
198.5000000000061
210
0.0
220
0.0
230
-1.0
100
AcDbArc
 50
96.94443951877502
 51
173.0555604820526
  0
LINE
  5
14BD
330
2
100
AcDbEntity
  8
0Hatch
100
AcDbLine
 10
47406.64522230386
 20
-4009.896249330981
 30
0.0
 11
47406.64522230386
 21
-4069.896249330951
 31
0.0
  0
LINE
  5
14BE
330
2
100
AcDbEntity
  8
0Hatch
100
AcDbLine
 10
47246.64522230386
 20
-4069.896249330951
 30
0.0
 11
47246.64522230386
 21
-4009.896249330952
 31
0.0
  0
LINE
  5
14BF
330
2
100
AcDbEntity
  8
0Hatch
100
AcDbLine
 10
46435.64522230386
 20
-3339.896249330952
 30
0.0
 11
46435.64522230386
 21
-3279.896249330952
 31
0.0
  0
LINE
  5
14C1
330
2
100
AcDbEntity
  8
0Hatch
100
AcDbLine
 10
46731.64522230386
 20
-3899.896249330952
 30
0.0
 11
46731.64522230386
 21
-3959.896249330952
 31
0.0
  0
LINE
  5
14C2
330
2
100
AcDbEntity
  8
0Hatch
100
AcDbLine
 10
47431.64524230387
 20
-4149.896249330952
 30
0.0
 11
47476.66891094291
 21
-4149.896249330952
 31
0.0
  0
LINE
  5
14C3
330
2
100
AcDbEntity
  8
0Hatch
100
AcDbLine
 10
47431.64524230387
 20
-4099.896249330952
 30
0.0
 11
47476.64524230387
 21
-4099.896249330952
 31
0.0
  0
LINE
  5
14C4
330
2
100
AcDbEntity
  8
0Hatch
100
AcDbLine
 10
47476.64524230387
 20
-4099.896249330952
 30
0.0
 11
47476.66891094291
 21
-4149.896249330952
 31
0.0
  0
LINE
  5
14C5
330
2
100
AcDbEntity
  8
0Hatch
100
AcDbLine
 10
47431.64524230387
 20
-4149.896249330952
 30
0.0
 11
47431.64524230387
 21
-4099.896249330952
 31
0.0
  0
LINE
  5
14C6
330
2
100
AcDbEntity
  8
0Hatch
100
AcDbLine
 10
47157.49288989065
 20
-4199.896249330952
 30
0.0
 11
47145.85977807219
 21
-4229.896249330951
 31
0.0
  0
LINE
  5
14C7
330
2
100
AcDbEntity
  8
0Hatch
100
AcDbLine
 10
47145.85977807219
 20
-4229.896249330951
 30
0.0
 11
47507.43066653554
 21
-4229.896249330951
 31
0.0
  0
LINE
  5
14C8
330
2
100
AcDbEntity
  8
0Hatch
100
AcDbLine
 10
47507.43066653554
 20
-4229.896249330951
 30
0.0
 11
47495.79755471708
 21
-4199.896249330952
 31
0.0
  0
LINE
  5
14C9
330
2
100
AcDbEntity
  8
0Hatch
100
AcDbLine
 10
47489.14522230387
 20
-4169.896249330951
 30
0.0
 11
47489.14522230387
 21
-4069.896249330951
 31
0.0
  0
LINE
  5
14CA
330
2
100
AcDbEntity
  8
0Hatch
100
AcDbLine
 10
47164.14522230386
 20
-4069.896249330951
 30
0.0
 11
47164.14522230386
 21
-4169.896249330951
 31
0.0
  0
LINE
  5
14CB
330
2
100
AcDbEntity
  8
0Hatch
100
AcDbLine
 10
47164.14522230386
 20
-4169.896249330951
 30
0.0
 11
47157.49288989065
 21
-4199.896249330952
 31
0.0
  0
LINE
  5
14CC
330
2
100
AcDbEntity
  8
0Hatch
100
AcDbLine
 10
47157.49288989065
 20
-4199.896249330952
 30
0.0
 11
47495.79755471708
 21
-4199.896249330952
 31
0.0
  0
LINE
  5
14CD
330
2
100
AcDbEntity
  8
0Hatch
100
AcDbLine
 10
47495.79755471708
 20
-4199.896249330952
 30
0.0
 11
47489.14522230387
 21
-4169.896249330951
 31
0.0
  0
3DFACE
  5
14CE
330
2
100
AcDbEntity
  8
0Hatch
100
AcDbFace
 10
47164.14522230386
 20
-4069.896249330951
 30
0.0
 11
47164.14522230386
 21
-4169.896249330951
 31
0.0
 12
47164.14522230386
 22
-4169.896249330951
 32
0.0
 13
47164.14522230386
 23
-4069.896249330951
 33
0.0
  0
3DFACE
  5
14CF
330
2
100
AcDbEntity
  8
0Hatch
100
AcDbFace
 10
47144.14522230386
 20
-4069.896249330951
 30
0.0
 11
47164.14522230386
 21
-4069.896249330951
 31
0.0
 12
47164.14522230386
 22
-4069.896249330951
 32
0.0
 13
47144.14522230386
 23
-4069.896249330951
 33
0.0
  0
3DFACE
  5
14D0
330
2
100
AcDbEntity
  8
0Hatch
100
AcDbFace
 10
47131.32201815158
 20
-4255.388261382235
 30
0.0
 11
47105.5135333137
 21
-4286.835991147265
 31
0.0
 12
47105.5135333137
 22
-4286.835991147265
 32
0.0
 13
47131.32201815158
 23
-4255.388261382235
 33
0.0
  0
3DFACE
  5
14D1
330
2
100
AcDbEntity
  8
0Hatch
100
AcDbFace
 10
47150.49945246355
 20
-4219.5098053088
 30
0.0
 11
47131.32201815158
 21
-4255.388261382235
 31
0.0
 12
47131.32201815158
 22
-4255.388261382235
 32
0.0
 13
47150.49945246355
 23
-4219.5098053088
 33
0.0
  0
3DFACE
  5
14D2
330
2
100
AcDbEntity
  8
0Hatch
100
AcDbFace
 10
47162.30885820381
 20
-4180.579411873041
 30
0.0
 11
47150.49945246355
 21
-4219.5098053088
 31
0.0
 12
47150.49945246355
 22
-4219.5098053088
 32
0.0
 13
47162.30885820381
 23
-4180.579411873041
 33
0.0
  0
3DFACE
  5
14D3
330
2
100
AcDbEntity
  8
0Hatch
100
AcDbFace
 10
47164.14522230386
 20
-4169.896249330951
 30
0.0
 11
47162.30885820381
 21
-4180.579411873041
 31
0.0
 12
47162.30885820381
 22
-4180.579411873041
 32
0.0
 13
47164.14522230386
 23
-4169.896249330951
 33
0.0
  0
3DFACE
  5
14D4
330
2
100
AcDbEntity
  8
0Hatch
100
AcDbFace
 10
47144.14522230386
 20
-4170.082720910315
 30
0.0
 11
47144.14522230386
 21
-4169.896249330951
 31
0.0
 12
47144.14522230386
 22
-4069.896249330951
 32
0.0
 13
47144.14522230386
 23
-4170.082720910315
 33
0.0
 70
     2
  0
3DFACE
  5
14D5
330
2
100
AcDbEntity
  8
0Hatch
100
AcDbFace
 10
47144.14522230386
 20
-4069.896249330951
 30
0.0
 11
47144.14522230386
 21
-4069.896249330951
 31
0.0
 12
47144.14522230386
 22
-4169.896249330951
 32
0.0
 13
47144.14522230386
 23
-4169.896249330951
 33
0.0
 70
     2
  0
3DFACE
  5
14D6
330
2
100
AcDbEntity
  8
0Hatch
100
AcDbFace
 10
47141.99266487179
 20
-4180.976873786276
 30
0.0
 11
47144.14522230386
 21
-4170.082720910315
 31
0.0
 12
47144.14522230386
 22
-4170.082720910315
 32
0.0
 13
47141.99266487179
 23
-4180.976873786276
 33
0.0
  0
3DFACE
  5
14D7
330
2
100
AcDbEntity
  8
0Hatch
100
AcDbFace
 10
47127.9867467886
 20
-4221.00348802621
 30
0.0
 11
47141.99266487179
 21
-4180.976873786276
 31
0.0
 12
47141.99266487179
 22
-4180.976873786276
 32
0.0
 13
47127.9867467886
 23
-4221.00348802621
 33
0.0
  0
3DFACE
  5
14D8
330
2
100
AcDbEntity
  8
0Hatch
100
AcDbFace
 10
47105.42522672977
 20
-4256.909941506048
 30
0.0
 11
47127.9867467886
 21
-4221.00348802621
 31
0.0
 12
47127.9867467886
 22
-4221.00348802621
 32
0.0
 13
47105.42522672977
 23
-4256.909941506048
 33
0.0
  0
3DFACE
  5
14D9
330
2
100
AcDbEntity
  8
0Hatch
100
AcDbFace
 10
47075.43943351979
 20
-4286.895734716032
 30
0.0
 11
47105.42522672977
 21
-4256.909941506048
 31
0.0
 12
47105.42522672977
 22
-4256.909941506048
 32
0.0
 13
47075.43943351979
 23
-4286.895734716032
 33
0.0
  0
3DFACE
  5
14DA
330
2
100
AcDbEntity
  8
0Hatch
100
AcDbFace
 10
47071.57556033672
 20
-4289.896249330952
 30
0.0
 11
47075.43943351979
 21
-4286.895734716032
 31
0.0
 12
47075.43943351979
 22
-4286.895734716032
 32
0.0
 13
47071.57556033672
 23
-4289.896249330952
 33
0.0
  0
3DFACE
  5
14DB
330
2
100
AcDbEntity
  8
0Hatch
100
AcDbFace
 10
47083.63728834703
 20
-4305.849766730098
 30
0.0
 11
47071.57556033672
 21
-4289.896249330952
 31
0.0
 12
47071.57556033672
 22
-4289.896249330952
 32
0.0
 13
47083.63728834703
 23
-4305.849766730098
 33
0.0
  0
3DFACE
  5
14DC
330
2
100
AcDbEntity
  8
0Hatch
100
AcDbFace
 10
47105.5135333137
 20
-4286.835991147265
 30
0.0
 11
47083.63728834703
 21
-4305.849766730098
 31
0.0
 12
47083.63728834703
 22
-4305.849766730098
 32
0.0
 13
47105.5135333137
 23
-4286.835991147265
 33
0.0
  0
3DFACE
  5
14DD
330
2
100
AcDbEntity
  8
0Hatch
100
AcDbFace
 10
47083.63728834703
 20
-4305.849766730098
 30
0.0
 11
47071.57556033672
 21
-4289.896249330952
 31
0.0
 12
47075.43943351979
 22
-4286.895734716032
 32
0.0
 13
47075.43943351979
 23
-4286.895734716032
 33
0.0
 70
    12
  0
3DFACE
  5
14DE
330
2
100
AcDbEntity
  8
0Hatch
100
AcDbFace
 10
47083.63728834703
 20
-4305.849766730098
 30
0.0
 11
47075.43943351979
 21
-4286.895734716032
 31
0.0
 12
47105.42522672977
 22
-4256.909941506048
 32
0.0
 13
47105.42522672977
 23
-4256.909941506048
 33
0.0
 70
    13
  0
3DFACE
  5
14DF
330
2
100
AcDbEntity
  8
0Hatch
100
AcDbFace
 10
47127.9867467886
 20
-4221.00348802621
 30
0.0
 11
47105.5135333137
 21
-4286.835991147265
 31
0.0
 12
47083.63728834703
 22
-4305.849766730098
 32
0.0
 13
47105.42522672977
 23
-4256.909941506048
 33
0.0
 70
     5
  0
3DFACE
  5
14E0
330
2
100
AcDbEntity
  8
0Hatch
100
AcDbFace
 10
47141.99266487179
 20
-4180.976873786276
 30
0.0
 11
47131.32201815158
 21
-4255.388261382235
 31
0.0
 12
47105.5135333137
 22
-4286.835991147265
 32
0.0
 13
47127.9867467886
 23
-4221.00348802621
 33
0.0
 70
     5
  0
3DFACE
  5
14E1
330
2
100
AcDbEntity
  8
0Hatch
100
AcDbFace
 10
47144.14522230386
 20
-4170.082720910315
 30
0.0
 11
47150.49945246355
 21
-4219.5098053088
 31
0.0
 12
47131.32201815158
 22
-4255.388261382235
 32
0.0
 13
47141.99266487179
 23
-4180.976873786276
 33
0.0
 70
     5
  0
3DFACE
  5
14E2
330
2
100
AcDbEntity
  8
0Hatch
100
AcDbFace
 10
47164.14522230386
 20
-4069.896249330951
 30
0.0
 11
47164.14522230386
 21
-4169.896249330951
 31
0.0
 12
47144.14522230386
 22
-4170.082720910315
 32
0.0
 13
47144.14522230386
 23
-4069.896249330951
 33
0.0
 70
     2
  0
3DFACE
  5
14E3
330
2
100
AcDbEntity
  8
0Hatch
100
AcDbFace
 10
47164.14522230386
 20
-4169.896249330951
 30
0.0
 11
47162.30885820381
 21
-4180.579411873041
 31
0.0
 12
47150.49945246355
 22
-4219.5098053088
 32
0.0
 13
47144.14522230386
 23
-4170.082720910315
 33
0.0
 70
    12
  0
3DFACE
  5
14E4
330
2
100
AcDbEntity
  8
0Hatch
100
AcDbFace
 10
47144.14522230386
 20
-4169.896249330951
 30
0.0
 11
47164.14522230386
 21
-4169.896249330951
 31
0.0
 12
47164.14522230386
 22
-4069.896249330951
 32
0.0
 13
47144.14522230386
 23
-4069.896249330951
 33
0.0
  0
3DFACE
  5
14E5
330
2
100
AcDbEntity
  8
0Hatch
100
AcDbFace
 10
47164.14522230386
 20
-4169.896249330951
 30
0.0
 11
47144.14522230386
 21
-4169.896249330951
 31
0.0
 12
47144.14522230386
 22
-4170.082720910315
 32
0.0
 13
47144.14522230386
 23
-4170.082720910315
 33
0.0
 70
    12
  0
3DFACE
  5
14E6
330
2
100
AcDbEntity
  8
0Hatch
100
AcDbFace
 10
47164.14522230386
 20
-4169.896249330951
 30
0.0
 11
47144.14522230386
 21
-4170.082720910315
 31
0.0
 12
47141.99266487179
 22
-4180.976873786276
 32
0.0
 13
47141.99266487179
 23
-4180.976873786276
 33
0.0
 70
    13
  0
3DFACE
  5
14E7
330
2
100
AcDbEntity
  8
0Hatch
100
AcDbFace
 10
47164.14522230386
 20
-4169.896249330951
 30
0.0
 11
47141.99266487179
 21
-4180.976873786276
 31
0.0
 12
47127.9867467886
 22
-4221.00348802621
 32
0.0
 13
47127.9867467886
 23
-4221.00348802621
 33
0.0
 70
    13
  0
3DFACE
  5
14E8
330
2
100
AcDbEntity
  8
0Hatch
100
AcDbFace
 10
47105.42522672977
 20
-4256.909941506048
 30
0.0
 11
47162.30885820381
 21
-4180.579411873041
 31
0.0
 12
47164.14522230386
 22
-4169.896249330951
 32
0.0
 13
47127.9867467886
 23
-4221.00348802621
 33
0.0
 70
     5
  0
3DFACE
  5
14E9
330
2
100
AcDbEntity
  8
0Hatch
100
AcDbFace
 10
47150.49945246355
 20
-4219.5098053088
 30
0.0
 11
47162.30885820381
 21
-4180.579411873041
 31
0.0
 12
47105.42522672977
 22
-4256.909941506048
 32
0.0
 13
47105.42522672977
 23
-4256.909941506048
 33
0.0
 70
    14
  0
3DFACE
  5
14EA
330
2
100
AcDbEntity
  8
0Hatch
100
AcDbFace
 10
47075.43943351979
 20
-4286.895734716032
 30
0.0
 11
47131.32201815158
 21
-4255.388261382235
 31
0.0
 12
47150.49945246355
 22
-4219.5098053088
 32
0.0
 13
47105.42522672977
 23
-4256.909941506048
 33
0.0
 70
     5
  0
3DFACE
  5
14EB
330
2
100
AcDbEntity
  8
0Hatch
100
AcDbFace
 10
47083.63728834703
 20
-4305.849766730098
 30
0.0
 11
47105.5135333137
 21
-4286.835991147265
 31
0.0
 12
47075.43943351979
 22
-4286.895734716032
 32
0.0
 13
47071.57556033672
 23
-4289.896249330952
 33
0.0
 70
     2
  0
3DFACE
  5
14EC
330
2
100
AcDbEntity
  8
0Hatch
100
AcDbFace
 10
47131.32201815158
 20
-4255.388261382235
 30
0.0
 11
47075.43943351979
 21
-4286.895734716032
 31
0.0
 12
47105.5135333137
 22
-4286.835991147265
 32
0.0
 13
47105.5135333137
 23
-4286.835991147265
 33
0.0
 70
     3
  0
LINE
  5
14ED
330
2
100
AcDbEntity
  8
0Hatch
100
AcDbLine
 10
46796.64522230386
 20
-3959.896249330952
 30
0.0
 11
46226.64522230386
 21
-3959.896249330952
 31
0.0
  0
LINE
  5
14EE
330
2
100
AcDbEntity
  8
0Hatch
100
AcDbLine
 10
46796.64522230386
 20
-4069.896249330951
 30
0.0
 11
46796.64522230386
 21
-3959.896249330952
 31
0.0
  0
LINE
  5
14EF
330
2
100
AcDbEntity
  8
0Hatch
100
AcDbLine
 10
46796.64522230386
 20
-4069.896249330951
 30
0.0
 11
46226.64522230386
 21
-4069.896249330951
 31
0.0
  0
LINE
  5
14F0
330
2
100
AcDbEntity
  8
0Hatch
100
AcDbLine
 10
46226.64522230386
 20
-4069.896249330951
 30
0.0
 11
46226.64522230386
 21
-3959.896249330952
 31
0.0
  0
LINE
  5
14F1
330
2
100
AcDbEntity
  8
0Hatch
100
AcDbLine
 10
46226.64522230386
 20
-3981.896249330952
 30
0.0
 11
46796.64522230386
 21
-3981.896249330952
 31
0.0
  0
3DFACE
  5
14F2
330
2
100
AcDbEntity
  8
0Hatch
100
AcDbFace
 10
47489.14522230387
 20
-4069.896249330951
 30
0.0
 11
47489.14522230387
 21
-4069.896249330951
 31
0.0
 12
47489.14522230387
 22
-4169.896249330951
 32
0.0
 13
47489.14522230387
 23
-4169.896249330951
 33
0.0
  0
3DFACE
  5
14F3
330
2
100
AcDbEntity
  8
0Hatch
100
AcDbFace
 10
47509.14522230386
 20
-4069.896249330951
 30
0.0
 11
47509.14522230386
 21
-4069.896249330951
 31
0.0
 12
47489.14522230387
 22
-4069.896249330951
 32
0.0
 13
47489.14522230387
 23
-4069.896249330951
 33
0.0
  0
3DFACE
  5
14F4
330
2
100
AcDbEntity
  8
0Hatch
100
AcDbFace
 10
47521.96842645612
 20
-4255.388261382235
 30
0.0
 11
47521.96842645612
 21
-4255.388261382235
 31
0.0
 12
47547.776911294
 22
-4286.835991147265
 32
0.0
 13
47547.776911294
 23
-4286.835991147265
 33
0.0
  0
3DFACE
  5
14F5
330
2
100
AcDbEntity
  8
0Hatch
100
AcDbFace
 10
47502.79099214417
 20
-4219.5098053088
 30
0.0
 11
47502.79099214417
 21
-4219.5098053088
 31
0.0
 12
47521.96842645612
 22
-4255.388261382235
 32
0.0
 13
47521.96842645612
 23
-4255.388261382235
 33
0.0
  0
3DFACE
  5
14F6
330
2
100
AcDbEntity
  8
0Hatch
100
AcDbFace
 10
47490.98158640391
 20
-4180.579411873041
 30
0.0
 11
47490.98158640391
 21
-4180.579411873041
 31
0.0
 12
47502.79099214417
 22
-4219.5098053088
 32
0.0
 13
47502.79099214417
 23
-4219.5098053088
 33
0.0
  0
3DFACE
  5
14F7
330
2
100
AcDbEntity
  8
0Hatch
100
AcDbFace
 10
47489.14522230387
 20
-4169.896249330951
 30
0.0
 11
47489.14522230387
 21
-4169.896249330951
 31
0.0
 12
47490.98158640391
 22
-4180.579411873041
 32
0.0
 13
47490.98158640391
 23
-4180.579411873041
 33
0.0
  0
3DFACE
  5
14F8
330
2
100
AcDbEntity
  8
0Hatch
100
AcDbFace
 10
47509.14522230386
 20
-4069.896249330951
 30
0.0
 11
47509.14522230386
 21
-4069.896249330951
 31
0.0
 12
47509.14522230386
 22
-4170.082720910315
 32
0.0
 13
47509.14522230386
 23
-4170.082720910315
 33
0.0
 70
     2
  0
3DFACE
  5
14F9
330
2
100
AcDbEntity
  8
0Hatch
100
AcDbFace
 10
47509.14522230386
 20
-4169.896249330951
 30
0.0
 11
47509.14522230386
 21
-4170.082720910315
 31
0.0
 12
47509.14522230386
 22
-4069.896249330951
 32
0.0
 13
47509.14522230386
 23
-4069.896249330951
 33
0.0
 70
     2
  0
3DFACE
  5
14FA
330
2
100
AcDbEntity
  8
0Hatch
100
AcDbFace
 10
47511.29777973591
 20
-4180.976873786276
 30
0.0
 11
47511.29777973591
 21
-4180.976873786276
 31
0.0
 12
47509.14522230386
 22
-4170.082720910315
 32
0.0
 13
47509.14522230386
 23
-4170.082720910315
 33
0.0
  0
3DFACE
  5
14FB
330
2
100
AcDbEntity
  8
0Hatch
100
AcDbFace
 10
47525.30369781912
 20
-4221.00348802621
 30
0.0
 11
47525.30369781912
 21
-4221.00348802621
 31
0.0
 12
47511.29777973591
 22
-4180.976873786276
 32
0.0
 13
47511.29777973591
 23
-4180.976873786276
 33
0.0
  0
3DFACE
  5
14FC
330
2
100
AcDbEntity
  8
0Hatch
100
AcDbFace
 10
47547.86521787793
 20
-4256.909941506048
 30
0.0
 11
47547.86521787793
 21
-4256.909941506048
 31
0.0
 12
47525.30369781912
 22
-4221.00348802621
 32
0.0
 13
47525.30369781912
 23
-4221.00348802621
 33
0.0
  0
3DFACE
  5
14FD
330
2
100
AcDbEntity
  8
0Hatch
100
AcDbFace
 10
47577.85101108791
 20
-4286.895734716032
 30
0.0
 11
47577.85101108791
 21
-4286.895734716032
 31
0.0
 12
47547.86521787793
 22
-4256.909941506048
 32
0.0
 13
47547.86521787793
 23
-4256.909941506048
 33
0.0
  0
3DFACE
  5
14FE
330
2
100
AcDbEntity
  8
0Hatch
100
AcDbFace
 10
47581.71488427097
 20
-4289.896249330952
 30
0.0
 11
47581.71488427097
 21
-4289.896249330952
 31
0.0
 12
47577.85101108791
 22
-4286.895734716032
 32
0.0
 13
47577.85101108791
 23
-4286.895734716032
 33
0.0
  0
3DFACE
  5
14FF
330
2
100
AcDbEntity
  8
0Hatch
100
AcDbFace
 10
47569.65315626066
 20
-4305.849766730098
 30
0.0
 11
47569.65315626066
 21
-4305.849766730098
 31
0.0
 12
47581.71488427097
 22
-4289.896249330952
 32
0.0
 13
47581.71488427097
 23
-4289.896249330952
 33
0.0
  0
3DFACE
  5
1500
330
2
100
AcDbEntity
  8
0Hatch
100
AcDbFace
 10
47547.776911294
 20
-4286.835991147265
 30
0.0
 11
47547.776911294
 21
-4286.835991147265
 31
0.0
 12
47569.65315626066
 22
-4305.849766730098
 32
0.0
 13
47569.65315626066
 23
-4305.849766730098
 33
0.0
  0
3DFACE
  5
1501
330
2
100
AcDbEntity
  8
0Hatch
100
AcDbFace
 10
47489.14522230387
 20
-4069.896249330951
 30
0.0
 11
47509.14522230386
 21
-4069.896249330951
 31
0.0
 12
47509.14522230386
 22
-4170.082720910315
 32
0.0
 13
47509.14522230386
 23
-4170.082720910315
 33
0.0
 70
    12
  0
3DFACE
  5
1502
330
2
100
AcDbEntity
  8
0Hatch
100
AcDbFace
 10
47511.29777973591
 20
-4180.976873786276
 30
0.0
 11
47489.14522230387
 21
-4169.896249330951
 31
0.0
 12
47489.14522230387
 22
-4069.896249330951
 32
0.0
 13
47509.14522230386
 23
-4170.082720910315
 33
0.0
 70
     5
  0
3DFACE
  5
1503
330
2
100
AcDbEntity
  8
0Hatch
100
AcDbFace
 10
47489.14522230387
 20
-4169.896249330951
 30
0.0
 11
47511.29777973591
 21
-4180.976873786276
 31
0.0
 12
47525.30369781912
 22
-4221.00348802621
 32
0.0
 13
47525.30369781912
 23
-4221.00348802621
 33
0.0
 70
    13
  0
3DFACE
  5
1504
330
2
100
AcDbEntity
  8
0Hatch
100
AcDbFace
 10
47547.86521787793
 20
-4256.909941506048
 30
0.0
 11
47490.98158640391
 21
-4180.579411873041
 31
0.0
 12
47489.14522230387
 22
-4169.896249330951
 32
0.0
 13
47525.30369781912
 23
-4221.00348802621
 33
0.0
 70
     5
  0
3DFACE
  5
1505
330
2
100
AcDbEntity
  8
0Hatch
100
AcDbFace
 10
47502.79099214417
 20
-4219.5098053088
 30
0.0
 11
47490.98158640391
 21
-4180.579411873041
 31
0.0
 12
47547.86521787793
 22
-4256.909941506048
 32
0.0
 13
47547.86521787793
 23
-4256.909941506048
 33
0.0
 70
    14
  0
3DFACE
  5
1506
330
2
100
AcDbEntity
  8
0Hatch
100
AcDbFace
 10
47577.85101108791
 20
-4286.895734716032
 30
0.0
 11
47521.96842645612
 21
-4255.388261382235
 31
0.0
 12
47502.79099214417
 22
-4219.5098053088
 32
0.0
 13
47547.86521787793
 23
-4256.909941506048
 33
0.0
 70
     5
  0
3DFACE
  5
1507
330
2
100
AcDbEntity
  8
0Hatch
100
AcDbFace
 10
47569.65315626066
 20
-4305.849766730098
 30
0.0
 11
47547.776911294
 21
-4286.835991147265
 31
0.0
 12
47577.85101108791
 22
-4286.895734716032
 32
0.0
 13
47581.71488427097
 23
-4289.896249330952
 33
0.0
 70
     2
  0
3DFACE
  5
1508
330
2
100
AcDbEntity
  8
0Hatch
100
AcDbFace
 10
47521.96842645612
 20
-4255.388261382235
 30
0.0
 11
47577.85101108791
 21
-4286.895734716032
 31
0.0
 12
47547.776911294
 22
-4286.835991147265
 32
0.0
 13
47547.776911294
 23
-4286.835991147265
 33
0.0
 70
     3
  0
3DFACE
  5
1509
330
2
100
AcDbEntity
  8
0Hatch
100
AcDbFace
 10
47509.14522230386
 20
-4169.896249330951
 30
0.0
 11
47509.14522230386
 21
-4069.896249330951
 31
0.0
 12
47489.14522230387
 22
-4069.896249330951
 32
0.0
 13
47489.14522230387
 23
-4169.896249330951
 33
0.0
  0
3DFACE
  5
150A
330
2
100
AcDbEntity
  8
0Hatch
100
AcDbFace
 10
47569.65315626066
 20
-4305.849766730098
 30
0.0
 11
47581.71488427097
 21
-4289.896249330952
 31
0.0
 12
47577.85101108791
 22
-4286.895734716032
 32
0.0
 13
47577.85101108791
 23
-4286.895734716032
 33
0.0
 70
    12
  0
3DFACE
  5
150B
330
2
100
AcDbEntity
  8
0Hatch
100
AcDbFace
 10
47569.65315626066
 20
-4305.849766730098
 30
0.0
 11
47577.85101108791
 21
-4286.895734716032
 31
0.0
 12
47547.86521787793
 22
-4256.909941506048
 32
0.0
 13
47547.86521787793
 23
-4256.909941506048
 33
0.0
 70
    13
  0
3DFACE
  5
150C
330
2
100
AcDbEntity
  8
0Hatch
100
AcDbFace
 10
47525.30369781912
 20
-4221.00348802621
 30
0.0
 11
47547.776911294
 21
-4286.835991147265
 31
0.0
 12
47569.65315626066
 22
-4305.849766730098
 32
0.0
 13
47547.86521787793
 23
-4256.909941506048
 33
0.0
 70
     5
  0
3DFACE
  5
150D
330
2
100
AcDbEntity
  8
0Hatch
100
AcDbFace
 10
47511.29777973591
 20
-4180.976873786276
 30
0.0
 11
47521.96842645612
 21
-4255.388261382235
 31
0.0
 12
47547.776911294
 22
-4286.835991147265
 32
0.0
 13
47525.30369781912
 23
-4221.00348802621
 33
0.0
 70
     5
  0
3DFACE
  5
150E
330
2
100
AcDbEntity
  8
0Hatch
100
AcDbFace
 10
47509.14522230386
 20
-4170.082720910315
 30
0.0
 11
47502.79099214417
 21
-4219.5098053088
 31
0.0
 12
47521.96842645612
 22
-4255.388261382235
 32
0.0
 13
47511.29777973591
 23
-4180.976873786276
 33
0.0
 70
     5
  0
3DFACE
  5
150F
330
2
100
AcDbEntity
  8
0Hatch
100
AcDbFace
 10
47489.14522230387
 20
-4169.896249330951
 30
0.0
 11
47490.98158640391
 21
-4180.579411873041
 31
0.0
 12
47509.14522230386
 22
-4170.082720910315
 32
0.0
 13
47509.14522230386
 23
-4169.896249330951
 33
0.0
 70
     2
  0
3DFACE
  5
1510
330
2
100
AcDbEntity
  8
0Hatch
100
AcDbFace
 10
47502.79099214417
 20
-4219.5098053088
 30
0.0
 11
47509.14522230386
 21
-4170.082720910315
 31
0.0
 12
47490.98158640391
 22
-4180.579411873041
 32
0.0
 13
47490.98158640391
 23
-4180.579411873041
 33
0.0
 70
     3
  0
LINE
  5
1511
330
2
100
AcDbEntity
  8
0Hatch
100
AcDbLine
 10
47426.64522230386
 20
-2969.896249330952
 30
0.0
 11
47456.64522230386
 21
-2969.896249330952
 31
0.0
  0
LINE
  5
1512
330
2
100
AcDbEntity
  8
0Hatch
100
AcDbLine
 10
47856.64522230386
 20
-3409.896249330952
 30
0.0
 11
47856.64522230386
 21
-3439.896249330952
 31
0.0
  0
LINE
  5
1513
330
2
100
AcDbEntity
  8
0Hatch
100
AcDbLine
 10
47856.64522230386
 20
-3439.896249330952
 30
0.0
 11
48041.62516445591
 21
-3439.896249330952
 31
0.0
  0
ARC
  5
1514
330
2
100
AcDbEntity
  8
0Hatch
100
AcDbCircle
 10
47432.64522230386
 20
-3433.896249330952
 30
0.0
 40
609.0094990585027
100
AcDbArc
 50
359.4355092335808
 51
90.56449076641712
  0
LINE
  5
1515
330
2
100
AcDbEntity
  8
0Hatch
100
AcDbLine
 10
47426.64522230386
 20
-2824.916307178937
 30
0.0
 11
47426.64522230386
 21
-2969.896249330952
 31
0.0
  0
LINE
  5
1516
330
2
100
AcDbEntity
  8
0Hatch
100
AcDbLine
 10
47856.64522230386
 20
-3409.896249330952
 30
0.0
 11
48011.15710636501
 21
-3409.896249330952
 31
0.0
  0
ARC
  5
1517
330
2
100
AcDbEntity
  8
0Hatch
100
AcDbCircle
 10
47432.64522230386
 20
-3433.896249330952
 30
0.0
 40
579.0094990585038
100
AcDbArc
 50
2.37559621569019
 51
87.6244037843055
  0
LINE
  5
1518
330
2
100
AcDbEntity
  8
0Hatch
100
AcDbLine
 10
47456.64522230386
 20
-2855.384365269798
 30
0.0
 11
47456.64522230386
 21
-3197.159567381168
 31
0.0
  0
LINE
  5
1519
330
2
100
AcDbEntity
  8
0Hatch
100
AcDbLine
 10
46796.64522230386
 20
-3329.896249330952
 30
0.0
 11
46796.64522230386
 21
-3159.896249330952
 31
0.0
  0
LINE
  5
151A
330
2
100
AcDbEntity
  8
0Hatch
100
AcDbLine
 10
46796.64522230386
 20
-3159.896249330952
 30
0.0
 11
46406.64522230387
 21
-3159.896249330952
 31
0.0
  0
LINE
  5
151B
330
2
100
AcDbEntity
  8
0Hatch
100
AcDbLine
 10
46406.64522230387
 20
-3159.896249330952
 30
0.0
 11
46406.64522230387
 21
-3279.896249330952
 31
0.0
  0
LINE
  5
151C
330
2
100
AcDbEntity
  8
0Hatch
100
AcDbLine
 10
46406.64522230387
 20
-3279.896249330952
 30
0.0
 11
46586.64522230386
 21
-3279.896249330952
 31
0.0
  0
LINE
  5
151D
330
2
100
AcDbEntity
  8
0Hatch
100
AcDbLine
 10
46586.64522230386
 20
-3279.896249330952
 30
0.0
 11
46586.64522230386
 21
-3329.896249330952
 31
0.0
  0
LINE
  5
151E
330
2
100
AcDbEntity
  8
0Hatch
100
AcDbLine
 10
46586.64522230386
 20
-3329.896249330952
 30
0.0
 11
46796.64522230386
 21
-3329.896249330952
 31
0.0
  0
LINE
  5
151F
330
2
100
AcDbEntity
  8
0Hatch
390
13A0
100
AcDbLine
 10
46796.64522230386
 20
-3139.896249330952
 30
0.0
 11
46569.64522230395
 21
-3139.896249330923
 31
0.0
  0
LINE
  5
1520
330
2
100
AcDbEntity
  8
0Hatch
390
13A0
100
AcDbLine
 10
46569.64522230395
 20
-3139.896249330923
 30
0.0
 11
46569.64522230395
 21
-3159.896249330923
 31
0.0
  0
LINE
  5
1521
330
2
100
AcDbEntity
  8
0Hatch
390
13A0
100
AcDbLine
 10
46569.64522230395
 20
-3159.896249330923
 30
0.0
 11
46796.64522230386
 21
-3159.896249330952
 31
0.0
  0
LINE
  5
1522
330
2
100
AcDbEntity
  8
0Hatch
100
AcDbLine
 10
47221.64237473404
 20
-4149.896249330952
 30
0.0
 11
47221.64237473404
 21
-4099.896249330952
 31
0.0
  0
LINE
  5
1523
330
2
100
AcDbEntity
  8
0Hatch
100
AcDbLine
 10
47176.64237473404
 20
-4099.896249330952
 30
0.0
 11
47176.61870609497
 21
-4149.896249330952
 31
0.0
  0
LINE
  5
1524
330
2
100
AcDbEntity
  8
0Hatch
100
AcDbLine
 10
47221.64237473404
 20
-4099.896249330952
 30
0.0
 11
47176.64237473404
 21
-4099.896249330952
 31
0.0
  0
LINE
  5
1525
330
2
100
AcDbEntity
  8
0Hatch
100
AcDbLine
 10
47221.64237473404
 20
-4149.896249330952
 30
0.0
 11
47176.61870609497
 21
-4149.896249330952
 31
0.0
  0
LINE
  5
1526
330
2
100
AcDbEntity
  8
0Hatch
100
AcDbLine
 10
46271.64522230386
 20
-3959.896249330952
 30
0.0
 11
46271.64522230386
 21
-3899.896249330952
 31
0.0
  0
LWPOLYLINE
  5
1527
330
2
100
AcDbEntity
  8
0Hatch
100
AcDbPolyline
 90
       13
 70
     0
 43
0.0
 10
47456.64522230389
 20
-3236.852472469065
 10
47456.64522230372
 20
-2969.896249330981
 10
46796.64522230386
 20
-2969.896249330835
 10
46796.64522230386
 20
-3329.896249330952
 10
46586.64522230386
 20
-3329.896249330952
 10
46586.64522230386
 20
-3279.896249330952
 10
46206.64522230386
 20
-3279.896249330952
 10
46206.64522230386
 20
-3959.896249330952
 10
46796.64522230386
 20
-3959.896249330952
 10
46796.64522230386
 20
-4069.896249330951
 10
47856.64522230383
 20
-4069.89624933098
 10
47856.64522230383
 20
-3409.896249330981
 10
47629.68899916569
 20
-3409.896249330952
  0
LWPOLYLINE
  5
1528
330
2
100
AcDbEntity
  8
0Hatch
100
AcDbPolyline
 90
        3
 70
     0
 43
0.0
 10
47449.39081424337
 20
-3296.412304266095
 10
47396.64522230392
 20
-3296.412304266095
 10
47396.64522230386
 20
-3197.159567381168
  0
ARC
  5
152A
330
2
100
AcDbEntity
  8
0Hatch
100
AcDbCircle
 10
-47432.64522230384
 20
-3433.896249330952
 30
0.0
 40
138.5000000000061
210
0.0
220
0.0
230
-1.0
100
AcDbArc
 50
96.94443951877502
 51
173.0555604820526
  0
HATCH
  5
152B
330
2
100
AcDbEntity
  8
0Hatch
100
AcDbHatch
 10
0.0
 20
0.0
 30
0.0
210
0.0
220
0.0
230
1.0
  2
SOLID
 70
     1
 71
     0
 91
        3
 92
        7
 72
     1
 73
     1
 93
       10
 10
47456.64522230389
 20
-3236.852472469065
 42
0.0
 10
47456.64522230383
 20
-3197.159567381197
 42
0.0
 10
47396.64522230386
 20
-3197.159567381197
 42
0.0
 10
47396.64522230389
 20
-3296.412304266095
 42
0.0
 10
47449.39081424337
 20
-3296.412304266095
 42
-0.3448700459005416
 10
47570.12916736869
 20
-3417.150657391409
 42
0.0
 10
47570.12916736861
 20
-3469.896249330981
 42
0.0
 10
47666.64522230386
 20
-3469.896249330981
 42
0.0
 10
47666.64522230386
 20
-3409.896249330952
 42
0.0
 10
47629.68899916569
 20
-3409.896249330952
 42
0.3448700459004313
 97
        0
 92
        7
 72
     0
 73
     1
 93
        4
 10
47221.64237473404
 20
-4099.89624933098
 10
47176.64237473404
 20
-4099.89624933098
 10
47176.618706095
 20
-4149.896249330923
 10
47221.64237473404
 20
-4149.896249330981
 97
        0
 92
        7
 72
     0
 73
     1
 93
        4
 10
47476.6452423039
 20
-4099.896249330952
 10
47431.64524230384
 20
-4099.896249330952
 10
47431.64524230384
 20
-4149.896249330952
 10
47476.66891094291
 20
-4149.896249330952
 97
        0
 75
     0
 76
     1
 47
4.674336321071611
 98
        7
 10
47340.71505034217
 20
-2992.653488123004
 10
47429.57411521499
 20
-3259.090671364829
 10
47808.39449259289
 20
-3436.715475104837
 10
47064.78416371549
 20
-4039.704854491836
 10
47195.7344314676
 20
-4128.517233993683
 10
47462.31170084199
 20
-4133.19155327513
 10
46232.3147699653
 20
-3904.149103230215
  0
DIMENSION
  5
152C
330
2
100
AcDbEntity
  8
0Hatch
100
AcDbDimension
  2
*D59
 10
46586.64522230386
 20
-2533.010229135922
 30
0.0
 11
46396.64522230386
 21
-2453.010229135922
 31
0.0
 70
    32
 71
     5
 42
380.0
  3
500
100
AcDbAlignedDimension
 13
46206.64522230386
 23
-3279.896249330952
 33
0.0
 14
46586.64522230386
 24
-3279.896249330952
 34
0.0
100
AcDbRotatedDimension
  0
DIMENSION
  5
152D
330
2
100
AcDbEntity
  8
0Hatch
100
AcDbDimension
  2
*D60
 10
46796.64522230389
 20
-2533.010229135922
 30
0.0
 11
46691.64522230388
 21
-2453.010229135922
 31
0.0
 70
    32
 71
     5
 42
210.0000000000291
  3
500
100
AcDbAlignedDimension
 13
46586.64522230386
 23
-3279.896249330952
 33
0.0
 14
46796.64522230389
 24
-3279.896249330952
 34
0.0
100
AcDbRotatedDimension
  0
DIMENSION
  5
152E
330
2
100
AcDbEntity
  8
0Hatch
100
AcDbDimension
  2
*D61
 10
47456.64522230372
 20
-2533.010229135922
 30
0.0
 11
47126.64522230379
 21
-2453.010229135922
 31
0.0
 70
    32
 71
     5
 42
659.9999999998544
  3
500
100
AcDbAlignedDimension
 13
46796.64522230386
 23
-2969.896249330835
 33
0.0
 14
47456.64522230372
 24
-2969.896249330981
 34
0.0
100
AcDbRotatedDimension
  0
DIMENSION
  5
152F
330
2
100
AcDbEntity
  8
0Hatch
100
AcDbDimension
  2
*D62
 10
47629.68899916569
 20
-2533.010229135922
 30
0.0
 11
47513.17023856985
 21
-2453.010229135922
 31
0.0
 70
   160
 71
     5
 42
173.0437768618576
  3
500
100
AcDbAlignedDimension
 13
47456.64522230383
 23
-3236.852472469065
 33
0.0
 14
47629.68899916569
 24
-3409.896249330952
 34
0.0
100
AcDbRotatedDimension
  0
DIMENSION
  5
1530
330
2
100
AcDbEntity
  8
0Hatch
100
AcDbDimension
  2
*D63
 10
47856.64522230383
 20
-2533.010229135922
 30
0.0
 11
47743.16711073476
 21
-2453.010229135922
 31
0.0
 70
    32
 71
     5
 42
226.9562231381424
  3
500
100
AcDbAlignedDimension
 13
47629.68899916569
 23
-3409.896249330952
 33
0.0
 14
47856.64522230383
 24
-3409.896249330952
 34
0.0
100
AcDbRotatedDimension
  0
DIMENSION
  5
1531
330
2
100
AcDbEntity
  8
0Hatch
100
AcDbDimension
  2
*D64
 10
45809.64159384672
 20
-3279.896249330952
 30
0.0
 11
45729.64159384672
 21
-3124.896249330886
 31
0.0
 70
    32
 71
     5
 42
310.0000000001164
  3
500
100
AcDbAlignedDimension
 13
46851.22568185656
 23
-2969.896249330835
 33
0.0
 14
46672.24709840771
 24
-3279.896249330952
 34
0.0
 50
90.0
100
AcDbRotatedDimension
  0
DIMENSION
  5
1532
330
2
100
AcDbEntity
  8
0Hatch
100
AcDbDimension
  2
*D65
 10
45809.64159384672
 20
-3959.896249330951
 30
0.0
 11
45729.64159384672
 21
-3619.896249330945
 31
0.0
 70
    32
 71
     5
 42
680.0
  3
500
100
AcDbAlignedDimension
 13
46261.22568185656
 23
-3279.896249330952
 33
0.0
 14
46261.22568185656
 24
-3959.896249330952
 34
0.0
 50
90.0
100
AcDbRotatedDimension
  0
DIMENSION
  5
1533
330
2
100
AcDbEntity
  8
0Hatch
100
AcDbDimension
  2
*D66
 10
45809.64159384672
 20
-4069.896249330951
 30
0.0
 11
45729.64159384672
 21
-4014.896249330944
 31
0.0
 70
    32
 71
     5
 42
110.0
  3
500
100
AcDbAlignedDimension
 13
46796.64522230386
 23
-3959.896249330952
 33
0.0
 14
46796.64522230386
 24
-4069.896249330951
 34
0.0
 50
90.0
100
AcDbRotatedDimension
  0
DIMENSION
  5
1534
330
2
100
AcDbEntity
  8
0Hatch
100
AcDbDimension
  2
*D67
 10
48421.83555811888
 20
-3236.852472469066
 30
0.0
 11
48341.83555811885
 21
-3079.274534515629
 31
0.0
 70
   160
 71
     5
 42
266.9562231381133
  3
500
100
AcDbAlignedDimension
 13
47456.64522230386
 23
-2969.896249330952
 33
0.0
 14
47456.64522230383
 24
-3236.852472469065
 34
0.0
 50
90.0
100
AcDbRotatedDimension
  0
DIMENSION
  5
1535
330
2
100
AcDbEntity
  8
0Hatch
100
AcDbDimension
  2
*D68
 10
48421.83555811888
 20
-3409.896249330952
 30
0.0
 11
48341.83555811888
 21
-3323.374360900002
 31
0.0
 70
    32
 71
     5
 42
173.0437768618867
  3
500
100
AcDbAlignedDimension
 13
47456.64522230389
 23
-3236.852472469065
 33
0.0
 14
47629.68899916572
 24
-3409.896249330952
 34
0.0
 50
90.0
100
AcDbRotatedDimension
  0
DIMENSION
  5
1536
330
2
100
AcDbEntity
  8
0Hatch
100
AcDbDimension
  2
*D69
 10
48421.83555811888
 20
-4069.896249330981
 30
0.0
 11
48341.83555811888
 21
-3739.896249330959
 31
0.0
 70
    32
 71
     5
 42
660.000000000029
  3
500
100
AcDbAlignedDimension
 13
47856.64522230386
 23
-3409.896249330952
 33
0.0
 14
47856.64522230383
 24
-4069.89624933098
 34
0.0
 50
90.0
100
AcDbRotatedDimension
  0
DIMENSION
  5
1537
330
2
100
AcDbEntity
  8
0Hatch
100
AcDbDimension
  2
*D70
 10
46796.64522230386
 20
-4750.317775304487
 30
0.0
 11
46501.64522230387
 21
-4670.317775304487
 31
0.0
 70
    32
 71
     5
 42
590.0
  3
500
100
AcDbAlignedDimension
 13
46206.64522230386
 23
-4023.105182085448
 33
0.0
 14
46796.64522230386
 24
-4023.105182085448
 34
0.0
100
AcDbRotatedDimension
  0
DIMENSION
  5
1538
330
2
100
AcDbEntity
  8
0Hatch
100
AcDbDimension
  2
*D71
 10
47856.64522230383
 20
-4750.317775304487
 30
0.0
 11
47326.64522230384
 21
-4670.317775304487
 31
0.0
 70
    32
 71
     5
 42
1059.999999999971
  3
500
100
AcDbAlignedDimension
 13
46796.64522230386
 23
-4133.105182085448
 33
0.0
 14
47856.64522230383
 24
-4133.105182085477
 34
0.0
100
AcDbRotatedDimension
  0
LWPOLYLINE
  5
17F8
330
2
100
AcDbEntity
  8
0Hatch
100
AcDbPolyline
 90
        3
 70
     0
 43
0.0
 10
47666.64522230386
 20
-3469.896249330965
 10
47570.12916736866
 20
-3469.896249330952
 10
47570.12916736869
 20
-3417.150657391409
  0
LWPOLYLINE
  5
17FA
330
2
100
AcDbEntity
  8
0Hatch
100
AcDbPolyline
 90
       13
 70
     0
 43
0.0
 10
47396.64522230389
 20
-3236.852472469105
 10
47396.64522230376
 20
-3029.896249330969
 10
46856.64522230386
 20
-3029.896249330849
 10
46856.64522230386
 20
-3389.896249330952
 10
46526.64522230386
 20
-3389.896249330952
 10
46526.64522230386
 20
-3339.896249330953
 10
46266.64522230386
 20
-3339.896249330952
 10
46266.64522230386
 20
-3899.896249330952
 10
46856.64522230386
 20
-3899.896249330952
 10
46856.64522230386
 20
-4009.896249330953
 10
47796.64522230383
 20
-4009.896249330979
 10
47796.64522230383
 20
-3469.896249330974
 10
47629.68899916567
 20
-3469.896249330952
  0
LWPOLYLINE
  5
18E5
330
2
100
AcDbEntity
  8
0Hatch
100
AcDbPolyline
 90
        4
 70
     0
 43
60.0
 10
47406.64522230386
 20
-4039.896249330967
 10
47826.64522230383
 20
-4039.89624933098
 10
47826.64522230383
 20
-3439.896249330978
 10
47666.64522230386
 20
-3439.896249330978
  0
LWPOLYLINE
  5
18E6
330
2
100
AcDbEntity
  8
0Hatch
100
AcDbPolyline
 90
        9
 70
     0
 43
60.0
 10
47426.64522230387
 20
-3207.258937291662
 10
47426.64522230391
 20
-2999.896249330975
 10
46826.64522230386
 20
-2999.896249330975
 10
46826.64522230386
 20
-3359.896249330952
 10
46556.64522230386
 20
-3359.896249330952
 10
46556.64522230386
 20
-3309.896249330952
 10
46236.64522230386
 20
-3309.896249330952
 10
46236.64522230386
 20
-3929.896249330952
 10
46271.64522230386
 20
-3929.896249330952
  0
LWPOLYLINE
  5
18E7
330
2
100
AcDbEntity
  8
0Hatch
100
AcDbPolyline
 90
        4
 70
     0
 43
60.0
 10
46731.64522230386
 20
-3929.896249330952
 10
46826.64522230386
 20
-3929.896249330952
 10
46826.64522230386
 20
-4039.896249330952
 10
47246.64522230386
 20
-4039.896249330952
  0
TEXT
  5
18E8
330
2
100
AcDbEntity
  8
NAPISY
370
     5
100
AcDbText
 10
49099.28562801689
 20
-5735.609399178968
 30
0.0000000000009607
 40
100.0
  1
OŚ ODBICIA LUSTRZANEGO
 50
90.0
  7
AVA
100
AcDbText
  0
LINE
  5
18E9
330
2
100
AcDbEntity
  8
0Hatch
100
AcDbLine
 10
50650.96838771657
 20
-3469.896249330952
 30
0.0
 11
50650.96838771657
 21
-3409.896249330952
 31
0.0
  0
LINE
  5
18EA
330
2
100
AcDbEntity
  8
0Hatch
100
AcDbLine
 10
50650.96838771657
 20
-3409.896249330952
 30
0.0
 11
50650.96838771657
 21
-3469.896249330981
 31
0.0
  0
LINE
  5
18EB
330
2
100
AcDbEntity
  8
0Hatch
100
AcDbLine
 10
50860.96838771656
 20
-3197.159567381168
 30
0.0
 11
50920.96838771657
 21
-3197.159567381168
 31
0.0
  0
ARC
  5
18EC
330
2
100
AcDbEntity
  8
0Hatch
100
AcDbCircle
 10
-50884.96838771659
 20
-3433.896249330952
 30
0.0
 40
198.5000000000061
210
0.0
220
0.0
230
-1.0
100
AcDbArc
 50
6.944439517909633
 51
83.05556048122552
  0
LINE
  5
18ED
330
2
100
AcDbEntity
  8
0Hatch
100
AcDbLine
 10
50910.96838771656
 20
-4009.896249330981
 30
0.0
 11
50910.96838771656
 21
-4069.896249330951
 31
0.0
  0
LINE
  5
18EE
330
2
100
AcDbEntity
  8
0Hatch
100
AcDbLine
 10
51070.96838771656
 20
-4069.896249330951
 30
0.0
 11
51070.96838771656
 21
-4009.896249330952
 31
0.0
  0
LINE
  5
18EF
330
2
100
AcDbEntity
  8
0Hatch
100
AcDbLine
 10
51881.96838771657
 20
-3339.896249330952
 30
0.0
 11
51881.96838771657
 21
-3279.896249330952
 31
0.0
  0
LINE
  5
18F0
330
2
100
AcDbEntity
  8
0Hatch
100
AcDbLine
 10
51585.96838771656
 20
-3899.896249330952
 30
0.0
 11
51585.96838771656
 21
-3959.896249330952
 31
0.0
  0
LINE
  5
18F1
330
2
100
AcDbEntity
  8
0Hatch
100
AcDbLine
 10
50885.96836771656
 20
-4149.896249330952
 30
0.0
 11
50840.94469907752
 21
-4149.896249330952
 31
0.0
  0
LINE
  5
18F2
330
2
100
AcDbEntity
  8
0Hatch
100
AcDbLine
 10
50885.96836771656
 20
-4099.896249330952
 30
0.0
 11
50840.96836771656
 21
-4099.896249330952
 31
0.0
  0
LINE
  5
18F3
330
2
100
AcDbEntity
  8
0Hatch
100
AcDbLine
 10
50840.96836771656
 20
-4099.896249330952
 30
0.0
 11
50840.94469907752
 21
-4149.896249330952
 31
0.0
  0
LINE
  5
18F4
330
2
100
AcDbEntity
  8
0Hatch
100
AcDbLine
 10
50885.96836771656
 20
-4149.896249330952
 30
0.0
 11
50885.96836771656
 21
-4099.896249330952
 31
0.0
  0
LINE
  5
18F5
330
2
100
AcDbEntity
  8
0Hatch
100
AcDbLine
 10
51160.12072012978
 20
-4199.896249330952
 30
0.0
 11
51171.75383194823
 21
-4229.896249330951
 31
0.0
  0
LINE
  5
18F6
330
2
100
AcDbEntity
  8
0Hatch
100
AcDbLine
 10
51171.75383194823
 20
-4229.896249330951
 30
0.0
 11
50810.18294348488
 21
-4229.896249330951
 31
0.0
  0
LINE
  5
18F7
330
2
100
AcDbEntity
  8
0Hatch
100
AcDbLine
 10
50810.18294348488
 20
-4229.896249330951
 30
0.0
 11
50821.81605530335
 21
-4199.896249330952
 31
0.0
  0
LINE
  5
18F8
330
2
100
AcDbEntity
  8
0Hatch
100
AcDbLine
 10
50828.46838771656
 20
-4169.896249330951
 30
0.0
 11
50828.46838771656
 21
-4069.896249330951
 31
0.0
  0
LINE
  5
18F9
330
2
100
AcDbEntity
  8
0Hatch
100
AcDbLine
 10
51153.46838771657
 20
-4069.896249330951
 30
0.0
 11
51153.46838771657
 21
-4169.896249330951
 31
0.0
  0
LINE
  5
18FA
330
2
100
AcDbEntity
  8
0Hatch
100
AcDbLine
 10
51153.46838771657
 20
-4169.896249330951
 30
0.0
 11
51160.12072012978
 21
-4199.896249330952
 31
0.0
  0
LINE
  5
18FB
330
2
100
AcDbEntity
  8
0Hatch
100
AcDbLine
 10
51160.12072012978
 20
-4199.896249330952
 30
0.0
 11
50821.81605530335
 21
-4199.896249330952
 31
0.0
  0
LINE
  5
18FC
330
2
100
AcDbEntity
  8
0Hatch
100
AcDbLine
 10
50821.81605530335
 20
-4199.896249330952
 30
0.0
 11
50828.46838771656
 21
-4169.896249330951
 31
0.0
  0
3DFACE
  5
18FD
330
2
100
AcDbEntity
  8
0Hatch
100
AcDbFace
 10
51153.46838771657
 20
-4069.896249330951
 30
0.0
 11
51153.46838771657
 21
-4169.896249330951
 31
0.0
 12
51153.46838771657
 22
-4169.896249330951
 32
0.0
 13
51153.46838771657
 23
-4069.896249330951
 33
0.0
  0
3DFACE
  5
18FE
330
2
100
AcDbEntity
  8
0Hatch
100
AcDbFace
 10
51173.46838771656
 20
-4069.896249330951
 30
0.0
 11
51153.46838771657
 21
-4069.896249330951
 31
0.0
 12
51153.46838771657
 22
-4069.896249330951
 32
0.0
 13
51173.46838771656
 23
-4069.896249330951
 33
0.0
  0
3DFACE
  5
18FF
330
2
100
AcDbEntity
  8
0Hatch
100
AcDbFace
 10
51186.29159186885
 20
-4255.388261382235
 30
0.0
 11
51212.10007670673
 21
-4286.835991147265
 31
0.0
 12
51212.10007670673
 22
-4286.835991147265
 32
0.0
 13
51186.29159186885
 23
-4255.388261382235
 33
0.0
  0
3DFACE
  5
1900
330
2
100
AcDbEntity
  8
0Hatch
100
AcDbFace
 10
51167.11415755688
 20
-4219.5098053088
 30
0.0
 11
51186.29159186885
 21
-4255.388261382235
 31
0.0
 12
51186.29159186885
 22
-4255.388261382235
 32
0.0
 13
51167.11415755688
 23
-4219.5098053088
 33
0.0
  0
3DFACE
  5
1901
330
2
100
AcDbEntity
  8
0Hatch
100
AcDbFace
 10
51155.30475181661
 20
-4180.579411873041
 30
0.0
 11
51167.11415755688
 21
-4219.5098053088
 31
0.0
 12
51167.11415755688
 22
-4219.5098053088
 32
0.0
 13
51155.30475181661
 23
-4180.579411873041
 33
0.0
  0
3DFACE
  5
1902
330
2
100
AcDbEntity
  8
0Hatch
100
AcDbFace
 10
51153.46838771657
 20
-4169.896249330951
 30
0.0
 11
51155.30475181661
 21
-4180.579411873041
 31
0.0
 12
51155.30475181661
 22
-4180.579411873041
 32
0.0
 13
51153.46838771657
 23
-4169.896249330951
 33
0.0
  0
3DFACE
  5
1903
330
2
100
AcDbEntity
  8
0Hatch
100
AcDbFace
 10
51173.46838771656
 20
-4170.082720910315
 30
0.0
 11
51173.46838771656
 21
-4169.896249330951
 31
0.0
 12
51173.46838771656
 22
-4069.896249330951
 32
0.0
 13
51173.46838771656
 23
-4170.082720910315
 33
0.0
 70
     2
  0
3DFACE
  5
1904
330
2
100
AcDbEntity
  8
0Hatch
100
AcDbFace
 10
51173.46838771656
 20
-4069.896249330951
 30
0.0
 11
51173.46838771656
 21
-4069.896249330951
 31
0.0
 12
51173.46838771656
 22
-4169.896249330951
 32
0.0
 13
51173.46838771656
 23
-4169.896249330951
 33
0.0
 70
     2
  0
3DFACE
  5
1905
330
2
100
AcDbEntity
  8
0Hatch
100
AcDbFace
 10
51175.62094514863
 20
-4180.976873786276
 30
0.0
 11
51173.46838771656
 21
-4170.082720910315
 31
0.0
 12
51173.46838771656
 22
-4170.082720910315
 32
0.0
 13
51175.62094514863
 23
-4180.976873786276
 33
0.0
  0
3DFACE
  5
1906
330
2
100
AcDbEntity
  8
0Hatch
100
AcDbFace
 10
51189.62686323182
 20
-4221.00348802621
 30
0.0
 11
51175.62094514863
 21
-4180.976873786276
 31
0.0
 12
51175.62094514863
 22
-4180.976873786276
 32
0.0
 13
51189.62686323182
 23
-4221.00348802621
 33
0.0
  0
3DFACE
  5
1907
330
2
100
AcDbEntity
  8
0Hatch
100
AcDbFace
 10
51212.18838329066
 20
-4256.909941506048
 30
0.0
 11
51189.62686323182
 21
-4221.00348802621
 31
0.0
 12
51189.62686323182
 22
-4221.00348802621
 32
0.0
 13
51212.18838329066
 23
-4256.909941506048
 33
0.0
  0
3DFACE
  5
1908
330
2
100
AcDbEntity
  8
0Hatch
100
AcDbFace
 10
51242.17417650064
 20
-4286.895734716032
 30
0.0
 11
51212.18838329066
 21
-4256.909941506048
 31
0.0
 12
51212.18838329066
 22
-4256.909941506048
 32
0.0
 13
51242.17417650064
 23
-4286.895734716032
 33
0.0
  0
3DFACE
  5
1909
330
2
100
AcDbEntity
  8
0Hatch
100
AcDbFace
 10
51246.0380496837
 20
-4289.896249330952
 30
0.0
 11
51242.17417650064
 21
-4286.895734716032
 31
0.0
 12
51242.17417650064
 22
-4286.895734716032
 32
0.0
 13
51246.0380496837
 23
-4289.896249330952
 33
0.0
  0
3DFACE
  5
190A
330
2
100
AcDbEntity
  8
0Hatch
100
AcDbFace
 10
51233.9763216734
 20
-4305.849766730098
 30
0.0
 11
51246.0380496837
 21
-4289.896249330952
 31
0.0
 12
51246.0380496837
 22
-4289.896249330952
 32
0.0
 13
51233.9763216734
 23
-4305.849766730098
 33
0.0
  0
3DFACE
  5
190B
330
2
100
AcDbEntity
  8
0Hatch
100
AcDbFace
 10
51212.10007670673
 20
-4286.835991147265
 30
0.0
 11
51233.9763216734
 21
-4305.849766730098
 31
0.0
 12
51233.9763216734
 22
-4305.849766730098
 32
0.0
 13
51212.10007670673
 23
-4286.835991147265
 33
0.0
  0
3DFACE
  5
190C
330
2
100
AcDbEntity
  8
0Hatch
100
AcDbFace
 10
51233.9763216734
 20
-4305.849766730098
 30
0.0
 11
51246.0380496837
 21
-4289.896249330952
 31
0.0
 12
51242.17417650064
 22
-4286.895734716032
 32
0.0
 13
51242.17417650064
 23
-4286.895734716032
 33
0.0
 70
    12
  0
3DFACE
  5
190D
330
2
100
AcDbEntity
  8
0Hatch
100
AcDbFace
 10
51233.9763216734
 20
-4305.849766730098
 30
0.0
 11
51242.17417650064
 21
-4286.895734716032
 31
0.0
 12
51212.18838329066
 22
-4256.909941506048
 32
0.0
 13
51212.18838329066
 23
-4256.909941506048
 33
0.0
 70
    13
  0
3DFACE
  5
190E
330
2
100
AcDbEntity
  8
0Hatch
100
AcDbFace
 10
51189.62686323182
 20
-4221.00348802621
 30
0.0
 11
51212.10007670673
 21
-4286.835991147265
 31
0.0
 12
51233.9763216734
 22
-4305.849766730098
 32
0.0
 13
51212.18838329066
 23
-4256.909941506048
 33
0.0
 70
     5
  0
3DFACE
  5
190F
330
2
100
AcDbEntity
  8
0Hatch
100
AcDbFace
 10
51175.62094514863
 20
-4180.976873786276
 30
0.0
 11
51186.29159186885
 21
-4255.388261382235
 31
0.0
 12
51212.10007670673
 22
-4286.835991147265
 32
0.0
 13
51189.62686323182
 23
-4221.00348802621
 33
0.0
 70
     5
  0
3DFACE
  5
1910
330
2
100
AcDbEntity
  8
0Hatch
100
AcDbFace
 10
51173.46838771656
 20
-4170.082720910315
 30
0.0
 11
51167.11415755688
 21
-4219.5098053088
 31
0.0
 12
51186.29159186885
 22
-4255.388261382235
 32
0.0
 13
51175.62094514863
 23
-4180.976873786276
 33
0.0
 70
     5
  0
3DFACE
  5
1911
330
2
100
AcDbEntity
  8
0Hatch
100
AcDbFace
 10
51153.46838771657
 20
-4069.896249330951
 30
0.0
 11
51153.46838771657
 21
-4169.896249330951
 31
0.0
 12
51173.46838771656
 22
-4170.082720910315
 32
0.0
 13
51173.46838771656
 23
-4069.896249330951
 33
0.0
 70
     2
  0
3DFACE
  5
1912
330
2
100
AcDbEntity
  8
0Hatch
100
AcDbFace
 10
51153.46838771657
 20
-4169.896249330951
 30
0.0
 11
51155.30475181661
 21
-4180.579411873041
 31
0.0
 12
51167.11415755688
 22
-4219.5098053088
 32
0.0
 13
51173.46838771656
 23
-4170.082720910315
 33
0.0
 70
    12
  0
3DFACE
  5
1913
330
2
100
AcDbEntity
  8
0Hatch
100
AcDbFace
 10
51173.46838771656
 20
-4169.896249330951
 30
0.0
 11
51153.46838771657
 21
-4169.896249330951
 31
0.0
 12
51153.46838771657
 22
-4069.896249330951
 32
0.0
 13
51173.46838771656
 23
-4069.896249330951
 33
0.0
  0
3DFACE
  5
1914
330
2
100
AcDbEntity
  8
0Hatch
100
AcDbFace
 10
51153.46838771657
 20
-4169.896249330951
 30
0.0
 11
51173.46838771656
 21
-4169.896249330951
 31
0.0
 12
51173.46838771656
 22
-4170.082720910315
 32
0.0
 13
51173.46838771656
 23
-4170.082720910315
 33
0.0
 70
    12
  0
3DFACE
  5
1915
330
2
100
AcDbEntity
  8
0Hatch
100
AcDbFace
 10
51153.46838771657
 20
-4169.896249330951
 30
0.0
 11
51173.46838771656
 21
-4170.082720910315
 31
0.0
 12
51175.62094514863
 22
-4180.976873786276
 32
0.0
 13
51175.62094514863
 23
-4180.976873786276
 33
0.0
 70
    13
  0
3DFACE
  5
1916
330
2
100
AcDbEntity
  8
0Hatch
100
AcDbFace
 10
51153.46838771657
 20
-4169.896249330951
 30
0.0
 11
51175.62094514863
 21
-4180.976873786276
 31
0.0
 12
51189.62686323182
 22
-4221.00348802621
 32
0.0
 13
51189.62686323182
 23
-4221.00348802621
 33
0.0
 70
    13
  0
3DFACE
  5
1917
330
2
100
AcDbEntity
  8
0Hatch
100
AcDbFace
 10
51212.18838329066
 20
-4256.909941506048
 30
0.0
 11
51155.30475181661
 21
-4180.579411873041
 31
0.0
 12
51153.46838771657
 22
-4169.896249330951
 32
0.0
 13
51189.62686323182
 23
-4221.00348802621
 33
0.0
 70
     5
  0
3DFACE
  5
1918
330
2
100
AcDbEntity
  8
0Hatch
100
AcDbFace
 10
51167.11415755688
 20
-4219.5098053088
 30
0.0
 11
51155.30475181661
 21
-4180.579411873041
 31
0.0
 12
51212.18838329066
 22
-4256.909941506048
 32
0.0
 13
51212.18838329066
 23
-4256.909941506048
 33
0.0
 70
    14
  0
3DFACE
  5
1919
330
2
100
AcDbEntity
  8
0Hatch
100
AcDbFace
 10
51242.17417650064
 20
-4286.895734716032
 30
0.0
 11
51186.29159186885
 21
-4255.388261382235
 31
0.0
 12
51167.11415755688
 22
-4219.5098053088
 32
0.0
 13
51212.18838329066
 23
-4256.909941506048
 33
0.0
 70
     5
  0
3DFACE
  5
191A
330
2
100
AcDbEntity
  8
0Hatch
100
AcDbFace
 10
51233.9763216734
 20
-4305.849766730098
 30
0.0
 11
51212.10007670673
 21
-4286.835991147265
 31
0.0
 12
51242.17417650064
 22
-4286.895734716032
 32
0.0
 13
51246.0380496837
 23
-4289.896249330952
 33
0.0
 70
     2
  0
3DFACE
  5
191B
330
2
100
AcDbEntity
  8
0Hatch
100
AcDbFace
 10
51186.29159186885
 20
-4255.388261382235
 30
0.0
 11
51242.17417650064
 21
-4286.895734716032
 31
0.0
 12
51212.10007670673
 22
-4286.835991147265
 32
0.0
 13
51212.10007670673
 23
-4286.835991147265
 33
0.0
 70
     3
  0
LINE
  5
191C
330
2
100
AcDbEntity
  8
0Hatch
100
AcDbLine
 10
51520.96838771656
 20
-3959.896249330952
 30
0.0
 11
52090.96838771657
 21
-3959.896249330952
 31
0.0
  0
LINE
  5
191D
330
2
100
AcDbEntity
  8
0Hatch
100
AcDbLine
 10
51520.96838771656
 20
-4069.896249330951
 30
0.0
 11
51520.96838771656
 21
-3959.896249330952
 31
0.0
  0
LINE
  5
191E
330
2
100
AcDbEntity
  8
0Hatch
100
AcDbLine
 10
51520.96838771656
 20
-4069.896249330951
 30
0.0
 11
52090.96838771657
 21
-4069.896249330951
 31
0.0
  0
LINE
  5
191F
330
2
100
AcDbEntity
  8
0Hatch
100
AcDbLine
 10
52090.96838771657
 20
-4069.896249330951
 30
0.0
 11
52090.96838771657
 21
-3959.896249330952
 31
0.0
  0
LINE
  5
1920
330
2
100
AcDbEntity
  8
0Hatch
100
AcDbLine
 10
52090.96838771657
 20
-3981.896249330952
 30
0.0
 11
51520.96838771656
 21
-3981.896249330952
 31
0.0
  0
3DFACE
  5
1921
330
2
100
AcDbEntity
  8
0Hatch
100
AcDbFace
 10
50828.46838771656
 20
-4069.896249330951
 30
0.0
 11
50828.46838771656
 21
-4069.896249330951
 31
0.0
 12
50828.46838771656
 22
-4169.896249330951
 32
0.0
 13
50828.46838771656
 23
-4169.896249330951
 33
0.0
  0
3DFACE
  5
1922
330
2
100
AcDbEntity
  8
0Hatch
100
AcDbFace
 10
50808.46838771656
 20
-4069.896249330951
 30
0.0
 11
50808.46838771656
 21
-4069.896249330951
 31
0.0
 12
50828.46838771656
 22
-4069.896249330951
 32
0.0
 13
50828.46838771656
 23
-4069.896249330951
 33
0.0
  0
3DFACE
  5
1923
330
2
100
AcDbEntity
  8
0Hatch
100
AcDbFace
 10
50795.64518356431
 20
-4255.388261382235
 30
0.0
 11
50795.64518356431
 21
-4255.388261382235
 31
0.0
 12
50769.83669872642
 22
-4286.835991147265
 32
0.0
 13
50769.83669872642
 23
-4286.835991147265
 33
0.0
  0
3DFACE
  5
1924
330
2
100
AcDbEntity
  8
0Hatch
100
AcDbFace
 10
50814.82261787625
 20
-4219.5098053088
 30
0.0
 11
50814.82261787625
 21
-4219.5098053088
 31
0.0
 12
50795.64518356431
 22
-4255.388261382235
 32
0.0
 13
50795.64518356431
 23
-4255.388261382235
 33
0.0
  0
3DFACE
  5
1925
330
2
100
AcDbEntity
  8
0Hatch
100
AcDbFace
 10
50826.63202361652
 20
-4180.579411873041
 30
0.0
 11
50826.63202361652
 21
-4180.579411873041
 31
0.0
 12
50814.82261787625
 22
-4219.5098053088
 32
0.0
 13
50814.82261787625
 23
-4219.5098053088
 33
0.0
  0
3DFACE
  5
1926
330
2
100
AcDbEntity
  8
0Hatch
100
AcDbFace
 10
50828.46838771656
 20
-4169.896249330951
 30
0.0
 11
50828.46838771656
 21
-4169.896249330951
 31
0.0
 12
50826.63202361652
 22
-4180.579411873041
 32
0.0
 13
50826.63202361652
 23
-4180.579411873041
 33
0.0
  0
3DFACE
  5
1927
330
2
100
AcDbEntity
  8
0Hatch
100
AcDbFace
 10
50808.46838771656
 20
-4069.896249330951
 30
0.0
 11
50808.46838771656
 21
-4069.896249330951
 31
0.0
 12
50808.46838771656
 22
-4170.082720910315
 32
0.0
 13
50808.46838771656
 23
-4170.082720910315
 33
0.0
 70
     2
  0
3DFACE
  5
1928
330
2
100
AcDbEntity
  8
0Hatch
100
AcDbFace
 10
50808.46838771656
 20
-4169.896249330951
 30
0.0
 11
50808.46838771656
 21
-4170.082720910315
 31
0.0
 12
50808.46838771656
 22
-4069.896249330951
 32
0.0
 13
50808.46838771656
 23
-4069.896249330951
 33
0.0
 70
     2
  0
3DFACE
  5
1929
330
2
100
AcDbEntity
  8
0Hatch
100
AcDbFace
 10
50806.31583028452
 20
-4180.976873786276
 30
0.0
 11
50806.31583028452
 21
-4180.976873786276
 31
0.0
 12
50808.46838771656
 22
-4170.082720910315
 32
0.0
 13
50808.46838771656
 23
-4170.082720910315
 33
0.0
  0
3DFACE
  5
192A
330
2
100
AcDbEntity
  8
0Hatch
100
AcDbFace
 10
50792.3099122013
 20
-4221.00348802621
 30
0.0
 11
50792.3099122013
 21
-4221.00348802621
 31
0.0
 12
50806.31583028452
 22
-4180.976873786276
 32
0.0
 13
50806.31583028452
 23
-4180.976873786276
 33
0.0
  0
3DFACE
  5
192B
330
2
100
AcDbEntity
  8
0Hatch
100
AcDbFace
 10
50769.74839214249
 20
-4256.909941506048
 30
0.0
 11
50769.74839214249
 21
-4256.909941506048
 31
0.0
 12
50792.3099122013
 22
-4221.00348802621
 32
0.0
 13
50792.3099122013
 23
-4221.00348802621
 33
0.0
  0
3DFACE
  5
192C
330
2
100
AcDbEntity
  8
0Hatch
100
AcDbFace
 10
50739.76259893251
 20
-4286.895734716032
 30
0.0
 11
50739.76259893251
 21
-4286.895734716032
 31
0.0
 12
50769.74839214249
 22
-4256.909941506048
 32
0.0
 13
50769.74839214249
 23
-4256.909941506048
 33
0.0
  0
3DFACE
  5
192D
330
2
100
AcDbEntity
  8
0Hatch
100
AcDbFace
 10
50735.89872574945
 20
-4289.896249330952
 30
0.0
 11
50735.89872574945
 21
-4289.896249330952
 31
0.0
 12
50739.76259893251
 22
-4286.895734716032
 32
0.0
 13
50739.76259893251
 23
-4286.895734716032
 33
0.0
  0
3DFACE
  5
192E
330
2
100
AcDbEntity
  8
0Hatch
100
AcDbFace
 10
50747.96045375976
 20
-4305.849766730098
 30
0.0
 11
50747.96045375976
 21
-4305.849766730098
 31
0.0
 12
50735.89872574945
 22
-4289.896249330952
 32
0.0
 13
50735.89872574945
 23
-4289.896249330952
 33
0.0
  0
3DFACE
  5
192F
330
2
100
AcDbEntity
  8
0Hatch
100
AcDbFace
 10
50769.83669872642
 20
-4286.835991147265
 30
0.0
 11
50769.83669872642
 21
-4286.835991147265
 31
0.0
 12
50747.96045375976
 22
-4305.849766730098
 32
0.0
 13
50747.96045375976
 23
-4305.849766730098
 33
0.0
  0
3DFACE
  5
1930
330
2
100
AcDbEntity
  8
0Hatch
100
AcDbFace
 10
50828.46838771656
 20
-4069.896249330951
 30
0.0
 11
50808.46838771656
 21
-4069.896249330951
 31
0.0
 12
50808.46838771656
 22
-4170.082720910315
 32
0.0
 13
50808.46838771656
 23
-4170.082720910315
 33
0.0
 70
    12
  0
3DFACE
  5
1931
330
2
100
AcDbEntity
  8
0Hatch
100
AcDbFace
 10
50806.31583028452
 20
-4180.976873786276
 30
0.0
 11
50828.46838771656
 21
-4169.896249330951
 31
0.0
 12
50828.46838771656
 22
-4069.896249330951
 32
0.0
 13
50808.46838771656
 23
-4170.082720910315
 33
0.0
 70
     5
  0
3DFACE
  5
1932
330
2
100
AcDbEntity
  8
0Hatch
100
AcDbFace
 10
50828.46838771656
 20
-4169.896249330951
 30
0.0
 11
50806.31583028452
 21
-4180.976873786276
 31
0.0
 12
50792.3099122013
 22
-4221.00348802621
 32
0.0
 13
50792.3099122013
 23
-4221.00348802621
 33
0.0
 70
    13
  0
3DFACE
  5
1933
330
2
100
AcDbEntity
  8
0Hatch
100
AcDbFace
 10
50769.74839214249
 20
-4256.909941506048
 30
0.0
 11
50826.63202361652
 21
-4180.579411873041
 31
0.0
 12
50828.46838771656
 22
-4169.896249330951
 32
0.0
 13
50792.3099122013
 23
-4221.00348802621
 33
0.0
 70
     5
  0
3DFACE
  5
1934
330
2
100
AcDbEntity
  8
0Hatch
100
AcDbFace
 10
50814.82261787625
 20
-4219.5098053088
 30
0.0
 11
50826.63202361652
 21
-4180.579411873041
 31
0.0
 12
50769.74839214249
 22
-4256.909941506048
 32
0.0
 13
50769.74839214249
 23
-4256.909941506048
 33
0.0
 70
    14
  0
3DFACE
  5
1935
330
2
100
AcDbEntity
  8
0Hatch
100
AcDbFace
 10
50739.76259893251
 20
-4286.895734716032
 30
0.0
 11
50795.64518356431
 21
-4255.388261382235
 31
0.0
 12
50814.82261787625
 22
-4219.5098053088
 32
0.0
 13
50769.74839214249
 23
-4256.909941506048
 33
0.0
 70
     5
  0
3DFACE
  5
1936
330
2
100
AcDbEntity
  8
0Hatch
100
AcDbFace
 10
50747.96045375976
 20
-4305.849766730098
 30
0.0
 11
50769.83669872642
 21
-4286.835991147265
 31
0.0
 12
50739.76259893251
 22
-4286.895734716032
 32
0.0
 13
50735.89872574945
 23
-4289.896249330952
 33
0.0
 70
     2
  0
3DFACE
  5
1937
330
2
100
AcDbEntity
  8
0Hatch
100
AcDbFace
 10
50795.64518356431
 20
-4255.388261382235
 30
0.0
 11
50739.76259893251
 21
-4286.895734716032
 31
0.0
 12
50769.83669872642
 22
-4286.835991147265
 32
0.0
 13
50769.83669872642
 23
-4286.835991147265
 33
0.0
 70
     3
  0
3DFACE
  5
1938
330
2
100
AcDbEntity
  8
0Hatch
100
AcDbFace
 10
50808.46838771656
 20
-4169.896249330951
 30
0.0
 11
50808.46838771656
 21
-4069.896249330951
 31
0.0
 12
50828.46838771656
 22
-4069.896249330951
 32
0.0
 13
50828.46838771656
 23
-4169.896249330951
 33
0.0
  0
3DFACE
  5
1939
330
2
100
AcDbEntity
  8
0Hatch
100
AcDbFace
 10
50747.96045375976
 20
-4305.849766730098
 30
0.0
 11
50735.89872574945
 21
-4289.896249330952
 31
0.0
 12
50739.76259893251
 22
-4286.895734716032
 32
0.0
 13
50739.76259893251
 23
-4286.895734716032
 33
0.0
 70
    12
  0
3DFACE
  5
193A
330
2
100
AcDbEntity
  8
0Hatch
100
AcDbFace
 10
50747.96045375976
 20
-4305.849766730098
 30
0.0
 11
50739.76259893251
 21
-4286.895734716032
 31
0.0
 12
50769.74839214249
 22
-4256.909941506048
 32
0.0
 13
50769.74839214249
 23
-4256.909941506048
 33
0.0
 70
    13
  0
3DFACE
  5
193B
330
2
100
AcDbEntity
  8
0Hatch
100
AcDbFace
 10
50792.3099122013
 20
-4221.00348802621
 30
0.0
 11
50769.83669872642
 21
-4286.835991147265
 31
0.0
 12
50747.96045375976
 22
-4305.849766730098
 32
0.0
 13
50769.74839214249
 23
-4256.909941506048
 33
0.0
 70
     5
  0
3DFACE
  5
193C
330
2
100
AcDbEntity
  8
0Hatch
100
AcDbFace
 10
50806.31583028452
 20
-4180.976873786276
 30
0.0
 11
50795.64518356431
 21
-4255.388261382235
 31
0.0
 12
50769.83669872642
 22
-4286.835991147265
 32
0.0
 13
50792.3099122013
 23
-4221.00348802621
 33
0.0
 70
     5
  0
3DFACE
  5
193D
330
2
100
AcDbEntity
  8
0Hatch
100
AcDbFace
 10
50808.46838771656
 20
-4170.082720910315
 30
0.0
 11
50814.82261787625
 21
-4219.5098053088
 31
0.0
 12
50795.64518356431
 22
-4255.388261382235
 32
0.0
 13
50806.31583028452
 23
-4180.976873786276
 33
0.0
 70
     5
  0
3DFACE
  5
193E
330
2
100
AcDbEntity
  8
0Hatch
100
AcDbFace
 10
50828.46838771656
 20
-4169.896249330951
 30
0.0
 11
50826.63202361652
 21
-4180.579411873041
 31
0.0
 12
50808.46838771656
 22
-4170.082720910315
 32
0.0
 13
50808.46838771656
 23
-4169.896249330951
 33
0.0
 70
     2
  0
3DFACE
  5
193F
330
2
100
AcDbEntity
  8
0Hatch
100
AcDbFace
 10
50814.82261787625
 20
-4219.5098053088
 30
0.0
 11
50808.46838771656
 21
-4170.082720910315
 31
0.0
 12
50826.63202361652
 22
-4180.579411873041
 32
0.0
 13
50826.63202361652
 23
-4180.579411873041
 33
0.0
 70
     3
  0
LINE
  5
1940
330
2
100
AcDbEntity
  8
0Hatch
100
AcDbLine
 10
50890.96838771657
 20
-2969.896249330952
 30
0.0
 11
50860.96838771656
 21
-2969.896249330952
 31
0.0
  0
LINE
  5
1941
330
2
100
AcDbEntity
  8
0Hatch
100
AcDbLine
 10
50460.96838771656
 20
-3409.896249330952
 30
0.0
 11
50460.96838771656
 21
-3439.896249330952
 31
0.0
  0
LINE
  5
1942
330
2
100
AcDbEntity
  8
0Hatch
100
AcDbLine
 10
50460.96838771656
 20
-3439.896249330952
 30
0.0
 11
50275.98844556452
 21
-3439.896249330952
 31
0.0
  0
ARC
  5
1943
330
2
100
AcDbEntity
  8
0Hatch
100
AcDbCircle
 10
50884.96838771656
 20
-3433.896249330952
 30
0.0
 40
609.0094990585027
100
AcDbArc
 50
89.43550923358271
 51
180.564490766417
  0
LINE
  5
1944
330
2
100
AcDbEntity
  8
0Hatch
100
AcDbLine
 10
50890.96838771657
 20
-2824.916307178937
 30
0.0
 11
50890.96838771657
 21
-2969.896249330952
 31
0.0
  0
LINE
  5
1945
330
2
100
AcDbEntity
  8
0Hatch
100
AcDbLine
 10
50460.96838771656
 20
-3409.896249330952
 30
0.0
 11
50306.45650365541
 21
-3409.896249330952
 31
0.0
  0
ARC
  5
1946
330
2
100
AcDbEntity
  8
0Hatch
100
AcDbCircle
 10
50884.96838771656
 20
-3433.896249330952
 30
0.0
 40
579.0094990585038
100
AcDbArc
 50
92.37559621569472
 51
177.624403784297
  0
LINE
  5
1947
330
2
100
AcDbEntity
  8
0Hatch
100
AcDbLine
 10
50860.96838771656
 20
-2855.384365269798
 30
0.0
 11
50860.96838771656
 21
-3197.159567381168
 31
0.0
  0
LINE
  5
1948
330
2
100
AcDbEntity
  8
0Hatch
100
AcDbLine
 10
51520.96838771656
 20
-3329.896249330952
 30
0.0
 11
51520.96838771656
 21
-3159.896249330952
 31
0.0
  0
LINE
  5
1949
330
2
100
AcDbEntity
  8
0Hatch
100
AcDbLine
 10
51520.96838771656
 20
-3159.896249330952
 30
0.0
 11
51910.96838771656
 21
-3159.896249330952
 31
0.0
  0
LINE
  5
194A
330
2
100
AcDbEntity
  8
0Hatch
100
AcDbLine
 10
51910.96838771656
 20
-3159.896249330952
 30
0.0
 11
51910.96838771656
 21
-3279.896249330952
 31
0.0
  0
LINE
  5
194B
330
2
100
AcDbEntity
  8
0Hatch
100
AcDbLine
 10
51910.96838771656
 20
-3279.896249330952
 30
0.0
 11
51730.96838771656
 21
-3279.896249330952
 31
0.0
  0
LINE
  5
194C
330
2
100
AcDbEntity
  8
0Hatch
100
AcDbLine
 10
51730.96838771656
 20
-3279.896249330952
 30
0.0
 11
51730.96838771656
 21
-3329.896249330952
 31
0.0
  0
LINE
  5
194D
330
2
100
AcDbEntity
  8
0Hatch
100
AcDbLine
 10
51730.96838771656
 20
-3329.896249330952
 30
0.0
 11
51520.96838771656
 21
-3329.896249330952
 31
0.0
  0
LINE
  5
194E
330
2
100
AcDbEntity
  8
0Hatch
390
13A0
100
AcDbLine
 10
51520.96838771656
 20
-3139.896249330952
 30
0.0
 11
51747.96838771648
 21
-3139.896249330923
 31
0.0
  0
LINE
  5
194F
330
2
100
AcDbEntity
  8
0Hatch
390
13A0
100
AcDbLine
 10
51747.96838771648
 20
-3139.896249330923
 30
0.0
 11
51747.96838771648
 21
-3159.896249330923
 31
0.0
  0
LINE
  5
1950
330
2
100
AcDbEntity
  8
0Hatch
390
13A0
100
AcDbLine
 10
51747.96838771648
 20
-3159.896249330923
 30
0.0
 11
51520.96838771656
 21
-3159.896249330952
 31
0.0
  0
LINE
  5
1951
330
2
100
AcDbEntity
  8
0Hatch
100
AcDbLine
 10
51095.97123528638
 20
-4149.896249330952
 30
0.0
 11
51095.97123528638
 21
-4099.896249330952
 31
0.0
  0
LINE
  5
1952
330
2
100
AcDbEntity
  8
0Hatch
100
AcDbLine
 10
51140.97123528638
 20
-4099.896249330952
 30
0.0
 11
51140.99490392545
 21
-4149.896249330952
 31
0.0
  0
LINE
  5
1953
330
2
100
AcDbEntity
  8
0Hatch
100
AcDbLine
 10
51095.97123528638
 20
-4099.896249330952
 30
0.0
 11
51140.97123528638
 21
-4099.896249330952
 31
0.0
  0
LINE
  5
1954
330
2
100
AcDbEntity
  8
0Hatch
100
AcDbLine
 10
51095.97123528638
 20
-4149.896249330952
 30
0.0
 11
51140.99490392545
 21
-4149.896249330952
 31
0.0
  0
LINE
  5
1955
330
2
100
AcDbEntity
  8
0Hatch
100
AcDbLine
 10
52045.96838771657
 20
-3959.896249330952
 30
0.0
 11
52045.96838771657
 21
-3899.896249330952
 31
0.0
  0
LWPOLYLINE
  5
1956
330
2
100
AcDbEntity
  8
0Hatch
100
AcDbPolyline
 90
       13
 70
     0
 43
0.0
 10
50860.96838771654
 20
-3236.852472469065
 10
50860.96838771671
 20
-2969.896249330981
 10
51520.96838771656
 20
-2969.896249330835
 10
51520.96838771656
 20
-3329.896249330952
 10
51730.96838771656
 20
-3329.896249330952
 10
51730.96838771656
 20
-3279.896249330952
 10
52110.96838771656
 20
-3279.896249330952
 10
52110.96838771656
 20
-3959.896249330952
 10
51520.96838771656
 20
-3959.896249330952
 10
51520.96838771656
 20
-4069.896249330951
 10
50460.96838771659
 20
-4069.89624933098
 10
50460.96838771659
 20
-3409.896249330981
 10
50687.92461085473
 20
-3409.896249330952
  0
LWPOLYLINE
  5
1957
330
2
100
AcDbEntity
  8
0Hatch
100
AcDbPolyline
 90
       13
 70
     0
 43
0.0
 10
50920.96838771653
 20
-3236.852472469105
 10
50920.96838771666
 20
-3029.896249330969
 10
51460.96838771656
 20
-3029.896249330849
 10
51460.96838771656
 20
-3389.896249330952
 10
51790.96838771656
 20
-3389.896249330952
 10
51790.96838771656
 20
-3339.896249330953
 10
52050.96838771656
 20
-3339.896249330952
 10
52050.96838771656
 20
-3899.896249330952
 10
51460.96838771656
 20
-3899.896249330952
 10
51460.96838771656
 20
-4009.896249330953
 10
50520.96838771659
 20
-4009.896249330979
 10
50520.96838771659
 20
-3469.896249330974
 10
50687.92461085475
 20
-3469.896249330952
  0
LWPOLYLINE
  5
1958
330
2
100
AcDbEntity
  8
0Hatch
100
AcDbPolyline
 90
        3
 70
     0
 43
0.0
 10
50868.22279577705
 20
-3296.412304266095
 10
50920.9683877165
 20
-3296.412304266095
 10
50920.96838771657
 20
-3197.159567381168
  0
LWPOLYLINE
  5
1959
330
2
100
AcDbEntity
  8
0Hatch
100
AcDbPolyline
 90
        3
 70
     0
 43
0.0
 10
50650.96838771657
 20
-3469.896249330965
 10
50747.48444265177
 20
-3469.896249330952
 10
50747.48444265173
 20
-3417.150657391409
  0
ARC
  5
195A
330
2
100
AcDbEntity
  8
0Hatch
100
AcDbCircle
 10
-50884.96838771659
 20
-3433.896249330952
 30
0.0
 40
138.5000000000061
210
0.0
220
0.0
230
-1.0
100
AcDbArc
 50
6.944439517909633
 51
83.05556048122552
  0
HATCH
  5
195B
330
2
100
AcDbEntity
  8
0Hatch
100
AcDbHatch
 10
0.0
 20
0.0
 30
0.0
210
0.0
220
0.0
230
1.0
  2
SOLID
 70
     1
 71
     0
 91
        3
 92
        7
 72
     1
 73
     1
 93
       10
 10
50860.96838771654
 20
-3236.852472469065
 42
0.0
 10
50860.96838771659
 20
-3197.159567381197
 42
0.0
 10
50920.96838771657
 20
-3197.159567381197
 42
0.0
 10
50920.96838771653
 20
-3296.412304266095
 42
0.0
 10
50868.22279577705
 20
-3296.412304266095
 42
0.3448700459005416
 10
50747.48444265173
 20
-3417.150657391409
 42
0.0
 10
50747.48444265182
 20
-3469.896249330981
 42
0.0
 10
50650.96838771657
 20
-3469.896249330981
 42
0.0
 10
50650.96838771657
 20
-3409.896249330952
 42
0.0
 10
50687.92461085473
 20
-3409.896249330952
 42
-0.3448700459004313
 97
        0
 92
        7
 72
     0
 73
     1
 93
        4
 10
51095.97123528638
 20
-4099.89624933098
 10
51140.97123528638
 20
-4099.89624933098
 10
51140.99490392542
 20
-4149.896249330923
 10
51095.97123528638
 20
-4149.896249330981
 97
        0
 92
        7
 72
     0
 73
     1
 93
        4
 10
50840.96836771653
 20
-4099.896249330952
 10
50885.96836771658
 20
-4099.896249330952
 10
50885.96836771658
 20
-4149.896249330952
 10
50840.94469907752
 20
-4149.896249330952
 97
        0
 75
     0
 76
     1
 47
4.674336321071611
 98
        7
 10
50976.89855967826
 20
-2992.653488123004
 10
50888.03949480544
 20
-3259.090671364829
 10
50509.21911742753
 20
-3436.715475104837
 10
51252.82944630494
 20
-4039.704854491836
 10
51121.87917855282
 20
-4128.517233993683
 10
50855.30190917843
 20
-4133.19155327513
 10
52085.29884005512
 20
-3904.149103230215
  0
DIMENSION
  5
195C
330
2
100
AcDbEntity
  8
0Hatch
100
AcDbDimension
  2
*D85
 10
51730.96838771656
 20
-2533.010229135922
 30
0.0
 11
51920.96838771656
 21
-2453.010229135922
 31
0.0
 70
    32
 71
     5
 42
380.0
  3
500
100
AcDbAlignedDimension
 13
52110.96838771656
 23
-3279.896249330952
 33
0.0
 14
51730.96838771656
 24
-3279.896249330952
 34
0.0
 50
180.0
100
AcDbRotatedDimension
  0
DIMENSION
  5
195D
330
2
100
AcDbEntity
  8
0Hatch
100
AcDbDimension
  2
*D86
 10
51520.96838771654
 20
-2533.010229135922
 30
0.0
 11
51625.96838771655
 21
-2453.010229135922
 31
0.0
 70
    32
 71
     5
 42
210.0000000000291
  3
500
100
AcDbAlignedDimension
 13
51730.96838771656
 23
-3279.896249330952
 33
0.0
 14
51520.96838771654
 24
-3279.896249330952
 34
0.0
 50
180.0
100
AcDbRotatedDimension
  0
DIMENSION
  5
195E
330
2
100
AcDbEntity
  8
0Hatch
100
AcDbDimension
  2
*D87
 10
50860.96838771671
 20
-2533.010229135922
 30
0.0
 11
51190.96838771664
 21
-2453.010229135922
 31
0.0
 70
    32
 71
     5
 42
659.9999999998544
  3
500
100
AcDbAlignedDimension
 13
51520.96838771656
 23
-2969.896249330835
 33
0.0
 14
50860.96838771671
 24
-2969.896249330981
 34
0.0
 50
180.0
100
AcDbRotatedDimension
  0
DIMENSION
  5
195F
330
2
100
AcDbEntity
  8
0Hatch
100
AcDbDimension
  2
*D88
 10
50687.92461085473
 20
-2533.010229135922
 30
0.0
 11
50804.44337145058
 21
-2453.010229135922
 31
0.0
 70
   160
 71
     5
 42
173.0437768618576
  3
500
100
AcDbAlignedDimension
 13
50860.96838771659
 23
-3236.852472469065
 33
0.0
 14
50687.92461085473
 24
-3409.896249330952
 34
0.0
 50
180.0
100
AcDbRotatedDimension
  0
DIMENSION
  5
1960
330
2
100
AcDbEntity
  8
0Hatch
100
AcDbDimension
  2
*D89
 10
50460.96838771659
 20
-2533.010229135922
 30
0.0
 11
50574.44649928567
 21
-2453.010229135922
 31
0.0
 70
    32
 71
     5
 42
226.9562231381424
  3
500
100
AcDbAlignedDimension
 13
50687.92461085473
 23
-3409.896249330952
 33
0.0
 14
50460.96838771659
 24
-3409.896249330952
 34
0.0
 50
180.0
100
AcDbRotatedDimension
  0
DIMENSION
  5
1961
330
2
100
AcDbEntity
  8
0Hatch
100
AcDbDimension
  2
*D90
 10
52507.97201617371
 20
-3279.896249330953
 30
0.0
 11
52427.97201617371
 21
-3124.896249330886
 31
0.0
 70
    32
 71
     5
 42
310.0000000001164
  3
500
100
AcDbAlignedDimension
 13
51466.38792816387
 23
-2969.896249330835
 33
0.0
 14
51645.36651161272
 24
-3279.896249330952
 34
0.0
 50
90.0
100
AcDbRotatedDimension
  0
DIMENSION
  5
1962
330
2
100
AcDbEntity
  8
0Hatch
100
AcDbDimension
  2
*D91
 10
52507.97201617371
 20
-3959.896249330952
 30
0.0
 11
52427.97201617371
 21
-3619.896249330944
 31
0.0
 70
    32
 71
     5
 42
680.0
  3
500
100
AcDbAlignedDimension
 13
52056.38792816387
 23
-3279.896249330952
 33
0.0
 14
52056.38792816387
 24
-3959.896249330952
 34
0.0
 50
90.0
100
AcDbRotatedDimension
  0
DIMENSION
  5
1963
330
2
100
AcDbEntity
  8
0Hatch
100
AcDbDimension
  2
*D92
 10
52507.97201617371
 20
-4069.896249330952
 30
0.0
 11
52427.97201617371
 21
-4014.896249330944
 31
0.0
 70
    32
 71
     5
 42
110.0
  3
500
100
AcDbAlignedDimension
 13
51520.96838771656
 23
-3959.896249330952
 33
0.0
 14
51520.96838771656
 24
-4069.896249330951
 34
0.0
 50
90.0
100
AcDbRotatedDimension
  0
DIMENSION
  5
1964
330
2
100
AcDbEntity
  8
0Hatch
100
AcDbDimension
  2
*D93
 10
49895.77805190155
 20
-3236.852472469065
 30
0.0
 11
49818.79086030258
 21
-3079.274534515629
 31
0.0
 70
   160
 71
     5
 42
266.9562231381133
  3
500
100
AcDbAlignedDimension
 13
50860.96838771656
 23
-2969.896249330952
 33
0.0
 14
50860.96838771659
 24
-3236.852472469065
 34
0.0
 50
90.0
100
AcDbRotatedDimension
  0
DIMENSION
  5
1965
330
2
100
AcDbEntity
  8
0Hatch
100
AcDbDimension
  2
*D94
 10
49895.77805190155
 20
-3409.896249330952
 30
0.0
 11
49815.77805190155
 21
-3323.3743609
 31
0.0
 70
    32
 71
     5
 42
173.0437768618867
  3
500
100
AcDbAlignedDimension
 13
50860.96838771654
 23
-3236.852472469065
 33
0.0
 14
50687.92461085471
 24
-3409.896249330952
 34
0.0
 50
90.0
100
AcDbRotatedDimension
  0
DIMENSION
  5
1966
330
2
100
AcDbEntity
  8
0Hatch
100
AcDbDimension
  2
*D95
 10
49895.77805190155
 20
-4069.89624933098
 30
0.0
 11
49815.77805190155
 21
-3739.896249330958
 31
0.0
 70
    32
 71
     5
 42
660.000000000029
  3
500
100
AcDbAlignedDimension
 13
50460.96838771656
 23
-3409.896249330952
 33
0.0
 14
50460.96838771659
 24
-4069.89624933098
 34
0.0
 50
90.0
100
AcDbRotatedDimension
  0
DIMENSION
  5
1967
330
2
100
AcDbEntity
  8
0Hatch
100
AcDbDimension
  2
*D96
 10
51520.96838771656
 20
-4750.317775304487
 30
0.0
 11
51815.96838771656
 21
-4670.317775304487
 31
0.0
 70
    32
 71
     5
 42
590.0
  3
500
100
AcDbAlignedDimension
 13
52110.96838771656
 23
-4023.105182085448
 33
0.0
 14
51520.96838771656
 24
-4023.105182085448
 34
0.0
 50
180.0
100
AcDbRotatedDimension
  0
DIMENSION
  5
1968
330
2
100
AcDbEntity
  8
0Hatch
100
AcDbDimension
  2
*D97
 10
50460.96838771659
 20
-4750.317775304487
 30
0.0
 11
50990.96838771658
 21
-4670.317775304487
 31
0.0
 70
    32
 71
     5
 42
1059.999999999971
  3
500
100
AcDbAlignedDimension
 13
51520.96838771656
 23
-4133.105182085448
 33
0.0
 14
50460.96838771659
 24
-4133.105182085477
 34
0.0
 50
180.0
100
AcDbRotatedDimension
  0
LWPOLYLINE
  5
1969
330
2
100
AcDbEntity
  8
0Hatch
100
AcDbPolyline
 90
        4
 70
     0
 43
60.0
 10
50910.96838771656
 20
-4039.896249330967
 10
50490.96838771659
 20
-4039.89624933098
 10
50490.96838771659
 20
-3439.896249330978
 10
50650.96838771657
 20
-3439.896249330978
  0
LWPOLYLINE
  5
196A
330
2
100
AcDbEntity
  8
0Hatch
100
AcDbPolyline
 90
        9
 70
     0
 43
60.0
 10
50890.96838771656
 20
-3207.258937291662
 10
50890.96838771651
 20
-2999.896249330975
 10
51490.96838771656
 20
-2999.896249330975
 10
51490.96838771656
 20
-3359.896249330952
 10
51760.96838771656
 20
-3359.896249330952
 10
51760.96838771656
 20
-3309.896249330952
 10
52080.96838771656
 20
-3309.896249330952
 10
52080.96838771656
 20
-3929.896249330952
 10
52045.96838771657
 20
-3929.896249330952
  0
LWPOLYLINE
  5
196B
330
2
100
AcDbEntity
  8
0Hatch
100
AcDbPolyline
 90
        4
 70
     0
 43
60.0
 10
51585.96838771656
 20
-3929.896249330952
 10
51490.96838771656
 20
-3929.896249330952
 10
51490.96838771656
 20
-4039.896249330952
 10
51070.96838771656
 20
-4039.896249330952
  0
VIEWPORT
  5
1A6F
102
{ACAD_XDICTIONARY
360
1A70
102
}
330
1A68
100
AcDbEntity
 67
     1
  8
0
 48
4.0
100
AcDbViewport
 10
5.722500658410741
 20
4.006666470700361
 30
0.0
 40
13.65012255525684
 41
8.742606248029575
 68
     1
 69
     1
 12
5.722500658410741
 22
4.006666470700361
 13
0.0
 23
0.0
 14
10.0
 24
10.0
 15
10.0
 25
10.0
 16
0.0
 26
0.0
 36
1.0
 17
0.0
 27
0.0
 37
0.0
 42
50.0
 43
0.0
 44
0.0
 45
8.742606248029575
 50
0.0
 51
0.0
 72
  2000
 90
   557088
  1

281
     0
 71
     1
 74
     0
110
0.0
120
0.0
130
0.0
111
1.0
121
0.0
131
0.0
112
0.0
122
1.0
132
0.0
 79
     0
146
0.0
  0
VIEWPORT
  5
1A73
102
{ACAD_XDICTIONARY
360
1A74
102
}
330
1A68
100
AcDbEntity
 67
     1
  8
0Wymiary-PL
 48
4.0
100
AcDbViewport
 10
5.722500419053506
 20
4.006666409687733
 30
0.0
 40
9.15600067048561
 41
6.410666255500373
 68
     2
 69
     2
 12
42785.78933222155
 22
-5820.403611302725
 13
-3534.953416816247
 23
4038.000000000049
 14
1.0
 24
1.0
 15
1.0
 25
1.0
 16
0.0
 26
0.0
 36
1.0
 17
0.0
 27
0.0
 37
0.0
 42
50.0
 43
0.0
 44
0.0
 45
16029.84259034709
 50
0.0
 51
0.0
 72
  2000
 90
   819232
  1

281
     0
 71
     1
 74
     0
110
0.0
120
0.0
130
0.0
111
1.0
121
0.0
131
0.0
112
0.0
122
1.0
132
0.0
 79
     0
146
0.0
  0
ENDSEC
  0
SECTION
  2
OBJECTS
  0
DICTIONARY
  5
B
330
0
100
AcDbDictionary
281
     1
  3
ACAD_COLOR
350
53
  3
ACAD_GROUP
350
4E
  3
ACAD_LAYOUT
350
12
  3
ACAD_MATERIAL
350
D
  3
ACAD_MLEADERSTYLE
350
7A8
  3
ACAD_MLINESTYLE
350
4F
  3
ACAD_PLOTSETTINGS
350
50
  3
ACAD_PLOTSTYLENAME
350
A
  3
ACAD_SCALELIST
350
54
  3
ACAD_TABLESTYLE
350
55
  3
ACAD_VISUALSTYLE
350
15
  3
ACDB_RECOMPOSE_DATA
350
794
  3
AcDbVariableDictionary
350
795
  3
AEC_PROPERTY_SET_DEFS
350
952
  3
DWGPROPS
350
1A8F
  0
DICTIONARY
  5
1E
330
1D
100
AcDbDictionary
280
     1
281
     1
  3
ACAD_LAYERSTATES
360
1F
  0
DICTIONARY
  5
7
330
6
100
AcDbDictionary
280
     1
281
     1
  3
ADSK_XREC_LAYER_RECONCILED
360
8
  0
DICTIONARY
  5
75
330
74
100
AcDbDictionary
280
     1
281
     1
  3
ADSK_XREC_LAYER_RECONCILED
360
76
  0
DICTIONARY
  5
57
330
56
100
AcDbDictionary
280
     1
281
     1
  3
ADSK_XREC_LAYER_RECONCILED
360
58
  0
DICTIONARY
  5
3A4
330
3A3
100
AcDbDictionary
280
     1
281
     1
  3
ADSK_XREC_LAYER_RECONCILED
360
3A5
  0
DICTIONARY
  5
7F
330
7E
100
AcDbDictionary
280
     1
281
     1
  3
ADSK_XREC_LAYER_RECONCILED
360
80
  0
DICTIONARY
  5
3
330
2
100
AcDbDictionary
280
     1
281
     1
  3
ACAD_SORTENTS
360
790
  0
DICTIONARY
  5
30
330
2F
100
AcDbDictionary
280
     1
281
     1
  3
ACAD_SORTENTS
360
78F
  0
DICTIONARY
  5
1A70
330
1A6F
100
AcDbDictionary
280
     1
281
     1
  3
ACAD_XREC_ROUNDTRIP
360
1A9B
  3
ASDK_XREC_ANNOTATION_SCALE_INFO
360
1A71
  0
DICTIONARY
  5
1A74
330
1A73
100
AcDbDictionary
280
     1
281
     1
  3
ACAD_XREC_ROUNDTRIP
360
1A9C
  3
ASDK_XREC_ANNOTATION_SCALE_INFO
360
1A75
  0
DICTIONARY
  5
53
102
{ACAD_REACTORS
330
B
102
}
330
B
100
AcDbDictionary
281
     1
  0
DICTIONARY
  5
4E
102
{ACAD_REACTORS
330
B
102
}
330
B
100
AcDbDictionary
281
     1
  0
DICTIONARY
  5
12
102
{ACAD_REACTORS
330
B
102
}
330
B
100
AcDbDictionary
281
     1
  3
Layout1
350
1A69
  3
Model
350
11
  0
DICTIONARY
  5
D
102
{ACAD_REACTORS
330
B
102
}
330
B
100
AcDbDictionary
281
     1
  3
ByBlock
350
52
  3
ByLayer
350
51
  3
Global
350
C
  0
DICTIONARY
  5
7A8
102
{ACAD_REACTORS
330
B
102
}
330
B
100
AcDbDictionary
281
     1
  3
Standard
350
7A9
  0
DICTIONARY
  5
4F
102
{ACAD_REACTORS
330
B
102
}
330
B
100
AcDbDictionary
281
     1
  3
STANDARD
350
59
  0
DICTIONARY
  5
50
102
{ACAD_REACTORS
330
B
102
}
330
B
100
AcDbDictionary
281
     1
  0
ACDBDICTIONARYWDFLT
  5
A
102
{ACAD_REACTORS
330
B
102
}
330
B
100
AcDbDictionary
281
     1
  3
Medium
350
13A0
  3
Normal
350
9
100
AcDbDictionaryWithDefault
340
9
  0
DICTIONARY
  5
54
102
{ACAD_REACTORS
330
B
102
}
330
B
100
AcDbDictionary
281
     1
  3
*A1
350
85B
  3
*A10
350
87F
  3
*A11
350
880
  3
*A12
350
873
  3
*A13
350
881
  3
*A14
350
85E
  3
*A15
350
882
  3
*A16
350
86D
  3
*A17
350
85F
  3
*A18
350
860
  3
*A19
350
861
  3
*A2
350
879
  3
*A20
350
862
  3
*A21
350
866
  3
*A22
350
863
  3
*A23
350
874
  3
*A24
350
867
  3
*A25
350
868
  3
*A26
350
869
  3
*A27
350
86A
  3
*A28
350
85C
  3
*A29
350
86B
  3
*A3
350
87A
  3
*A30
350
86E
  3
*A31
350
86F
  3
*A32
350
870
  3
*A33
350
871
  3
*A34
350
864
  3
*A35
350
872
  3
*A36
350
875
  3
*A37
350
876
  3
*A38
350
877
  3
*A39
350
85D
  3
*A4
350
86C
  3
*A40
350
878
  3
*A41
350
127F
  3
*A42
350
1280
  3
*A43
350
1281
  3
*A44
350
1282
  3
*A45
350
1283
  3
*A46
350
1284
  3
*A47
350
1285
  3
*A48
350
13A1
  3
*A49
350
13A2
  3
*A5
350
87B
  3
*A50
350
13A3
  3
*A51
350
13A4
  3
*A52
350
13A5
  3
*A53
350
13A6
  3
*A54
350
13A7
  3
*A6
350
87C
  3
*A7
350
87D
  3
*A8
350
865
  3
*A9
350
87E
  3
A0
350
5E
  3
A1
350
5F
  3
A2
350
60
  3
A3
350
61
  3
A4
350
62
  3
A5
350
63
  3
A6
350
64
  3
A7
350
65
  3
A8
350
66
  3
A9
350
67
  3
B0
350
68
  3
B1
350
69
  3
B2
350
6A
  3
B3
350
6B
  3
B4
350
6C
  3
B5
350
6D
  3
B6
350
6E
  3
B7
350
6F
  3
B8
350
70
  3
B9
350
71
  3
C0
350
72
  0
DICTIONARY
  5
55
102
{ACAD_REACTORS
330
B
102
}
330
B
100
AcDbDictionary
281
     1
  3
Standard
350
5A
  0
DICTIONARY
  5
15
102
{ACAD_REACTORS
330
B
102
}
330
B
100
AcDbDictionary
281
     1
  3
2dWireframe
350
14
  3
3D Hidden
350
7A0
  3
3dWireframe
350
5D
  3
Basic
350
79F
  3
Brighten
350
7A3
  3
ColorChange
350
7A7
  3
Conceptual
350
7A1
  3
Dim
350
7A2
  3
Facepattern
350
7A6
  3
Flat
350
79B
  3
FlatWithEdges
350
79C
  3
Gouraud
350
79D
  3
GouraudWithEdges
350
79E
  3
Linepattern
350
7A5
  3
Phong
350
7B1
  3
PhongWithEdges
350
7B2
  3
Realistic
350
5C
  3
Thicken
350
7A4
  0
XRECORD
  5
794
102
{ACAD_REACTORS
330
B
102
}
330
B
100
AcDbXrecord
280
     1
 90
        1
330
5A
  0
DICTIONARY
  5
795
102
{ACAD_REACTORS
330
B
102
}
330
B
100
AcDbDictionary
281
     1
  3
CANNOSCALE
350
798
  3
CMLEADERSTYLE
350
797
  3
CTABLESTYLE
350
796
  3
DIMASSOC
350
1A8D
  3
HIDETEXT
350
1A8C
  3
INDEXCTL
350
1A8B
  3
LIGHTINGUNITS
350
799
  3
MSLTSCALE
350
1A89
  3
SORTENTS
350
1A8A
  0
DICTIONARY
  5
952
102
{ACAD_REACTORS
330
B
102
}
330
B
100
AcDbDictionary
281
     1
  0
XRECORD
  5
1A8F
102
{ACAD_REACTORS
330
B
102
}
330
B
100
AcDbXrecord
280
     1
  1
DWGPROPS COOKIE
  2

  3

  4

  6

  7

  8
beata.rzonca
  9

300
=
301
=
302
=
303
=
304
=
305
=
306
=
307
=
308
=
309
=
 40
21.7434937962963
 41
2450817.525937848
 42
2454959.584112408
  1

 90
        0
  0
DICTIONARY
  5
1F
102
{ACAD_REACTORS
330
1E
102
}
330
1E
100
AcDbDictionary
281
     1
  0
XRECORD
  5
8
102
{ACAD_REACTORS
330
7
102
}
330
7
100
AcDbXrecord
280
     1
290
     1
  0
XRECORD
  5
76
102
{ACAD_REACTORS
330
75
102
}
330
75
100
AcDbXrecord
280
     1
290
     1
  0
XRECORD
  5
58
102
{ACAD_REACTORS
330
57
102
}
330
57
100
AcDbXrecord
280
     1
290
     1
  0
XRECORD
  5
3A5
102
{ACAD_REACTORS
330
3A4
102
}
330
3A4
100
AcDbXrecord
280
     1
290
     1
  0
XRECORD
  5
80
102
{ACAD_REACTORS
330
7F
102
}
330
7F
100
AcDbXrecord
280
     1
290
     1
  0
SORTENTSTABLE
  5
790
102
{ACAD_REACTORS
330
3
102
}
330
3
100
AcDbSortentsTable
330
2
331
17FA
  5
152A
331
1520
  5
1520
331
14E1
  5
14E1
331
1528
  5
152B
331
14E9
  5
14E9
331
1530
  5
1533
331
14F1
  5
14F1
331
14B4
  5
14B4
331
1538
  5
153B
331
14F9
  5
14F9
331
14BC
  5
14BC
331
14C4
  5
14C4
331
1501
  5
1501
331
1509
  5
1509
331
14CC
  5
14CC
331
1511
  5
1511
331
14D4
  5
14D4
331
1519
  5
1519
331
14DC
  5
14DC
331
1521
  5
1521
331
14E2
  5
14E2
331
14EA
  5
14EA
331
1531
  5
1534
331
14F2
  5
14F2
331
14B5
  5
14B5
331
14FA
  5
14FA
331
14BD
  5
14BD
331
14C5
  5
14C5
331
1502
  5
1502
331
150A
  5
150A
331
14CD
  5
14CD
331
1512
  5
1512
331
14D5
  5
14D5
331
151A
  5
151A
331
14DD
  5
14DD
331
1522
  5
1522
331
14E3
  5
14E3
331
152A
  5
152D
331
14EB
  5
14EB
331
1532
  5
1535
331
14F3
  5
14F3
331
14B6
  5
14B6
331
14FB
  5
14FB
331
14BE
  5
14BE
331
14C6
  5
14C6
331
1503
  5
1503
331
150B
  5
150B
331
14CE
  5
14CE
331
1513
  5
1513
331
14D6
  5
14D6
331
151B
  5
151B
331
14DE
  5
14DE
331
1523
  5
1523
331
14E4
  5
14E4
331
152B
  5
152E
331
14EC
  5
14EC
331
1533
  5
1536
331
14F4
  5
14F4
331
14B7
  5
14B7
331
14FC
  5
14FC
331
14BF
  5
14BF
331
14C7
  5
14C7
331
1504
  5
1504
331
150C
  5
150C
331
14CF
  5
14CF
331
1514
  5
1514
331
14D7
  5
14D7
331
151C
  5
151C
331
14DF
  5
14DF
331
1524
  5
1524
331
14E5
  5
14E5
331
152C
  5
152F
331
14ED
  5
14ED
331
1534
  5
1537
331
14F5
  5
14F5
331
14B8
  5
14B8
331
14FD
  5
14FD
331
1505
  5
1505
331
14C8
  5
14C8
331
150D
  5
150D
331
14D0
  5
14D0
331
1515
  5
1515
331
14D8
  5
14D8
331
151D
  5
151D
331
1525
  5
1525
331
14E6
  5
14E6
331
152D
  5
1530
331
14EE
  5
14EE
331
1535
  5
1538
331
14F6
  5
14F6
331
14B9
  5
14B9
331
14FE
  5
14FE
331
14C1
  5
14C1
331
1506
  5
1506
331
14C9
  5
14C9
331
150E
  5
150E
331
14D1
  5
14D1
331
1516
  5
1516
331
14D9
  5
14D9
331
151E
  5
151E
331
17F8
  5
152C
331
1526
  5
1526
331
14E7
  5
14E7
331
152E
  5
1531
331
14EF
  5
14EF
331
1536
  5
1539
331
14F7
  5
14F7
331
14FF
  5
14FF
331
14C2
  5
14C2
331
1507
  5
1507
331
14CA
  5
14CA
331
150F
  5
150F
331
14D2
  5
14D2
331
1517
  5
1517
331
14DA
  5
14DA
331
151F
  5
151F
331
14E0
  5
14E0
331
1527
  5
1527
331
14E8
  5
14E8
331
152F
  5
1532
331
14F0
  5
14F0
331
14B3
  5
14B3
331
1537
  5
153A
331
14F8
  5
14F8
331
14BB
  5
14BB
331
14C3
  5
14C3
331
1500
  5
1500
331
1508
  5
1508
331
14CB
  5
14CB
331
1510
  5
1510
331
14D3
  5
14D3
331
1518
  5
1518
331
14DB
  5
14DB
  0
SORTENTSTABLE
  5
78F
102
{ACAD_REACTORS
330
30
102
}
330
30
100
AcDbSortentsTable
330
2F
  0
XRECORD
  5
1A9B
102
{ACAD_REACTORS
330
1A70
102
}
330
1A70
100
AcDbXrecord
280
     1
102
SHADEPLOT
 70
     0
  0
XRECORD
  5
1A71
102
{ACAD_REACTORS
330
1A70
102
}
330
1A70
100
AcDbXrecord
280
     1
 90
        1
340
63
  0
XRECORD
  5
1A9C
102
{ACAD_REACTORS
330
1A74
102
}
330
1A74
100
AcDbXrecord
280
     1
102
SHADEPLOT
 70
     0
  0
XRECORD
  5
1A75
102
{ACAD_REACTORS
330
1A74
102
}
330
1A74
100
AcDbXrecord
280
     1
 90
        1
340
5E
  0
LAYOUT
  5
1A69
102
{ACAD_XDICTIONARY
360
1A7D
102
}
102
{ACAD_REACTORS
330
12
102
}
330
12
100
AcDbPlotSettings
  1

  2
CutePDF Writer
  4
A4
  6

 40
3.174999952316284
 41
3.174999952316284
 42
3.175003051757812
 43
3.17498779296875
 44
209.8886566162109
 45
297.0530090332031
 46
0.0
 47
0.0
 48
0.0
 49
0.0
140
0.0
141
0.0
142
1.0
143
1.0
 70
   688
 72
     0
 73
     1
 74
     5
  7

 75
    16
147
1.0
148
0.0
149
0.0
100
AcDbLayout
  1
Layout1
 70
     1
 71
     1
 10
-0.1249995194082185
 20
-0.1249999981226884
 11
11.5700008362297
 21
8.138332939523412
 12
0.0
 22
0.0
 32
0.0
 14
1.144500083810701
 24
0.8013332819375467
 34
0.0
 15
10.30050075429631
 25
7.21199953743792
 35
0.0
146
0.0
 13
0.0
 23
0.0
 33
0.0
 16
1.0
 26
0.0
 36
0.0
 17
0.0
 27
1.0
 37
0.0
 76
     0
330
1A68
331
1A6F
1001
ACAD_PSEXT
1000
CutePDF Writer
1000
CutePDF Writer
1000
CPW2:
1000

1070
     0
  0
LAYOUT
  5
11
102
{ACAD_XDICTIONARY
360
1A92
102
}
102
{ACAD_REACTORS
330
12
102
}
330
12
100
AcDbPlotSettings
  1

  2
RICOH Aficio AP610N PCL 5e
  4
A4
  6
10-ele
 40
6.805083274841308
 41
5.027085781097412
 42
6.974411010742187
 43
5.027069091796875
 44
209.9733276367187
 45
296.9259948730469
 46
-3.903083324432671
 47
3.235920000076276
 48
67057.75918130524
 49
-45526.33714755503
140
77257.75918130527
141
-31506.33714755504
142
1.0
143
50.0
 70
 11940
 72
     1
 73
     0
 74
     4
  7
monochrome_140.ctb
 75
     0
147
0.0192346895442289
148
-67057.75918130524
149
45526.33714755503
100
AcDbLayout
  1
Model
 70
     1
 71
     0
 10
0.0
 20
0.0
 11
12.0
 21
9.0
 12
0.0
 22
0.0
 32
0.0
 14
0.0
 24
0.0
 34
0.0
 15
0.0
 25
0.0
 35
0.0
146
0.0
 13
0.0
 23
0.0
 33
0.0
 16
1.0
 26
0.0
 36
0.0
 17
0.0
 27
1.0
 37
0.0
 76
     0
330
2
331
29
1001
ACAD_PSEXT
1000
RICOH Aficio AP610N PCL 5e
1000
RICOH Aficio AP610N PCL 5e
1000
IP_192.168.0.252_tech
1000

1070
     0
  0
MATERIAL
  5
52
102
{ACAD_XDICTIONARY
360
1A96
102
}
102
{ACAD_REACTORS
330
D
102
}
330
D
100
AcDbMaterial
  1
ByBlock
 73
     1
 78
     1
172
     1
176
     1
270
     1
274
     1
  0
MATERIAL
  5
51
102
{ACAD_XDICTIONARY
360
1A94
102
}
102
{ACAD_REACTORS
330
D
102
}
330
D
100
AcDbMaterial
  1
ByLayer
 73
     1
 78
     1
172
     1
176
     1
270
     1
274
     1
  0
MATERIAL
  5
C
102
{ACAD_XDICTIONARY
360
1A90
102
}
102
{ACAD_REACTORS
330
D
102
}
330
D
100
AcDbMaterial
  1
Global
 73
     1
 78
     1
172
     1
176
     1
270
     1
274
     1
  0
MLEADERSTYLE
  5
7A9
102
{ACAD_REACTORS
330
7A8
102
}
330
7A8
100
AcDbMLeaderStyle
170
     2
171
     1
172
     0
 90
        2
 40
0.0
 41
0.0
173
     1
 91
-1056964608
340
24
 92
       -2
290
     1
 42
0.09
291
     1
 43
0.36
  3
Standard
 44
0.18
300

342
21
174
     1
178
     6
175
     1
176
     0
 93
-1056964608
 45
0.18
292
     0
297
     0
 46
0.18
 94
-1056964608
 47
1.0
 49
1.0
140
1.0
293
     1
141
0.0
294
     1
177
     0
142
1.0
295
     0
296
     0
143
0.125
1001
ACAD_MLEADERVER
1070
     2
  0
MLINESTYLE
  5
59
102
{ACAD_REACTORS
330
4F
102
}
330
4F
100
AcDbMlineStyle
  2
STANDARD
 70
     0
  3

 62
     0
 51
90.0
 52
90.0
 71
     2
 49
0.5
 62
   256
  6
BYLAYER
 49
-0.5
 62
   256
  6
BYLAYER
  0
ACDBPLACEHOLDER
  5
13A0
102
{ACAD_REACTORS
330
A
102
}
330
A
  0
ACDBPLACEHOLDER
  5
9
102
{ACAD_REACTORS
330
A
102
}
330
A
  0
SCALE
  5
85B
102
{ACAD_REACTORS
330
54
102
}
330
54
100
AcDbScale
 70
     0
300
1:1_2
140
1.0
141
1.0
290
     0
  0
SCALE
  5
87F
102
{ACAD_REACTORS
330
54
102
}
330
54
100
AcDbScale
 70
     0
300
1-1/2" = 1'-0"
140
1.5
141
12.0
290
     0
  0
SCALE
  5
880
102
{ACAD_REACTORS
330
54
102
}
330
54
100
AcDbScale
 70
     0
300
3" = 1'-0"
140
3.0
141
12.0
290
     0
  0
SCALE
  5
873
102
{ACAD_REACTORS
330
54
102
}
330
54
100
AcDbScale
 70
     0
300
1/128" = 1'-0"
140
0.0078125
141
12.0
290
     0
  0
SCALE
  5
881
102
{ACAD_REACTORS
330
54
102
}
330
54
100
AcDbScale
 70
     0
300
6" = 1'-0"
140
6.0
141
12.0
290
     0
  0
SCALE
  5
85E
102
{ACAD_REACTORS
330
54
102
}
330
54
100
AcDbScale
 70
     0
300
1:10_2
140
1.0
141
10.0
290
     0
  0
SCALE
  5
882
102
{ACAD_REACTORS
330
54
102
}
330
54
100
AcDbScale
 70
     0
300
1'-0" = 1'-0"
140
12.0
141
12.0
290
     0
  0
SCALE
  5
86D
102
{ACAD_REACTORS
330
54
102
}
330
54
100
AcDbScale
 70
     0
300
1:100_1
140
1.0
141
100.0
290
     0
  0
SCALE
  5
85F
102
{ACAD_REACTORS
330
54
102
}
330
54
100
AcDbScale
 70
     0
300
1:20_2
140
1.0
141
20.0
290
     0
  0
SCALE
  5
860
102
{ACAD_REACTORS
330
54
102
}
330
54
100
AcDbScale
 70
     0
300
1:50_2
140
1.0
141
50.0
290
     0
  0
SCALE
  5
861
102
{ACAD_REACTORS
330
54
102
}
330
54
100
AcDbScale
 70
     0
300
1:100_2
140
1.0
141
100.0
290
     0
  0
SCALE
  5
879
102
{ACAD_REACTORS
330
54
102
}
330
54
100
AcDbScale
 70
     0
300
3/16" = 1'-0"
140
0.1875
141
12.0
290
     0
  0
SCALE
  5
862
102
{ACAD_REACTORS
330
54
102
}
330
54
100
AcDbScale
 70
     0
300
1:1_1
140
1.0
141
1.0
290
     0
  0
SCALE
  5
866
102
{ACAD_REACTORS
330
54
102
}
330
54
100
AcDbScale
 70
     0
300
1:8
140
1.0
141
8.0
290
     0
  0
SCALE
  5
863
102
{ACAD_REACTORS
330
54
102
}
330
54
100
AcDbScale
 70
     0
300
1:2_1
140
1.0
141
2.0
290
     0
  0
SCALE
  5
874
102
{ACAD_REACTORS
330
54
102
}
330
54
100
AcDbScale
 70
     0
300
1/64" = 1'-0"
140
0.015625
141
12.0
290
     0
  0
SCALE
  5
867
102
{ACAD_REACTORS
330
54
102
}
330
54
100
AcDbScale
 70
     0
300
1:10_1
140
1.0
141
10.0
290
     0
  0
SCALE
  5
868
102
{ACAD_REACTORS
330
54
102
}
330
54
100
AcDbScale
 70
     0
300
1:16
140
1.0
141
16.0
290
     0
  0
SCALE
  5
869
102
{ACAD_REACTORS
330
54
102
}
330
54
100
AcDbScale
 70
     0
300
1:20_1
140
1.0
141
20.0
290
     0
  0
SCALE
  5
86A
102
{ACAD_REACTORS
330
54
102
}
330
54
100
AcDbScale
 70
     0
300
1:30
140
1.0
141
30.0
290
     0
  0
SCALE
  5
85C
102
{ACAD_REACTORS
330
54
102
}
330
54
100
AcDbScale
 70
     0
300
1:2_2
140
1.0
141
2.0
290
     0
  0
SCALE
  5
86B
102
{ACAD_REACTORS
330
54
102
}
330
54
100
AcDbScale
 70
     0
300
1:40
140
1.0
141
40.0
290
     0
  0
SCALE
  5
87A
102
{ACAD_REACTORS
330
54
102
}
330
54
100
AcDbScale
 70
     0
300
1/4" = 1'-0"
140
0.25
141
12.0
290
     0
  0
SCALE
  5
86E
102
{ACAD_REACTORS
330
54
102
}
330
54
100
AcDbScale
 70
     0
300
2:1
140
2.0
141
1.0
290
     0
  0
SCALE
  5
86F
102
{ACAD_REACTORS
330
54
102
}
330
54
100
AcDbScale
 70
     0
300
4:1
140
4.0
141
1.0
290
     0
  0
SCALE
  5
870
102
{ACAD_REACTORS
330
54
102
}
330
54
100
AcDbScale
 70
     0
300
8:1
140
8.0
141
1.0
290
     0
  0
SCALE
  5
871
102
{ACAD_REACTORS
330
54
102
}
330
54
100
AcDbScale
 70
     0
300
10:1
140
10.0
141
1.0
290
     0
  0
SCALE
  5
864
102
{ACAD_REACTORS
330
54
102
}
330
54
100
AcDbScale
 70
     0
300
1:4
140
1.0
141
4.0
290
     0
  0
SCALE
  5
872
102
{ACAD_REACTORS
330
54
102
}
330
54
100
AcDbScale
 70
     0
300
100:1
140
100.0
141
1.0
290
     0
  0
SCALE
  5
875
102
{ACAD_REACTORS
330
54
102
}
330
54
100
AcDbScale
 70
     0
300
1/32" = 1'-0"
140
0.03125
141
12.0
290
     0
  0
SCALE
  5
876
102
{ACAD_REACTORS
330
54
102
}
330
54
100
AcDbScale
 70
     0
300
1/16" = 1'-0"
140
0.0625
141
12.0
290
     0
  0
SCALE
  5
877
102
{ACAD_REACTORS
330
54
102
}
330
54
100
AcDbScale
 70
     0
300
3/32" = 1'-0"
140
0.09375
141
12.0
290
     0
  0
SCALE
  5
85D
102
{ACAD_REACTORS
330
54
102
}
330
54
100
AcDbScale
 70
     0
300
1:5_2
140
1.0
141
5.0
290
     0
  0
SCALE
  5
86C
102
{ACAD_REACTORS
330
54
102
}
330
54
100
AcDbScale
 70
     0
300
1:50_1
140
1.0
141
50.0
290
     0
  0
SCALE
  5
878
102
{ACAD_REACTORS
330
54
102
}
330
54
100
AcDbScale
 70
     0
300
1/8" = 1'-0"
140
0.125
141
12.0
290
     0
  0
SCALE
  5
127F
102
{ACAD_REACTORS
330
54
102
}
330
54
100
AcDbScale
 70
     0
300
1:1_3
140
1.0
141
1.0
290
     0
  0
SCALE
  5
1280
102
{ACAD_REACTORS
330
54
102
}
330
54
100
AcDbScale
 70
     0
300
1:2_3
140
1.0
141
2.0
290
     0
  0
SCALE
  5
1281
102
{ACAD_REACTORS
330
54
102
}
330
54
100
AcDbScale
 70
     0
300
1:5_3
140
1.0
141
5.0
290
     0
  0
SCALE
  5
1282
102
{ACAD_REACTORS
330
54
102
}
330
54
100
AcDbScale
 70
     0
300
1:10_3
140
1.0
141
10.0
290
     0
  0
SCALE
  5
1283
102
{ACAD_REACTORS
330
54
102
}
330
54
100
AcDbScale
 70
     0
300
1:20_3
140
1.0
141
20.0
290
     0
  0
SCALE
  5
1284
102
{ACAD_REACTORS
330
54
102
}
330
54
100
AcDbScale
 70
     0
300
1:50_3
140
1.0
141
50.0
290
     0
  0
SCALE
  5
1285
102
{ACAD_REACTORS
330
54
102
}
330
54
100
AcDbScale
 70
     0
300
1:100_3
140
1.0
141
100.0
290
     0
  0
SCALE
  5
13A1
102
{ACAD_REACTORS
330
54
102
}
330
54
100
AcDbScale
 70
     0
300
1:1_4
140
1.0
141
1.0
290
     0
  0
SCALE
  5
13A2
102
{ACAD_REACTORS
330
54
102
}
330
54
100
AcDbScale
 70
     0
300
1:2_4
140
1.0
141
2.0
290
     0
  0
SCALE
  5
87B
102
{ACAD_REACTORS
330
54
102
}
330
54
100
AcDbScale
 70
     0
300
3/8" = 1'-0"
140
0.375
141
12.0
290
     0
  0
SCALE
  5
13A3
102
{ACAD_REACTORS
330
54
102
}
330
54
100
AcDbScale
 70
     0
300
1:5_4
140
1.0
141
5.0
290
     0
  0
SCALE
  5
13A4
102
{ACAD_REACTORS
330
54
102
}
330
54
100
AcDbScale
 70
     0
300
1:10_4
140
1.0
141
10.0
290
     0
  0
SCALE
  5
13A5
102
{ACAD_REACTORS
330
54
102
}
330
54
100
AcDbScale
 70
     0
300
1:20_4
140
1.0
141
20.0
290
     0
  0
SCALE
  5
13A6
102
{ACAD_REACTORS
330
54
102
}
330
54
100
AcDbScale
 70
     0
300
1:50_4
140
1.0
141
50.0
290
     0
  0
SCALE
  5
13A7
102
{ACAD_REACTORS
330
54
102
}
330
54
100
AcDbScale
 70
     0
300
1:100_4
140
1.0
141
100.0
290
     0
  0
SCALE
  5
87C
102
{ACAD_REACTORS
330
54
102
}
330
54
100
AcDbScale
 70
     0
300
1/2" = 1'-0"
140
0.5
141
12.0
290
     0
  0
SCALE
  5
87D
102
{ACAD_REACTORS
330
54
102
}
330
54
100
AcDbScale
 70
     0
300
3/4" = 1'-0"
140
0.75
141
12.0
290
     0
  0
SCALE
  5
865
102
{ACAD_REACTORS
330
54
102
}
330
54
100
AcDbScale
 70
     0
300
1:5_1
140
1.0
141
5.0
290
     0
  0
SCALE
  5
87E
102
{ACAD_REACTORS
330
54
102
}
330
54
100
AcDbScale
 70
     0
300
1" = 1'-0"
140
1.0
141
12.0
290
     0
  0
SCALE
  5
5E
102
{ACAD_REACTORS
330
54
102
}
330
54
100
AcDbScale
 70
     0
300
1:1
140
1.0
141
0.1
290
     0
  0
SCALE
  5
5F
102
{ACAD_REACTORS
330
54
102
}
330
54
100
AcDbScale
 70
     0
300
1:2
140
1.0
141
0.2
290
     0
  0
SCALE
  5
60
102
{ACAD_REACTORS
330
54
102
}
330
54
100
AcDbScale
 70
     0
300
1:2.5
140
1.0
141
0.25
290
     0
  0
SCALE
  5
61
102
{ACAD_REACTORS
330
54
102
}
330
54
100
AcDbScale
 70
     0
300
1:5
140
1.0
141
0.5
290
     0
  0
SCALE
  5
62
102
{ACAD_REACTORS
330
54
102
}
330
54
100
AcDbScale
 70
     0
300
1:7.5
140
1.0
141
0.75
290
     0
  0
SCALE
  5
63
102
{ACAD_REACTORS
330
54
102
}
330
54
100
AcDbScale
 70
     0
300
1:10
140
1.0
141
1.0
290
     1
  0
SCALE
  5
64
102
{ACAD_REACTORS
330
54
102
}
330
54
100
AcDbScale
 70
     0
300
1:20
140
1.0
141
2.0
290
     0
  0
SCALE
  5
65
102
{ACAD_REACTORS
330
54
102
}
330
54
100
AcDbScale
 70
     0
300
1:25
140
1.0
141
2.5
290
     0
  0
SCALE
  5
66
102
{ACAD_REACTORS
330
54
102
}
330
54
100
AcDbScale
 70
     0
300
1:50
140
1.0
141
5.0
290
     0
  0
SCALE
  5
67
102
{ACAD_REACTORS
330
54
102
}
330
54
100
AcDbScale
 70
     0
300
1:75
140
1.0
141
7.5
290
     0
  0
SCALE
  5
68
102
{ACAD_REACTORS
330
54
102
}
330
54
100
AcDbScale
 70
     0
300
1:100
140
1.0
141
10.0
290
     0
  0
SCALE
  5
69
102
{ACAD_REACTORS
330
54
102
}
330
54
100
AcDbScale
 70
     0
300
1:150
140
1.0
141
15.0
290
     0
  0
SCALE
  5
6A
102
{ACAD_REACTORS
330
54
102
}
330
54
100
AcDbScale
 70
     0
300
1:200
140
1.0
141
20.0
290
     0
  0
SCALE
  5
6B
102
{ACAD_REACTORS
330
54
102
}
330
54
100
AcDbScale
 70
     0
300
1:250
140
1.0
141
25.0
290
     0
  0
SCALE
  5
6C
102
{ACAD_REACTORS
330
54
102
}
330
54
100
AcDbScale
 70
     0
300
1:500
140
1.0
141
50.0
290
     0
  0
SCALE
  5
6D
102
{ACAD_REACTORS
330
54
102
}
330
54
100
AcDbScale
 70
     0
300
1:750
140
1.0
141
75.0
290
     0
  0
SCALE
  5
6E
102
{ACAD_REACTORS
330
54
102
}
330
54
100
AcDbScale
 70
     0
300
1:1000
140
1.0
141
100.0
290
     0
  0
SCALE
  5
6F
102
{ACAD_REACTORS
330
54
102
}
330
54
100
AcDbScale
 70
     0
300
1:1250
140
1.0
141
125.0
290
     0
  0
SCALE
  5
70
102
{ACAD_REACTORS
330
54
102
}
330
54
100
AcDbScale
 70
     0
300
1:2000
140
1.0
141
200.0
290
     0
  0
SCALE
  5
71
102
{ACAD_REACTORS
330
54
102
}
330
54
100
AcDbScale
 70
     0
300
1:2500
140
1.0
141
250.0
290
     0
  0
SCALE
  5
72
102
{ACAD_REACTORS
330
54
102
}
330
54
100
AcDbScale
 70
     0
300
1:5000
140
1.0
141
500.0
290
     0
  0
TABLESTYLE
  5
5A
102
{ACAD_XDICTIONARY
360
5B
102
}
102
{ACAD_REACTORS
330
55
102
}
330
55
100
AcDbTableStyle
  3
Standard
 70
     0
 71
     0
 40
0.06
 41
0.06
280
     0
281
     0
  7
STANDARD
140
0.18
170
     2
 62
     0
 63
     7
283
     0
274
    -2
284
     1
 64
     0
275
    -2
285
     1
 65
     0
276
    -2
286
     1
 66
     0
277
    -2
287
     1
 67
     0
278
    -2
288
     1
 68
     0
279
    -2
289
     1
 69
     0
  7
STANDARD
140
0.25
170
     5
 62
     0
 63
     7
283
     0
274
    -2
284
     1
 64
     0
275
    -2
285
     1
 65
     0
276
    -2
286
     1
 66
     0
277
    -2
287
     1
 67
     0
278
    -2
288
     1
 68
     0
279
    -2
289
     1
 69
     0
  7
STANDARD
140
0.18
170
     5
 62
     0
 63
     7
283
     0
274
    -2
284
     1
 64
     0
275
    -2
285
     1
 65
     0
276
    -2
286
     1
 66
     0
277
    -2
287
     1
 67
     0
278
    -2
288
     1
 68
     0
279
    -2
289
     1
 69
     0
  0
VISUALSTYLE
  5
14
102
{ACAD_REACTORS
330
15
102
}
330
15
100
AcDbVisualStyle
  2
2dWireframe
 70
     4
 71
     0
 72
     2
 73
     0
 90
        0
 40
-0.6
 41
-30.0
 62
     5
 63
     7
 74
     1
 91
        4
 64
     7
 65
   257
 75
     1
175
     1
 42
1.0
 92
        0
 66
   257
 43
1.0
 76
     1
 77
     6
 78
     2
 67
     7
 79
     5
170
     0
171
     0
290
     0
174
     0
 93
        1
 44
0.0
173
     0
291
     0
 45
0.0
1001
ACAD
1000
AcDbSavedByObjectVersion
1070
     0
  0
VISUALSTYLE
  5
7A0
102
{ACAD_REACTORS
330
15
102
}
330
15
100
AcDbVisualStyle
  2
3D Hidden
 70
     6
 71
     1
 72
     2
 73
     2
 90
        0
 40
-0.6
 41
-30.0
 62
     5
 63
     7
 74
     2
 91
        2
 64
     7
 65
   257
 75
     2
175
     1
 42
40.0
 92
        0
 66
   257
 43
1.0
 76
     1
 77
     6
 78
     2
 67
     7
 79
     3
170
     0
171
     0
290
     0
174
     0
 93
        1
 44
0.0
173
     0
291
     0
 45
0.0
1001
ACAD
1000
AcDbSavedByObjectVersion
1070
     0
  0
VISUALSTYLE
  5
5D
102
{ACAD_REACTORS
330
15
102
}
330
15
100
AcDbVisualStyle
  2
3dWireframe
 70
     5
 71
     0
 72
     2
 73
     0
 90
        0
 40
-0.6
 41
-30.0
 62
     5
 63
     7
 74
     1
 91
        4
 64
     7
 65
   257
 75
     1
175
     1
 42
1.0
 92
        0
 66
   257
 43
1.0
 76
     1
 77
     6
 78
     2
 67
     7
 79
     5
170
     0
171
     0
290
     0
174
     0
 93
        1
 44
0.0
173
     0
291
     0
 45
0.0
1001
ACAD
1000
AcDbSavedByObjectVersion
1070
     0
  0
VISUALSTYLE
  5
79F
102
{ACAD_REACTORS
330
15
102
}
330
15
100
AcDbVisualStyle
  2
Basic
 70
     7
 71
     1
 72
     0
 73
     1
 90
        0
 40
-0.6
 41
-30.0
 62
     5
 63
     7
 74
     0
 91
        4
 64
     7
 65
   257
 75
     1
175
     1
 42
1.0
 92
        8
 66
     7
 43
1.0
 76
     1
 77
     6
 78
     2
 67
     7
 79
     5
170
     0
171
     0
290
     0
174
     0
 93
        1
 44
0.0
173
     0
291
     1
 45
0.0
1001
ACAD
1000
AcDbSavedByObjectVersion
1070
     0
  0
VISUALSTYLE
  5
7A3
102
{ACAD_REACTORS
330
15
102
}
330
15
100
AcDbVisualStyle
  2
Brighten
 70
    12
 71
     2
 72
     2
 73
     0
 90
        0
 40
-0.6
 41
-30.0
 62
     5
 63
     7
 74
     1
 91
        4
 64
     7
 65
   257
 75
     1
175
     1
 42
1.0
 92
        8
 66
     7
 43
1.0
 76
     1
 77
     6
 78
     2
 67
     7
 79
     5
170
     0
171
     0
290
     0
174
     0
 93
        1
 44
50.0
173
     0
291
     1
 45
0.0
1001
ACAD
1000
AcDbSavedByObjectVersion
1070
     0
  0
VISUALSTYLE
  5
7A7
102
{ACAD_REACTORS
330
15
102
}
330
15
100
AcDbVisualStyle
  2
ColorChange
 70
    16
 71
     2
 72
     2
 73
     3
 90
        0
 40
-0.6
 41
-30.0
 62
     5
 63
     8
 74
     1
 91
        4
 64
     7
 65
   257
 75
     1
175
     1
 42
1.0
 92
        8
 66
     8
 43
1.0
 76
     1
 77
     6
 78
     2
 67
     7
 79
     5
170
     0
171
     0
290
     0
174
     0
 93
        1
 44
0.0
173
     0
291
     1
 45
0.0
1001
ACAD
1000
AcDbSavedByObjectVersion
1070
     0
  0
VISUALSTYLE
  5
7A1
102
{ACAD_REACTORS
330
15
102
}
330
15
100
AcDbVisualStyle
  2
Conceptual
 70
     9
 71
     3
 72
     2
 73
     0
 90
        0
 40
-0.6
 41
-30.0
 62
     5
 63
     7
 74
     2
 91
        2
 64
     7
 65
   257
 75
     1
175
     1
 42
40.0
 92
        8
 66
     7
 43
1.0
 76
     1
 77
     6
 78
     2
 67
     7
 79
     3
170
     0
171
     0
290
     0
174
     0
 93
        1
 44
0.0
173
     0
291
     0
 45
0.0
1001
ACAD
1000
AcDbSavedByObjectVersion
1070
     0
  0
VISUALSTYLE
  5
7A2
102
{ACAD_REACTORS
330
15
102
}
330
15
100
AcDbVisualStyle
  2
Dim
 70
    11
 71
     2
 72
     2
 73
     0
 90
        0
 40
-0.6
 41
-30.0
 62
     5
 63
     7
 74
     1
 91
        4
 64
     7
 65
   257
 75
     1
175
     1
 42
1.0
 92
        8
 66
     7
 43
1.0
 76
     1
 77
     6
 78
     2
 67
     7
 79
     5
170
     0
171
     0
290
     0
174
     0
 93
        1
 44
-50.0
173
     0
291
     1
 45
0.0
1001
ACAD
1000
AcDbSavedByObjectVersion
1070
     0
  0
VISUALSTYLE
  5
7A6
102
{ACAD_REACTORS
330
15
102
}
330
15
100
AcDbVisualStyle
  2
Facepattern
 70
    15
 71
     2
 72
     2
 73
     0
 90
        0
 40
-0.6
 41
-30.0
 62
     5
 63
     7
 74
     1
 91
        4
 64
     7
 65
   257
 75
     1
175
     1
 42
1.0
 92
        8
 66
     7
 43
1.0
 76
     1
 77
     6
 78
     2
 67
     7
 79
     5
170
     0
171
     0
290
     0
174
     0
 93
        1
 44
0.0
173
     0
291
     1
 45
0.0
1001
ACAD
1000
AcDbSavedByObjectVersion
1070
     0
  0
VISUALSTYLE
  5
79B
102
{ACAD_REACTORS
330
15
102
}
330
15
100
AcDbVisualStyle
  2
Flat
 70
     0
 71
     2
 72
     1
 73
     1
 90
        2
 40
-0.6
 41
30.0
 62
     5
 63
     7
 74
     0
 91
        4
 64
     7
 65
   257
 75
     1
175
     1
 42
1.0
 92
        8
 66
     7
 43
1.0
 76
     1
 77
     6
 78
     2
 67
     7
 79
     5
170
     0
171
     0
290
     0
174
     0
 93
       13
 44
0.0
173
     0
291
     0
 45
0.0
1001
ACAD
1000
AcDbSavedByObjectVersion
1070
     0
  0
VISUALSTYLE
  5
79C
102
{ACAD_REACTORS
330
15
102
}
330
15
100
AcDbVisualStyle
  2
FlatWithEdges
 70
     1
 71
     2
 72
     1
 73
     1
 90
        2
 40
-0.6
 41
30.0
 62
     5
 63
     7
 74
     1
 91
        4
 64
     7
 65
   257
 75
     1
175
     1
 42
1.0
 92
        0
 66
   257
 43
1.0
 76
     1
 77
     6
 78
     2
 67
     7
 79
     5
170
     0
171
     0
290
     0
174
     0
 93
       13
 44
0.0
173
     0
291
     0
 45
0.0
1001
ACAD
1000
AcDbSavedByObjectVersion
1070
     0
  0
VISUALSTYLE
  5
79D
102
{ACAD_REACTORS
330
15
102
}
330
15
100
AcDbVisualStyle
  2
Gouraud
 70
     2
 71
     2
 72
     2
 73
     1
 90
        2
 40
-0.6
 41
30.0
 62
     5
 63
     7
 74
     0
 91
        4
 64
     7
 65
   257
 75
     1
175
     1
 42
1.0
 92
        0
 66
     7
 43
1.0
 76
     1
 77
     6
 78
     2
 67
     7
 79
     5
170
     0
171
     0
290
     0
174
     0
 93
       13
 44
0.0
173
     0
291
     0
 45
0.0
1001
ACAD
1000
AcDbSavedByObjectVersion
1070
     0
  0
VISUALSTYLE
  5
79E
102
{ACAD_REACTORS
330
15
102
}
330
15
100
AcDbVisualStyle
  2
GouraudWithEdges
 70
     3
 71
     2
 72
     2
 73
     1
 90
        2
 40
-0.6
 41
30.0
 62
     5
 63
     7
 74
     1
 91
        4
 64
     7
 65
   257
 75
     1
175
     1
 42
1.0
 92
        0
 66
   257
 43
1.0
 76
     1
 77
     6
 78
     2
 67
     7
 79
     5
170
     0
171
     0
290
     0
174
     0
 93
       13
 44
0.0
173
     0
291
     0
 45
0.0
1001
ACAD
1000
AcDbSavedByObjectVersion
1070
     0
  0
VISUALSTYLE
  5
7A5
102
{ACAD_REACTORS
330
15
102
}
330
15
100
AcDbVisualStyle
  2
Linepattern
 70
    14
 71
     2
 72
     2
 73
     0
 90
        0
 40
-0.6
 41
-30.0
 62
     5
 63
     7
 74
     1
 91
        4
 64
     7
 65
   257
 75
     7
175
     7
 42
1.0
 92
        8
 66
     7
 43
1.0
 76
     1
 77
     6
 78
     2
 67
     7
 79
     5
170
     0
171
     0
290
     0
174
     0
 93
        1
 44
0.0
173
     0
291
     1
 45
0.0
1001
ACAD
1000
AcDbSavedByObjectVersion
1070
     0
  0
VISUALSTYLE
  5
7B1
102
{ACAD_REACTORS
330
15
102
}
330
15
100
AcDbVisualStyle
  2

 70
     8
 71
     2
 72
     2
 73
     0
 90
        0
 40
-0.6
 41
-30.0
 62
     5
 63
     7
 74
     0
 91
        0
 64
     7
 65
   257
 75
     1
175
     1
 42
1.0
 92
        8
 66
     8
 43
1.0
 76
     1
 77
     6
 78
     2
 67
     7
 79
     5
170
     0
171
     0
290
     0
174
     0
 93
       13
 44
0.0
173
     0
291
     0
 45
0.0
1001
ACAD
1000
AcDbSavedByObjectVersion
1070
     0
  0
VISUALSTYLE
  5
7B2
102
{ACAD_REACTORS
330
15
102
}
330
15
100
AcDbVisualStyle
  2

 70
     8
 71
     2
 72
     2
 73
     0
 90
        0
 40
-0.6
 41
-30.0
 62
     5
 63
     7
 74
     1
 91
        0
 64
     7
 65
   257
 75
     1
175
     1
 42
1.0
 92
        8
 66
     8
 43
1.0
 76
     1
 77
     6
 78
     2
 67
     7
 79
     5
170
     0
171
     0
290
     0
174
     0
 93
       13
 44
0.0
173
     0
291
     0
 45
0.0
1001
ACAD
1000
AcDbSavedByObjectVersion
1070
     0
  0
VISUALSTYLE
  5
5C
102
{ACAD_REACTORS
330
15
102
}
330
15
100
AcDbVisualStyle
  2
Realistic
 70
     8
 71
     2
 72
     2
 73
     0
 90
        0
 40
-0.6
 41
-30.0
 62
     5
 63
     7
 74
     1
 91
        0
 64
     7
 65
   257
 75
     1
175
     1
 42
1.0
 92
        8
 66
     8
 43
1.0
 76
     1
 77
     6
 78
     2
 67
     7
 79
     5
170
     0
171
     0
290
     0
174
     0
 93
       13
 44
0.0
173
     0
291
     0
 45
0.0
1001
ACAD
1000
AcDbSavedByObjectVersion
1070
     0
  0
VISUALSTYLE
  5
7A4
102
{ACAD_REACTORS
330
15
102
}
330
15
100
AcDbVisualStyle
  2
Thicken
 70
    13
 71
     2
 72
     2
 73
     0
 90
        0
 40
-0.6
 41
-30.0
 62
     5
 63
     7
 74
     1
 91
        4
 64
     7
 65
   257
 75
     1
175
     1
 42
1.0
 92
       12
 66
     7
 43
1.0
 76
     1
 77
     6
 78
     2
 67
     7
 79
     5
170
     0
171
     0
290
     0
174
     0
 93
        1
 44
0.0
173
     0
291
     1
 45
0.0
1001
ACAD
1000
AcDbSavedByObjectVersion
1070
     0
  0
DICTIONARYVAR
  5
798
102
{ACAD_REACTORS
330
795
102
}
330
795
100
DictionaryVariables
280
     0
  1
1:1
  0
DICTIONARYVAR
  5
797
102
{ACAD_REACTORS
330
795
102
}
330
795
100
DictionaryVariables
280
     0
  1
STANDARD
  0
DICTIONARYVAR
  5
796
102
{ACAD_REACTORS
330
795
102
}
330
795
100
DictionaryVariables
280
     0
  1
STANDARD
  0
DICTIONARYVAR
  5
1A8D
102
{ACAD_REACTORS
330
795
102
}
330
795
100
DictionaryVariables
280
     0
  1
1
  0
DICTIONARYVAR
  5
1A8C
102
{ACAD_REACTORS
330
795
102
}
330
795
100
DictionaryVariables
280
     0
  1
1
  0
DICTIONARYVAR
  5
1A8B
102
{ACAD_REACTORS
330
795
102
}
330
795
100
DictionaryVariables
280
     0
  1
0
  0
DICTIONARYVAR
  5
799
102
{ACAD_REACTORS
330
795
102
}
330
795
100
DictionaryVariables
280
     0
  1
0
  0
DICTIONARYVAR
  5
1A89
102
{ACAD_REACTORS
330
795
102
}
330
795
100
DictionaryVariables
280
     0
  1
1
  0
DICTIONARYVAR
  5
1A8A
102
{ACAD_REACTORS
330
795
102
}
330
795
100
DictionaryVariables
280
     0
  1
127
  0
DICTIONARY
  5
1A7D
330
1A69
100
AcDbDictionary
280
     1
281
     1
  3
ACAD_XREC_ROUNDTRIP
360
1A9A
  3
ADSK_XREC_LAYOUTTHUMBNAIL
360
1A7E
  0
DICTIONARY
  5
1A92
330
11
100
AcDbDictionary
280
     1
281
     1
  3
ACAD_XREC_ROUNDTRIP
360
1A93
  0
DICTIONARY
  5
1A96
330
52
100
AcDbDictionary
280
     1
281
     1
  3
ACAD_XREC_ROUNDTRIP
360
1A97
  0
DICTIONARY
  5
1A94
330
51
100
AcDbDictionary
280
     1
281
     1
  3
ACAD_XREC_ROUNDTRIP
360
1A95
  0
DICTIONARY
  5
1A90
330
C
100
AcDbDictionary
280
     1
281
     1
  3
ACAD_XREC_ROUNDTRIP
360
1A91
  0
DICTIONARY
  5
5B
330
5A
100
AcDbDictionary
280
     1
281
     1
  3
ACAD_ROUNDTRIP_2008_TABLESTYLE_CELLSTYLEMAP
360
1A8E
  3
ACAD_XREC_ROUNDTRIP
360
1A98
  0
XRECORD
  5
1A9A
102
{ACAD_REACTORS
330
1A7D
102
}
330
1A7D
100
AcDbXrecord
280
     1
102
SHADEPLOT
 70
     0
102
SHADEPLOTRESLEVEL
 70
     2
102
SHADEPLOTCUSTOMDPI
 70
   300
  0
XRECORD
  5
1A7E
102
{ACAD_REACTORS
330
1A7D
102
}
330
1A7D
100
AcDbXrecord
280
     1
310
28000000B40000007F00000001000800000000004C59000000000000000000000001000000000000FFFFFF0000000000FFFFFF000000000000000000000000000000000000000000000000000000000000000000330000006600000099000000CC000000FF00000000330000333300006633000099330000CC330000FF3300
310
0000660000336600006666000099660000CC660000FF66000000990000339900006699000099990000CC990000FF99000000CC000033CC000066CC000099CC0000CCCC0000FFCC000000FF000033FF000066FF000099FF0000CCFF0000FFFF000000003300330033006600330099003300CC003300FF003300003333003333
310
33006633330099333300CC333300FF33330000663300336633006666330099663300CC663300FF66330000993300339933006699330099993300CC993300FF99330000CC330033CC330066CC330099CC3300CCCC3300FFCC330000FF330033FF330066FF330099FF3300CCFF3300FFFF330000006600330066006600660099
310
006600CC006600FF00660000336600333366006633660099336600CC336600FF33660000666600336666006666660099666600CC666600FF66660000996600339966006699660099996600CC996600FF99660000CC660033CC660066CC660099CC6600CCCC6600FFCC660000FF660033FF660066FF660099FF6600CCFF6600
310
FFFF660000009900330099006600990099009900CC009900FF00990000339900333399006633990099339900CC339900FF33990000669900336699006666990099669900CC669900FF66990000999900339999006699990099999900CC999900FF99990000CC990033CC990066CC990099CC9900CCCC9900FFCC990000FF99
310
0033FF990066FF990099FF9900CCFF9900FFFF99000000CC003300CC006600CC009900CC00CC00CC00FF00CC000033CC003333CC006633CC009933CC00CC33CC00FF33CC000066CC003366CC006666CC009966CC00CC66CC00FF66CC000099CC003399CC006699CC009999CC00CC99CC00FF99CC0000CCCC0033CCCC0066CC
310
CC0099CCCC00CCCCCC00FFCCCC0000FFCC0033FFCC0066FFCC0099FFCC00CCFFCC00FFFFCC000000FF003300FF006600FF009900FF00CC00FF00FF00FF000033FF003333FF006633FF009933FF00CC33FF00FF33FF000066FF003366FF006666FF009966FF00CC66FF00FF66FF000099FF003399FF006699FF009999FF00CC
310
99FF00FF99FF0000CCFF0033CCFF0066CCFF0099CCFF00CCCCFF00FFCCFF0000FFFF0033FFFF0066FFFF0099FFFF00CCFFFF00FFFFFF00000000000D0D0D001A1A1A00282828003535350043434300505050005D5D5D006B6B6B00787878008686860093939300A1A1A100AEAEAE00BBBBBB00C9C9C900D6D6D600E4E4E400
310
F1F1F100FFFFFF0000000000000000000000000000000000000000000000000000000000000000000000000000000000E2E2E2E2E2E2E2E2E2E2E2E2E2E2E2E2E2E2E2E2E2E2E2E2E2E2E2E2E2E2E2E2E2E2E2E2E2E2E2E2E2E2E2E2E2E2E2E2E2E2E2E2E2E2E2E2E2E2E2E2E2E2E2E2E2E2E2E2E2E2E2E2E2E2E2E2E2E2E2
310
E2E2E2E2E2E2E2E2E2E2E2E2E2E2E2E2E2E2E2E2E2E2E2E2E2E2E2E2E2E2E2E2E2E2E2E2E2E2E2E2E2E2E2E2E2E2E2E2E2E2E2E2E2E2E2E2E2E2E2E2E2E2E2E2E2E2E2E2E2E2E2E2E2E2E2E2E2E2E2E2E2E2E2E2E2E2E2E2E2E2E2E2E2E2E2E2E2E2E2E2E2E2F5F5F5F5F5F5F5F5F5F5F5F5F5F5F5F5F5F5F5F5F5F5F5F5F5
310
F5F5F5F5F5F5F5F5F5F5F5F5F5F5F5F5F5F5F5F5F5F5F5F5F5F5F5F5F5F5F5F5F5F5F5F5F5F5F5F5F5F5F5F5F5F5F5F5F5F5F5F5F5F5F5F5F5F5F5F5F5F5F5F5F5F5F5F5F5F5F5F5F5F5F5F5F5F5F5F5F5F5F5F5F5F5F5F5F5F5F5F5F5F5F5F5F5F5F5F5F5F5F5F5F5F5F5F5F5F5F5F5F5F5F5F5F5F5F5F5F5F5F5F5F5F5F5
310
F5F5F5F5F5F5F5F5F5F5F5F5F5F5F5F5F5F5F5F5F5F5F5F5F5E2E2E2F5E2E2E2E2E2E2E2E2F5F5F5F5F5F5F5F5F5E2E2E2E2E2E2E2E2E2E2E2E2E2E2E2E2F5F5F5F5F5F5F5F5F5E2E2E2E2E2E2E2E2E2E2E2E2E2E2E2E2F5F5F5F5F5F5F5F5F5E2E2E2E2E2E2E2E2E2E2E2E2E2E2E2E2F5F5F5F5F5F5F5F5F5E2E2E2E2E2E2
310
E2E2E2E2E2E2E2E2E2E2F5F5F5F5F5F5F5F5F5E2E2E2E2E2E2E2E2E2E2E2E2E2E2E2E2F5F5F5F5F5F5F5F5F5E2E2E2E2E2E2E2E2E2E2E2E2E2E2E2E2F5F5F5F5F5F5F5F5F5E2E2E2E2E2E2E2E2F5E2E2E2F5E2F5F5F5F5F5F5F5F5F5F5F5F5F5F5F5F5F5F5F5F5F5F5F5F5F5F5F5F5F5F5F5F5F5F5F5F5F5F5F5F5F5F5F5F5
310
F5F5F5F5F5F5F5F5F5F5F5F5F5F5F5F5F5F5F5F5F5F5F5F5F5F5F5F5F5F5F5F5F5F5F5F5F5F5F5F5F5F5F5F5F5F5F5F5F5F5F5F5F5F5F5F5F5F5F5F5F5F5F5F5F5F5F5F5F5F5F5F5F5F5F5F5F5F5F5F5F5F5F5F5F5F5F5F5F5F5F5F5F5F5F5F5F5F5F5F5F5F5F5F5F5F5F5F5F5F5F5F5F5F5F5F5F5F5F5F5F5F5F5F5F5F5F5
310
F5F5E2F5E2E2E2F5E2F5F5F5F5F5F5F5F5F5F5F5F5F5F5F5F5F5F5F5F5F5F5F5F5F5F5F5F5F5F5F5F5F5F5F5F5F5F5F5F5F5F5F5F5F5F5F5F5F5F5F5F5F5F5F5F5F5F5F5F5F5F5F5F5F5F5F5F5F5F5F5F5F5F5F5F5F5F5F5F5F5F5F5F5F5F5F5F5F5F5F5F5F5F5F5F5F5F5F5F5F5F5F5F5F5F5F5F5F5F5F5F5F5F5F5F5F5F5
310
F5F5F5F5F5F5F5F5F5F5F5F5F5F5F5F5F5F5F5F5F5F5F5F5F5F5F5F5F5F5F5F5F5F5F5F5F5F5F5F5F5F5F5F5F5F5F5F5F5F5F5F5F5F5F5E2F5E2E2E2F5E2F5F5F5F5F5F5F5F5F5F5F5F5F5F5F5F5F5F5F5F5F5F5F5F5F5F5F5F5F5F5F5F5F5F5F5F5F5F5F5F5F5F5F5F5F5F5F5F5F5F5F5F5F5F5F5F5F5F5F5F5F5F5F5F5F5
310
F5F5F5F5F5F5F5F5F5F5F5F5F5F5F5F5F5F5F5F5F5F5F5F5F5F5F5F5F5F5F5F5F5F5F5F5F5F5F5F5F5F5F5F5F5F5F5F5F5F5F5F5F5F5F5F5F5F5F5F5F5F5F5F5F5F5F5F5F5F5F5F5F5F5F5F5F5F5F5F5F5F5F5F5F5F5F5F5F5F5F5F5F5F5F5F5F5F5F5F5F5F5F5F5F5F5F5F5E2F5E2E2E2F5E2F5F5F5F5F5F5F5F5F5F5F5F5
310
F5F5F5F5F5F5F5F5F5F5F5F5F5F5F5F5F5F5F5F5F5F5F5F5F5F5F5F5F5F5F5F5F5F5F5F5F5F5F5F5F5F5F5F5F5F5F5F5F5F5F5F5F5F5F5F5F5F5F5F5F5F5F5F5F5F5F5F5F5F5F5F5F5F5F5F5F5F5F5F5F5F5F5F5F5F5F5F5F5F5F5F5F5F5F5F5F5F5F5F5F5F5F5F5F5F5F5F5F5F5F5F5F5F5F5F5F5F5F5F5F5F5F5F5F5F5F5
310
F5F5F5F5F5F5F5F5F5F5F5F5F5F5F5F5F5F5F5F5F5F5F5F5F5F5F5F5F5F5F5F5F5F5E2F5E2E2E2F5E2F5F5F5F5F5F5F5F5F5F5F5F5F5F5F5F5F5F5F5F5F5F5F5F5F5F5F5F5F5F5F5F5F5F5F5F5F5F5F5F5F5F5F5F5F5F5F5F5F5F5F5F5F5F5F5F5F5F5F5F5F5F5F5F5F5F5F5F5F5F5F5F5F5F5F5F5F5F5F5F5F5F5F5F5F5F5
310
F5F5F5F5F5F5F5F5F5F5F5F5F5F5F5F5F5F5F5F5F5F5F5F5F5F5F5F5F5F5F5F5F5F5F5F5F5F5F5F5F5F5F5F5F5F5F5F5F5F5F5F5F5F5F5F5F5F5F5F5F5F5F5F5F5F5F5F5F5F5F5F5F5F5F5F5F5F5F5F5F5F5F5F5F5F5F5E2F5E2E2E2F5E2F5F5F5F5F5F5F5F5F5F5F5F5F5F5F5F5F5F5F5F5F5F5F5F5F5F5F5F5F5F5F5F5F5
310
F5F5F5F5F5F5F5F5F5F5F5F5F5F5F5F5F5F5F5F5F5F5F5F5F5F5F5F5F5F5F5F5F5F5F5F5F5F5F5F5F5F5F5F5F5F5F5F5F5F5F5F5F5F5F5F5F5F5F5F5F5F5F5F5F5F5F5F5F5F5F5F5F5F5F5F5F5F5F5F5F5F5F5F5F5F5F5F5F5F5F5F5F5F5F5F5F5F5F5F5F5F5F5F5F5F5F5F5F5F5F5F5F5F5F5F5F5F5F5F5F5F5F5F5F5F5F5
310
F5F5F5F5F5F5F5F5F5F5F5F5F5E2F5E2E2E2F5E2F5F5F5F5F5F5F5F5F5F5F5F5F5F5F5F5F5F5F5F5F5F5F5F5F5F5F5F5F5F5F5F5F5F5F5F5F5F5F5F5F5F5F5F5F5F5F5F5F5F5F5F5F5F5F5F5F5F5F5F5F5F5F5F5F5F5F5F5F5F5F5F5F5F5F5F5F5F5F5F5F5F5F5F5F5F5F5F5F5F5F5F5F5F5F5F5F5F5F5F5F5F5F5F5F5F5F5
310
F5F5F5F5F5F5F5F5F5F5F5F5F5F5F5F5F5F5F5F5F5F5F5F5F5F5F5F5F5F5F5F5F5F5F5F5F5F5F5F5F5F5F5F5F5F5F5F5F5F5F5F5F5F5F5F5F5F5F5F5F5F5F5F5F5F5E2F5E2E2E2F5F5F5F5F5F5F5F5F5F5F5F5F5F5F5F5F5F5F5F5F5F5F5F5F5F5F5F5F5F5F5F5F5F5F5F5F5F5F5F5F5F5F5F5F5F5F5F5F5F5F5F5F5F5F5F5
310
F5F5F5F5F5F5F5F5F5F5F5F5F5F5F5F5F5F5F5F5F5F5F5F5F5F5F5F5F5F5F5F5F5F5F5F5F5F5F5F5F5F5F5F5F5F5F5F5F5F5F5F5F5F5F5F5F5F5F5F5F5F5F5F5F5F5F5F5F5F5F5F5F5F5F5F5F5F5F5F5F5F5F5F5F5F5F5F5F5F5F5F5F5F5F5F5F5F5F5F5F5F5F5F5F5F5F5F5F5F5F5F5F5F5F5F5F5F5F5F5F5E2E2E2F5F5F5
310
F5F5F5F5F5F5F5F5F5F5F5F5F5F5F5F5F5F5F5F5F5F5F5F5F5F5F5F5F5F5F5F5F5F5F5F5F5F5F5F5F5F5F5F5F5F5F5F5F5F5F5F5F5F5F5F5F5F5F5F5F5F5F5F5F5F5F5F5F5F5F5F5F5F5F5F5F5F5F5F5F5F5F5F5F5F5F5F5F5F5F5F5F5F5F5F5F5F5F5F5F5F5F5F5F5F5F5F5F5F5F5F5F5F5F5F5F5F5F5F5F5F5F5F5F5F5F5
310
F5F5F5F5F5F5F5F5F5F5F5F5F5F5F5F5F5F5F5F5F5F5F5F5F5F5F5F5F5F5F5F5F5F5F5F5F5F5F5F5F5F5F5F5F5F5F5E2E2E2F5F5F5F5F5F5F5F5F5F5F5F5F5F5F5F5F5F5F5F5F5F5F5F5F5F5F5F5F5F5F5F5F5F5F5F5F5F5F5F5F5F5F5F5F5F5F5F5F5F5F5F5F5F5F5F5F5F5F5F5F5F5F5F5F5F5F5F5F5F5F5F5F5F5F5F5F5
310
F5F5F5F5F5F5F5F5F5F5F5F5F5F5F5F5F5F5F5F5F5F5F5F5F5F5F5F5F5F5F5F5F5F5F5F5F5F5F5F5F5F5F5F5F5F5F5F5F5F5F5F5F5F5F5F5F5F5F5F5F5F5F5F5F5F5F5F5F5F5F5F5F5F5F5F5F5F5F5F5F5F5F5F5F5F5F5F5F5F5F5F5F5F5F5F5F5F5F5F5E2E2E2F5F5F5F5F5F5F5F5F5F5F5F5F5F5F5F5F5F5F5F5F5F5F5F5
310
F5F5F5F5F5F5F5F5F5F5F5F5F5F5F5F5F5F5F5F5F5F5F5F5F5F5F5F5F5F5F5F5F5F5F5F5F5F5F5F5F5F5F5F5F5F5F5F5F5F5F5F5F5F5F5F5F5F5F5F5F5F5F5F5F5F5F5F5F5F5F5F5F5F5F5F5F5F5F5F5F5F5F5F5F5F5F5F5F5F5F5F5F5F5F5F5F5F5F5F5F5F5F5F5F5F5F5F5F5F5F5F5F5F5F5F5F5F5F5F5F5F5F5F5F5F5F5
310
F5F5F5F5F5F5F5F5F5F5F5F5F5F5F5F5F5F5F5F5F5F5F5F5F5F5E2E2E2F5F5F5F5F5F5F5F5F5F5F5F5F5F5F5F5F5F5BEBEBEBEBEBEBEBEBEBEBEBEBEBEBEBEBEBEBEBEBEBEBEBEBEBEBEBEBEBEBEBEBEBEBEBEBEBEBEBEBEBEBEBEBEBEBEBEBEBEBEBEBEBEBEBEBEBEBEBEBEBEBEBEBEBEBEBEBEBEBEBEBEBEBEBEBEBEBEBE
310
BEBEBEBEBEBEBEBEBEBEBEBEBEBEBEBEBEBEBEBEBEBEBEBEBEBEBEBEBEBEBEBEBEBEBEBEBEBEBEBEBEBEBEBEBEBEBEBEBEBEBEBEBEBEBEBEBEBEBEBEBEF5F5F5F5F5F5F5F5F5F5F5F5F5F5F5F5F5F5E2E2E2F5F5F5F5F5F5F5F5F5F5F5F5F5F5F5F5F5F5BEF5F5F5F5F5F5F5F5F5F5F5F5F5F5F5F5F5F5F5F5F5F5F5F5F5F5
310
F5F5F5F5F5F5F5F5F5F5F5F5F5F5F5F5F5F5F5F5F5F5F5F5F5F5F5F5F5F5F5F5F5F5F5F5F5F5F5F5F5F5F5F5F5F5F5F5F5F5F5F5F5F5F5F5F5F5F5F5F5F5F5F5F5F5F5F5F5F5F5F5F5F5F5F5F5F5F5F5F5F5F5F5F5F5F5F5F5F5F5F5F5F5F5F5F5F5F5F5F5F5F5F5F5F5F5F5F5F5F5F5F5BEF5F5F5F5F5F5F5F5F5F5F5F5F5
310
F5F5F5F5F5E2E2E2F5F5F5F5F5F5F5F5F5F5F5F5F5F5F5F5F5F5BEF5F5F5F5F5F5F5F5F5F5F5F5F5F5F5F5F5F5F5F5F5F5F5F5F5F5F5F5F5F5F5F5F5F5F5F5F5F5F5F5F5F5F5F5F5F5F5F5F5F5F5F5F5F5F5F5F5F5F5F5F5F5F5F5F5F5F5F5F5F5F5F5F5F5F5F5F5F5F5F5F5F5F5F5F5F5F5F5F5F5F5F5F5F5F5F5F5F5F5F5
310
F5F5F5F5F5F5F5F5F5F5F5F5F5F5F5F5F5F5F5F5F5F5F5F5F5F5F5F5F5F5F5F5F5F5F5F5F5F5F5BEF5F5F5F5F5F5F5F5F5F5F5F5F5F5F5F5F5F5E2E2E2F5F5F5F5F5F5F5F5F5F5F5F5F5F5F5F5F5F5BEF5F5F5F5F5F5F5F5F5F5F5F5F5F5F5F5F5F5F5F5F5F5F5F5F5F5F5F5F5F5F5F5F5F5F5F5F5F5F5F5F5F5F5F5F5F5F5
310
F5F5F5F5F5F5F5F5F5F5F5F5F5F5F5F5F5F5F5F5F5F5F5F5F5F5F5F5F5F5F5F5F5F5F5F5F5F5F5F5F5F5F5F5F5F5F5F5F5F5F5F5F5F5F5F5F5F5F5F5F5F5F5F5F5F5F5F5F5F5F5F5F5F5F5F5F5F5F5F5F5F5F5F5F5F5F5F5F5F5F5F5BEF5F5F5F5F5F5F5F5F5F5F5F5F5F5F5F5F5F5E2E2E2F5F5F5F5F5F5F5F5F5F5F5F5F5
310
F5F5F5F5F5BEF5F5F5F5F5F5F5F5F5F5F5F5F5F5F5F5F5F5F5F5F5F5F5F5F5F5F5F5F5F5F5F5F5F5F5F5F5F5F5F5F5F5F5F5F5F5F5F5F5F5F5F5F5F5F5F5F5F5F5F5F5F5F5F5F5F5F5F5F5F5F5F5F5F5F5F5F5F5F5F5F5F5F5F5F5F5F5F5F5F5F5F5F5F5F5F5F5F5F5F5F5F5F5F5F5F5F5F5F5F5F5F5F5F5F5F5F5F5F5F5F5
310
F5F5F5F5F5F5F5F5F5F5F5F5F5F5F5F5F5F5BEF5F5F5F5F5F5F5F5F5F5F5F5F5F5F5F5F5F5E2E2E2F5E2F5F5F5F5F5F5F5F5F5F5F5F5F5F5F5F5BEF5F5F5F5F5F5F5F5F5F5F5F5F5F5F5F5F5F5F5F5F5F5F5F5F5F5F5F5F5F5F5F5F5F5F5F5F5F5F5F5F5F5F5F5F5F5F5F5F5F5F5F5F5F5F5F5F5F5F5F5F5F5F5F5F5F5F5F5
310
F5F5F5F5F5F5F5F5F5F5F5F5F5F5F5F5F5F5F5F5F5F5F5F5F5F5F5F5F5F5F5F5F5F5F5F5F5F5F5F5F5F5F5F5F5F5F5F5F5F5F5F5F5F5F5F5F5F5F5F5F5F5F5F5F5F5F5F5F5F5F5BEF5F5F5F5F5F5F5F5F5F5F5F5F5F5F5F5E2F5E2E2E2F5E2F5F5F5F5F5F5F5F5F5F5F5F5F5F5F5F5BEF5F5F5F5F5F5F5F5F5F5F5F5F5F5F5
310
F5F5F5F5F5F5F5F5F5F5F5F5F5F5F5F5F5F5F5F5F5F5F5F5F5F5F5F5F5F5F5F5F5F5F5F5F5F5F5F5F5F5F5F5F5F5F5F5F5F5F5F5F5F5F5F5F5F5F5F5F5DCDCDCDCDCDCDCDCDCDCDCDCDCDCDCDCDCDCDCDCDCDCDCDCDCDCDCDCDCDCDCDCDCDCDCDCDCDCDCDCDCDCDCDCDCDCDCDCDCDCDCDCDCDCDCDCDCDCDCDCDCDCDCBEF5F5
310
F5F5F5F5F5F5F5F5F5F5F5F5F5F5E2F5E2E2E2F5E2F5F5F5F5F5F5F5F5F5F5F5F5F5F5F5F5BEF5F5F5F5F5F5F5F5F5F5F5F5F5F5F5F5F5F5F5F5F5F5F5F5F5F5F5F5F5F5F5F5F5F5F5F5F5F5F5F5F5F5F5F5F5F5F5F5F5F5F5F5F5F5F5F5F5F5F5F5F5F5F5F5F5F5F5F5F5F5F5F5F5F5F5F5DCF5F5F5F5F5F5F5F5F5F5F5F5
310
F5F5F5F5F5F5F5F5F5F5F5F5F5F5F5F5F5F5F5F5F5F5F5F5F5F5F5F5F5F5F5F5F5F5F5F5F5F5F5F5F5F5F5F5F5F5F5F5F5DCBEF5F5F5F5F5F5F5F5F5F5F5F5F5F5F5F5E2F5E2E2E2F5E2F5F5F5F5F5F5F5F5F5F5F5F5F5F5F5F5BEF5F5F5F5F5F5F5F5F5F5F5F5F5F5F5F5F5F5F5F5F5F5F5F5F5F5F5F5F5F5F5F5F5F5F5F5
310
F5F5F5F5F5F5F5F5F5F5F5F5F5F5F5F5F5F5F5F5F5F5F5F5F5F5F5F5F5F5F5F5F5F5F5F5F5F5F5F5DCF5F5F5F5F5F5F5F5F5F5F5F5F5F5F5F5F5F5F5F5F5F5F5F5F5F5F5F5F5F5F5F5F5F5F5F5F5F5F5F5F5F5F5F5F5F5F5F5F5F5F5F5F5F5F5F5F5F5F5F5F5DCBEF5F5F5F5F5F5F5F5F5F5F5F5F5F5F5F5E2F5E2E2E2F5E2
310
F5F5F5F5F5F5F5F5F5F5F5F5F5F5F5F5BEF5F5F5F5F5F5F5F5F5F5F5F5F5F5F5F5F5F5F5F5F5F5F5F5F5F5F5F5F5F5F5F5F5F5F5F5F5F5F5F5F5F5F5F5F5F5F5F5F5F5F5F5F5F5F5F5F5F5F5F5F5F5F5F5F5F5F5F5F5F5F5F5F5F5F5F5DCF5F5F5F5F5F5F5F5F5F5F5F5F5F5F5F5F5F5F5F5F5F5F5F5F5F5F5F5F5F5F5F5F5
310
F5F5F5F5F5F5F5F5F5F5F5F5F5F5F5F5F5F5F5F5F5F5F5F5F5F5F5F5DCBEF5F5F5F5F5F5F5F5F5F5F5F5F5F5F5F5E2F5E2E2E2F5E2F5F5F5F5F5F5F5F5F5F5F5F5F5F5F5F5BEF5F5F5F5F5F5F5F5F5F5F5F5F5F5F5F5F5F5F5F5F5F5F5F5F5F5F5F5F5F5F5F5F5F5F5F5F5F5F5F5F5F5F5F5F5F5F5F5F5F5F5F5F5F5F5F5F5
310
F5F5F5F5F5F5F5F5F5F5F5F5F5F5F5F5F5F5F5DCF5F5F5F5F5F5F5F5272727272727272727272727272727272727272727F5F5F5F5F5F5F5F5F5F5F5F5F5F5F5F5F5F5F5F5F5F5F5F5F5F5F5F5F5F5F5F5DCBEF5F5F5F5F5F5F5F5F5F5F5F5F5F5F5F5E2F5E2E2E2F5E2F5F5F5F5F5F5F5F5F5F5F5F5F5F5F5F5BEF5F5F5F5
310
F5F5F5F5F5F5F5F5F5F5F5F5F5F5F5F5F5F5F5F5F5F5F5F5F5F5F5F5F5F5F5F5F5F5F5F5F5F5F5F5F5F5F5F5F5F5F5F5F5F5F5F5F5F5F5F5F5F5F5F5F5F5F5F5F5F5F5F5F5F5F5F5DCF5F5F5F5F5F5F5F5F5F5F5F5F5F5F5F5F5F5F5F5F5F5F5F5F5F5F5F5F5F5F5F5F5F5F5F5F5F5F5F5F5F5F5F5F5F5F5F5F5F5F5F5F5F5
310
F5F5F5F5F5F5F5DCBEF5F5F5F5F5F5F5F5F5F5F5F5F5F5F5F5E2F5E2E2E2F5E2F5F5F5F5F5F5F5F5F5F5F5F5F5F5F5F5BEF5F5F5F5F5F5F5F5F5F5F5F5F5F5F5F5F5F5F5F5F5F5F5F5F5F5F5F5F5F5F5F5F5F5F5F5F5F5F5F5F5F5F5F5F5F5F5F5F5F5F5F5F5F5F5F5F5F5F5F5F5F5F5F5F5F5F5F5F5F5F5F5F5F5F5F5DCF5
310
F5F5F5F5F5F5F5F5F5F5F5F5F5F5F5F5F5F5F5F5F5F5F5F5F5F5F5F5F5F5F5F5F5F5F5F5F5F5F5F5F5F5F5F5F5F5F5F5F5F5F5F5F5F5F5F5F5F5F5F5DCBEF5F5F5F5F5F5F5F5F5F5F5F5F5F5F5F5E2F5E2E2E2F5E2F5F5F5F5F5F5F5F5F5F5F5F5F5F5F5F5BEF5F5F5F5F5F5F5F5F5F5F5F5F5F5F5F5F5F5F5F5F5F5F5F5F5
310
F5F5F5F5F5F5F5F5F5F5F5F5F5F5F5F5F5F5F5F5F5F5F5F5F5F5F5F5F5F5F5F5F5F5F5F5F5F5F5F5F5F5F5F5F5F5F5F5F5F5F5DCF5F5F5F5F5F5F5F5F5F5F5F5F5F5F5F5F5F5F5F5F5F5F5F5F5F5F5F5F5F5F5F5F5F5F5F5F5F5F5F5F5F5F5F5F5F5F5F5F5F5F5F5F5F5F5F5F5F5F5F5F5DCBEF5F5F5F5F5F5F5F5F5F5F5F5
310
F5F5F5F5E2F5E2E2E2F5E2F5F5F5F5F5F5F5F5F5F5F5F5F5F5F5F5BEF5F5F5F5F5F5F5F5F5F5F5F5F5F5F5F5F5F5F5F5F5F5F5F5F5F5F5F5F5F5F5F5F5F5F5F5F5F5F5F5F5F5F5F5F5F5F5F5F5F5F5F5F5F5F5F5F5F5F5F5F5F5F5F5F5F5F5F5F5F5F5F5F5F5F5F5DCF5F5F5F5F5F5F5F5F5F5F5F5F5F5F5F5F5F5F5F5F5F5
310
F5F5F5F5F5F5F5F5F5F5F5F5F5F5F5F5F5F5F5F5F5F5F5F5F5F5F5F5F5F5F5F5F5F5F5F5F5F5F5DCBEF5F5F5F5F5F5F5F5F5F5F5F5F5F5F5F5E2F5E2E2E2F5E2F5F5F5F5F5F5F5F5F5F5F5F5F5F5F5F5BEF5F5F5F5F5F5F5F5F5F5F5F5F5F5F5F5F5F5F5F5F5F5F5F5F5F5F5F5F5F5F5F5F5F5F5F5F5F5F5F5F5F5F5F5F5F5
310
F5F5F5F5F5F5F5F5F5F5F5F5F5F5F5F5F5F5F5F5F5F5F5F5F5F5F5F5F5F5DCF5F5F5F5F5F5F5F5F5F5F5F5F5F5F5F5F5F5F5F5F5F5F5F5F5F5F5F5F5F5F5F5F5F5F5F5F5F5F5F5F5F5F5F5F5F5F5F5F5F5F5F5F5F5F5F5F5F5F5F5F5DCBEF5F5F5F5F5F5F5F5F5F5F5F5F5F5F5F5E2F5E2E2E2F5E2F5F5F5F5F5F5F5F5F5F5
310
F5F5F5F5F5F5BEF5F5F5F5F5F5F5F5F5F5F5F5F5F5F5F5F5F5F5F5F5F5F5F5F5F5F5F5F5F5F5F5F5F5F5F5F5F5F5F5F5F5F5F5F5F5F5F5F5F5F5F5F5F5F5F5F5F5F5F5F5F5F5F5F5F5F5F5F5F5F5F5F5F5F5F5DCF5F5F5F5F5F5F5F5F5F5F5F5F5F5F5F5F5F5F5F5F5F5F5F5F5F5F5F5F5F5F5F5F5F5F5F5F5F5F5F5F5F5F5
310
F5F5F5F5F5F5F5F5F5F5F5F5F5F5F5F5F5F5DCBEF5F5F5F5F5F5F5F5F5F5F5F5F5F5F5F5E2F5E2E2E2F5E2F5F5F5F5F5F5F5F5F5F5F5F5F5F5F5F5BEF5F5F5F5F5F5F5F5F5F5F5F5F5F5F5F5F5F5F5F5F5F5F5F5F5F5F5F5F5F5F5F5F5F5F5F5F5F5F5F5F5F5F5F5F5F5F5F5F5F5F5F5F5F5F5F5F5F5F5F5F5F5F5F5F5F5F5
310
F5F5F5F5F5F5F5F5F5DCF5F5F5F5F5F5F5F5F5F5F5F5F5F5F5F5F5F5F5F5F5F5F5F5F5F5F5F5F5F5F5F5F5F5F5F5F5F5F5F5F5F5F5F5F5F5F5F5F5F5F5F5F5F5F5F5F5F5F5F5F5DCBEF5F5F5F5F5F5F5F5F5F5F5F5F5F5F5F5E2F5E2E2E2F5E2F5F5F5F5F5F5F5F5F5F5F5F5F5F5F5F5BEF5F5F5F5F5F5F5F5F5F5F5F5F5F5
310
F5F5F5F5F5F5F5F5F5F5F5F5F5F5F5F5F5F5F5F5F5F5F5F5F5F5F5F5F5F5F5F5F5F5F5F5F5F5F5F5F5F5F5F5F5F5F5F5F5F5F5F5F5F5F5F5F5F5F5F5F5F5DCF5F5F5F5F5F5F5F5F5F5F5F5F5F5F5F5F5F5F5F5F5F5F5F5F5F5F5F5F5F5F5F5F5F5F5F5F5F5F5F5F5F5F5F5F5F5F5F5F5F5F5F5F5F5F5F5F5F5F5F5F5DCBEF5
310
F5F5F5F5F5F5F5F5F5F5F5F5F5F5F5E2F5E2E2E2F5E2F5F5F5F5F5F5F5F5F5F5F5F5F5F5F5F5BEF5F5F5F5F5F5F5F5F5F5F5F5F5F5F5F5F5F5F5F5F5F5F5F5F5F5F5F5F5F5F5F5F5F5F5F5F5F5F5F5F5F5F5F5F5F5F5F5F5F5F5F5F5F5F5F5F5F5F5F5F5F5F5F5F5F5F5F5F5F5F5F5F5F5F5F5DCF5F5F5F5F5F5F5F5F5F5F5
310
F5F5F5F5F5F5F5F5F5F5F5F5F5F5F5F5F5F5F5F5F5F5F5F5F5F5F5F5F5F5F5F5F5F5F5F5F5F5F5F5F5F5F5F5F5F5F5F5F5F5DCBEF5F5F5F5F5F5F5F5F5F5F5F5F5F5F5F5E2F5E2E2E2F5E2F5F5F5F5F5F5F5F5F5F5F5F5F5F5F5F5BEF5F5F5F5F5F5F5F5F5F5F5F5F5F5F5F5F5F5F5F5F5F5F5F5F5F5F5F5F5F5F5F5F5F5F5
310
F5F5F5F5F5F5F5F5F5F5F5F5F5F5F5F5F5F5F5F5F5F5F5F5F5F5F5F5F5F5F5F5F5F5F5F5F5F5F5F5F5DCF5F5F5F5F5F5F5F5F5F5F5F5F5F5F5F5F5F5F5F5F5F5F5F5F5F5F5F5F5F5F5F5F5F5F5F5F5F5F5F5F5F5F5F5F5F5F5F5F5F5F5F5F5F5F5F5F5F5F5F5F5DCBEF5F5F5F5F5F5F5F5F5F5F5F5F5F5F5F5E2F5E2E2E2F5
310
F5F5F5F5F5F5F5F5F5F5F5F5F5F5F5F5F5BEF5F5F5F5F5F5F5F5F5F5F5F5F5F5F5F5F5F5F5F5F5F5F5F5F5F5F5F5F5F5F5F5F5F5F5F5F5F5F5F5F5F5F5F5F5F5F5F5F5F5F5F5F5F5F5F5F5F5F5F5F5F5F5F5F5F5F5F5F5F5F5F5F5F5F5F5DCF5F5F5F5F5F5F5F5F5F5F5F5F5F5F5F5F5F5F5F5F5F5F5F5F5F5F5F5F5F5F5F5
310
F5F5F5F5F5F5F5F5F5F5F5F5F5F5F5F5F5F5F5F5F5F5F5F5F5F5F5F5F5DCBEF5F5F5F5F5F5F5F5F5F5F5F5F5F5F5F5F5F5E2E2E2F5F5F5F5F5F5F5F5F5F5F5F5F5F5F5F5F5F5BEF5F5F5F5F5F5F5F5F5F5F5F5F5F5F5F5F5F5F5F5F5F5F5F5F5F5F5F5F5F5F5F5F5F5F5F5F5F5F5F5F5F5F5F5F5F5F5F5F5F5F5F5F5F5F5F5
310
F5F5F5F5F5F5F5F5F5F5F5F5F5F5F5F5F5F5F5F5DCF5F5F5F5F5F5F5F5F5F5F5F5F5F5F5F5F5F5F5F5F5F5F5F5F5F5F5F5F5F5F5F5F5F5F5F5F5F5F5F5F5F5F5F5F5F5F5F5F5F5F5F5F5F5F5F5F5F5F5F5F5DCBEF5F5F5F5F5F5F5F5F5F5F5F5F5F5F5F5F5F5E2E2E2F5F5F5F5F5F5F5F5F5F5F5F5F5F5F5F5F5F5BEF5F5F5
310
F5F5F5F5F5F5F5F5F5F5F5F5F5F5F5F5F5F5F5F5F5F5F5F5F5F5F5F5F5F5F5F5F5F5F5F5F5F5F5F5F5F5F5F5F5F5F5F5F5F5F5F5F5F5F5F5F5F5F5F5F5F5F5F5F5F5F5F5F5F5F5F5F5DCF5F5F5F5F5F5F5F5F5F5F5F5F5F5F5F5F5F5F5F5F5F5F5F5F5F5F5F5F5F5F5F5F5F5F5F5F5F5F5F5F5F5F5F5F5F5F5F5F5F5F5F5F5
310
F5F5F5F5F5F5F5F5DCBEF5F5F5F5F5F5F5F5F5F5F5F5F5F5F5F5F5F5E2E2E2F5F5F5F5F5F5F5F5F5F5F5F5F5F5F5F5F5F5BEF5F5F5F5F5F5F5F5F5F5F5F5F5F5F5F5F5F5F5F5F5F5F5F5F5F5F5F5F5F5F5F5F5F5F5F5F5F5F5F5F5F5F5F5F5F5F5F5F5F5F5F5F5F5F5F5F5F5F5F5F5F5F5F5F5F5F5F5F5F5F5F5F5F5F5F5DC
310
F5F5F5F5F5F5F5F5F5F5F5F5F5F5F5F5F5F5F5F5F5F5F5F5F5F5F5F5F5F5F5F5F5F5F5F5F5F5F5F5F5F5F5F5F5F5F5F5F5F5F5F5F5F5F5F5F5F5F5F5F5DCBEF5F5F5F5F5F5F5F5F5F5F5F5F5F5F5F5F5F5E2E2E2F5F5F5F5F5F5F5F5F5F5F5F5F5F5F5F5F5F5BEF5F5F5F5F5F5F5F5F5F5F5F5F5F5F5F5F5F5F5F5F5F5F5F5
310
F5F5F5F5F5F5F5F5F5F5F5F5F5F5F5F5F5F5F5F5F5F5F5F5F5F5F5F5F5F5F5F5F5F5F5F5F5F5F5F5F5F5F5F5F5F5F5F5F5F5F5F5DCF5F5F5F5F5F5F5F5F5F5F5F5F5F5F5F5F5F5F5F5F5F5F5F5F5F5F5F5F5F5F5F5F5F5F5F5F5F5F5F5F5F5F5F5F5F5F5F5F5F5F5F5F5F5F5F5F5F5F5F5F5DCBEF5F5F5F5F5F5F5F5F5F5F5
310
F5F5F5F5F5F5F5E2E2E2F5F5F5F5F5F5F5F5F5F5F5F5F5F5F5F5F5F5BEF5F5F5F5F5F5F5F5F5F5F5F5F5F5F5F5F5F5F5F5F5F5F5F5F5F5F5F5F5F5F5F5F5F5F5F5F5F5F5F5F5F5F5F5F5F5F5F5F5F5F5F5F5F5F5F5F5F5F5F5F5F5F5F5F5F5F5F5F5F5F5F5F5F5F5F5DCF5F5F5F5F5F5F5F5F5F5F5F5F5F5F5F5F5F5F5F5F5
310
F5F5F5F5F5F5F5F5F5F5F5F5F5F5F5F5F5F5F5F5F5F5F5F5F5F5F5F5F5F5F5F5F5F5F5F5F5F5F5F5DCBEF5F5F5F5F5F5F5F5F5F5F5F5F5F5F5F5F5F5E2E2E2F5F5F5F5F5F5F5F5F5F5F5F5F5F5F5F5F5F5BEF5F5F5F5F5F5F5F5F5F5F5F5F5F5F5F5F5F5F5F5F5F5F5F5F5F5F5F5F5F5F5F5F5F5F5F5F5F5F5F5F5F5F5F5F5
310
F5F5F5F5F5F5F5F5F5F5F5F5F5F5F5F5F5F5F5F5F5F5F5F5F5F5F5F5F5F5F5DCF5F5F5F5F5F5F5F5F5F5F5F5F5F5F5F5F5F5F5F5F5F5F5F5F5F5F5F5F5F5F5F5F5F5F5F5F5F5F5F5F5F5F5F5F5F5F5F5F5F5F5F5F5F5F5F5F5F5F5F5F5DCBEF5F5F5F5F5F5F5F5F5F5F5F5F5F5F5F5F5F5E2E2E2F5F5F5F5F5F5F5F5F5F5F5
310
F5F5F5F5F5F5F5BEF5F5F5F5F5F5F5F5F5F5F5F5F5F5F5F5F5F5F5F5F5F5F5F5F5F5F5F5F5F5F5F5F5F5F5F5F5F5F5F5F5F5F5F5F5F5F5F5F5F5F5F5F5F5F5F5F5F5F5F5F5F5F5F5F5F5F5F5F5F5F5F5F5F5F5F5DCF5F5F5F5F5F5F5F5F5F5F5F5F5F5F5F5F5F5F5F5F5F5F5F5F5F5F5F5F5F5F5F5F5F5F5F5F5F5F5F5F5F5
310
F5F5F5F5F5F5F5F5F5F5F5F5F5F5F5F5F5F5F5DCBEF5F5F5F5F5F5F5F5F5F5F5F5F5F5F5F5F5F5E2E2E2F5E2F5F5F5F5F5F5F5F5F5F5F5F5F5F5F5F5BEF5F5F5F5F5F5F5F5F5F5F5F5F5F5F5F5F5F5F5F5F5F5F5F5F5F5F5F5F5F5F5F5F5F5F5F5F5F5F5F5F5F5F5F5F5F5F5F5F5F5F5F5F5F5F5F5F5F5F5F5F5F5F5F5F5F5
310
F5F5F5F5F5F5F5F5F5F5DCF5F5F5F5F5F5F5F5F5F5F5F5F5F5F5F5F5F5F5F5F5F5F5F5F5F5F5F5F5F5F5F5F5F5F5F5F5F5F5F5F5F5F5F5F5F5F5F5F5F5F5F5F5F5F5F5F5F5F5F5F5DCBEF5F5F5F5F5F5F5F5F5F5F5F5F5F5F5F5E2F5E2E2E2F5E2F5F5F5F5F5F5F5F5F5F5F5F5F5F5F5F5BEF5F5F5F5F5F5F5F5F5F5F5F5F5
310
F5F5F5F5F5F5F5F5F5F5F5F5F5F5F5F5F5F5F5F5F5F5F5F5F5F5F5F5F5F5F5F5F5F5F5F5F5F5F5F5F5F5F5F5F5F5F5F5F5F5F5F5F5F5F5F5F5F5F5F5F5F5F5DCF5F5F5F5F5F5F5F5F5F5F5F5F5F5F5F5F5F5F5F5F5F5F5F5F5F5F5F5F5F5F5F5F5F5F5F5F5F5F5F5F5F5F5F5F5F5F5F5F5F5F5F5F5F5F5F5F5F5F5F5F5DCBE
310
F5F5F5F5F5F5F5F5F5F5F5F5F5F5F5F5E2F5E2E2E2F5E2F5F5F5F5F5F5F5F5F5F5F5F5F5F5F5F5BEF5F5F5F5F5F5F5F5F5F5F5F5F5F5F5F5F5F5F5F5F5F5F5F5F5F5F5F5F5F5F5F5F5F5F5F5F5F5F5F5F5F5F5F5F5F5F5F5F5F5F5F5F5F5F5F5F5F5F5F5F5F5F5F5F5F5F5F5F5F5F5F5F5F5F5F5DCF5F5F5F5F5F5F5F5F5F5
310
F5F5F5F5F5F5F5F5F5F5F5F5F5F5F5F5F5F5F5F5F5F5F5F5F5F5F5F5F5F5F5F5F5F5F5F5F5F5F5F5F5F5F5F5F5F5F5F5F5F5F5DCBEF5F5F5F5F5F5F5F5F5F5F5F5F5F5F5F5E2F5E2E2E2F5E2F5F5F5F5F5F5F5F5F5F5F5F5F5F5F5F5BEF5F5F5F5F5F5F5F5F5F5F5F5F5F5F5F5F5F5F5F5F5F5F5F5F5F5F5F5F5F5F5F5F5F5
310
F5F5F5F5F5F5F5F5F5F5F5F5F5F5F5F5F5F5F5F5F5F5F5F5F5F5F5F5F5F5F5F5F5F5F5F5F5F5F5F5F5F5DCF5F5F5F5F5F5F5F5F5F5F5F5F5F5F5F5F5F5F5F5F5F5F5F5F5F5F5F5F5F5F5F5F5F5F5F5F5F5F5F5F5F5F5F5F5F5F5F5F5F5F5F5F5F5F5F5F5F5F5F5F5DCBEF5F5F5F5F5F5F5F5F5F5F5F5F5F5F5F5E2F5E2E2E2
310
F5E2F5F5F5F5F5F5F5F5F5F5F5F5F5F5F5F5BEF5F5F5F5F5F5F5F5F5F5F5F5F5F5F5F5F5F5F5F5F5F5F5F5F5F5F5F5F5F5F5F5F5F5F5F5F5F5F5F5F5F5F5F5F5F5F5F5F5F5F5F5F5F5F5F5F5F5F5F5F5F5F5F5F5F5F5F5F5F5F5F5F5F5F5F5DCF5F5F5F5F5F5F5F5F5F5F5F5F5F5F5F5F5F5F5F5F5F5F5F5F5F5F5F5F5F5F5
310
F5F5F5F5F5F5F5F5F5F5F5F5F5F5F5F5F5F5F5F5F5F5F5F5F5F5F5F5F5F5DCBEF5F5F5F5F5F5F5F5F5F5F5F5F5F5F5F5E2F5E2E2E2F5E2F5F5F5F5F5F5F5F5F5F5F5F5F5F5F5F5BEF5F5F5F5F5F5F5F5F5F5F5F5F5F5F5F5F5F5F5F5F5F5F5F5F5F5F5F5F5F5F5F5F5F5F5F5F5F5F5F5F5F5F5F5F5F5F5F5F5F5F5F5F5F5F5
310
F5F5F5F5F5F5F5F5F5F5F5F5F5F5F5F5F5F5F5F5F5DCF5F5F5F5F5F5F5F5F5F5F5F5F5F5F5F5F5F5F5F5F5F5F5F5F5F5F5F5F5F5F5F5F5F5F5F5F5F5F5F5F5F5F5F5F5F5F5F5F5F5F5F5F5F5F5F5F5F5F5F5F5DCBEF5F5F5F5F5F5F5F5F5F5F5F5F5F5F5F5E2F5E2E2E2F5E2F5F5F5F5F5F5F5F5F5F5F5F5F5F5F5F5BEF5F5
310
F5F5F5F5F5F5F5F5F5F5F5F5F5F5F5F5F5F5F5F5F5F5F5F5F5F5F5F5F5F5F5F5F5F5F5F5F5F5F5F5F5F5F5F5F5F5F5F5F5F5F5F5F5F5F5F5F5F5F5F5F5F5F5F5F5F5F5F5F5F5F5F5F5F5DCF5F5F5F5F5F5F5F5F5F5F5F5F5F5F5F5F5F5F5F5F5F5F5F5F5F5F5F5F5F5F5F5F5F5F5F5F5F5F5F5F5F5F5F5F5F5F5F5F5F5F5F5
310
F5F5F5F5F5F5F5F5F5DCBEF5F5F5F5F5F5F5F5F5F5F5F5F5F5F5F5E2F5E2E2E2F5E2F5F5F5F5F5F5F5F5F5F5F5F5F5F5F5F5BEF5F5F5F5F5F5F5F5F5F5F5F5F5F5F5F5F5F5F5F5F5F5F5F5F5F5F5F5F5F5F5F5F5F5F5F5F5F5F5F5F5F5F5F5F5F5F5F5F5F5F5F5F5F5F5F5F5F5F5F5F5F5F5F5F5F5F5F5F5F5F5F5F5F5F5F5
310
DCF5F5F5F5F5F5F5F5F5F5F5F5F5F5F5F5F5F5F5F5F5F5F5F5F5F5F5F5F5F5F5F5F5F5F5F5F5F5F5F5F5F5F5F5F5F5F5F5F5F5F5F5F5F5F5F5F5F5F5F5F5DCBEF5F5F5F5F5F5F5F5F5F5F5F5F5F5F5F5E2F5E2E2E2F5E2F5F5F5F5F5F5F5F5F5F5F5F5F5F5F5F5BEF5F5F5F5F5F5F5F5F5F5F5F5F5F5F5F5F5F5F5F5F5F5F5
310
F5F5F5F5F5F5F5F5F5F5F5F5F5F5F5F5F5F5F5F5F5F5F5F5F5F5F5F5F5F5F5F5F5F5F5F5F5F5F5F5F5F5F5F5F5F5F5F5F5F5F5F5F5DCF5F5F5F5F5F5F5F5F5F5F5F5F5F5F5F5F5F5F5F5F5F5F5F5F5F5F5F5F5F5F5F5F5F5F5F5F5F5F5F5F5F5F5F5F5F5F5F5F5F5F5F5F5F5F5F5F5F5F5F5F5DCBEF5F5F5F5F5F5F5F5F5F5
310
F5F5F5F5F5F5E2F5E2E2E2F5E2F5F5F5F5F5F5F5F5F5F5F5F5F5F5F5F5BEF5F5F5F5F5F5F5F5F5F5F5F5F5F5F5F5F5F5F5F5F5F5F5F5F5F5F5F5F5F5F5F5F5F5F5F5F5F5F5F5F5F5F5F5F5F5F5F5F5F5F5F5F5F5F5F5F5F5F5F5F5F5F5F5F5F5F5F5F5F5F5F5F5F5F5F5DCF5F5F5F5F5F5F5F5F5F5F5F5F5F5F5F5F5F5F5F5
310
F5F5F5F5F5F5F5F5F5F5F5F5F5F5F5F5F5F5F5F5F5F5F5F5F5F5F5F5F5F5F5F5F5F5F5F5F5F5F5F5F5DCBEF5F5F5F5F5F5F5F5F5F5F5F5F5F5F5F5E2F5E2E2E2F5E2F5F5F5F5F5F5F5F5F5F5F5F5F5F5F5F5BEF5F5F5F5F5F5F5F5F5F5F5F5F5F5F5F5F5F5F5F5F5F5F5F5F5F5F5F5F5F5F5F5F5F5F5F5F5F5F5F5F5F5F5F5
310
F5F5F5F5F5F5F5F5F5F5F5F5F5F5F5F5F5F5F5F5F5F5F5F5F5F5F5F5F5F5F5F5DCF5F5F5F5F5F5F5F5F5F5F5F5F5F5F5F5F5F5F5F5F5F5F5F5F5F5F5F5F5F5F5F5F5F5F5F5F5F5F5F5F5F5F5F5F5F5F5F5F5F5F5F5F5F5F5F5F5F5F5F5F5DCBEF5F5F5F5F5F5F5F5F5F5F5F5F5F5F5F5E2F5E2E2E2F5E2F5F5F5F5F5F5F5F5
310
F5F5F5F5F5F5F5F5BEF5F5F5F5F5F5F5F5F5F5F5F5F5F5F5F5F5F5F5F5F5F5F5F5F5F5F5F5F5F5F5F5F5F5F5F5F5F5F5F5F5F5F5F5F5F5F5F5F5F5F5F5F5F5F5F5F5F5F5F5F5F5F5F5F5F5F5F5F5F5F5F5F5F5F5F5DCF5F5F5F5F5F5F5F5F5F5F5F5F5F5F5F5F5F5F5F5F5F5F5F5F5F5F5F5F5F5F5F5F5F5F5F5F5F5F5F5F5
310
F5F5F5F5F5F5F5F5F5F5F5F5F5F5F5F5F5F5F5F5DCBEF5F5F5F5F5F5F5F5F5F5F5F5F5F5F5F5E2F5E2E2E2F5E2F5F5F5F5F5F5F5F5F5F5F5F5F5F5F5F5BEF5F5F5F5F5F5F5F5F5F5F5F5F5F5F5F5F5F5F5F5F5F5F5F5F5F5F5F5F5F5F5F5F5F5F5F5F5F5F5F5F5F5F5F5F5F5F5F5F5F5F5F5F5F5F5F5F5F5F5F5F5F5F5F5F5
310
F5F5F5F5F5F5F5F5F5F5F5DCF5F5F5F5F5F5F5F5F5F5F5F5F5F5F5F5F5F5F5F5F5F5F5F5F5F5F5F5F5F5F5F5F5F5F5F5F5F5F5F5F5F5F5F5F5F5F5F5F5F5F5F5F5F5F5F5F5F5F5F5F5DCBEF5F5F5F5F5F5F5F5F5F5F5F5F5F5F5F5E2F5E2E2E2F5E2F5F5F5F5F5F5F5F5F5F5F5F5F5F5F5F5BEF5F5F5F5F5F5F5F5F5F5F5F5
310
F5F5F5F5F5F5F5F5F5F5F5F5F5F5F5F5F5F5F5F5F5F5F5F5F5F5F5F5F5F5F5F5F5F5F5F5F5F5F5F5F5F5F5F5F5F5F5F5F5F5F5F5F5F5F5F5F5F5F5F5F5F5F5F5DCF5F5F5F5F5F5F5F5F5F5F5F5F5F5F5F5F5F5F5F5F5F5F5F5F5F5F5F5F5F5F5F5F5F5F5F5F5F5F5F5F5F5F5F5F5F5F5F5F5F5F5F5F5F5F5F5F5F5F5F5F5DC
310
BEF5F5F5F5F5F5F5F5F5F5F5F5F5F5F5F5E2F5E2E2E2F5E2F5F5F5F5F5F5F5F5F5F5F5F5F5F5F5F5BEF5F5F5F5F5F5F5F5F5F5F5F5F5F5F5F5F5F5F5F5F5F5F5F5F5F5F5F5F5F5F5F5F5F5F5F5F5F5F5F5F5F5F5F5F5F5F5F5F5F5F5F5F5F5F5F5F5F5F5F5F5F5F5F5F5F5F5F5F5F5F5F5F5F5F5F5DCF5F5F5F5F5F5F5F5F5
310
F5F5F5F5F5F5F5F5F5F5F5F5F5F5F5F5F5F5F5F5F5F5BEF5F5F5F5F5F5F5F5F5F5F5F5F5F5F5F5F5F5F5F5F5F5F5F5F5F5F5F5F5DCBEF5F5F5F5F5F5F5F5F5F5F5F5F5F5F5F5E2F5E2E2E2F5E2F5F5F5F5F5F5F5F5F5F5F5F5F5F5F5F5BEF5F5F5F5F5F5F5F5F5F5F5F5F5F5F5F5F5F5F5F5F5F5F5F5F5F5F5F5F5F5F5F5F5
310
F5F5F5F5F5F5F5F5F5F5F5F5F5F5F5F5F5F5F5F5F5F5F5F5F5F5F5F5F5F5F5F5F5F5F5F5F5F5F5F5F5F5F5DCF5F5F5F5F5F5F5F5F5F5F5F5F5F5F5F5F5F5F5F5F5F5F5F5F5F5F5F5F5F5F5BEF5F5F5F5F5F5F5F5F5F5F5F5F5F5F5F5F5F5F5F5F5F5F5F5F5F5F5F5F5DCBEF5F5F5F5F5F5F5F5F5F5F5F5F5F5F5F5E2F5E2E2
310
E2F5F5F5F5F5F5F5F5F5F5F5F5F5F5F5F5F5F5BEF5F5F5F5F5F5F5F5F5F5F5F5F5F5F5F5F5F5F5F5F5F5F5F5F5F5F5F5F5F5F5F5F5F5F5F5F5F5F5F5F5F5F5F5F5F5F5F5F5F5F5F5F5F5F5F5F5F5F5F5F5F5F5F5F5F5F5F5F5F5F5F5F5F5F5F5DCF5F5F5F5F5F5F5F5F5F5F5F5F5F5F5F5F5F5F5F5F5F5F5F5F5F5F5F5F5F5
310
F5BEF5F5F5F5F5F5F5F5F5F5F5F5F5F5F5F5F5F5F5F5F5F5F5F5F5F5F5F5F5DCBEF5F5F5F5F5F5F5F5F5F5F5F5F5F5F5F5F5F5E2E2E2F5F5F5F5F5F5F5F5F5F5F5F5F5F5F5F5F5F5BEF5F5F5F5F5F5F5F5F5F5F5F5F5F5F5F5F5F5F5F5F5F5F5F5F5F5F5F5F5F5F5F5F5F5F5F5F5F5F5F5F5F5F5F5F5F5F5F5F5F5F5F5F5F5
310
F5F5F5F5F5F5F5F5F5F5F5F5F5F5F5F5F5F5F5F5F5F5DCF5F5F5F5F5F5F5F5F5F5F5F5F5F5F5F5F5F5F5F5F5F5F5F5F5F5F5F5F5F5F5BEF5F5F5F5F5F5F5F5F5F5F5F5F5F5F5F5F5F5F5F5F5F5F5F5F5F5F5F5F5DCBEF5F5F5F5F5F5F5F5F5F5F5F5F5F5F5F5F5F5E2E2E2F5F5F5F5F5F5F5F5F5F5F5F5F5F5F5F5F5F5BEF5
310
F5F5F5F5F5F5F5F5F5F5F5F5F5F5F5F5F5F5F5F5F5F5F5F5F5F5F5F5F5F5F5F5F5F5F5F5F5F5F5F5F5F5F5F5F5F5F5F5F5F5F5F5F5F5F5F5F5F5F5F5F5F5F5F5F5F5F5F5F5F5F5F5F5F5F5DCF5F5F5F5F5F5F5F5F5F5F5F5F5F5F5F5F5F5F5F5F5F5F5F5F5F5F5F5F5F5F5BEF5F5F5F5F5F5F5F5F5F5F5F5F5F5F5F5F5F5F5
310
F5F5F5F5F5F5F5F5F5F5DCBEF5F5F5F5F5F5F5F5F5F5F5F5F5F5F5F5F5F5E2E2E2F5F5F5F5F5F5F5F5F5F5F5F5F5F5F5F5F5F5BEF5F5F5F5F5F5F5F5F5F5F5F5F5F5F5F5F5F5F5F5F5F5F5F5F5F5F5F5F5F5F5F5F5F5F5F5F5F5F5F5F5F5F5F5F5F5F5F5F5F5F5F5F5F5F5F5F5F5F5F5F5F5F5F5F5F5F5F5F5F5F5F5F5F5F5
310
F5DCF5F5F5F5F5F5F5F5F5F5F5F5F5F5F5F5F5F5F5F5F5F5F5F5F5F5F5F5F5F5F5BEF5F5F5F5F5F5F5F5F5F5F5F5F5F5F5F5F5F5F5F5F5F5F5F5F5F5F5F5F5DCBEF5F5F5F5F5F5F5F5F5F5F5F5F5F5F5F5F5F5E2E2E2F5F5F5F5F5F5F5F5F5F5F5F5F5F5F5F5F5F5BEF5F5F5F5F5F5F5F5F5F5F5F5F5F5F5F5F5F5F5F5F5F5
310
F5F5F5F5F5F5F5F5F5F5F5F5F5F5F5F5F5F5F5F5F5F5F5F5F5F5F5F5F5F5F5F5F5F5F5F5F5F5F5F5F5F5F5F5F5F5F5F5F5F5F5F5F5F5DCF5F5F5F5F5F5F5F5F5F5F5F5F5F5F5F5F5F5F5F5F5F5F5F5F5F5F5F5F5F5F5BEF5F5F5F5F5F5F5F5F5F5F5F5F5F5F5F5F5F5F5F5F5F5F5F5F5F5F5F5F5DCBEF5F5F5F5F5F5F5F5F5
310
F5F5F5F5F5F5F5F5F5E2E2E2F5F5F5F5F5F5F5F5F5F5F5F5F5F5F5F5F5F5BEF5F5F5F5F5F5F5F5F5F5F5F5F5F5F5F5F5F5F5F5F5F5F5F5F5F5F5F5F5F5F5F5F5F5F5F5F5F5F5F5F5F5F5F5F5F5F5F5F5F5F5F5F5F5F5F5F5F5F5F5F5F5F5F5F5F5F5F5F5F5F5F5F5F5F5F5DCF5F5F5F5F5F5F5F5F5F5F5F5F5F5F5F5F5F5F5
310
F5F5F5F5F5F5F5F5F5F527F5BEF5F5F5F5F5F5F5F5F5F5F5F5F5F5F5F5F5F5F5F5F5F5F5F5F5F5F5F5F5DCBEF5F5F5F5F5F5F5F5F5F5F5F5F5F5F5F5F5F5E2E2E2F5F5F5F5F5F5F5F5F5F5F5F5F5F5F5F5F5F5BEF5F5F5F5F5F5F5F5F5F5F5F5F5F5F5F5F5F5F5F5F5F5F5F5F5F5F5F5F5F5F5F5F5F5F5F5F5F5F5F5F5F5F5
310
F5F5F5F5F5F5F5F5F5F5F5F5F5F5F5F5F5F5F5F5F5F5F5F5F5F5F5F5F5F5F5F5F5DCF5F5F5F5F5F5F5F5F5F5F5F5F5F5F5F5F5F5F5F5F5F5F5F5F5F5F5F5F527F5BEF5F5F5F5F5F5F5F5F5F5F5F5F5F5F5F5F5F5F5F5F5F5F5F5F5F5F5F5F5DCBEF5F5F5F5F5F5F5F5F5F5F5F5F5F5F5F5F5F5E2E2E2F5F5F5F5F5F5F5F5F5
310
F5F5F5F5F5F5F5F5F5BEF5F5F5F5F5F5F5F5F5F5F5F5F5F5F5F5F5F5F5F5F5F5F5F5F5F5F5F5F5F5F5F5F5F5F5F5F5F5F5F5F5F5F5F5F5F5F5F5F5F5F5F5F5F5F5F5F5F5F5F5F5F5F5F5F5F5F5F5F5F5F5F5F5F5F5F5DCF5F5F5F5F5F5F5F5F5F5F5F5F5F5F5F5F5F5F5F5F5F5F5F5F5F5F5F5F527F5BEF5F5F5F5F5F5F5F5
310
F5F5F5F5F5F5F5F5F5F5F5F5F5F5F5F5F5F5F5F5F5DCBEF5F5F5F5F5F5F5F5F5F5F5F5F5F5F5F5F5F5E2E2E2F5F5F5F5F5F5F5F5F5F5F5F5F5F5F5F5F5F5BEF5F5F5F5F5F5F5F5F5F5F5F5F5F5F5F5F5F5F5F5F5F5F5F5F5F5F5F5F5F5F5F5F5F5F5F5F5F5F5F5F5F5F5F5F5F5F5F5F5F5F5F5F5F5F5F5F5F5F5F5F5F5F5F5
310
F5F5F5F5F5F5F5F5F5F5F5F5DCF5F5F5F5F5F5F5F5F5F5F5F5F5F5F5F5F5F5F5F5F5F5F5F5F5F5F5F5F527F5BEF5F5F5F5F5F5F5F5F5F5F5F5F5F5F5F5F5F5F5F5F5F5F5F5F5F5F5F5F5DCBEF5F5F5F5F5F5F5F5F5F5F5F5F5F5F5F5F5F5E2E2E2F5E2F5F5F5F5F5F5F5F5F5F5F5F5F5F5F5F5BEF5F5F5F5F5F5F5F5F5F5F5
310
F5F5F5F5F5F5F5F5F5F5F5F5F5F5F5F5F5F5F5F5F5F5F5F5F5F5F5F5F5F5F5F5F5F5F5F5F5F5F5F5F5F5F5F5F5F5F5F5F5F5F5F5F5F5F5F5F5F5F5F5F5F5F5F5F5DCF5F5F5F5F5F5F5F5F5F5F5F5F5F5F5F5F5F5F5F5F5F5F5F5F5F5F5F5F527F5BEF5F5F5F5F5F5F5F5F5F5F5F5F5F5F5F5F5F5F5F5F5F5F5F5F5F5F5F5F5
310
DCBEF5F5F5F5F5F5F5F5F5F5F5F5F5F5F5F5E2F5E2E2E2F5E2F5F5F5F5F5F5F5F5F5F5F5F5F5F5F5F5BEF5F5F5F5F5F5F5F5F5F5F5F5F5F5F5F5F5F5F5F5F5F5F5F5F5F5F5F5F5F5F5F5F5F5F5F5F5F5F5F5F5F5F5F5F5F5F5F5F5F5F5F5F5F5F5F5F5F5F5F5F5F5F5F5F5F5F5F5F5F5F5F5F5F5F5F5DCF5F5F5F5F5F5F5F5
310
F5F5F5F5F5BEF5F5BEF5F5F5F5F5BEBEF5F5F5F5F527F5BEF5F5F5F5F5F5BEF5F5F5F5F5F5BEF5F5BEF5F5F5F5F5F5F5F5F5F5F5F5DCBEF5F5F5F5F5F5F5F5F5F5F5F5F5F5F5F5E2F5E2E2E2F5E2F5F5F5F5F5F5F5F5F5F5F5F5F5F5F5F5BEF5F5F5F5F5F5F5F5F5F5F5F5F5F5F5F5F5F5F5F5F5F5F5F5F5F5F5F5F5F5F5F5
310
F5F5F5F5F5F5F5F5F5F5F5F5F5F5F5F5F5F5F5F5F5F5F5F5F5F5F5F5F5F5F5F5F5F5F5F5F5F5F5F5F5F5F5F5DCF5F5F5F5F5F5F5F5F5F5F5F5BEBE2727BEBEBE2727BEBE1EF5F5F5F5F527F5BEF5F5F5F5F5F51EBEBE2727BEBEBE2727BEBEF5F5F5F5F5F5F5F5F5F5F5DCBEF5F5F5F5F5F5F5F5F5F5F5F5F5F5F5F5E2F5E2
310
E2E2F5E2F5F5F5F5F5F5F5F5F5F5F5F5F5F5F5F5BEF5F5F5F5F5F5F5F5F5F5F5F5F5F5F5F5F5F5F5F5F5F5F5F5F5F5F5F5F5F5F5F5F5F5F5F5F5F5F5F5F5F5F5F5F5F5F5F5F5F5F5F5F5F5F5F5F5F5F5F5F5F5F5F5F5F5F5F5F5F5F5F5F5F5F5F5DCF5F5F5F5F5F5F5F5F5F5F5F5F5F5F5F5F5F5F5F5F5F5F5F5F5F5F5F5F5
310
27F5BEF5F5F5F5F5F5F5F5F5F5F5F5F5F5F5F5F5F5F5F5F5F5F5F5F5F5F5F5F5DCBEF5F5F5F5F5F5F5F5F5F5F5F5F5F5F5F5E2F5E2E2E2F5E2F5F5F5F5F5F5F5F5F5F5F5F5F5F5F5F5BEF5F5F5F5F5F5F5F5F5F5F5F5F5F5F5F5F5F5F5F5F5F5F5F5F5F5F5F5F5F5F5F5F5F5F5F5F5F5F5F5F5F5F5F5F5F5F5F5F5F5F5F5F5
310
F5F5F5F5F5F5F5F5F5F5F5F5F5F5F5F5F5F5F5F5F5F5F5DCF5F5F5F5F5F5F5F5F5F5F5F5F5F5F5F5F5F51EF5F51EF5F5F5F5F5F5F527F5BEF5F5F5F5F5F5F5F51EF5F51EF5F5F5F5F5F5F5F5F5F5F5F5F5F5F5F5F5DCBEF5F5F5F5F5F5F5F5F5F5F5F5F5F5F5F5E2F5E2E2E2F5E2F5F5F5F5F5F5F5F5F5F5F5F5F5F5F5F5BE
310
F5F5F5F5F5F5F5F5F5F5F5F5F5F5F5F5F5F5F5F5F5F5F5F5F5F5F5F5F5F5F5F5F5F5F5F5F5F5F5F5F5F5F5F5F5F5F5F5F5F5F5F5F5F5F5F5F5F5F5F5F5F5F5F5F5F5F5F5F5F5F5F5F5F5F5F5DCF5F5F5F5F5F5F5F5F5F5BEF5F5F5F5F51EF51E1E1E1EF51EF5F5F5F5F527F5BEF5F5F5F5F5F51EF51E1E1E1EF51EF5F5F5F5
310
F5BEF5F5F5F5F5F5F5F5F5DCBEF5F5F5F5F5F5F5F5F5F5F5F5F5F5F5F5E2F5E2E2E2F5E2F5F5F5F5F5F5F5F5F5F5F5F5F5F5F5F5BEF5F5F5F5F5F5F5F5F5F5F5F5F5F5F5F5F5F5F5F5F5F5F5F5F5F5F5F5F5F5F5F5F5F5F5F5F5F5F5F5F5F5F5F5F5F5F5F5F5F5F5F5F5F5F5F5F5F5F5F5F5F5F5F5F5F5F5F5F5F5F5F5F5F5
310
F5F5DCF5F5F5F5F5F5F5F5F5F51EF5F51E1E1E1E1E1E1E1E1E1E1EF5F51EF5F527F5BEF5F5F51EF5F51E1E1E1E1E1E1E1E1E1E1EF5271EF5F5F5F5F5F5F5F5F5DCBEF5F5F5F5F5F5F5F5F5F5F5F5F5F5F5F5E2F5E2E2E2F5E2F5F5F5F5F5F5F5F5F5F5F5F5F5F5F5F5BEF5F5F5F5F5F5F5F5F5F5F5F5F5F5F5F5F5F5F5F5F5
310
F5F5F5F5F5F5F5F5F5F5F5F5F5F5F5F5F5F5F5F5F5F5F5F5F5F5F5F5F5F5F5F5F5F5F5F5F5F5F5F5F5F5F5F5F5F5F5F5F5F5F5F5F5F5F5DCF5F5F5F5F5F5F5F5F5F527F5F51E1E1E1E1EF5F5F5F51E1EF52727F5F5F5F5BEF5F52727F5F51E1EF5F5F5F51E1E1E1E1EF527BEF5F5F5F5F5F5F5F5F5DCBEF5F5F5F5F5F5F5F5
310
F5F5F5F5F5F5F5F5E2F5E2E2E2F5E2F5F5F5F5F5F5F5F5F5F5F5F5F5F5F5F5BEF5F5F5F5F5F5F5F5F5F5F5F5F5F5F5F5F5F5F5F5F5F5F5F5F5F5F5F5F5F5F5F5F5F5F5F5F5F5F5F5F5F5F5F5F5F5F5F5F5F5F5F5F5F5F5F5F5F5F5F5F5F5F5F5F5F5F5F5F5F5F5F5F5F5F5F5DCF5F5F5F5F5F5F5F5F5F527F5F51EF5F5F5F5
310
F5F5F5F51E1EF52727F5F5F5F5BEF5F52727F5F51E1EF5F5F5F5F5F5F5F51EF52727F5F5F5F5F5F5F5F5F5DCBEF5F5F5F5F5F5F5F5F5F5F5F5F5F5F5F5E2F5E2E2E2F5E2F5F5F5F5F5F5F5F5F5F5F5F5F5F5F5F5BEF5F5F5F5F5F5F5F5F5F5F5F5F5F5F5F5F5F5F5F5F5F5F5F5F5F5F5F5F5F5F5F5F5F5F5F5F5F5F5F5F5F5
310
F5F5F5F5F5F5F5F5F5F5F5F5F5F5F5F5F5F5F5F5F5F5F5F5F5F5F5F5F5F5F5F5F5F5DCF5F5F5F5F5F5F5F5F5F527F5F51EF5F5F5F5F5F5F51E1E1EF5F5BEF5F5F5F5BEF5F5F5BEF5F51E1E1EF5F5F5F5F5F5F51EF52727F5F5F5F5F5F5F5F5F5DCBEF5F5F5F5F5F5F5F5F5F5F5F5F5F5F5F5E2F5E2E2E2F5E2F5F5F5F5F5F5
310
F5F5F5F5F5F5F5F5F5F5BEF5F5F5F5F5F5F5F5F5F5F5F5F5F5F5F5F5F5F5F5F5F5F5F5F5F5F5F5F5F5F5F5F5F5F5F5F5F5F5F5F5F5F5F5F5F5F5F5F5F5F5F5F5F5F5F5F5F5F5F5F5F5F5F5F5F5F5F5F5F5F5F5F5F5F5F5DCF5F5F5F5F5F5F5F5F5F5BEF5F51E1E1E1E1EF5F51E1E1E1E1E27BEF5F5F5F5BEF5F527BEF51E1E
310
1E1E1EF5F51E1E1E1E1EF5F5BEF5F5F5F5F5F5F5F5F5DCBEF5F5F5F5F5F5F5F5F5F5F5F5F5F5F5F5E2F5E2E2E2F5E2F5F5F5F5F5F5F5F5F5F5F5F5F5F5F5F5BEF5F5F5F5F5F5F5F5F5F5F5F5F5F5F5F5F5F5F5F5F5F5F5F5F5F5F5F5F5F5F5F5F5F5F5F5F5F5F5F5F5F5F5F5F5F5F5F5F5F5F5F5F5F5F5F5F5F5F5F5F5F5F5
310
F5F5F5F5F5F5F5F5F5F5F5F5F5DCF5F5F5F5F5F5F5F5F5F5BEF5F51E1E1E1E1EF5F51E1EF51E1E2727F5F5F5F5BEF5F52727F51E1EF51E1EF5F51E1E1E1E1EF527BEF5F5F5F5F5F5F5F5F5DCBEF5F5F5F5F5F5F5F5F5F5F5F5F5F5F5F5E2F5E2E2E2F5E2F5F5F5F5F5F5F5F5F5F5F5F5F5F5F5F5BEF5F5F5F5F5F5F5F5F5F5
310
F5F5F5F5F5F5F5F5F5F5F5F5F5F5F5F5F5F5F5F5F5F5F5F5F5F5F5F5F5F5F5F5F5F5F5F5F5F5F5F5F5F5F5F5F5F5F5F5F5F5F5F5F5F5F5F5F5F5F5F5F5F5F5F5F5F5DCF5F5F5F5F5F5F5F5F5F527F5F5F5F5F51E1E1E1E1EF51E1EF527BEF5F5F5F5BEF5F527BEF5F51E1EF51E1E1E1E1EF5F5F5F52727F5F5F5F5F5F5F5F5
310
F5DCBEF5F5F5F5F5F5F5F5F5F5F5F5F5F5F5F5E2F5E2E2E2F5E2F5F5F5F5F5F5F5F5F5F5F5F5F5F5F5F5BEF5F5F5F5F5F5F5F5F5F5F5F5F5F5F5F5F5F5F5F5F5F5F5F5F5F5F5F5F5F5F5F5F5F5F5F5F5F5F5F5F5F5F5F5F5F5F5F5F5F5F5F5F5F5F5F5F5F5F5F5F5F5F5F5F5F5F5F5F5F5F5F5F5F5F5F5DCF5F5F5F5F5F5F5
310
F5F5F5BEF5F5F5F5F5F5F5F5F51E1E1EF5F5F5BEF5F5F5F5BEF5F5F5BEF5F5F51E1E1EF5F5F5F5F5F5F5F5F5BEF5F5F5F5F5F5F5F5F5DCBEF5F5F5F5F5F5F5F5F5F5F5F5F5F5F5F5E2F5E2E2E2F5E2F5F5F5F5F5F5F5F5F5F5F5F5F5F5F5F5BEF5F5F5F5F5F5F5F5F5F5F5F5F5F5F5F5F5F5F5F5F5F5F5F5F5F5F5F5F5F5F5
310
F5F5F5F5F5F5F5F5F5F5F5F5F5F5F5F5F5F5F5F5F5F5F5F5F5F5F5F5F5F5F5F5F5F5F5F5F5F5F5F5F5F5F5F5F5DCF5F5F5F5F5F5F5F5F5F5F5F5F5F5F5F5F5F5F5F5F5F5F5F5F5F5F5F5F5F5F5BEF5F5F5F5F5F5F5F5F5F5F5F5F5F5F5F5F5F5F5F5F5F5F5F5F5F5F5F5F5DCBEF5F5F5F5F5F5F5F5F5F5F5F5F5F5F5F5E2F5
310
E2E2E2F5E2F5F5F5F5F5F5F5F5F5F5F5F5F5F5F5F5BEF5F5F5F5F5F5F5F5F5F5F5F5F5F5F5F5F5F5F5F5F5F5F5F5F5F5F5F5F5F5F5F5F5F5F5F5F5F5F5F5F5F5F5F5F5F5F5F5F5F5F5F5F5F5F5F5F5F5F5F5F5F5F5F5F5F5F5F5F5F5F5F5F5F5F5F5DCF5F5F5F5F5F5F5F5F5F5F5F5BE272727BEBE2727BE27271EF5F5F5F5
310
F5F5F5BEF5F5F5F5F5F51E27BEBE2727BEBE272727BEF5F5F5F5F5F5F5F5F5F5F5DCBEF5F5F5F5F5F5F5F5F5F5F5F5F5F5F5F5E2F5E2E2E2F5F5F5F5F5F5F5F5F5F5F5F5F5F5F5F5F5F5BEF5F5F5F5F5F5F5F5F5F5F5F5F5F5F5F5F5F5F5F5F5F5F5F5F5F5F5F5F5F5F5F5F5F5F5F5F5F5F5F5F5F5F5F5F5F5F5F5F5F5F5F5
310
F5F5F5F5F5F5F5F5F5F5F5F5F5F5F5F5F5F5F5F5F5F5F5F5DCF5F5F5F5F5F5F5F5F5F5F5F5F527272727F5272727272727F5F5F5F5F5F5F5BEF5F5F5F5F5F5F52727272727F527272727F5F5F5F5F5F5F5F5F5F5F5F5DCBEF5F5F5F5F5F5F5F5F5F5F5F5F5F5F5F5F5F5E2E2E2F5F5F5F5F5F5F5F5F5F5F5F5F5F5F5F5F5F5
310
BEF5F5F5F5F5F5F5F5F5F5F5F5F5F5F5F5F5F5F5F5F5F5F5F5F5F5F5F5F5F5F5F5F5F5F5F5F5F5F5F5F5F5F5F5F5F5F5F5F5F5F5F5F5F5F5F5F5F5F5F5F5F5F5F5F5F5F5F5F5F5F5F5F5F5F5F5DCF5F5F5F5F5F5F5F5F5F5F5F5F5F5F5F5F5F5F5F5F5F5F5F5F5F5F5F5F5F5F5BEF5F5F5F5F5F5F5F5F5F5F5F5F5F5F5F5F5
310
F5F5F5F5F5F5F5F5F5F5F5F5DCBEF5F5F5F5F5F5F5F5F5F5F5F5F5F5F5F5F5F5E2E2E2F5F5F5F5F5F5F5F5F5F5F5F5F5F5F5F5F5F5BEF5F5F5F5F5F5F5F5F5F5F5F5F5F5F5F5F5F5F5F5F5F5F5F5F5F5F5F5F5F5F5F5F5F5F5F5F5F5F5F5F5F5F5F5F5F5F5F5F5F5F5F5F5F5F5F5F5F5F5F5F5F5F5F5F5F5F5F5F5F5F5F5F5
310
F5F5F5DCF5F5F5F5F5F5F5F5F5F5F5F5F5F5F5F5F5F5F5F5F5F5F5F5F5F5F5F5F5F5F5BEF5F5F5F5F5F5F5F5F5F5F5F5F5F5F5F5F5F5F5F5F5F5F5F5F5F5F5F5F5DCBEF5F5F5F5F5F5F5F5F5F5F5F5F5F5F5F5F5F5E2E2E2F5F5F5F5F5F5F5F5F5F5F5F5F5F5F5F5F5F5BEF5F5F5F5F5F5F5F5F5F5F5F5F5F5F5F5F5F5F5F5
310
F5F5F5F5F5F5F5F5F5F5F5F5F5F5F5F5F5F5F5F5F5F5F5F5F5F5F5F5F5F5F5F5F5F5F5F5F5F5F5F5F5F5F5F5F5F5F5F5F5F5F5F5F5F5F5F5DCF5F5F5F5F5F5F5F5F5F5F5F5F5F5F5F5F5F5F5F5F5F5F5F5F5F5F5F5F5F5F5F5F5F5F5F5F5F5F5F5F5F5F5F5F5F5F5F5F5F5F5F5F5F5F5F5F5F5F5F5F5DCBEF5F5F5F5F5F5F5
310
F5F5F5F5F5F5F5F5F5F5F5E2E2E2F5F5F5F5F5F5F5F5F5F5F5F5F5F5F5F5F5F5BEF5F5F5F5F5F5F5F5F5F5F5F5F5F5F5F5F5F5F5F5F5F5F5F5F5F5F5F5F5F5F5F5F5F5F5F5F5F5F5F5F5F5F5F5F5F5F5F5F5F5F5F5F5F5F5F5F5F5F5F5F5F5F5F5F5F5F5F5F5F5F5F5F5F5F5F5DCF5F5F5F5F5F5F5F5F5F5F5F5F5F5F5F5F5
310
F5F5F5F5F5F5F5F5F5F5F5F5F5F5F5F5F5F5F5F5F5F5F5F5F5F5F5F5F5F5F5F5F5F5F5F5F5F5F5F5F5F5F5F5DCBEF5F5F5F5F5F5F5F5F5F5F5F5F5F5F5F5F5F5E2E2E2F5F5F5F5F5F5F5F5F5F5F5F5F5F5F5F5F5F5BEF5F5F5F5F5F5F5F5F5F5F5F5F5F5F5F5F5F5F5F5F5F5F5F5F5F5F5F5F5F5F5F5F5F5F5F5F5F5F5F5F5
310
F5F5F5F5F5F5F5F5F5F5F5F5F5F5F5F5F5F5F5F5F5F5F5F5F5F5F5F5F5F5F5F5F5F5F5DCF5F5F5F5F5F5F5F5F5F5F5F5F5F5F5F5F5F5F5F5F5F5F5F5F5F5F5F5F5F5F5F5F5F5F5F5F5F5F5F5F5F5F5F5F5F5F5F5F5F5F5F5F5F5F5F5F5F5F5F5F5DCBEF5F5F5F5F5F5F5F5F5F5F5F5F5F5F5F5F5F5E2E2E2F5F5F5F5F5F5F5
310
F5F5F5F5F5F5F5F5F5F5F5BEF5F5F5F5F5F5F5F5F5F5F5F5F5F5F5F5F5F5F5F5F5F5F5F5F5F5F5F5F5F5F5F5F5F5F5F5F5F5F5F5F5F5F5F5F5F5F5F5F5F5F5F5F5F5F5F5F5F5F5F5F5F5F5F5F5F5F5F5F5F5F5F5F5F5F5F5DCF5F5F5F5F5F5F5F5F5F5F5F5F5F5F5F5F5F5F5F5F5F5F5F5F5F5F5F5F5F5F5F5F5F5F5F5F5F5
310
F5F5F5F5F5F5F5F5F5F5F5F5F5F5F5F5F5F5F5F5F5F5F5DCBEF5F5F5F5F5F5F5F5F5F5F5F5F5F5F5F5F5F5E2E2E2F5F5F5F5F5F5F5F5F5F5F5F5F5F5F5F5F5F5BEF5F5F5F5F5F5F5F5F5F5F5F5F5F5F5F5F5F5F5F5F5F5F5F5F5F5F5F5F5F5F5F5F5F5F5F5F5F5F5F5F5F5F5F5F5F5F5F5F5F5F5F5F5F5F5F5F5F5F5F5F5F5
310
F5F5F5F5F5F5F5F5F5F5F5F5F5F5DCF5F5F5F5F5F5F5F5F5F5F5F5F5F5F5F5F5F5F5F5F5F5F5F5F5F5F5F5F5F5F5F5F5F5F5F5F5F5F5F5F5F5F5F5F5F5F5F5F5F5F5F5F5F5F5F5F5F5F5F5F5DCBEF5F5F5F5F5F5F5F5F5F5F5F5F5F5F5F5F5F5E2E2E2F5E2F5F5F5F5F5F5F5F5F5F5F5F5F5F5F5F5BEF5F5F5F5F5F5F5F5F5
310
F5F5F5F5F5F5F5F5F5F5F5F5F5F5F5F5F5F5F5F5F5F5F5F5F5F5F5F5F5F5F5F5F5F5F5F5F5F5F5F5F5F5F5F5F5F5F5F5F5F5F5F5F5F5F5F5F5F5F5F5F5F5F5F5F5F5F5DCF5F5F5F5F5F5F5F5F5F5F5F5F5F5F5F5F5F5F5F5F5F5F5F5F5F5F5F5F5F5F5F5F5F5F5F5F5F5F5F5F5F5F5F5F5F5F5F5F5F5F5F5F5F5F5F5F5F5F5
310
F5F5DCBEF5F5F5F5F5F5F5F5F5F5F5F5F5F5F5F5E2F5E2E2E2F5E2F5F5F5F5F5F5F5F5F5F5F5F5F5F5F5F5BEF5F5F5F5F5F5F5F5F5F5F5F5F5F5F5F5F5F5F5F5F5F5F5F5F5F5F5F5F5F5F5F5F5F5F5F5F5F5F5F5F5F5F5F5F5F5F5F5F5F5F5F5F5F5F5F5F5F5F5F5F5F5F5F5F5F5F5F5F5F5F5F5F5F5F5F5DCF5F5F5F5F5F5
310
F5F5F5F5F5F5F5F5F5F5F5F5F5F5F5F5F5F5F5F5F5F5F5F5F5F5F5F5F5F5F5F5F5F5F5F5F5F5F5F5F5F5F5F5F5F5F5F5F5F5F5F5F5F5F5DCBEF5F5F5F5F5F5F5F5F5F5F5F5F5F5F5F5E2F5E2E2E2F5E2F5F5F5F5F5F5F5F5F5F5F5F5F5F5F5F5BEF5F5F5F5F5F5F5F5F5F5F5F5F5F5F5F5F5F5F5F5F5F5F5F5F5F5F5F5F5F5
310
F5F5F5F5F5F5F5F5F5F5F5F5F5F5F5F5F5F5F5F5F5F5F5F5F5F5F5F5F5F5F5F5F5F5F5F5F5F5F5F5F5F5F5F5F5F5DCF5F5F5F5F5F5F5F5F5F5F5F5F5F5F5F5F5F5F5F5F5F5F5F5F5F5F5F5F5F5F5F5F5F5F5F5F5F5F5F5F5F5F5F5F5F5F5F5F5F5F5F5F5F5F5F5F5F5F5F5F5DCBEF5F5F5F5F5F5F5F5F5F5F5F5F5F5F5F5E2
310
F5E2E2E2F5E2F5F5F5F5F5F5F5F5F5F5F5F5F5F5F5F5BEF5F5F5F5F5F5F5F5F5F5F5F5F5F5F5F5F5F5F5F5F5F5F5F5F5F5F5F5F5F5F5F5F5F5F5F5F5F5F5F5F5F5F5F5F5F5F5F5F5F5F5F5F5F5F5F5F5F5F5F5F5F5F5F5F5F5F5F5F5F5F5F5F5F5F5F5DCF5F5F5F5F5F5F5F5F5F5F5F5F5F5F5F5F5F5F5F5F5F5F5F5F5F5F5
310
F5F5F5F5F5F5F5F5F5F5F5F5F5F5F5F5F5F5F5F5F5F5F5F5F5F5F5F5F5F5F5F5F5F5DCBEF5F5F5F5F5F5F5F5F5F5F5F5F5F5F5F5E2F5E2E2E2F5E2F5F5F5F5F5F5F5F5F5F5F5F5F5F5F5F5BEF5F5F5F5F5F5F5F5F5F5F5F5F5F5F5F5F5F5F5F5F5F5F5F5F5F5F5F5F5F5F5F5F5F5F5F5F5F5F5F5F5F5F5F5F5F5F5F5F5F5F5
310
F5F5F5F5F5F5F5F5F5F5F5F5F5F5F5F5F5F5F5F5F5F5F5F5F5DCF5F5F5F5F5F5F5F5F5F5F5F5F5F5F5F5F5F5F5F5F5F5F5F5F5F5F5F5F5F5F5F5F5F5F5F5F5F5F5F5F5F5F5F5F5F5F5F5F5F5F5F5F5F5F5F5F5F5F5F5F5DCBEF5F5F5F5F5F5F5F5F5F5F5F5F5F5F5F5E2F5E2E2E2F5E2F5F5F5F5F5F5F5F5F5F5F5F5F5F5F5
310
F5BEF5F5F5F5F5F5F5F5F5F5F5F5F5F5F5F5F5F5F5F5F5F5F5F5F5F5F5F5F5F5F5F5F5F5F5F5F5F5F5F5F5F5F5F5F5F5F5F5F5F5F5F5F5F5F5F5F5F5F5F5F5F5F5F5F5F5F5F5F5F5F5F5F5F5F5F5DCF5F5F5F5F5F5F5F5F5F5F5F5F5F5F5F5F5F5F5F5F5F5F5F5F5F5F5F5F5F5F5F5F5F5F5F5F5F5F5F5F5F5F5F5F5F5F5F5
310
F5F5F5F5F5F5F5F5F5F5F5F5F5DCBEF5F5F5F5F5F5F5F5F5F5F5F5F5F5F5F5E2F5E2E2E2F5E2F5F5F5F5F5F5F5F5F5F5F5F5F5F5F5F5BEF5F5F5F5F5F5F5F5F5F5F5F5F5F5F5F5F5F5F5F5F5F5F5F5F5F5F5F5F5F5F5F5F5F5F5F5F5F5F5F5F5F5F5F5F5F5F5F5F5F5F5F5F5F5F5F5F5F5F5F5F5F5F5F5F5F5F5F5F5F5F5F5
310
F5F5F5F5DCF5F5F5F5F5F5F5F5F5F5F5F5F5F5F5F5F5F5F5F5F5F5F5F5F5F5F5F5F5F5F5F5F5F5F5F5F5F5F5F5F5F5F5F5F5F5F5F5F5F5F5F5F5F5F5F5F5F5F5F5F5DCBEF5F5F5F5F5F5F5F5F5F5F5F5F5F5F5F5E2F5E2E2E2F5E2F5F5F5F5F5F5F5F5F5F5F5F5F5F5F5F5BEF5F5F5F5F5F5F5F5F5F5F5F5F5F5F5F5F5F5F5
310
F5F5F5F5F5F5F5F5F5F5F5F5F5F5F5F5F5F5F5F5F5F5F5F5F5F5F5F5F5F5F5F5F5F5F5F5F5F5F5F5F5F5F5F5F5F5F5F5F5F5F5F5F5F5F5F5F5DCF5F5F5F5F5F5F5F5F5F5F5F5F5F5F5F5F5F5F5F5F5F5F5F5F5F5F5F5F5F5F5F5F5F5F5F5F5F5F5F5F5F5F5F5F5F5F5F5F5F5F5F5F5F5F5F5F5F5F5F5F5DCBEF5F5F5F5F5F5
310
F5F5F5F5F5F5F5F5F5F5E2F5E2E2E2F5E2F5F5F5F5F5F5F5F5F5F5F5F5F5F5F5F5BEF5F5F5F5F5F5F5F5F5F5F5F5F5F5F5F5F5F5F5F5F5F5F5F5F5F5F5F5F5F5F5F5F5F5F5F5F5F5F5F5F5F5F5F5F5F5F5F5F5F5F5F5F5F5F5F5F5F5F5F5F5F5F5F5F5F5F5F5F5F5F5F5F5F5F5F5DCF5F5F5F5F5F5F5F52727272727272727
310
2727272727272727272727272727272727272727272727272727272727272727F5F5F5F5F5F5F5F5F5F5F5F5F5DCBEF5F5F5F5F5F5F5F5F5F5F5F5F5F5F5F5E2F5E2E2E2F5E2F5F5F5F5F5F5F5F5F5F5F5F5F5F5F5F5BEF5F5F5F5F5F5F5F5F5F5F5F5F5F5F5F5F5F5F5F5F5F5F5F5F5F5F5F5F5F5F5F5F5F5F5F5F5F5F5F5
310
F5F5F5F5F5F5F5F5F5F5F5F5F5F5F5F5F5F5F5F5F5F5F5F5F5F5F5F5F5F5F5F5F5F5F5F5DCF5F5F5F5F5F5F5F527272727272727272727272727272727272727272727272727272727272727272727272727272727F5F5F5F5F5F5F5F5F5F5F5F5F5DCBEF5F5F5F5F5F5F5F5F5F5F5F5F5F5F5F5E2F5E2E2E2F5E2F5F5F5F5
310
F5F5F5F5F5F5F5F5F5F5F5F5BEF5F5F5F5F5F5F5F5F5F5F5F5F5F5F5F5F5F5F5F5F5F5F5F5F5F5F5F5F5F5F5F5F5F5F5F5F5F5F5F5F5F5F5F5F5F5F5F5F5F5F5F5F5F5F5F5F5F5F5F5F5F5F5F5F5F5F5F5F5F5F5F5F5F5F5F5DCF5F5F5F5F5F5F5F5272727272727272727272727F5F5F5F5F5F5F5F5F5F5F5F5F5F5F5F5F5
310
F5F5F5F5F5F5F5F5F5F5F5F5F5F5F5F5F5F5F5F5F5F5F5F5DCBEF5F5F5F5F5F5F5F5F5F5F5F5F5F5F5F5E2F5E2E2E2F5E2F5F5F5F5F5F5F5F5F5F5F5F5F5F5F5F5BEF5F5F5F5F5F5F5F5F5F5F5F5F5F5F5F5F5F5F5F5F5F5F5F5F5F5F5F5F5F5F5F5F5F5F5F5F5F5F5F5F5F5F5F5F5F5F5F5F5F5F5F5F5F5F5F5F5F5F5F5F5
310
F5F5F5F5F5F5F5F5F5F5F5F5F5F5F5DCF5F5F5F5F5F5F5F5272727272727272727272727F5F5F5F5F5F5F5F5F5F5F5F5F5F5F5F5F5F5F5F5F5F5F5F5F5F5F5F5F5F5F5F5F5F5F5F5F5F5F5F5F5DCBEF5F5F5F5F5F5F5F5F5F5F5F5F5F5F5F5E2F5E2E2E2F5E2F5F5F5F5F5F5F5F5F5F5F5F5F5F5F5F5BEF5F5F5F5F5F5F5F5
310
F5F5F5F5F5F5F5F5F5F5F5F5F5F5F5F5F5F5F5F5F5F5F5F5F5F5F5F5F5F5F5F5F5F5F5F5F5F5F5F5F5F5F5F5F5F5F5F5F5F5F5F5F5F5F5F5F5F5F5F5F5F5F5F5F5F5F5F5DCF5F5F5F5F5F5F5F5F5F5F5F5F5F5F5F5F5F5F5F5F5F5F5F5F5F5F5F5F5F5F5F5F5F5F5F5F5F5F5F5F5F5F5F5F5F5F5F5F5F5F5F5F5F5F5F5F5F5
310
F5F5F5DCBEF5F5F5F5F5F5F5F5F5F5F5F5F5F5F5F5E2F5E2E2E2F5E2F5F5F5F5F5F5F5F5F5F5F5F5F5F5F5F5BEF5F5F5F5F5F5F5F5F5F5F5F5F5F5F5F5F5F5F5F5F5F5F5F5F5F5F5F5F5F5F5F5F5F5F5F5F5F5F5F5F5F5F5F5F5F5F5F5F5F5F5F5F5F5F5F5F5F5F5F5F5F5F5F5F5F5F5F5F5F5F5F5F5F5F5F5DCF5F5F5F5F5
310
F5F5F5F5F5F5F5F5F5F5F5F5F5F5F5F5F5F5F5F5F5F5F5F5F5F5F5F5F5F5F5F5F5F5F5F5F5F5F5F5F5F5F5F5F5F5F5F5F5F5F5F5F5F5F5F5DCBEF5F5F5F5F5F5F5F5F5F5F5F5F5F5F5F5E2F5E2E2E2F5E2F5F5F5F5F5F5F5F5F5F5F5F5F5F5F5F5BEF5F5F5F5F5F5F5F5F5F5F5F5F5F5F5F5F5F5F5F5F5F5F5F5F5F5F5F5F5
310
F5F5F5F5F5F5F5F5F5F5F5F5F5F5F5F5F5F5F5F5F5F5F5F5F5F5F5F5F5F5F5F5F5F5F5F5F5F5F5F5F5F5F5F5F5F5F5DCDCDCDCDCDCDCDCDCDCDCDCDCDCDCDCDCDCDCDCDCDCDCDCDCDCDCDCDCDCDCDCDCDCDCDCDCDCDCDCDCDCDCDCDCDCDCDCDCDCDCDCDCDCDCDCDCDCDCDCDCDCDCBEF5F5F5F5F5F5F5F5F5F5F5F5F5F5F5F5
310
E2F5E2E2E2F5E2F5F5F5F5F5F5F5F5F5F5F5F5F5F5F5F5BEF5F5F5F5F5F5F5F5F5F5F5F5F5F5F5F5F5F5F5F5F5F5F5F5F5F5F5F5F5F5F5F5F5F5F5F5F5F5F5F5F5F5F5F5F5F5F5F5F5F5F5F5F5F5F5F5F5F5F5F5F5F5F5F5F5F5F5F5F5F5F5F5F5F5F5F5F5F5F5F5F5F5F5F5F5F5F5F5F5F5F5F5F5F5F5F5F5F5F5F5F5F5F5
310
F5F5F5F5F5F5F5F5F5F5F5F5F5F5F5F5F5F5F5F5F5F5F5F5F5F5F5F5F5F5F5F5F5F5F5F5BEF5F5F5F5F5F5F5F5F5F5F5F5F5F5F5F5E2F5E2E2E2F5F5F5F5F5F5F5F5F5F5F5F5F5F5F5F5F5F5BEF5F5F5F5F5F5F5F5F5F5F5F5F5F5F5F5F5F5F5F5F5F5F5F5F5F5F5F5F5F5F5F5F5F5F5F5F5F5F5F5F5F5F5F5F5F5F5F5F5F5
310
F5F5F5F5F5F5F5F5F5F5F5F5F5F5F5F5F5F5F5F5F5F5F5F5F5F5F5F5F5F5F5F5F5F5F5F5F5F5F5F5F5F5F5F5F5F5F5F5F5F5F5F5F5F5F5F5F5F5F5F5F5F5F5F5F5F5F5F5F5F5F5F5F5F5F5F5F5F5F5F5F5F5F5F5F5F5F5F5F5BEF5F5F5F5F5F5F5F5F5F5F5F5F5F5F5F5F5F5E2E2E2F5F5F5F5F5F5F5F5F5F5F5F5F5F5F5F5
310
F5F5BEF5F5F5F5F5F5F5F5F5F5F5F5F5F5F5F5F5F5F5F5F5F5F5F5F5F5F5F5F5F5F5F5F5F5F5F5F5F5F5F5F5F5F5F5F5F5F5F5F5F5F5F5F5F5F5F5F5F5F5F5F5F5F5F5F5F5F5F5F5F5F5F5F5F5F5F5F5F5F5F5F5F5F5F5F5F5F5F5F5F5F5F5F5F5F5F5F5F5F5F5F5F5F5F5F5F5F5F5F5F5F5F5F5F5F5F5F5F5F5F5F5F5F5F5
310
F5F5F5F5F5F5F5F5F5F5F5F5F5F5F5BEF5F5F5F5F5F5F5F5F5F5F5F5F5F5F5F5F5F5E2E2E2F5F5F5F5F5F5F5F5F5F5F5F5F5F5F5F5F5F5BEF5F5F5F5F5F5F5F5F5F5F5F5F5F5F5F5F5F5F5F5F5F5F5F5F5F5F5F5F5F5F5F5F5F5F5F5F5F5F5F5F5F5F5F5F5F5F5F5F5F5F5F5F5F5F5F5F5F5F5F5F5F5F5F5F5F5F5F5F5F5F5
310
F5F5F5F5F5F5F5F5F5F5F5F5F5F5F5F5F5F5F5F5F5F5F5F5F5F5F5F5F5F5F5F5F5F5F5F5F5F5F5F5F5F5F5F5F5F5F5F5F5F5F5F5F5F5F5F5F5F5F5F5F5F5F5F5F5F5F5F5BEF5F5F5F5F5F5F5F5F5F5F5F5F5F5F5F5F5F5E2E2E2F5F5F5F5F5F5F5F5F5F5F5F5F5F5F5F5F5F5BEF5F5F5F5F5F5F5F5F5F5F5F5F5F5F5F5F5F5
310
F5F5F5F5F5F5F5F5F5F5F5F5F5F5F5F5F5F5F5F5F5F5F5F5F5F5F5F5F5F5F5F5F5F5F5F5F5F5F5F5F5F5F5F5F5F5F5F5F5F5F5F5F5F5F5F5F5F5F5F5F5F5F5F5F5F5F5F5F5F5F5F5F5F5F5F5F5F5F5F5F5F5F5F5F5F5F5F5F5F5F5F5F5F5F5F5F5F5F5F5F5F5F5F5F5F5F5F5F5F5F5F5F5F5F5F5F5F5F5F5F5BEF5F5F5F5F5
310
F5F5F5F5F5F5F5F5F5F5F5F5F5E2E2E2F5F5F5F5F5F5F5F5F5F5F5F5F5F5F5F5F5F5BEBEBEBEBEBEBEBEBEBEBEBEBEBEBEBEBEBEBEBEBEBEBEBEBEBEBEBEBEBEBEBEBEBEBEBEBEBEBEBEBEBEBEBEBEBEBEBEBEBEBEBEBEBEBEBEBEBEBEBEBEBEBEBEBEBEBEBEBEBEBEBEBEBEBEBEBEBEBEBEBEBEBEBEBEBEBEBEBEBEBEBEBE
310
BEBEBEBEBEBEBEBEBEBEBEBEBEBEBEBEBEBEBEBEBEBEBEBEBEBEBEBEBEBEBEBEBEBEBEBEBEBEBEBEBEBEBEBEBEBEBEBEF5F5F5F5F5F5F5F5F5F5F5F5F5F5F5F5F5F5E2E2E2F5F5F5F5F5F5F5F5F5F5F5F5F5F5F5F5F5F5F5F5F5F5F5F5F5F5F5F5F5F5F5F5F5F5F5F5F5F5F5F5F5F5F5F5F5F5F5F5F5F5F5F5F5F5F5F5F5F5
310
F5F5F5F5F5F5F5F5F5F5F5F5F5F5F5F5F5F5F5F5F5F5F5F5F5F5F5F5F5F5F5F5F5F5F5F5F5F5F5F5F5F5F5F5F5F5F5F5F5F5F5F5F5F5F5F5F5F5F5F5F5F5F5F5F5F5F5F5F5F5F5F5F5F5F5F5F5F5F5F5F5F5F5F5F5F5F5F5F5F5F5F5F5F5F5F5F5F5F5F5F5F5F5F5F5F5F5F5F5F5F5F5F5F5F5F5F5F5F5E2E2E2F5F5F5F5F5
310
F5F5F5F5F5F5F5F5F5F5F5F5F5F5F5F5F5F5F5F5F5F5F5F5F5F5F5F5F5F5F5F5F5F5F5F5F5F5F5F5F5F5F5F5F5F5F5F5F5F5F5F5F5F5F5F5F5F5F5F5F5F5F5F5F5F5F5F5F5F5F5F5F5F5F5F5F5F5F5F5F5F5F5F5F5F5F5F5F5F5F5F5F5F5F5F5F5F5F5F5F5F5F5F5F5F5F5F5F5F5F5F5F5F5F5F5F5F5F5F5F5F5F5F5F5F5F5
310
F5F5F5F5F5F5F5F5F5F5F5F5F5F5F5F5F5F5F5F5F5F5F5F5F5F5F5F5F5F5F5F5F5F5F5F5F5F5F5F5F5F5F5F5F5E2E2E2F5F5F5F5F5F5F5F5F5F5F5F5F5F5F5F5F5F5F5F5F5F5F5F5F5F5F5F5F5F5F5F5F5F5F5F5F5F5F5F5F5F5F5F5F5F5F5F5F5F5F5F5F5F5F5F5F5F5F5F5F5F5F5F5F5F5F5F5F5F5F5F5F5F5F5F5F5F5F5
310
F5F5F5F5F5F5F5F5F5F5F5F5F5F5F5F5F5F5F5F5F5F5F5F5F5F5F5F5F5F5F5F5F5F5F5F5F5F5F5F5F5F5F5F5F5F5F5F5F5F5F5F5F5F5F5F5F5F5F5F5F5F5F5F5F5F5F5F5F5F5F5F5F5F5F5F5F5F5F5F5F5F5F5F5F5F5F5F5F5F5F5F5F5F5F5F5F5F5E2E2E2F5F5F5F5F5F5F5F5F5F5F5F5F5F5F5F5F5F5F5F5F5F5F5F5F5F5
310
F5F5F5F5F5F5F5F5F5F5F5F5F5F5F5F5F5F5F5F5F5F5F5F5F5F5F5F5F5F5F5F5F5F5F5F5F5F5F5F5F5F5F5F5F5F5F5F5F5F5F5F5F5F5F5F5F5F5F5F5F5F5F5F5F5F5F5F5F5F5F5F5F5F5F5F5F5F5F5F5F5F5F5F5F5F5F5F5F5F5F5F5F5F5F5F5F5F5F5F5F5F5F5F5F5F5F5F5F5F5F5F5F5F5F5F5F5F5F5F5F5F5F5F5F5F5F5
310
F5F5F5F5F5F5F5F5F5F5F5F5F5F5F5F5F5F5F5F5F5F5F5F5E2E2E2F5E2F5F5F5F5F5F5F5F5F5F5F5F5F5F5F5F5F5F5F5F5F5F5F5F5F5F5F5F5F5F5F5F5F5F5F5F5F5F5F5F5F5F5F5F5F5F5F5F5F5F5F5F5F5F5F5F5F5F5F5F5F5F5F5F5F5F5F5F5F5F5F5F5F5F5F5F5F5F5F5F5F5F5F5F5F5F5F5F5F5F5F5F5F5F5F5F5F5F5
310
F5F5F5F5F5F5F5F5F5F5F5F5F5F5F5F5F5F5F5F5F5F5F5F5F5F5F5F5F5F5F5F5F5F5F5F5F5F5F5F5F5F5F5F5F5F5F5F5F5F5F5F5F5F5F5F5F5F5F5F5F5F5F5F5F5F5F5F5F5F5F5F5F5F5F5E2F5E2E2E2F5E2F5F5F5F5F5F5F5F5F5F5F5F5F5F5F5F5F5F5F5F5F5F5F5F5F5F5F5F5F5F5F5F5F5F5F5F5F5F5F5F5F5F5F5F5F5
310
F5F5F5F5F5F5F5F5F5F5F5F5F5F5F5F5F5F5F5F5F5F5F5F5F5F5F5F5F5F5F5F5F5F5F5F5F5F5F5F5F5F5F5F5F5F5F5F5F5F5F5F5F5F5F5F5F5F5F5F5F5F5F5F5F5F5F5F5F5F5F5F5F5F5F5F5F5F5F5F5F5F5F5F5F5F5F5F5F5F5F5F5F5F5F5F5F5F5F5F5F5F5F5F5F5F5F5F5F5F5F5F5F5F5F5F5F5F5F5F5F5F5F5F5F5F5F5
310
F5E2F5E2E2E2F5E2F5F5F5F5F5F5F5F5F5F5F5F5F5F5F5F5F5F5F5F5F5F5F5F5F5F5F5F5F5F5F5F5F5F5F5F5F5F5F5F5F5F5F5F5F5F5F5F5F5F5F5F5F5F5F5F5F5F5F5F5F5F5F5F5F5F5F5F5F5F5F5F5F5F5F5F5F5F5F5F5F5F5F5F5F5F5F5F5F5F5F5F5F5F5F5F5F5F5F5F5F5F5F5F5F5F5F5F5F5F5F5F5F5F5F5F5F5F5F5
310
F5F5F5F5F5F5F5F5F5F5F5F5F5F5F5F5F5F5F5F5F5F5F5F5F5F5F5F5F5F5F5F5F5F5F5F5F5F5F5F5F5F5F5F5F5F5F5F5F5F5F5F5F5F5E2F5E2E2E2F5E2F5F5F5F5F5F5F5F5F5F5F5F5F5F5F5F5F5F5F5F5F5F5F5F5F5F5F5F5F5F5F5F5F5F5F5F5F5F5F5F5F5F5F5F5F5F5F5F5F5F5F5F5F5F5F5F5F5F5F5F5F5F5F5F5F5F5
310
F5F5F5F5F5F5F5F5F5F5F5F5F5F5F5F5F5F5F5F5F5F5F5F5F5F5F5F5F5F5F5F5F5F5F5F5F5F5F5F5F5F5F5F5F5F5F5F5F5F5F5F5F5F5F5F5F5F5F5F5F5F5F5F5F5F5F5F5F5F5F5F5F5F5F5F5F5F5F5F5F5F5F5F5F5F5F5F5F5F5F5F5F5F5F5F5F5F5F5F5F5F5F5F5F5F5F5E2F5E2E2E2F5E2F5F5F5F5F5F5F5F5F5F5F5F5F5
310
F5F5F5F5F5F5F5F5F5F5F5F5F5F5F5F5F5F5F5F5F5F5F5F5F5F5F5F5F5F5F5F5F5F5F5F5F5F5F5F5F5F5F5F5F5F5F5F5F5F5F5F5F5F5F5F5F5F5F5F5F5F5F5F5F5F5F5F5F5F5F5F5F5F5F5F5F5F5F5F5F5F5F5F5F5F5F5F5F5F5F5F5F5F5F5F5F5F5F5F5F5F5F5F5F5F5F5F5F5F5F5F5F5F5F5F5F5F5F5F5F5F5F5F5F5F5F5
310
F5F5F5F5F5F5F5F5F5F5F5F5F5F5F5F5F5F5F5F5F5F5F5F5F5F5F5F5F5F5F5F5F5E2F5E2E2E2F5E2F5F5F5F5F5F5F5F5F5F5F5F5F5F5F5F5F5F5F5F5F5F5F5F5F5F5F5F5F5F5F5F5F5F5F5F5F5F5F5F5F5F5F5F5F5F5F5F5F5F5F5F5F5F5F5F5F5F5F5F5F5F5F5F5F5F5F5F5F5F5F5F5F5F5F5F5F5F5F5F5F5F5F5F5F5F5F5
310
F5F5F5F5F5F5F5F5F5F5F5F5F5F5F5F5F5F5F5F5F5F5F5F5F5F5F5F5F5F5F5F5F5F5F5F5F5F5F5F5F5F5F5F5F5F5F5F5F5F5F5F5F5F5F5F5F5F5F5F5F5F5F5F5F5F5F5F5F5F5F5F5F5F5F5F5F5F5F5F5F5F5F5F5F5F5E2F5E2E2E2F5E2F5F5F5F5F5F5F5F5F5F5F5F5F5F5F5F5F5F5F5F5F5F5F5F5F5F5F5F5F5F5F5F5F5F5
310
F5F5F5F5F5F5F5F5F5F5F5F5F5F5F5F5F5F5F5F5F5F5F5F5F5F5F5F5F5F5F5F5F5F5F5F5F5F5F5F5F5F5F5F5F5F5F5F5F5F5F5F5F5F5F5F5F5F5F5F5F5F5F5F5F5F5F5F5F5F5F5F5F5F5F5F5F5F5F5F5F5F5F5F5F5F5F5F5F5F5F5F5F5F5F5F5F5F5F5F5F5F5F5F5F5F5F5F5F5F5F5F5F5F5F5F5F5F5F5F5F5F5F5F5F5F5F5
310
F5F5F5F5F5F5F5F5F5F5F5F5E2F5E2E2E2F5E2E2E2E2E2E2E2E2F5F5F5F5F5F5F5F5F5E2E2E2E2E2E2E2E2E2E2E2E2E2E2E2E2F5F5F5F5F5F5F5F5F5E2E2E2E2E2E2E2E2E2E2E2E2E2E2E2E2F5F5F5F5F5F5F5F5F5E2E2E2E2E2E2E2E2E2E2E2E2E2E2E2E2F5F5F5F5F5F5F5F5F5E2E2E2E2E2E2E2E2E2E2E2E2E2E2E2E2F5
310
F5F5F5F5F5F5F5F5E2E2E2E2E2E2E2E2E2E2E2E2E2E2E2E2F5F5F5F5F5F5F5F5F5E2E2E2E2E2E2E2E2E2E2E2E2E2E2E2E2F5F5F5F5F5F5F5F5F5E2E2E2E2E2E2E2E2F5E2E2E2F5F5F5F5F5F5F5F5F5F5F5F5F5F5F5F5F5F5F5F5F5F5F5F5F5F5F5F5F5F5F5F5F5F5F5F5F5F5F5F5F5F5F5F5F5F5F5F5F5F5F5F5F5F5F5F5F5
310
F5F5F5F5F5F5F5F5F5F5F5F5F5F5F5F5F5F5F5F5F5F5F5F5F5F5F5F5F5F5F5F5F5F5F5F5F5F5F5F5F5F5F5F5F5F5F5F5F5F5F5F5F5F5F5F5F5F5F5F5F5F5F5F5F5F5F5F5F5F5F5F5F5F5F5F5F5F5F5F5F5F5F5F5F5F5F5F5F5F5F5F5F5F5F5F5F5F5F5F5F5F5F5F5F5F5F5F5F5F5F5F5F5F5F5F5F5F5F5F5E2EFE2E2E2E2E2
310
E2E2E2E2E2E2E2E2E2E2E2E2E2E2E2E2E2E2E2E2E2E2E2E2E2E2E2E2E2E2E2E2E2E2E2E2E2E2E2E2E2E2E2E2E2E2E2E2E2E2E2E2E2E2E2E2E2E2E2E2E2E2E2E2E2E2E2E2E2E2E2E2E2E2E2E2E2E2E2E2E2E2E2E2E2E2E2E2E2E2E2E2E2E2E2E2E2E2E2E2E2E2E2E2E2E2E2E2E2E2E2E2E2E2E2E2E2E2E2E2E2E2E2E2E2E2E2
310
E2E2E2E2E2E2E2E2E2E2E2E2E2E2E2E2E2E2E2E2E2E2E2E2E2E2E2E2E2E2E2E2E2E2E2E2E2E2E2E2E2E2E2E2E2E2E2EF
  0
XRECORD
  5
1A93
102
{ACAD_REACTORS
330
1A92
102
}
330
1A92
100
AcDbXrecord
280
     1
102
SHADEPLOT
 70
     1
102
SHADEPLOTRESLEVEL
 70
     2
102
SHADEPLOTCUSTOMDPI
 70
   300
  0
XRECORD
  5
1A97
102
{ACAD_REACTORS
330
1A96
102
}
330
1A96
100
AcDbXrecord
280
     1
102
MATERIAL
148
0.0
149
0.0
149
0.0
 93
        0
 94
       63
282
     0
 72
     1
 77
     1
171
     1
175
     1
179
     1
273
     0
  0
XRECORD
  5
1A95
102
{ACAD_REACTORS
330
1A94
102
}
330
1A94
100
AcDbXrecord
280
     1
102
MATERIAL
148
0.0
149
0.0
149
0.0
 93
        0
 94
       63
282
     0
 72
     1
 77
     1
171
     1
175
     1
179
     1
273
     0
  0
XRECORD
  5
1A91
102
{ACAD_REACTORS
330
1A90
102
}
330
1A90
100
AcDbXrecord
280
     1
102
MATERIAL
148
0.0
149
0.0
149
0.0
 93
        0
 94
       63
282
     0
 72
     1
 77
     1
171
     1
175
     1
179
     1
273
     0
  0
CELLSTYLEMAP
  5
1A8E
102
{ACAD_REACTORS
330
5B
102
}
330
5B
100
AcDbCellStyleMap
 90
        3
300
CELLSTYLE
  1
TABLEFORMAT_BEGIN
 90
        5
170
     1
 91
        0
 92
    32768
 62
   257
 93
        1
300
CONTENTFORMAT
  1
CONTENTFORMAT_BEGIN
 90
        0
 91
        0
 92
        4
 93
        0
300

 40
0.0
140
1.0
 94
        5
 62
     0
340
21
144
0.25
309
CONTENTFORMAT_END
171
     0
 94
        6
 95
        1
302
GRIDFORMAT
  1
GRIDFORMAT_BEGIN
 90
        0
 91
        1
 62
     0
 92
       -2
340
0
 93
        0
 40
0.045
309
GRIDFORMAT_END
 95
        2
302
GRIDFORMAT
  1
GRIDFORMAT_BEGIN
 90
        0
 91
        1
 62
     0
 92
       -2
340
0
 93
        0
 40
0.045
309
GRIDFORMAT_END
 95
        4
302
GRIDFORMAT
  1
GRIDFORMAT_BEGIN
 90
        0
 91
        1
 62
     0
 92
       -2
340
0
 93
        0
 40
0.045
309
GRIDFORMAT_END
 95
        8
302
GRIDFORMAT
  1
GRIDFORMAT_BEGIN
 90
        0
 91
        1
 62
     0
 92
       -2
340
0
 93
        0
 40
0.045
309
GRIDFORMAT_END
 95
       16
302
GRIDFORMAT
  1
GRIDFORMAT_BEGIN
 90
        0
 91
        1
 62
     0
 92
       -2
340
0
 93
        0
 40
0.045
309
GRIDFORMAT_END
 95
       32
302
GRIDFORMAT
  1
GRIDFORMAT_BEGIN
 90
        0
 91
        1
 62
     0
 92
       -2
340
0
 93
        0
 40
0.045
309
GRIDFORMAT_END
309
TABLEFORMAT_END
  1
CELLSTYLE_BEGIN
 90
        1
 91
        1
300
_TITLE
309
CELLSTYLE_END
300
CELLSTYLE
  1
TABLEFORMAT_BEGIN
 90
        5
170
     1
 91
        0
 92
        0
 62
   257
 93
        1
300
CONTENTFORMAT
  1
CONTENTFORMAT_BEGIN
 90
        0
 91
        0
 92
        4
 93
        0
300

 40
0.0
140
1.0
 94
        5
 62
     0
340
21
144
0.18
309
CONTENTFORMAT_END
171
     0
 94
        6
 95
        1
302
GRIDFORMAT
  1
GRIDFORMAT_BEGIN
 90
        0
 91
        1
 62
     0
 92
       -2
340
0
 93
        0
 40
0.045
309
GRIDFORMAT_END
 95
        2
302
GRIDFORMAT
  1
GRIDFORMAT_BEGIN
 90
        0
 91
        1
 62
     0
 92
       -2
340
0
 93
        0
 40
0.045
309
GRIDFORMAT_END
 95
        4
302
GRIDFORMAT
  1
GRIDFORMAT_BEGIN
 90
        0
 91
        1
 62
     0
 92
       -2
340
0
 93
        0
 40
0.045
309
GRIDFORMAT_END
 95
        8
302
GRIDFORMAT
  1
GRIDFORMAT_BEGIN
 90
        0
 91
        1
 62
     0
 92
       -2
340
0
 93
        0
 40
0.045
309
GRIDFORMAT_END
 95
       16
302
GRIDFORMAT
  1
GRIDFORMAT_BEGIN
 90
        0
 91
        1
 62
     0
 92
       -2
340
0
 93
        0
 40
0.045
309
GRIDFORMAT_END
 95
       32
302
GRIDFORMAT
  1
GRIDFORMAT_BEGIN
 90
        0
 91
        1
 62
     0
 92
       -2
340
0
 93
        0
 40
0.045
309
GRIDFORMAT_END
309
TABLEFORMAT_END
  1
CELLSTYLE_BEGIN
 90
        2
 91
        1
300
_HEADER
309
CELLSTYLE_END
300
CELLSTYLE
  1
TABLEFORMAT_BEGIN
 90
        5
170
     1
 91
        0
 92
        0
 62
   257
 93
        1
300
CONTENTFORMAT
  1
CONTENTFORMAT_BEGIN
 90
        0
 91
        0
 92
        4
 93
        0
300

 40
0.0
140
1.0
 94
        2
 62
     0
340
21
144
0.18
309
CONTENTFORMAT_END
171
     0
 94
        6
 95
        1
302
GRIDFORMAT
  1
GRIDFORMAT_BEGIN
 90
        0
 91
        1
 62
     0
 92
       -2
340
0
 93
        0
 40
0.045
309
GRIDFORMAT_END
 95
        2
302
GRIDFORMAT
  1
GRIDFORMAT_BEGIN
 90
        0
 91
        1
 62
     0
 92
       -2
340
0
 93
        0
 40
0.045
309
GRIDFORMAT_END
 95
        4
302
GRIDFORMAT
  1
GRIDFORMAT_BEGIN
 90
        0
 91
        1
 62
     0
 92
       -2
340
0
 93
        0
 40
0.045
309
GRIDFORMAT_END
 95
        8
302
GRIDFORMAT
  1
GRIDFORMAT_BEGIN
 90
        0
 91
        1
 62
     0
 92
       -2
340
0
 93
        0
 40
0.045
309
GRIDFORMAT_END
 95
       16
302
GRIDFORMAT
  1
GRIDFORMAT_BEGIN
 90
        0
 91
        1
 62
     0
 92
       -2
340
0
 93
        0
 40
0.045
309
GRIDFORMAT_END
 95
       32
302
GRIDFORMAT
  1
GRIDFORMAT_BEGIN
 90
        0
 91
        1
 62
     0
 92
       -2
340
0
 93
        0
 40
0.045
309
GRIDFORMAT_END
309
TABLEFORMAT_END
  1
CELLSTYLE_BEGIN
 90
        3
 91
        2
300
_DATA
309
CELLSTYLE_END
  0
XRECORD
  5
1A98
102
{ACAD_REACTORS
330
5B
102
}
330
5B
100
AcDbXrecord
280
     1
102
ACAD_ROUNDTRIP_PRE2007_TABLESTYLE
 90
        4
 91
        0
  1

 92
        4
 93
        0
  2

 94
        4
 95
        0
  3

  0
ENDSEC
  0
EOF
